0
SECTION
2
HEADER
9
$ACADVER
1
AC1015
9
$DWGCODEPAGE
3
ANSI_1252
9
$HANDSEED
5
1c1
9
$ANGBASE
50
0
9
$ANGDIR
70
0
9
$ATTMODE
70
1
9
$AUNITS
70
0
9
$AUPREC
70
0
9
$CECOLOR
62
256
9
$CELTSCALE
40
1
9
$CELTYPE
6
ByLayer
9
$CELWEIGHT
370
18
9
$CLAYER
8
0
9
$CMLJUST
70
0
9
$CMLSCALE
40
1
9
$CMLSTYLE
2
Standard
9
$DIMSTYLE
2
Standard
9
$TEXTSIZE
40
0.2
9
$TEXTSTYLE
7
Standard
9
$LUNITS
70
2
9
$LUPREC
70
4
9
$EXTNAMES
290
1
9
$INSUNITS
70
4
9
$LTSCALE
40
1
9
$LWDISPLAY
290
1
9
$PDMODE
70
0
9
$PDSIZE
40
0
9
$PLINEGEN
70
0
0
ENDSEC
0
SECTION
2
CLASSES
0
CLASS
1
RASTERVARIABLES
2
AcDbRasterVariables
3
ISM
90
0
280
0
281
0
0
ENDSEC
0
SECTION
2
TABLES
0
TABLE
2
VPORT
5
1b7
100
AcDbSymbolTable
0
VPORT
5
1
100
AcDbSymbolTableRecord
100
AcDbViewportTableRecord
2
*Active
70
0
10
0
20
0
11
1
21
1
12
-1
22
1
13
0
23
0
14
0.5
24
0.5
15
10
25
10
16
0
26
0
36
1
17
0
27
0
37
0
0
ENDTAB
0
TABLE
2
LTYPE
5
1b8
100
AcDbSymbolTable
0
LTYPE
5
14
100
AcDbSymbolTableRecord
100
AcDbLinetypeTableRecord
70
0
2
ByBlock
3

72
65
73
0
40
0
0
LTYPE
5
15
100
AcDbSymbolTableRecord
100
AcDbLinetypeTableRecord
70
0
2
ByLayer
3

72
65
73
0
40
0
0
LTYPE
5
16
100
AcDbSymbolTableRecord
100
AcDbLinetypeTableRecord
70
0
2
CONTINUOUS
3
Solid line
72
65
73
0
40
0
0
LTYPE
5
6A
100
AcDbSymbolTableRecord
100
AcDbLinetypeTableRecord
70
0
2
CENTER
3
____ _ ____ _ ____ _ ____
72
65
73
4
40
47.5
49
22
74
0
49
-8.5
74
0
49
8.5
74
0
49
-8.5
74
0
0
LTYPE
5
6B
100
AcDbSymbolTableRecord
100
AcDbLinetypeTableRecord
70
0
2
DASHED
3
__ __ __ __ __ __ __ __ __
72
65
73
2
40
25.72
49
12.86
74
0
49
-12.86
74
0
0
ENDTAB
0
TABLE
2
LAYER
5
1b9
100
AcDbSymbolTable
0
LAYER
5
10
100
AcDbSymbolTableRecord
100
AcDbLayerTableRecord
2
0
70
0
62
7
6
CONTINUOUS
290
1
370
-3
390
0
0
LAYER
5
6D
100
AcDbSymbolTableRecord
100
AcDbLayerTableRecord
2
81
70
0
62
-3
6
CONTINUOUS
290
1
370
-3
390
0
0
LAYER
5
6F
100
AcDbSymbolTableRecord
100
AcDbLayerTableRecord
2
80
70
0
62
-6
6
CONTINUOUS
290
1
370
-3
390
0
0
LAYER
5
71
100
AcDbSymbolTableRecord
100
AcDbLayerTableRecord
2
2
70
0
62
7
6
CONTINUOUS
290
1
370
-3
390
0
0
LAYER
5
7A
100
AcDbSymbolTableRecord
100
AcDbLayerTableRecord
2
1
70
0
62
4
6
CONTINUOUS
290
1
370
-3
390
0
0
LAYER
5
88
100
AcDbSymbolTableRecord
100
AcDbLayerTableRecord
2
4
70
0
62
-2
6
CENTER
290
1
370
-3
390
0
0
LAYER
5
1a3
100
AcDbSymbolTableRecord
100
AcDbLayerTableRecord
2
SK2
70
0
62
7
6
CONTINUOUS
290
1
370
-3
390
0
0
LAYER
5
1a4
100
AcDbSymbolTableRecord
100
AcDbLayerTableRecord
2
SK1
70
0
62
4
6
CONTINUOUS
290
1
370
-3
390
0
0
LAYER
5
1a5
100
AcDbSymbolTableRecord
100
AcDbLayerTableRecord
2
SK4
70
0
62
2
6
CENTER
290
1
370
-3
390
0
0
LAYER
5
1a6
100
AcDbSymbolTableRecord
100
AcDbLayerTableRecord
2
SK6
70
0
62
5
6
CONTINUOUS
290
1
370
-3
390
0
0
ENDTAB
0
TABLE
2
STYLE
5
1ba
100
AcDbSymbolTable
0
STYLE
5
11
100
AcDbSymbolTableRecord
100
AcDbTextStyleTableRecord
2
Standard
3
txt
70
0
71
0
40
0
41
1
42
0
50
0
0
STYLE
5
DF
100
AcDbSymbolTableRecord
100
AcDbTextStyleTableRecord
2
iso_b_vert
3
simplex.shx
70
0
71
0
40
0
41
1
42
0
50
0
0
STYLE
5
E0
100
AcDbSymbolTableRecord
100
AcDbTextStyleTableRecord
2
DWGDirectTextStyle
3
simplex
70
0
71
0
40
0
41
1
42
0
50
0
0
ENDTAB
0
TABLE
2
DIMSTYLE
5
1bb
100
AcDbSymbolTable
100
AcDbDimStyleTable
0
DIMSTYLE
105
27
100
AcDbSymbolTableRecord
100
AcDbDimStyleTableRecord
2
Standard
70
0
3
<>
41
0.18
42
0.0625
44
0.18
140
0.18
147
0.09
73
0
74
0
77
1
271
2
275
0
278
52
280
0
340
11
0
ENDTAB
0
TABLE
2
VIEW
5
1bc
100
AcDbSymbolTable
0
ENDTAB
0
TABLE
2
UCS
5
1bd
100
AcDbSymbolTable
0
ENDTAB
0
TABLE
2
APPID
5
1be
100
AcDbSymbolTable
0
APPID
5
12
100
AcDbSymbolTableRecord
100
AcDbRegAppTableRecord
2
ACAD
70
0
0
ENDTAB
0
TABLE
2
BLOCK_RECORD
5
1bf
100
AcDbSymbolTable
0
BLOCK_RECORD
5
1F
100
AcDbSymbolTableRecord
100
AcDbBlockTableRecord
2
*Model_Space
340
0
70
0
0
BLOCK_RECORD
5
1B
100
AcDbSymbolTableRecord
100
AcDbBlockTableRecord
2
*Paper_Space
340
0
70
0
0
BLOCK_RECORD
5
23
100
AcDbSymbolTableRecord
100
AcDbBlockTableRecord
2
*Paper_Space0
340
0
70
0
0
BLOCK_RECORD
5
E2
100
AcDbSymbolTableRecord
100
AcDbBlockTableRecord
2
DimnDraft3D1
340
0
70
0
0
BLOCK_RECORD
5
ED
100
AcDbSymbolTableRecord
100
AcDbBlockTableRecord
2
DimnDraft3D2
340
0
70
0
0
BLOCK_RECORD
5
F7
100
AcDbSymbolTableRecord
100
AcDbBlockTableRecord
2
DimnDraft3D3
340
0
70
0
0
BLOCK_RECORD
5
101
100
AcDbSymbolTableRecord
100
AcDbBlockTableRecord
2
DimnDraft3D4
340
0
70
0
0
BLOCK_RECORD
5
10B
100
AcDbSymbolTableRecord
100
AcDbBlockTableRecord
2
DimnDraft3D5
340
0
70
0
0
BLOCK_RECORD
5
115
100
AcDbSymbolTableRecord
100
AcDbBlockTableRecord
2
DimnDraft3D6
340
0
70
0
0
BLOCK_RECORD
5
11F
100
AcDbSymbolTableRecord
100
AcDbBlockTableRecord
2
DimnDraft3D7
340
0
70
0
0
BLOCK_RECORD
5
129
100
AcDbSymbolTableRecord
100
AcDbBlockTableRecord
2
DimnDraft3D8
340
0
70
0
0
BLOCK_RECORD
5
134
100
AcDbSymbolTableRecord
100
AcDbBlockTableRecord
2
DimnDraft3D9
340
0
70
0
0
BLOCK_RECORD
5
13F
100
AcDbSymbolTableRecord
100
AcDbBlockTableRecord
2
DimnDraft3D10
340
0
70
0
0
ENDTAB
0
ENDSEC
0
SECTION
2
BLOCKS
0
BLOCK
5
20
100
AcDbEntity
8
0
100
AcDbBlockBegin
2
*Model_Space
70
0
10
0
20
0
30
0
3
*Model_Space
0
ENDBLK
5
21
100
AcDbEntity
8
0
100
AcDbBlockEnd
0
BLOCK
5
1C
100
AcDbEntity
8
0
100
AcDbBlockBegin
2
*Paper_Space
70
0
10
0
20
0
30
0
3
*Paper_Space
0
ENDBLK
5
1D
100
AcDbEntity
8
0
100
AcDbBlockEnd
0
BLOCK
5
24
100
AcDbEntity
8
0
100
AcDbBlockBegin
2
*Paper_Space0
70
0
10
0
20
0
30
0
3
*Paper_Space0
0
ENDBLK
5
25
100
AcDbEntity
8
0
100
AcDbBlockEnd
0
BLOCK
5
EA
100
AcDbEntity
8
0
100
AcDbBlockBegin
2
DimnDraft3D1
70
0
10
0
20
0
30
0
3
DimnDraft3D1
0
MTEXT
5
E3
100
AcDbEntity
8
2
62
256
6
ByLayer
370
13
48
1
60
0
100
AcDbMText
10
95.486431
20
24.937954
30
0
210
0
220
0
230
1
1
\W0.6930;17,800
40
3.5
41
0
44
1.084337
50
90
71
7
72
5
7
iso_b_vert
0
MTEXT
5
E4
100
AcDbEntity
8
2
62
256
6
ByLayer
370
13
48
1
60
0
100
AcDbMText
10
95.486431
20
19.715298
30
0
210
0
220
0
230
1
1
%%c
40
3.5
41
0
44
1.084337
50
90
71
7
72
5
7
iso_b_vert
0
LINE
5
E5
100
AcDbEntity
8
2
62
256
6
ByLayer
370
13
48
1
60
0
100
AcDbLine
10
31.5675
20
-8.9
30
0
11
99.236431
21
-8.9
31
0
39
0
210
0
220
0
230
1
0
LINE
5
E6
100
AcDbEntity
8
2
62
256
6
ByLayer
370
13
48
1
60
0
100
AcDbLine
10
31.5675
20
8.9
30
0
11
99.236431
21
8.9
31
0
39
0
210
0
220
0
230
1
0
LINE
5
E7
100
AcDbEntity
8
2
62
256
6
ByLayer
370
13
48
1
60
0
100
AcDbLine
10
97.236431
20
-8.9
30
0
11
97.236431
21
36.451112
31
0
39
0
210
0
220
0
230
1
0
SOLID
5
E8
100
AcDbEntity
8
2
62
256
6
ByLayer
370
13
48
1
60
0
100
AcDbTrace
10
97.236431
20
-8.9
30
0
11
96.775647
21
-5.400002
31
0
12
97.697214
22
-5.399998
32
0
13
97.236431
23
-8.9
33
0
39
0
210
0
220
0
230
1
0
SOLID
5
E9
100
AcDbEntity
8
2
62
256
6
ByLayer
370
13
48
1
60
0
100
AcDbTrace
10
97.236431
20
8.9
30
0
11
97.697214
21
5.400002
31
0
12
96.775647
22
5.399998
32
0
13
97.236431
23
8.9
33
0
39
0
210
0
220
0
230
1
0
ENDBLK
5
EB
100
AcDbEntity
8
0
100
AcDbBlockEnd
0
BLOCK
5
F4
100
AcDbEntity
8
0
100
AcDbBlockBegin
2
DimnDraft3D2
70
0
10
0
20
0
30
0
3
DimnDraft3D2
0
MTEXT
5
EE
100
AcDbEntity
8
SK2
62
256
6
ByLayer
370
13
48
1
60
0
100
AcDbMText
10
29.401966
20
-18.677503
30
0
210
0
220
0
230
1
1
\W0.7317;72,68
40
3.5
41
0
44
1.084337
50
0
71
7
72
5
7
iso_b_vert
0
LINE
5
EF
100
AcDbEntity
8
SK2
62
256
6
ByLayer
370
13
48
1
60
0
100
AcDbLine
10
0
20
-1.5875
30
0
11
0
21
-21.552503
31
0
39
0
210
0
220
0
230
1
0
LINE
5
F0
100
AcDbEntity
8
SK2
62
256
6
ByLayer
370
13
48
1
60
0
100
AcDbLine
10
72.68
20
-8.3375
30
0
11
72.68
21
-21.552503
31
0
39
0
210
0
220
0
230
1
0
LINE
5
F1
100
AcDbEntity
8
SK2
62
256
6
ByLayer
370
13
48
1
60
0
100
AcDbLine
10
0
20
-19.552503
30
0
11
72.68
21
-19.552503
31
0
39
0
210
0
220
0
230
1
0
SOLID
5
F2
100
AcDbEntity
8
SK2
62
256
6
ByLayer
370
13
48
1
60
0
100
AcDbTrace
10
0
20
-19.552503
30
0
11
3.499998
21
-19.091719
31
0
12
3.500002
22
-20.013287
32
0
13
0
23
-19.552503
33
0
39
0
210
0
220
0
230
1
0
SOLID
5
F3
100
AcDbEntity
8
SK2
62
256
6
ByLayer
370
13
48
1
60
0
100
AcDbTrace
10
72.68
20
-19.552503
30
0
11
69.180002
21
-20.013287
31
0
12
69.179998
22
-19.091719
32
0
13
72.68
23
-19.552503
33
0
39
0
210
0
220
0
230
1
0
ENDBLK
5
F5
100
AcDbEntity
8
0
100
AcDbBlockEnd
0
BLOCK
5
FE
100
AcDbEntity
8
0
100
AcDbBlockBegin
2
DimnDraft3D3
70
0
10
0
20
0
30
0
3
DimnDraft3D3
0
MTEXT
5
F8
100
AcDbEntity
8
SK2
62
256
6
ByLayer
370
13
48
1
60
0
100
AcDbMText
10
7.202221
20
-39.317985
30
0
210
0
220
0
230
1
1
\W0.6930;123,00
40
3.5
41
0
44
1.084337
50
0
71
7
72
5
7
iso_b_vert
0
LINE
5
F9
100
AcDbEntity
8
SK2
62
256
6
ByLayer
370
13
48
1
60
0
100
AcDbLine
10
-48
20
-10.5875
30
0
11
-48
21
-42.192985
31
0
39
0
210
0
220
0
230
1
0
LINE
5
FA
100
AcDbEntity
8
SK2
62
256
6
ByLayer
370
13
48
1
60
0
100
AcDbLine
10
75
20
-1.5875
30
0
11
75
21
-42.192985
31
0
39
0
210
0
220
0
230
1
0
LINE
5
FB
100
AcDbEntity
8
SK2
62
256
6
ByLayer
370
13
48
1
60
0
100
AcDbLine
10
-48
20
-40.192985
30
0
11
75
21
-40.192985
31
0
39
0
210
0
220
0
230
1
0
SOLID
5
FC
100
AcDbEntity
8
SK2
62
256
6
ByLayer
370
13
48
1
60
0
100
AcDbTrace
10
-48
20
-40.192985
30
0
11
-44.500002
21
-39.732202
31
0
12
-44.499998
22
-40.653769
32
0
13
-48
23
-40.192985
33
0
39
0
210
0
220
0
230
1
0
SOLID
5
FD
100
AcDbEntity
8
SK2
62
256
6
ByLayer
370
13
48
1
60
0
100
AcDbTrace
10
75
20
-40.192985
30
0
11
71.500002
21
-40.653769
31
0
12
71.499998
22
-39.732202
32
0
13
75
23
-40.192985
33
0
39
0
210
0
220
0
230
1
0
ENDBLK
5
FF
100
AcDbEntity
8
0
100
AcDbBlockEnd
0
BLOCK
5
108
100
AcDbEntity
8
0
100
AcDbBlockBegin
2
DimnDraft3D4
70
0
10
0
20
0
30
0
3
DimnDraft3D4
0
MTEXT
5
102
100
AcDbEntity
8
SK2
62
256
6
ByLayer
370
13
48
1
60
0
100
AcDbMText
10
47.857105
20
19.234119
30
0
210
0
220
0
230
1
1
\W0.7581;45,02
40
3.5
41
0
44
1.084337
50
0
71
7
72
5
7
iso_b_vert
0
LINE
5
103
100
AcDbEntity
8
SK2
62
256
6
ByLayer
370
13
48
1
60
0
100
AcDbLine
10
29.98
20
10.4875
30
0
11
29.98
21
20.359119
31
0
39
0
210
0
220
0
230
1
0
LINE
5
104
100
AcDbEntity
8
SK2
62
256
6
ByLayer
370
13
48
1
60
0
100
AcDbLine
10
75
20
1.5875
30
0
11
75
21
20.359119
31
0
39
0
210
0
220
0
230
1
0
LINE
5
105
100
AcDbEntity
8
SK2
62
256
6
ByLayer
370
13
48
1
60
0
100
AcDbLine
10
29.98
20
18.359119
30
0
11
75
21
18.359119
31
0
39
0
210
0
220
0
230
1
0
SOLID
5
106
100
AcDbEntity
8
SK2
62
256
6
ByLayer
370
13
48
1
60
0
100
AcDbTrace
10
29.98
20
18.359119
30
0
11
33.479998
21
18.819903
31
0
12
33.480002
22
17.898335
32
0
13
29.98
23
18.359119
33
0
39
0
210
0
220
0
230
1
0
SOLID
5
107
100
AcDbEntity
8
SK2
62
256
6
ByLayer
370
13
48
1
60
0
100
AcDbTrace
10
75
20
18.359119
30
0
11
71.500002
21
17.898335
31
0
12
71.499998
22
18.819903
32
0
13
75
23
18.359119
33
0
39
0
210
0
220
0
230
1
0
ENDBLK
5
109
100
AcDbEntity
8
0
100
AcDbBlockEnd
0
BLOCK
5
112
100
AcDbEntity
8
0
100
AcDbBlockBegin
2
DimnDraft3D5
70
0
10
0
20
0
30
0
3
DimnDraft3D5
0
MTEXT
5
10C
100
AcDbEntity
8
SK2
62
256
6
ByLayer
370
13
48
1
60
0
100
AcDbMText
10
81.840636
20
-18.677503
30
0
210
0
220
0
230
1
1
\W0.7150;2,32
40
3.5
41
0
44
1.084337
50
0
71
7
72
5
7
iso_b_vert
0
LINE
5
10D
100
AcDbEntity
8
SK2
62
256
6
ByLayer
370
13
48
1
60
0
100
AcDbLine
10
75
20
-1.5875
30
0
11
75
21
-21.552503
31
0
39
0
210
0
220
0
230
1
0
LINE
5
10E
100
AcDbEntity
8
SK2
62
256
6
ByLayer
370
13
48
1
60
0
100
AcDbLine
10
72.68
20
-8.3375
30
0
11
72.68
21
-21.552503
31
0
39
0
210
0
220
0
230
1
0
LINE
5
10F
100
AcDbEntity
8
SK2
62
256
6
ByLayer
370
13
48
1
60
0
100
AcDbLine
10
63.93
20
-19.552503
30
0
11
88.997215
21
-19.552503
31
0
39
0
210
0
220
0
230
1
0
SOLID
5
110
100
AcDbEntity
8
SK2
62
256
6
ByLayer
370
13
48
1
60
0
100
AcDbTrace
10
75
20
-19.552503
30
0
11
78.499998
21
-19.091719
31
0
12
78.500002
22
-20.013287
32
0
13
75
23
-19.552503
33
0
39
0
210
0
220
0
230
1
0
SOLID
5
111
100
AcDbEntity
8
SK2
62
256
6
ByLayer
370
13
48
1
60
0
100
AcDbTrace
10
72.68
20
-19.552503
30
0
11
69.180002
21
-20.013287
31
0
12
69.179998
22
-19.091719
32
0
13
72.68
23
-19.552503
33
0
39
0
210
0
220
0
230
1
0
ENDBLK
5
113
100
AcDbEntity
8
0
100
AcDbBlockEnd
0
BLOCK
5
11C
100
AcDbEntity
8
0
100
AcDbBlockBegin
2
DimnDraft3D6
70
0
10
0
20
0
30
0
3
DimnDraft3D6
0
MTEXT
5
116
100
AcDbEntity
8
SK2
62
256
6
ByLayer
370
13
48
1
60
0
100
AcDbMText
10
47.772105
20
11.760371
30
0
210
0
220
0
230
1
1
\W0.7581;40,55
40
3.5
41
0
44
1.084337
50
0
71
7
72
5
7
iso_b_vert
0
LINE
5
117
100
AcDbEntity
8
SK2
62
256
6
ByLayer
370
13
48
1
60
0
100
AcDbLine
10
72.68
20
8.3375
30
0
11
72.68
21
12.885371
31
0
39
0
210
0
220
0
230
1
0
LINE
5
118
100
AcDbEntity
8
SK2
62
256
6
ByLayer
370
13
48
1
60
0
100
AcDbLine
10
32.13
20
8.3375
30
0
11
32.13
21
12.885371
31
0
39
0
210
0
220
0
230
1
0
LINE
5
119
100
AcDbEntity
8
SK2
62
256
6
ByLayer
370
13
48
1
60
0
100
AcDbLine
10
72.68
20
10.885371
30
0
11
32.13
21
10.885371
31
0
39
0
210
0
220
0
230
1
0
SOLID
5
11A
100
AcDbEntity
8
SK2
62
256
6
ByLayer
370
13
48
1
60
0
100
AcDbTrace
10
72.68
20
10.885371
30
0
11
69.180002
21
10.424588
31
0
12
69.179998
22
11.346155
32
0
13
72.68
23
10.885371
33
0
39
0
210
0
220
0
230
1
0
SOLID
5
11B
100
AcDbEntity
8
SK2
62
256
6
ByLayer
370
13
48
1
60
0
100
AcDbTrace
10
32.13
20
10.885371
30
0
11
35.629998
21
11.346155
31
0
12
35.630002
22
10.424588
32
0
13
32.13
23
10.885371
33
0
39
0
210
0
220
0
230
1
0
ENDBLK
5
11D
100
AcDbEntity
8
0
100
AcDbBlockEnd
0
BLOCK
5
126
100
AcDbEntity
8
0
100
AcDbBlockBegin
2
DimnDraft3D7
70
0
10
0
20
0
30
0
3
DimnDraft3D7
0
MTEXT
5
120
100
AcDbEntity
8
SK2
62
256
6
ByLayer
370
13
48
1
60
0
100
AcDbMText
10
6.531571
20
-28.815158
30
0
210
0
220
0
230
1
1
\W0.6930;120,68
40
3.5
41
0
44
1.084337
50
0
71
7
72
5
7
iso_b_vert
0
LINE
5
121
100
AcDbEntity
8
SK2
62
256
6
ByLayer
370
13
48
1
60
0
100
AcDbLine
10
-48
20
-10.5875
30
0
11
-48
21
-31.690158
31
0
39
0
210
0
220
0
230
1
0
LINE
5
122
100
AcDbEntity
8
SK2
62
256
6
ByLayer
370
13
48
1
60
0
100
AcDbLine
10
72.68
20
-8.3375
30
0
11
72.68
21
-31.690158
31
0
39
0
210
0
220
0
230
1
0
LINE
5
123
100
AcDbEntity
8
SK2
62
256
6
ByLayer
370
13
48
1
60
0
100
AcDbLine
10
-48
20
-29.690158
30
0
11
72.68
21
-29.690158
31
0
39
0
210
0
220
0
230
1
0
SOLID
5
124
100
AcDbEntity
8
SK2
62
256
6
ByLayer
370
13
48
1
60
0
100
AcDbTrace
10
-48
20
-29.690158
30
0
11
-44.500002
21
-29.229374
31
0
12
-44.499998
22
-30.150942
32
0
13
-48
23
-29.690158
33
0
39
0
210
0
220
0
230
1
0
SOLID
5
125
100
AcDbEntity
8
SK2
62
256
6
ByLayer
370
13
48
1
60
0
100
AcDbTrace
10
72.68
20
-29.690158
30
0
11
69.180002
21
-30.150942
31
0
12
69.179998
22
-29.229374
32
0
13
72.68
23
-29.690158
33
0
39
0
210
0
220
0
230
1
0
ENDBLK
5
127
100
AcDbEntity
8
0
100
AcDbBlockEnd
0
BLOCK
5
131
100
AcDbEntity
8
0
100
AcDbBlockBegin
2
DimnDraft3D8
70
0
10
0
20
0
30
0
3
DimnDraft3D8
0
MTEXT
5
12A
100
AcDbEntity
8
SK2
62
256
6
ByLayer
370
13
48
1
60
0
100
AcDbMText
10
-58.375163
20
28.34918
30
0
210
0
220
0
230
1
1
\W0.6930;18,000
40
3.5
41
0
44
1.084337
50
90
71
7
72
5
7
iso_b_vert
0
MTEXT
5
12B
100
AcDbEntity
8
SK2
62
256
6
ByLayer
370
13
48
1
60
0
100
AcDbMText
10
-58.375163
20
23.126524
30
0
210
0
220
0
230
1
1
%%c
40
3.5
41
0
44
1.084337
50
90
71
7
72
5
7
iso_b_vert
0
LINE
5
12C
100
AcDbEntity
8
SK2
62
256
6
ByLayer
370
13
48
1
60
0
100
AcDbLine
10
-49.5875
20
-9
30
0
11
-58.625163
21
-9
31
0
39
0
210
0
220
0
230
1
0
LINE
5
12D
100
AcDbEntity
8
SK2
62
256
6
ByLayer
370
13
48
1
60
0
100
AcDbLine
10
-49.5875
20
9
30
0
11
-58.625163
21
9
31
0
39
0
210
0
220
0
230
1
0
LINE
5
12E
100
AcDbEntity
8
SK2
62
256
6
ByLayer
370
13
48
1
60
0
100
AcDbLine
10
-56.625163
20
-9
30
0
11
-56.625163
21
39.862338
31
0
39
0
210
0
220
0
230
1
0
SOLID
5
12F
100
AcDbEntity
8
SK2
62
256
6
ByLayer
370
13
48
1
60
0
100
AcDbTrace
10
-56.625163
20
-9
30
0
11
-57.085946
21
-5.500002
31
0
12
-56.164379
22
-5.499998
32
0
13
-56.625163
23
-9
33
0
39
0
210
0
220
0
230
1
0
SOLID
5
130
100
AcDbEntity
8
SK2
62
256
6
ByLayer
370
13
48
1
60
0
100
AcDbTrace
10
-56.625163
20
9
30
0
11
-56.164379
21
5.500002
31
0
12
-57.085946
22
5.499998
32
0
13
-56.625163
23
9
33
0
39
0
210
0
220
0
230
1
0
ENDBLK
5
132
100
AcDbEntity
8
0
100
AcDbBlockEnd
0
BLOCK
5
13C
100
AcDbEntity
8
0
100
AcDbBlockBegin
2
DimnDraft3D9
70
0
10
0
20
0
30
0
3
DimnDraft3D9
0
MTEXT
5
135
100
AcDbEntity
8
2
62
256
6
ByLayer
370
13
48
1
60
0
100
AcDbMText
10
87.220081
20
25.446903
30
0
210
0
220
0
230
1
1
\W0.6930;13,500
40
3.5
41
0
44
1.084337
50
90
71
7
72
5
7
iso_b_vert
0
MTEXT
5
136
100
AcDbEntity
8
2
62
256
6
ByLayer
370
13
48
1
60
0
100
AcDbMText
10
87.220081
20
20.224247
30
0
210
0
220
0
230
1
1
%%c
40
3.5
41
0
44
1.084337
50
90
71
7
72
5
7
iso_b_vert
0
LINE
5
137
100
AcDbEntity
8
2
62
256
6
ByLayer
370
13
48
1
60
0
100
AcDbLine
10
74.2675
20
-6.75
30
0
11
90.970081
21
-6.75
31
0
39
0
210
0
220
0
230
1
0
LINE
5
138
100
AcDbEntity
8
2
62
256
6
ByLayer
370
13
48
1
60
0
100
AcDbLine
10
74.2675
20
6.75
30
0
11
90.970081
21
6.75
31
0
39
0
210
0
220
0
230
1
0
LINE
5
139
100
AcDbEntity
8
2
62
256
6
ByLayer
370
13
48
1
60
0
100
AcDbLine
10
88.970081
20
-6.75
30
0
11
88.970081
21
36.960061
31
0
39
0
210
0
220
0
230
1
0
SOLID
5
13A
100
AcDbEntity
8
2
62
256
6
ByLayer
370
13
48
1
60
0
100
AcDbTrace
10
88.970081
20
-6.75
30
0
11
88.509297
21
-3.250002
31
0
12
89.430865
22
-3.249998
32
0
13
88.970081
23
-6.75
33
0
39
0
210
0
220
0
230
1
0
SOLID
5
13B
100
AcDbEntity
8
2
62
256
6
ByLayer
370
13
48
1
60
0
100
AcDbTrace
10
88.970081
20
6.75
30
0
11
89.430865
21
3.250002
31
0
12
88.509297
22
3.249998
32
0
13
88.970081
23
6.75
33
0
39
0
210
0
220
0
230
1
0
ENDBLK
5
13D
100
AcDbEntity
8
0
100
AcDbBlockEnd
0
BLOCK
5
147
100
AcDbEntity
8
0
100
AcDbBlockBegin
2
DimnDraft3D10
70
0
10
0
20
0
30
0
3
DimnDraft3D10
0
MTEXT
5
140
100
AcDbEntity
8
SK2
62
256
6
ByLayer
370
13
48
1
60
0
100
AcDbMText
10
12.674529
20
-0.449296
30
0
210
0
220
0
230
1
1
\W0.8181;90,0%%d
40
3.5
41
0
44
1.084337
50
0
71
7
72
5
7
iso_b_vert
0
LINE
5
141
100
AcDbEntity
8
SK2
62
256
6
ByLayer
370
13
48
1
60
0
100
AcDbLine
10
28.857468
20
10.022532
30
0
11
21.866966
21
17.013034
31
0
39
0
210
0
220
0
230
1
0
LINE
5
142
100
AcDbEntity
8
SK2
62
256
6
ByLayer
370
13
48
1
60
0
100
AcDbLine
10
28.857468
20
-10.022532
30
0
11
21.866966
21
-17.013034
31
0
39
0
210
0
220
0
230
1
0
ARC
5
143
100
AcDbEntity
8
SK2
62
256
6
ByLayer
370
13
48
1
60
0
100
AcDbCircle
39
0
10
38.88
20
0
30
0
40
22.06006358276
210
0
220
0
230
1
100
AcDbArc
50
135
51
165.761935
0
ARC
5
144
100
AcDbEntity
8
SK2
62
256
6
ByLayer
370
13
48
1
60
0
100
AcDbCircle
39
0
10
38.88
20
0
30
0
40
22.06006358276
210
0
220
0
230
1
100
AcDbArc
50
182.791334
51
225
0
SOLID
5
145
100
AcDbEntity
8
SK2
62
256
6
ByLayer
370
13
48
1
60
0
100
AcDbTrace
10
23.281179
20
15.598821
30
0
11
21.24464
21
12.715278
31
0
12
20.567715
22
13.340625
32
0
13
23.281179
23
15.598821
33
0
39
0
210
0
220
0
230
1
0
SOLID
5
146
100
AcDbEntity
8
SK2
62
256
6
ByLayer
370
13
48
1
60
0
100
AcDbTrace
10
23.281179
20
-15.598821
30
0
11
20.567718
21
-13.340628
31
0
12
21.244638
22
-12.715275
32
0
13
23.281179
23
-15.598821
33
0
39
0
210
0
220
0
230
1
0
ENDBLK
5
148
100
AcDbEntity
8
0
100
AcDbBlockEnd
0
ENDSEC
0
SECTION
2
ENTITIES
0
ELLIPSE
5
9E
100
AcDbEntity
8
1
62
256
6
ByLayer
370
18
48
1
60
0
100
AcDbEllipse
10
75.000572
20
0.001474
30
0
11
2.47510881213817
21
6.74830108260474
31
0
210
0
220
0
230
-1
40
0.082138
41
2.90059503572731
42
2.99198205162139
0
ELLIPSE
5
9F
100
AcDbEntity
8
1
62
256
6
ByLayer
370
13
48
1
60
0
100
AcDbEllipse
10
73.163776
20
0.975167
30
0
11
0.133113781883896
21
0.268850741253519
31
0
210
0
220
0
230
1
40
0.40558
41
0.8844859171309
42
2.28074931872641
0
ELLIPSE
5
A0
100
AcDbEntity
8
1
62
256
6
ByLayer
370
18
48
1
60
0
100
AcDbEllipse
10
75.017365
20
0.057415
30
0
11
0.135658546040297
21
-0.401200806247027
31
0
210
0
220
0
230
-1
40
0.065863
41
1.60904707525382
42
2.32292776273608
0
ELLIPSE
5
A1
100
AcDbEntity
8
1
62
256
6
ByLayer
370
18
48
1
60
0
100
AcDbEllipse
10
75.000572
20
-0.001474
30
0
11
2.47510882358918
21
-6.74830111542595
31
0
210
0
220
0
230
-1
40
0.082138
41
-2.991982051985
42
-2.90059503631484
0
ELLIPSE
5
A2
100
AcDbEntity
8
1
62
256
6
ByLayer
370
18
48
1
60
0
100
AcDbEllipse
10
74.859896
20
0.135381
30
0
11
0.0868803724529525
21
0.290676908858455
31
0
210
0
220
0
230
-1
40
0.467765
41
1.67815445981719
42
2.36053717391628
0
ELLIPSE
5
A3
100
AcDbEntity
8
1
62
256
6
ByLayer
370
13
48
1
60
0
100
AcDbEllipse
10
73.958069
20
3.057654
30
0
11
4.44488934236572
21
-2.2850701596729
31
0
210
0
220
0
230
-1
40
0.482873
41
1.53949524920058
42
1.85135089209403
0
ELLIPSE
5
A4
100
AcDbEntity
8
1
62
256
6
ByLayer
370
18
48
1
60
0
100
AcDbEllipse
10
73.755545
20
-3.191946
30
0
11
1.03933586741469
21
2.83371435873558
31
0
210
0
220
0
230
-1
40
0.082138
41
0.75528095034625
42
1.57274971925697
0
ELLIPSE
5
A5
100
AcDbEntity
8
1
62
256
6
ByLayer
370
13
48
1
60
0
100
AcDbEllipse
10
74.127528
20
3.191946
30
0
11
4.49164049407195
21
-1.97334349246816
31
0
210
0
220
0
230
-1
40
0.453169
41
1.58629270743142
42
1.89047685593945
0
ELLIPSE
5
A6
100
AcDbEntity
8
1
62
256
6
ByLayer
370
18
48
1
60
0
100
AcDbEllipse
10
73.755545
20
3.191946
30
0
11
1.03933586743649
21
-2.83371435878614
31
0
210
0
220
0
230
-1
40
0.082138
41
-1.57274971924407
42
-0.7552809503469
0
ELLIPSE
5
A7
100
AcDbEntity
8
1
62
256
6
ByLayer
370
18
48
1
60
0
100
AcDbEllipse
10
75.017365
20
-0.057415
30
0
11
0.135658545995666
21
0.401200806132098
31
0
210
0
220
0
230
-1
40
0.065863
41
-2.32292776272686
42
-1.60904707505871
0
POINT
5
6C
100
AcDbEntity
8
81
62
256
6
ByLayer
370
18
48
1
60
0
100
AcDbPoint
10
75
20
0
30
0
39
0
210
0
220
0
230
1
50
360
0
POINT
5
6E
100
AcDbEntity
8
80
62
256
6
ByLayer
370
18
48
1
60
0
100
AcDbPoint
10
0
20
0
30
0
39
0
210
0
220
0
230
1
50
360
0
POINT
5
70
100
AcDbEntity
8
2
62
256
6
ByLayer
370
18
48
1
60
1
100
AcDbPoint
10
29.98
20
-8.9
30
0
39
0
210
0
220
0
230
1
50
360
0
POINT
5
72
100
AcDbEntity
8
2
62
256
6
ByLayer
370
18
48
1
60
1
100
AcDbPoint
10
29.98
20
8.9
30
0
39
0
210
0
220
0
230
1
50
360
0
POINT
5
73
100
AcDbEntity
8
SK2
62
256
6
ByLayer
370
18
48
1
60
1
100
AcDbPoint
10
-48
20
-9
30
0
39
0
210
0
220
0
230
1
50
360
0
POINT
5
75
100
AcDbEntity
8
SK2
62
256
6
ByLayer
370
18
48
1
60
1
100
AcDbPoint
10
-48
20
9
30
0
39
0
210
0
220
0
230
1
50
360
0
POINT
5
76
100
AcDbEntity
8
2
62
256
6
ByLayer
370
18
48
1
60
1
100
AcDbPoint
10
72.68
20
-6.75
30
0
39
0
210
0
220
0
230
1
50
360
0
POINT
5
77
100
AcDbEntity
8
2
62
256
6
ByLayer
370
18
48
1
60
1
100
AcDbPoint
10
72.68
20
6.75
30
0
39
0
210
0
220
0
230
1
50
360
0
SPLINE
5
A8
100
AcDbEntity
8
1
62
256
6
ByLayer
370
18
48
1
60
0
100
AcDbSpline
70
4
71
3
72
29
73
25
40
0
40
0
40
0
40
0
40
0.0403334027069109
40
0.0795251505355364
40
0.136601355063154
40
0.197648659915134
40
0.256518778077954
40
0.318821582179729
40
0.387207573819711
40
0.450490667377477
40
0.510606449718765
40
0.566365508630542
40
0.638763489174815
40
0.683737749544583
40
0.717612824359954
40
0.752977837784629
40
0.793969249168349
40
0.835809315246623
40
0.866710731162007
40
0.887995247755675
40
0.91482568959603
40
0.952450925957032
40
0.99582096140783
40
1
40
1
40
1
40
1
41
1
10
52.0069936157819
20
6.44089509907164
30
0
41
1
10
51.8386442112121
20
6.4391126969237
30
0
41
1
10
51.4962930164014
20
6.43664355357777
30
0
41
1
10
50.8376002835823
20
6.43491667387934
30
0
41
1
10
50.129834545458
20
6.44076392371619
30
0
41
1
10
49.2940225598599
20
6.44037674416933
30
0
41
1
10
48.4391744782363
20
6.43996037813292
30
0
41
1
10
47.5477896213272
20
6.4388239659369
30
0
41
1
10
46.6362519445319
20
6.43961057529003
30
0
41
1
10
45.7348263047053
20
6.43754962488072
30
0
41
1
10
44.8927865012728
20
6.43857702699535
30
0
41
1
10
44.0079057703537
20
6.4368851388713
30
0
41
1
10
43.1941825646724
20
6.43717815484712
30
0
41
1
10
42.4833185657045
20
6.43691125246846
30
0
41
1
10
41.9465091449783
20
6.43609572658386
30
0
41
1
10
41.4284254869797
20
6.43616245030739
30
0
41
1
10
40.8728999318219
20
6.43635119215287
30
0
41
1
10
40.3383514807623
20
6.43566288012903
30
0
41
1
10
39.896433326444
20
6.4351402546327
30
0
41
1
10
39.5250510328627
20
6.43500500696589
30
0
41
1
10
39.1220841685605
20
6.4350162816425
30
0
41
1
10
38.615300698824
20
6.43483850866266
30
0
41
1
10
38.2149905693738
20
6.43432880543278
30
0
41
1
10
37.9915027693665
20
6.43414132152421
30
0
41
1
10
37.9718606877914
20
6.43412549835145
30
0
0
SPLINE
5
A9
100
AcDbEntity
8
1
62
256
6
ByLayer
370
18
48
1
60
0
100
AcDbSpline
70
4
71
3
72
35
73
31
40
0
40
0
40
0
40
0
40
0.0444171692095505
40
0.0820552268041591
40
0.114553757666992
40
0.141916865808649
40
0.166687387887504
40
0.206562923509566
40
0.251390192438145
40
0.282782846407217
40
0.300213421691367
40
0.32546152669723
40
0.359224855683232
40
0.392395488104611
40
0.421008018057382
40
0.448377512440848
40
0.484721245021128
40
0.536201885708507
40
0.576192122178183
40
0.616277315770068
40
0.660300710584776
40
0.704285873647356
40
0.746259432492093
40
0.784818972095261
40
0.826664989973635
40
0.872126633783505
40
0.904666022647179
40
0.935819743908288
40
0.967429714597019
40
1
40
1
40
1
40
1
41
1
10
34.6138790150711
20
-6.43203869792131
30
0
41
1
10
34.8674367893301
20
-6.431419738584
30
0
41
1
10
35.3371992001842
20
-6.43090105036265
30
0
41
1
10
36.0118105762518
20
-6.43166755656719
30
0
41
1
10
36.5642082092875
20
-6.43368353894957
30
0
41
1
10
37.0579710741062
20
-6.43355977028895
30
0
41
1
10
37.5937338225179
20
-6.43387067065169
30
0
41
1
10
38.2317075840597
20
-6.43432034404788
30
0
41
1
10
38.9081718204582
20
-6.43506404465182
30
0
41
1
10
39.4538562432705
20
-6.43498390719148
30
0
41
1
10
39.8854711355781
20
-6.43513015191138
30
0
41
1
10
40.3308913595241
20
-6.43565163699594
30
0
41
1
10
40.8680353491526
20
-6.43634946541269
30
0
41
1
10
41.4247822249876
20
-6.43616487430654
30
0
41
1
10
41.9442659653742
20
-6.43609414019812
30
0
41
1
10
42.4822455983527
20
-6.43690433738126
30
0
41
1
10
43.1534759690126
20
-6.43720033100948
30
0
41
1
10
43.898251601685
20
-6.43675324204676
30
0
41
1
10
44.6648190919774
20
-6.43828894782851
30
0
41
1
10
45.3879402736017
20
-6.43813155802772
30
0
41
1
10
46.1343397838702
20
-6.43803297405529
30
0
41
1
10
46.8917426027205
20
-6.43971570624879
30
0
41
1
10
47.6173033362269
20
-6.43891138165733
30
0
41
1
10
48.3304142133779
20
-6.43947210969787
30
0
41
1
10
49.0637960397
20
-6.44089618334044
30
0
41
1
10
49.7612870711253
20
-6.43964382489852
30
0
41
1
10
50.3933657196773
20
-6.44011748950035
30
0
41
1
10
50.9250387587831
20
-6.43469112931109
30
0
41
1
10
51.4969414081558
20
-6.43677945261734
30
0
41
1
10
51.8390158742956
20
-6.43911467467422
30
0
41
1
10
52.0075466243852
20
-6.44089986089747
30
0
0
SPLINE
5
AA
100
AcDbEntity
8
1
62
256
6
ByLayer
370
18
48
1
60
0
100
AcDbSpline
70
4
71
2
72
6
73
3
40
0
40
0
40
0
40
1
40
1
40
1
41
1
10
52.8722515427878
20
0.0004013900064876
30
0
41
1
10
52.8722390915904
20
0.0004075838002677
30
0
41
1
10
52.8722266404439
20
0.0004140042574647
30
0
0
SPLINE
5
AB
100
AcDbEntity
8
1
62
256
6
ByLayer
370
18
48
1
60
0
100
AcDbSpline
70
4
71
2
72
6
73
3
40
0
40
0
40
0
40
1
40
1
40
1
41
1
10
71.4683918356079
20
-6.45443086647452
30
0
41
1
10
72.0583777728207
20
-6.45378099216182
30
0
41
1
10
72.6475866698273
20
-6.45584709535351
30
0
0
SPLINE
5
AC
100
AcDbEntity
8
1
62
256
6
ByLayer
370
18
48
1
60
0
100
AcDbSpline
70
4
71
3
72
16
73
12
40
0
40
0
40
0
40
0
40
0.422145535614218
40
0.422145535614218
40
0.697255026813059
40
0.697255026813059
40
0.834809772412478
40
0.834809772412478
40
0.972364518011898
40
0.972364518011898
40
1
40
1
40
1
40
1
41
1
10
27.6616945333552
20
7.58692321848753
30
0
41
1
10
27.3409128695024
20
7.36199562146314
30
0
41
1
10
27.0223301896401
20
7.123910534982
30
0
41
1
10
26.4970831218772
20
6.70797688900188
30
0
41
1
10
26.2900113052966
20
6.53813608185206
30
0
41
1
10
25.9782382156161
20
6.27571831523483
30
0
41
1
10
25.8742886987209
20
6.18711961917063
30
0
41
1
10
25.6686780524695
20
6.01026934294757
30
0
41
1
10
25.5666508578294
20
5.92171201121548
30
0
41
1
10
25.444848174656
20
5.81542409701262
30
0
41
1
10
25.42449530837
20
5.79764498475504
30
0
41
1
10
25.4041651208543
20
5.77986961227771
30
0
0
SPLINE
5
AD
100
AcDbEntity
8
1
62
256
6
ByLayer
370
18
48
1
60
0
100
AcDbSpline
70
4
71
3
72
10
73
6
40
0
40
0
40
0
40
0
40
0.5
40
0.5
40
1
40
1
40
1
40
1
41
1
10
30.8222929595356
20
1.5543451170436
30
0
41
1
10
30.3968092650483
20
1.86810186187904
30
0
41
1
10
29.9837545084113
20
2.22714390166129
30
0
41
1
10
29.170769972197
20
3.02476406961424
30
0
41
1
10
28.7774488573701
20
3.45729832555188
30
0
41
1
10
28.3903118537303
20
3.91584024584424
30
0
0
SPLINE
5
AE
100
AcDbEntity
8
1
62
256
6
ByLayer
370
18
48
1
60
0
100
AcDbSpline
70
4
71
3
72
12
73
8
40
0
40
0
40
0
40
0
40
0.25000000000001
40
0.25000000000001
40
0.500000000000021
40
0.500000000000021
40
1
40
1
40
1
40
1
41
1
10
72.7099108642556
20
-6.50254754722636
30
0
41
1
10
72.7148097234328
20
-6.48937063144572
30
0
41
1
10
72.7195107667222
20
-6.47592611970944
30
0
41
1
10
72.7272708675385
20
-6.45172715739761
30
0
41
1
10
72.7303131148338
20
-6.44099281293737
30
0
41
1
10
72.7357656045814
20
-6.41720088284495
30
0
41
1
10
72.7346409621619
20
-6.41275686299738
30
0
41
1
10
72.7309444469323
20
-6.41582310420898
30
0
0
SPLINE
5
AF
100
AcDbEntity
8
1
62
256
6
ByLayer
370
18
48
1
60
0
100
AcDbSpline
70
4
71
3
72
8
73
4
40
0
40
0
40
0
40
0
40
1
40
1
40
1
40
1
41
1
10
32.2292450998409
20
-6.58024498466798
30
0
41
1
10
32.3516393019362
20
-6.59997234147218
30
0
41
1
10
32.4739863886604
20
-6.6186411925095
30
0
41
1
10
32.5963031561095
20
-6.63625319043268
30
0
0
SPLINE
5
B0
100
AcDbEntity
8
1
62
256
6
ByLayer
370
18
48
1
60
0
100
AcDbSpline
70
4
71
3
72
28
73
24
40
0
40
0
40
0
40
0
40
0.0063877174010356
40
0.0577526253545649
40
0.109122793501997
40
0.134801561250412
40
0.192568050032996
40
0.263177296935153
40
0.333838524817249
40
0.391714427208655
40
0.443218888446603
40
0.468999585155897
40
0.546451841557184
40
0.572286699760148
40
0.623961842675372
40
0.656254534357753
40
0.727253213679578
40
0.765940646130852
40
0.843194285614338
40
0.932974339637892
40
0.971248502528844
40
0.983969643489808
40
1
40
1
40
1
40
1
41
1
10
30.8222929595356
20
1.55434511704357
30
0
41
1
10
30.8252943181291
20
1.5309302832062
30
0
41
1
10
30.8524256698456
20
1.31898250048647
30
0
41
1
10
30.9036196785977
20
0.914370492197975
30
0
41
1
10
30.9638868473366
20
0.431889384199764
30
0
41
1
10
31.0271733436463
20
-0.0767439535658809
30
0
41
1
10
31.0995083851713
20
-0.658746166961777
30
0
41
1
10
31.1929640874004
20
-1.40378162825979
30
0
41
1
10
31.2863974388066
20
-2.13047556847334
30
0
41
1
10
31.3707716318865
20
-2.76326899162365
30
0
41
1
10
31.4340452150238
20
-3.21840851084644
30
0
41
1
10
31.5063975383721
20
-3.72028107312622
30
0
41
1
10
31.5666372306578
20
-4.1158668988129
30
0
41
1
10
31.6389415679825
20
-4.55864780361833
30
0
41
1
10
31.6901654905471
20
-4.85434593374634
30
0
41
1
10
31.7624710284586
20
-5.24153508621535
30
0
41
1
10
31.8287545587799
20
-5.56097321164847
30
0
41
1
10
31.9161230593457
20
-5.92738913113095
30
0
41
1
10
32.012404257685
20
-6.26444114701758
30
0
41
1
10
32.1088075440702
20
-6.50015240115215
30
0
41
1
10
32.1753007870152
20
-6.60510946643038
30
0
41
1
10
32.2070563941786
20
-6.64418251496264
30
0
41
1
10
32.2207035981983
20
-6.6582771186728
30
0
41
1
10
32.22832123987
20
-6.66530168026779
30
0
0
SPLINE
5
B1
100
AcDbEntity
8
1
62
256
6
ByLayer
370
18
48
1
60
0
100
AcDbSpline
70
4
71
3
72
8
73
4
40
0
40
0
40
0
40
0
40
1
40
1
40
1
40
1
41
1
10
27.6616887338837
20
7.58691915197795
30
0
41
1
10
28.3807283462513
20
7.874899070596
30
0
41
1
10
29.0995425812889
20
8.11486910673966
30
0
41
1
10
29.8143529134879
20
8.31031003685331
30
0
0
SPLINE
5
B2
100
AcDbEntity
8
1
62
256
6
ByLayer
370
18
48
1
60
0
100
AcDbSpline
70
4
71
3
72
38
73
34
40
0
40
0
40
0
40
0
40
0.125000000000001
40
0.125000000000001
40
0.187500000000001
40
0.187500000000001
40
0.250000000000001
40
0.250000000000001
40
0.312500000000001
40
0.312500000000001
40
0.343750000000001
40
0.343750000000001
40
0.375000000000001
40
0.375000000000001
40
0.437500000000001
40
0.437500000000001
40
0.500000000000001
40
0.500000000000001
40
0.562500000000001
40
0.562500000000001
40
0.625000000000001
40
0.625000000000001
40
0.75
40
0.75
40
0.78125
40
0.78125
40
0.8125
40
0.8125
40
0.875
40
0.875
40
0.9375
40
0.9375
40
1
40
1
40
1
40
1
41
1
10
29.8143529134874
20
-8.31031003685317
30
0
41
1
10
29.7549717183345
20
-8.09021834835008
30
0
41
1
10
29.6964032312307
20
-7.8131158660583
30
0
41
1
10
29.6070441228362
20
-7.3110074808929
30
0
41
1
10
29.5769728778706
20
-7.12833740517976
30
0
41
1
10
29.5175511751503
20
-6.74192998746355
30
0
41
1
10
29.4880220164305
20
-6.53738711481557
30
0
41
1
10
29.4293458033552
20
-6.10602944011777
30
0
41
1
10
29.3998682123773
20
-5.87923621969176
30
0
41
1
10
29.3550289726327
20
-5.52218380118728
30
0
41
1
10
29.3400615133209
20
-5.40034426250745
30
0
41
1
10
29.3100802294154
20
-5.15091301369463
30
0
41
1
10
29.2950474483681
20
-5.02313937666219
30
0
41
1
10
29.2504836136955
20
-4.63557214269721
30
0
41
1
10
29.2214944966366
20
-4.370168254676
30
0
41
1
10
29.1624108869733
20
-3.82589447155661
30
0
41
1
10
29.1325125457072
20
-3.54700908821363
30
0
41
1
10
29.0725484728863
20
-2.97562962739687
30
0
41
1
10
29.0426553505892
20
-2.68285886454728
30
0
41
1
10
28.9830558104838
20
-2.08422299716929
30
0
41
1
10
28.9536167429883
20
-1.78315839880557
30
0
41
1
10
28.8649888726339
20
-0.875037298057464
30
0
41
1
10
28.8059355046212
20
-0.263063750549293
30
0
41
1
10
28.7319341646818
20
0.510291332288034
30
0
41
1
10
28.7169238463796
20
0.66568624418764
30
0
41
1
10
28.6870345645574
20
0.973848799232314
30
0
41
1
10
28.6721321827585
20
1.12698707414518
30
0
41
1
10
28.6275943135063
20
1.58362784528867
30
0
41
1
10
28.5980685371227
20
1.8843578278167
30
0
41
1
10
28.5392619197607
20
2.47850183615768
30
0
41
1
10
28.5098636402288
20
2.77190466004569
30
0
41
1
10
28.4501363456065
20
3.35113849532749
30
0
41
1
10
28.4201328092402
20
3.63805514931877
30
0
41
1
10
28.3903118537183
20
3.9158402458485
30
0
0
SPLINE
5
B3
100
AcDbEntity
8
1
62
256
6
ByLayer
370
18
48
1
60
0
100
AcDbSpline
70
4
71
3
72
16
73
12
40
0
40
0
40
0
40
0
40
0.18759047660763
40
0.18759047660763
40
0.390692857455723
40
0.390692857455723
40
0.593795238303815
40
0.593795238303815
40
0.796897619151907
40
0.796897619151907
40
1
40
1
40
1
40
1
41
1
10
24.6355555900553
20
-6.23898944041159
30
0
41
1
10
24.259982372869
20
-6.44253047963332
30
0
41
1
10
23.8846444929919
20
-6.63618711707085
30
0
41
1
10
23.1036795049876
20
-7.01903070214956
30
0
41
1
10
22.6971889588542
20
-7.20569696299179
30
0
41
1
10
21.8809983483362
20
-7.5524790969437
30
0
41
1
10
21.4739080066673
20
-7.71190196347777
30
0
41
1
10
20.6621683929124
20
-8.00288392174875
30
0
41
1
10
20.256352629523
20
-8.13373778674463
30
0
41
1
10
19.4433660553758
20
-8.36559325696282
30
0
41
1
10
19.0363609454521
20
-8.46671367039596
30
0
41
1
10
18.62896126768
20
-8.55276801000616
30
0
0
SPLINE
5
B4
100
AcDbEntity
8
1
62
256
6
ByLayer
370
18
48
1
60
0
100
AcDbSpline
70
4
71
3
72
8
73
4
40
0
40
0
40
0
40
0
40
1
40
1
40
1
40
1
41
1
10
27.6616887338837
20
-7.58691915197798
30
0
41
1
10
28.3807283462511
20
-7.87489907059592
30
0
41
1
10
29.0995425812885
20
-8.11486910673955
30
0
41
1
10
29.8143529134873
20
-8.31031003685317
30
0
0
SPLINE
5
B5
100
AcDbEntity
8
1
62
256
6
ByLayer
370
18
48
1
60
0
100
AcDbSpline
70
4
71
3
72
24
73
20
40
0
40
0
40
0
40
0
40
0.102233693647381
40
0.102233693647381
40
0.26208102681735
40
0.26208102681735
40
0.42192835998732
40
0.42192835998732
40
0.501852026572305
40
0.501852026572305
40
0.581775693157291
40
0.581775693157291
40
0.741623026327259
40
0.741623026327259
40
0.821546692912245
40
0.821546692912245
40
0.901470359497229
40
0.901470359497229
40
1
40
1
40
1
40
1
41
1
10
21.7982714579513
20
-4.83482712289901
30
0
41
1
10
21.6915747046621
20
-4.96447674375287
30
0
41
1
10
21.5860775810561
20
-5.09548261071467
30
0
41
1
10
21.3179218102987
20
-5.4342225098427
30
0
41
1
10
21.1565714442299
20
-5.64360326008091
30
0
41
1
10
20.8351852871413
20
-6.06571036346111
30
0
41
1
10
20.6751772645542
20
-6.27845677483299
30
0
41
1
10
20.4328166760535
20
-6.59773139469851
30
0
41
1
10
20.3516249791
20
-6.70417281885801
30
0
41
1
10
20.1876555018722
20
-6.91654179306857
30
0
41
1
10
20.1046611610629
20
-7.02273265550923
30
0
41
1
10
19.8551182324304
20
-7.33546283477642
30
0
41
1
10
19.687246468465
20
-7.53726990351026
30
0
41
1
10
19.4278580660039
20
-7.82458049446339
30
0
41
1
10
19.3401202075008
20
-7.91777261142323
30
0
41
1
10
19.1611047879523
20
-8.09801457216335
30
0
41
1
10
19.069380993635
20
-8.18544950962416
30
0
41
1
10
18.8619918363495
20
-8.37053694922457
30
0
41
1
10
18.7462766758586
20
-8.46532264655471
30
0
41
1
10
18.6289612676714
20
-8.55276801001256
30
0
0
SPLINE
5
B6
100
AcDbEntity
8
1
62
256
6
ByLayer
370
18
48
1
60
0
100
AcDbSpline
70
4
71
3
72
26
73
22
40
0
40
0
40
0
40
0
40
0.125000000000001
40
0.125000000000001
40
0.1875
40
0.1875
40
0.249999999999999
40
0.249999999999999
40
0.5
40
0.5
40
0.5625
40
0.5625
40
0.625
40
0.625
40
0.75
40
0.75
40
0.875
40
0.875
40
0.9375
40
0.9375
40
1
40
1
40
1
40
1
41
1
10
72.650596364031
20
-6.45493343902427
30
0
41
1
10
72.556923453352
20
-6.45484154533654
30
0
41
1
10
72.4677576801066
20
-6.44115519931268
30
0
41
1
10
72.3410992605384
20
-6.39924005908642
30
0
41
1
10
72.3000644206332
20
-6.38169524835001
30
0
41
1
10
72.2204592166165
20
-6.33917226164203
30
0
41
1
10
72.1817675075337
20
-6.31408280419197
30
0
41
1
10
71.9970346433369
20
-6.1710055328119
30
0
41
1
10
71.8756801031081
20
-6.00078899233253
30
0
41
1
10
71.7586574504138
20
-5.71488485739545
30
0
41
1
10
71.7370091677676
20
-5.65399942850837
30
0
41
1
10
71.6973657104011
20
-5.52452276188103
30
0
41
1
10
71.679335005707
20
-5.45568996588679
30
0
41
1
10
71.6316980536961
20
-5.24062699980297
30
0
41
1
10
71.6082159513864
20
-5.08509485245708
30
0
41
1
10
71.5775520878711
20
-4.75008616439902
30
0
41
1
10
71.570369610671
20
-4.57061067544743
30
0
41
1
10
71.5721705912757
20
-4.28292583610346
30
0
41
1
10
71.5748865049043
20
-4.1836745673439
30
0
41
1
10
71.584587280511
20
-3.98008641918403
30
0
41
1
10
71.5915423578909
20
-3.87612908013571
30
0
41
1
10
71.6005679697631
20
-3.77004358176916
30
0
0
SPLINE
5
B7
100
AcDbEntity
8
1
62
256
6
ByLayer
370
18
48
1
60
0
100
AcDbSpline
70
4
71
3
72
14
73
10
40
0
40
0
40
0
40
0
40
0.25
40
0.25
40
0.5
40
0.5
40
0.75
40
0.75
40
1
40
1
40
1
40
1
41
1
10
73.9862711471801
20
3.28285106015167
30
0
41
1
10
73.8823966754162
20
3.56254890733066
30
0
41
1
10
73.7782372773108
20
3.84123850241397
30
0
41
1
10
73.5693993238124
20
4.39678058120413
30
0
41
1
10
73.4648380226434
20
4.67404798554102
30
0
41
1
10
73.255303137464
20
5.22712387315971
30
0
41
1
10
73.1503068301028
20
5.5029207196356
30
0
41
1
10
72.9398501598363
20
6.0525868396582
30
0
41
1
10
72.8345913935304
20
6.32686885967516
30
0
41
1
10
72.7292870463776
20
6.60032551321765
30
0
0
SPLINE
5
B8
100
AcDbEntity
8
1
62
256
6
ByLayer
370
18
48
1
60
0
100
AcDbSpline
70
4
71
3
72
14
73
10
40
0
40
0
40
0
40
0
40
0.236101307348686
40
0.236101307348686
40
0.376137698911006
40
0.376137698911006
40
0.516174090473327
40
0.516174090473327
40
1
40
1
40
1
40
1
41
1
10
52.8682620181491
20
0.002634515947733
30
0
41
1
10
53.5764586518588
20
-0.393667301257835
30
0
41
1
10
54.2863110327216
20
-0.791176275533843
30
0
41
1
10
55.4245600306463
20
-1.41780550174079
30
0
41
1
10
55.8506976425842
20
-1.6501052972001
30
0
41
1
10
56.6977942913871
20
-2.10441867614935
30
0
41
1
10
57.119794508169
20
-2.32707851969644
30
0
41
1
10
58.9952604193029
20
-3.29531581879559
30
0
41
1
10
60.4385932963238
20
-3.98093392491904
30
0
41
1
10
61.8940173990223
20
-4.56572010606502
30
0
0
SPLINE
5
B9
100
AcDbEntity
8
1
62
256
6
ByLayer
370
13
48
1
60
0
100
AcDbSpline
70
4
71
3
72
24
73
20
40
0
40
0
40
0
40
0
40
0.0637798500597588
40
0.0637798500597588
40
0.122293609431024
40
0.122293609431024
40
0.180807368802289
40
0.180807368802289
40
0.29783488754482
40
0.29783488754482
40
0.531889925029881
40
0.531889925029881
40
0.765944962514942
40
0.765944962514942
40
0.882972481257473
40
0.882972481257473
40
0.941486240628737
40
0.941486240628737
40
1
40
1
40
1
40
1
41
1
10
61.894017399082
20
-4.56572010608895
30
0
41
1
10
62.1235988780954
20
-4.65796543590349
30
0
41
1
10
62.3534812174199
20
-4.74770181210749
30
0
41
1
10
62.7950170896561
20
-4.91468703114359
30
0
41
1
10
63.0066112612787
20
-4.99235228676156
30
0
41
1
10
63.4306105976151
20
-5.14300883359306
30
0
41
1
10
63.6433207530112
20
-5.21609680899681
30
0
41
1
10
64.2804559825633
20
-5.42715605607731
30
0
41
1
10
64.7034263023744
20
-5.55678207268426
30
0
41
1
10
65.968835084333
20
-5.91142302117612
30
0
41
1
10
66.80776189763
20
-6.10217488780964
30
0
41
1
10
68.4850420796113
20
-6.38736505783521
30
0
41
1
10
69.3235567873429
20
-6.48171432998723
30
0
41
1
10
70.588089887419
20
-6.54745200555081
30
0
41
1
10
71.010706623697
20
-6.55669877651331
30
0
41
1
10
71.6471433397562
20
-6.55106071208374
30
0
41
1
10
71.8598550737009
20
-6.54592046482455
30
0
41
1
10
72.284930135033
20
-6.52911300143342
30
0
41
1
10
72.4974187426452
20
-6.51717081433287
30
0
41
1
10
72.7099108642372
20
-6.50254754722761
30
0
0
SPLINE
5
BA
100
AcDbEntity
8
1
62
256
6
ByLayer
370
18
48
1
60
0
100
AcDbSpline
70
4
71
3
72
56
73
52
40
0
40
0
40
0
40
0
40
0.0328159326693114
40
0.0328159326693114
40
0.0656318653386228
40
0.0656318653386228
40
0.131263730677246
40
0.131263730677246
40
0.164079663346557
40
0.164079663346557
40
0.196895596015869
40
0.196895596015869
40
0.22971152868518
40
0.22971152868518
40
0.262527461354491
40
0.262527461354491
40
0.328159326693113
40
0.328159326693113
40
0.360975259362424
40
0.360975259362424
40
0.393791192031735
40
0.393791192031735
40
0.426607124701046
40
0.426607124701046
40
0.459423057370357
40
0.459423057370357
40
0.525054922708979
40
0.525054922708979
40
0.55787085537829
40
0.55787085537829
40
0.590686788047601
40
0.590686788047601
40
0.656318653386223
40
0.656318653386223
40
0.721950518724845
40
0.721950518724845
40
0.754766451394156
40
0.754766451394156
40
0.787582384063467
40
0.787582384063467
40
0.853214249402089
40
0.853214249402089
40
0.8860301820714
40
0.8860301820714
40
0.918846114740711
40
0.918846114740711
40
0.951662047410022
40
0.951662047410022
40
0.984477980079333
40
0.984477980079333
40
1
40
1
40
1
40
1
41
1
10
72.635731218287
20
-6.70174549324406
30
0
41
1
10
72.2184450355532
20
-6.7302790319072
30
0
41
1
10
71.8012833330662
20
-6.74592835660332
30
0
41
1
10
70.9661744962502
20
-6.75141559899356
30
0
41
1
10
70.5482741358786
20
-6.74121140218077
30
0
41
1
10
69.2975787289321
20
-6.67225201340574
30
0
41
1
10
68.4659283668026
20
-6.57516597415673
30
0
41
1
10
67.2144706227129
20
-6.35515257609995
30
0
41
1
10
66.7962972766965
20
-6.2693266499372
30
0
41
1
10
65.9622117856705
20
-6.07459409174149
30
0
41
1
10
65.5457413900317
20
-5.96560991747842
30
0
41
1
10
64.7128331655877
20
-5.72537525042418
30
0
41
1
10
64.2963948897876
20
-5.59412272264797
30
0
41
1
10
63.4623464671251
20
-5.31037993135675
30
0
41
1
10
63.0441788850734
20
-5.15766758506004
30
0
41
1
10
61.792595763307
20
-4.672088474882
30
0
41
1
10
60.9607481359799
20
-4.31136997997382
30
0
41
1
10
59.7097072284545
20
-3.72419610041357
30
0
41
1
10
59.2915427864737
20
-3.52045482348967
30
0
41
1
10
58.4567193704228
20
-3.10089402674976
30
0
41
1
10
58.0400931791631
20
-2.8850758911299
30
0
41
1
10
57.2070612933553
20
-2.44353222516787
30
0
41
1
10
56.7906282233971
20
-2.21785306695949
30
0
41
1
10
55.9568020889947
20
-1.75851491346538
30
0
41
1
10
55.5389111403659
20
-1.52448233467561
30
0
41
1
10
54.2860256503019
20
-0.815514216911367
30
0
41
1
10
53.4540523800422
20
-0.334721739897248
30
0
41
1
10
52.2035396361426
20
0.385666422056659
30
0
41
1
10
51.7859988524604
20
0.625885212173216
30
0
41
1
10
50.9503251413499
20
1.10344158591394
30
0
41
1
10
50.5333325030353
20
1.34000836977799
30
0
41
1
10
49.2831385340408
20
2.04015750382945
30
0
41
1
10
48.4507860475881
20
2.49429618419572
30
0
41
1
10
46.7787365323548
20
3.3613195689565
30
0
41
1
10
45.9461036826927
20
3.77042366141643
30
0
41
1
10
44.6958944859903
20
4.33715888036619
30
0
41
1
10
44.2788816453227
20
4.51822993751642
30
0
41
1
10
43.4431794980406
20
4.86309574552013
30
0
41
1
10
43.0254398453475
20
5.02648917502503
30
0
41
1
10
41.7745910929985
20
5.48595242170987
30
0
41
1
10
40.942287603366
20
5.75204794946461
30
0
41
1
10
39.6892148470737
20
6.08380008450854
30
0
41
1
10
39.2710542407683
20
6.18300928919811
30
0
41
1
10
38.4367579948743
20
6.35697887092451
30
0
41
1
10
38.0200566225497
20
6.43189676166702
30
0
41
1
10
37.1863119556854
20
6.55698135406203
30
0
41
1
10
36.7692737018204
20
6.60715327905396
30
0
41
1
10
35.9337227937104
20
6.68218102899195
30
0
41
1
10
35.515611210325
20
6.70695584436407
30
0
41
1
10
34.901167847407
20
6.72444802352007
30
0
41
1
10
34.7039642545749
20
6.72719114884038
30
0
41
1
10
34.5067991944585
20
6.72706454768513
30
0
0
SPLINE
5
BB
100
AcDbEntity
8
1
62
256
6
ByLayer
370
18
48
1
60
0
100
AcDbSpline
70
4
71
3
72
30
73
26
40
0
40
0
40
0
40
0
40
0.125
40
0.125
40
0.156250000000001
40
0.156250000000001
40
0.187500000000002
40
0.187500000000002
40
0.250000000000002
40
0.250000000000002
40
0.375000000000002
40
0.375000000000002
40
0.437500000000002
40
0.437500000000002
40
0.500000000000002
40
0.500000000000002
40
0.625000000000001
40
0.625000000000001
40
0.750000000000001
40
0.750000000000001
40
0.812500000000001
40
0.812500000000001
40
0.875
40
0.875
40
1
40
1
40
1
40
1
41
1
10
65.7756090808381
20
2.44640225935007
30
0
41
1
10
65.8715977294133
20
2.11497441645813
30
0
41
1
10
66.0058465986012
20
1.78647531900464
30
0
41
1
10
66.2125562002656
20
1.37882905283325
30
0
41
1
10
66.2560129890247
20
1.29719232086515
30
0
41
1
10
66.3458494834347
20
1.13574130929109
30
0
41
1
10
66.3922123554413
20
1.05592562269263
30
0
41
1
10
66.5352809303676
20
0.818985125832228
30
0
41
1
10
66.635951400102
20
0.664357310583824
30
0
41
1
10
66.9517006674064
20
0.209125915458515
30
0
41
1
10
67.1804032677944
20
-0.0828974453809224
30
0
41
1
10
67.5456103195488
20
-0.506980516550044
30
0
41
1
10
67.6707209383545
20
-0.645564528927508
30
0
41
1
10
67.9243822029008
20
-0.915145536055803
30
0
41
1
10
68.0533130959833
20
-1.04658473505089
30
0
41
1
10
68.4456507808462
20
-1.43205438202375
30
0
41
1
10
68.7144422160389
20
-1.67749276372598
30
0
41
1
10
69.2653324271882
20
-2.14713552052248
30
0
41
1
10
69.5473453725774
20
-2.37147685211852
30
0
41
1
10
69.978559294928
20
-2.69491319744694
30
0
41
1
10
70.1238323917794
20
-2.80062203808586
30
0
41
1
10
70.4155373841568
20
-3.00691701651576
30
0
41
1
10
70.5621074633301
20
-3.10761931514685
30
0
41
1
10
71.0038208563543
20
-3.4029003845082
30
0
41
1
10
71.3009692783767
20
-3.59064667491958
30
0
41
1
10
71.6005679697631
20
-3.77004358176916
30
0
0
SPLINE
5
BC
100
AcDbEntity
8
1
62
256
6
ByLayer
370
18
48
1
60
0
100
AcDbSpline
70
4
71
3
72
8
73
4
40
0
40
0
40
0
40
0
40
1
40
1
40
1
40
1
41
1
10
34.6235249053184
20
-6.43186807747477
30
0
41
1
10
33.8240708403398
20
-6.42800889201899
30
0
41
1
10
33.0272449308474
20
-6.37908036623023
30
0
41
1
10
32.2292451070035
20
-6.28608468240338
30
0
0
SPLINE
5
BD
100
AcDbEntity
8
1
62
256
6
ByLayer
370
18
48
1
60
0
100
AcDbSpline
70
4
71
3
72
8
73
4
40
0
40
0
40
0
40
0
40
1
40
1
40
1
40
1
41
1
10
72.635731218287
20
-6.70174549324406
30
0
41
1
10
72.6604803279007
20
-6.63539544099712
30
0
41
1
10
72.6852068822982
20
-6.56899613819888
30
0
41
1
10
72.7099108642527
20
-6.50254754723426
30
0
0
SPLINE
5
BE
100
AcDbEntity
8
1
62
256
6
ByLayer
370
18
48
1
60
0
100
AcDbSpline
70
4
71
3
72
10
73
6
40
0
40
0
40
0
40
0
40
0.694909905799902
40
0.694909905799902
40
1
40
1
40
1
40
1
41
1
10
32.6211290633077
20
-6.70589484030654
30
0
41
1
10
32.8304091608148
20
-6.71527197931502
30
0
41
1
10
33.0395115676616
20
-6.72145726835347
30
0
41
1
10
33.3400185790793
20
-6.72573362047831
30
0
41
1
10
33.4316127157815
20
-6.72641497134879
30
0
41
1
10
33.5231851679304
20
-6.72647234816733
30
0
0
SPLINE
5
BF
100
AcDbEntity
8
1
62
256
6
ByLayer
370
18
48
1
60
0
100
AcDbSpline
70
4
71
3
72
34
73
30
40
0
40
0
40
0
40
0
40
0.0517847802746827
40
0.0517847802746827
40
0.157142026910828
40
0.157142026910828
40
0.262499273546974
40
0.262499273546974
40
0.315177896865048
40
0.315177896865048
40
0.367856520183122
40
0.367856520183122
40
0.47321376681927
40
0.47321376681927
40
0.525892390137343
40
0.525892390137343
40
0.578571013455415
40
0.578571013455415
40
0.683928260091561
40
0.683928260091561
40
0.736606883409635
40
0.736606883409635
40
0.789285506727709
40
0.789285506727709
40
0.894642753363855
40
0.894642753363855
40
0.947321376681927
40
0.947321376681927
40
1
40
1
40
1
40
1
41
1
10
60.8389629182897
20
4.66981995242676
30
0
41
1
10
61.0445179876492
20
4.75506708845532
30
0
41
1
10
61.2501779503044
20
4.83818525434839
30
0
41
1
10
61.8742263516862
20
5.08427701914309
30
0
41
1
10
62.2906806752248
20
5.24096966268542
30
0
41
1
10
63.1259459581491
20
5.53086736472471
30
0
41
1
10
63.5440860028147
20
5.66496819530656
30
0
41
1
10
64.1709242998538
20
5.85084315619577
30
0
41
1
10
64.3797653552658
20
5.91039862845153
30
0
41
1
10
64.7972145325408
20
6.0235162580158
30
0
41
1
10
65.0060873662615
20
6.07691913382547
30
0
41
1
10
65.6328664514331
20
6.22807032375184
30
0
41
1
10
66.0508717567457
20
6.31686313011812
30
0
41
1
10
66.6769827417988
20
6.43262194217539
30
0
41
1
10
66.8853669720779
20
6.46835703869417
30
0
41
1
10
67.3030881513602
20
6.53327190719773
30
0
41
1
10
67.5123251418939
20
6.56249260949275
30
0
41
1
10
68.1395704834953
20
6.64057401742818
30
0
41
1
10
68.5575530194096
20
6.6799927451892
30
0
41
1
10
69.1830874041354
20
6.72022351082992
30
0
41
1
10
69.3913735075598
20
6.7304401439313
30
0
41
1
10
69.8089489891158
20
6.74430355235214
30
0
41
1
10
70.0181193993813
20
6.74799320969288
30
0
41
1
10
70.6459409184349
20
6.74942391597045
30
0
41
1
10
71.0636105290311
20
6.73758357761835
30
0
41
1
10
71.6878193682167
20
6.70030311938947
30
0
41
1
10
71.8958054712298
20
6.68464913238788
30
0
41
1
10
72.3123610522374
20
6.64716040934039
30
0
41
1
10
72.5208017721125
20
6.62530539858452
30
0
41
1
10
72.7292870463776
20
6.60032551321791
30
0
0
SPLINE
5
C0
100
AcDbEntity
8
1
62
256
6
ByLayer
370
18
48
1
60
0
100
AcDbSpline
70
4
71
3
72
18
73
14
40
0
40
0
40
0
40
0
40
0.0222977298020559
40
0.0222977298020559
40
0.182156483633982
40
0.182156483633982
40
0.501873991297834
40
0.501873991297834
40
0.821591498961685
40
0.821591498961685
40
0.981450252793611
40
0.981450252793611
40
1
40
1
40
1
40
1
41
1
10
71.6332971284862
20
-6.45367657603228
30
0
41
1
10
71.5740291135899
20
-6.45417812856533
30
0
41
1
10
71.5147899441701
20
-6.454429771039
30
0
41
1
10
71.0312095307482
20
-6.45444617731997
30
0
41
1
10
70.6084555240389
20
-6.44165940561558
30
0
41
1
10
69.3434134204294
20
-6.36591591141453
30
0
41
1
10
68.5043905580576
20
-6.26573669943264
30
0
41
1
10
66.8259884781903
20
-5.97069748385618
30
0
41
1
10
65.9864528754954
20
-5.77590543608903
30
0
41
1
10
64.7202140228468
20
-5.41675087878522
30
0
41
1
10
64.296977905545
20
-5.28587562937307
30
0
41
1
10
63.8226635410894
20
-5.12775163734986
30
0
41
1
10
63.7733360451705
20
-5.11116953183108
30
0
41
1
10
63.7240081106932
20
-5.09445157228004
30
0
0
SPLINE
5
C1
100
AcDbEntity
8
1
62
256
6
ByLayer
370
13
48
1
60
0
100
AcDbSpline
70
4
71
3
72
24
73
20
40
0
40
0
40
0
40
0
40
0.032227875019067
40
0.032227875019067
40
0.0741954460451567
40
0.0741954460451567
40
0.409936014253876
40
0.409936014253876
40
0.493871156306056
40
0.493871156306056
40
0.577806298358236
40
0.577806298358236
40
0.745676582462593
40
0.745676582462593
40
0.913546866566951
40
0.913546866566951
40
0.997482008619131
40
0.997482008619131
40
1
40
1
40
1
40
1
41
1
10
63.7240081107328
20
-5.09445157229345
30
0
41
1
10
63.5607859212814
20
-5.03913318140624
30
0
41
1
10
63.3975589300758
20
-4.98232733129058
30
0
41
1
10
63.0226783950106
20
-4.84858699119764
30
0
41
1
10
62.8110226835808
20
-4.77066986072978
30
0
41
1
10
60.9090173779583
20
-4.0499102955277
30
0
41
1
10
59.2388428871705
20
-3.27057818557123
30
0
41
1
10
57.1324801323296
20
-2.19239256970991
30
0
41
1
10
56.7101882482452
20
-1.97170429731784
30
0
41
1
10
55.8625548212852
20
-1.5218615696862
30
0
41
1
10
55.4362888280973
20
-1.29212778965899
30
0
41
1
10
54.1647271169229
20
-0.600740466281593
30
0
41
1
10
53.3233179146726
20
-0.134738639607661
30
0
41
1
10
51.643369999648
20
0.789540467625727
30
0
41
1
10
50.8051056397229
20
1.24832216549862
30
0
41
1
10
49.5433537670085
20
1.91875619905864
30
0
41
1
10
49.1220947279645
20
2.1393677707575
30
0
41
1
10
48.6868338638824
20
2.36242555410055
30
0
41
1
10
48.6741552304194
20
2.36891874150436
30
0
41
1
10
48.6614751670885
20
2.375408406925
30
0
0
SPLINE
5
C2
100
AcDbEntity
8
1
62
256
6
ByLayer
370
18
48
1
60
0
100
AcDbSpline
70
4
71
3
72
20
73
16
40
0
40
0
40
0
40
0
40
0.125000000000002
40
0.125000000000002
40
0.250000000000005
40
0.250000000000005
40
0.500000000000003
40
0.500000000000003
40
0.750000000000001
40
0.750000000000001
40
0.875000000000001
40
0.875000000000001
40
0.9375
40
0.9375
40
1
40
1
40
1
40
1
41
1
10
32.22832123987
20
6.66530168026776
30
0
41
1
10
32.1257044958818
20
6.74840679101345
30
0
41
1
10
32.0233920498906
20
6.82977859268698
30
0
41
1
10
31.8195570912835
20
6.98854986971708
30
0
41
1
10
31.7181457641828
20
7.06574049029311
30
0
41
1
10
31.4137678677236
20
7.29340046175761
30
0
41
1
10
31.210922657827
20
7.43965500242609
30
0
41
1
10
30.8070837016399
20
7.71674076668265
30
0
41
1
10
30.6075483660291
20
7.84558548954328
30
0
41
1
10
30.3083492716102
20
8.03003086805197
30
0
41
1
10
30.2087982215604
20
8.08975412498413
30
0
41
1
10
30.0602111016641
20
8.17559955133655
30
0
41
1
10
30.010799222685
20
8.20360231141615
30
0
41
1
10
29.9123527258977
20
8.25803000949389
30
0
41
1
10
29.8633645934684
20
8.28435021400807
30
0
41
1
10
29.8143529134878
20
8.3103100368528
30
0
0
SPLINE
5
C3
100
AcDbEntity
8
1
62
256
6
ByLayer
370
18
48
1
60
0
100
AcDbSpline
70
4
71
3
72
24
73
20
40
0
40
0
40
0
40
0
40
0.125000000000002
40
0.125000000000002
40
0.250000000000003
40
0.250000000000003
40
0.312500000000004
40
0.312500000000004
40
0.375000000000005
40
0.375000000000005
40
0.500000000000004
40
0.500000000000004
40
0.625000000000003
40
0.625000000000003
40
0.750000000000002
40
0.750000000000002
40
0.875000000000001
40
0.875000000000001
40
1
40
1
40
1
40
1
41
1
10
28.3903118537171
20
3.91584024585978
30
0
41
1
10
27.9834919060532
20
4.1942620740104
30
0
41
1
10
27.577646330091
20
4.46546415734403
30
0
41
1
10
26.7642350262601
20
4.98934446129957
30
0
41
1
10
26.3571294248972
20
5.24258322742241
30
0
41
1
10
25.7460801045383
20
5.60943720298943
30
0
41
1
10
25.5424444712157
20
5.72946905825395
30
0
41
1
10
25.1354730567658
20
5.96325365517706
30
0
41
1
10
24.9320644251052
20
6.07722300964164
30
0
41
1
10
24.3220583967441
20
6.41043619799405
30
0
41
1
10
23.9156515971093
20
6.62098685702642
30
0
41
1
10
23.1036795049876
20
7.01903070214962
30
0
41
1
10
22.6971889588542
20
7.20569696299182
30
0
41
1
10
21.8809983483362
20
7.55247909694373
30
0
41
1
10
21.4739080066673
20
7.71190196347777
30
0
41
1
10
20.6621683929124
20
8.0028839217488
30
0
41
1
10
20.256352629523
20
8.13373778674466
30
0
41
1
10
19.4433660553758
20
8.36559325696285
30
0
41
1
10
19.0363609454521
20
8.46671367039599
30
0
41
1
10
18.62896126768
20
8.55276801000616
30
0
0
SPLINE
5
C4
100
AcDbEntity
8
1
62
256
6
ByLayer
370
18
48
1
60
0
100
AcDbSpline
70
4
71
3
72
8
73
4
40
0
40
0
40
0
40
0
40
1
40
1
40
1
40
1
41
1
10
32.5963031560953
20
-6.6362531904318
30
0
41
1
10
32.6048271796199
20
-6.6678047876502
30
0
41
1
10
32.6131981086073
20
-6.6909893533298
30
0
41
1
10
32.6211290633077
20
-6.70589484030654
30
0
0
SPLINE
5
C5
100
AcDbEntity
8
1
62
256
6
ByLayer
370
18
48
1
60
0
100
AcDbSpline
70
4
71
3
72
32
73
28
40
0
40
0
40
0
40
0
40
0.125000000000011
40
0.125000000000011
40
0.250000000000021
40
0.250000000000021
40
0.31250000000002
40
0.31250000000002
40
0.375000000000018
40
0.375000000000018
40
0.500000000000015
40
0.500000000000015
40
0.625000000000011
40
0.625000000000011
40
0.687500000000009
40
0.687500000000009
40
0.750000000000008
40
0.750000000000008
40
0.812500000000006
40
0.812500000000006
40
0.875000000000004
40
0.875000000000004
40
0.906250000000004
40
0.906250000000004
40
0.937500000000003
40
0.937500000000003
40
1
40
1
40
1
40
1
41
1
10
71.867019438326
20
1.87975068203537
30
0
41
1
10
71.9835824964431
20
1.89772101178494
30
0
41
1
10
72.0998812278728
20
1.91754777550787
30
0
41
1
10
72.331419574377
20
1.96179068101878
30
0
41
1
10
72.4467081653513
20
1.98620870185701
30
0
41
1
10
72.6181076622383
20
2.02844637031646
30
0
41
1
10
72.6749917670739
20
2.04345692934874
30
0
41
1
10
72.7879377028567
20
2.07603677664909
30
0
41
1
10
72.8437809123527
20
2.0942009410997
30
0
41
1
10
73.0104398693504
20
2.15089162433375
30
0
41
1
10
73.1199740657169
20
2.19267601017495
30
0
41
1
10
73.3338152826375
20
2.288472070963
30
0
41
1
10
73.4372692175312
20
2.34196421184552
30
0
41
1
10
73.5838975319245
20
2.43627124047734
30
0
41
1
10
73.6313287442293
20
2.4700850161779
30
0
41
1
10
73.7222020996184
20
2.54434549682554
30
0
41
1
10
73.7651941296278
20
2.58448058874072
30
0
41
1
10
73.8432309385434
20
2.67147102465285
30
0
41
1
10
73.8788435475133
20
2.7191319921059
30
0
41
1
10
73.9376828033221
20
2.82055272880146
30
0
41
1
10
73.9608945088468
20
2.87399906650791
30
0
41
1
10
73.9851015102933
20
2.95889728966918
30
0
41
1
10
73.9914224369292
20
2.98824320916148
30
0
41
1
10
74.0000727762855
20
3.04696517820059
30
0
41
1
10
74.0024579907216
20
3.07638965555205
30
0
41
1
10
74.0042430144884
20
3.16484248523628
30
0
41
1
10
73.9981230965116
20
3.22465301895184
30
0
41
1
10
73.9862711471801
20
3.28285106015167
30
0
0
SPLINE
5
C6
100
AcDbEntity
8
1
62
256
6
ByLayer
370
18
48
1
60
0
100
AcDbSpline
70
4
71
3
72
8
73
4
40
0
40
0
40
0
40
0
40
1
40
1
40
1
40
1
41
1
10
72.7309444469323
20
-6.41582310420898
30
0
41
1
10
72.6995519461756
20
-6.44186302926701
30
0
41
1
10
72.6727453206421
20
-6.45496731174003
30
0
41
1
10
72.6505963640258
20
-6.4549334390243
30
0
0
SPLINE
5
C7
100
AcDbEntity
8
1
62
256
6
ByLayer
370
18
48
1
60
0
100
AcDbSpline
70
4
71
3
72
91
73
87
40
0
40
0
40
0
40
0
40
0.0625000000000008
40
0.0625000000000008
40
0.0937500000000012
40
0.0937500000000012
40
0.125000000000002
40
0.125000000000002
40
0.187500000000002
40
0.187500000000002
40
0.250000000000003
40
0.250000000000003
40
0.281250000000004
40
0.281250000000004
40
0.312500000000005
40
0.312500000000005
40
0.375000000000007
40
0.375000000000007
40
0.406250000000007
40
0.406250000000007
40
0.437500000000008
40
0.437500000000008
40
0.468750000000009
40
0.468750000000009
40
0.472656250000009
40
0.472656250000009
40
0.47460937500001
40
0.47460937500001
40
0.47656250000001
40
0.47656250000001
40
0.47753906250001
40
0.47753906250001
40
0.47851562500001
40
0.47851562500001
40
0.480468750000011
40
0.484375000000011
40
0.484375000000011
40
0.500000000000011
40
0.500000000000011
40
0.515625000000011
40
0.515625000000011
40
0.531250000000011
40
0.531250000000011
40
0.546875000000011
40
0.546875000000011
40
0.554687500000011
40
0.554687500000011
40
0.562500000000011
40
0.562500000000011
40
0.57812500000001
40
0.57812500000001
40
0.58593750000001
40
0.58593750000001
40
0.59375000000001
40
0.59375000000001
40
0.609375000000009
40
0.609375000000009
40
0.617187500000009
40
0.617187500000009
40
0.625000000000009
40
0.625000000000009
40
0.640625000000008
40
0.640625000000008
40
0.656250000000008
40
0.656250000000008
40
0.687500000000008
40
0.687500000000008
40
0.703125000000007
40
0.703125000000007
40
0.718750000000007
40
0.718750000000007
40
0.750000000000007
40
0.750000000000007
40
0.781250000000006
40
0.781250000000006
40
0.812500000000006
40
0.812500000000006
40
0.828125000000005
40
0.828125000000005
40
0.843750000000005
40
0.843750000000005
40
0.875000000000004
40
0.875000000000004
40
0.937500000000002
40
0.937500000000002
40
1
40
1
40
1
40
1
41
1
10
27.6616738898426
20
-7.58694434368323
30
0
41
1
10
26.9990798212512
20
-7.32236672385756
30
0
41
1
10
26.3312723439454
20
-7.02735648818245
30
0
41
1
10
25.3147251324101
20
-6.55186481644844
30
0
41
1
10
24.9733674994638
20
-6.38790398788731
30
0
41
1
10
24.2841370397273
20
-6.05166768541085
30
0
41
1
10
23.9376051733011
20
-5.88005370104557
30
0
41
1
10
22.8930143946278
20
-5.36087328953505
30
0
41
1
10
22.1887213319718
20
-5.0083684741459
30
0
41
1
10
20.7536950716696
20
-4.31727613676676
30
0
41
1
10
20.0229260252787
20
-3.97877471823341
30
0
41
1
10
18.9002227580546
20
-3.50117997949206
30
0
41
1
10
18.5215808778589
20
-3.34699482015262
30
0
41
1
10
17.7545875856506
20
-3.05168344869861
30
0
41
1
10
17.3659642949824
20
-2.91046606225493
30
0
41
1
10
16.1861047814386
20
-2.51122093969269
30
0
41
1
10
15.3890578818931
20
-2.28052043515484
30
0
41
1
10
14.1761350687276
20
-1.99779408898095
30
0
41
1
10
13.7689446030658
20
-1.91406130103397
30
0
41
1
10
12.9485857781043
20
-1.76892653162921
30
0
41
1
10
12.5351039036527
20
-1.70751572739843
30
0
41
1
10
11.7066885281421
20
-1.60868088383103
30
0
41
1
10
11.2912222931301
20
-1.57113770003741
30
0
41
1
10
10.8223777724627
20
-1.54263537922051
30
0
41
1
10
10.77026385111
20
-1.53965928576116
30
0
41
1
10
10.6920627413269
20
-1.53548250065489
30
0
41
1
10
10.6659737059808
20
-1.53398982217334
30
0
41
1
10
10.6138615895614
20
-1.531705587961
30
0
41
1
10
10.5880844484208
20
-1.53356135586449
30
0
41
1
10
10.5499198567679
20
-1.54172922665558
30
0
41
1
10
10.5371137065294
20
-1.54543954935389
30
0
41
1
10
10.5127012454648
20
-1.55491773010766
30
0
41
1
10
10.5012641645429
20
-1.56086992396118
30
0
41
1
10
10.4683085977099
20
-1.58086077951773
30
0
41
1
10
10.4025723007792
20
-1.62110105003046
30
0
41
1
10
10.3373702115813
20
-1.6621301565298
30
0
41
1
10
10.1212642594348
20
-1.80071101015622
30
0
41
1
10
9.95256507403772
20
-1.91724403316419
30
0
41
1
10
9.62745213987492
20
-2.16151207094487
30
0
41
1
10
9.47069065770137
20
-2.28944535242164
30
0
41
1
10
9.17103635249444
20
-2.55893763719192
30
0
41
1
10
9.02788618138948
20
-2.70073465548904
30
0
41
1
10
8.75992227067317
20
-3.00001838397685
30
0
41
1
10
8.63733810800906
20
-3.15501074809788
30
0
41
1
10
8.47347570999244
20
-3.39654674138532
30
0
41
1
10
8.42220173920001
20
-3.47857104017646
30
0
41
1
10
8.32700888448912
20
-3.64588230474203
30
0
41
1
10
8.28292360130314
20
-3.73154002105324
30
0
41
1
10
8.16411386841088
20
-3.99121923590303
30
0
41
1
10
8.10364765760289
20
-4.16576410745978
30
0
41
1
10
8.04229350981214
20
-4.42932291496521
30
0
41
1
10
8.02673982936136
20
-4.51746638124467
30
0
41
1
10
8.00572265249974
20
-4.69426935322753
30
0
41
1
10
8.00040130484174
20
-4.78203856706099
30
0
41
1
10
7.99929826483074
20
-5.04054016920625
30
0
41
1
10
8.01817469163478
20
-5.20773339236558
30
0
41
1
10
8.072516061296
20
-5.45119964479665
30
0
41
1
10
8.09506900163063
20
-5.53127195920302
30
0
41
1
10
8.14731094887244
20
-5.68621612784628
30
0
41
1
10
8.17706488323907
20
-5.76147445702219
30
0
41
1
10
8.27593980299281
20
-5.98126385012407
30
0
41
1
10
8.35461757466859
20
-6.11983898062132
30
0
41
1
10
8.53247683346925
20
-6.38362758462364
30
0
41
1
10
8.63216709836536
20
-6.50923916781602
30
0
41
1
10
8.9500549819131
20
-6.86177498185589
30
0
41
1
10
9.18807902827308
20
-7.06753228606743
30
0
41
1
10
9.56984362693177
20
-7.34545191318244
30
0
41
1
10
9.70133851198548
20
-7.43285960983968
30
0
41
1
10
9.97139631767027
20
-7.59845872122548
30
0
41
1
10
10.1101756782597
20
-7.67673045788627
30
0
41
1
10
10.5314161435281
20
-7.89703327917698
30
0
41
1
10
10.8199597443468
20
-8.02554155228222
30
0
41
1
10
11.4075277706846
20
-8.25310114629531
30
0
41
1
10
11.7065981696493
20
-8.35207641972576
30
0
41
1
10
12.3125327604522
20
-8.52425981387924
30
0
41
1
10
12.6194153717104
20
-8.59743460839982
30
0
41
1
10
13.0844740157138
20
-8.68930329341418
30
0
41
1
10
13.2402907878618
20
-8.71693250950614
30
0
41
1
10
13.5534150815814
20
-8.76633752013785
30
0
41
1
10
13.7109503878858
20
-8.78813644215973
30
0
41
1
10
14.1834686176903
20
-8.84462331589916
30
0
41
1
10
14.4985696869437
20
-8.87049753195859
30
0
41
1
10
15.4442931922838
20
-8.91473178814385
30
0
41
1
10
16.0751311895791
20
-8.89973385917017
30
0
41
1
10
17.3437239152143
20
-8.78685276327278
30
0
41
1
10
17.9815262903455
20
-8.68872227422887
30
0
41
1
10
18.628972919899
20
-8.55276953160623
30
0
0
SPLINE
5
C8
100
AcDbEntity
8
1
62
256
6
ByLayer
370
18
48
1
60
0
100
AcDbSpline
70
2053
71
3
72
62
73
58
40
0
40
0
40
0
40
0
40
0.0312500000000012
40
0.0312500000000012
40
0.0625000000000023
40
0.0625000000000023
40
0.0937500000000035
40
0.0937500000000035
40
0.125000000000005
40
0.125000000000005
40
0.156250000000006
40
0.156250000000006
40
0.187500000000007
40
0.187500000000007
40
0.218750000000008
40
0.218750000000008
40
0.250000000000009
40
0.250000000000009
40
0.312500000000011
40
0.312500000000011
40
0.343750000000014
40
0.343750000000014
40
0.375000000000017
40
0.375000000000017
40
0.406250000000019
40
0.406250000000019
40
0.437500000000022
40
0.437500000000022
40
0.500000000000023
40
0.500000000000023
40
0.531250000000021
40
0.531250000000021
40
0.56250000000002
40
0.56250000000002
40
0.593750000000018
40
0.593750000000018
40
0.625000000000017
40
0.625000000000017
40
0.656250000000016
40
0.656250000000016
40
0.687500000000014
40
0.687500000000014
40
0.750000000000011
40
0.750000000000011
40
0.78125000000001
40
0.78125000000001
40
0.812500000000009
40
0.812500000000009
40
0.843750000000007
40
0.843750000000007
40
0.875000000000006
40
0.875000000000006
40
0.906250000000004
40
0.906250000000004
40
0.937500000000003
40
0.937500000000003
40
1
40
1
40
1
40
1
41
1
10
73.8546199593121
20
-2.43343442083516
30
0
41
1
10
73.8778899307731
20
-2.39838656835974
30
0
41
1
10
73.9005708984019
20
-2.36111221526002
30
0
41
1
10
73.9446892605389
20
-2.28186266301162
30
0
41
1
10
73.9663573061945
20
-2.23938950826278
30
0
41
1
10
74.0070606440445
20
-2.15142560481601
30
0
41
1
10
74.0259416200487
20
-2.10637262175692
30
0
41
1
10
74.0605059703352
20
-2.0139380038888
30
0
41
1
10
74.0763609662964
20
-1.9658362373433
30
0
41
1
10
74.1026439701869
20
-1.87245880811054
30
0
41
1
10
74.1132915234199
20
-1.82677137882524
30
0
41
1
10
74.1292178420413
20
-1.73755201306338
30
0
41
1
10
74.1341928415729
20
-1.69550190409646
30
0
41
1
10
74.1382184380568
20
-1.61818560840825
30
0
41
1
10
74.1372273328352
20
-1.58250327030265
30
0
41
1
10
74.1297784227262
20
-1.52062363136397
30
0
41
1
10
74.1232722361441
20
-1.49365037741683
30
0
41
1
10
74.0968776572959
20
-1.42659641599479
30
0
41
1
10
74.0700684402282
20
-1.39986129926942
30
0
41
1
10
74.0215658293414
20
-1.38420382900117
30
0
41
1
10
74.003843150656
20
-1.38297912358624
30
0
41
1
10
73.966204940683
20
-1.38811889162346
30
0
41
1
10
73.9464609761154
20
-1.39440781033483
30
0
41
1
10
73.9052446788807
20
-1.41393574164778
30
0
41
1
10
73.883607272644
20
-1.42730876275738
30
0
41
1
10
73.8393904128011
20
-1.46056988257723
30
0
41
1
10
73.8169266964704
20
-1.48032144551774
30
0
41
1
10
73.7484811356667
20
-1.54883858394214
30
0
41
1
10
73.7008164250777
20
-1.60782659838071
30
0
41
1
10
73.6320662866891
20
-1.71082102907096
30
0
41
1
10
73.6094350141338
20
-1.7477363035116
30
0
41
1
10
73.5648245450403
20
-1.8274694273322
30
0
41
1
10
73.5431151704504
20
-1.86988462439712
30
0
41
1
10
73.5024390724942
20
-1.95747074753339
30
0
41
1
10
73.4830409516489
20
-2.00359747462315
30
0
41
1
10
73.4480894826479
20
-2.09704388440781
30
0
41
1
10
73.4326810122389
20
-2.14382694233174
30
0
41
1
10
73.4062905921568
20
-2.23752121823753
30
0
41
1
10
73.3953627864234
20
-2.28460991190099
30
0
41
1
10
73.3796540851095
20
-2.37290146124894
30
0
41
1
10
73.3746067655955
20
-2.41540465381044
30
0
41
1
10
73.3685731222924
20
-2.53210806766589
30
0
41
1
10
73.3767087958661
20
-2.59523500456669
30
0
41
1
10
73.4029406171909
20
-2.6625499342037
30
0
41
1
10
73.4141111574235
20
-2.68074790752036
30
0
41
1
10
73.4398926300335
20
-2.70806844568367
30
0
41
1
10
73.4545964453984
20
-2.71744658344719
30
0
41
1
10
73.4872622598067
20
-2.72813112596873
30
0
41
1
10
73.5048563821847
20
-2.72933184752151
30
0
41
1
10
73.5423195765171
20
-2.72426286294223
30
0
41
1
10
73.5623419937671
20
-2.71790604725661
30
0
41
1
10
73.6039040882751
20
-2.69809445596275
30
0
41
1
10
73.6253207536512
20
-2.6847511656992
30
0
41
1
10
73.6693772584671
20
-2.65144952164056
30
0
41
1
10
73.6921615878742
20
-2.63134269035558
30
0
41
1
10
73.7614521538722
20
-2.5615327562777
30
0
41
1
10
73.8080800163903
20
-2.503530125786
30
0
41
1
10
73.8546199593121
20
-2.43343442083516
30
0
0
SPLINE
5
C9
100
AcDbEntity
8
1
62
256
6
ByLayer
370
18
48
1
60
0
100
AcDbSpline
70
4
71
3
72
34
73
30
40
0
40
0
40
0
40
0
40
0.0625000000000002
40
0.0625000000000002
40
0.125
40
0.125
40
0.250000000000001
40
0.250000000000001
40
0.312500000000001
40
0.312500000000001
40
0.343750000000001
40
0.343750000000001
40
0.375000000000001
40
0.375000000000001
40
0.500000000000001
40
0.500000000000001
40
0.531250000000001
40
0.531250000000001
40
0.5625
40
0.5625
40
0.625
40
0.625
40
0.75
40
0.75
40
0.8125
40
0.8125
40
0.875
40
0.875
40
1
40
1
40
1
40
1
41
1
10
32.2292451070035
20
0.772694479539211
30
0
41
1
10
32.2292451070035
20
0.566278648270128
30
0
41
1
10
32.2292451070036
20
0.358608264354103
30
0
41
1
10
32.2292451070036
20
-0.0592539835866148
30
0
41
1
10
32.2292451070036
20
-0.270564960534955
30
0
41
1
10
32.2292451070036
20
-0.89754118626729
30
0
41
1
10
32.2292451070036
20
-1.30744109777277
30
0
41
1
10
32.2292451070036
20
-1.91051042040442
30
0
41
1
10
32.2292451070035
20
-2.10955351612196
30
0
41
1
10
32.2292451070035
20
-2.40505410914625
30
0
41
1
10
32.2292451070036
20
-2.50323697836049
30
0
41
1
10
32.2292451070036
20
-2.69663377053143
30
0
41
1
10
32.2292451070036
20
-2.79204666571488
30
0
41
1
10
32.2292451070036
20
-3.26279053910434
30
0
41
1
10
32.2292451070035
20
-3.61932063952906
30
0
41
1
10
32.2292451070035
20
-4.03990637318597
30
0
41
1
10
32.2292451070036
20
-4.12276458357252
30
0
41
1
10
32.2292451070036
20
-4.28592782727455
30
0
41
1
10
32.2292451070035
20
-4.36643019886659
30
0
41
1
10
32.2292451070036
20
-4.60246747813289
30
0
41
1
10
32.2292451070036
20
-4.75212710083071
30
0
41
1
10
32.2292451070035
20
-5.17857131467548
30
0
41
1
10
32.2292451070036
20
-5.43315797292792
30
0
41
1
10
32.2292451070036
20
-5.76993667747374
30
0
41
1
10
32.2292451070035
20
-5.87490211855709
30
0
41
1
10
32.2292451070035
20
-6.06519425224454
30
0
41
1
10
32.2292451070036
20
-6.15108530833271
30
0
41
1
10
32.2292451070036
20
-6.38175611899587
30
0
41
1
10
32.2292451070035
20
-6.499754145759
30
0
41
1
10
32.2292451070035
20
-6.58024498582247
30
0
0
SPLINE
5
CA
100
AcDbEntity
8
1
62
256
6
ByLayer
370
18
48
1
60
0
100
AcDbSpline
70
4
71
3
72
8
73
4
40
0
40
0
40
0
40
0
40
1
40
1
40
1
40
1
41
1
10
32.621129063293
20
6.70589484030518
30
0
41
1
10
32.4902626239612
20
6.69354280290858
30
0
41
1
10
32.3593211324849
20
6.68001039852598
30
0
41
1
10
32.22832123987
20
6.6653016802677
30
0
0
SPLINE
5
CB
100
AcDbEntity
8
1
62
256
6
ByLayer
370
18
48
1
60
0
100
AcDbSpline
70
4
71
3
72
42
73
38
40
0
40
0
40
0
40
0
40
0.124999999999999
40
0.124999999999999
40
0.249999999999997
40
0.249999999999997
40
0.374999999999996
40
0.374999999999996
40
0.499999999999994
40
0.499999999999994
40
0.624999999999993
40
0.624999999999993
40
0.656249999999992
40
0.656249999999992
40
0.687499999999992
40
0.687499999999992
40
0.718749999999991
40
0.718749999999991
40
0.749999999999991
40
0.749999999999991
40
0.781249999999991
40
0.781249999999991
40
0.81249999999999
40
0.81249999999999
40
0.84374999999999
40
0.84374999999999
40
0.859374999999991
40
0.859374999999991
40
0.874999999999992
40
0.874999999999992
40
0.906249999999994
40
0.906249999999994
40
0.937499999999996
40
0.937499999999996
40
0.968749999999998
40
0.968749999999998
40
1
40
1
40
1
40
1
41
1
10
65.775609080838
20
2.44640225935004
30
0
41
1
10
66.0540143487057
20
2.24885309193348
30
0
41
1
10
66.336234869065
20
2.06084592828438
30
0
41
1
10
66.9092015361891
20
1.70615432063823
30
0
41
1
10
67.2004327126288
20
1.53924725706631
30
0
41
1
10
67.7902639947096
20
1.22993011546521
30
0
41
1
10
68.0859722821754
20
1.08899337384307
30
0
41
1
10
68.6791142383006
20
0.836988676043632
30
0
41
1
10
68.9768738216681
20
0.725789524270937
30
0
41
1
10
69.5730061534385
20
0.538408855127074
30
0
41
1
10
69.8698677161753
20
0.462739363250051
30
0
41
1
10
70.2369753505767
20
0.394805282634422
30
0
41
1
10
70.3101911719088
20
0.3825594886018
30
0
41
1
10
70.4560777296111
20
0.360868872370816
30
0
41
1
10
70.52880764638
20
0.351299090855292
30
0
41
1
10
70.6724490919092
20
0.33926952545869
30
0
41
1
10
70.7436601571751
20
0.336427111773787
30
0
41
1
10
70.8815632294202
20
0.340282016345043
30
0
41
1
10
70.9486628159052
20
0.346407996546247
30
0
41
1
10
71.0791167273439
20
0.367150784545828
30
0
41
1
10
71.1424603629694
20
0.381791825963717
30
0
41
1
10
71.2644800197328
20
0.421655789282596
30
0
41
1
10
71.3236775574585
20
0.44717062027749
30
0
41
1
10
71.4325335754072
20
0.510281455542895
30
0
41
1
10
71.482398270258
20
0.547709371338698
30
0
41
1
10
71.5484460961478
20
0.615110552581058
30
0
41
1
10
71.5691102203621
20
0.639660449652183
30
0
41
1
10
71.606118574149
20
0.691955733670852
30
0
41
1
10
71.6224751864308
20
0.719767322636301
30
0
41
1
10
71.6661851166657
20
0.807354979853926
30
0
41
1
10
71.688179235377
20
0.871310760149072
30
0
41
1
10
71.7183016757033
20
1.00985570565806
30
0
41
1
10
71.7259321471442
20
1.08233193500561
30
0
41
1
10
71.7284365847368
20
1.23278434255536
30
0
41
1
10
71.7231773217036
20
1.31131285223739
30
0
41
1
10
71.7022559706256
20
1.46881622006913
30
0
41
1
10
71.6867029620304
20
1.5481547261447
30
0
41
1
10
71.6670716055206
20
1.62796320637654
30
0
0
SPLINE
5
CC
100
AcDbEntity
8
1
62
256
6
ByLayer
370
18
48
1
60
0
100
AcDbSpline
70
4
71
3
72
10
73
6
40
0
40
0
40
0
40
0
40
0.894451055416981
40
0.894451055416981
40
1
40
1
40
1
40
1
41
1
10
72.6357312182871
20
6.70174549324403
30
0
41
1
10
72.2184450355534
20
6.7302790319072
30
0
41
1
10
71.8012833330666
20
6.74592835660332
30
0
41
1
10
71.3344557566675
20
6.74899573651024
30
0
41
1
10
71.2851777814409
20
6.74913919709522
30
0
41
1
10
71.2358972037462
20
6.74910263158918
30
0
0
SPLINE
5
CD
100
AcDbEntity
8
1
62
256
6
ByLayer
370
18
48
1
60
0
100
AcDbSpline
70
4
71
3
72
14
73
10
40
0
40
0
40
0
40
0
40
0.0685760423803961
40
0.0685760423803961
40
0.301432031785297
40
0.301432031785297
40
0.534288021190198
40
0.534288021190198
40
1
40
1
40
1
40
1
41
1
10
37.9714620411387
20
-6.43597085045488
30
0
41
1
10
37.8487070995506
20
-6.45652833342729
30
0
41
1
10
37.7259531080802
20
-6.47602036412155
30
0
41
1
10
37.1863119556983
20
-6.55698135406035
30
0
41
1
10
36.7692737018334
20
-6.60715327905254
30
0
41
1
10
35.9337227937237
20
-6.68218102899101
30
0
41
1
10
35.5156112103385
20
-6.70695584436342
30
0
41
1
10
34.2642012345592
20
-6.74258140208855
30
0
41
1
10
33.4317714044451
20
-6.71495109623294
30
0
41
1
10
32.5963031561096
20
-6.63625319043172
30
0
0
SPLINE
5
CE
100
AcDbEntity
8
1
62
256
6
ByLayer
370
18
48
1
60
0
100
AcDbSpline
70
4
71
3
72
12
73
8
40
0
40
0
40
0
40
0
40
0.661375206980704
40
0.661375206980704
40
0.992062810471055
40
0.992062810471055
40
1
40
1
40
1
40
1
41
1
10
27.6616738898426
20
7.58694434368323
30
0
41
1
10
26.9990798212514
20
7.32236672385764
30
0
41
1
10
26.3312723439458
20
7.02735648818265
30
0
41
1
10
25.3147251324108
20
6.55186481644881
30
0
41
1
10
24.9733674994646
20
6.38790398788774
30
0
41
1
10
24.6204807880981
20
6.2157506517332
30
0
41
1
10
24.6122082024259
20
6.21171345286831
30
0
41
1
10
24.6039345160586
20
6.20767426839706
30
0
0
SPLINE
5
CF
100
AcDbEntity
8
1
62
256
6
ByLayer
370
18
48
1
60
0
100
AcDbSpline
70
4
71
3
72
10
73
6
40
0
40
0
40
0
40
0
40
0.388650731616308
40
0.388650731616308
40
1
40
1
40
1
40
1
41
1
10
15.5031070543069
20
8.89990639021187
30
0
41
1
10
15.9043476427584
20
8.89830583648612
30
0
41
1
10
16.3061887522237
20
8.87917404485026
30
0
41
1
10
17.3437239152161
20
8.78685276327255
30
0
41
1
10
17.9815262903469
20
8.68872227422861
30
0
41
1
10
18.6289729198994
20
8.55276953160612
30
0
0
SPLINE
5
D0
100
AcDbEntity
8
1
62
256
6
ByLayer
370
18
48
1
60
0
100
AcDbSpline
70
4
71
3
72
34
73
30
40
0
40
0
40
0
40
0
40
0.0103558906587199
40
0.0103558906587199
40
0.0864823606080491
40
0.0864823606080491
40
0.162608830557378
40
0.162608830557378
40
0.238735300506708
40
0.238735300506708
40
0.314861770456037
40
0.314861770456037
40
0.390988240405366
40
0.390988240405366
40
0.467114710354695
40
0.467114710354695
40
0.543241180304025
40
0.543241180304025
40
0.619367650253354
40
0.619367650253354
40
0.695494120202683
40
0.695494120202683
40
0.771620590152012
40
0.771620590152012
40
0.847747060101341
40
0.847747060101341
40
0.923873530050671
40
0.923873530050671
40
1
40
1
40
1
40
1
41
1
10
52.0063555686801
20
6.4412967446151
30
0
41
1
10
52.0539573870225
20
6.44120584834229
30
0
41
1
10
52.1015740317306
20
6.4409669785353
30
0
41
1
10
52.4993647201525
20
6.43776393195986
30
0
41
1
10
52.8492113642396
20
6.42704376057463
30
0
41
1
10
53.5476451579097
20
6.38633257411979
30
0
41
1
10
53.8962487695178
20
6.35693801664738
30
0
41
1
10
54.5936261326317
20
6.28299812685336
30
0
41
1
10
54.9430537739892
20
6.23840561292192
30
0
41
1
10
55.6421305066943
20
6.13011170697499
30
0
41
1
10
55.992227277585
20
6.06715505435062
30
0
41
1
10
56.6913875422034
20
5.92596966170703
30
0
41
1
10
57.0407798748816
20
5.84774453387942
30
0
41
1
10
57.7394426488837
20
5.67557958474649
30
0
41
1
10
58.0884557671978
20
5.58194347741915
30
0
41
1
10
58.7859957450871
20
5.38106456777021
30
0
41
1
10
59.134617933005
20
5.27282435046698
30
0
41
1
10
59.8341518182444
20
5.04164253653491
30
0
41
1
10
60.1848288286457
20
4.91841783156437
30
0
41
1
10
60.8842312422982
20
4.65925913541409
30
0
41
1
10
61.2329655348545
20
4.52284500230783
30
0
41
1
10
61.9314002106309
20
4.24081753871562
30
0
41
1
10
62.2808109394872
20
4.09508338152477
30
0
41
1
10
62.9791755456414
20
3.79212243902927
30
0
41
1
10
63.3281715582274
20
3.63448547057394
30
0
41
1
10
64.0272295077193
20
3.30854475438571
30
0
41
1
10
64.3781046150943
20
3.14167161964573
30
0
41
1
10
65.0776477958119
20
2.80003624579322
30
0
41
1
10
65.4267895059589
20
2.62503502290207
30
0
41
1
10
65.7756090808379
20
2.44640225935001
30
0
0
SPLINE
5
D1
100
AcDbEntity
8
1
62
256
6
ByLayer
370
18
48
1
60
0
100
AcDbSpline
70
4
71
3
72
64
73
60
40
0
40
0
40
0
40
0
40
0.0108639581821509
40
0.0108639581821509
40
0.0474986263976258
40
0.0474986263976258
40
0.0841332946131007
40
0.0841332946131007
40
0.120767962828576
40
0.120767962828576
40
0.139085296936313
40
0.139085296936313
40
0.157402631044052
40
0.157402631044052
40
0.194037299259528
40
0.194037299259528
40
0.230671967475003
40
0.230671967475003
40
0.26730663569048
40
0.26730663569048
40
0.303941303905955
40
0.303941303905955
40
0.340575972121432
40
0.340575972121432
40
0.377210640336907
40
0.377210640336907
40
0.413845308552384
40
0.413845308552384
40
0.45047997676786
40
0.45047997676786
40
0.487114644983336
40
0.487114644983336
40
0.523749313198812
40
0.523749313198812
40
0.560383981414288
40
0.560383981414288
40
0.597018649629764
40
0.597018649629764
40
0.63365331784524
40
0.63365331784524
40
0.670287986060716
40
0.670287986060716
40
0.706922654276192
40
0.706922654276192
40
0.743557322491668
40
0.743557322491668
40
0.780191990707144
40
0.780191990707144
40
0.81682665892262
40
0.81682665892262
40
0.853461327138096
40
0.853461327138096
40
0.890095995353572
40
0.890095995353572
40
0.926730663569048
40
0.926730663569048
40
0.963365331784524
40
0.963365331784524
40
1
40
1
40
1
40
1
41
1
10
60.845695649905
20
-4.67170943906112
30
0
41
1
10
60.7420216975932
20
-4.71132017992758
30
0
41
1
10
60.6382948409439
20
-4.75038933353915
30
0
41
1
10
60.184418622085
20
-4.91856923554232
30
0
41
1
10
59.8346769266207
20
-5.04145636651396
30
0
41
1
10
59.1359206207826
20
-5.27240643779237
30
0
41
1
10
58.7875063431967
20
-5.38060868463327
30
0
41
1
10
58.0900665663881
20
-5.58150036139108
30
0
41
1
10
57.740965428786
20
-5.67518537961925
30
0
41
1
10
57.216605471867
20
-5.80442690073207
30
0
41
1
10
57.0416926837766
20
-5.84559054161545
30
0
41
1
10
56.6918077477062
20
-5.92393065136676
30
0
41
1
10
56.5168657869553
20
-5.96120980133654
30
0
41
1
10
55.9925132069972
20
-6.06710136421967
30
0
41
1
10
55.6432289307587
20
-6.12991858845731
30
0
41
1
10
54.9446939470012
20
-6.23817440579577
30
0
41
1
10
54.5953485612514
20
-6.2827922712506
30
0
41
1
10
53.8978293472692
20
-6.35679355906802
30
0
41
1
10
53.549010380853
20
-6.38623621973895
30
0
41
1
10
52.8497957025761
20
-6.42702642976593
30
0
41
1
10
52.4990459354349
20
-6.43776650435234
30
0
41
1
10
51.7993688188235
20
-6.44340035671408
30
0
41
1
10
51.4506247276594
20
-6.43842039874616
30
0
41
1
10
50.7525062546197
20
-6.41021560060952
30
0
41
1
10
50.4033201881269
20
-6.38642384552352
30
0
41
1
10
49.7045039604749
20
-6.32352787062263
30
0
41
1
10
49.3554932051881
20
-6.28416853901464
30
0
41
1
10
48.6562060534952
20
-6.18746864289264
30
0
41
1
10
48.3057395832242
20
-6.12977063912763
30
0
41
1
10
47.6060327022427
20
-6.00033240893015
30
0
41
1
10
47.2566151572965
20
-5.92819021009004
30
0
41
1
10
46.5588979924612
20
-5.76650253646062
30
0
41
1
10
46.2099412650845
20
-5.67705093512072
30
0
41
1
10
45.5109962589858
20
-5.48528006588157
30
0
41
1
10
45.1609338200726
20
-5.38274507604351
30
0
41
1
10
44.4610638568189
20
-5.16070349297274
30
0
41
1
10
44.111356265532
20
-5.04167216930355
30
0
41
1
10
43.4122386951427
20
-4.79327980313309
30
0
41
1
10
43.0626731969716
20
-4.66334628475431
30
0
41
1
10
42.3640714444487
20
-4.39008156272757
30
0
41
1
10
42.0154773098447
20
-4.24590324829754
30
0
41
1
10
41.3167037666416
20
-3.94905511032798
30
0
41
1
10
40.9665794650621
20
-3.79564926513046
30
0
41
1
10
40.2655612213453
20
-3.47767135470539
30
0
41
1
10
39.9162201598167
20
-3.31308516467354
30
0
41
1
10
39.2179447752789
20
-2.97695189674778
30
0
41
1
10
38.8688373714271
20
-2.80549391942435
30
0
41
1
10
38.1703601219673
20
-2.45508824608584
30
0
41
1
10
37.8210756523103
20
-2.27627530940558
30
0
41
1
10
37.1228941133267
20
-1.91179920035788
30
0
41
1
10
36.7733440107115
20
-1.72690088938694
30
0
41
1
10
36.0722845716297
20
-1.35261085864829
30
0
41
1
10
35.7219625941333
20
-1.16439508704497
30
0
41
1
10
35.0233327014098
20
-0.783791300049757
30
0
41
1
10
34.674658993582
20
-0.591912274199018
30
0
41
1
10
33.9765908520102
20
-0.208463104223171
30
0
41
1
10
33.6272284511595
20
-0.0169290336482959
30
0
41
1
10
32.9283341988037
20
0.366606527660679
30
0
41
1
10
32.5793556804829
20
0.559635494917501
30
0
41
1
10
32.2292451070036
20
0.75110911168548
30
0
0
SPLINE
5
D2
100
AcDbEntity
8
1
62
256
6
ByLayer
370
18
48
1
60
0
100
AcDbSpline
70
4
71
3
72
20
73
16
40
0
40
0
40
0
40
0
40
0.124999999999999
40
0.124999999999999
40
0.249999999999998
40
0.249999999999998
40
0.499999999999996
40
0.499999999999996
40
0.749999999999994
40
0.749999999999994
40
0.874999999999997
40
0.874999999999997
40
0.937499999999998
40
0.937499999999998
40
1
40
1
40
1
40
1
41
1
10
32.22832123987
20
-6.66530168026776
30
0
41
1
10
32.1257044958818
20
-6.74840679101345
30
0
41
1
10
32.0233920498905
20
-6.82977859268698
30
0
41
1
10
31.8195570912834
20
-6.98854986971719
30
0
41
1
10
31.7181457641826
20
-7.06574049029325
30
0
41
1
10
31.4137678677234
20
-7.29340046175781
30
0
41
1
10
31.2109226578268
20
-7.43965500242629
30
0
41
1
10
30.8070837016396
20
-7.71674076668293
30
0
41
1
10
30.6075483660288
20
-7.84558548954362
30
0
41
1
10
30.3083492716098
20
-8.03003086805236
30
0
41
1
10
30.20879822156
20
-8.08975412498449
30
0
41
1
10
30.0602111016636
20
-8.17559955133692
30
0
41
1
10
30.0107992226845
20
-8.20360231141655
30
0
41
1
10
29.9123527258973
20
-8.25803000949429
30
0
41
1
10
29.8633645934679
20
-8.28435021400841
30
0
41
1
10
29.8143529134874
20
-8.31031003685314
30
0
0
SPLINE
5
D3
100
AcDbEntity
8
1
62
256
6
ByLayer
370
18
48
1
60
0
100
AcDbSpline
70
4
71
3
72
14
73
10
40
0
40
0
40
0
40
0
40
0.25
40
0.25
40
0.5
40
0.5
40
0.75
40
0.75
40
1
40
1
40
1
40
1
41
1
10
73.9862711471801
20
-3.2828510601517
30
0
41
1
10
73.8823967852186
20
-3.56254861167096
30
0
41
1
10
73.7782375979986
20
-3.84123764499373
30
0
41
1
10
73.5694002512788
20
-4.3967781183363
30
0
41
1
10
73.4648393044254
20
-4.67404458856566
30
0
41
1
10
73.2553052780325
20
-5.22711823670073
30
0
41
1
10
73.150309955261
20
-5.50291253597001
30
0
41
1
10
72.9398534165586
20
-6.05257835526785
30
0
41
1
10
72.8345937478852
20
-6.32686274583497
30
0
41
1
10
72.729287046371
20
-6.60032551323491
30
0
0
SPLINE
5
D4
100
AcDbEntity
8
1
62
256
6
ByLayer
370
18
48
1
60
0
100
AcDbSpline
70
4
71
3
72
8
73
4
40
0
40
0
40
0
40
0
40
1
40
1
40
1
40
1
41
1
10
32.6211290633077
20
-6.70589484030654
30
0
41
1
10
32.490262623971
20
-6.69354280290958
30
0
41
1
10
32.3593211324898
20
-6.68001039852652
30
0
41
1
10
32.22832123987
20
-6.6653016802677
30
0
0
SPLINE
5
D5
100
AcDbEntity
8
1
62
256
6
ByLayer
370
18
48
1
60
0
100
AcDbSpline
70
4
71
3
72
92
73
88
40
0
40
0
40
0
40
0
40
0.0166500164252533
40
0.0166500164252533
40
0.0333000328505067
40
0.0333000328505067
40
0.0666000657010125
40
0.0666000657010125
40
0.0832500821262654
40
0.0832500821262654
40
0.0999000985515183
40
0.0999000985515183
40
0.133200131402024
40
0.133200131402024
40
0.149850147827277
40
0.149850147827277
40
0.166500164252529
40
0.166500164252529
40
0.199800197103034
40
0.199800197103034
40
0.233100229953539
40
0.233100229953539
40
0.266400262804044
40
0.266400262804044
40
0.283050279229296
40
0.283050279229296
40
0.299700295654548
40
0.299700295654548
40
0.333000328505052
40
0.333000328505052
40
0.349650344930304
40
0.349650344930304
40
0.366300361355556
40
0.366300361355556
40
0.399600394206059
40
0.399600394206059
40
0.41625041063131
40
0.41625041063131
40
0.432900427056562
40
0.432900427056562
40
0.466200459907064
40
0.466200459907064
40
0.499500492757567
40
0.499500492757567
40
0.532800525608069
40
0.532800525608069
40
0.566100558458571
40
0.566100558458571
40
0.582750574883823
40
0.582750574883823
40
0.599400591309074
40
0.599400591309074
40
0.632700624159577
40
0.632700624159577
40
0.649350640584829
40
0.649350640584829
40
0.666000657010081
40
0.666000657010081
40
0.699300689860585
40
0.699300689860585
40
0.715950706285837
40
0.715950706285837
40
0.73260072271109
40
0.73260072271109
40
0.765900755561595
40
0.765900755561595
40
0.799200788412101
40
0.799200788412101
40
0.832500821262607
40
0.832500821262607
40
0.84915083768786
40
0.84915083768786
40
0.865800854113113
40
0.865800854113113
40
0.899100886963617
40
0.899100886963617
40
0.91575090338887
40
0.91575090338887
40
0.932400919814122
40
0.932400919814122
40
0.965700952664626
40
0.965700952664626
40
0.982350969089879
40
0.982350969089879
40
0.999000985515132
40
0.999000985515132
40
1
40
1
40
1
40
1
41
1
10
32.6211290632931
20
6.70589484030589
30
0
41
1
10
32.8304091608002
20
6.71527197931454
30
0
41
1
10
33.039511567647
20
6.72145726835313
30
0
41
1
10
33.4571621656401
20
6.72740062725785
30
0
41
1
10
33.665533120945
20
6.72713850706828
30
0
41
1
10
34.2916188309618
20
6.71662762498866
30
0
41
1
10
34.7101681841603
20
6.69682693392616
30
0
41
1
10
35.3384068810487
20
6.64791529002909
30
0
41
1
10
35.5476118109288
20
6.62842079931445
30
0
41
1
10
35.9652203358965
20
6.58291826695029
30
0
41
1
10
36.1736466690154
20
6.55688220456602
30
0
41
1
10
36.8000387399334
20
6.4698348938866
30
0
41
1
10
37.21841810134
20
6.3997561269359
30
0
41
1
10
37.8459045150436
20
6.27601255352255
30
0
41
1
10
38.0551693168878
20
6.23161609216999
30
0
41
1
10
38.4728672233443
20
6.13650155383914
30
0
41
1
10
38.6815608752914
20
6.08597250659273
30
0
41
1
10
39.3083879149474
20
5.92650369478841
30
0
41
1
10
39.7266870137432
20
5.80934394888223
30
0
41
1
10
40.5625404572019
20
5.55201485372936
30
0
41
1
10
40.980007186422
20
5.41094556175534
30
0
41
1
10
41.8165653156481
20
5.11151106000378
30
0
41
1
10
42.2348904373779
20
4.95255980213432
30
0
41
1
10
42.8613184636125
20
4.69893705879002
30
0
41
1
10
43.0697734224997
20
4.61161862820643
30
0
41
1
10
43.487171333128
20
4.4328790434993
30
0
41
1
10
43.6962642067472
20
4.34166795762576
30
0
41
1
10
44.3243832607794
20
4.06215354554121
30
0
41
1
10
44.7428555544279
20
3.86855957923112
30
0
41
1
10
45.3689628706105
20
3.56564664124687
30
0
41
1
10
45.577263501817
20
3.46236220650249
30
0
41
1
10
45.9946884744912
20
3.25358266747284
30
0
41
1
10
46.2037055457121
20
3.14794078922995
30
0
41
1
10
46.8313192557711
20
2.82677767018689
30
0
41
1
10
47.2504779182219
20
2.60701914335886
30
0
41
1
10
47.8763787154778
20
2.2683380824765
30
0
41
1
10
48.0847620704857
20
2.15404197729185
30
0
41
1
10
48.5022969459189
20
1.92475250536486
30
0
41
1
10
48.7112806878185
20
1.8094877761676
30
0
41
1
10
49.3385230741033
20
1.46126193456266
30
0
41
1
10
49.757470270562
20
1.22549250649618
30
0
41
1
10
50.5921700656457
20
0.746922681417203
30
0
41
1
10
51.009878715616
20
0.507483762072667
30
0
41
1
10
51.8458927636928
20
0.0281278146144075
30
0
41
1
10
52.2636699690185
20
-0.212761947634817
30
0
41
1
10
53.0991394746831
20
-0.696031962827362
30
0
41
1
10
53.5173627068315
20
-0.934339468426344
30
0
41
1
10
54.144293493442
20
-1.28887745043914
30
0
41
1
10
54.353202845166
20
-1.40656692895604
30
0
41
1
10
54.7707000193303
20
-1.64126977312623
30
0
41
1
10
54.9790997139431
20
-1.75859723720285
30
0
41
1
10
55.6054228530074
20
-2.10683032307571
30
0
41
1
10
56.0245506735096
20
-2.33379503248025
30
0
41
1
10
56.651552876654
20
-2.66729115067281
30
0
41
1
10
56.8604089987095
20
-2.77732328314792
30
0
41
1
10
57.2775978440648
20
-2.99545672056789
30
0
41
1
10
57.4858670278231
20
-3.10364582258509
30
0
41
1
10
58.1120872115
20
-3.42187937163419
30
0
41
1
10
58.5312744518113
20
-3.62685840049255
30
0
41
1
10
59.1585011953135
20
-3.92414312964834
30
0
41
1
10
59.3673430421397
20
-4.02152316413236
30
0
41
1
10
59.7843391819197
20
-4.21310026453784
30
0
41
1
10
59.9927168733721
20
-4.30697738016517
30
0
41
1
10
60.6189877064342
20
-4.58092932997553
30
0
41
1
10
61.0374289317909
20
-4.75428826605634
30
0
41
1
10
61.8742263516766
20
-5.08427701913939
30
0
41
1
10
62.2906806752152
20
-5.24096966268189
30
0
41
1
10
63.1259459581396
20
-5.53086736472159
30
0
41
1
10
63.5440860028052
20
-5.6649681953036
30
0
41
1
10
64.1709242998445
20
-5.85084315619306
30
0
41
1
10
64.3797653552565
20
-5.91039862844889
30
0
41
1
10
64.7972145325316
20
-6.02351625801342
30
0
41
1
10
65.0060873662522
20
-6.07691913382317
30
0
41
1
10
65.632866451424
20
-6.22807032374982
30
0
41
1
10
66.0508717567367
20
-6.3168631301163
30
0
41
1
10
66.67698274179
20
-6.43262194217382
30
0
41
1
10
66.8853669720691
20
-6.46835703869269
30
0
41
1
10
67.3030881513513
20
-6.53327190719645
30
0
41
1
10
67.5123251418851
20
-6.56249260949156
30
0
41
1
10
68.1395704834866
20
-6.64057401742727
30
0
41
1
10
68.557553019401
20
-6.67999274518849
30
0
41
1
10
69.183087404127
20
-6.72022351082947
30
0
41
1
10
69.3913735075514
20
-6.73044014393093
30
0
41
1
10
69.8089489891074
20
-6.74430355235194
30
0
41
1
10
70.0181193993729
20
-6.74799320969277
30
0
41
1
10
70.2399498391117
20
-6.74849872629758
30
0
41
1
10
70.2525056488828
20
-6.74851582577034
30
0
41
1
10
70.2650606507573
20
-6.74852140428609
30
0
0
SPLINE
5
D6
100
AcDbEntity
8
1
62
256
6
ByLayer
370
13
48
1
60
0
100
AcDbSpline
70
4
71
3
72
12
73
8
40
0
40
0
40
0
40
0
40
0.631412860397924
40
0.631412860397924
40
0.947119290596887
40
0.947119290596887
40
1
40
1
40
1
40
1
41
1
10
32.2292451069878
20
-6.40644958137264
30
0
41
1
10
33.0688697453867
20
-6.49775956520006
30
0
41
1
10
33.907267181033
20
-6.5393431543979
30
0
41
1
10
35.1698071418502
20
-6.52558887563347
30
0
41
1
10
35.5914845464298
20
-6.50828799121294
30
0
41
1
10
36.0854303522296
20
-6.47311060185575
30
0
41
1
10
36.1563359227759
20
-6.46770423446992
30
0
41
1
10
36.2272842067952
20
-6.46193786612534
30
0
0
SPLINE
5
D7
100
AcDbEntity
8
1
62
256
6
ByLayer
370
18
48
1
60
0
100
AcDbSpline
70
4
71
3
72
8
73
4
40
0
40
0
40
0
40
0
40
1
40
1
40
1
40
1
41
1
10
32.2292451070036
20
0.772694479539211
30
0
41
1
10
31.7612935133392
20
1.03891132063706
30
0
41
1
10
31.2920955907603
20
1.29961914088977
30
0
41
1
10
30.8222929595356
20
1.55434511704357
30
0
0
SPLINE
5
D8
100
AcDbEntity
8
1
62
256
6
ByLayer
370
18
48
1
60
0
100
AcDbSpline
70
4
71
3
72
14
73
10
40
0
40
0
40
0
40
0
40
0.25
40
0.25
40
0.5
40
0.5
40
0.75
40
0.75
40
1
40
1
40
1
40
1
41
1
10
71.6670716055206
20
1.62796320637654
30
0
41
1
10
71.6600808643881
20
1.65638306749037
30
0
41
1
10
71.6580305119127
20
1.68616946409696
30
0
41
1
10
71.6684024769261
20
1.74443765063543
30
0
41
1
10
71.6813579391299
20
1.77309694809816
30
0
41
1
10
71.7209751607416
20
1.82064539120461
30
0
41
1
10
71.7476215583646
20
1.83972938484223
30
0
41
1
10
71.8050365119225
20
1.86662203388892
30
0
41
1
10
71.8356462617495
20
1.87491393240424
30
0
41
1
10
71.867019438326
20
1.87975068203553
30
0
0
SPLINE
5
D9
100
AcDbEntity
8
SK1
62
256
6
ByLayer
370
18
48
1
60
0
100
AcDbSpline
70
4
71
3
72
10
73
6
40
0
40
0
40
0
40
0
40
0.299640495470232
40
0.299640495470232
40
1
40
1
40
1
40
1
41
1
10
-46.2956348343446
20
2.71754917094E-05
30
0
41
1
10
-46.4684789844387
20
-0.072301799329324
30
0
41
1
10
-46.6408421132552
20
-0.144693429125084
30
0
41
1
10
-47.2139167828026
20
-0.386564360375189
30
0
41
1
10
-47.6123482367203
20
-0.556335041139135
30
0
41
1
10
-48
20
-0.727483459675966
30
0
0
SPLINE
5
DA
100
AcDbEntity
8
SK1
62
256
6
ByLayer
370
18
48
1
60
0
100
AcDbSpline
70
4
71
3
72
14
73
10
40
0
40
0
40
0
40
0
40
0.5
40
0.5
40
0.75
40
0.75
40
0.875
40
0.875
40
1
40
1
40
1
40
1
41
1
10
-45.6
20
-3.69204530720464
30
0
41
1
10
-45.5789465118595
20
-3.70078928623923
30
0
41
1
10
-45.5585985142981
20
-3.70372244267676
30
0
41
1
10
-45.5303873672755
20
-3.69575499883104
30
0
41
1
10
-45.5214287539013
20
-3.69095783942143
30
0
41
1
10
-45.5102864584886
20
-3.67819254884583
30
0
41
1
10
-45.50688945626
20
-3.67290844111659
30
0
41
1
10
-45.5017228477084
20
-3.65926905780543
30
0
41
1
10
-45.5
20
-3.65085894593056
30
0
41
1
10
-45.5
20
-3.64096406632703
30
0
0
SPLINE
5
DB
100
AcDbEntity
8
SK1
62
256
6
ByLayer
370
18
48
1
60
0
100
AcDbSpline
70
4
71
3
72
10
73
6
40
0
40
0
40
0
40
0
40
0.5
40
0.5
40
1
40
1
40
1
40
1
41
1
10
-45.6
20
-0.289922633481012
30
0
41
1
10
-46.0063086277574
20
-0.121173678486627
30
0
41
1
10
-46.4112001995571
20
0.0477711492341939
30
0
41
1
10
-47.2139167828026
20
0.386564360375161
30
0
41
1
10
-47.6123482367203
20
0.556335041139135
30
0
41
1
10
-48
20
0.727483459675966
30
0
0
SPLINE
5
DC
100
AcDbEntity
8
SK1
62
256
6
ByLayer
370
18
48
1
60
0
100
AcDbSpline
70
4
71
3
72
10
73
6
40
0
40
0
40
0
40
0
40
0.5
40
0.5
40
1
40
1
40
1
40
1
41
1
10
-48
20
-2.67463921404763
30
0
41
1
10
-47.6125314090266
20
-2.84570676193323
30
0
41
1
10
-47.2140496176866
20
-3.01550195667886
30
0
41
1
10
-46.4112378217109
20
-3.35433593828614
30
0
41
1
10
-46.0063335437689
20
-3.52328600403987
30
0
41
1
10
-45.6
20
-3.69204530720461
30
0
0
SPLINE
5
DD
100
AcDbEntity
8
SK1
62
256
6
ByLayer
370
18
48
1
60
0
100
AcDbSpline
70
4
71
3
72
14
73
10
40
0
40
0
40
0
40
0
40
0.125000000000007
40
0.125000000000007
40
0.250000000000014
40
0.250000000000014
40
0.500000000000014
40
0.500000000000014
40
1
40
1
40
1
40
1
41
1
10
-45.5
20
-0.433248402530467
30
0
41
1
10
-45.5
20
-0.422465253191518
30
0
41
1
10
-45.5017107697461
20
-0.411728828993944
30
0
41
1
10
-45.5068845888983
20
-0.392212103124706
30
0
41
1
10
-45.5102281895671
20
-0.383564483668522
30
0
41
1
10
-45.5215282375219
20
-0.359483632240682
30
0
41
1
10
-45.5303630420009
20
-0.346641536631779
30
0
41
1
10
-45.5585252427809
20
-0.313286233652377
30
0
41
1
10
-45.5788396428357
20
-0.298710997583669
30
0
41
1
10
-45.6
20
-0.289922633481012
30
0
0
LINE
5
78
100
AcDbEntity
8
81
62
256
6
ByLayer
370
18
48
1
60
0
100
AcDbLine
10
75
20
0
30
0
11
80
21
0
31
0
39
0
210
0
220
0
230
1
0
LINE
5
79
100
AcDbEntity
8
1
62
256
6
ByLayer
370
18
48
1
60
0
100
AcDbLine
10
0
20
-9
30
0
11
0.8
21
-8.9
31
0
39
0
210
0
220
0
230
1
0
LINE
5
7B
100
AcDbEntity
8
1
62
256
6
ByLayer
370
18
48
1
60
0
100
AcDbLine
10
0.8
20
8.9
30
0
11
0
21
9
31
0
39
0
210
0
220
0
230
1
0
LINE
5
7C
100
AcDbEntity
8
1
62
256
6
ByLayer
370
18
48
1
60
0
100
AcDbLine
10
0.8
20
-8.9
30
0
11
15.450763
21
-8.9
31
0
39
0
210
0
220
0
230
1
0
LINE
5
7D
100
AcDbEntity
8
1
62
256
6
ByLayer
370
18
48
1
60
0
100
AcDbLine
10
15.450763
20
8.9
30
0
11
0.8
21
8.9
31
0
39
0
210
0
220
0
230
1
0
LINE
5
7E
100
AcDbEntity
8
1
62
256
6
ByLayer
370
18
48
1
60
0
100
AcDbLine
10
34.507313
20
6.727067
30
0
11
33.522604
21
6.726476
31
0
39
0
210
0
220
0
230
1
0
LINE
5
7F
100
AcDbEntity
8
1
62
256
6
ByLayer
370
18
48
1
60
0
100
AcDbLine
10
70.261399
20
-6.748519
30
0
11
71.238056
21
-6.749105
31
0
39
0
210
0
220
0
230
1
0
LINE
5
80
100
AcDbEntity
8
1
62
256
6
ByLayer
370
18
48
1
60
0
100
AcDbLine
10
71.238056
20
6.749105
30
0
11
70.261399
21
6.748519
31
0
39
0
210
0
220
0
230
1
0
LINE
5
81
100
AcDbEntity
8
1
62
256
6
ByLayer
370
18
48
1
60
0
100
AcDbLine
10
33.522604
20
-6.726476
30
0
11
34.507313
21
-6.727067
31
0
39
0
210
0
220
0
230
1
0
LINE
5
82
100
AcDbEntity
8
SK1
62
256
6
ByLayer
370
18
48
1
60
0
100
AcDbLine
10
0
20
9
30
0
11
-45.401924
21
9
31
0
39
0
210
0
220
0
230
1
0
LINE
5
84
100
AcDbEntity
8
SK1
62
256
6
ByLayer
370
18
48
1
60
0
100
AcDbLine
10
-45.401924
20
-9
30
0
11
0
21
-9
31
0
39
0
210
0
220
0
230
1
0
LINE
5
85
100
AcDbEntity
8
SK1
62
256
6
ByLayer
370
18
48
1
60
0
100
AcDbLine
10
-45.401924
20
9
30
0
11
-48
21
4.5
31
0
39
0
210
0
220
0
230
1
0
LINE
5
86
100
AcDbEntity
8
SK1
62
256
6
ByLayer
370
18
48
1
60
0
100
AcDbLine
10
-48
20
-4.5
30
0
11
-45.401924
21
-9
31
0
39
0
210
0
220
0
230
1
0
LINE
5
87
100
AcDbEntity
8
4
62
256
6
ByLayer
370
18
48
0.05
60
0
100
AcDbLine
10
75
20
0
30
0
11
0
21
0
31
0
39
0
210
0
220
0
230
1
0
LINE
5
89
100
AcDbEntity
8
SK4
62
256
6
ByLayer
370
18
48
0.05
60
0
100
AcDbLine
10
80
20
0
30
0
11
-53
21
0
31
0
39
0
210
0
220
0
230
1
0
LINE
5
8B
100
AcDbEntity
8
80
62
256
6
ByLayer
370
18
48
1
60
0
100
AcDbLine
10
0
20
0
30
0
11
-5
21
0
31
0
39
0
210
0
220
0
230
1
0
LINE
5
8C
100
AcDbEntity
8
1
62
256
6
ByLayer
370
18
48
1
60
0
100
AcDbLine
10
0
20
-9
30
0
11
0
21
9
31
0
39
0
210
0
220
0
230
1
0
LINE
5
8D
100
AcDbEntity
8
1
62
256
6
ByLayer
370
18
48
1
60
0
100
AcDbLine
10
75
20
0
30
0
11
72.650596
21
-6.454933
31
0
39
0
210
0
220
0
230
1
0
LINE
5
8E
100
AcDbEntity
8
1
62
256
6
ByLayer
370
18
48
1
60
0
100
AcDbLine
10
74.905388
20
0.32499
30
0
11
74.671817
21
1.187299
31
0
39
0
210
0
220
0
230
1
0
LINE
5
8F
100
AcDbEntity
8
1
62
256
6
ByLayer
370
18
48
1
60
0
100
AcDbLine
10
74.985772
20
0.063829
30
0
11
75
21
0
31
0
39
0
210
0
220
0
230
1
0
LINE
5
90
100
AcDbEntity
8
1
62
256
6
ByLayer
370
13
48
1
60
0
100
AcDbLine
10
72.994318
20
0.840875
30
0
11
74.893922
21
-0.09966
31
0
39
0
210
0
220
0
230
1
0
LINE
5
91
100
AcDbEntity
8
1
62
256
6
ByLayer
370
13
48
1
60
0
100
AcDbLine
10
73.163776
20
1.187299
30
0
11
74.905388
21
0.32499
31
0
39
0
210
0
220
0
230
1
0
LINE
5
92
100
AcDbEntity
8
1
62
256
6
ByLayer
370
18
48
1
60
0
100
AcDbLine
10
74.905388
20
-0.32499
30
0
11
74.671817
21
-1.187299
31
0
39
0
210
0
220
0
230
1
0
LINE
5
93
100
AcDbEntity
8
1
62
256
6
ByLayer
370
18
48
1
60
0
100
AcDbLine
10
0.8
20
8.9
30
0
11
0.8
21
-8.9
31
0
39
0
210
0
220
0
230
1
0
LINE
5
94
100
AcDbEntity
8
1
62
256
6
ByLayer
370
18
48
1
60
0
100
AcDbLine
10
71.600568
20
-3.770044
30
0
11
74.893922
21
-0.09966
31
0
39
0
210
0
220
0
230
1
0
LINE
5
95
100
AcDbEntity
8
1
62
256
6
ByLayer
370
18
48
1
60
0
100
AcDbLine
10
75
20
0
30
0
11
74.985772
21
-0.063829
31
0
39
0
210
0
220
0
230
1
0
LINE
5
96
100
AcDbEntity
8
1
62
256
6
ByLayer
370
13
48
1
60
0
100
AcDbLine
10
74.671817
20
1.187299
30
0
11
73.163776
21
1.187299
31
0
39
0
210
0
220
0
230
1
0
LINE
5
97
100
AcDbEntity
8
SK1
62
256
6
ByLayer
370
18
48
1
60
0
100
AcDbLine
10
0
20
-9
30
0
11
0
21
9
31
0
39
0
210
0
220
0
230
1
0
LINE
5
98
100
AcDbEntity
8
SK1
62
256
6
ByLayer
370
18
48
1
60
0
100
AcDbLine
10
-48
20
-4.5
30
0
11
-48
21
-2.674639
31
0
39
0
210
0
220
0
230
1
0
LINE
5
99
100
AcDbEntity
8
SK1
62
256
6
ByLayer
370
18
48
1
60
0
100
AcDbLine
10
-48
20
-0.727483
30
0
11
-48
21
-2.674639
31
0
39
0
210
0
220
0
230
1
0
LINE
5
9A
100
AcDbEntity
8
SK1
62
256
6
ByLayer
370
18
48
1
60
0
100
AcDbLine
10
-45.401924
20
9
30
0
11
-45.401924
21
-9
31
0
39
0
210
0
220
0
230
1
0
LINE
5
9B
100
AcDbEntity
8
SK1
62
256
6
ByLayer
370
18
48
1
60
0
100
AcDbLine
10
-48
20
4.5
30
0
11
-48
21
0.727483
31
0
39
0
210
0
220
0
230
1
0
LINE
5
9C
100
AcDbEntity
8
SK1
62
256
6
ByLayer
370
18
48
1
60
0
100
AcDbLine
10
-45.5
20
-3.640964
30
0
11
-45.5
21
-0.433248
31
0
39
0
210
0
220
0
230
1
0
LINE
5
9D
100
AcDbEntity
8
SK1
62
256
6
ByLayer
370
13
48
1
60
0
100
AcDbLine
10
-45.6
20
-0.289951
30
0
11
-45.6
21
-3.692045
31
0
39
0
210
0
220
0
230
1
0
MTEXT
5
DE
100
AcDbEntity
8
SK6
62
256
6
ByLayer
370
13
48
1
60
0
100
AcDbMText
10
15.629169
20
39.132694
30
0
210
0
220
0
230
1
1
\W0.7287;R841-1350-30-A1A1220
40
3.5
41
0
44
1.084337
50
0
71
8
72
5
7
iso_b_vert
0
DIMENSION
5
EC
100
AcDbEntity
8
2
62
256
6
ByLayer
370
13
48
1
60
0
100
AcDbDimension
2
DimnDraft3D1
10
99.236431
20
8.9
30
0
11
94.611431
21
24.062954
31
0
70
33
71
5
72
1
41
1
210
0
220
0
230
1
3
Standard
100
AcDbAlignedDimension
13
31.5675
23
-8.9
33
0
14
31.5675
24
8.9
34
0
1001
ACAD
1000
DSTYLE
1002
{
1070
   279
1070
     0
1070
    74
1070
     0
1070
   173
1070
     1
1070
   340
1005
DF
1070
   271
1070
     3
1070
   272
1070
     2
1070
    77
1070
     1
1070
    73
1070
     0
1070
   171
1070
     3
1070
   274
1070
     4
1070
   177
1070
    35
1070
   176
1070
    35
1070
   178
1070
    35
1070
    48
1040
-0.005
1070
    41
1041
3.5
1070
   147
1041
1.75
1070
    42
1041
1.5875
1070
    44
1041
2.0
1070
   140
1041
3.5
1070
   343
1005
0
1070
   344
1005
0
1002
}
0
DIMENSION
5
F6
100
AcDbEntity
8
SK2
62
256
6
ByLayer
370
13
48
1
60
0
100
AcDbDimension
2
DimnDraft3D2
10
72.68
20
-19.552503
30
0
11
33.85065
21
-19.552503
31
0
70
32
71
5
72
1
41
1
210
0
220
0
230
1
3
Standard
100
AcDbAlignedDimension
13
0
23
-1.5875
33
0
14
72.68
24
-8.3375
34
0
50
0
100
AcDbRotatedDimension
1001
ACAD
1000
DSTYLE
1002
{
1070
   279
1070
     0
1070
   172
1070
     1
1070
   173
1070
     1
1070
   340
1005
DF
1070
   271
1070
     2
1070
   272
1070
     2
1070
    77
1070
     1
1070
    73
1070
     0
1070
   171
1070
     3
1070
   274
1070
     4
1070
   177
1070
    35
1070
   176
1070
    35
1070
   178
1070
    35
1070
    48
1040
-0.005
1070
    41
1041
3.5
1070
   147
1041
1.75
1070
    42
1041
1.5875
1070
    44
1041
2.0
1070
   140
1041
3.5
1070
   343
1005
0
1070
   344
1005
0
1002
}
0
DIMENSION
5
100
100
AcDbEntity
8
SK2
62
256
6
ByLayer
370
13
48
1
60
0
100
AcDbDimension
2
DimnDraft3D3
10
75
20
-40.192985
30
0
11
12.5213
21
-40.192985
31
0
70
32
71
5
72
1
41
1
210
0
220
0
230
1
3
Standard
100
AcDbAlignedDimension
13
-48
23
-10.5875
33
0
14
75
24
-1.5875
34
0
50
0
100
AcDbRotatedDimension
1001
ACAD
1000
DSTYLE
1002
{
1070
   279
1070
     0
1070
   172
1070
     1
1070
   173
1070
     1
1070
   340
1005
DF
1070
   271
1070
     2
1070
   272
1070
     2
1070
    77
1070
     1
1070
    73
1070
     0
1070
   171
1070
     3
1070
   274
1070
     4
1070
   177
1070
    35
1070
   176
1070
    35
1070
   178
1070
    35
1070
    48
1040
-0.005
1070
    41
1041
3.5
1070
   147
1041
1.75
1070
    42
1041
1.5875
1070
    44
1041
2.0
1070
   140
1041
3.5
1070
   343
1005
0
1070
   344
1005
0
1002
}
0
DIMENSION
5
10A
100
AcDbEntity
8
SK2
62
256
6
ByLayer
370
13
48
1
60
0
100
AcDbDimension
2
DimnDraft3D4
10
75
20
18.359119
30
0
11
52.49
21
18.359119
31
0
70
32
71
5
72
1
41
1
210
0
220
0
230
1
3
Standard
100
AcDbAlignedDimension
13
29.98
23
10.4875
33
0
14
75
24
1.5875
34
0
50
0
100
AcDbRotatedDimension
1001
ACAD
1000
DSTYLE
1002
{
1070
   279
1070
     0
1070
   172
1070
     1
1070
   173
1070
     1
1070
   340
1005
DF
1070
   271
1070
     2
1070
   272
1070
     2
1070
    77
1070
     1
1070
    73
1070
     0
1070
   171
1070
     3
1070
   274
1070
     4
1070
   177
1070
    35
1070
   176
1070
    35
1070
   178
1070
    35
1070
    48
1040
-0.005
1070
    41
1041
3.5
1070
   147
1041
1.75
1070
    42
1041
1.5875
1070
    44
1041
2.0
1070
   140
1041
3.5
1070
   343
1005
0
1070
   344
1005
0
1002
}
0
DIMENSION
5
114
100
AcDbEntity
8
SK2
62
256
6
ByLayer
370
13
48
1
60
0
100
AcDbDimension
2
DimnDraft3D5
10
72.68
20
-19.552503
30
0
11
84.981425
21
-19.552503
31
0
70
32
71
5
72
1
41
1
210
0
220
0
230
1
3
Standard
100
AcDbAlignedDimension
13
75
23
-1.5875
33
0
14
72.68
24
-8.3375
34
0
50
0
100
AcDbRotatedDimension
1001
ACAD
1000
DSTYLE
1002
{
1070
   279
1070
     0
1070
   172
1070
     1
1070
   173
1070
     1
1070
   340
1005
DF
1070
   271
1070
     2
1070
   272
1070
     2
1070
    77
1070
     1
1070
    73
1070
     0
1070
   171
1070
     3
1070
   274
1070
     4
1070
   177
1070
    35
1070
   176
1070
    35
1070
   178
1070
    35
1070
    48
1040
-0.005
1070
    41
1041
3.5
1070
   147
1041
1.75
1070
    42
1041
1.5875
1070
    44
1041
2.0
1070
   140
1041
3.5
1070
   343
1005
0
1070
   344
1005
0
1002
}
0
DIMENSION
5
11E
100
AcDbEntity
8
SK2
62
256
6
ByLayer
370
13
48
1
60
0
100
AcDbDimension
2
DimnDraft3D6
10
32.13
20
10.885371
30
0
11
52.405
21
10.885371
31
0
70
32
71
5
72
1
41
1
210
0
220
0
230
1
3
Standard
100
AcDbAlignedDimension
13
72.68
23
8.3375
33
0
14
32.13
24
8.3375
34
0
50
0
100
AcDbRotatedDimension
1001
ACAD
1000
DSTYLE
1002
{
1070
   279
1070
     0
1070
   172
1070
     1
1070
   173
1070
     1
1070
   340
1005
DF
1070
   271
1070
     2
1070
   272
1070
     2
1070
    77
1070
     1
1070
    73
1070
     0
1070
   171
1070
     3
1070
   274
1070
     4
1070
   177
1070
    35
1070
   176
1070
    35
1070
   178
1070
    35
1070
    48
1040
-0.005
1070
    41
1041
3.5
1070
   147
1041
1.75
1070
    42
1041
1.5875
1070
    44
1041
2.0
1070
   140
1041
3.5
1070
   343
1005
0
1070
   344
1005
0
1002
}
0
DIMENSION
5
128
100
AcDbEntity
8
SK2
62
256
6
ByLayer
370
13
48
1
60
0
100
AcDbDimension
2
DimnDraft3D7
10
72.68
20
-29.690158
30
0
11
11.85065
21
-29.690158
31
0
70
32
71
5
72
1
41
1
210
0
220
0
230
1
3
Standard
100
AcDbAlignedDimension
13
-48
23
-10.5875
33
0
14
72.68
24
-8.3375
34
0
50
0
100
AcDbRotatedDimension
1001
ACAD
1000
DSTYLE
1002
{
1070
   279
1070
     0
1070
   172
1070
     1
1070
   173
1070
     1
1070
   340
1005
DF
1070
   271
1070
     2
1070
   272
1070
     2
1070
    77
1070
     1
1070
    73
1070
     0
1070
   171
1070
     3
1070
   274
1070
     4
1070
   177
1070
    35
1070
   176
1070
    35
1070
   178
1070
    35
1070
    48
1040
-0.005
1070
    41
1041
3.5
1070
   147
1041
1.75
1070
    42
1041
1.5875
1070
    44
1041
2.0
1070
   140
1041
3.5
1070
   343
1005
0
1070
   344
1005
0
1002
}
0
DIMENSION
5
133
100
AcDbEntity
8
SK2
62
256
6
ByLayer
370
13
48
1
60
0
100
AcDbDimension
2
DimnDraft3D8
10
-58.625163
20
9
30
0
11
-59.250163
21
27.47418
31
0
70
33
71
5
72
1
41
1
210
0
220
0
230
1
3
Standard
100
AcDbAlignedDimension
13
-49.5875
23
-9
33
0
14
-49.5875
24
9
34
0
1001
ACAD
1000
DSTYLE
1002
{
1070
   279
1070
     0
1070
    74
1070
     0
1070
   173
1070
     1
1070
   340
1005
DF
1070
   271
1070
     3
1070
   272
1070
     2
1070
    77
1070
     1
1070
    73
1070
     0
1070
   171
1070
     3
1070
   274
1070
     4
1070
   177
1070
    35
1070
   176
1070
    35
1070
   178
1070
    35
1070
    48
1040
-0.005
1070
    41
1041
3.5
1070
   147
1041
1.75
1070
    42
1041
1.5875
1070
    44
1041
2.0
1070
   140
1041
3.5
1070
   343
1005
0
1070
   344
1005
0
1002
}
0
DIMENSION
5
13E
100
AcDbEntity
8
2
62
256
6
ByLayer
370
13
48
1
60
0
100
AcDbDimension
2
DimnDraft3D9
10
90.970081
20
6.75
30
0
11
86.345081
21
24.571903
31
0
70
33
71
5
72
1
41
1
210
0
220
0
230
1
3
Standard
100
AcDbAlignedDimension
13
74.2675
23
-6.75
33
0
14
74.2675
24
6.75
34
0
1001
ACAD
1000
DSTYLE
1002
{
1070
   279
1070
     0
1070
    74
1070
     0
1070
   173
1070
     1
1070
   340
1005
DF
1070
   271
1070
     3
1070
   272
1070
     2
1070
    77
1070
     1
1070
    73
1070
     0
1070
   171
1070
     3
1070
   274
1070
     4
1070
   177
1070
    35
1070
   176
1070
    35
1070
   178
1070
    35
1070
    48
1040
-0.005
1070
    41
1041
3.5
1070
   147
1041
1.75
1070
    42
1041
1.5875
1070
    44
1041
2.0
1070
   140
1041
3.5
1070
   343
1005
0
1070
   344
1005
0
1002
}
0
DIMENSION
5
149
100
AcDbEntity
8
SK2
62
256
6
ByLayer
370
13
48
1
60
0
100
AcDbDimension
2
DimnDraft3D10
10
29.98
20
-8.9
30
0
11
16.927489
21
2.175704
31
0
70
34
71
5
72
1
41
1
210
0
220
0
230
1
3
Standard
100
AcDb2LineAngularDimension
13
32.13
23
6.75
33
0
14
29.98
24
8.9
34
0
15
32.13
25
-6.75
35
0
16
16.819936
26
0
36
0
40
0
0
ENDSEC
0
SECTION
2
OBJECTS
0
DICTIONARY
5
1b4
330
0
100
AcDbDictionary
280
0
281
1
3
ACAD_GROUP
350
1b5
3
ACAD_MLINESTYLE
350
1b6
0
DICTIONARY
5
1b5
330
0
100
AcDbDictionary
280
0
281
1
0
DICTIONARY
5
1b6
330
0
100
AcDbDictionary
280
0
281
1
3
Standard
350
18
0
MLINESTYLE
5
18
330
1b6
100
AcDbMlineStyle
2
Standard
70
0
3

62
256
51
90
52
90
71
2
49
-0.5
62
256
6
ByLayer
49
0.5
62
256
6
ByLayer
0
RASTERVARIABLES
5
1a2
330

100
AcDbRasterVariables
90
0
70
1
71
1
72
1
0
ENDSEC
0
EOF
