0
SECTION
2
HEADER
9
$ACADVER
1
AC1015
9
$DWGCODEPAGE
3
ANSI_1252
9
$HANDSEED
5
196
9
$ANGBASE
50
0
9
$ANGDIR
70
0
9
$ATTMODE
70
1
9
$AUNITS
70
0
9
$AUPREC
70
0
9
$CECOLOR
62
256
9
$CELTSCALE
40
1
9
$CELTYPE
6
ByLayer
9
$CELWEIGHT
370
18
9
$CLAYER
8
0
9
$CMLJUST
70
0
9
$CMLSCALE
40
1
9
$CMLSTYLE
2
Standard
9
$DIMSTYLE
2
Standard
9
$TEXTSIZE
40
0.2
9
$TEXTSTYLE
7
Standard
9
$LUNITS
70
2
9
$LUPREC
70
4
9
$EXTNAMES
290
1
9
$INSUNITS
70
4
9
$LTSCALE
40
1
9
$LWDISPLAY
290
1
9
$PDMODE
70
0
9
$PDSIZE
40
0
9
$PLINEGEN
70
0
0
ENDSEC
0
SECTION
2
CLASSES
0
CLASS
1
RASTERVARIABLES
2
AcDbRasterVariables
3
ISM
90
0
280
0
281
0
0
ENDSEC
0
SECTION
2
TABLES
0
TABLE
2
VPORT
5
18c
100
AcDbSymbolTable
0
VPORT
5
1
100
AcDbSymbolTableRecord
100
AcDbViewportTableRecord
2
*Active
70
0
10
0
20
0
11
1
21
1
12
-1
22
1
13
0
23
0
14
0.5
24
0.5
15
10
25
10
16
0
26
0
36
1
17
0
27
0
37
0
0
ENDTAB
0
TABLE
2
LTYPE
5
18d
100
AcDbSymbolTable
0
LTYPE
5
14
100
AcDbSymbolTableRecord
100
AcDbLinetypeTableRecord
70
0
2
ByBlock
3

72
65
73
0
40
0
0
LTYPE
5
15
100
AcDbSymbolTableRecord
100
AcDbLinetypeTableRecord
70
0
2
ByLayer
3

72
65
73
0
40
0
0
LTYPE
5
16
100
AcDbSymbolTableRecord
100
AcDbLinetypeTableRecord
70
0
2
CONTINUOUS
3
Solid line
72
65
73
0
40
0
0
LTYPE
5
6A
100
AcDbSymbolTableRecord
100
AcDbLinetypeTableRecord
70
0
2
CENTER
3
____ _ ____ _ ____ _ ____
72
65
73
4
40
47.5
49
22
74
0
49
-8.5
74
0
49
8.5
74
0
49
-8.5
74
0
0
LTYPE
5
6B
100
AcDbSymbolTableRecord
100
AcDbLinetypeTableRecord
70
0
2
DASHED
3
__ __ __ __ __ __ __ __ __
72
65
73
2
40
25.72
49
12.86
74
0
49
-12.86
74
0
0
ENDTAB
0
TABLE
2
LAYER
5
18e
100
AcDbSymbolTable
0
LAYER
5
10
100
AcDbSymbolTableRecord
100
AcDbLayerTableRecord
2
0
70
0
62
7
6
CONTINUOUS
290
1
370
-3
390
0
0
LAYER
5
6D
100
AcDbSymbolTableRecord
100
AcDbLayerTableRecord
2
81
70
0
62
-3
6
CONTINUOUS
290
1
370
-3
390
0
0
LAYER
5
6F
100
AcDbSymbolTableRecord
100
AcDbLayerTableRecord
2
80
70
0
62
-6
6
CONTINUOUS
290
1
370
-3
390
0
0
LAYER
5
74
100
AcDbSymbolTableRecord
100
AcDbLayerTableRecord
2
2
70
0
62
7
6
CONTINUOUS
290
1
370
-3
390
0
0
LAYER
5
78
100
AcDbSymbolTableRecord
100
AcDbLayerTableRecord
2
1
70
0
62
4
6
CONTINUOUS
290
1
370
-3
390
0
0
LAYER
5
88
100
AcDbSymbolTableRecord
100
AcDbLayerTableRecord
2
4
70
0
62
-2
6
CENTER
290
1
370
-3
390
0
0
LAYER
5
178
100
AcDbSymbolTableRecord
100
AcDbLayerTableRecord
2
SK2
70
0
62
7
6
CONTINUOUS
290
1
370
-3
390
0
0
LAYER
5
179
100
AcDbSymbolTableRecord
100
AcDbLayerTableRecord
2
SK1
70
0
62
4
6
CONTINUOUS
290
1
370
-3
390
0
0
LAYER
5
17a
100
AcDbSymbolTableRecord
100
AcDbLayerTableRecord
2
SK4
70
0
62
2
6
CENTER
290
1
370
-3
390
0
0
LAYER
5
17b
100
AcDbSymbolTableRecord
100
AcDbLayerTableRecord
2
SK6
70
0
62
5
6
CONTINUOUS
290
1
370
-3
390
0
0
ENDTAB
0
TABLE
2
STYLE
5
18f
100
AcDbSymbolTable
0
STYLE
5
11
100
AcDbSymbolTableRecord
100
AcDbTextStyleTableRecord
2
Standard
3
txt
70
0
71
0
40
0
41
1
42
0
50
0
0
STYLE
5
D4
100
AcDbSymbolTableRecord
100
AcDbTextStyleTableRecord
2
iso_b_vert
3
simplex.shx
70
0
71
0
40
0
41
1
42
0
50
0
0
STYLE
5
D5
100
AcDbSymbolTableRecord
100
AcDbTextStyleTableRecord
2
DWGDirectTextStyle
3
simplex
70
0
71
0
40
0
41
1
42
0
50
0
0
ENDTAB
0
TABLE
2
DIMSTYLE
5
190
100
AcDbSymbolTable
100
AcDbDimStyleTable
0
DIMSTYLE
105
27
100
AcDbSymbolTableRecord
100
AcDbDimStyleTableRecord
2
Standard
70
0
3
<>
41
0.18
42
0.0625
44
0.18
140
0.18
147
0.09
73
0
74
0
77
1
271
2
275
0
278
52
280
0
340
11
0
ENDTAB
0
TABLE
2
VIEW
5
191
100
AcDbSymbolTable
0
ENDTAB
0
TABLE
2
UCS
5
192
100
AcDbSymbolTable
0
ENDTAB
0
TABLE
2
APPID
5
193
100
AcDbSymbolTable
0
APPID
5
12
100
AcDbSymbolTableRecord
100
AcDbRegAppTableRecord
2
ACAD
70
0
0
ENDTAB
0
TABLE
2
BLOCK_RECORD
5
194
100
AcDbSymbolTable
0
BLOCK_RECORD
5
1F
100
AcDbSymbolTableRecord
100
AcDbBlockTableRecord
2
*Model_Space
340
0
70
0
0
BLOCK_RECORD
5
1B
100
AcDbSymbolTableRecord
100
AcDbBlockTableRecord
2
*Paper_Space
340
0
70
0
0
BLOCK_RECORD
5
23
100
AcDbSymbolTableRecord
100
AcDbBlockTableRecord
2
*Paper_Space0
340
0
70
0
0
BLOCK_RECORD
5
D7
100
AcDbSymbolTableRecord
100
AcDbBlockTableRecord
2
DimnDraft3D1
340
0
70
0
0
BLOCK_RECORD
5
E1
100
AcDbSymbolTableRecord
100
AcDbBlockTableRecord
2
DimnDraft3D2
340
0
70
0
0
BLOCK_RECORD
5
EB
100
AcDbSymbolTableRecord
100
AcDbBlockTableRecord
2
DimnDraft3D3
340
0
70
0
0
BLOCK_RECORD
5
F5
100
AcDbSymbolTableRecord
100
AcDbBlockTableRecord
2
DimnDraft3D4
340
0
70
0
0
BLOCK_RECORD
5
FF
100
AcDbSymbolTableRecord
100
AcDbBlockTableRecord
2
DimnDraft3D5
340
0
70
0
0
BLOCK_RECORD
5
109
100
AcDbSymbolTableRecord
100
AcDbBlockTableRecord
2
DimnDraft3D6
340
0
70
0
0
BLOCK_RECORD
5
114
100
AcDbSymbolTableRecord
100
AcDbBlockTableRecord
2
DimnDraft3D7
340
0
70
0
0
ENDTAB
0
ENDSEC
0
SECTION
2
BLOCKS
0
BLOCK
5
20
100
AcDbEntity
8
0
100
AcDbBlockBegin
2
*Model_Space
70
0
10
0
20
0
30
0
3
*Model_Space
0
ENDBLK
5
21
100
AcDbEntity
8
0
100
AcDbBlockEnd
0
BLOCK
5
1C
100
AcDbEntity
8
0
100
AcDbBlockBegin
2
*Paper_Space
70
0
10
0
20
0
30
0
3
*Paper_Space
0
ENDBLK
5
1D
100
AcDbEntity
8
0
100
AcDbBlockEnd
0
BLOCK
5
24
100
AcDbEntity
8
0
100
AcDbBlockBegin
2
*Paper_Space0
70
0
10
0
20
0
30
0
3
*Paper_Space0
0
ENDBLK
5
25
100
AcDbEntity
8
0
100
AcDbBlockEnd
0
BLOCK
5
DE
100
AcDbEntity
8
0
100
AcDbBlockBegin
2
DimnDraft3D1
70
0
10
0
20
0
30
0
3
DimnDraft3D1
0
MTEXT
5
D8
100
AcDbEntity
8
SK2
62
256
6
ByLayer
370
13
48
1
60
0
100
AcDbMText
10
31.851375
20
-19.338398
30
0
210
0
220
0
230
1
1
\W0.7317;77,55
40
3.5
41
0
44
1.084337
50
0
71
7
72
5
7
iso_b_vert
0
LINE
5
D9
100
AcDbEntity
8
SK2
62
256
6
ByLayer
370
13
48
1
60
0
100
AcDbLine
10
0
20
-1.5875
30
0
11
0
21
-22.213398
31
0
39
0
210
0
220
0
230
1
0
LINE
5
DA
100
AcDbEntity
8
SK2
62
256
6
ByLayer
370
13
48
1
60
0
100
AcDbLine
10
77.55
20
-11.5875
30
0
11
77.55
21
-22.213398
31
0
39
0
210
0
220
0
230
1
0
LINE
5
DB
100
AcDbEntity
8
SK2
62
256
6
ByLayer
370
13
48
1
60
0
100
AcDbLine
10
0
20
-20.213398
30
0
11
77.55
21
-20.213398
31
0
39
0
210
0
220
0
230
1
0
SOLID
5
DC
100
AcDbEntity
8
SK2
62
256
6
ByLayer
370
13
48
1
60
0
100
AcDbTrace
10
0
20
-20.213398
30
0
11
3.499998
21
-19.752615
31
0
12
3.500002
22
-20.674182
32
0
13
0
23
-20.213398
33
0
39
0
210
0
220
0
230
1
0
SOLID
5
DD
100
AcDbEntity
8
SK2
62
256
6
ByLayer
370
13
48
1
60
0
100
AcDbTrace
10
77.55
20
-20.213398
30
0
11
74.050002
21
-20.674182
31
0
12
74.049998
22
-19.752615
32
0
13
77.55
23
-20.213398
33
0
39
0
210
0
220
0
230
1
0
ENDBLK
5
DF
100
AcDbEntity
8
0
100
AcDbBlockEnd
0
BLOCK
5
E8
100
AcDbEntity
8
0
100
AcDbBlockBegin
2
DimnDraft3D2
70
0
10
0
20
0
30
0
3
DimnDraft3D2
0
MTEXT
5
E2
100
AcDbEntity
8
SK2
62
256
6
ByLayer
370
13
48
1
60
0
100
AcDbMText
10
8.509721
20
-37.817985
30
0
210
0
220
0
230
1
1
\W0.6440;131,00
40
3.5
41
0
44
1.084337
50
0
71
7
72
5
7
iso_b_vert
0
LINE
5
E3
100
AcDbEntity
8
SK2
62
256
6
ByLayer
370
13
48
1
60
0
100
AcDbLine
10
-50
20
-11.5875
30
0
11
-50
21
-40.692985
31
0
39
0
210
0
220
0
230
1
0
LINE
5
E4
100
AcDbEntity
8
SK2
62
256
6
ByLayer
370
13
48
1
60
0
100
AcDbLine
10
81
20
-1.5875
30
0
11
81
21
-40.692985
31
0
39
0
210
0
220
0
230
1
0
LINE
5
E5
100
AcDbEntity
8
SK2
62
256
6
ByLayer
370
13
48
1
60
0
100
AcDbLine
10
-50
20
-38.692985
30
0
11
81
21
-38.692985
31
0
39
0
210
0
220
0
230
1
0
SOLID
5
E6
100
AcDbEntity
8
SK2
62
256
6
ByLayer
370
13
48
1
60
0
100
AcDbTrace
10
-50
20
-38.692985
30
0
11
-46.500002
21
-38.232202
31
0
12
-46.499998
22
-39.153769
32
0
13
-50
23
-38.692985
33
0
39
0
210
0
220
0
230
1
0
SOLID
5
E7
100
AcDbEntity
8
SK2
62
256
6
ByLayer
370
13
48
1
60
0
100
AcDbTrace
10
81
20
-38.692985
30
0
11
77.500002
21
-39.153769
31
0
12
77.499998
22
-38.232202
32
0
13
81
23
-38.692985
33
0
39
0
210
0
220
0
230
1
0
ENDBLK
5
E9
100
AcDbEntity
8
0
100
AcDbBlockEnd
0
BLOCK
5
F2
100
AcDbEntity
8
0
100
AcDbBlockBegin
2
DimnDraft3D3
70
0
10
0
20
0
30
0
3
DimnDraft3D3
0
MTEXT
5
EC
100
AcDbEntity
8
SK2
62
256
6
ByLayer
370
13
48
1
60
0
100
AcDbMText
10
44.642105
20
22.484119
30
0
210
0
220
0
230
1
1
\W0.7581;63,45
40
3.5
41
0
44
1.084337
50
0
71
7
72
5
7
iso_b_vert
0
LINE
5
ED
100
AcDbEntity
8
SK2
62
256
6
ByLayer
370
13
48
1
60
0
100
AcDbLine
10
17.55
20
11.5875
30
0
11
17.55
21
23.609119
31
0
39
0
210
0
220
0
230
1
0
LINE
5
EE
100
AcDbEntity
8
SK2
62
256
6
ByLayer
370
13
48
1
60
0
100
AcDbLine
10
81
20
1.5875
30
0
11
81
21
23.609119
31
0
39
0
210
0
220
0
230
1
0
LINE
5
EF
100
AcDbEntity
8
SK2
62
256
6
ByLayer
370
13
48
1
60
0
100
AcDbLine
10
17.55
20
21.609119
30
0
11
81
21
21.609119
31
0
39
0
210
0
220
0
230
1
0
SOLID
5
F0
100
AcDbEntity
8
SK2
62
256
6
ByLayer
370
13
48
1
60
0
100
AcDbTrace
10
17.55
20
21.609119
30
0
11
21.049998
21
22.069903
31
0
12
21.050002
22
21.148335
32
0
13
17.55
23
21.609119
33
0
39
0
210
0
220
0
230
1
0
SOLID
5
F1
100
AcDbEntity
8
SK2
62
256
6
ByLayer
370
13
48
1
60
0
100
AcDbTrace
10
81
20
21.609119
30
0
11
77.500002
21
21.148335
31
0
12
77.499998
22
22.069903
32
0
13
81
23
21.609119
33
0
39
0
210
0
220
0
230
1
0
ENDBLK
5
F3
100
AcDbEntity
8
0
100
AcDbBlockEnd
0
BLOCK
5
FC
100
AcDbEntity
8
0
100
AcDbBlockBegin
2
DimnDraft3D4
70
0
10
0
20
0
30
0
3
DimnDraft3D4
0
MTEXT
5
F6
100
AcDbEntity
8
SK2
62
256
6
ByLayer
370
13
48
1
60
0
100
AcDbMText
10
87.656425
20
-21.927503
30
0
210
0
220
0
230
1
1
\W0.7493;3,45
40
3.5
41
0
44
1.084337
50
0
71
7
72
5
7
iso_b_vert
0
LINE
5
F7
100
AcDbEntity
8
SK2
62
256
6
ByLayer
370
13
48
1
60
0
100
AcDbLine
10
81
20
-1.5875
30
0
11
81
21
-24.802503
31
0
39
0
210
0
220
0
230
1
0
LINE
5
F8
100
AcDbEntity
8
SK2
62
256
6
ByLayer
370
13
48
1
60
0
100
AcDbLine
10
77.55
20
-11.5875
30
0
11
77.55
21
-24.802503
31
0
39
0
210
0
220
0
230
1
0
LINE
5
F9
100
AcDbEntity
8
SK2
62
256
6
ByLayer
370
13
48
1
60
0
100
AcDbLine
10
68.8
20
-22.802503
30
0
11
95.181425
21
-22.802503
31
0
39
0
210
0
220
0
230
1
0
SOLID
5
FA
100
AcDbEntity
8
SK2
62
256
6
ByLayer
370
13
48
1
60
0
100
AcDbTrace
10
81
20
-22.802503
30
0
11
84.499998
21
-22.341719
31
0
12
84.500002
22
-23.263287
32
0
13
81
23
-22.802503
33
0
39
0
210
0
220
0
230
1
0
SOLID
5
FB
100
AcDbEntity
8
SK2
62
256
6
ByLayer
370
13
48
1
60
0
100
AcDbTrace
10
77.55
20
-22.802503
30
0
11
74.050002
21
-23.263287
31
0
12
74.049998
22
-22.341719
32
0
13
77.55
23
-22.802503
33
0
39
0
210
0
220
0
230
1
0
ENDBLK
5
FD
100
AcDbEntity
8
0
100
AcDbBlockEnd
0
BLOCK
5
106
100
AcDbEntity
8
0
100
AcDbBlockBegin
2
DimnDraft3D5
70
0
10
0
20
0
30
0
3
DimnDraft3D5
0
MTEXT
5
100
100
AcDbEntity
8
SK2
62
256
6
ByLayer
370
13
48
1
60
0
100
AcDbMText
10
4.991597
20
-27.468428
30
0
210
0
220
0
230
1
1
\W0.6930;127,55
40
3.5
41
0
44
1.084337
50
0
71
7
72
5
7
iso_b_vert
0
LINE
5
101
100
AcDbEntity
8
SK2
62
256
6
ByLayer
370
13
48
1
60
0
100
AcDbLine
10
-50
20
-11.5875
30
0
11
-50
21
-30.343428
31
0
39
0
210
0
220
0
230
1
0
LINE
5
102
100
AcDbEntity
8
SK2
62
256
6
ByLayer
370
13
48
1
60
0
100
AcDbLine
10
77.55
20
-11.5875
30
0
11
77.55
21
-30.343428
31
0
39
0
210
0
220
0
230
1
0
LINE
5
103
100
AcDbEntity
8
SK2
62
256
6
ByLayer
370
13
48
1
60
0
100
AcDbLine
10
-50
20
-28.343428
30
0
11
77.55
21
-28.343428
31
0
39
0
210
0
220
0
230
1
0
SOLID
5
104
100
AcDbEntity
8
SK2
62
256
6
ByLayer
370
13
48
1
60
0
100
AcDbTrace
10
-50
20
-28.343428
30
0
11
-46.500002
21
-27.882645
31
0
12
-46.499998
22
-28.804212
32
0
13
-50
23
-28.343428
33
0
39
0
210
0
220
0
230
1
0
SOLID
5
105
100
AcDbEntity
8
SK2
62
256
6
ByLayer
370
13
48
1
60
0
100
AcDbTrace
10
77.55
20
-28.343428
30
0
11
74.050002
21
-28.804212
31
0
12
74.049998
22
-27.882645
32
0
13
77.55
23
-28.343428
33
0
39
0
210
0
220
0
230
1
0
ENDBLK
5
107
100
AcDbEntity
8
0
100
AcDbBlockEnd
0
BLOCK
5
111
100
AcDbEntity
8
0
100
AcDbBlockBegin
2
DimnDraft3D6
70
0
10
0
20
0
30
0
3
DimnDraft3D6
0
MTEXT
5
10A
100
AcDbEntity
8
SK2
62
256
6
ByLayer
370
13
48
1
60
0
100
AcDbMText
10
-60.375163
20
29.34918
30
0
210
0
220
0
230
1
1
\W0.7421;20,000
40
3.5
41
0
44
1.084337
50
90
71
7
72
5
7
iso_b_vert
0
MTEXT
5
10B
100
AcDbEntity
8
SK2
62
256
6
ByLayer
370
13
48
1
60
0
100
AcDbMText
10
-60.375163
20
24.126524
30
0
210
0
220
0
230
1
1
%%c
40
3.5
41
0
44
1.084337
50
90
71
7
72
5
7
iso_b_vert
0
LINE
5
10C
100
AcDbEntity
8
SK2
62
256
6
ByLayer
370
13
48
1
60
0
100
AcDbLine
10
-51.5875
20
-10
30
0
11
-60.625163
21
-10
31
0
39
0
210
0
220
0
230
1
0
LINE
5
10D
100
AcDbEntity
8
SK2
62
256
6
ByLayer
370
13
48
1
60
0
100
AcDbLine
10
-51.5875
20
10
30
0
11
-60.625163
21
10
31
0
39
0
210
0
220
0
230
1
0
LINE
5
10E
100
AcDbEntity
8
SK2
62
256
6
ByLayer
370
13
48
1
60
0
100
AcDbLine
10
-58.625163
20
-10
30
0
11
-58.625163
21
41.737338
31
0
39
0
210
0
220
0
230
1
0
SOLID
5
10F
100
AcDbEntity
8
SK2
62
256
6
ByLayer
370
13
48
1
60
0
100
AcDbTrace
10
-58.625163
20
-10
30
0
11
-59.085946
21
-6.500002
31
0
12
-58.164379
22
-6.499998
32
0
13
-58.625163
23
-10
33
0
39
0
210
0
220
0
230
1
0
SOLID
5
110
100
AcDbEntity
8
SK2
62
256
6
ByLayer
370
13
48
1
60
0
100
AcDbTrace
10
-58.625163
20
10
30
0
11
-58.164379
21
6.500002
31
0
12
-59.085946
22
6.499998
32
0
13
-58.625163
23
10
33
0
39
0
210
0
220
0
230
1
0
ENDBLK
5
112
100
AcDbEntity
8
0
100
AcDbBlockEnd
0
BLOCK
5
11C
100
AcDbEntity
8
0
100
AcDbBlockBegin
2
DimnDraft3D7
70
0
10
0
20
0
30
0
3
DimnDraft3D7
0
MTEXT
5
115
100
AcDbEntity
8
2
62
256
6
ByLayer
370
13
48
1
60
0
100
AcDbMText
10
91.333343
20
27.942266
30
0
210
0
220
0
230
1
1
\W0.7421;20,000
40
3.5
41
0
44
1.084337
50
90
71
7
72
5
7
iso_b_vert
0
MTEXT
5
116
100
AcDbEntity
8
2
62
256
6
ByLayer
370
13
48
1
60
0
100
AcDbMText
10
91.333343
20
22.71961
30
0
210
0
220
0
230
1
1
%%c
40
3.5
41
0
44
1.084337
50
90
71
7
72
5
7
iso_b_vert
0
LINE
5
117
100
AcDbEntity
8
2
62
256
6
ByLayer
370
13
48
1
60
0
100
AcDbLine
10
79.1375
20
-10
30
0
11
95.083343
21
-10
31
0
39
0
210
0
220
0
230
1
0
LINE
5
118
100
AcDbEntity
8
2
62
256
6
ByLayer
370
13
48
1
60
0
100
AcDbLine
10
79.1375
20
10
30
0
11
95.083343
21
10
31
0
39
0
210
0
220
0
230
1
0
LINE
5
119
100
AcDbEntity
8
2
62
256
6
ByLayer
370
13
48
1
60
0
100
AcDbLine
10
93.083343
20
-10
30
0
11
93.083343
21
40.330424
31
0
39
0
210
0
220
0
230
1
0
SOLID
5
11A
100
AcDbEntity
8
2
62
256
6
ByLayer
370
13
48
1
60
0
100
AcDbTrace
10
93.083343
20
-10
30
0
11
92.622559
21
-6.500002
31
0
12
93.544126
22
-6.499998
32
0
13
93.083343
23
-10
33
0
39
0
210
0
220
0
230
1
0
SOLID
5
11B
100
AcDbEntity
8
2
62
256
6
ByLayer
370
13
48
1
60
0
100
AcDbTrace
10
93.083343
20
10
30
0
11
93.544126
21
6.500002
31
0
12
92.622559
22
6.499998
32
0
13
93.083343
23
10
33
0
39
0
210
0
220
0
230
1
0
ENDBLK
5
11D
100
AcDbEntity
8
0
100
AcDbBlockEnd
0
ENDSEC
0
SECTION
2
ENTITIES
0
ELLIPSE
5
99
100
AcDbEntity
8
1
62
256
6
ByLayer
370
18
48
1
60
0
100
AcDbEllipse
10
79.233085
20
4.557511
30
0
11
1.53573926449935
21
-4.19878890401095
31
0
210
0
220
0
230
-1
40
0.065672
41
-1.60983189098682
42
-0.761382749777451
0
ELLIPSE
5
9A
100
AcDbEntity
8
1
62
256
6
ByLayer
370
18
48
1
60
0
100
AcDbEllipse
10
80.858758
20
0.184113
30
0
11
0.0868803724646506
21
0.290676908749936
31
0
210
0
220
0
230
-1
40
0.467765
41
1.74905884254322
42
2.36053717382157
0
ELLIPSE
5
9B
100
AcDbEntity
8
1
62
256
6
ByLayer
370
13
48
1
60
0
100
AcDbEllipse
10
79.835819
20
4.557511
30
0
11
6.42913145149608
21
-2.96452883137923
31
0
210
0
220
0
230
-1
40
0.462762
41
1.57258594553945
42
1.91610395014299
0
ELLIPSE
5
9C
100
AcDbEntity
8
1
62
256
6
ByLayer
370
18
48
1
60
0
100
AcDbEllipse
10
81.000828
20
-0.002184
30
0
11
3.6572744707969
21
-9.99917356018754
31
0
210
0
220
0
230
-1
40
0.065672
41
-3.00968711994165
42
-2.92398680783583
0
ELLIPSE
5
9D
100
AcDbEntity
8
1
62
256
6
ByLayer
370
18
48
1
60
0
100
AcDbEllipse
10
81.000828
20
0.002184
30
0
11
3.65727439927105
21
9.99917335764386
31
0
210
0
220
0
230
-1
40
0.065672
41
2.92398680562635
42
3.00968711860916
0
ELLIPSE
5
9E
100
AcDbEntity
8
1
62
256
6
ByLayer
370
18
48
1
60
0
100
AcDbEllipse
10
80.992118
20
0.118083
30
0
11
0.137829328523127
21
-0.402528286962262
31
0
210
0
220
0
230
-1
40
0.052723
41
1.52544305818097
42
2.31022812869823
0
ELLIPSE
5
9F
100
AcDbEntity
8
1
62
256
6
ByLayer
370
13
48
1
60
0
100
AcDbEllipse
10
4.174029
20
-3.276174
30
0
11
-0.0328811641202689
21
-0.0944395523395571
31
0
210
0
220
0
230
1
40
0.578052
41
-1.68090470542768
42
-0.376442771288719
0
ELLIPSE
5
A0
100
AcDbEntity
8
1
62
256
6
ByLayer
370
13
48
1
60
0
100
AcDbEllipse
10
4.250125
20
-3.310905
30
0
11
0.0482391602104408
21
0.0875955673661141
31
0
210
0
220
0
230
1
40
0.173172
41
1.26448439631661
42
2.82789239446192
0
ELLIPSE
5
A1
100
AcDbEntity
8
1
62
256
6
ByLayer
370
18
48
1
60
0
100
AcDbEllipse
10
79.233085
20
-4.557511
30
0
11
1.53573926449654
21
4.19878890400374
31
0
210
0
220
0
230
-1
40
0.065672
41
0.761382749776361
42
1.60983189098745
0
ELLIPSE
5
A2
100
AcDbEntity
8
1
62
256
6
ByLayer
370
13
48
1
60
0
100
AcDbEllipse
10
78.452444
20
1.375531
30
0
11
0.133113781883907
21
0.268850741253513
31
0
210
0
220
0
230
1
40
0.40558
41
0.884485917130959
42
2.28074931872642
0
ELLIPSE
5
A3
100
AcDbEntity
8
1
62
256
6
ByLayer
370
18
48
1
60
0
100
AcDbEllipse
10
80.992118
20
-0.118083
30
0
11
0.137829328458696
21
0.402528286791841
31
0
210
0
220
0
230
-1
40
0.052723
41
-2.31022812874212
42
-1.52544305790557
0
ELLIPSE
5
A4
100
AcDbEntity
8
1
62
256
6
ByLayer
370
13
48
1
60
0
100
AcDbEllipse
10
79.66636
20
4.423219
30
0
11
6.38022393657014
21
-3.28000501394216
31
0
210
0
220
0
230
-1
40
0.482873
41
1.53949524920767
42
1.88527424231114
0
POINT
5
6C
100
AcDbEntity
8
81
62
256
6
ByLayer
370
18
48
1
60
0
100
AcDbPoint
10
81
20
0
30
0
39
0
210
0
220
0
230
1
50
360
0
POINT
5
6E
100
AcDbEntity
8
80
62
256
6
ByLayer
370
18
48
1
60
0
100
AcDbPoint
10
0
20
0
30
0
39
0
210
0
220
0
230
1
50
360
0
POINT
5
70
100
AcDbEntity
8
SK2
62
256
6
ByLayer
370
18
48
1
60
1
100
AcDbPoint
10
-50
20
-10
30
0
39
0
210
0
220
0
230
1
50
360
0
POINT
5
72
100
AcDbEntity
8
SK2
62
256
6
ByLayer
370
18
48
1
60
1
100
AcDbPoint
10
-50
20
10
30
0
39
0
210
0
220
0
230
1
50
360
0
POINT
5
73
100
AcDbEntity
8
2
62
256
6
ByLayer
370
18
48
1
60
1
100
AcDbPoint
10
77.55
20
-10
30
0
39
0
210
0
220
0
230
1
50
360
0
POINT
5
75
100
AcDbEntity
8
2
62
256
6
ByLayer
370
18
48
1
60
1
100
AcDbPoint
10
77.55
20
10
30
0
39
0
210
0
220
0
230
1
50
360
0
SPLINE
5
A5
100
AcDbEntity
8
1
62
256
6
ByLayer
370
18
48
1
60
0
100
AcDbSpline
70
4
71
2
72
6
73
3
40
0
40
0
40
0
40
1
40
1
40
1
41
1
10
49.8890791055231
20
-0.0002087644984385
30
0
41
1
10
49.8890590940982
20
-0.0001975857580589
30
0
41
1
10
49.8890390827232
20
-0.0001859948721403
30
0
0
SPLINE
5
A6
100
AcDbEntity
8
1
62
256
6
ByLayer
370
18
48
1
60
0
100
AcDbSpline
70
4
71
3
72
11
73
7
40
0
40
0
40
0
40
0
40
0.201632357321285
40
0.527969214400811
40
0.905857461330113
40
1
40
1
40
1
40
1
41
1
10
75.8684019817303
20
-9.57420942035534
30
0
41
1
10
75.9776232656587
20
-9.57415028335078
30
0
41
1
10
76.2644872978142
20
-9.57398826934963
30
0
41
1
10
76.7635244842745
20
-9.5743443308715
30
0
41
1
10
77.202351669886
20
-9.5733532020173
30
0
41
1
10
77.4602979143536
20
-9.57535159345224
30
0
41
1
10
77.5117028248867
20
-9.57579810254362
30
0
0
SPLINE
5
A7
100
AcDbEntity
8
1
62
256
6
ByLayer
370
18
48
1
60
0
100
AcDbSpline
70
4
71
3
72
41
73
37
40
0
40
0
40
0
40
0
40
0.0333589744157703
40
0.0661487321621113
40
0.0937442598473037
40
0.116816560973769
40
0.136704901129488
40
0.153688150873141
40
0.16861565148442
40
0.188553337731246
40
0.223096971099332
40
0.25914052228301
40
0.291980024429637
40
0.320675611195178
40
0.345142499220492
40
0.384346070454551
40
0.420470343227051
40
0.453237949595191
40
0.490110203067968
40
0.533428617288273
40
0.570192414762641
40
0.607559479787157
40
0.638001650695637
40
0.670030978728416
40
0.703216495590233
40
0.737475249485314
40
0.776850448875153
40
0.822516916465365
40
0.858333501995087
40
0.89179876024914
40
0.920753316992797
40
0.945619262087619
40
0.968376584978494
40
0.982327714001672
40
0.995608135992127
40
1
40
1
40
1
40
1
41
1
10
24.260735028329
20
-9.54293754472974
30
0
41
1
10
24.560139535956
20
-9.5428654730687
30
0
41
1
10
25.1556059492267
20
-9.54281588613546
30
0
41
1
10
26.0033258695888
20
-9.54184332177607
30
0
41
1
10
26.7638994438704
20
-9.54309991804394
30
0
41
1
10
27.3897723915206
20
-9.54492983217241
30
0
41
1
10
27.9271115869997
20
-9.544805754213
30
0
41
1
10
28.3968258068701
20
-9.54465122431958
30
0
41
1
10
28.866235701542
20
-9.54501415548521
30
0
41
1
10
29.4951277240712
20
-9.5452696530181
30
0
41
1
10
30.3158358974538
20
-9.54549623636976
30
0
41
1
10
31.2535384923102
20
-9.54759225914412
30
0
41
1
10
32.1381656804484
20
-9.5469871776059
30
0
41
1
10
32.9179012627597
20
-9.54635374525418
30
0
41
1
10
33.7553073368747
20
-9.54586215228187
30
0
41
1
10
34.6600452486176
20
-9.54602297407826
30
0
41
1
10
35.6400759871433
20
-9.55035759987925
30
0
41
1
10
36.5989601914161
20
-9.54962902855638
30
0
41
1
10
37.6230835199731
20
-9.54896986314688
30
0
41
1
10
38.6834241351081
20
-9.54852964997713
30
0
41
1
10
39.7482354485481
20
-9.55181383817143
30
0
41
1
10
40.6964075109427
20
-9.55317944408225
30
0
41
1
10
41.6013208182664
20
-9.55154519332945
30
0
41
1
10
42.468593978133
20
-9.55094658953297
30
0
41
1
10
43.3703327654809
20
-9.55031175457268
30
0
41
1
10
44.3388080693705
20
-9.55434367057646
30
0
41
1
10
45.42041737974
20
-9.55469046596986
30
0
41
1
10
46.5161812992431
20
-9.55400500061722
30
0
41
1
10
47.5582806329104
20
-9.55380784792408
30
0
41
1
10
48.4489583290134
20
-9.55502546948404
30
0
41
1
10
49.2401908798106
20
-9.556799622076
30
0
41
1
10
49.9348657909115
20
-9.55592637273756
30
0
41
1
10
50.4918269674321
20
-9.55584720384175
30
0
41
1
10
50.9415966843273
20
-9.55553058312174
30
0
41
1
10
51.220221272163
20
-9.55465825137497
30
0
41
1
10
51.3788293437293
20
-9.55415861091453
30
0
41
1
10
51.4183701132704
20
-9.55404701638241
30
0
0
SPLINE
5
A8
100
AcDbEntity
8
1
62
256
6
ByLayer
370
18
48
1
60
0
100
AcDbSpline
70
4
71
3
72
9
73
5
40
0
40
0
40
0
40
0
40
0.984349515415186
40
1
40
1
40
1
40
1
41
1
10
51.5095800538403
20
-9.55381837260958
30
0
41
1
10
51.5909423698565
20
-9.55364528434941
30
0
41
1
10
51.6739461661215
20
-9.55356673206697
30
0
41
1
10
51.7568119085384
20
-9.55370540597656
30
0
41
1
10
51.7581088753597
20
-9.55370760261016
30
0
0
SPLINE
5
A9
100
AcDbEntity
8
1
62
256
6
ByLayer
370
18
48
1
60
0
100
AcDbSpline
70
4
71
3
72
32
73
28
40
0
40
0
40
0
40
0
40
0.0240259213149252
40
0.0499742775747239
40
0.075507430815999
40
0.114688727370828
40
0.15265982611846
40
0.196579354315737
40
0.237935210332515
40
0.277053759189671
40
0.318701114675161
40
0.368597122598315
40
0.420067605276188
40
0.465339581846914
40
0.52147166584225
40
0.562175588652396
40
0.609288569759383
40
0.650958476793029
40
0.697272925369251
40
0.74771647657561
40
0.797324015793882
40
0.840785080103004
40
0.884841488856705
40
0.931309667890659
40
0.973724125959738
40
0.988554433766272
40
1
40
1
40
1
40
1
41
1
10
52.0209279172669
20
9.54929276231394
30
0
41
1
10
51.8415483977051
20
9.5509571619383
30
0
41
1
10
51.4670078747845
20
9.55375811880415
30
0
41
1
10
50.8961735689371
20
9.55565070843906
30
0
41
1
10
50.2062654928557
20
9.55597776573305
30
0
41
1
10
49.4171904542111
20
9.55581609284226
30
0
41
1
10
48.477385912616
20
9.55418966144018
30
0
41
1
10
47.5307674629794
20
9.55391562558029
30
0
41
1
10
46.5675343907461
20
9.5540483691274
30
0
41
1
10
45.6228812676628
20
9.55423483011256
30
0
41
1
10
44.6118541023739
20
9.55543470611727
30
0
41
1
10
43.5054943586568
20
9.55000504101059
30
0
41
1
10
42.3704756078276
20
9.55135436068258
30
0
41
1
10
41.1948767074494
20
9.5498762833486
30
0
41
1
10
40.1068797309158
20
9.55396250343622
30
0
41
1
10
38.9907147493668
20
9.54868975865512
30
0
41
1
10
37.989521532929
20
9.5488659961992
30
0
41
1
10
36.9441127686526
20
9.54924061544733
30
0
41
1
10
35.8731344796927
20
9.55086914430879
30
0
41
1
10
34.7406726851357
20
9.54618913175767
30
0
41
1
10
33.6303644603982
20
9.54580250829684
30
0
41
1
10
32.569382098809
20
9.54661440092045
30
0
41
1
10
31.5328324775084
20
9.54768861244617
30
0
41
1
10
30.5040824001023
20
9.5458727829097
30
0
41
1
10
29.7021626718322
20
9.54530689232195
30
0
41
1
10
29.1713214337576
20
9.5450099059783
30
0
41
1
10
28.9680277398296
20
9.54492154588988
30
0
41
1
10
28.8794689825229
20
9.54489044300851
30
0
0
SPLINE
5
AA
100
AcDbEntity
8
1
62
256
6
ByLayer
370
18
48
1
60
0
100
AcDbSpline
70
4
71
3
72
28
73
24
40
0
40
0
40
0
40
0
40
0.125000000000001
40
0.125000000000001
40
0.187500000000002
40
0.187500000000002
40
0.250000000000002
40
0.250000000000002
40
0.375000000000004
40
0.375000000000004
40
0.500000000000005
40
0.500000000000005
40
0.562500000000005
40
0.562500000000005
40
0.625000000000004
40
0.625000000000004
40
0.750000000000003
40
0.750000000000003
40
0.875000000000002
40
0.875000000000002
40
0.937500000000001
40
0.937500000000001
40
1
40
1
40
1
40
1
41
1
10
77.5150052123556
20
-9.57494448597046
30
0
41
1
10
77.3752312126519
20
-9.57479551208763
30
0
41
1
10
77.2422344391026
20
-9.55422257129229
30
0
41
1
10
77.0534000748148
20
-9.49123559927361
30
0
41
1
10
76.9922365578547
20
-9.4648718721788
30
0
41
1
10
76.8736160388975
20
-9.40097439986766
30
0
41
1
10
76.8159800770876
20
-9.36327325610989
30
0
41
1
10
76.6509685686159
20
-9.23430853378684
30
0
41
1
10
76.5510011913812
20
-9.12718188996905
30
0
41
1
10
76.3712108041654
20
-8.87049392956257
30
0
41
1
10
76.2913843020147
20
-8.72093996932691
30
0
41
1
10
76.1874512674367
20
-8.46331173425281
30
0
41
1
10
76.1554484355574
20
-8.37187123495687
30
0
41
1
10
76.0969400003525
20
-8.17741017073732
30
0
41
1
10
76.0703953037481
20
-8.07406859380328
30
0
41
1
10
76.0004693650637
20
-7.75133193718247
30
0
41
1
10
75.9662723932638
20
-7.51796584966201
30
0
41
1
10
75.9223539710057
20
-7.01535231133298
30
0
41
1
10
75.9126313173736
20
-6.74610662438977
30
0
41
1
10
75.9169475852845
20
-6.31453013759935
30
0
41
1
10
75.9215732828108
20
-6.16556053151365
30
0
41
1
10
75.9372032829763
20
-5.86055354031427
30
0
41
1
10
75.9481694817878
20
-5.70482873539564
30
0
41
1
10
75.9622362361037
20
-5.54593439113671
30
0
0
SPLINE
5
AB
100
AcDbEntity
8
1
62
256
6
ByLayer
370
18
48
1
60
0
100
AcDbSpline
70
4
71
3
72
71
73
67
40
0
40
0
40
0
40
0
40
0.0476169466591588
40
0.0476169466591588
40
0.115644307612068
40
0.115644307612068
40
0.183671668564978
40
0.183671668564978
40
0.319726390470797
40
0.319726390470797
40
0.387753751423707
40
0.387753751423707
40
0.455781112376617
40
0.455781112376617
40
0.591835834282435
40
0.591835834282435
40
0.659863195235345
40
0.659863195235345
40
0.6938768757118
40
0.6938768757118
40
0.702380295830914
40
0.702380295830914
40
0.704506150860692
40
0.704506150860692
40
0.70663200589047
40
0.70663200589047
40
0.710883715950027
40
0.710883715950027
40
0.713009570979806
40
0.713009570979806
40
0.714072498494695
40
0.714072498494695
40
0.715135426009584
40
0.715135426009584
40
0.719387136069142
40
0.727890556188259
40
0.727890556188259
40
0.761904236664726
40
0.761904236664726
40
0.77891107690296
40
0.77891107690296
40
0.795917917141194
40
0.795917917141194
40
0.812924757379428
40
0.812924757379428
40
0.821428177498545
40
0.821428177498545
40
0.829931597617662
40
0.829931597617662
40
0.846938437855896
40
0.846938437855896
40
0.855441857975012
40
0.855441857975012
40
0.863945278094129
40
0.863945278094129
40
0.897958958570597
40
0.897958958570597
40
0.914965798808831
40
0.914965798808831
40
0.931972639047064
40
0.931972639047064
40
0.965986319523532
40
0.965986319523532
40
0.982993159761766
40
0.982993159761766
40
1
40
1
40
1
40
1
41
1
10
22.7170448024658
20
-9.96706415548633
30
0
41
1
10
22.3300761444474
20
-9.96689302101652
30
0
41
1
10
21.9410497326153
20
-9.95949687118221
30
0
41
1
10
20.9904835108965
20
-9.92563019428837
30
0
41
1
10
20.425752674309
20
-9.89227915634987
30
0
41
1
10
19.291442813548
20
-9.80433761640825
30
0
41
1
10
18.7211032672798
20
-9.74974990421731
30
0
41
1
10
16.9975441727459
20
-9.56327521944925
30
0
41
1
10
15.8316517838727
20
-9.40858658905449
30
0
41
1
10
14.0471969324507
20
-9.17116151491396
30
0
41
1
10
13.4464733512688
20
-9.0911561243247
30
0
41
1
10
12.2318696682473
20
-8.93610039421404
30
0
41
1
10
11.6174788484263
20
-8.86100179610827
30
0
41
1
10
9.75610237035525
20
-8.652948586637
30
0
41
1
10
8.50494896367442
20
-8.53942971936308
30
0
41
1
10
6.61123753927578
20
-8.43304534418144
30
0
41
1
10
5.97717570271382
20
-8.40808709161595
30
0
41
1
10
5.02160290522639
20
-8.38850902408296
30
0
41
1
10
4.70236210729951
20
-8.38495881094727
30
0
41
1
10
4.30350385353469
20
-8.38438974931609
30
0
41
1
10
4.2237271742041
20
-8.3844689212776
30
0
41
1
10
4.12403523895034
20
-8.38481042559656
30
0
41
1
10
4.10409786804337
20
-8.38489085157266
30
0
41
1
10
4.06422516138278
20
-8.38507598214628
30
0
41
1
10
4.0442743771313
20
-8.38499635944379
30
0
41
1
10
3.9845579099634
20
-8.38637886036949
30
0
41
1
10
3.94448430600048
20
-8.38952954751727
30
0
41
1
10
3.88628439990518
20
-8.39897264225306
30
0
41
1
10
3.86747690775908
20
-8.40286964435123
30
0
41
1
10
3.84046679679403
20
-8.4102214613965
30
0
41
1
10
3.8316422403922
20
-8.4129342690218
30
0
41
1
10
3.81460994268042
20
-8.41896689460393
30
0
41
1
10
3.80665514597064
20
-8.42234459144566
30
0
41
1
10
3.76663273084537
20
-8.43904440202564
30
0
41
1
10
3.67120998938432
20
-8.47929087607073
30
0
41
1
10
3.5777464590993
20
-8.52003651618432
30
0
41
1
10
3.27089807175378
20
-8.65695918358881
30
0
41
1
10
3.0435998283923
20
-8.76854001286003
30
0
41
1
10
2.73925119148521
20
-8.93740094646961
30
0
41
1
10
2.64392112786422
20
-8.99394448276297
30
0
41
1
10
2.46791300210956
20
-9.10722885294416
30
0
41
1
10
2.38689643953543
20
-9.16431038884923
30
0
41
1
10
2.24700652141451
20
-9.27476745946009
30
0
41
1
10
2.18752358827319
20
-9.32847826569073
30
0
41
1
10
2.11553209551826
20
-9.40618405782689
30
0
41
1
10
2.09441147930286
20
-9.43160815044789
30
0
41
1
10
2.05824171258061
20
-9.48138708905091
30
0
41
1
10
2.04325613164508
20
-9.50569891831407
30
0
41
1
10
2.0083577125736
20
-9.57553224732126
30
0
41
1
10
1.99811666761656
20
-9.61843445772757
30
0
41
1
10
2.00138266875382
20
-9.67722735875094
30
0
41
1
10
2.00557877627125
20
-9.69589791983745
30
0
41
1
10
2.02006512984096
20
-9.73136721499969
30
0
41
1
10
2.03042324857927
20
-9.74822933905389
30
0
41
1
10
2.09612490981294
20
-9.82671048206197
30
0
41
1
10
2.19224987147382
20
-9.87160141328314
30
0
41
1
10
2.38359853860558
20
-9.91771613832623
30
0
41
1
10
2.45548965463632
20
-9.92947511214732
30
0
41
1
10
2.60970113107342
20
-9.94626318006203
30
0
41
1
10
2.69237473870288
20
-9.95139193146127
30
0
41
1
10
2.95410445490143
20
-9.95837563684381
30
0
41
1
10
3.14671917910428
20
-9.95190100719921
30
0
41
1
10
3.45525318649496
20
-9.92897644118082
30
0
41
1
10
3.56156676955518
20
-9.91908577008991
30
0
41
1
10
3.7778395852414
20
-9.89549907304934
30
0
41
1
10
3.88804449149399
20
-9.88178942688245
30
0
41
1
10
3.99999964093229
20
-9.86636621270574
30
0
0
SPLINE
5
AC
100
AcDbEntity
8
1
62
256
6
ByLayer
370
13
48
1
60
0
100
AcDbSpline
70
4
71
3
72
45
73
41
40
0
40
0
40
0
40
0
40
0.0625000000000001
40
0.0625000000000001
40
0.125
40
0.1875
40
0.1875
40
0.25
40
0.25
40
0.28125
40
0.28125
40
0.3125
40
0.3125
40
0.375000000000001
40
0.375000000000001
40
0.437500000000001
40
0.437500000000001
40
0.468750000000001
40
0.468750000000001
40
0.500000000000001
40
0.500000000000001
40
0.562500000000001
40
0.562500000000001
40
0.593750000000001
40
0.593750000000001
40
0.625000000000001
40
0.625000000000001
40
0.750000000000001
40
0.750000000000001
40
0.781250000000001
40
0.781250000000001
40
0.812500000000001
40
0.812500000000001
40
0.875000000000001
40
0.875000000000001
40
0.9375
40
0.9375
40
0.96875
40
0.96875
40
1
40
1
40
1
40
1
41
1
10
4.25020780854649
20
-3.27652575684712
30
0
41
1
10
4.25021067918001
20
-2.93602017938613
30
0
41
1
10
4.25021024125729
20
-2.58815017048613
30
0
41
1
10
4.25020449468235
20
-1.88931471831108
30
0
41
1
10
4.25019392094578
20
-1.18514529096123
30
0
41
1
10
4.2501771254295
20
-0.470486375888555
30
0
41
1
10
4.25015885448428
20
0.249530685497632
30
0
41
1
10
4.25014895527073
20
0.613115873261307
30
0
41
1
10
4.25013450690594
20
1.15240763614168
30
0
41
1
10
4.25012974662198
20
1.33155342320208
30
0
41
1
10
4.25012053334174
20
1.68860663281987
30
0
41
1
10
4.2501160715517
20
1.86688728193636
30
0
41
1
10
4.25010349553273
20
2.39707177789734
30
0
41
1
10
4.25009622795432
20
2.74296106214757
30
0
41
1
10
4.25008509810618
20
3.42011224765844
30
0
41
1
10
4.25008123326609
20
3.75137275041132
30
0
41
1
10
4.25007872411774
20
4.23724260024221
30
0
41
1
10
4.25007843452724
20
4.39735810433908
30
0
41
1
10
4.25007905937593
20
4.71384524953623
30
0
41
1
10
4.25007997787577
20
4.87056232672248
30
0
41
1
10
4.25008466429901
20
5.33226097504675
30
0
41
1
10
4.25009034725883
20
5.62800234426362
30
0
41
1
10
4.25010290000606
20
6.05360280301585
30
0
41
1
10
4.25010776767053
20
6.19276345621796
30
0
41
1
10
4.25011877906621
20
6.4631859960023
30
0
41
1
10
4.25012491834556
20
6.59445778260658
30
0
41
1
10
4.25015865814143
20
7.23147900929902
30
0
41
1
10
4.25019551103188
20
7.67995556205713
30
0
41
1
10
4.25025076590981
20
8.16235635764548
30
0
41
1
10
4.2502622196906
20
8.2544249939148
30
0
41
1
10
4.25028562626568
20
8.42863673621207
30
0
41
1
10
4.25029760234935
20
8.51098536557217
30
0
41
1
10
4.25033410829883
20
8.74398039332357
30
0
41
1
10
4.25035922147151
20
8.88061969780748
30
0
41
1
10
4.2504096073128
20
9.11660754767712
30
0
41
1
10
4.25043488354862
20
9.21596014417617
30
0
41
1
10
4.25047171156305
20
9.33599975301161
30
0
41
1
10
4.25048372854326
20
9.37090794298291
30
0
41
1
10
4.25050689956234
20
9.43030496130186
30
0
41
1
10
4.25051807765198
20
9.45487261451203
30
0
41
1
10
4.25052875165503
20
9.47440416413789
30
0
0
SPLINE
5
AD
100
AcDbEntity
8
1
62
256
6
ByLayer
370
18
48
1
60
0
100
AcDbSpline
70
4
71
3
72
36
73
32
40
0
40
0
40
0
40
0
40
0.0625000000000004
40
0.0625000000000004
40
0.0937500000000006
40
0.0937500000000006
40
0.125000000000001
40
0.125000000000001
40
0.187500000000001
40
0.187500000000001
40
0.218750000000002
40
0.218750000000002
40
0.250000000000002
40
0.250000000000002
40
0.375000000000003
40
0.375000000000003
40
0.406250000000002
40
0.406250000000002
40
0.437500000000001
40
0.437500000000001
40
0.500000000000002
40
0.500000000000002
40
0.625000000000001
40
0.625000000000001
40
0.687500000000001
40
0.687500000000001
40
0.750000000000002
40
0.750000000000002
40
0.875000000000001
40
0.875000000000001
40
1
40
1
40
1
40
1
41
1
10
67.1690885038737
20
5.48965363049749
30
0
41
1
10
67.1517054585181
20
5.23020097455517
30
0
41
1
10
67.1571761003227
20
4.96174583816301
30
0
41
1
10
67.2001922963827
20
4.54535075346655
30
0
41
1
10
67.2205020959318
20
4.40350536462779
30
0
41
1
10
67.2720607165965
20
4.11976303659617
30
0
41
1
10
67.3032353086836
20
3.97783377119879
30
0
41
1
10
67.4119236555737
20
3.55188266889118
30
0
41
1
10
67.5045521814751
20
3.26769806215293
30
0
41
1
10
67.6708060576861
20
2.84112704100917
30
0
41
1
10
67.7308634480584
20
2.6987250067578
30
0
41
1
10
67.85944872435
20
2.41450482841907
30
0
41
1
10
67.9273697097839
20
2.27399515404508
30
0
41
1
10
68.2833989160769
20
1.57869130901548
30
0
41
1
10
68.619980675533
20
1.04527815902787
30
0
41
1
10
69.0882997589161
20
0.39950385634998
30
0
41
1
10
69.1846183507327
20
0.271124716283453
30
0
41
1
10
69.3804714844823
20
0.0180998871036877
30
0
41
1
10
69.4799807764165
20
-0.106541874170461
30
0
41
1
10
69.7828412988294
20
-0.47534631928454
30
0
41
1
10
69.9905107850225
20
-0.714405173294438
30
0
41
1
10
70.6283053185726
20
-1.41410578774327
30
0
41
1
10
71.0728159899166
20
-1.8577449013527
30
0
41
1
10
71.7662787145821
20
-2.49165020556592
30
0
41
1
10
72.0017322919696
20
-2.69802692020704
30
0
41
1
10
72.4799637622718
20
-3.10148661899331
30
0
41
1
10
72.7211962040095
20
-3.29724655462166
30
0
41
1
10
73.4505491323616
20
-3.86857541996474
30
0
41
1
10
73.9442927418852
20
-4.22828501467896
30
0
41
1
10
74.9442604770539
20
-4.91250442467015
30
0
41
1
10
75.4504609345663
20
-5.23708099303971
30
0
41
1
10
75.9622362361036
20
-5.54593439113671
30
0
0
SPLINE
5
AE
100
AcDbEntity
8
1
62
256
6
ByLayer
370
18
48
1
60
0
100
AcDbSpline
70
4
71
3
72
8
73
4
40
0
40
0
40
0
40
0
40
1
40
1
40
1
40
1
41
1
10
77.6087498548474
20
-9.52238857662329
30
0
41
1
10
77.5712691182533
20
-9.5573608537785
30
0
41
1
10
77.5399840459532
20
-9.57498270825371
30
0
41
1
10
77.5150052123555
20
-9.57494448597043
30
0
0
SPLINE
5
AF
100
AcDbEntity
8
1
62
256
6
ByLayer
370
18
48
1
60
0
100
AcDbSpline
70
4
71
3
72
20
73
16
40
0
40
0
40
0
40
0
40
0.136767817649756
40
0.136767817649756
40
0.317163257368584
40
0.317163257368584
40
0.497558697087412
40
0.497558697087412
40
0.67795413680624
40
0.67795413680624
40
0.768151856665654
40
0.768151856665654
40
0.858349576525068
40
0.858349576525068
40
1
40
1
40
1
40
1
41
1
10
24.8539142851282
20
9.88891449910065
30
0
41
1
10
24.4816399721175
20
9.76254077889934
30
0
41
1
10
24.1118689870364
20
9.61623290509499
30
0
41
1
10
23.2577387511109
20
9.22622128516468
30
0
41
1
10
22.7744548598348
20
8.96623152284099
30
0
41
1
10
21.8021306703659
20
8.3725495586061
30
0
41
1
10
21.3282850955991
20
8.04871643056055
30
0
41
1
10
20.3903149240284
20
7.36987674521293
30
0
41
1
10
19.9259103885056
20
7.01484803201396
30
0
41
1
10
19.2250319080294
20
6.47428881409536
30
0
41
1
10
18.9907106731043
20
6.29274383689042
30
0
41
1
10
18.5189989230436
20
5.92924302497485
30
0
41
1
10
18.2838982384052
20
5.74906874449749
30
0
41
1
10
17.6813137130276
20
5.29376383329412
30
0
41
1
10
17.3141889367383
20
5.02268978171338
30
0
41
1
10
16.9456537717159
20
4.7615603467388
30
0
0
SPLINE
5
B0
100
AcDbEntity
8
1
62
256
6
ByLayer
370
13
48
1
60
0
100
AcDbSpline
70
4
71
3
72
8
73
4
40
0
40
0
40
0
40
0
40
1
40
1
40
1
40
1
41
1
10
4.12338161025761
20
-3.35701316931505
30
0
41
1
10
4.1470435602769
20
-3.3652190623603
30
0
41
1
10
4.17304730745914
20
-3.37709704380222
30
0
41
1
10
4.19955866035158
20
-3.39164748583778
30
0
0
SPLINE
5
B1
100
AcDbEntity
8
1
62
256
6
ByLayer
370
18
48
1
60
0
100
AcDbSpline
70
4
71
3
72
30
73
26
40
0
40
0
40
0
40
0
40
0.124999999999995
40
0.124999999999995
40
0.249999999999989
40
0.249999999999989
40
0.374999999999984
40
0.374999999999984
40
0.499999999999978
40
0.499999999999978
40
0.624999999999973
40
0.624999999999973
40
0.687499999999978
40
0.687499999999978
40
0.749999999999984
40
0.749999999999984
40
0.81249999999999
40
0.81249999999999
40
0.843749999999993
40
0.843749999999993
40
0.874999999999997
40
0.874999999999997
40
0.937499999999998
40
0.937499999999998
40
1
40
1
40
1
40
1
41
1
10
76.3687551540736
20
2.76142398443591
30
0
41
1
10
76.5372283973276
20
2.78962335243992
30
0
41
1
10
76.704806642466
20
2.82306229860291
30
0
41
1
10
77.0384499062303
20
2.89538181590277
30
0
41
1
10
77.2046862107467
20
2.93479895478796
30
0
41
1
10
77.5334985848683
20
3.02190477542814
30
0
41
1
10
77.6961729191735
20
3.06957958779455
30
0
41
1
10
78.0168041385789
20
3.17633871597741
30
0
41
1
10
78.1747911139497
20
3.23534531473558
30
0
41
1
10
78.4837638084854
20
3.37056531992667
30
0
41
1
10
78.6348545471506
20
3.44650536574824
30
0
41
1
10
78.8524516619316
20
3.58301834316328
30
0
41
1
10
78.9237609300307
20
3.63268160903732
30
0
41
1
10
79.0582757406685
20
3.74016891516772
30
0
41
1
10
79.1218694940921
20
3.798150563326
30
0
41
1
10
79.2389128298423
20
3.92594964361118
30
0
41
1
10
79.291174378317
20
3.99464228144495
30
0
41
1
10
79.3566717200171
20
4.10525026966934
30
0
41
1
10
79.3764059013101
20
4.14344958814459
30
0
41
1
10
79.4111412580256
20
4.22286078983382
30
0
41
1
10
79.4261626396393
20
4.26430315904759
30
0
41
1
10
79.4621541122039
20
4.38948361397226
30
0
41
1
10
79.4746852666637
20
4.47536908604013
30
0
41
1
10
79.477177417958
20
4.65086404358948
30
0
41
1
10
79.4672385917642
20
4.73709766071707
30
0
41
1
10
79.4486844714399
20
4.82214977768095
30
0
0
SPLINE
5
B2
100
AcDbEntity
8
1
62
256
6
ByLayer
370
18
48
1
60
0
100
AcDbSpline
70
4
71
3
72
26
73
22
40
0
40
0
40
0
40
0
40
0.0625000000000001
40
0.0625000000000001
40
0.125
40
0.125
40
0.1875
40
0.1875
40
0.250000000000001
40
0.250000000000001
40
0.375000000000001
40
0.375000000000001
40
0.500000000000001
40
0.500000000000001
40
0.750000000000001
40
0.750000000000001
40
0.8125
40
0.8125
40
0.874999999999999
40
0.874999999999999
40
1
40
1
40
1
40
1
41
1
10
4.25052875164815
20
9.4744041641388
30
0
41
1
10
4.44992576142565
20
9.4503134266931
30
0
41
1
10
4.65691127833074
20
9.41929070125826
30
0
41
1
10
5.08207485893251
20
9.34587713197661
30
0
41
1
10
5.30028399166119
20
9.30346651849277
30
0
41
1
10
5.74544249683757
20
9.20881851535924
30
0
41
1
10
5.97240617836644
20
9.15657179049205
30
0
41
1
10
6.43340751408135
20
9.04331675640771
30
0
41
1
10
6.66771015297422
20
8.98224486333669
30
0
41
1
10
7.37782521815078
20
8.78732267875134
30
0
41
1
10
7.8574615752942
20
8.64254590705343
30
0
41
1
10
8.82492418573008
20
8.32916455805699
30
0
41
1
10
9.31303847319182
20
8.1591147324871
30
0
41
1
10
10.7881121055111
20
7.6125616459656
30
0
41
1
10
11.7851716052757
20
7.20039352853524
30
0
41
1
10
13.0500788139441
20
6.64367090490782
30
0
41
1
10
13.3043108897368
20
6.52989712256289
30
0
41
1
10
13.8130624185398
20
6.29850643118877
30
0
41
1
10
14.0677533467694
20
6.18092148737213
30
0
41
1
10
14.8332020941178
20
5.82367125460234
30
0
41
1
10
15.3453285998212
20
5.57952115079715
30
0
41
1
10
15.8605455027714
20
5.33240165873656
30
0
0
SPLINE
5
B3
100
AcDbEntity
8
1
62
256
6
ByLayer
370
18
48
1
60
0
100
AcDbSpline
70
4
71
3
72
20
73
16
40
0
40
0
40
0
40
0
40
0.211836294637017
40
0.211836294637017
40
0.317754441955524
40
0.317754441955524
40
0.423672589274032
40
0.423672589274032
40
0.635508883911047
40
0.635508883911047
40
0.741427031229555
40
0.741427031229555
40
0.847345178548061
40
0.847345178548061
40
1
40
1
40
1
40
1
41
1
10
24.8538889477456
20
9.888916527096
30
0
41
1
10
23.766950359175
20
9.97177728044281
30
0
41
1
10
22.6679853130216
20
9.98539605827858
30
0
41
1
10
20.9904835109155
20
9.92563019428928
30
0
41
1
10
20.4257526743308
20
9.89227915635126
30
0
41
1
10
19.2914428135755
20
9.80433761641066
30
0
41
1
10
18.7211032673101
20
9.74974990422029
30
0
41
1
10
16.997544172785
20
9.56327521945403
30
0
41
1
10
15.8316517839179
20
9.40858658906049
30
0
41
1
10
14.0471969325055
20
9.17116151492127
30
0
41
1
10
13.4464733513269
20
9.09115612433231
30
0
41
1
10
12.2318696683122
20
8.93610039422208
30
0
41
1
10
11.617478848495
20
8.8610017961164
30
0
41
1
10
10.1027820311356
20
8.69169830596144
30
0
41
1
10
9.20322858810812
20
8.6048236187778
30
0
41
1
10
8.29795361593713
20
8.53754288918631
30
0
0
SPLINE
5
B4
100
AcDbEntity
8
1
62
256
6
ByLayer
370
18
48
1
60
0
100
AcDbSpline
70
4
71
3
72
12
73
8
40
0
40
0
40
0
40
0
40
0.44917781292327
40
0.44917781292327
40
0.724588906461635
40
0.724588906461635
40
1
40
1
40
1
40
1
41
1
10
2.87803320385834
20
9.95517481603329
30
0
41
1
10
3.02563687146301
20
9.95568613788529
30
0
41
1
10
3.18467546434789
20
9.94908079501479
30
0
41
1
10
3.45525318648418
20
9.92897644118179
30
0
41
1
10
3.5615667695462
20
9.91908577009085
30
0
41
1
10
3.7778395852375
20
9.89549907304982
30
0
41
1
10
3.88804449149254
20
9.88178942688268
30
0
41
1
10
3.99999964093317
20
9.86636621270563
30
0
0
SPLINE
5
B5
100
AcDbEntity
8
1
62
256
6
ByLayer
370
18
48
1
60
0
100
AcDbSpline
70
4
71
3
72
42
73
38
40
0
40
0
40
0
40
0
40
0.25000000000001
40
0.25000000000001
40
0.312500000000012
40
0.312500000000012
40
0.375000000000014
40
0.375000000000014
40
0.500000000000018
40
0.500000000000018
40
0.56250000000002
40
0.56250000000002
40
0.625000000000022
40
0.625000000000022
40
0.750000000000026
40
0.750000000000026
40
0.765625000000026
40
0.765625000000026
40
0.781250000000026
40
0.781250000000026
40
0.812500000000021
40
0.812500000000021
40
0.843750000000016
40
0.843750000000016
40
0.875000000000011
40
0.875000000000011
40
0.906250000000007
40
0.906250000000007
40
0.921875000000006
40
0.921875000000006
40
0.937500000000005
40
0.937500000000005
40
0.953125000000004
40
0.953125000000004
40
0.968750000000003
40
0.968750000000003
40
1
40
1
40
1
40
1
41
1
10
67.1690885038733
20
5.48965363049697
30
0
41
1
10
67.9371226321436
20
4.7942439589097
30
0
41
1
10
68.7331019145689
20
4.16067812781458
30
0
41
1
10
69.7667421943492
20
3.45429076831684
30
0
41
1
10
69.9754162162133
20
3.31731980353294
30
0
41
1
10
70.3968505903211
20
3.05242110066564
30
0
41
1
10
70.6100419196744
20
2.92425113623489
30
0
41
1
10
71.2531138914844
20
2.55596257854069
30
0
41
1
10
71.6839285112947
20
2.33335644718213
30
0
41
1
10
72.3336283945332
20
2.03740642995154
30
0
41
1
10
72.5507763158728
20
1.94510079536846
30
0
41
1
10
72.9863139857891
20
1.77404311255051
30
0
41
1
10
73.2050453668861
20
1.69517347475014
30
0
41
1
10
73.8609124717964
20
1.48150504284777
30
0
41
1
10
74.2955075580878
20
1.37008486464413
30
0
41
1
10
74.7792740270567
20
1.28615381172318
30
0
41
1
10
74.8329373636883
20
1.27735253652753
30
0
41
1
10
74.9399816135621
20
1.26118986284533
30
0
41
1
10
74.9931072084563
20
1.25514417059441
30
0
41
1
10
75.1515136756597
20
1.24025309190776
30
0
41
1
10
75.2554230569853
20
1.23602135525454
30
0
41
1
10
75.4585253597111
20
1.2434070902523
30
0
41
1
10
75.5572041461975
20
1.25521839757028
30
0
41
1
10
75.7416615353087
20
1.3017181174516
30
0
41
1
10
75.8283766525494
20
1.33562878869003
30
0
41
1
10
75.9875131130777
20
1.43108794562878
30
0
41
1
10
76.0568115603553
20
1.49118156143996
30
0
41
1
10
76.1402294900994
20
1.60443596769096
30
0
41
1
10
76.1644780914486
20
1.64612725909137
30
0
41
1
10
76.2038041646665
20
1.73470952356251
30
0
41
1
10
76.2191329734638
20
1.78196190758652
30
0
41
1
10
76.2410878190189
20
1.88241262503664
30
0
41
1
10
76.2477038576411
20
1.93606828565302
30
0
41
1
10
76.2529991905224
20
2.04529350081671
30
0
41
1
10
76.2518487891246
20
2.10107909363012
30
0
41
1
10
76.2389345454755
20
2.27135841216159
30
0
41
1
10
76.217325080925
20
2.38967131411943
30
0
41
1
10
76.1866770411537
20
2.50804202757595
30
0
0
SPLINE
5
B6
100
AcDbEntity
8
1
62
256
6
ByLayer
370
18
48
1
60
0
100
AcDbSpline
70
4
71
3
72
18
73
14
40
0
40
0
40
0
40
0
40
0.249999999999997
40
0.249999999999997
40
0.374999999999999
40
0.374999999999999
40
0.5
40
0.5
40
0.625000000000002
40
0.625000000000002
40
0.750000000000003
40
0.750000000000003
40
1
40
1
40
1
40
1
41
1
10
79.44868447144
20
-4.82214977768123
30
0
41
1
10
79.2926746130147
20
-5.24149645829829
30
0
41
1
10
79.1365304034191
20
-5.66042328461995
30
0
41
1
10
78.9020434502177
20
-6.28743978305482
30
0
41
1
10
78.8238430615367
20
-6.49609005485436
30
0
41
1
10
78.6674213210185
20
-6.91319499803006
30
0
41
1
10
78.5892011188358
20
-7.12166039646124
30
0
41
1
10
78.4327235787131
20
-7.53824469159744
30
0
41
1
10
78.3544678332064
20
-7.74637844678344
30
0
41
1
10
78.1978843709109
20
-8.16197441642777
30
0
41
1
10
78.1195935986674
20
-8.36915902083589
30
0
41
1
10
77.8847226676078
20
-8.99022885559253
30
0
41
1
10
77.7281428055494
20
-9.40389830340331
30
0
41
1
10
77.5715720661678
20
-9.81303305145184
30
0
0
SPLINE
5
B7
100
AcDbEntity
8
1
62
256
6
ByLayer
370
18
48
1
60
0
100
AcDbSpline
70
4
71
3
72
18
73
14
40
0
40
0
40
0
40
0
40
0.249999999999998
40
0.249999999999998
40
0.374999999999997
40
0.374999999999997
40
0.499999999999996
40
0.499999999999996
40
0.624999999999995
40
0.624999999999995
40
0.749999999999995
40
0.749999999999995
40
1
40
1
40
1
40
1
41
1
10
79.4486844714401
20
4.82214977768095
30
0
41
1
10
79.2926746130148
20
5.24149645829806
30
0
41
1
10
79.1365304034192
20
5.66042328461975
30
0
41
1
10
78.9020434502178
20
6.28743978305462
30
0
41
1
10
78.8238430615368
20
6.49609005485419
30
0
41
1
10
78.6674213210185
20
6.91319499802989
30
0
41
1
10
78.5892011188359
20
7.1216603964611
30
0
41
1
10
78.4327235787131
20
7.53824469159733
30
0
41
1
10
78.3544678332064
20
7.74637844678333
30
0
41
1
10
78.1978843709109
20
8.16197441642765
30
0
41
1
10
78.1195935986673
20
8.36915902083581
30
0
41
1
10
77.8847226676078
20
8.99022885559248
30
0
41
1
10
77.7281428055495
20
9.40389830340325
30
0
41
1
10
77.5715720661679
20
9.81303305145187
30
0
0
SPLINE
5
B8
100
AcDbEntity
8
1
62
256
6
ByLayer
370
13
48
1
60
0
100
AcDbSpline
70
4
71
3
72
10
73
6
40
0
40
0
40
0
40
0
40
0.5
40
0.5
40
1
40
1
40
1
40
1
41
1
10
4.25020780854649
20
-3.27652575684709
30
0
41
1
10
4.22796423978852
20
-3.269249733381
30
0
41
1
10
4.20622614198047
20
-3.26315332709811
30
0
41
1
10
4.16374047422576
20
-3.25320967415431
30
0
41
1
10
4.14284762387959
20
-3.24936104544818
30
0
41
1
10
4.12338161025764
20
-3.24690419440208
30
0
0
SPLINE
5
B9
100
AcDbEntity
8
1
62
256
6
ByLayer
370
13
48
1
60
0
100
AcDbSpline
70
4
71
3
72
10
73
6
40
0
40
0
40
0
40
0
40
0.0832222270329692
40
0.0832222270329692
40
1
40
1
40
1
40
1
41
1
10
4.12042094263552
20
-3.46129456677781
30
0
41
1
10
4.12050206468305
20
-3.45840258748339
30
0
41
1
10
4.12058327042931
20
-3.45551053758444
30
0
41
1
10
4.12156004693017
20
-3.4207587543512
30
0
41
1
10
4.12246570075578
20
-3.38889048525709
30
0
41
1
10
4.12338161025764
20
-3.35701316931508
30
0
0
SPLINE
5
BA
100
AcDbEntity
8
1
62
256
6
ByLayer
370
18
48
1
60
0
100
AcDbSpline
70
4
71
3
72
14
73
10
40
0
40
0
40
0
40
0
40
0.25
40
0.25
40
0.5
40
0.5
40
0.75
40
0.75
40
1
40
1
40
1
40
1
41
1
10
4.12042094263563
20
-3.4612945667734
30
0
41
1
10
4.10196107016034
20
-3.45080044628827
30
0
41
1
10
4.08532683104511
20
-3.43832313502105
30
0
41
1
10
4.05559693269163
20
-3.4095070802515
30
0
41
1
10
4.04259906227864
20
-3.39312464334867
30
0
41
1
10
4.02171840234547
20
-3.35823184857847
30
0
41
1
10
4.01354446006096
20
-3.3392145715041
30
0
41
1
10
4.00274796666827
20
-3.3003181302532
30
0
41
1
10
3.99999964093288
20
-3.28040594543427
30
0
41
1
10
3.99999964093288
20
-3.2600103083573
30
0
0
SPLINE
5
BB
100
AcDbEntity
8
1
62
256
6
ByLayer
370
18
48
1
60
0
100
AcDbSpline
70
4
71
3
72
14
73
10
40
0
40
0
40
0
40
0
40
0.305074757972842
40
0.305074757972842
40
0.652537378986421
40
0.652537378986421
40
0.826268689493211
40
0.826268689493211
40
1
40
1
40
1
40
1
41
1
10
8.17341366201197
20
-8.53977577398615
30
0
41
1
10
7.74921517239275
20
-8.67500760136647
30
0
41
1
10
7.32793872165391
20
-8.80091057903661
30
0
41
1
10
6.43597854635152
20
-9.04597231288113
30
0
41
1
10
5.97237703864224
20
-9.16048975811145
30
0
41
1
10
5.30300763947534
20
-9.30292637016456
30
0
41
1
10
5.08425023581174
20
-9.3454770937274
30
0
41
1
10
4.65799202718347
20
-9.41912831408044
30
0
41
1
10
4.45045973280648
20
-9.45024891336669
30
0
41
1
10
4.25052875165477
20
-9.47440416413798
30
0
0
SPLINE
5
BC
100
AcDbEntity
8
1
62
256
6
ByLayer
370
13
48
1
60
0
100
AcDbSpline
70
4
71
3
72
14
73
10
40
0
40
0
40
0
40
0
40
0.25
40
0.25
40
0.5
40
0.5
40
0.75
40
0.75
40
1
40
1
40
1
40
1
41
1
10
3.99999964093286
20
-3.19921097521231
30
0
41
1
10
3.99999964093288
20
-3.20392712476038
30
0
41
1
10
4.00263369798901
20
-3.20871384061175
30
0
41
1
10
4.01320666974115
20
-3.21789422074303
30
0
41
1
10
4.02098608004812
20
-3.22223832793861
30
0
41
1
10
4.04158393510551
20
-3.23044088822769
30
0
41
1
10
4.05466437556603
20
-3.23435731051404
30
0
41
1
10
4.08555021939472
20
-3.24131426964334
30
0
41
1
10
4.10318466682648
20
-3.24435509099746
30
0
41
1
10
4.12338161025761
20
-3.24690419440208
30
0
0
SPLINE
5
BD
100
AcDbEntity
8
1
62
256
6
ByLayer
370
18
48
1
60
0
100
AcDbSpline
70
4
71
3
72
18
73
14
40
0
40
0
40
0
40
0
40
0.0511509068316184
40
0.0511509068316184
40
0.264279630313939
40
0.264279630313939
40
0.690537077278579
40
0.690537077278579
40
0.797101439019741
40
0.797101439019741
40
0.903665800760902
40
0.903665800760902
40
1
40
1
40
1
40
1
41
1
10
75.8617776015689
20
-9.57424152535538
30
0
41
1
10
75.6784060462894
20
-9.57397904166294
30
0
41
1
10
75.4951719024457
20
-9.57192034077025
30
0
41
1
10
74.5490451928979
20
-9.55205623896913
30
0
41
1
10
73.788001886231
20
-9.50503900760341
30
0
41
1
10
71.505415709197
20
-9.2731800235002
30
0
41
1
10
69.9841620945148
20
-8.99755911514262
30
0
41
1
10
68.0649189783607
20
-8.50719359518982
30
0
41
1
10
67.6796221411475
20
-8.40166157069754
30
0
41
1
10
66.912055014945
20
-8.17790807146235
30
0
41
1
10
66.5292657973836
20
-8.05958312408862
30
0
41
1
10
65.801911910866
20
-7.82251262944501
30
0
41
1
10
65.4572072563444
20
-7.70489301210776
30
0
41
1
10
65.1129667473662
20
-7.58244020255367
30
0
0
SPLINE
5
BE
100
AcDbEntity
8
1
62
256
6
ByLayer
370
13
48
1
60
0
100
AcDbSpline
70
4
71
3
72
22
73
18
40
0
40
0
40
0
40
0
40
0.0636172568144516
40
0.0636172568144516
40
0.295797058459579
40
0.295797058459579
40
0.411886959282143
40
0.411886959282143
40
0.469931909693425
40
0.469931909693425
40
0.527976860104707
40
0.527976860104707
40
0.760156661749834
40
0.760156661749834
40
0.992336463394962
40
0.992336463394962
40
1
40
1
40
1
40
1
41
1
10
65.1129667473935
20
-7.58244020256348
30
0
41
1
10
64.6956133382219
20
-7.43397976226953
30
0
41
1
10
64.2789421705998
20
-7.27841507505249
30
0
41
1
10
62.343324050237
20
-6.52395082852527
30
0
41
1
10
60.8289948217113
20
-5.84273771184647
30
0
41
1
10
58.5433400912903
20
-4.71506181302112
30
0
41
1
10
57.7789799738728
20
-4.3216629281325
30
0
41
1
10
56.625994202327
20
-3.70896393140856
30
0
41
1
10
56.240912568391
20
-3.50107466158644
30
0
41
1
10
55.4741427798325
20
-3.08176770243108
30
0
41
1
10
55.0917174974299
20
-2.86996464644255
30
0
41
1
10
53.1832394511293
20
-1.80221102516867
30
0
41
1
10
51.667821693437
20
-0.920586224201458
30
0
41
1
10
48.6307700133399
20
0.846912988868382
30
0
41
1
10
47.1091752193573
20
1.73283819984212
30
0
41
1
10
45.5186612036012
20
2.62312344363585
30
0
41
1
10
45.467848459656
20
2.65152831920867
30
0
41
1
10
45.4170429752882
20
2.67989054450842
30
0
0
SPLINE
5
BF
100
AcDbEntity
8
1
62
256
6
ByLayer
370
18
48
1
60
0
100
AcDbSpline
70
4
71
3
72
8
73
4
40
0
40
0
40
0
40
0
40
1
40
1
40
1
40
1
41
1
10
3.99999964093286
20
-9.71844554976289
30
0
41
1
10
3.99999964093286
20
-9.76668044626337
30
0
41
1
10
3.99999964093288
20
-9.81598860400047
30
0
41
1
10
3.99999964093288
20
-9.86636621270563
30
0
0
SPLINE
5
C0
100
AcDbEntity
8
1
62
256
6
ByLayer
370
18
48
1
60
0
100
AcDbSpline
70
4
71
3
72
16
73
12
40
0
40
0
40
0
40
0
40
0.250000000000023
40
0.250000000000023
40
0.375000000000019
40
0.375000000000019
40
0.500000000000016
40
0.500000000000016
40
0.750000000000008
40
0.750000000000008
40
1
40
1
40
1
40
1
41
1
10
76.1866770411533
20
2.50804202757576
30
0
41
1
10
76.1795165324091
20
2.53569777766916
30
0
41
1
10
76.1765787109021
20
2.56457127946183
30
0
41
1
10
76.1818417254382
20
2.60762141994815
30
0
41
1
10
76.1851771950101
20
2.62172191430668
30
0
41
1
10
76.195610870578
20
2.64931786074902
30
0
41
1
10
76.2027975666955
20
2.66277388628811
30
0
41
1
10
76.2290629061711
20
2.69923965381315
30
0
41
1
10
76.2536044804308
20
2.71922232743819
30
0
41
1
10
76.3088727137547
20
2.74774720318979
30
0
41
1
10
76.3382881393037
20
2.75632435825838
30
0
41
1
10
76.3687551540748
20
2.76142398443616
30
0
0
SPLINE
5
C1
100
AcDbEntity
8
1
62
256
6
ByLayer
370
18
48
1
60
0
100
AcDbSpline
70
4
71
3
72
14
73
10
40
0
40
0
40
0
40
0
40
0.384688939615489
40
0.384688939615489
40
0.577033409423232
40
0.577033409423232
40
0.769377879230975
40
0.769377879230975
40
1
40
1
40
1
40
1
41
1
10
4.19955866035156
20
-3.39164748583778
30
0
41
1
10
4.97028459082136
20
-3.8146512843272
30
0
41
1
10
5.73980680572836
20
-4.22586348086077
30
0
41
1
10
6.89507590794105
20
-4.82075207686816
30
0
41
1
10
7.2807628519474
20
-5.01558231320195
30
0
41
1
10
8.04957793118544
20
-5.39525546363021
30
0
41
1
10
8.43300144070272
20
-5.58025604268934
30
0
41
1
10
9.27437669461798
20
-5.97598998231811
30
0
41
1
10
9.73196917717712
20
-6.18454661441436
30
0
41
1
10
10.1888207058281
20
-6.38541121237949
30
0
0
SPLINE
5
C2
100
AcDbEntity
8
1
62
256
6
ByLayer
370
13
48
1
60
0
100
AcDbSpline
70
4
71
3
72
18
73
14
40
0
40
0
40
0
40
0
40
0.199971169646374
40
0.199971169646374
40
0.485542923690367
40
0.485542923690367
40
0.556935862201366
40
0.556935862201366
40
0.628328800712364
40
0.628328800712364
40
0.771114677734362
40
0.771114677734362
40
1
40
1
40
1
40
1
41
1
10
10.1888213829026
20
-6.38541151006987
30
0
41
1
10
11.2560708668559
20
-6.85465067708827
30
0
41
1
10
12.3192767077423
20
-7.28191172655391
30
0
41
1
10
14.9041654764813
20
-8.20269612027747
30
0
41
1
10
16.4263650379757
20
-8.64712166856862
30
0
41
1
10
18.3511640204974
20
-9.0595295083418
30
0
41
1
10
18.7363589305065
20
-9.13463932432259
30
0
41
1
10
19.5039237388505
20
-9.26924976835952
30
0
41
1
10
19.8868618763568
20
-9.32887499732442
30
0
41
1
10
21.0338099985716
20
-9.48465323358303
30
0
41
1
10
21.7960600863322
20
-9.55775486331274
30
0
41
1
10
23.7787728613211
20
-9.66725447029708
30
0
41
1
10
24.9982656089682
20
-9.65496882998926
30
0
41
1
10
26.2242075647584
20
-9.56237729517471
30
0
0
SPLINE
5
C3
100
AcDbEntity
8
1
62
256
6
ByLayer
370
18
48
1
60
0
100
AcDbSpline
70
4
71
3
72
30
73
26
40
0
40
0
40
0
40
0
40
0.0184859537077889
40
0.0184859537077889
40
0.127543069962479
40
0.127543069962479
40
0.236600186217169
40
0.236600186217169
40
0.345657302471859
40
0.345657302471859
40
0.454714418726549
40
0.454714418726549
40
0.563771534981239
40
0.563771534981239
40
0.618300093108584
40
0.618300093108584
40
0.672828651235928
40
0.672828651235928
40
0.781885767490619
40
0.781885767490619
40
0.836414325617962
40
0.836414325617962
40
0.890942883745308
40
0.890942883745308
40
1
40
1
40
1
40
1
41
1
10
62.4684848999987
20
7.47451880990954
30
0
41
1
10
62.5614839174627
20
7.51220411883506
30
0
41
1
10
62.6545232694035
20
7.54951022441378
30
0
41
1
10
63.2968975364953
20
7.80409531444013
30
0
41
1
10
63.8476226219946
20
8.00853214170553
30
0
41
1
10
64.9457048012634
20
8.390378665192
30
0
41
1
10
65.493024630252
20
8.568515549973
30
0
41
1
10
66.5906618431428
20
8.89360306882492
30
0
41
1
10
67.1406207781042
20
9.0413101440119
30
0
41
1
10
68.2399695986572
20
9.30717263897674
30
0
41
1
10
68.7876726801717
20
9.42506495850836
30
0
41
1
10
69.885326662371
20
9.62748650554167
30
0
41
1
10
70.434438165531
20
9.71262667796091
30
0
41
1
10
71.2576893503276
20
9.8163793488101
30
0
41
1
10
71.531876985623
20
9.84699071394016
30
0
41
1
10
72.0812443196026
20
9.89976954471334
30
0
41
1
10
72.356031436401
20
9.92190526402084
30
0
41
1
10
73.1800766636769
20
9.97582452942839
30
0
41
1
10
73.7291784132338
20
9.99515692699018
30
0
41
1
10
74.551550369691
20
9.9991019923649
30
0
41
1
10
74.8254308924159
20
9.99620412748047
30
0
41
1
10
75.3742722609315
20
9.98204269926745
30
0
41
1
10
75.6490612302041
20
9.97079150875911
30
0
41
1
10
76.4741943082248
20
9.92453366146222
30
0
41
1
10
77.0235719992376
20
9.8771660778493
30
0
41
1
10
77.5715720661553
20
9.81303305145332
30
0
0
SPLINE
5
C4
100
AcDbEntity
8
1
62
256
6
ByLayer
370
18
48
1
60
0
100
AcDbSpline
70
4
71
3
72
18
73
14
40
0
40
0
40
0
40
0
40
0.0137572415071723
40
0.0137572415071723
40
0.349299587234188
40
0.349299587234188
40
0.433185173665943
40
0.433185173665943
40
0.517070760097697
40
0.517070760097697
40
0.684841932961204
40
0.684841932961204
40
1
40
1
40
1
40
1
41
1
10
49.9299611842745
20
-0.0242480327346186
30
0
41
1
10
49.9922489367031
20
-0.0608750130172666
30
0
41
1
10
50.0545305332509
20
-0.0974979707004309
30
0
41
1
10
51.6357453986352
20
-1.02721496522776
30
0
41
1
10
53.1515434679488
20
-1.91699819568356
30
0
41
1
10
55.06086835235
20
-2.99309837625557
30
0
41
1
10
55.4434787832256
20
-3.20648337843122
30
0
41
1
10
56.2106564721652
20
-3.6287767542581
30
0
41
1
10
56.5959877528332
20
-3.83808533930991
30
0
41
1
10
57.7493919512642
20
-4.45454562633589
30
0
41
1
10
58.5139695993787
20
-4.84996894927085
30
0
41
1
10
60.7076745914042
20
-5.93643821051964
30
0
41
1
10
62.1308454083009
20
-6.58161614838943
30
0
41
1
10
63.557809869388
20
-7.14761970742441
30
0
0
SPLINE
5
C5
100
AcDbEntity
8
1
62
256
6
ByLayer
370
13
48
1
60
0
100
AcDbSpline
70
4
71
3
72
24
73
20
40
0
40
0
40
0
40
0
40
0.0198481539456402
40
0.0198481539456402
40
0.183206794954699
40
0.183206794954699
40
0.264886115459228
40
0.264886115459228
40
0.346565435963758
40
0.346565435963758
40
0.673282717981878
40
0.673282717981878
40
0.836641358990939
40
0.836641358990939
40
0.91832067949547
40
0.91832067949547
40
0.959160339747735
40
0.959160339747735
40
1
40
1
40
1
40
1
41
1
10
63.5578098692068
20
-7.14761970735259
30
0
41
1
10
63.6501052736852
20
-7.18422855700692
30
0
41
1
10
63.7424165486574
20
-7.22050618517198
30
0
41
1
10
64.5946654082406
20
-7.55226833422122
30
0
41
1
10
65.355874086036
20
-7.8253442890485
30
0
41
1
10
66.5024383841793
20
-8.1971320462718
30
0
41
1
10
66.8854164627984
20
-8.31476370638902
30
0
41
1
10
67.6534145914677
20
-8.53689689162135
30
0
41
1
10
68.0389094628114
20
-8.64148678276212
30
0
41
1
10
69.9588177935437
20
-9.12650055206811
30
0
41
1
10
71.4803228759576
20
-9.3959926620885
30
0
41
1
10
73.7634009064038
20
-9.61638626627922
30
0
41
1
10
74.5246123585528
20
-9.65920866822145
30
0
41
1
10
75.6693968717396
20
-9.6764058701678
30
0
41
1
10
76.0514855074398
20
-9.6742966376039
30
0
41
1
10
76.6256998782414
20
-9.65922864718067
30
0
41
1
10
76.8172848721096
20
-9.65222168842101
30
0
41
1
10
77.2008717760049
20
-9.63421228896959
30
0
41
1
10
77.3929197846574
20
-9.62283929086618
30
0
41
1
10
77.5851029477645
20
-9.61026961911494
30
0
0
SPLINE
5
C6
100
AcDbEntity
8
1
62
256
6
ByLayer
370
18
48
1
60
0
100
AcDbSpline
70
4
71
3
72
28
73
24
40
0
40
0
40
0
40
0
40
0.0476186700077572
40
0.0476186700077572
40
0.100528743896216
40
0.100528743896216
40
0.153438817784675
40
0.153438817784675
40
0.259258965561591
40
0.259258965561591
40
0.365079113338506
40
0.365079113338506
40
0.470899261115422
40
0.470899261115422
40
0.576719408892337
40
0.576719408892337
40
0.682539556669253
40
0.682539556669253
40
0.788359704446169
40
0.788359704446169
40
0.894179852223084
40
0.894179852223084
40
1
40
1
40
1
40
1
41
1
10
52.0241486151317
20
9.54934587187367
30
0
41
1
10
52.2646737119773
20
9.54430816427475
30
0
41
1
10
52.5052333220761
20
9.53636820722915
30
0
41
1
10
53.0131794032682
20
9.51371880042421
30
0
41
1
10
53.2806053647844
20
9.49836104885006
30
0
41
1
10
53.8151536685803
20
9.45881752471661
30
0
41
1
10
54.0823446762724
20
9.43480962895501
30
0
41
1
10
54.8836798770717
20
9.35107586667067
30
0
41
1
10
55.4175848134417
20
9.2797682940803
30
0
41
1
10
56.4853431070958
20
9.10900394933483
30
0
41
1
10
57.0203699350015
20
9.01007553835203
30
0
41
1
10
58.0898883834134
20
8.78617276866532
30
0
41
1
10
58.6237264105365
20
8.65865572252841
30
0
41
1
10
59.6906855463556
20
8.37534810405737
30
0
41
1
10
60.2246004869355
20
8.22050402182433
30
0
41
1
10
61.2937424486704
20
7.88523361617862
30
0
41
1
10
61.8287275896904
20
7.70571002620636
30
0
41
1
10
62.8961614491815
20
7.32213264964267
30
0
41
1
10
63.4299328147244
20
7.11780813568271
30
0
41
1
10
64.4979103164893
20
6.68713717516587
30
0
41
1
10
65.032182266993
20
6.46041252876267
30
0
41
1
10
66.1009633925613
20
5.9877215493571
30
0
41
1
10
66.6352188383307
20
5.74358194542066
30
0
41
1
10
67.1690885038737
20
5.48965363049749
30
0
0
SPLINE
5
C7
100
AcDbEntity
8
1
62
256
6
ByLayer
370
18
48
1
60
0
100
AcDbSpline
70
4
71
3
72
88
73
84
40
0
40
0
40
0
40
0
40
0.0332585024358419
40
0.0332585024358419
40
0.0498877536537629
40
0.0498877536537629
40
0.0665170048716839
40
0.0665170048716839
40
0.0997755073075258
40
0.0997755073075258
40
0.116404758525447
40
0.116404758525447
40
0.133034009743368
40
0.133034009743368
40
0.166292512179211
40
0.166292512179211
40
0.182921763397133
40
0.182921763397133
40
0.199551014615055
40
0.199551014615055
40
0.232809517050898
40
0.232809517050898
40
0.266068019486741
40
0.266068019486741
40
0.299326521922584
40
0.299326521922584
40
0.332585024358427
40
0.332585024358427
40
0.36584352679427
40
0.36584352679427
40
0.382472778012192
40
0.382472778012192
40
0.399102029230114
40
0.399102029230114
40
0.432360531665957
40
0.432360531665957
40
0.448989782883879
40
0.448989782883879
40
0.465619034101801
40
0.465619034101801
40
0.498877536537645
40
0.498877536537645
40
0.515506787755568
40
0.515506787755568
40
0.53213603897349
40
0.53213603897349
40
0.565394541409334
40
0.565394541409334
40
0.598653043845177
40
0.598653043845177
40
0.615282295063099
40
0.615282295063099
40
0.631911546281021
40
0.631911546281021
40
0.665170048716865
40
0.665170048716865
40
0.681799299934787
40
0.681799299934787
40
0.698428551152709
40
0.698428551152709
40
0.731687053588553
40
0.731687053588553
40
0.748316304806475
40
0.748316304806475
40
0.764945556024396
40
0.764945556024396
40
0.79820405846024
40
0.79820405846024
40
0.831462560896084
40
0.831462560896084
40
0.864721063331928
40
0.864721063331928
40
0.897979565767772
40
0.897979565767772
40
0.931238068203615
40
0.931238068203615
40
0.947867319421537
40
0.947867319421537
40
0.964496570639459
40
0.964496570639459
40
0.997755073075302
40
0.997755073075302
40
1
40
1
40
1
40
1
41
1
10
24.853924611844
20
9.88891800464336
30
0
41
1
10
25.4033100796018
20
9.84700744529653
30
0
41
1
10
25.9530507113155
20
9.78875644146902
30
0
41
1
10
26.7771208846293
20
9.67714185947634
30
0
41
1
10
27.0517269643704
20
9.6358839065166
30
0
41
1
10
27.6006364896138
20
9.54515546344632
30
0
41
1
10
27.8747915728291
20
9.49560219090051
30
0
41
1
10
28.6979224629456
20
9.33503369282039
30
0
41
1
10
29.2490017173122
20
9.21250916144132
30
0
41
1
10
30.0737575055544
20
9.00599256743035
30
0
41
1
10
30.3484475112809
20
8.93335880960399
30
0
41
1
10
30.8972107821253
20
8.78033945009625
30
0
41
1
10
31.171151629993
20
8.69983181825509
30
0
41
1
10
31.9940697678279
20
8.44823972419991
30
0
41
1
10
32.5437742360784
20
8.26691929699663
30
0
41
1
10
33.3688726477299
20
7.97362687482843
30
0
41
1
10
33.6440452803521
20
7.8722977219503
30
0
41
1
10
34.1931487782462
20
7.66275901438837
30
0
41
1
10
34.4673335126546
20
7.55457834067207
30
0
41
1
10
35.2908017550744
20
7.22204236918392
30
0
41
1
10
35.8402015706871
20
6.98891496400754
30
0
41
1
10
36.9386176770045
20
6.49843235759741
30
0
41
1
10
37.4875176522181
20
6.23980038893791
30
0
41
1
10
38.5871187097707
20
5.70576275849433
30
0
41
1
10
39.1367197096494
20
5.42992811100001
30
0
41
1
10
40.2344146647976
20
4.85915740786945
30
0
41
1
10
40.7821305071324
20
4.56358317750804
30
0
41
1
10
41.8814957025963
20
3.96108264827106
30
0
41
1
10
42.4324378539293
20
3.65291577835896
30
0
41
1
10
43.2558766781535
20
3.18120393275285
30
0
41
1
10
43.5298573434718
20
3.02204178555721
30
0
41
1
10
44.0782442134492
20
2.70209872743561
30
0
41
1
10
44.3527165199201
20
2.54142897213541
30
0
41
1
10
45.1764881249088
20
2.05659279720877
30
0
41
1
10
45.7263802704749
20
1.7296632291621
30
0
41
1
10
46.5507227092641
20
1.23258832132362
30
0
41
1
10
46.8249744801469
20
1.06595923698518
30
0
41
1
10
47.3739973830156
20
0.733424310044796
30
0
41
1
10
47.6486017611739
20
0.567244199481166
30
0
41
1
10
48.4723523365001
20
0.0684053971922935
30
0
41
1
10
49.0214641736582
20
-0.264504555730184
30
0
41
1
10
49.8443018479228
20
-0.765634818798645
30
0
41
1
10
50.1186812392581
20
-0.932579121806867
30
0
41
1
10
50.6686007939206
20
-1.2646825072114
30
0
41
1
10
50.9436619291217
20
-1.42995120130894
30
0
41
1
10
51.7681266269123
20
-1.92334527950175
30
0
41
1
10
52.3169600750014
20
-2.24956151413312
30
0
41
1
10
53.4131256968353
20
-2.89627387954624
30
0
41
1
10
53.9623746760953
20
-3.21371778307324
30
0
41
1
10
54.7874607744242
20
-3.68191912212765
30
0
41
1
10
55.0626201268945
20
-3.83665953590784
30
0
41
1
10
55.6118827473196
20
-4.14302692608257
30
0
41
1
10
55.8859902564726
20
-4.2949668547366
30
0
41
1
10
56.7084150466112
20
-4.7445230978889
30
0
41
1
10
57.2575702985233
20
-5.0348549450525
30
0
41
1
10
58.0814143266146
20
-5.45816273934051
30
0
41
1
10
58.3560671027583
20
-5.59719831108518
30
0
41
1
10
58.90529133947
20
-5.8713024460925
30
0
41
1
10
59.1798453470315
20
-6.00657075239016
30
0
41
1
10
60.0035931141013
20
-6.40272127001012
30
0
41
1
10
60.5529773290433
20
-6.65490644146252
30
0
41
1
10
61.3763102414756
20
-7.01685713357364
30
0
41
1
10
61.6506462303595
20
-7.13475697391542
30
0
41
1
10
62.1989304879412
20
-7.36518400661163
30
0
41
1
10
62.4729936762726
20
-7.47756660808739
30
0
41
1
10
63.2968975365045
20
-7.80409531444357
30
0
41
1
10
63.8476226220038
20
-8.00853214170888
30
0
41
1
10
64.9457048012729
20
-8.39037866519513
30
0
41
1
10
65.4930246302616
20
-8.56851554997604
30
0
41
1
10
66.5906618431528
20
-8.89360306882767
30
0
41
1
10
67.1406207781143
20
-9.04131014401452
30
0
41
1
10
68.2399695986676
20
-9.30717263897904
30
0
41
1
10
68.7876726801822
20
-9.42506495851049
30
0
41
1
10
69.8853266623818
20
-9.62748650554346
30
0
41
1
10
70.4344381655419
20
-9.71262667796248
30
0
41
1
10
71.2576893503387
20
-9.81637934881135
30
0
41
1
10
71.5318769856341
20
-9.84699071394132
30
0
41
1
10
72.0812443196139
20
-9.8997695447143
30
0
41
1
10
72.3560314364123
20
-9.92190526402169
30
0
41
1
10
73.1800766636884
20
-9.97582452942893
30
0
41
1
10
73.7291784132454
20
-9.99515692699046
30
0
41
1
10
74.3144327597692
20
-9.99796449677629
30
0
41
1
10
74.3514346982995
20
-9.99806524462369
30
0
41
1
10
74.3884341277609
20
-9.99808928801679
30
0
0
SPLINE
5
C8
100
AcDbEntity
8
1
62
256
6
ByLayer
370
18
48
1
60
0
100
AcDbSpline
70
4
71
3
72
20
73
16
40
0
40
0
40
0
40
0
40
0.124999999999999
40
0.124999999999999
40
0.249999999999998
40
0.249999999999998
40
0.374999999999998
40
0.374999999999998
40
0.499999999999997
40
0.499999999999997
40
0.624999999999997
40
0.624999999999997
40
0.749999999999996
40
0.749999999999996
40
1
40
1
40
1
40
1
41
1
10
4.25052875165494
20
-9.47440416413789
30
0
41
1
10
4.23713908271961
20
-9.47602187645546
30
0
41
1
10
4.2232246751999
20
-9.47857037654956
30
0
41
1
10
4.19389409278315
20
-9.48627169300138
30
0
41
1
10
4.17825841824398
20
-9.49150382956992
30
0
41
1
10
4.14599762621603
20
-9.50563480466437
30
0
41
1
10
4.12903245899426
20
-9.51473692093342
30
0
41
1
10
4.09626658262809
20
-9.53701849852504
30
0
41
1
10
4.08051786498632
20
-9.5502357463173
30
0
41
1
10
4.05342183583352
20
-9.57842863698002
30
0
41
1
10
4.04235373461063
20
-9.59299416550164
30
0
41
1
10
4.024895863018
20
-9.62099663006106
30
0
41
1
10
4.01837143033404
20
-9.63453721688182
30
0
41
1
10
4.00353976620792
20
-9.67360139525476
30
0
41
1
10
3.99999964093283
20
-9.69677345679042
30
0
41
1
10
3.99999964093286
20
-9.71844554976286
30
0
0
SPLINE
5
C9
100
AcDbEntity
8
1
62
256
6
ByLayer
370
18
48
1
60
0
100
AcDbSpline
70
4
71
3
72
68
73
64
40
0
40
0
40
0
40
0
40
0.0214675160447499
40
0.0214675160447499
40
0.0429350320894998
40
0.0429350320894998
40
0.0858700641790008
40
0.0858700641790008
40
0.128805096268502
40
0.128805096268502
40
0.171740128358003
40
0.171740128358003
40
0.214675160447504
40
0.214675160447504
40
0.236142676492255
40
0.236142676492255
40
0.257610192537005
40
0.257610192537005
40
0.300545224626507
40
0.300545224626507
40
0.322012740671258
40
0.322012740671258
40
0.343480256716008
40
0.343480256716008
40
0.38641528880551
40
0.38641528880551
40
0.407882804850261
40
0.407882804850261
40
0.429350320895011
40
0.429350320895011
40
0.472285352984514
40
0.472285352984514
40
0.515220385074016
40
0.515220385074016
40
0.558155417163518
40
0.558155417163518
40
0.579622933208268
40
0.579622933208268
40
0.601090449253019
40
0.601090449253019
40
0.644025481342521
40
0.644025481342521
40
0.665492997387271
40
0.665492997387271
40
0.686960513432022
40
0.686960513432022
40
0.729895545521524
40
0.729895545521524
40
0.772830577611026
40
0.772830577611026
40
0.85870064179003
40
0.85870064179003
40
0.880168157834781
40
0.880168157834781
40
0.901635673879531
40
0.901635673879531
40
0.944570705969033
40
0.944570705969033
40
0.966038222013784
40
0.966038222013784
40
0.987505738058535
40
0.987505738058535
40
1
40
1
40
1
40
1
41
1
10
77.4616911710007
20
-9.94171635149897
30
0
41
1
10
77.0793913754556
20
-9.96659863660366
30
0
41
1
10
76.6971661377945
20
-9.98336078940588
30
0
41
1
10
75.9324236509708
20
-10.0006323693537
30
0
41
1
10
75.5496402628191
20
-10.0011314550453
30
0
41
1
10
74.4027306538862
20
-9.97826067104899
30
0
41
1
10
73.6398472922223
20
-9.93058997370875
30
0
41
1
10
72.113726284793
20
-9.77142618497663
30
0
41
1
10
71.3500752522531
20
-9.65987835061711
30
0
41
1
10
69.8197152878784
20
-9.37423869671278
30
0
41
1
10
69.0565549474622
20
-9.20086617420469
30
0
41
1
10
67.5304325535652
20
-8.79585193692182
30
0
41
1
10
66.767452077222
20
-8.56420934547066
30
0
41
1
10
65.6199181072226
20
-8.17536107001351
30
0
41
1
10
65.2372679062196
20
-8.03895235338487
30
0
41
1
10
64.4732174683005
20
-7.75378941244324
30
0
41
1
10
64.0915216019772
20
-7.60493640340724
30
0
41
1
10
62.9466896476313
20
-7.1403961622492
30
0
41
1
10
62.1838386536317
20
-6.80669134847639
30
0
41
1
10
61.036968904854
20
-6.27366768556686
30
0
41
1
10
60.6540189085131
20
-6.09044424189349
30
0
41
1
10
59.8895216027969
20
-5.71507176146872
30
0
41
1
10
59.5076792324257
20
-5.52279295592678
30
0
41
1
10
58.3626485329981
20
-4.93321677999546
30
0
41
1
10
57.5998650153059
20
-4.5233086074509
30
0
41
1
10
56.4535561590169
20
-3.88745511205963
30
0
41
1
10
56.0707685403322
20
-3.67180692325093
30
0
41
1
10
55.3057107106389
20
-3.23520387405233
30
0
41
1
10
54.9236528420227
20
-3.01437802180803
30
0
41
1
10
53.7781932277656
20
-2.34545697850663
30
0
41
1
10
53.015386155966
20
-1.89110952853304
30
0
41
1
10
51.4876433334981
20
-0.971726945422319
30
0
41
1
10
50.7214652635411
20
-0.506146524746356
30
0
41
1
10
49.1934498399267
20
0.422602568458956
30
0
41
1
10
48.4305881387703
20
0.88632048813497
30
0
41
1
10
47.2850646600555
20
1.5760566022341
30
0
41
1
10
46.9030124591416
20
1.80498541237557
30
0
41
1
10
46.137974918852
20
2.26003496620834
30
0
41
1
10
45.755029864655
20
2.48612605971533
30
0
41
1
10
44.6083757432904
20
3.15652513160154
30
0
41
1
10
43.8454176726888
20
3.59380813719915
30
0
41
1
10
42.7001196756534
20
4.23053408059204
30
0
41
1
10
42.3181999765504
20
4.43956099334568
30
0
41
1
10
41.5535592669603
20
4.85042728206011
30
0
41
1
10
41.1704965390803
20
5.05243931878985
30
0
41
1
10
40.0230610700534
20
5.64478348147694
30
0
41
1
10
39.25987341103
20
6.02172389613264
30
0
41
1
10
37.732979997317
20
6.73445982933495
30
0
41
1
10
36.9686676490834
20
7.07030611450108
30
0
41
1
10
34.6720159848374
20
8.00714942221941
30
0
41
1
10
33.1491949427912
20
8.53232706582349
30
0
41
1
10
31.2352538473222
20
9.04539221942707
30
0
41
1
10
30.8524567232233
20
9.14071826944408
30
0
41
1
10
30.0880907063987
20
9.31612835616247
30
0
41
1
10
29.7062629108815
20
9.39627659887034
30
0
41
1
10
28.5608933173159
20
9.61357896590235
30
0
41
1
10
27.797512927799
20
9.72763400897685
30
0
41
1
10
26.6498647527229
20
9.85112038701399
30
0
41
1
10
26.2667087239024
20
9.8843489756965
30
0
41
1
10
25.5018853306323
20
9.93455733637634
30
0
41
1
10
25.1198806504247
20
9.95157577945628
30
0
41
1
10
24.5157309040652
20
9.96570840964554
30
0
41
1
10
24.2935143984446
20
9.96817026749574
30
0
41
1
10
24.07129444656
20
9.96789497436006
30
0
0
SPLINE
5
CA
100
AcDbEntity
8
1
62
256
6
ByLayer
370
18
48
1
60
0
100
AcDbSpline
70
4
71
3
72
8
73
4
40
0
40
0
40
0
40
0
40
1
40
1
40
1
40
1
41
1
10
77.4616911710008
20
-9.941716351499
30
0
41
1
10
77.5028525645042
20
-9.83134113389562
30
0
41
1
10
77.5439898567829
20
-9.72085903769405
30
0
41
1
10
77.5851029477642
20
-9.61026961911497
30
0
0
SPLINE
5
CB
100
AcDbEntity
8
1
62
256
6
ByLayer
370
18
48
1
60
0
100
AcDbSpline
70
4
71
3
72
12
73
8
40
0
40
0
40
0
40
0
40
0.250000000000018
40
0.250000000000018
40
0.500000000000036
40
0.500000000000036
40
1
40
1
40
1
40
1
41
1
10
77.5851029477651
20
-9.61026961911492
30
0
41
1
10
77.59001084348
20
-9.59706795218597
30
0
41
1
10
77.5947953992535
20
-9.58355633661992
30
0
41
1
10
77.6028737405904
20
-9.55914989613086
30
0
41
1
10
77.6061527044748
20
-9.54827307429946
30
0
41
1
10
77.612406920148
20
-9.5240934174906
30
0
41
1
10
77.6118940276977
20
-9.51945483267011
30
0
41
1
10
77.6087498548474
20
-9.52238857662329
30
0
0
SPLINE
5
CC
100
AcDbEntity
8
1
62
256
6
ByLayer
370
18
48
1
60
0
100
AcDbSpline
70
4
71
3
72
18
73
14
40
0
40
0
40
0
40
0
40
0.249999999999986
40
0.249999999999986
40
0.499999999999971
40
0.499999999999971
40
0.624999999999978
40
0.624999999999978
40
0.749999999999985
40
0.749999999999985
40
0.874999999999993
40
0.874999999999993
40
1
40
1
40
1
40
1
41
1
10
3.99999964093286
20
9.71844554976292
30
0
41
1
10
3.99999964093288
20
9.69677557087266
30
0
41
1
10
4.00353948487216
20
9.67360663299232
30
0
41
1
10
4.02330663577837
20
9.62153419792725
30
0
41
1
10
4.0397938211149
20
9.59265592644988
30
0
41
1
10
4.0803173038224
20
9.55042083474669
30
0
41
1
10
4.09615263433503
20
9.53710347792719
30
0
41
1
10
4.12899242873402
20
9.51475668566209
30
0
41
1
10
4.14596913350809
20
9.50565165816056
30
0
41
1
10
4.17815640193837
20
9.49154415974684
30
0
41
1
10
4.19381110962351
20
9.48629620775949
30
0
41
1
10
4.22320186334727
20
9.47857365012973
30
0
41
1
10
4.23713161028815
20
9.47602277925935
30
0
41
1
10
4.25052875165503
20
9.47440416413792
30
0
0
SPLINE
5
CD
100
AcDbEntity
8
1
62
256
6
ByLayer
370
18
48
1
60
0
100
AcDbSpline
70
4
71
3
72
78
73
74
40
0
40
0
40
0
40
0
40
0.0023907387234088
40
0.0023907387234088
40
0.0367910580777737
40
0.0367910580777737
40
0.0711913774321387
40
0.0711913774321387
40
0.105591696786504
40
0.105591696786504
40
0.139992016140869
40
0.139992016140869
40
0.174392335495233
40
0.174392335495233
40
0.191592495172416
40
0.191592495172416
40
0.208792654849598
40
0.208792654849598
40
0.243192974203963
40
0.243192974203963
40
0.277593293558328
40
0.277593293558328
40
0.294793453235511
40
0.294793453235511
40
0.311993612912693
40
0.311993612912693
40
0.346393932267058
40
0.346393932267058
40
0.380794251621423
40
0.380794251621423
40
0.397994411298606
40
0.397994411298606
40
0.415194570975788
40
0.415194570975788
40
0.449594890330154
40
0.449594890330154
40
0.483995209684519
40
0.483995209684519
40
0.501195369361702
40
0.501195369361702
40
0.518395529038885
40
0.518395529038885
40
0.55279584839325
40
0.55279584839325
40
0.569996008070433
40
0.569996008070433
40
0.587196167747615
40
0.587196167747615
40
0.62159648710198
40
0.62159648710198
40
0.655996806456345
40
0.655996806456345
40
0.673196966133528
40
0.673196966133528
40
0.69039712581071
40
0.69039712581071
40
0.724797445165076
40
0.724797445165076
40
0.759197764519441
40
0.759197764519441
40
0.793598083873807
40
0.793598083873807
40
0.827998403228172
40
0.827998403228172
40
0.862398722582538
40
0.862398722582538
40
0.896799041936903
40
0.896799041936903
40
0.931199361291269
40
0.931199361291269
40
0.965599680645635
40
0.965599680645635
40
1
40
1
40
1
40
1
41
1
10
62.4725928971966
20
-7.47416288260632
30
0
41
1
10
62.4354713071304
20
-7.48762159061738
30
0
41
1
10
62.3983489516219
20
-7.50102055899868
30
0
41
1
10
61.8270605793933
20
-7.70628985435607
30
0
41
1
10
61.2918457530461
20
-7.88585572826261
30
0
41
1
10
60.2229501465718
20
-8.22099412786881
30
0
41
1
10
59.6889591821137
20
-8.37584027379867
30
0
41
1
10
58.6214352325019
20
-8.6592301957742
30
0
41
1
10
58.0869151366096
20
-8.78685635929369
30
0
41
1
10
57.0163717217388
20
-9.01085101735131
30
0
41
1
10
56.4819304788672
20
-9.10961124535976
30
0
41
1
10
55.4139712497368
20
-9.28028427614231
30
0
41
1
10
54.8797726125241
20
-9.3515699591978
30
0
41
1
10
54.0776813386973
20
-9.43525347533455
30
0
41
1
10
53.8101849761328
20
-9.45924098455154
30
0
41
1
10
53.2749110283797
20
-9.49872526819055
30
0
41
1
10
53.0076405079362
20
-9.51401232389063
30
0
41
1
10
52.2059341927389
20
-9.54961948883502
30
0
41
1
10
51.6715054654649
20
-9.55960362366343
30
0
41
1
10
50.6024634677197
20
-9.54950325854691
30
0
41
1
10
50.0682277135533
20
-9.52949309636236
30
0
41
1
10
49.2656895611207
20
-9.47664706766903
30
0
41
1
10
48.9980638268661
20
-9.45509034329996
30
0
41
1
10
48.463214457441
20
-9.40346474930712
30
0
41
1
10
48.1958649156932
20
-9.37372552126442
30
0
41
1
10
47.3940337147398
20
-9.27525764225314
30
0
41
1
10
46.8602045788626
20
-9.19524940771413
30
0
41
1
10
45.7914116174017
20
-9.00608537867768
30
0
41
1
10
45.2556776842344
20
-8.89744590741756
30
0
41
1
10
44.4532125356965
20
-8.71185779114128
30
0
41
1
10
44.1859182649286
20
-8.64592095272874
30
0
41
1
10
43.6517305742362
20
-8.50732866175198
30
0
41
1
10
43.3847564099343
20
-8.43512035094059
30
0
41
1
10
42.5834283523324
20
-8.20949649246023
30
0
41
1
10
42.0488317981786
20
-8.04681773743795
30
0
41
1
10
40.9786778340312
20
-7.69574788279687
30
0
41
1
10
40.4439419725825
20
-7.50698971918473
30
0
41
1
10
39.6424795685545
20
-7.20467242151111
30
0
41
1
10
39.3753059836044
20
-7.10086977499171
30
0
41
1
10
38.8408995696119
20
-6.88890522201774
30
0
41
1
10
38.5736678996438
20
-6.7803861737946
30
0
41
1
10
37.7719443109772
20
-6.44706519776523
30
0
41
1
10
37.2373507339771
20
-6.21369313462472
30
0
41
1
10
36.4349875781406
20
-5.85002437804695
30
0
41
1
10
36.1676451333814
20
-5.72660204618569
30
0
41
1
10
35.6331235892841
20
-5.47497721964808
30
0
41
1
10
35.3659375814399
20
-5.34646940937361
30
0
41
1
10
34.5645662188182
20
-4.95483674948483
30
0
41
1
10
34.0309147136982
20
-4.68566973776288
30
0
41
1
10
32.961540615313
20
-4.13502987800933
30
0
41
1
10
32.4258719248207
20
-3.8530580176774
30
0
41
1
10
31.6243519698789
20
-3.42115707821014
30
0
41
1
10
31.3574746246133
20
-3.27550950280363
30
0
41
1
10
30.8236751656148
20
-2.98148558629819
30
0
41
1
10
30.5566845829305
20
-2.8332265706371
30
0
41
1
10
29.7553579311706
20
-2.38613771478322
30
0
41
1
10
29.2205157099203
20
-2.08451988659297
30
0
41
1
10
28.1504837118015
20
-1.47350310327937
30
0
41
1
10
27.6166777887889
20
-1.16495749323076
30
0
41
1
10
26.5483449473553
20
-0.547100828783869
30
0
41
1
10
26.0140037276365
20
-0.23736002751761
30
0
41
1
10
24.9453435050641
20
0.383947304233573
30
0
41
1
10
24.4103252034351
20
0.695471818535196
30
0
41
1
10
23.3411235668663
20
1.31252537628237
30
0
41
1
10
22.8068348882888
20
1.61881742657678
30
0
41
1
10
21.7391863704175
20
2.2267788878174
30
0
41
1
10
21.2053484224786
20
2.52782494583542
30
0
41
1
10
20.1355303994849
20
3.12081685966348
30
0
41
1
10
19.6000775611902
20
3.41259579199573
30
0
41
1
10
18.5322008703158
20
3.98516502441495
30
0
41
1
10
17.9986604823723
20
4.26524227448755
30
0
41
1
10
16.930416134123
20
4.80950384042686
30
0
41
1
10
16.395753972033
20
5.07440748299859
30
0
41
1
10
15.8606937610602
20
5.33232717196975
30
0
0
SPLINE
5
CE
100
AcDbEntity
8
1
62
256
6
ByLayer
370
18
48
1
60
0
100
AcDbSpline
70
4
71
3
72
14
73
10
40
0
40
0
40
0
40
0
40
0.25
40
0.25
40
0.5
40
0.5
40
0.75
40
0.75
40
1
40
1
40
1
40
1
41
1
10
3.99999964093288
20
-3.19921097521231
30
0
41
1
10
3.99999964093288
20
-3.2144274685989
30
0
41
1
10
4.00263792370424
20
-3.2299741135883
30
0
41
1
10
4.01321550999776
20
-3.26001020032467
30
0
41
1
10
4.021001392497
20
-3.27434146815435
30
0
41
1
10
4.04160208030439
20
-3.30156415767311
30
0
41
1
10
4.05467930071151
20
-3.31465606668121
30
0
41
1
10
4.08555553675168
20
-3.33804767556882
30
0
41
1
10
4.10318497216076
20
-3.34834533594073
30
0
41
1
10
4.12338161025761
20
-3.35701316931505
30
0
0
SPLINE
5
CF
100
AcDbEntity
8
1
62
256
6
ByLayer
370
18
48
1
60
0
100
AcDbSpline
70
4
71
3
72
10
73
6
40
0
40
0
40
0
40
0
40
0.645978243737658
40
0.645978243737658
40
1
40
1
40
1
40
1
41
1
10
77.4616911710008
20
9.94171635149897
30
0
41
1
10
77.0794221514865
20
9.96659663352131
30
0
41
1
10
76.6971732375996
20
9.98336163586995
30
0
41
1
10
76.1051264356118
20
9.99673135420358
30
0
41
1
10
75.8954331516588
20
9.99901883233898
30
0
41
1
10
75.6857996167921
20
9.99886542335386
30
0
0
SPLINE
5
D0
100
AcDbEntity
8
1
62
256
6
ByLayer
370
18
48
1
60
0
100
AcDbSpline
70
4
71
3
72
32
73
28
40
0
40
0
40
0
40
0
40
0.0716691004456868
40
0.0716691004456868
40
0.118085645423402
40
0.118085645423402
40
0.164502190401117
40
0.164502190401117
40
0.25733528035655
40
0.25733528035655
40
0.303751825334266
40
0.303751825334266
40
0.350168370311982
40
0.350168370311982
40
0.443001460267413
40
0.443001460267413
40
0.489418005245129
40
0.489418005245129
40
0.535834550222846
40
0.535834550222846
40
0.628667640178276
40
0.628667640178276
40
0.721500730133707
40
0.721500730133707
40
0.814333820089138
40
0.814333820089138
40
1
40
1
40
1
40
1
41
1
10
28.8003162888651
20
-9.56326076795514
30
0
41
1
10
28.2107502998345
20
-9.6642031289592
30
0
41
1
10
27.6209421801416
20
-9.74668612008878
30
0
41
1
10
26.6471681760788
20
-9.85137590737514
30
0
41
1
10
26.2642168824121
20
-9.88454547169971
30
0
41
1
10
25.4996747691812
20
-9.93466933594956
30
0
41
1
10
25.1177559130973
20
-9.95165492907364
30
0
41
1
10
23.9721863140288
20
-9.97836419217668
30
0
41
1
10
23.2087913174888
20
-9.96385526963914
30
0
41
1
10
22.0612063192137
20
-9.89355354490172
30
0
41
1
10
21.6779860938897
20
-9.86199287477532
30
0
41
1
10
20.9129405314621
20
-9.7829793120095
30
0
41
1
10
20.5308415588313
20
-9.73551941983879
30
0
41
1
10
19.3849666291668
20
-9.56967312716253
30
0
41
1
10
18.621653638048
20
-9.4278121226356
30
0
41
1
10
17.4746070892568
20
-9.16947433850206
30
0
41
1
10
17.0915899058537
20
-9.07568755465448
30
0
41
1
10
16.3259983423222
20
-8.87354679749441
30
0
41
1
10
15.9436988203236
20
-8.76528119441042
30
0
41
1
10
14.7974330866872
20
-8.41967503571203
30
0
41
1
10
14.0340811513239
20
-8.16155091752998
30
0
41
1
10
12.5051549329049
20
-7.59345658681724
30
0
41
1
10
11.7382196046925
20
-7.28250684996348
30
0
41
1
10
10.2117185733621
20
-6.61876144828415
30
0
41
1
10
9.45092458844229
20
-6.26561019595513
30
0
41
1
10
7.17017210708573
20
-5.15038265726875
30
0
41
1
10
5.65216836983771
20
-4.33206667396845
30
0
41
1
10
4.12042094263418
20
-3.46129456677258
30
0
0
SPLINE
5
D1
100
AcDbEntity
8
1
62
256
6
ByLayer
370
18
48
1
60
0
100
AcDbSpline
70
4
71
3
72
16
73
12
40
0
40
0
40
0
40
0
40
0.176910056548564
40
0.176910056548564
40
0.420752403742208
40
0.420752403742208
40
0.542673577339028
40
0.542673577339028
40
0.664594750935848
40
0.664594750935848
40
1
40
1
40
1
40
1
41
1
10
24.258366821297
20
-9.54300427484989
30
0
41
1
10
23.70580841516
20
-9.5421510561641
30
0
41
1
10
23.1536678651945
20
-9.52509588425571
30
0
41
1
10
21.8397621967218
20
-9.44614507492801
30
0
41
1
10
21.0777519907176
20
-9.36971873161579
30
0
41
1
10
19.9312284820296
20
-9.20955976998093
30
0
41
1
10
19.5484392544744
20
-9.14857299521006
30
0
41
1
10
18.781197402357
20
-9.01145098505046
30
0
41
1
10
18.3961767233108
20
-8.93518917293923
30
0
41
1
10
16.9529349114287
20
-8.62190953616471
30
0
41
1
10
15.9026585266422
20
-8.33882588231597
30
0
41
1
10
14.8555441918428
20
-8.00804504198797
30
0
0
SPLINE
5
D2
100
AcDbEntity
8
1
62
256
6
ByLayer
370
13
48
1
60
0
100
AcDbSpline
70
4
71
3
72
16
73
12
40
0
40
0
40
0
40
0
40
0.135041627163257
40
0.135041627163257
40
0.567520813581628
40
0.567520813581628
40
0.675640610186221
40
0.675640610186221
40
0.783760406790814
40
0.783760406790814
40
1
40
1
40
1
40
1
41
1
10
14.8555451458177
20
-8.00804534334628
30
0
41
1
10
14.3801378661566
20
-7.85786536760023
30
0
41
1
10
13.9053823835371
20
-7.69785351973806
30
0
41
1
10
11.9109493619765
20
-6.98628739798636
30
0
41
1
10
10.3938568599434
20
-6.34786524907162
30
0
41
1
10
8.4815039734699
20
-5.45169271151721
30
0
41
1
10
8.09823396086543
20
-5.26753886160893
30
0
41
1
10
7.32976593490272
20
-4.88979766929478
30
0
41
1
10
6.94427523985499
20
-4.69606253443078
30
0
41
1
10
5.7895965186357
20
-4.10475178972112
30
0
41
1
10
5.02048703517068
20
-3.69632569323321
30
0
41
1
10
4.25020780854643
20
-3.27652575684706
30
0
0
LINE
5
76
100
AcDbEntity
8
81
62
256
6
ByLayer
370
18
48
1
60
0
100
AcDbLine
10
81
20
0
30
0
11
86
21
0
31
0
39
0
210
0
220
0
230
1
0
LINE
5
77
100
AcDbEntity
8
1
62
256
6
ByLayer
370
18
48
1
60
0
100
AcDbLine
10
2.891963
20
9.955192
30
0
11
0.8
21
9.953937
31
0
39
0
210
0
220
0
230
1
0
LINE
5
79
100
AcDbEntity
8
1
62
256
6
ByLayer
370
18
48
1
60
0
100
AcDbLine
10
24.088579
20
9.96791
30
0
11
22.708197
21
9.967082
31
0
39
0
210
0
220
0
230
1
0
LINE
5
7A
100
AcDbEntity
8
1
62
256
6
ByLayer
370
18
48
1
60
0
100
AcDbLine
10
75.68958
20
9.998871
30
0
11
74.39003
21
9.998091
31
0
39
0
210
0
220
0
230
1
0
LINE
5
7B
100
AcDbEntity
8
1
62
256
6
ByLayer
370
18
48
1
60
0
100
AcDbLine
10
74.39003
20
-9.998091
30
0
11
75.689251
21
-9.998871
31
0
39
0
210
0
220
0
230
1
0
LINE
5
7C
100
AcDbEntity
8
1
62
256
6
ByLayer
370
18
48
1
60
0
100
AcDbLine
10
22.708197
20
-9.967082
30
0
11
24.088876
21
-9.96791
31
0
39
0
210
0
220
0
230
1
0
LINE
5
7D
100
AcDbEntity
8
1
62
256
6
ByLayer
370
18
48
1
60
0
100
AcDbLine
10
0.8
20
-9.953937
30
0
11
2.891963
21
-9.955192
31
0
39
0
210
0
220
0
230
1
0
LINE
5
7E
100
AcDbEntity
8
1
62
256
6
ByLayer
370
18
48
1
60
0
100
AcDbLine
10
0
20
-10
30
0
11
0.8
21
-9.953937
31
0
39
0
210
0
220
0
230
1
0
LINE
5
7F
100
AcDbEntity
8
1
62
256
6
ByLayer
370
18
48
1
60
0
100
AcDbLine
10
0.8
20
9.953937
30
0
11
0
21
10
31
0
39
0
210
0
220
0
230
1
0
LINE
5
80
100
AcDbEntity
8
SK1
62
256
6
ByLayer
370
18
48
1
60
0
100
AcDbLine
10
0
20
10
30
0
11
-46.824574
21
10
31
0
39
0
210
0
220
0
230
1
0
LINE
5
82
100
AcDbEntity
8
SK1
62
256
6
ByLayer
370
18
48
1
60
0
100
AcDbLine
10
-46.824574
20
-10
30
0
11
0
21
-10
31
0
39
0
210
0
220
0
230
1
0
LINE
5
83
100
AcDbEntity
8
SK1
62
256
6
ByLayer
370
18
48
1
60
0
100
AcDbLine
10
-46.824574
20
10
30
0
11
-50
21
4.5
31
0
39
0
210
0
220
0
230
1
0
LINE
5
84
100
AcDbEntity
8
SK1
62
256
6
ByLayer
370
18
48
1
60
0
100
AcDbLine
10
-50
20
-4.5
30
0
11
-46.824574
21
-10
31
0
39
0
210
0
220
0
230
1
0
LINE
5
85
100
AcDbEntity
8
SK4
62
256
6
ByLayer
370
18
48
0.05
60
0
100
AcDbLine
10
86
20
0
30
0
11
-55
21
0
31
0
39
0
210
0
220
0
230
1
0
LINE
5
87
100
AcDbEntity
8
4
62
256
6
ByLayer
370
18
48
0.05
60
0
100
AcDbLine
10
81
20
0
30
0
11
0
21
0
31
0
39
0
210
0
220
0
230
1
0
LINE
5
89
100
AcDbEntity
8
80
62
256
6
ByLayer
370
18
48
1
60
0
100
AcDbLine
10
0
20
0
30
0
11
-5
21
0
31
0
39
0
210
0
220
0
230
1
0
LINE
5
8A
100
AcDbEntity
8
1
62
256
6
ByLayer
370
13
48
1
60
0
100
AcDbLine
10
78.452444
20
1.587663
30
0
11
80.883559
21
0.383965
31
0
39
0
210
0
220
0
230
1
0
LINE
5
8B
100
AcDbEntity
8
1
62
256
6
ByLayer
370
18
48
1
60
0
100
AcDbLine
10
80.883559
20
0.383965
30
0
11
80.535021
21
1.587663
31
0
39
0
210
0
220
0
230
1
0
LINE
5
8C
100
AcDbEntity
8
1
62
256
6
ByLayer
370
13
48
1
60
0
100
AcDbLine
10
78.282985
20
1.241238
30
0
11
80.892784
21
-0.050929
31
0
39
0
210
0
220
0
230
1
0
LINE
5
8D
100
AcDbEntity
8
1
62
256
6
ByLayer
370
18
48
1
60
0
100
AcDbLine
10
80.977166
20
0.092574
30
0
11
81
21
0
31
0
39
0
210
0
220
0
230
1
0
LINE
5
8E
100
AcDbEntity
8
1
62
256
6
ByLayer
370
13
48
1
60
0
100
AcDbLine
10
80.535021
20
1.587663
30
0
11
78.452444
21
1.587663
31
0
39
0
210
0
220
0
230
1
0
LINE
5
8F
100
AcDbEntity
8
1
62
256
6
ByLayer
370
18
48
1
60
0
100
AcDbLine
10
4
20
-3.26001
30
0
11
4
21
9.866366
31
0
39
0
210
0
220
0
230
1
0
LINE
5
90
100
AcDbEntity
8
1
62
256
6
ByLayer
370
18
48
1
60
0
100
AcDbLine
10
81
20
0
30
0
11
77.515005
21
-9.574944
31
0
39
0
210
0
220
0
230
1
0
LINE
5
91
100
AcDbEntity
8
1
62
256
6
ByLayer
370
18
48
1
60
0
100
AcDbLine
10
80.883559
20
-0.383965
30
0
11
80.535021
21
-1.587663
31
0
39
0
210
0
220
0
230
1
0
LINE
5
92
100
AcDbEntity
8
1
62
256
6
ByLayer
370
18
48
1
60
0
100
AcDbLine
10
81
20
0
30
0
11
80.977166
21
-0.092574
31
0
39
0
210
0
220
0
230
1
0
LINE
5
93
100
AcDbEntity
8
1
62
256
6
ByLayer
370
18
48
1
60
0
100
AcDbLine
10
0
20
-10
30
0
11
0
21
10
31
0
39
0
210
0
220
0
230
1
0
LINE
5
94
100
AcDbEntity
8
1
62
256
6
ByLayer
370
18
48
1
60
0
100
AcDbLine
10
75.962236
20
-5.545934
30
0
11
80.892784
21
-0.050929
31
0
39
0
210
0
220
0
230
1
0
LINE
5
95
100
AcDbEntity
8
1
62
256
6
ByLayer
370
18
48
1
60
0
100
AcDbLine
10
0.8
20
9.953937
30
0
11
0.8
21
-9.953937
31
0
39
0
210
0
220
0
230
1
0
LINE
5
96
100
AcDbEntity
8
SK1
62
256
6
ByLayer
370
18
48
1
60
0
100
AcDbLine
10
-46.824574
20
10
30
0
11
-46.824574
21
-10
31
0
39
0
210
0
220
0
230
1
0
LINE
5
97
100
AcDbEntity
8
SK1
62
256
6
ByLayer
370
18
48
1
60
0
100
AcDbLine
10
-50
20
4.5
30
0
11
-50
21
-4.5
31
0
39
0
210
0
220
0
230
1
0
LINE
5
98
100
AcDbEntity
8
SK1
62
256
6
ByLayer
370
18
48
1
60
0
100
AcDbLine
10
0
20
-10
30
0
11
0
21
10
31
0
39
0
210
0
220
0
230
1
0
MTEXT
5
D3
100
AcDbEntity
8
SK6
62
256
6
ByLayer
370
13
48
1
60
0
100
AcDbMText
10
17.629169
20
42.382694
30
0
210
0
220
0
230
1
1
\W0.7670;R840-2000-30-A0A1220
40
3.5
41
0
44
1.084337
50
0
71
8
72
5
7
iso_b_vert
0
DIMENSION
5
E0
100
AcDbEntity
8
SK2
62
256
6
ByLayer
370
13
48
1
60
0
100
AcDbDimension
2
DimnDraft3D1
10
77.55
20
-20.213398
30
0
11
36.300059
21
-20.213398
31
0
70
32
71
5
72
1
41
1
210
0
220
0
230
1
3
Standard
100
AcDbAlignedDimension
13
0
23
-1.5875
33
0
14
77.55
24
-11.5875
34
0
50
0
100
AcDbRotatedDimension
1001
ACAD
1000
DSTYLE
1002
{
1070
   279
1070
     0
1070
   172
1070
     1
1070
   173
1070
     1
1070
   340
1005
D4
1070
   271
1070
     2
1070
   272
1070
     2
1070
    77
1070
     1
1070
    73
1070
     0
1070
   171
1070
     3
1070
   274
1070
     4
1070
   177
1070
    35
1070
   176
1070
    35
1070
   178
1070
    35
1070
    48
1040
-0.005
1070
    41
1041
3.5
1070
   147
1041
1.75
1070
    42
1041
1.5875
1070
    44
1041
2.0
1070
   140
1041
3.5
1070
   343
1005
0
1070
   344
1005
0
1002
}
0
DIMENSION
5
EA
100
AcDbEntity
8
SK2
62
256
6
ByLayer
370
13
48
1
60
0
100
AcDbDimension
2
DimnDraft3D2
10
81
20
-38.692985
30
0
11
13.3913
21
-38.692985
31
0
70
32
71
5
72
1
41
1
210
0
220
0
230
1
3
Standard
100
AcDbAlignedDimension
13
-50
23
-11.5875
33
0
14
81
24
-1.5875
34
0
50
0
100
AcDbRotatedDimension
1001
ACAD
1000
DSTYLE
1002
{
1070
   279
1070
     0
1070
   172
1070
     1
1070
   173
1070
     1
1070
   340
1005
D4
1070
   271
1070
     2
1070
   272
1070
     2
1070
    77
1070
     1
1070
    73
1070
     0
1070
   171
1070
     3
1070
   274
1070
     4
1070
   177
1070
    35
1070
   176
1070
    35
1070
   178
1070
    35
1070
    48
1040
-0.005
1070
    41
1041
3.5
1070
   147
1041
1.75
1070
    42
1041
1.5875
1070
    44
1041
2.0
1070
   140
1041
3.5
1070
   343
1005
0
1070
   344
1005
0
1002
}
0
DIMENSION
5
F4
100
AcDbEntity
8
SK2
62
256
6
ByLayer
370
13
48
1
60
0
100
AcDbDimension
2
DimnDraft3D3
10
81
20
21.609119
30
0
11
49.275
21
21.609119
31
0
70
32
71
5
72
1
41
1
210
0
220
0
230
1
3
Standard
100
AcDbAlignedDimension
13
17.55
23
11.5875
33
0
14
81
24
1.5875
34
0
50
0
100
AcDbRotatedDimension
1001
ACAD
1000
DSTYLE
1002
{
1070
   279
1070
     0
1070
   172
1070
     1
1070
   173
1070
     1
1070
   340
1005
D4
1070
   271
1070
     2
1070
   272
1070
     2
1070
    77
1070
     1
1070
    73
1070
     0
1070
   171
1070
     3
1070
   274
1070
     4
1070
   177
1070
    35
1070
   176
1070
    35
1070
   178
1070
    35
1070
    48
1040
-0.005
1070
    41
1041
3.5
1070
   147
1041
1.75
1070
    42
1041
1.5875
1070
    44
1041
2.0
1070
   140
1041
3.5
1070
   343
1005
0
1070
   344
1005
0
1002
}
0
DIMENSION
5
FE
100
AcDbEntity
8
SK2
62
256
6
ByLayer
370
13
48
1
60
0
100
AcDbDimension
2
DimnDraft3D4
10
77.55
20
-22.802503
30
0
11
90.981425
21
-22.802503
31
0
70
32
71
5
72
1
41
1
210
0
220
0
230
1
3
Standard
100
AcDbAlignedDimension
13
81
23
-1.5875
33
0
14
77.55
24
-11.5875
34
0
50
0
100
AcDbRotatedDimension
1001
ACAD
1000
DSTYLE
1002
{
1070
   279
1070
     0
1070
   172
1070
     1
1070
   173
1070
     1
1070
   340
1005
D4
1070
   271
1070
     2
1070
   272
1070
     2
1070
    77
1070
     1
1070
    73
1070
     0
1070
   171
1070
     3
1070
   274
1070
     4
1070
   177
1070
    35
1070
   176
1070
    35
1070
   178
1070
    35
1070
    48
1040
-0.005
1070
    41
1041
3.5
1070
   147
1041
1.75
1070
    42
1041
1.5875
1070
    44
1041
2.0
1070
   140
1041
3.5
1070
   343
1005
0
1070
   344
1005
0
1002
}
0
DIMENSION
5
108
100
AcDbEntity
8
SK2
62
256
6
ByLayer
370
13
48
1
60
0
100
AcDbDimension
2
DimnDraft3D5
10
77.55
20
-28.343428
30
0
11
10.310676
21
-28.343428
31
0
70
32
71
5
72
1
41
1
210
0
220
0
230
1
3
Standard
100
AcDbAlignedDimension
13
-50
23
-11.5875
33
0
14
77.55
24
-11.5875
34
0
50
0
100
AcDbRotatedDimension
1001
ACAD
1000
DSTYLE
1002
{
1070
   279
1070
     0
1070
   172
1070
     1
1070
   173
1070
     1
1070
   340
1005
D4
1070
   271
1070
     2
1070
   272
1070
     2
1070
    77
1070
     1
1070
    73
1070
     0
1070
   171
1070
     3
1070
   274
1070
     4
1070
   177
1070
    35
1070
   176
1070
    35
1070
   178
1070
    35
1070
    48
1040
-0.005
1070
    41
1041
3.5
1070
   147
1041
1.75
1070
    42
1041
1.5875
1070
    44
1041
2.0
1070
   140
1041
3.5
1070
   343
1005
0
1070
   344
1005
0
1002
}
0
DIMENSION
5
113
100
AcDbEntity
8
SK2
62
256
6
ByLayer
370
13
48
1
60
0
100
AcDbDimension
2
DimnDraft3D6
10
-60.625163
20
10
30
0
11
-61.250163
21
28.47418
31
0
70
33
71
5
72
1
41
1
210
0
220
0
230
1
3
Standard
100
AcDbAlignedDimension
13
-51.5875
23
-10
33
0
14
-51.5875
24
10
34
0
1001
ACAD
1000
DSTYLE
1002
{
1070
   279
1070
     0
1070
    74
1070
     0
1070
   173
1070
     1
1070
   340
1005
D4
1070
   271
1070
     3
1070
   272
1070
     2
1070
    77
1070
     1
1070
    73
1070
     0
1070
   171
1070
     3
1070
   274
1070
     4
1070
   177
1070
    35
1070
   176
1070
    35
1070
   178
1070
    35
1070
    48
1040
-0.005
1070
    41
1041
3.5
1070
   147
1041
1.75
1070
    42
1041
1.5875
1070
    44
1041
2.0
1070
   140
1041
3.5
1070
   343
1005
0
1070
   344
1005
0
1002
}
0
DIMENSION
5
11E
100
AcDbEntity
8
2
62
256
6
ByLayer
370
13
48
1
60
0
100
AcDbDimension
2
DimnDraft3D7
10
95.083343
20
10
30
0
11
90.458343
21
27.067266
31
0
70
33
71
5
72
1
41
1
210
0
220
0
230
1
3
Standard
100
AcDbAlignedDimension
13
79.1375
23
-10
33
0
14
79.1375
24
10
34
0
1001
ACAD
1000
DSTYLE
1002
{
1070
   279
1070
     0
1070
    74
1070
     0
1070
   173
1070
     1
1070
   340
1005
D4
1070
   271
1070
     3
1070
   272
1070
     2
1070
    77
1070
     1
1070
    73
1070
     0
1070
   171
1070
     3
1070
   274
1070
     4
1070
   177
1070
    35
1070
   176
1070
    35
1070
   178
1070
    35
1070
    48
1040
-0.005
1070
    41
1041
3.5
1070
   147
1041
1.75
1070
    42
1041
1.5875
1070
    44
1041
2.0
1070
   140
1041
3.5
1070
   343
1005
0
1070
   344
1005
0
1002
}
0
ENDSEC
0
SECTION
2
OBJECTS
0
DICTIONARY
5
189
330
0
100
AcDbDictionary
280
0
281
1
3
ACAD_GROUP
350
18a
3
ACAD_MLINESTYLE
350
18b
0
DICTIONARY
5
18a
330
0
100
AcDbDictionary
280
0
281
1
0
DICTIONARY
5
18b
330
0
100
AcDbDictionary
280
0
281
1
3
Standard
350
18
0
MLINESTYLE
5
18
330
18b
100
AcDbMlineStyle
2
Standard
70
0
3

62
256
51
90
52
90
71
2
49
-0.5
62
256
6
ByLayer
49
0.5
62
256
6
ByLayer
0
RASTERVARIABLES
5
177
330

100
AcDbRasterVariables
90
0
70
1
71
1
72
1
0
ENDSEC
0
EOF
