0
SECTION
2
HEADER
9
$ACADVER
1
AC1015
9
$DWGCODEPAGE
3
ANSI_1252
9
$HANDSEED
5
1a3
9
$ANGBASE
50
0
9
$ANGDIR
70
0
9
$ATTMODE
70
1
9
$AUNITS
70
0
9
$AUPREC
70
0
9
$CECOLOR
62
256
9
$CELTSCALE
40
1
9
$CELTYPE
6
ByLayer
9
$CELWEIGHT
370
18
9
$CLAYER
8
0
9
$CMLJUST
70
0
9
$CMLSCALE
40
1
9
$CMLSTYLE
2
Standard
9
$DIMSTYLE
2
Standard
9
$TEXTSIZE
40
0.2
9
$TEXTSTYLE
7
Standard
9
$LUNITS
70
2
9
$LUPREC
70
4
9
$EXTNAMES
290
1
9
$INSUNITS
70
4
9
$LTSCALE
40
1
9
$LWDISPLAY
290
1
9
$PDMODE
70
0
9
$PDSIZE
40
0
9
$PLINEGEN
70
0
0
ENDSEC
0
SECTION
2
CLASSES
0
CLASS
1
RASTERVARIABLES
2
AcDbRasterVariables
3
ISM
90
0
280
0
281
0
0
ENDSEC
0
SECTION
2
TABLES
0
TABLE
2
VPORT
5
199
100
AcDbSymbolTable
0
VPORT
5
1
100
AcDbSymbolTableRecord
100
AcDbViewportTableRecord
2
*Active
70
0
10
0
20
0
11
1
21
1
12
-1
22
1
13
0
23
0
14
0.5
24
0.5
15
10
25
10
16
0
26
0
36
1
17
0
27
0
37
0
0
ENDTAB
0
TABLE
2
LTYPE
5
19a
100
AcDbSymbolTable
0
LTYPE
5
14
100
AcDbSymbolTableRecord
100
AcDbLinetypeTableRecord
70
0
2
ByBlock
3

72
65
73
0
40
0
0
LTYPE
5
15
100
AcDbSymbolTableRecord
100
AcDbLinetypeTableRecord
70
0
2
ByLayer
3

72
65
73
0
40
0
0
LTYPE
5
16
100
AcDbSymbolTableRecord
100
AcDbLinetypeTableRecord
70
0
2
CONTINUOUS
3
Solid line
72
65
73
0
40
0
0
LTYPE
5
6A
100
AcDbSymbolTableRecord
100
AcDbLinetypeTableRecord
70
0
2
CENTER
3
____ _ ____ _ ____ _ ____
72
65
73
4
40
47.5
49
22
74
0
49
-8.5
74
0
49
8.5
74
0
49
-8.5
74
0
0
LTYPE
5
6B
100
AcDbSymbolTableRecord
100
AcDbLinetypeTableRecord
70
0
2
DASHED
3
__ __ __ __ __ __ __ __ __
72
65
73
2
40
25.72
49
12.86
74
0
49
-12.86
74
0
0
ENDTAB
0
TABLE
2
LAYER
5
19b
100
AcDbSymbolTable
0
LAYER
5
10
100
AcDbSymbolTableRecord
100
AcDbLayerTableRecord
2
0
70
0
62
7
6
CONTINUOUS
290
1
370
-3
390
0
0
LAYER
5
6D
100
AcDbSymbolTableRecord
100
AcDbLayerTableRecord
2
81
70
0
62
-3
6
CONTINUOUS
290
1
370
-3
390
0
0
LAYER
5
6F
100
AcDbSymbolTableRecord
100
AcDbLayerTableRecord
2
80
70
0
62
-6
6
CONTINUOUS
290
1
370
-3
390
0
0
LAYER
5
74
100
AcDbSymbolTableRecord
100
AcDbLayerTableRecord
2
2
70
0
62
7
6
CONTINUOUS
290
1
370
-3
390
0
0
LAYER
5
78
100
AcDbSymbolTableRecord
100
AcDbLayerTableRecord
2
1
70
0
62
4
6
CONTINUOUS
290
1
370
-3
390
0
0
LAYER
5
88
100
AcDbSymbolTableRecord
100
AcDbLayerTableRecord
2
4
70
0
62
-2
6
CENTER
290
1
370
-3
390
0
0
LAYER
5
185
100
AcDbSymbolTableRecord
100
AcDbLayerTableRecord
2
SK2
70
0
62
7
6
CONTINUOUS
290
1
370
-3
390
0
0
LAYER
5
186
100
AcDbSymbolTableRecord
100
AcDbLayerTableRecord
2
SK1
70
0
62
4
6
CONTINUOUS
290
1
370
-3
390
0
0
LAYER
5
187
100
AcDbSymbolTableRecord
100
AcDbLayerTableRecord
2
SK4
70
0
62
2
6
CENTER
290
1
370
-3
390
0
0
LAYER
5
188
100
AcDbSymbolTableRecord
100
AcDbLayerTableRecord
2
SK6
70
0
62
5
6
CONTINUOUS
290
1
370
-3
390
0
0
ENDTAB
0
TABLE
2
STYLE
5
19c
100
AcDbSymbolTable
0
STYLE
5
11
100
AcDbSymbolTableRecord
100
AcDbTextStyleTableRecord
2
Standard
3
txt
70
0
71
0
40
0
41
1
42
0
50
0
0
STYLE
5
E1
100
AcDbSymbolTableRecord
100
AcDbTextStyleTableRecord
2
iso_b_vert
3
simplex.shx
70
0
71
0
40
0
41
1
42
0
50
0
0
STYLE
5
E2
100
AcDbSymbolTableRecord
100
AcDbTextStyleTableRecord
2
DWGDirectTextStyle
3
simplex
70
0
71
0
40
0
41
1
42
0
50
0
0
ENDTAB
0
TABLE
2
DIMSTYLE
5
19d
100
AcDbSymbolTable
100
AcDbDimStyleTable
0
DIMSTYLE
105
27
100
AcDbSymbolTableRecord
100
AcDbDimStyleTableRecord
2
Standard
70
0
3
<>
41
0.18
42
0.0625
44
0.18
140
0.18
147
0.09
73
0
74
0
77
1
271
2
275
0
278
52
280
0
340
11
0
ENDTAB
0
TABLE
2
VIEW
5
19e
100
AcDbSymbolTable
0
ENDTAB
0
TABLE
2
UCS
5
19f
100
AcDbSymbolTable
0
ENDTAB
0
TABLE
2
APPID
5
1a0
100
AcDbSymbolTable
0
APPID
5
12
100
AcDbSymbolTableRecord
100
AcDbRegAppTableRecord
2
ACAD
70
0
0
ENDTAB
0
TABLE
2
BLOCK_RECORD
5
1a1
100
AcDbSymbolTable
0
BLOCK_RECORD
5
1F
100
AcDbSymbolTableRecord
100
AcDbBlockTableRecord
2
*Model_Space
340
0
70
0
0
BLOCK_RECORD
5
1B
100
AcDbSymbolTableRecord
100
AcDbBlockTableRecord
2
*Paper_Space
340
0
70
0
0
BLOCK_RECORD
5
23
100
AcDbSymbolTableRecord
100
AcDbBlockTableRecord
2
*Paper_Space0
340
0
70
0
0
BLOCK_RECORD
5
E4
100
AcDbSymbolTableRecord
100
AcDbBlockTableRecord
2
DimnDraft3D1
340
0
70
0
0
BLOCK_RECORD
5
EE
100
AcDbSymbolTableRecord
100
AcDbBlockTableRecord
2
DimnDraft3D2
340
0
70
0
0
BLOCK_RECORD
5
F8
100
AcDbSymbolTableRecord
100
AcDbBlockTableRecord
2
DimnDraft3D3
340
0
70
0
0
BLOCK_RECORD
5
102
100
AcDbSymbolTableRecord
100
AcDbBlockTableRecord
2
DimnDraft3D4
340
0
70
0
0
BLOCK_RECORD
5
10C
100
AcDbSymbolTableRecord
100
AcDbBlockTableRecord
2
DimnDraft3D5
340
0
70
0
0
BLOCK_RECORD
5
116
100
AcDbSymbolTableRecord
100
AcDbBlockTableRecord
2
DimnDraft3D6
340
0
70
0
0
BLOCK_RECORD
5
121
100
AcDbSymbolTableRecord
100
AcDbBlockTableRecord
2
DimnDraft3D7
340
0
70
0
0
ENDTAB
0
ENDSEC
0
SECTION
2
BLOCKS
0
BLOCK
5
20
100
AcDbEntity
8
0
100
AcDbBlockBegin
2
*Model_Space
70
0
10
0
20
0
30
0
3
*Model_Space
0
ENDBLK
5
21
100
AcDbEntity
8
0
100
AcDbBlockEnd
0
BLOCK
5
1C
100
AcDbEntity
8
0
100
AcDbBlockBegin
2
*Paper_Space
70
0
10
0
20
0
30
0
3
*Paper_Space
0
ENDBLK
5
1D
100
AcDbEntity
8
0
100
AcDbBlockEnd
0
BLOCK
5
24
100
AcDbEntity
8
0
100
AcDbBlockBegin
2
*Paper_Space0
70
0
10
0
20
0
30
0
3
*Paper_Space0
0
ENDBLK
5
25
100
AcDbEntity
8
0
100
AcDbBlockEnd
0
BLOCK
5
EB
100
AcDbEntity
8
0
100
AcDbBlockBegin
2
DimnDraft3D1
70
0
10
0
20
0
30
0
3
DimnDraft3D1
0
MTEXT
5
E5
100
AcDbEntity
8
SK2
62
256
6
ByLayer
370
13
48
1
60
0
100
AcDbMText
10
31.891375
20
-19.238398
30
0
210
0
220
0
230
1
1
\W0.7402;77,59
40
3.5
41
0
44
1.084337
50
0
71
7
72
5
7
iso_b_vert
0
LINE
5
E6
100
AcDbEntity
8
SK2
62
256
6
ByLayer
370
13
48
1
60
0
100
AcDbLine
10
0
20
-1.5875
30
0
11
0
21
-22.113398
31
0
39
0
210
0
220
0
230
1
0
LINE
5
E7
100
AcDbEntity
8
SK2
62
256
6
ByLayer
370
13
48
1
60
0
100
AcDbLine
10
77.59
20
-11.4875
30
0
11
77.59
21
-22.113398
31
0
39
0
210
0
220
0
230
1
0
LINE
5
E8
100
AcDbEntity
8
SK2
62
256
6
ByLayer
370
13
48
1
60
0
100
AcDbLine
10
0
20
-20.113398
30
0
11
77.59
21
-20.113398
31
0
39
0
210
0
220
0
230
1
0
SOLID
5
E9
100
AcDbEntity
8
SK2
62
256
6
ByLayer
370
13
48
1
60
0
100
AcDbTrace
10
0
20
-20.113398
30
0
11
3.499998
21
-19.652615
31
0
12
3.500002
22
-20.574182
32
0
13
0
23
-20.113398
33
0
39
0
210
0
220
0
230
1
0
SOLID
5
EA
100
AcDbEntity
8
SK2
62
256
6
ByLayer
370
13
48
1
60
0
100
AcDbTrace
10
77.59
20
-20.113398
30
0
11
74.090002
21
-20.574182
31
0
12
74.089998
22
-19.652615
32
0
13
77.59
23
-20.113398
33
0
39
0
210
0
220
0
230
1
0
ENDBLK
5
EC
100
AcDbEntity
8
0
100
AcDbBlockEnd
0
BLOCK
5
F5
100
AcDbEntity
8
0
100
AcDbBlockBegin
2
DimnDraft3D2
70
0
10
0
20
0
30
0
3
DimnDraft3D2
0
MTEXT
5
EF
100
AcDbEntity
8
SK2
62
256
6
ByLayer
370
13
48
1
60
0
100
AcDbMText
10
8.549721
20
-37.817985
30
0
210
0
220
0
230
1
1
\W0.6440;131,00
40
3.5
41
0
44
1.084337
50
0
71
7
72
5
7
iso_b_vert
0
LINE
5
F0
100
AcDbEntity
8
SK2
62
256
6
ByLayer
370
13
48
1
60
0
100
AcDbLine
10
-50
20
-11.5875
30
0
11
-50
21
-40.692985
31
0
39
0
210
0
220
0
230
1
0
LINE
5
F1
100
AcDbEntity
8
SK2
62
256
6
ByLayer
370
13
48
1
60
0
100
AcDbLine
10
81
20
-1.5875
30
0
11
81
21
-40.692985
31
0
39
0
210
0
220
0
230
1
0
LINE
5
F2
100
AcDbEntity
8
SK2
62
256
6
ByLayer
370
13
48
1
60
0
100
AcDbLine
10
-50
20
-38.692985
30
0
11
81
21
-38.692985
31
0
39
0
210
0
220
0
230
1
0
SOLID
5
F3
100
AcDbEntity
8
SK2
62
256
6
ByLayer
370
13
48
1
60
0
100
AcDbTrace
10
-50
20
-38.692985
30
0
11
-46.500002
21
-38.232202
31
0
12
-46.499998
22
-39.153769
32
0
13
-50
23
-38.692985
33
0
39
0
210
0
220
0
230
1
0
SOLID
5
F4
100
AcDbEntity
8
SK2
62
256
6
ByLayer
370
13
48
1
60
0
100
AcDbTrace
10
81
20
-38.692985
30
0
11
77.500002
21
-39.153769
31
0
12
77.499998
22
-38.232202
32
0
13
81
23
-38.692985
33
0
39
0
210
0
220
0
230
1
0
ENDBLK
5
F6
100
AcDbEntity
8
0
100
AcDbBlockEnd
0
BLOCK
5
FF
100
AcDbEntity
8
0
100
AcDbBlockBegin
2
DimnDraft3D3
70
0
10
0
20
0
30
0
3
DimnDraft3D3
0
MTEXT
5
F9
100
AcDbEntity
8
SK2
62
256
6
ByLayer
370
13
48
1
60
0
100
AcDbMText
10
45.583816
20
22.384119
30
0
210
0
220
0
230
1
1
\W0.7211;62,81
40
3.5
41
0
44
1.084337
50
0
71
7
72
5
7
iso_b_vert
0
LINE
5
FA
100
AcDbEntity
8
SK2
62
256
6
ByLayer
370
13
48
1
60
0
100
AcDbLine
10
18.19
20
11.4875
30
0
11
18.19
21
23.509119
31
0
39
0
210
0
220
0
230
1
0
LINE
5
FB
100
AcDbEntity
8
SK2
62
256
6
ByLayer
370
13
48
1
60
0
100
AcDbLine
10
81
20
1.5875
30
0
11
81
21
23.509119
31
0
39
0
210
0
220
0
230
1
0
LINE
5
FC
100
AcDbEntity
8
SK2
62
256
6
ByLayer
370
13
48
1
60
0
100
AcDbLine
10
18.19
20
21.509119
30
0
11
81
21
21.509119
31
0
39
0
210
0
220
0
230
1
0
SOLID
5
FD
100
AcDbEntity
8
SK2
62
256
6
ByLayer
370
13
48
1
60
0
100
AcDbTrace
10
18.19
20
21.509119
30
0
11
21.689998
21
21.969903
31
0
12
21.690002
22
21.048335
32
0
13
18.19
23
21.509119
33
0
39
0
210
0
220
0
230
1
0
SOLID
5
FE
100
AcDbEntity
8
SK2
62
256
6
ByLayer
370
13
48
1
60
0
100
AcDbTrace
10
81
20
21.509119
30
0
11
77.500002
21
21.048335
31
0
12
77.499998
22
21.969903
32
0
13
81
23
21.509119
33
0
39
0
210
0
220
0
230
1
0
ENDBLK
5
100
100
AcDbEntity
8
0
100
AcDbBlockEnd
0
BLOCK
5
109
100
AcDbEntity
8
0
100
AcDbBlockBegin
2
DimnDraft3D4
70
0
10
0
20
0
30
0
3
DimnDraft3D4
0
MTEXT
5
103
100
AcDbEntity
8
SK2
62
256
6
ByLayer
370
13
48
1
60
0
100
AcDbMText
10
88.093925
20
-21.827503
30
0
210
0
220
0
230
1
1
\W0.7369;3,41
40
3.5
41
0
44
1.084337
50
0
71
7
72
5
7
iso_b_vert
0
LINE
5
104
100
AcDbEntity
8
SK2
62
256
6
ByLayer
370
13
48
1
60
0
100
AcDbLine
10
81
20
-1.5875
30
0
11
81
21
-24.702503
31
0
39
0
210
0
220
0
230
1
0
LINE
5
105
100
AcDbEntity
8
SK2
62
256
6
ByLayer
370
13
48
1
60
0
100
AcDbLine
10
77.59
20
-11.4875
30
0
11
77.59
21
-24.702503
31
0
39
0
210
0
220
0
230
1
0
LINE
5
106
100
AcDbEntity
8
SK2
62
256
6
ByLayer
370
13
48
1
60
0
100
AcDbLine
10
68.84
20
-22.702503
30
0
11
94.743925
21
-22.702503
31
0
39
0
210
0
220
0
230
1
0
SOLID
5
107
100
AcDbEntity
8
SK2
62
256
6
ByLayer
370
13
48
1
60
0
100
AcDbTrace
10
81
20
-22.702503
30
0
11
84.499998
21
-22.241719
31
0
12
84.500002
22
-23.163287
32
0
13
81
23
-22.702503
33
0
39
0
210
0
220
0
230
1
0
SOLID
5
108
100
AcDbEntity
8
SK2
62
256
6
ByLayer
370
13
48
1
60
0
100
AcDbTrace
10
77.59
20
-22.702503
30
0
11
74.090002
21
-23.163287
31
0
12
74.089998
22
-22.241719
32
0
13
77.59
23
-22.702503
33
0
39
0
210
0
220
0
230
1
0
ENDBLK
5
10A
100
AcDbEntity
8
0
100
AcDbBlockEnd
0
BLOCK
5
113
100
AcDbEntity
8
0
100
AcDbBlockBegin
2
DimnDraft3D5
70
0
10
0
20
0
30
0
3
DimnDraft3D5
0
MTEXT
5
10D
100
AcDbEntity
8
SK2
62
256
6
ByLayer
370
13
48
1
60
0
100
AcDbMText
10
5.031597
20
-27.468428
30
0
210
0
220
0
230
1
1
\W0.6996;127,59
40
3.5
41
0
44
1.084337
50
0
71
7
72
5
7
iso_b_vert
0
LINE
5
10E
100
AcDbEntity
8
SK2
62
256
6
ByLayer
370
13
48
1
60
0
100
AcDbLine
10
-50
20
-11.5875
30
0
11
-50
21
-30.343428
31
0
39
0
210
0
220
0
230
1
0
LINE
5
10F
100
AcDbEntity
8
SK2
62
256
6
ByLayer
370
13
48
1
60
0
100
AcDbLine
10
77.59
20
-11.4875
30
0
11
77.59
21
-30.343428
31
0
39
0
210
0
220
0
230
1
0
LINE
5
110
100
AcDbEntity
8
SK2
62
256
6
ByLayer
370
13
48
1
60
0
100
AcDbLine
10
-50
20
-28.343428
30
0
11
77.59
21
-28.343428
31
0
39
0
210
0
220
0
230
1
0
SOLID
5
111
100
AcDbEntity
8
SK2
62
256
6
ByLayer
370
13
48
1
60
0
100
AcDbTrace
10
-50
20
-28.343428
30
0
11
-46.500002
21
-27.882645
31
0
12
-46.499998
22
-28.804212
32
0
13
-50
23
-28.343428
33
0
39
0
210
0
220
0
230
1
0
SOLID
5
112
100
AcDbEntity
8
SK2
62
256
6
ByLayer
370
13
48
1
60
0
100
AcDbTrace
10
77.59
20
-28.343428
30
0
11
74.090002
21
-28.804212
31
0
12
74.089998
22
-27.882645
32
0
13
77.59
23
-28.343428
33
0
39
0
210
0
220
0
230
1
0
ENDBLK
5
114
100
AcDbEntity
8
0
100
AcDbBlockEnd
0
BLOCK
5
11E
100
AcDbEntity
8
0
100
AcDbBlockBegin
2
DimnDraft3D6
70
0
10
0
20
0
30
0
3
DimnDraft3D6
0
MTEXT
5
117
100
AcDbEntity
8
SK2
62
256
6
ByLayer
370
13
48
1
60
0
100
AcDbMText
10
-60.375163
20
29.34918
30
0
210
0
220
0
230
1
1
\W0.7421;20,000
40
3.5
41
0
44
1.084337
50
90
71
7
72
5
7
iso_b_vert
0
MTEXT
5
118
100
AcDbEntity
8
SK2
62
256
6
ByLayer
370
13
48
1
60
0
100
AcDbMText
10
-60.375163
20
24.126524
30
0
210
0
220
0
230
1
1
%%c
40
3.5
41
0
44
1.084337
50
90
71
7
72
5
7
iso_b_vert
0
LINE
5
119
100
AcDbEntity
8
SK2
62
256
6
ByLayer
370
13
48
1
60
0
100
AcDbLine
10
-51.5875
20
-10
30
0
11
-60.625163
21
-10
31
0
39
0
210
0
220
0
230
1
0
LINE
5
11A
100
AcDbEntity
8
SK2
62
256
6
ByLayer
370
13
48
1
60
0
100
AcDbLine
10
-51.5875
20
10
30
0
11
-60.625163
21
10
31
0
39
0
210
0
220
0
230
1
0
LINE
5
11B
100
AcDbEntity
8
SK2
62
256
6
ByLayer
370
13
48
1
60
0
100
AcDbLine
10
-58.625163
20
-10
30
0
11
-58.625163
21
41.737338
31
0
39
0
210
0
220
0
230
1
0
SOLID
5
11C
100
AcDbEntity
8
SK2
62
256
6
ByLayer
370
13
48
1
60
0
100
AcDbTrace
10
-58.625163
20
-10
30
0
11
-59.085946
21
-6.500002
31
0
12
-58.164379
22
-6.499998
32
0
13
-58.625163
23
-10
33
0
39
0
210
0
220
0
230
1
0
SOLID
5
11D
100
AcDbEntity
8
SK2
62
256
6
ByLayer
370
13
48
1
60
0
100
AcDbTrace
10
-58.625163
20
10
30
0
11
-58.164379
21
6.500002
31
0
12
-59.085946
22
6.499998
32
0
13
-58.625163
23
10
33
0
39
0
210
0
220
0
230
1
0
ENDBLK
5
11F
100
AcDbEntity
8
0
100
AcDbBlockEnd
0
BLOCK
5
129
100
AcDbEntity
8
0
100
AcDbBlockBegin
2
DimnDraft3D7
70
0
10
0
20
0
30
0
3
DimnDraft3D7
0
MTEXT
5
122
100
AcDbEntity
8
2
62
256
6
ByLayer
370
13
48
1
60
0
100
AcDbMText
10
91.333343
20
27.842266
30
0
210
0
220
0
230
1
1
\W0.6930;19,800
40
3.5
41
0
44
1.084337
50
90
71
7
72
5
7
iso_b_vert
0
MTEXT
5
123
100
AcDbEntity
8
2
62
256
6
ByLayer
370
13
48
1
60
0
100
AcDbMText
10
91.333343
20
22.61961
30
0
210
0
220
0
230
1
1
%%c
40
3.5
41
0
44
1.084337
50
90
71
7
72
5
7
iso_b_vert
0
LINE
5
124
100
AcDbEntity
8
2
62
256
6
ByLayer
370
13
48
1
60
0
100
AcDbLine
10
79.1775
20
-9.9
30
0
11
95.083343
21
-9.9
31
0
39
0
210
0
220
0
230
1
0
LINE
5
125
100
AcDbEntity
8
2
62
256
6
ByLayer
370
13
48
1
60
0
100
AcDbLine
10
79.1775
20
9.9
30
0
11
95.083343
21
9.9
31
0
39
0
210
0
220
0
230
1
0
LINE
5
126
100
AcDbEntity
8
2
62
256
6
ByLayer
370
13
48
1
60
0
100
AcDbLine
10
93.083343
20
-9.9
30
0
11
93.083343
21
39.355424
31
0
39
0
210
0
220
0
230
1
0
SOLID
5
127
100
AcDbEntity
8
2
62
256
6
ByLayer
370
13
48
1
60
0
100
AcDbTrace
10
93.083343
20
-9.9
30
0
11
92.622559
21
-6.400002
31
0
12
93.544126
22
-6.399998
32
0
13
93.083343
23
-9.9
33
0
39
0
210
0
220
0
230
1
0
SOLID
5
128
100
AcDbEntity
8
2
62
256
6
ByLayer
370
13
48
1
60
0
100
AcDbTrace
10
93.083343
20
9.9
30
0
11
93.544126
21
6.400002
31
0
12
92.622559
22
6.399998
32
0
13
93.083343
23
9.9
33
0
39
0
210
0
220
0
230
1
0
ENDBLK
5
12A
100
AcDbEntity
8
0
100
AcDbBlockEnd
0
ENDSEC
0
SECTION
2
ENTITIES
0
ELLIPSE
5
9D
100
AcDbEntity
8
1
62
256
6
ByLayer
370
18
48
1
60
0
100
AcDbEllipse
10
81.00082
20
0.002163
30
0
11
3.62070156618551
21
9.89918138535275
31
0
210
0
220
0
230
-1
40
0.065672
41
2.92356072480038
42
3.00927820778397
0
ELLIPSE
5
9E
100
AcDbEntity
8
1
62
256
6
ByLayer
370
18
48
1
60
0
100
AcDbEllipse
10
80.858791
20
0.182682
30
0
11
0.0868803724406519
21
0.290676908965348
31
0
210
0
220
0
230
-1
40
0.467765
41
1.74726652542801
42
2.36053717402093
0
ELLIPSE
5
9F
100
AcDbEntity
8
1
62
256
6
ByLayer
370
13
48
1
60
0
100
AcDbEllipse
10
4.174595
20
-3.227008
30
0
11
-0.0326976163659575
21
-0.0945032585892395
31
0
210
0
220
0
230
1
40
0.574114
41
-1.68256565825583
42
-0.374282683774069
0
ELLIPSE
5
A0
100
AcDbEntity
8
1
62
256
6
ByLayer
370
18
48
1
60
0
100
AcDbEllipse
10
79.248965
20
4.517932
30
0
11
1.52038187184784
21
-4.15680101495511
31
0
210
0
220
0
230
-1
40
0.065672
41
-1.60910372664809
42
-0.761382749777258
0
ELLIPSE
5
A1
100
AcDbEntity
8
1
62
256
6
ByLayer
370
18
48
1
60
0
100
AcDbEllipse
10
80.992596
20
-0.116432
30
0
11
0.137829328578372
21
0.402528287107712
31
0
210
0
220
0
230
-1
40
0.052723
41
-2.31022812868037
42
-1.52723537608248
0
ELLIPSE
5
A2
100
AcDbEntity
8
1
62
256
6
ByLayer
370
18
48
1
60
0
100
AcDbEllipse
10
81.00082
20
-0.002163
30
0
11
3.62070157969943
21
-9.89918142366563
31
0
210
0
220
0
230
-1
40
0.065672
41
-3.00927820803907
42
-2.92356072522318
0
ELLIPSE
5
A3
100
AcDbEntity
8
1
62
256
6
ByLayer
370
13
48
1
60
0
100
AcDbEllipse
10
79.670547
20
4.38364
30
0
11
6.32067517975925
21
-3.24939163379101
31
0
210
0
220
0
230
-1
40
0.482873
41
1.53949524920353
42
1.88457281079986
0
ELLIPSE
5
A4
100
AcDbEntity
8
1
62
256
6
ByLayer
370
13
48
1
60
0
100
AcDbEllipse
10
4.250125
20
-3.261188
30
0
11
0.0478942953998155
21
0.0877846026826756
31
0
210
0
220
0
230
1
40
0.170997
41
1.26541686342582
42
2.8287054361773
0
ELLIPSE
5
A5
100
AcDbEntity
8
1
62
256
6
ByLayer
370
18
48
1
60
0
100
AcDbEllipse
10
79.248965
20
-4.517932
30
0
11
1.52038187190073
21
4.15680101508121
31
0
210
0
220
0
230
-1
40
0.065672
41
0.761382749776488
42
1.609103726624
0
ELLIPSE
5
A6
100
AcDbEntity
8
1
62
256
6
ByLayer
370
18
48
1
60
0
100
AcDbEllipse
10
80.992596
20
0.116432
30
0
11
0.137829328585987
21
-0.402528287125986
31
0
210
0
220
0
230
-1
40
0.052723
41
1.52723537614869
42
2.31022812872537
0
ELLIPSE
5
A7
100
AcDbEntity
8
1
62
256
6
ByLayer
370
13
48
1
60
0
100
AcDbEllipse
10
79.840006
20
4.517932
30
0
11
6.36953538571627
21
-2.93399603932527
31
0
210
0
220
0
230
-1
40
0.46256
41
1.57288721821808
42
1.91617801665211
0
ELLIPSE
5
A8
100
AcDbEntity
8
1
62
256
6
ByLayer
370
13
48
1
60
0
100
AcDbEllipse
10
78.469542
20
1.36565
30
0
11
0.133113781883907
21
0.268850741253513
31
0
210
0
220
0
230
1
40
0.40558
41
0.884485917130899
42
2.28074931872641
0
POINT
5
6C
100
AcDbEntity
8
81
62
256
6
ByLayer
370
18
48
1
60
0
100
AcDbPoint
10
81
20
0
30
0
39
0
210
0
220
0
230
1
50
360
0
POINT
5
6E
100
AcDbEntity
8
80
62
256
6
ByLayer
370
18
48
1
60
0
100
AcDbPoint
10
0
20
0
30
0
39
0
210
0
220
0
230
1
50
360
0
POINT
5
70
100
AcDbEntity
8
SK2
62
256
6
ByLayer
370
18
48
1
60
1
100
AcDbPoint
10
-50
20
-10
30
0
39
0
210
0
220
0
230
1
50
360
0
POINT
5
72
100
AcDbEntity
8
SK2
62
256
6
ByLayer
370
18
48
1
60
1
100
AcDbPoint
10
-50
20
10
30
0
39
0
210
0
220
0
230
1
50
360
0
POINT
5
73
100
AcDbEntity
8
2
62
256
6
ByLayer
370
18
48
1
60
1
100
AcDbPoint
10
77.59
20
-9.9
30
0
39
0
210
0
220
0
230
1
50
360
0
POINT
5
75
100
AcDbEntity
8
2
62
256
6
ByLayer
370
18
48
1
60
1
100
AcDbPoint
10
77.59
20
9.9
30
0
39
0
210
0
220
0
230
1
50
360
0
SPLINE
5
A9
100
AcDbEntity
8
1
62
256
6
ByLayer
370
18
48
1
60
0
100
AcDbSpline
70
4
71
2
72
6
73
3
40
0
40
0
40
0
40
1
40
1
40
1
41
1
10
49.918541071031
20
-0.0004804173166235
30
0
41
1
10
49.9185254876385
20
-0.0004712948632744
30
0
41
1
10
49.9185099041734
20
-0.0004618635374811
30
0
0
SPLINE
5
AA
100
AcDbEntity
8
1
62
256
6
ByLayer
370
18
48
1
60
0
100
AcDbSpline
70
4
71
3
72
32
73
28
40
0
40
0
40
0
40
0
40
0.0218197226627257
40
0.0478269550217421
40
0.0734204965172035
40
0.112692475054736
40
0.15074610538604
40
0.194780038232186
40
0.236263323953689
40
0.275517384428818
40
0.31734123650619
40
0.367428058013676
40
0.419023470492409
40
0.464452240684606
40
0.520380649807489
40
0.561163061321895
40
0.608381370868965
40
0.650239839296401
40
0.696496181408698
40
0.746860177642148
40
0.796568095576813
40
0.840194100795149
40
0.884411701297463
40
0.931056374615286
40
0.973650155461306
40
0.988537860230476
40
1
40
1
40
1
40
1
41
1
10
51.9942387219393
20
9.45517963170769
30
0
41
1
10
51.8315030162531
20
9.45691565277377
30
0
41
1
10
51.4736050972767
20
9.45992429813307
30
0
41
1
10
50.9196982185422
20
9.46128588116318
30
0
41
1
10
50.2298996193384
20
9.46080821064945
30
0
41
1
10
49.4407505679147
20
9.46012285804528
30
0
41
1
10
48.5000410339662
20
9.45834102219763
30
0
41
1
10
47.5525728350648
20
9.45875451886431
30
0
41
1
10
46.5879064825536
20
9.45894937212222
30
0
41
1
10
45.64135199905
20
9.45888057942148
30
0
41
1
10
44.6280339481861
20
9.45998169241179
30
0
41
1
10
43.5195909717137
20
9.45441285066156
30
0
41
1
10
42.3827959530258
20
9.45582342241912
30
0
41
1
10
41.2076456178366
20
9.45462077267791
30
0
41
1
10
40.1202383138613
20
9.45844512746484
30
0
41
1
10
39.0061619721047
20
9.4530787967179
30
0
41
1
10
38.0036212717611
20
9.45321122173732
30
0
41
1
10
36.9580474969623
20
9.45358586110029
30
0
41
1
10
35.8883577717165
20
9.45515212996463
30
0
41
1
10
34.757967288234
20
9.45053884330005
30
0
41
1
10
33.6479703328721
20
9.4500962134295
30
0
41
1
10
32.5853623426788
20
9.45083049642741
30
0
41
1
10
31.5465628661692
20
9.45182691194248
30
0
41
1
10
30.5154263794806
20
9.45002232398377
30
0
41
1
10
29.7116096057712
20
9.4494458694995
30
0
41
1
10
29.1796662076086
20
9.44912343269706
30
0
41
1
10
28.9761151953817
20
9.44902752410806
30
0
41
1
10
28.8875665094593
20
9.44899363127345
30
0
0
SPLINE
5
AB
100
AcDbEntity
8
1
62
256
6
ByLayer
370
18
48
1
60
0
100
AcDbSpline
70
4
71
3
72
11
73
7
40
0
40
0
40
0
40
0
40
0.202485515621737
40
0.528889956119142
40
0.905756370777974
40
1
40
1
40
1
40
1
41
1
10
75.8958912507674
20
-9.4780915875935
30
0
41
1
10
76.0061672928451
20
-9.47805566359466
30
0
41
1
10
76.2950183412712
20
-9.47794564683502
30
0
41
1
10
76.7960439542936
20
-9.47833924397597
30
0
41
1
10
77.2362799199463
20
-9.47735957420778
30
0
41
1
10
77.4949103435785
20
-9.47934379123961
30
0
41
1
10
77.5466101315608
20
-9.47978837336001
30
0
0
SPLINE
5
AC
100
AcDbEntity
8
1
62
256
6
ByLayer
370
18
48
1
60
0
100
AcDbSpline
70
4
71
3
72
11
73
7
40
0
40
0
40
0
40
0
40
0.0822018945316203
40
0.297250465552226
40
0.580778402972419
40
1
40
1
40
1
40
1
41
1
10
52.100210546154
20
-2.0840727162097
30
0
41
1
10
52.1001843645241
20
-2.08408794862862
30
0
41
1
10
52.1027629417254
20
-2.08558771333151
30
0
41
1
10
52.1229968187281
20
-2.09704107836279
30
0
41
1
10
52.1636250007854
20
-2.12000420727574
30
0
41
1
10
52.1771970990226
20
-2.12773635811894
30
0
41
1
10
52.1818021799683
20
-2.1303881734307
30
0
0
SPLINE
5
AD
100
AcDbEntity
8
1
62
256
6
ByLayer
370
18
48
1
60
0
100
AcDbSpline
70
4
71
3
72
39
73
35
40
0
40
0
40
0
40
0
40
0.0375646539130481
40
0.073101088730885
40
0.102224846282626
40
0.126431278828941
40
0.146871104506353
40
0.164024734383813
40
0.186057838494518
40
0.220057340071707
40
0.255590764355548
40
0.288106691115981
40
0.316501994076448
40
0.34067057491035
40
0.379417366951501
40
0.41521380840095
40
0.447747099839295
40
0.484394045456607
40
0.527179574263522
40
0.563317642923451
40
0.600602517452701
40
0.6307824423327
40
0.662490057332723
40
0.695083630920602
40
0.72852643886642
40
0.767613506193652
40
0.813216229803497
40
0.856787988375474
40
0.895831239418966
40
0.928665749406126
40
0.957469292145703
40
0.97136354353757
40
0.984521870870549
40
1
40
1
40
1
40
1
41
1
10
24.2908094491933
20
-9.44692403551429
30
0
41
1
10
24.6315964115995
20
-9.44674579359818
30
0
41
1
10
25.2965743878286
20
-9.44668958033159
30
0
41
1
10
26.2340609344205
20
-9.44574899522564
30
0
41
1
10
27.0485943478975
20
-9.44815405201408
30
0
41
1
10
27.7087806962367
20
-9.44908697929259
30
0
41
1
10
28.2745448042184
20
-9.44870605542559
30
0
41
1
10
28.8212027210267
20
-9.44907742427108
30
0
41
1
10
29.4913292875669
20
-9.44941290328745
30
0
41
1
10
30.3308485504545
20
-9.44965314111676
30
0
41
1
10
31.2662894313872
20
-9.45172212521967
30
0
41
1
10
32.150360544229
20
-9.45117408870044
30
0
41
1
10
32.9303007075361
20
-9.45059802846419
30
0
41
1
10
33.7673344075891
20
-9.45016454219137
30
0
41
1
10
34.6721956161142
20
-9.45035555621502
30
0
41
1
10
35.6537714809589
20
-9.45464963885155
30
0
41
1
10
36.6160879508585
20
-9.45395770765248
30
0
41
1
10
37.6424881505549
20
-9.45331540919702
30
0
41
1
10
38.7019198820082
20
-9.4528940030319
30
0
41
1
10
39.767186002722
20
-9.45629995939359
30
0
41
1
10
40.7169885362436
20
-9.45772751626888
30
0
41
1
10
41.625871770456
20
-9.45606383684728
30
0
41
1
10
42.4919932987884
20
-9.45544348713841
30
0
41
1
10
43.3879055892555
20
-9.45474348148252
30
0
41
1
10
44.351587846899
20
-9.45883823170789
30
0
41
1
10
45.4345091562629
20
-9.45926744424128
30
0
41
1
10
46.6102975148708
20
-9.45899418382498
30
0
41
1
10
47.7856476300447
20
-9.45822377750119
30
0
41
1
10
48.8438984504294
20
-9.46053601348342
30
0
41
1
10
49.7671045170457
20
-9.46087133557106
30
0
41
1
10
50.4587886730234
20
-9.46078771856961
30
0
41
1
10
50.9666485152048
20
-9.46126842020112
30
0
41
1
10
51.3457167075925
20
-9.46017882363284
30
0
41
1
10
51.6078422698611
20
-9.45982406988594
30
0
41
1
10
51.7504018885851
20
-9.45961274205877
30
0
0
SPLINE
5
AE
100
AcDbEntity
8
1
62
256
6
ByLayer
370
13
48
1
60
0
100
AcDbSpline
70
4
71
3
72
10
73
6
40
0
40
0
40
0
40
0
40
0.0727701464525939
40
0.0727701464525939
40
1
40
1
40
1
40
1
41
1
10
4.12137699218408
20
-3.41065147012841
30
0
41
1
10
4.12144764283118
20
-3.408164804438
30
0
41
1
10
4.12151835615731
20
-3.40567808506279
30
0
41
1
10
4.12249095346434
20
-3.37150509843519
30
0
41
1
10
4.12340295931239
20
-3.33981013540671
30
0
41
1
10
4.12432523389651
20
-3.30810597880526
30
0
0
SPLINE
5
AF
100
AcDbEntity
8
1
62
256
6
ByLayer
370
18
48
1
60
0
100
AcDbSpline
70
4
71
3
72
8
73
4
40
0
40
0
40
0
40
0
40
1
40
1
40
1
40
1
41
1
10
4.00000044456235
20
-9.62145578946559
30
0
41
1
10
4.00000044456235
20
-9.66847091337917
30
0
41
1
10
4.00000044456235
20
-9.71652071670584
30
0
41
1
10
4.00000044456235
20
-9.76560263042336
30
0
0
SPLINE
5
B0
100
AcDbEntity
8
1
62
256
6
ByLayer
370
13
48
1
60
0
100
AcDbSpline
70
4
71
3
72
45
73
41
40
0
40
0
40
0
40
0
40
0.0625000000000002
40
0.0625000000000002
40
0.125
40
0.1875
40
0.1875
40
0.250000000000001
40
0.250000000000001
40
0.281250000000001
40
0.281250000000001
40
0.312500000000001
40
0.312500000000001
40
0.375000000000001
40
0.375000000000001
40
0.437500000000001
40
0.437500000000001
40
0.468750000000001
40
0.468750000000001
40
0.500000000000001
40
0.500000000000001
40
0.562500000000001
40
0.562500000000001
40
0.593750000000001
40
0.593750000000001
40
0.625000000000001
40
0.625000000000001
40
0.750000000000001
40
0.750000000000001
40
0.781250000000001
40
0.781250000000001
40
0.812500000000001
40
0.812500000000001
40
0.875000000000001
40
0.875000000000001
40
0.9375
40
0.9375
40
0.96875
40
0.96875
40
1
40
1
40
1
40
1
41
1
10
4.25020864559716
20
-3.22698458539864
30
0
41
1
10
4.25021223630773
20
-2.89022124503012
30
0
41
1
10
4.25021260178934
20
-2.54622438349122
30
0
41
1
10
4.25020855434906
20
-1.85524830449842
30
0
41
1
10
4.25019977286797
20
-1.15908187709761
30
0
41
1
10
4.25018487528854
20
-0.452708670612765
30
0
41
1
10
4.25016850226137
20
0.258877198481798
30
0
41
1
10
4.25015955492097
20
0.618199424289912
30
0
41
1
10
4.25014647465207
20
1.15114637920809
30
0
41
1
10
4.25014216166522
20
1.32817616575525
30
0
41
1
10
4.25013382017693
20
1.68099540279488
30
0
41
1
10
4.25012978404027
20
1.85713883117145
30
0
41
1
10
4.25011843308477
20
2.38110392714148
30
0
41
1
10
4.25011191473067
20
2.72290894449915
30
0
41
1
10
4.25010212029156
20
3.39201551763355
30
0
41
1
10
4.25009884169648
20
3.71931565935873
30
0
41
1
10
4.25009707052982
20
4.19934259891596
30
0
41
1
10
4.25009700338259
20
4.35752678863039
30
0
41
1
10
4.25009802291873
20
4.67018541861339
30
0
41
1
10
4.25009911367553
20
4.82498480910704
30
0
41
1
10
4.25010423760267
20
5.28123131810116
30
0
41
1
10
4.25011010401377
20
5.57346367439604
30
0
41
1
10
4.25012276701582
20
5.99399760466153
30
0
41
1
10
4.25012764376032
20
6.13150015217579
30
0
41
1
10
4.25013862294279
20
6.39878521028683
30
0
41
1
10
4.25014471884188
20
6.52851853335602
30
0
41
1
10
4.25017810920434
20
7.1580128278145
30
0
41
1
10
4.25021425538569
20
7.60098561294373
30
0
41
1
10
4.25026817935043
20
8.07746571486265
30
0
41
1
10
4.25027939071958
20
8.16877374700405
30
0
41
1
10
4.25030225989644
20
8.34132387323044
30
0
41
1
10
4.2503139508085
20
8.42287150121416
30
0
41
1
10
4.25034955846613
20
8.65357381290818
30
0
41
1
10
4.25037401544287
20
8.78883112321216
30
0
41
1
10
4.25042301549769
20
9.02246549843383
30
0
41
1
10
4.25044756194055
20
9.12084576124116
30
0
41
1
10
4.25048327989427
20
9.23984278590726
30
0
41
1
10
4.25049498542555
20
9.27465351209915
30
0
41
1
10
4.25051750865887
20
9.33382582556794
30
0
41
1
10
4.2505283666323
20
9.35832791149321
30
0
41
1
10
4.25053872725499
20
9.37784524987512
30
0
0
SPLINE
5
B1
100
AcDbEntity
8
1
62
256
6
ByLayer
370
18
48
1
60
0
100
AcDbSpline
70
4
71
3
72
18
73
14
40
0
40
0
40
0
40
0
40
0.0132567620704963
40
0.0132567620704963
40
0.351009039459264
40
0.351009039459264
40
0.435447108806454
40
0.435447108806454
40
0.519885178153645
40
0.519885178153645
40
0.688761316848024
40
0.688761316848024
40
1
40
1
40
1
40
1
41
1
10
49.9594748403899
20
-0.0243148115105782
30
0
41
1
10
50.0191114939282
20
-0.0590368712425402
30
0
41
1
10
50.0787440468462
20
-0.0937562892033839
30
0
41
1
10
51.6575944532199
20
-1.01293588657836
30
0
41
1
10
53.1746969119619
20
-1.8947363835419
30
0
41
1
10
55.0867454934691
20
-2.96160058232553
30
0
41
1
10
55.4699716226522
20
-3.17314742749372
30
0
41
1
10
56.2384395498376
20
-3.59191886403829
30
0
41
1
10
56.6242361162565
20
-3.79941894533115
30
0
41
1
10
57.776759644877
20
-4.40938740593947
30
0
41
1
10
58.5409588155173
20
-4.80082159093612
30
0
41
1
10
60.7074060829053
20
-5.86288560109833
30
0
41
1
10
62.10427989267
20
-6.4911353343617
30
0
41
1
10
63.5050308348344
20
-7.04425568934559
30
0
0
SPLINE
5
B2
100
AcDbEntity
8
1
62
256
6
ByLayer
370
13
48
1
60
0
100
AcDbSpline
70
4
71
3
72
24
73
20
40
0
40
0
40
0
40
0
40
0.0254994694998795
40
0.0254994694998795
40
0.187916224583233
40
0.187916224583233
40
0.26912460212491
40
0.26912460212491
40
0.350332979666587
40
0.350332979666587
40
0.675166489833288
40
0.675166489833288
40
0.837583244916639
40
0.837583244916639
40
0.918791622458317
40
0.918791622458317
40
0.959395811229158
40
0.959395811229158
40
1
40
1
40
1
40
1
41
1
10
63.5050308343057
20
-7.04425568913683
30
0
41
1
10
63.6243570754594
20
-7.09137453866347
30
0
41
1
10
63.7437114525063
20
-7.13794818314116
30
0
41
1
10
64.6235430108001
20
-7.47708312826205
30
0
41
1
10
65.3853774460135
20
-7.74777261524602
30
0
41
1
10
66.5331929893552
20
-8.11626190532212
30
0
41
1
10
66.9166402824525
20
-8.23283698703597
30
0
41
1
10
67.6856517688678
20
-8.45294997906561
30
0
41
1
10
68.0711891180288
20
-8.55643792508081
30
0
41
1
10
69.9907790338656
20
-9.03629141836032
30
0
41
1
10
71.5122537186787
20
-9.30318984695765
30
0
41
1
10
73.7959404463622
20
-9.52109091425771
30
0
41
1
10
74.5574354271668
20
-9.56336488173903
30
0
41
1
10
75.7027111360442
20
-9.5802599385899
30
0
41
1
10
76.0849701332858
20
-9.57813037027788
30
0
41
1
10
76.6594529662872
20
-9.56315003435904
30
0
41
1
10
76.8511296188102
20
-9.55619189229478
30
0
41
1
10
77.2349049329547
20
-9.5383177601523
30
0
41
1
10
77.4270493036645
20
-9.52703942241584
30
0
41
1
10
77.6193329143034
20
-9.51456250115515
30
0
0
SPLINE
5
B3
100
AcDbEntity
8
1
62
256
6
ByLayer
370
18
48
1
60
0
100
AcDbSpline
70
4
71
3
72
30
73
26
40
0
40
0
40
0
40
0
40
0.0534776169757515
40
0.0534776169757515
40
0.106062193810433
40
0.106062193810433
40
0.158646770645115
40
0.158646770645115
40
0.263815924314475
40
0.263815924314475
40
0.368985077983836
40
0.368985077983836
40
0.474154231653197
40
0.474154231653197
40
0.579323385322557
40
0.579323385322557
40
0.684492538991918
40
0.684492538991918
40
0.789661692661279
40
0.789661692661279
40
0.842246269495959
40
0.842246269495959
40
0.894830846330639
40
0.894830846330639
40
1
40
1
40
1
40
1
41
1
10
52.024091783921
20
9.45475380981014
30
0
41
1
10
52.2974880986021
20
9.44857242975004
30
0
41
1
10
52.5708669024837
20
9.43846600262813
30
0
41
1
10
53.1131262370882
20
9.41117896632682
30
0
41
1
10
53.3821387151166
20
9.39408595465213
30
0
41
1
10
53.9208624741947
20
9.3516866459623
30
0
41
1
10
54.1907117431498
20
9.32649938721369
30
0
41
1
10
54.9995672236291
20
9.24002985245858
30
0
41
1
10
55.5366508060008
20
9.16887949880467
30
0
41
1
10
56.6069994752746
20
8.99475342943157
30
0
41
1
10
57.1412114945223
20
8.89336134788402
30
0
41
1
10
58.2078494954476
20
8.66422564585861
30
0
41
1
10
58.7400197151866
20
8.53522885842241
30
0
41
1
10
59.8037883160846
20
8.25322292185734
30
0
41
1
10
60.3359703675053
20
8.10011229159727
30
0
41
1
10
61.4007604880574
20
7.76528373052
30
0
41
1
10
61.9332133697821
20
7.58429648166725
30
0
41
1
10
63.0002825113207
20
7.19884797195365
30
0
41
1
10
63.5353948539423
20
6.99503879498093
30
0
41
1
10
64.3400042064275
20
6.67280785192287
30
0
41
1
10
64.6085503893438
20
6.56256248599755
30
0
41
1
10
65.1464861845793
20
6.33589643089311
30
0
41
1
10
65.4160977606396
20
6.21930783606007
30
0
41
1
10
66.2243273277437
20
5.86324170095361
30
0
41
1
10
66.7626695996834
20
5.61748640478578
30
0
41
1
10
67.3003287667545
20
5.36208437582263
30
0
0
SPLINE
5
B4
100
AcDbEntity
8
1
62
256
6
ByLayer
370
18
48
1
60
0
100
AcDbSpline
70
4
71
3
72
32
73
28
40
0
40
0
40
0
40
0
40
0.0195553452595812
40
0.0195553452595812
40
0.128493640230739
40
0.128493640230739
40
0.237431935201897
40
0.237431935201897
40
0.346370230173055
40
0.346370230173055
40
0.400839377658635
40
0.400839377658635
40
0.455308525144215
40
0.455308525144215
40
0.564246820115373
40
0.564246820115373
40
0.618715967600952
40
0.618715967600952
40
0.673185115086531
40
0.673185115086531
40
0.782123410057687
40
0.782123410057687
40
0.836592557543263
40
0.836592557543263
40
0.891061705028842
40
0.891061705028842
40
1
40
1
40
1
40
1
41
1
10
62.5043165788081
20
7.40286426780847
30
0
41
1
10
62.6024616040181
20
7.44219554482777
30
0
41
1
10
62.7006289640145
20
7.48109833107819
30
0
41
1
10
63.3459580064861
20
7.73374700113015
30
0
41
1
10
63.8937489016314
20
7.93478026612704
30
0
41
1
10
64.9895539001486
20
8.31159977544502
30
0
41
1
10
65.5370141353477
20
8.48776378345394
30
0
41
1
10
66.6373054334043
20
8.80966249980338
30
0
41
1
10
67.1894093113529
20
8.95617033782619
30
0
41
1
10
68.0197453173102
20
9.15438535413446
30
0
41
1
10
68.2971147166595
20
9.21701370426106
30
0
41
1
10
68.8503299518125
20
9.33375852815604
30
0
41
1
10
69.1266176981172
20
9.38784382676292
30
0
41
1
10
69.9541393593424
20
9.53778831793889
30
0
41
1
10
70.5040774017512
20
9.62136003478972
30
0
41
1
10
71.325563667693
20
9.72274396226612
30
0
41
1
10
71.5987076313755
20
9.75254412006521
30
0
41
1
10
72.1451948674224
20
9.80373054506953
30
0
41
1
10
72.4184411697382
20
9.82516877506245
30
0
41
1
10
73.2378075877404
20
9.87727059850087
30
0
41
1
10
73.7836307852217
20
9.8957560189981
30
0
41
1
10
74.600861397667
20
9.89894951811613
30
0
41
1
10
74.8731216801958
20
9.89589035474816
30
0
41
1
10
75.4186098240664
20
9.88161070462175
30
0
41
1
10
75.6916530596168
20
9.87039666554512
30
0
41
1
10
76.5114041569005
20
9.82453882782747
30
0
41
1
10
77.0586808245168
20
9.77770973656584
30
0
41
1
10
77.6064603066801
20
9.71408978879435
30
0
0
SPLINE
5
B5
100
AcDbEntity
8
1
62
256
6
ByLayer
370
13
48
1
60
0
100
AcDbSpline
70
4
71
3
72
10
73
6
40
0
40
0
40
0
40
0
40
0.5
40
0.5
40
1
40
1
40
1
40
1
41
1
10
4.25020864559716
20
-3.22698458539867
30
0
41
1
10
4.22814404250062
20
-3.21983487570716
30
0
41
1
10
4.20657687475165
20
-3.21383985404313
30
0
41
1
10
4.16441660793174
20
-3.2040502217246
30
0
41
1
10
4.14367494078473
20
-3.20025261901884
30
0
41
1
10
4.12432523389651
20
-3.19781275747437
30
0
0
SPLINE
5
B6
100
AcDbEntity
8
1
62
256
6
ByLayer
370
18
48
1
60
0
100
AcDbSpline
70
4
71
3
72
34
73
30
40
0
40
0
40
0
40
0
40
0.0625000000000008
40
0.0625000000000008
40
0.0937500000000013
40
0.0937500000000013
40
0.125000000000002
40
0.125000000000002
40
0.187500000000003
40
0.187500000000003
40
0.218750000000003
40
0.218750000000003
40
0.250000000000003
40
0.250000000000003
40
0.375000000000004
40
0.375000000000004
40
0.437500000000004
40
0.437500000000004
40
0.500000000000004
40
0.500000000000004
40
0.562500000000005
40
0.562500000000005
40
0.625000000000005
40
0.625000000000005
40
0.687500000000005
40
0.687500000000005
40
0.750000000000005
40
0.750000000000005
40
1
40
1
40
1
40
1
41
1
10
67.3003287667547
20
5.36208437582252
30
0
41
1
10
67.2874680801538
20
5.10492607636598
30
0
41
1
10
67.2970599166857
20
4.83938421895033
30
0
41
1
10
67.3453998696079
20
4.42839400592334
30
0
41
1
10
67.3673335052393
20
4.28856865977073
30
0
41
1
10
67.4219272151121
20
4.00842982559524
30
0
41
1
10
67.454458167972
20
3.86842803806033
30
0
41
1
10
67.5667089681918
20
3.44861207008509
30
0
41
1
10
67.6610380090446
20
3.16898665440178
30
0
41
1
10
67.8287267370898
20
2.74988699749304
30
0
41
1
10
67.8890023818377
20
2.61024369792139
30
0
41
1
10
68.0179389213908
20
2.33106544423123
30
0
41
1
10
68.086065032477
20
2.19270477580457
30
0
41
1
10
68.4419032656924
20
1.50927454840624
30
0
41
1
10
68.7758383128287
20
0.985819069591344
30
0
41
1
10
69.3308659716196
20
0.226222310501555
30
0
41
1
10
69.5257204371086
20
-0.0233495684023808
30
0
41
1
10
69.9250731165835
20
-0.506923275272527
30
0
41
1
10
70.1302301407303
20
-0.74191198361504
30
0
41
1
10
70.5498769165277
20
-1.20031324832001
30
0
41
1
10
70.7642863330387
20
-1.42382545098465
30
0
41
1
10
71.2018995472692
20
-1.85994145966336
30
0
41
1
10
71.4253036103708
20
-2.07229685999982
30
0
41
1
10
71.8800362187081
20
-2.48717827162108
30
0
41
1
10
72.1112682219589
20
-2.68982403189563
30
0
41
1
10
72.580954704358
20
-3.08615691965153
30
0
41
1
10
72.8191725945358
20
-3.27961403183568
30
0
41
1
10
74.0167060469756
20
-4.2186780895031
30
0
41
1
10
75.0037767845923
20
-4.88569237881077
30
0
41
1
10
76.0116727267468
20
-5.49230681529644
30
0
0
SPLINE
5
B7
100
AcDbEntity
8
1
62
256
6
ByLayer
370
18
48
1
60
0
100
AcDbSpline
70
4
71
3
72
16
73
12
40
0
40
0
40
0
40
0
40
0.134125383326933
40
0.134125383326933
40
0.307300306661547
40
0.307300306661547
40
0.653650153330775
40
0.653650153330775
40
0.826825076665387
40
0.826825076665387
40
1
40
1
40
1
40
1
41
1
10
8.15955934271216
20
-8.45077355982889
30
0
41
1
10
7.9736586020345
20
-8.50963361243183
30
0
41
1
10
7.78831697229177
20
-8.56673429397773
30
0
41
1
10
7.36516526861203
20
-8.6931498911292
30
0
41
1
10
7.12748704776635
20
-8.76119340955452
30
0
41
1
10
6.42063642733785
20
-8.95407123262987
30
0
41
1
10
5.96077379076541
20
-9.06701906278963
30
0
41
1
10
5.29626978025505
20
-9.20778659935257
30
0
41
1
10
5.07904106840721
20
-9.24988802780035
30
0
41
1
10
4.65559640922379
20
-9.32287289364868
30
0
41
1
10
4.44934955745018
20
-9.35377619703573
30
0
41
1
10
4.25053872725482
20
-9.37784524987521
30
0
0
SPLINE
5
B8
100
AcDbEntity
8
1
62
256
6
ByLayer
370
18
48
1
60
0
100
AcDbSpline
70
4
71
3
72
26
73
22
40
0
40
0
40
0
40
0
40
0.136956149480477
40
0.136956149480477
40
0.317674455681868
40
0.317674455681868
40
0.362854032232215
40
0.362854032232215
40
0.408033608782563
40
0.408033608782563
40
0.498392761883259
40
0.498392761883259
40
0.67911106808465
40
0.67911106808465
40
0.769470221185345
40
0.769470221185345
40
0.814649797735693
40
0.814649797735693
40
0.859829374286041
40
0.859829374286041
40
1
40
1
40
1
40
1
41
1
10
24.8587390118099
20
9.79142058110787
30
0
41
1
10
24.4858427542197
20
9.6647680641768
30
0
41
1
10
24.115373491885
20
9.51872691602327
30
0
41
1
10
23.2593384939957
20
9.13076926228018
30
0
41
1
10
22.7748233558532
20
8.87302924434312
30
0
41
1
10
22.1657978299789
20
8.50619734788569
30
0
41
1
10
22.0440776482632
20
8.43077884656924
30
0
41
1
10
21.8025718560393
20
8.2773639773535
30
0
41
1
10
21.6824981532625
20
8.1991960217303
30
0
41
1
10
21.3239455218077
20
7.9608151199844
30
0
41
1
10
21.0871329608603
20
7.79672708136013
30
0
41
1
10
20.3804313196918
20
7.29301438678348
30
0
41
1
10
19.9142109856679
20
6.94203483043376
30
0
41
1
10
19.2114079721009
20
6.40795451356732
30
0
41
1
10
18.976577425091
20
6.2286380123366
30
0
41
1
10
18.6222604698027
20
5.95943538803567
30
0
41
1
10
18.5036361594994
20
5.86953176230671
30
0
41
1
10
18.2672345510433
20
5.69121956677333
30
0
41
1
10
18.1492834423157
20
5.60267806808346
30
0
41
1
10
17.6660177911102
20
5.24240142619743
30
0
41
1
10
17.3019599299997
20
4.97697101266525
30
0
41
1
10
16.9369703734907
20
4.72128772032767
30
0
0
SPLINE
5
B9
100
AcDbEntity
8
1
62
256
6
ByLayer
370
18
48
1
60
0
100
AcDbSpline
70
4
71
3
72
8
73
4
40
0
40
0
40
0
40
0
40
1
40
1
40
1
40
1
41
1
10
77.4975329353161
20
-9.84186198545649
30
0
41
1
10
77.538157213728
20
-9.73286438023729
30
0
41
1
10
77.5787572363722
20
-9.62376467693412
30
0
41
1
10
77.6193329143031
20
-9.51456250115518
30
0
0
SPLINE
5
BA
100
AcDbEntity
8
1
62
256
6
ByLayer
370
18
48
1
60
0
100
AcDbSpline
70
4
71
3
72
68
73
64
40
0
40
0
40
0
40
0
40
0.0214753538684142
40
0.0214753538684142
40
0.0429507077368283
40
0.0429507077368283
40
0.0859014154736567
40
0.0859014154736567
40
0.128852123210485
40
0.128852123210485
40
0.171802830947313
40
0.171802830947313
40
0.214753538684142
40
0.214753538684142
40
0.236228892552556
40
0.236228892552556
40
0.25770424642097
40
0.25770424642097
40
0.300654954157797
40
0.300654954157797
40
0.32213030802621
40
0.32213030802621
40
0.343605661894624
40
0.343605661894624
40
0.386556369631452
40
0.386556369631452
40
0.408031723499866
40
0.408031723499866
40
0.42950707736828
40
0.42950707736828
40
0.472457785105108
40
0.472457785105108
40
0.515408492841935
40
0.515408492841935
40
0.558359200578763
40
0.558359200578763
40
0.579834554447177
40
0.579834554447177
40
0.601309908315591
40
0.601309908315591
40
0.644260616052418
40
0.644260616052418
40
0.665735969920832
40
0.665735969920832
40
0.687211323789246
40
0.687211323789246
40
0.730162031526074
40
0.730162031526074
40
0.751637385394488
40
0.751637385394488
40
0.773112739262902
40
0.773112739262902
40
0.859014154736556
40
0.859014154736556
40
0.901964862473384
40
0.901964862473384
40
0.944915570210211
40
0.944915570210211
40
0.966390924078625
40
0.966390924078625
40
0.987866277947039
40
0.987866277947039
40
1
40
1
40
1
40
1
41
1
10
77.4975329353161
20
-9.84186198545652
30
0
41
1
10
77.1150243925251
20
-9.86659408929043
30
0
41
1
10
76.7325997684811
20
-9.88328459852158
30
0
41
1
10
75.9674715130565
20
-9.90056279103186
30
0
41
1
10
75.5845062510985
20
-9.9011403692387
30
0
41
1
10
74.437036487218
20
-9.87872759416692
30
0
41
1
10
73.6737661426101
20
-9.83165542968686
30
0
41
1
10
72.1468659411187
20
-9.67425060307158
30
0
41
1
10
71.3828143886342
20
-9.56384827707527
30
0
41
1
10
69.8518768516063
20
-9.28106578063802
30
0
41
1
10
69.0883600211208
20
-9.10939159614088
30
0
41
1
10
67.5613862570281
20
-8.70836915273998
30
0
41
1
10
66.7979069398079
20
-8.47903621873996
30
0
41
1
10
65.6498008492937
20
-8.09389059050818
30
0
41
1
10
65.2670436604744
20
-7.95877278202494
30
0
41
1
10
64.5027072042264
20
-7.67627772404921
30
0
41
1
10
64.1208550224392
20
-7.5288116084821
30
0
41
1
10
62.9754817586045
20
-7.06863804064699
30
0
41
1
10
62.2121458058038
20
-6.73816066641422
30
0
41
1
10
61.064674229033
20
-6.21011860357598
30
0
41
1
10
60.6815752178618
20
-6.02860986082339
30
0
41
1
10
59.9167549124543
20
-5.65680125451718
30
0
41
1
10
59.5347192865293
20
-5.46636543269179
30
0
41
1
10
58.3890639026528
20
-4.88244509452204
30
0
41
1
10
57.6258611198776
20
-4.47639524153306
30
0
41
1
10
56.4789283538671
20
-3.84647335027225
30
0
41
1
10
56.0959294854042
20
-3.63281048015125
30
0
41
1
10
55.3305801426206
20
-3.20037197169589
30
0
41
1
10
54.9483528410403
20
-2.98165543619021
30
0
41
1
10
53.8023488741273
20
-2.31909823529901
30
0
41
1
10
53.0391500226815
20
-1.86901094681579
30
0
41
1
10
51.5105050145906
20
-0.958342791084419
30
0
41
1
10
50.7439732868605
20
-0.497215481412468
30
0
41
1
10
49.2153456364089
20
0.422693331349706
30
0
41
1
10
48.452096916219
20
0.88199489710081
30
0
41
1
10
47.3059297637315
20
1.56515945392908
30
0
41
1
10
46.9236526157903
20
1.79190670030172
30
0
41
1
10
46.1581535840332
20
2.2426177279894
30
0
41
1
10
45.7751015245186
20
2.46647635017868
30
0
41
1
10
44.6280063578136
20
3.13031287708014
30
0
41
1
10
43.8646786708885
20
3.56334049400777
30
0
41
1
10
42.71874383261
20
4.19385542476601
30
0
41
1
10
42.3365990456422
20
4.4008420533784
30
0
41
1
10
41.5714898820668
20
4.80769092478792
30
0
41
1
10
41.1882298283808
20
5.00769923504075
30
0
41
1
10
40.0404056240165
20
5.59404727436643
30
0
41
1
10
39.2768710311497
20
5.96718816065504
30
0
41
1
10
38.1310855510797
20
6.49632860452908
30
0
41
1
10
37.7490467257758
20
6.66757580006836
30
0
41
1
10
36.9842831175884
20
6.99920131365471
30
0
41
1
10
36.6012657951809
20
7.15969649193755
30
0
41
1
10
34.6868434252965
20
7.93205945371031
30
0
41
1
10
33.1631835729302
20
8.45160107955294
30
0
41
1
10
30.8649082810412
20
9.06028315713954
30
0
41
1
10
30.1004962154962
20
9.23391457540393
30
0
41
1
10
28.5725952480973
20
9.51996942004084
30
0
41
1
10
27.8087606432993
20
9.63246889841849
30
0
41
1
10
26.6603390524874
20
9.75403186834504
30
0
41
1
10
26.2770658408509
20
9.7866730328463
30
0
41
1
10
25.512006335311
20
9.83586267443769
30
0
41
1
10
25.1298551908896
20
9.85244895577637
30
0
41
1
10
24.5319308910475
20
9.86586958445079
30
0
41
1
10
24.3161000430181
20
9.86815857040708
30
0
41
1
10
24.1002600577644
20
9.86789122656884
30
0
0
SPLINE
5
BB
100
AcDbEntity
8
1
62
256
6
ByLayer
370
13
48
1
60
0
100
AcDbSpline
70
4
71
3
72
8
73
4
40
0
40
0
40
0
40
0
40
1
40
1
40
1
40
1
41
1
10
4.12432523389651
20
-3.30810597880526
30
0
41
1
10
4.14783712187474
20
-3.3162085498879
30
0
41
1
10
4.17363232668743
20
-3.32788802106174
30
0
41
1
10
4.19993593624196
20
-3.34219002058643
30
0
0
SPLINE
5
BC
100
AcDbEntity
8
1
62
256
6
ByLayer
370
18
48
1
60
0
100
AcDbSpline
70
4
71
3
72
16
73
12
40
0
40
0
40
0
40
0
40
0.178951911809728
40
0.178951911809728
40
0.422586344659916
40
0.422586344659916
40
0.54440356108501
40
0.54440356108501
40
0.666220777510104
40
0.666220777510104
40
1
40
1
40
1
40
1
41
1
10
24.2893166560779
20
-9.44700301796297
30
0
41
1
10
23.7295275040551
20
-9.44615025855455
30
0
41
1
10
23.1701538244248
20
-9.42883692868122
30
0
41
1
10
21.848452298051
20
-9.34922393815575
30
0
41
1
10
21.0858752770277
20
-9.27291962122962
30
0
41
1
10
19.9385027348011
20
-9.11334845708413
30
0
41
1
10
19.5554310492567
20
-9.05262561099306
30
0
41
1
10
18.7876305947798
20
-8.91616934200877
30
0
41
1
10
18.4022673051107
20
-8.84029437313623
30
0
41
1
10
16.9629152686938
20
-8.52984551585305
30
0
41
1
10
15.9164213673221
20
-8.25001623154174
30
0
41
1
10
14.8730222032958
20
-7.92331906372632
30
0
0
SPLINE
5
BD
100
AcDbEntity
8
1
62
256
6
ByLayer
370
13
48
1
60
0
100
AcDbSpline
70
4
71
3
72
16
73
12
40
0
40
0
40
0
40
0
40
0.136069076653044
40
0.136069076653044
40
0.568034538326522
40
0.568034538326522
40
0.676025903744892
40
0.676025903744892
40
0.784017269163261
40
0.784017269163261
40
1
40
1
40
1
40
1
41
1
10
14.8730222042969
20
-7.92331906403979
30
0
41
1
10
14.3932111353828
20
-7.77308613047947
30
0
41
1
10
13.9140544966985
20
-7.61294225575063
30
0
41
1
10
11.9145039641752
20
-6.90527166421353
30
0
41
1
10
10.3966225119118
20
-6.27190722529363
30
0
41
1
10
8.48346439360836
20
-5.38325463013726
30
0
41
1
10
8.10004213662819
20
-5.20066562927744
30
0
41
1
10
7.33129171827733
20
-4.82617726660675
30
0
41
1
10
6.94563387628119
20
-4.63411254841523
30
0
41
1
10
5.7903590571818
20
-4.04789276726672
30
0
41
1
10
5.02085499174424
20
-3.64303927071273
30
0
41
1
10
4.25020864559707
20
-3.22698458539861
30
0
0
SPLINE
5
BE
100
AcDbEntity
8
1
62
256
6
ByLayer
370
18
48
1
60
0
100
AcDbSpline
70
4
71
3
72
68
73
64
40
0
40
0
40
0
40
0
40
0.0486038792659069
40
0.0486038792659069
40
0.116560745032616
40
0.116560745032616
40
0.184517610799326
40
0.184517610799326
40
0.320431342332746
40
0.320431342332746
40
0.388388208099456
40
0.388388208099456
40
0.422366640982812
40
0.422366640982812
40
0.456345073866167
40
0.456345073866167
40
0.592258805399586
40
0.592258805399586
40
0.660215671166296
40
0.660215671166296
40
0.694194104049651
40
0.694194104049651
40
0.698441408160071
40
0.698441408160071
40
0.700565060215281
40
0.700565060215281
40
0.702688712270491
40
0.702688712270491
40
0.706936016380912
40
0.706936016380912
40
0.709059668436123
40
0.709059668436123
40
0.711183320491334
40
0.711183320491334
40
0.728172536933021
40
0.728172536933021
40
0.762150969816394
40
0.762150969816394
40
0.796129402699767
40
0.796129402699767
40
0.80462401092061
40
0.80462401092061
40
0.813118619141453
40
0.813118619141453
40
0.830107835583139
40
0.830107835583139
40
0.838602443803982
40
0.838602443803982
40
0.847097052024825
40
0.847097052024825
40
0.864086268466511
40
0.864086268466511
40
0.881075484908197
40
0.881075484908197
40
0.898064701349883
40
0.898064701349883
40
0.932043134233256
40
0.932043134233256
40
0.949032350674942
40
0.949032350674942
40
0.966021567116628
40
0.966021567116628
40
1
40
1
40
1
40
1
41
1
10
22.7233381773584
20
-9.86704327777767
30
0
41
1
10
22.3235393905432
20
-9.86658224895135
30
0
41
1
10
21.9215602736382
20
-9.85850279488182
30
0
41
1
10
20.9515110795965
20
-9.8226576185439
30
0
41
1
10
20.38041255871
20
-9.78827316132714
30
0
41
1
10
19.2333942512852
20
-9.69833919064328
30
0
41
1
10
18.6566467017287
20
-9.64278565864791
30
0
41
1
10
16.9137024765615
20
-9.45374098455088
30
0
41
1
10
15.7346692436797
20
-9.29778619778924
30
0
41
1
10
13.930225460263
20
-9.05998170648792
30
0
41
1
10
13.3227933661025
20
-8.98010098838694
30
0
41
1
10
12.4017187302429
20
-8.86444853455043
30
0
41
1
10
12.0930414003759
20
-8.82659036759884
30
0
41
1
10
11.4722350475998
20
-8.75306983728154
30
0
41
1
10
11.1597248012416
20
-8.71736732467829
30
0
41
1
10
9.59361691397754
20
-8.54686170696428
30
0
41
1
10
8.33051883324134
20
-8.43687328858996
30
0
41
1
10
6.41892836866492
20
-8.3374334797027
30
0
41
1
10
5.77891249039149
20
-8.31506170240689
30
0
41
1
10
4.81440749100256
20
-8.29972775523476
30
0
41
1
10
4.49247104515888
20
-8.29765604063317
30
0
41
1
10
4.13054953804806
20
-8.29885649675484
30
0
41
1
10
4.09034131723462
20
-8.29903881778446
30
0
41
1
10
4.03003692746037
20
-8.29938586431385
30
0
41
1
10
4.00993245259912
20
-8.29947373985587
30
0
41
1
10
3.96989175090809
20
-8.30120811806438
30
0
41
1
10
3.94993561555094
20
-8.30267019023168
30
0
41
1
10
3.89030010302329
20
-8.30920576633497
30
0
41
1
10
3.85060009189814
20
-8.3165131146103
30
0
41
1
10
3.80021749210698
20
-8.33301194293335
30
0
41
1
10
3.78509356314316
20
-8.33977487090147
30
0
41
1
10
3.75415206221655
20
-8.35272811803014
30
0
41
1
10
3.73872627307145
20
-8.35921979094024
30
0
41
1
10
3.60030669008984
20
-8.41778071233006
30
0
41
1
10
3.48026935434035
20
-8.47077952239977
30
0
41
1
10
3.1337963063462
20
-8.63115022432791
30
0
41
1
10
2.91960791737614
20
-8.74036511775626
30
0
41
1
10
2.53816593987946
20
-8.96221783439611
30
0
41
1
10
2.37729067400889
20
-9.07122677584039
30
0
41
1
10
2.22365084714244
20
-9.20225787273299
30
0
41
1
10
2.19532000711874
20
-9.22819757586697
30
0
41
1
10
2.1438226731575
20
-9.27944850906837
30
0
41
1
10
2.12059992445475
20
-9.30484955028297
30
0
41
1
10
2.06031539581949
20
-9.3786145797869
30
0
41
1
10
2.03218826878072
20
-9.42491327600524
30
0
41
1
10
2.00805603114045
20
-9.48972813503167
30
0
41
1
10
2.00302370731308
20
-9.51056058095546
30
0
41
1
10
1.9990003076031
20
-9.55062328694302
30
0
41
1
10
2.00003201729354
20
-9.56992880064195
30
0
41
1
10
2.01206662546309
20
-9.62473813290856
30
0
41
1
10
2.03182608430302
20
-9.65706038833122
30
0
41
1
10
2.09191332892968
20
-9.71395112266626
30
0
41
1
10
2.13231669520292
20
-9.73854585128339
30
0
41
1
10
2.23120429123611
20
-9.78037814121373
30
0
41
1
10
2.28880359289275
20
-9.79728741490138
30
0
41
1
10
2.48146888996445
20
-9.83783720593357
30
0
41
1
10
2.6361703650004
20
-9.85139571084184
30
0
41
1
10
2.89631763977639
20
-9.85603116927342
30
0
41
1
10
2.9876468321587
20
-9.85490906382307
30
0
41
1
10
3.17588433061064
20
-9.84805559809581
30
0
41
1
10
3.27310487896727
20
-9.84233066162068
30
0
41
1
10
3.57254641864751
20
-9.81911388643229
30
0
41
1
10
3.78247220476311
20
-9.79562409037484
30
0
41
1
10
4.00000044452952
20
-9.76560263042791
30
0
0
SPLINE
5
BF
100
AcDbEntity
8
1
62
256
6
ByLayer
370
13
48
1
60
0
100
AcDbSpline
70
4
71
3
72
12
73
8
40
0
40
0
40
0
40
0
40
0.500000000000008
40
0.500000000000008
40
0.750000000000004
40
0.750000000000004
40
1
40
1
40
1
40
1
41
1
10
4.00000044456232
20
-3.14955747677584
30
0
41
1
10
4.00000044456226
20
-3.15909277701169
30
0
41
1
10
4.01077524028676
20
-3.16874969866544
30
0
41
1
10
4.0420459022539
20
-3.18123415894894
30
0
41
1
10
4.05522664468941
20
-3.18518426573578
30
0
41
1
10
4.0863026950683
20
-3.19219456022304
30
0
41
1
10
4.10403272252992
20
-3.19525401493573
30
0
41
1
10
4.12432523389654
20
-3.19781275747437
30
0
0
SPLINE
5
C0
100
AcDbEntity
8
1
62
256
6
ByLayer
370
18
48
1
60
0
100
AcDbSpline
70
4
71
3
72
18
73
14
40
0
40
0
40
0
40
0
40
0.249999999999999
40
0.249999999999999
40
0.374999999999998
40
0.374999999999998
40
0.499999999999998
40
0.499999999999998
40
0.624999999999997
40
0.624999999999997
40
0.749999999999997
40
0.749999999999997
40
1
40
1
40
1
40
1
41
1
10
79.4635227125232
20
-4.77690274267951
30
0
41
1
10
79.3090601786749
20
-5.19215158254826
30
0
41
1
10
79.1545492556034
20
-5.60676939171771
30
0
41
1
10
78.9226518446852
20
-6.22698742698722
30
0
41
1
10
78.8453243047636
20
-6.43335637694506
30
0
41
1
10
78.6906458305641
20
-6.84578919742506
30
0
41
1
10
78.6132997974742
20
-7.05191698300615
30
0
41
1
10
78.4585792294421
20
-7.46380086926408
30
0
41
1
10
78.3812054791283
20
-7.66956720206645
30
0
41
1
10
78.2264049007013
20
-8.08040769452515
30
0
41
1
10
78.1489663060067
20
-8.28532840939462
30
0
41
1
10
77.9166058884194
20
-8.89950850061948
30
0
41
1
10
77.7616815800305
20
-9.30873546429706
30
0
41
1
10
77.6064603066887
20
-9.71408978879336
30
0
0
SPLINE
5
C1
100
AcDbEntity
8
1
62
256
6
ByLayer
370
18
48
1
60
0
100
AcDbSpline
70
4
71
3
72
26
73
22
40
0
40
0
40
0
40
0
40
0.0625000000000004
40
0.0625000000000004
40
0.125000000000001
40
0.125000000000001
40
0.187500000000001
40
0.187500000000001
40
0.250000000000002
40
0.250000000000002
40
0.375000000000001
40
0.375000000000001
40
0.500000000000001
40
0.500000000000001
40
0.750000000000001
40
0.750000000000001
40
0.8125
40
0.8125
40
0.875
40
0.875
40
1
40
1
40
1
40
1
41
1
10
4.25053872724811
20
9.377845249876
30
0
41
1
10
4.44880043212237
20
9.35384267694803
30
0
41
1
10
4.65451684691476
20
9.32303561053115
30
0
41
1
10
5.07695679302995
20
9.25027045531499
30
0
41
1
10
5.29371073180212
20
9.20829295898133
30
0
41
1
10
5.73582359820034
20
9.11470743840559
30
0
41
1
10
5.96119654304388
20
9.0630902469992
30
0
41
1
10
6.4189150214709
20
8.95127802256843
30
0
41
1
10
6.65147848374801
20
8.89103285262951
30
0
41
1
10
7.35659201600032
20
8.69877340312706
30
0
41
1
10
7.83282318246037
20
8.55608152769182
30
0
41
1
10
8.79340718920824
20
8.24751460962648
30
0
41
1
10
9.27803472392759
20
8.08029526239898
30
0
41
1
10
10.7426168325607
20
7.54302879023902
30
0
41
1
10
11.7326195469753
20
7.13834147251808
30
0
41
1
10
12.9883697552831
20
6.59215292708512
30
0
41
1
10
13.2407566242907
20
6.48067800267418
30
0
41
1
10
13.7459763759853
20
6.25381851707093
30
0
41
1
10
13.998889498151
20
6.13854306210413
30
0
41
1
10
14.7589451079824
20
5.78831185429158
30
0
41
1
10
15.2673982644458
20
5.54898162248477
30
0
41
1
10
15.7787946900194
20
5.30672156935495
30
0
0
SPLINE
5
C2
100
AcDbEntity
8
1
62
256
6
ByLayer
370
18
48
1
60
0
100
AcDbSpline
70
4
71
3
72
14
73
10
40
0
40
0
40
0
40
0
40
0.385059233612777
40
0.385059233612777
40
0.577588850419166
40
0.577588850419166
40
0.770118467225554
40
0.770118467225554
40
1
40
1
40
1
40
1
41
1
10
4.19993593624199
20
-3.34219002058643
30
0
41
1
10
4.97102380054673
20
-3.76145180463624
30
0
41
1
10
5.74093626377726
20
-4.16909445499874
30
0
41
1
10
6.89679623594407
20
-4.75889620519408
30
0
41
1
10
7.28264824370274
20
-4.95205690800128
30
0
41
1
10
8.05174094472952
20
-5.32847877463954
30
0
41
1
10
8.43531423757588
20
-5.51191552071484
30
0
41
1
10
9.27512427033062
20
-5.90345209943933
30
0
41
1
10
9.73101562375757
20
-6.10945964591687
30
0
41
1
10
10.186177409313
20
-6.30792646741779
30
0
0
SPLINE
5
C3
100
AcDbEntity
8
1
62
256
6
ByLayer
370
13
48
1
60
0
100
AcDbSpline
70
4
71
3
72
18
73
14
40
0
40
0
40
0
40
0
40
0.199828863181482
40
0.199828863181482
40
0.48468884242979
40
0.48468884242979
40
0.555903837241867
40
0.555903837241867
40
0.627118832053944
40
0.627118832053944
40
0.769548821678099
40
0.769548821678099
40
1
40
1
40
1
40
1
41
1
10
10.1861770781004
20
-6.30792632299725
30
0
41
1
10
11.2558377433621
20
-6.77433664742259
30
0
41
1
10
12.321469139961
20
-7.19910094632334
30
0
41
1
10
14.9094517973631
20
-8.11359505414435
30
0
41
1
10
16.4322898456039
20
-8.55488966002446
30
0
41
1
10
18.357529170878
20
-8.96474151811395
30
0
41
1
10
18.7430708198492
20
-9.03946537628491
30
0
41
1
10
19.5111937817364
20
-9.17341006406855
30
0
41
1
10
19.8944139740851
20
-9.23277119154739
30
0
41
1
10
21.0422092902238
20
-9.38796048575344
30
0
41
1
10
21.8050243469943
20
-9.46093847176962
30
0
41
1
10
23.8005782033322
20
-9.57144187401909
30
0
41
1
10
25.0322852694492
20
-9.55921277362438
30
0
41
1
10
26.2704686922316
20
-9.46589484860377
30
0
0
SPLINE
5
C4
100
AcDbEntity
8
1
62
256
6
ByLayer
370
18
48
1
60
0
100
AcDbSpline
70
4
71
3
72
50
73
46
40
0
40
0
40
0
40
0
40
0.0624999999999995
40
0.0624999999999995
40
0.124999999999999
40
0.124999999999999
40
0.249999999999998
40
0.249999999999998
40
0.374999999999997
40
0.374999999999997
40
0.499999999999996
40
0.499999999999996
40
0.562499999999997
40
0.562499999999997
40
0.624999999999998
40
0.624999999999998
40
0.687499999999999
40
0.687499999999999
40
0.75
40
0.75
40
0.765624999999998
40
0.765624999999998
40
0.781249999999996
40
0.781249999999996
40
0.812499999999992
40
0.812499999999992
40
0.828124999999993
40
0.828124999999993
40
0.843749999999994
40
0.843749999999994
40
0.874999999999995
40
0.874999999999995
40
0.890624999999996
40
0.890624999999996
40
0.906249999999996
40
0.906249999999996
40
0.921874999999997
40
0.921874999999997
40
0.937499999999998
40
0.937499999999998
40
0.953124999999998
40
0.953124999999998
40
0.968749999999999
40
0.968749999999999
40
1
40
1
40
1
40
1
41
1
10
67.3003287667547
20
5.36208437582255
30
0
41
1
10
67.492640429347
20
5.19064044905062
30
0
41
1
10
67.6870619307273
20
5.02262969228323
30
0
41
1
10
68.0803304922119
20
4.69380953249669
30
0
41
1
10
68.278902934891
20
4.53324730194282
30
0
41
1
10
68.8774783825039
20
4.06573981443077
30
0
41
1
10
69.2814692984438
20
3.77193832037767
30
0
41
1
10
70.099643843404
20
3.22120227372744
30
0
41
1
10
70.5138161856301
20
2.96422689690934
30
0
41
1
10
71.3532209144138
20
2.49028021320609
30
0
41
1
10
71.7784583159991
20
2.27332704562636
30
0
41
1
10
72.4259564719113
20
1.98277250563228
30
0
41
1
10
72.6427393015333
20
1.89209072189757
30
0
41
1
10
73.0747422170005
20
1.7252299820525
30
0
41
1
10
73.2904696450299
20
1.6488238349099
30
0
41
1
10
73.7213418828133
20
1.51094583606562
30
0
41
1
10
73.9364867737457
20
1.44947190351263
30
0
41
1
10
74.3661405786929
20
1.34282607969419
30
0
41
1
10
74.5808865981414
20
1.29763060392523
30
0
41
1
10
74.8469221165772
20
1.25273395641861
30
0
41
1
10
74.9000850142749
20
1.24401150897978
30
0
41
1
10
75.0059824013145
20
1.22905610706286
30
0
41
1
10
75.0584717116
20
1.22310042363614
30
0
41
1
10
75.2146436463329
20
1.20916481046464
30
0
41
1
10
75.3169518794134
20
1.2055277546531
30
0
41
1
10
75.4666410787407
20
1.2118807778995
30
0
41
1
10
75.5158982567486
20
1.21599898715513
30
0
41
1
10
75.6127796350334
20
1.22934604020392
30
0
41
1
10
75.6606209692906
20
1.2386811271497
30
0
41
1
10
75.7991324381321
20
1.27509298389646
30
0
41
1
10
75.8852336013865
20
1.30983803390615
30
0
41
1
10
76.0024626976961
20
1.38196194247087
30
0
41
1
10
76.0395189884365
20
1.40952725796146
30
0
41
1
10
76.1068325997809
20
1.4710490160374
30
0
41
1
10
76.1373494395305
20
1.5051529750987
30
0
41
1
10
76.1913178654072
20
1.58088317493633
30
0
41
1
10
76.214931871784
20
1.62296095858312
30
0
41
1
10
76.2527919315006
20
1.71249321028446
30
0
41
1
10
76.2671852603243
20
1.7600742246623
30
0
41
1
10
76.2873684282361
20
1.86057446379675
30
0
41
1
10
76.293194163309
20
1.91383964954369
30
0
41
1
10
76.2972541475148
20
2.02332717183757
30
0
41
1
10
76.2955228006542
20
2.07905117256044
30
0
41
1
10
76.2810341475051
20
2.24864543636767
30
0
41
1
10
76.2586910588911
20
2.36559408645428
30
0
41
1
10
76.2272173634879
20
2.48350894266309
30
0
0
SPLINE
5
C5
100
AcDbEntity
8
1
62
256
6
ByLayer
370
18
48
1
60
0
100
AcDbSpline
70
4
71
3
72
10
73
6
40
0
40
0
40
0
40
0
40
0.643898575291341
40
0.643898575291341
40
1
40
1
40
1
40
1
41
1
10
77.4975329353161
20
9.84186198545649
30
0
41
1
10
77.115053916024
20
9.86659218037033
30
0
41
1
10
76.732605317121
20
9.88328548289201
30
0
41
1
10
76.1383477654204
20
9.89670349017115
30
0
41
1
10
75.9266378663599
20
9.89901417833585
30
0
41
1
10
75.7149901080797
20
9.89886207532976
30
0
0
SPLINE
5
C6
100
AcDbEntity
8
1
62
256
6
ByLayer
370
18
48
1
60
0
100
AcDbSpline
70
4
71
3
72
30
73
26
40
0
40
0
40
0
40
0
40
0.0717551960986696
40
0.0717551960986696
40
0.164579676488801
40
0.164579676488801
40
0.257404156878932
40
0.257404156878932
40
0.303816397073998
40
0.303816397073998
40
0.350228637269065
40
0.350228637269065
40
0.443053117659197
40
0.443053117659197
40
0.489465357854264
40
0.489465357854264
40
0.535877598049331
40
0.535877598049331
40
0.628702078439465
40
0.628702078439465
40
0.721526558829599
40
0.721526558829599
40
0.814351039219733
40
0.814351039219733
40
1
40
1
40
1
40
1
41
1
10
28.814356173456
20
-9.46989531051412
30
0
41
1
10
28.2236985716216
20
-9.56969426469186
30
0
41
1
10
27.6327536231231
20
-9.65115438424579
30
0
41
1
10
26.2745127823845
20
-9.79480133082413
30
0
41
1
10
25.5097381675705
20
-9.84398191005172
30
0
41
1
10
23.981585629979
20
-9.87816255158012
30
0
41
1
10
23.2177334033047
20
-9.86323172787527
30
0
41
1
10
22.0693588958036
20
-9.79271502298539
30
0
41
1
10
21.6859939135956
20
-9.76116224398646
30
0
41
1
10
20.9207311912869
20
-9.68232923548288
30
0
41
1
10
20.5384932252421
20
-9.63503377524557
30
0
41
1
10
19.3921217845672
20
-9.46989252116146
30
0
41
1
10
18.6283712361293
20
-9.32878316270694
30
0
41
1
10
17.4805461262411
20
-9.07196549011877
30
0
41
1
10
17.0972148204212
20
-8.97874042147544
30
0
41
1
10
16.331456197833
20
-8.77798598482099
30
0
41
1
10
15.9490399969163
20
-8.67047868118439
30
0
41
1
10
14.8023344637209
20
-8.32733248689334
30
0
41
1
10
14.0385703078244
20
-8.07109438796547
30
0
41
1
10
12.5086349076373
20
-7.50721540006418
30
0
41
1
10
11.7414216515172
20
-7.19872270120311
30
0
41
1
10
10.2148087038256
20
-6.54057511782131
30
0
41
1
10
9.45386793283538
20
-6.19043264173808
30
0
41
1
10
7.17249104096467
20
-5.08479380976939
30
0
41
1
10
5.65381756514739
20
-4.27362101102187
30
0
41
1
10
4.12137699218127
20
-3.41065147011767
30
0
0
SPLINE
5
C7
100
AcDbEntity
8
1
62
256
6
ByLayer
370
18
48
1
60
0
100
AcDbSpline
70
2053
71
3
72
90
73
86
40
0
40
0
40
0
40
0
40
0.0312500000000039
40
0.0312500000000039
40
0.0468750000000039
40
0.0468750000000039
40
0.0625000000000039
40
0.0625000000000039
40
0.0937500000000006
40
0.0937500000000006
40
0.109375000000001
40
0.109375000000001
40
0.125
40
0.125
40
0.140625
40
0.140625
40
0.15625
40
0.15625
40
0.171875
40
0.171875
40
0.1875
40
0.1875
40
0.21875
40
0.21875
40
0.25
40
0.25
40
0.28125
40
0.28125
40
0.312499999999999
40
0.312499999999999
40
0.343749999999999
40
0.343749999999999
40
0.374999999999999
40
0.374999999999999
40
0.406249999999999
40
0.406249999999999
40
0.437499999999999
40
0.437499999999999
40
0.468749999999999
40
0.468749999999999
40
0.499999999999999
40
0.499999999999999
40
0.515624999999999
40
0.515624999999999
40
0.531249999999998
40
0.531249999999998
40
0.562499999999998
40
0.562499999999998
40
0.578124999999998
40
0.578124999999998
40
0.593749999999998
40
0.593749999999998
40
0.609374999999998
40
0.609374999999998
40
0.624999999999998
40
0.624999999999998
40
0.640624999999998
40
0.640624999999998
40
0.656249999999998
40
0.656249999999998
40
0.687499999999998
40
0.687499999999998
40
0.703124999999998
40
0.703124999999998
40
0.718749999999998
40
0.718749999999998
40
0.734374999999998
40
0.734374999999998
40
0.749999999999998
40
0.749999999999998
40
0.781249999999998
40
0.781249999999998
40
0.812499999999999
40
0.812499999999999
40
0.843749999999999
40
0.843749999999999
40
0.874999999999999
40
0.874999999999999
40
0.906249999999999
40
0.906249999999999
40
0.9375
40
0.9375
40
0.96875
40
0.96875
40
1
40
1
40
1
40
1
41
1
10
78.5104745512947
20
-5.292798014945
30
0
41
1
10
78.5612282016386
20
-5.22036287259672
30
0
41
1
10
78.6109325163765
20
-5.14272729142172
30
0
41
1
10
78.6837759245953
20
-5.01778408677023
30
0
41
1
10
78.707769647864
20
-4.97471195277501
30
0
41
1
10
78.7551285302341
20
-4.88545256176781
30
0
41
1
10
78.7785493401405
20
-4.83912268864009
30
0
41
1
10
78.8461702645135
20
-4.69828266274695
30
0
41
1
10
78.8882859862456
20
-4.6010283985012
30
0
41
1
10
78.9463051407577
20
-4.44930410026376
30
0
41
1
10
78.9646927297372
20
-4.39790350223643
30
0
41
1
10
78.9985007581142
20
-4.29621747175332
30
0
41
1
10
79.0140699145417
20
-4.24555446415255
30
0
41
1
10
79.0424627300103
20
-4.14459868353461
30
0
41
1
10
79.0552871966511
20
-4.09430580161143
30
0
41
1
10
79.0780053174848
20
-3.99411526237225
30
0
41
1
10
79.0877290346853
20
-3.94488368129816
30
0
41
1
10
79.1036369356842
20
-3.84996136692163
30
0
41
1
10
79.1098904126416
20
-3.80396918125035
30
0
41
1
10
79.1190512947705
20
-3.71487534835234
30
0
41
1
10
79.1219575227544
20
-3.67148322723193
30
0
41
1
10
79.125530930547
20
-3.54856076518058
30
0
41
1
10
79.1212634899023
20
-3.475800903622
30
0
41
1
10
79.1008330040181
20
-3.34671830105901
30
0
41
1
10
79.0849645990549
20
-3.29237611394612
30
0
41
1
10
79.0438289324264
20
-3.20150322649425
30
0
41
1
10
79.0183847541942
20
-3.16505211731979
30
0
41
1
10
78.9610175590473
20
-3.1103185594416
30
0
41
1
10
78.9288944330049
20
-3.09154139857657
30
0
41
1
10
78.8583979455169
20
-3.06959594168689
30
0
41
1
10
78.8199877300969
20
-3.06659909734191
30
0
41
1
10
78.7395821994409
20
-3.07544546973185
30
0
41
1
10
78.697310572423
20
-3.08717946545849
30
0
41
1
10
78.6087485805641
20
-3.12484861251886
30
0
41
1
10
78.5624837021584
20
-3.15088642018952
30
0
41
1
10
78.4685248644144
20
-3.21567067523702
30
0
41
1
10
78.4205184868659
20
-3.25452731846036
30
0
41
1
10
78.3223829407603
20
-3.34560318328195
30
0
41
1
10
78.2718241684414
20
-3.39834521462657
30
0
41
1
10
78.1709518516896
20
-3.51581253556299
30
0
41
1
10
78.1206167221562
20
-3.58042763802285
30
0
41
1
10
78.0452794826608
20
-3.68698232166315
30
0
41
1
10
78.0201948163933
20
-3.72411584836351
30
0
41
1
10
77.9700860198186
20
-3.801907031393
30
0
41
1
10
77.9450825661273
20
-3.84255742028955
30
0
41
1
10
77.8717266046015
20
-3.96764431988297
30
0
41
1
10
77.8245022074564
20
-4.05593210026575
30
0
41
1
10
77.756589488189
20
-4.19688782194615
30
0
41
1
10
77.7343539210031
20
-4.24554238893984
30
0
41
1
10
77.6920537106485
20
-4.34355454925046
30
0
41
1
10
77.6718646538545
20
-4.39314757067581
30
0
41
1
10
77.6335020609931
20
-4.49356455290035
30
0
41
1
10
77.6153276723767
20
-4.54438799302213
30
0
41
1
10
77.5811709470246
20
-4.64737362554612
30
0
41
1
10
77.5654214759126
20
-4.6988808246717
30
0
41
1
10
77.5370883419637
20
-4.8002451707529
30
0
41
1
10
77.5244165534262
20
-4.85036478361761
30
0
41
1
10
77.5021099905151
20
-4.94946102843448
30
0
41
1
10
77.4924219439753
20
-4.9987722138377
30
0
41
1
10
77.4685497065539
20
-5.14246324294274
30
0
41
1
10
77.4596402418691
20
-5.23119654597679
30
0
41
1
10
77.4560226509935
20
-5.35447287704281
30
0
41
1
10
77.4564856783146
20
-5.39368322221517
30
0
41
1
10
77.4604927726086
20
-5.46699899574096
30
0
41
1
10
77.4640273322746
20
-5.50136289499619
30
0
41
1
10
77.4739694002285
20
-5.56578602051144
30
0
41
1
10
77.4804207199663
20
-5.59598093393802
30
0
41
1
10
77.4958858776869
20
-5.65143407371701
30
0
41
1
10
77.5048688631458
20
-5.6766758020114
30
0
41
1
10
77.535253685585
20
-5.74557314152185
30
0
41
1
10
77.5602876835609
20
-5.78265413204258
30
0
41
1
10
77.6176316252243
20
-5.83911963088931
30
0
41
1
10
77.6497079095415
20
-5.8584892602187
30
0
41
1
10
77.7199542742728
20
-5.88136333875804
30
0
41
1
10
77.7583482878612
20
-5.88473395750168
30
0
41
1
10
77.8388043999378
20
-5.87629543371543
30
0
41
1
10
77.8810767726727
20
-5.86461961311608
30
0
41
1
10
77.9695607918075
20
-5.8268996377989
30
0
41
1
10
78.0160533619313
20
-5.80059304263835
30
0
41
1
10
78.110459295708
20
-5.73495556276009
30
0
41
1
10
78.1586140165791
20
-5.69558849749737
30
0
41
1
10
78.2568596271751
20
-5.60353300055718
30
0
41
1
10
78.3072278350113
20
-5.55052263865034
30
0
41
1
10
78.4088040000514
20
-5.43117569516511
30
0
41
1
10
78.4597209009508
20
-5.36523315729326
30
0
41
1
10
78.5104745512947
20
-5.292798014945
30
0
0
SPLINE
5
C8
100
AcDbEntity
8
1
62
256
6
ByLayer
370
18
48
1
60
0
100
AcDbSpline
70
4
71
3
72
12
73
8
40
0
40
0
40
0
40
0
40
0.249999999999986
40
0.249999999999986
40
0.499999999999972
40
0.499999999999972
40
1
40
1
40
1
40
1
41
1
10
77.6193329143039
20
-9.51456250115513
30
0
41
1
10
77.6242331119965
20
-9.50137449599868
30
0
41
1
10
77.6290075210239
20
-9.48788624729093
30
0
41
1
10
77.6370736780141
20
-9.46351496705131
30
0
41
1
10
77.6403504284889
20
-9.45265209716166
30
0
41
1
10
77.6466235991564
20
-9.42843472265554
30
0
41
1
10
77.6461265624343
20
-9.42376282312327
30
0
41
1
10
77.6429843256205
20
-9.42669876750151
30
0
0
SPLINE
5
C9
100
AcDbEntity
8
1
62
256
6
ByLayer
370
18
48
1
60
0
100
AcDbSpline
70
4
71
3
72
18
73
14
40
0
40
0
40
0
40
0
40
0.249999999999999
40
0.249999999999999
40
0.374999999999998
40
0.374999999999998
40
0.499999999999998
40
0.499999999999998
40
0.624999999999997
40
0.624999999999997
40
0.749999999999996
40
0.749999999999996
40
1
40
1
40
1
40
1
41
1
10
79.4635227125232
20
4.77690274267945
30
0
41
1
10
79.3090601786748
20
5.19215158254821
30
0
41
1
10
79.1545492556034
20
5.60676939171765
30
0
41
1
10
78.9226518446852
20
6.22698742698719
30
0
41
1
10
78.8453243047635
20
6.433356376945
30
0
41
1
10
78.690645830564
20
6.84578919742501
30
0
41
1
10
78.6132997974742
20
7.05191698300612
30
0
41
1
10
78.4585792294421
20
7.46380086926405
30
0
41
1
10
78.3812054791284
20
7.66956720206642
30
0
41
1
10
78.2264049007014
20
8.08040769452512
30
0
41
1
10
78.1489663060067
20
8.28532840939459
30
0
41
1
10
77.9166058884194
20
8.89950850061945
30
0
41
1
10
77.7616815800304
20
9.30873546429706
30
0
41
1
10
77.6064603066887
20
9.71408978879333
30
0
0
SPLINE
5
CA
100
AcDbEntity
8
1
62
256
6
ByLayer
370
18
48
1
60
0
100
AcDbSpline
70
4
71
3
72
20
73
16
40
0
40
0
40
0
40
0
40
0.125000000000001
40
0.125000000000001
40
0.250000000000002
40
0.250000000000002
40
0.375000000000003
40
0.375000000000003
40
0.500000000000004
40
0.500000000000004
40
0.625000000000004
40
0.625000000000004
40
0.750000000000005
40
0.750000000000005
40
1
40
1
40
1
40
1
41
1
10
4.25053872725502
20
-9.37784524987512
30
0
41
1
10
4.23709432971384
20
-9.3794728971944
30
0
41
1
10
4.2231182314371
20
-9.38203710758
30
0
41
1
10
4.1936393001339
20
-9.38979519322385
30
0
41
1
10
4.17791761722137
20
-9.39507011062977
30
0
41
1
10
4.14551596046357
20
-9.40930513854434
30
0
41
1
10
4.12848821092092
20
-9.41847358154726
30
0
41
1
10
4.09567477548006
20
-9.44086727925739
30
0
41
1
10
4.07999554539131
20
-9.45408060739913
30
0
41
1
10
4.05300442098391
20
-9.48225574313318
30
0
41
1
10
4.04206167610496
20
-9.49670605619843
30
0
41
1
10
4.02474825168494
20
-9.5245267695492
30
0
41
1
10
4.01826225625038
20
-9.53799999888255
30
0
41
1
10
4.00353563227935
20
-9.57681371470576
30
0
41
1
10
4.00000044456235
20
-9.59987635529475
30
0
41
1
10
4.00000044456235
20
-9.62145578946559
30
0
0
SPLINE
5
CB
100
AcDbEntity
8
1
62
256
6
ByLayer
370
18
48
1
60
0
100
AcDbSpline
70
4
71
3
72
28
73
24
40
0
40
0
40
0
40
0
40
0.125000000000005
40
0.125000000000005
40
0.187500000000007
40
0.187500000000007
40
0.250000000000008
40
0.250000000000008
40
0.375000000000008
40
0.375000000000008
40
0.500000000000008
40
0.500000000000008
40
0.562500000000007
40
0.562500000000007
40
0.625000000000007
40
0.625000000000007
40
0.750000000000004
40
0.750000000000004
40
0.875000000000002
40
0.875000000000002
40
0.937500000000001
40
0.937500000000001
40
1
40
1
40
1
40
1
41
1
10
77.5499467227273
20
-9.47894347522225
30
0
41
1
10
77.4115758882467
20
-9.47879450858909
30
0
41
1
10
77.2799112255575
20
-9.45843611769922
30
0
41
1
10
77.092958834474
20
-9.3961217798479
30
0
41
1
10
77.0324032419884
20
-9.37004083633965
30
0
41
1
10
76.9149576763093
20
-9.30683240030262
30
0
41
1
10
76.8578897710149
20
-9.26953915538681
30
0
41
1
10
76.694488524925
20
-9.14196634327823
30
0
41
1
10
76.5954841686399
20
-9.0359989476128
30
0
41
1
10
76.4174003147174
20
-8.78208900191325
30
0
41
1
10
76.3383173763983
20
-8.6341537002692
30
0
41
1
10
76.2353313774299
20
-8.37930574061855
30
0
41
1
10
76.2036161176389
20
-8.28885082872335
30
0
41
1
10
76.1456252173075
20
-8.09648150794089
30
0
41
1
10
76.1193084964469
20
-7.99424156009476
30
0
41
1
10
76.0499681009352
20
-7.67491979971916
30
0
41
1
10
76.016039232904
20
-7.44401155967148
30
0
41
1
10
75.9724236123097
20
-6.94665986957568
30
0
41
1
10
75.9627356641865
20
-6.68021817203484
30
0
41
1
10
75.9669289714736
20
-6.25310732145104
30
0
41
1
10
75.9714834717465
20
-6.10568154779995
30
0
41
1
10
75.9869175845471
20
-5.80375869610899
30
0
41
1
10
75.9977583286796
20
-5.64960387712077
30
0
41
1
10
76.0116727267468
20
-5.49230681529642
30
0
0
SPLINE
5
CC
100
AcDbEntity
8
1
62
256
6
ByLayer
370
18
48
1
60
0
100
AcDbSpline
70
4
71
3
72
82
73
78
40
0
40
0
40
0
40
0
40
0.0001034305502237
40
0.0001034305502237
40
0.0173430265752191
40
0.0173430265752191
40
0.0345826226002144
40
0.0345826226002144
40
0.0690618146502059
40
0.0690618146502059
40
0.103541006700197
40
0.103541006700197
40
0.138020198750189
40
0.138020198750189
40
0.155259794775184
40
0.155259794775184
40
0.17249939080018
40
0.17249939080018
40
0.206978582850172
40
0.206978582850172
40
0.241457774900163
40
0.241457774900163
40
0.258697370925159
40
0.258697370925159
40
0.275936966950154
40
0.275936966950154
40
0.310416159000146
40
0.310416159000146
40
0.344895351050137
40
0.344895351050137
40
0.379374543100129
40
0.379374543100129
40
0.396614139125125
40
0.396614139125125
40
0.413853735150121
40
0.413853735150121
40
0.448332927200113
40
0.448332927200113
40
0.482812119250105
40
0.482812119250105
40
0.500051715275101
40
0.500051715275101
40
0.517291311300097
40
0.517291311300097
40
0.551770503350089
40
0.551770503350089
40
0.569010099375085
40
0.569010099375085
40
0.586249695400081
40
0.586249695400081
40
0.620728887450073
40
0.620728887450073
40
0.655208079500065
40
0.655208079500065
40
0.672447675525062
40
0.672447675525062
40
0.689687271550058
40
0.689687271550058
40
0.724166463600051
40
0.724166463600051
40
0.758645655650044
40
0.758645655650044
40
0.793124847700038
40
0.793124847700038
40
0.827604039750031
40
0.827604039750031
40
0.862083231800024
40
0.862083231800024
40
0.879322827825021
40
0.879322827825021
40
0.896562423850018
40
0.896562423850018
40
0.931041615900012
40
0.931041615900012
40
0.965520807950006
40
0.965520807950006
40
1
40
1
40
1
40
1
41
1
10
62.5086016411062
20
-7.37643169294407
30
0
41
1
10
62.5069948193697
20
-7.37701379967967
30
0
41
1
10
62.5053879885946
20
-7.37759581468609
30
0
41
1
10
62.2359563221935
20
-7.47517153790062
30
0
41
1
10
61.9678481575161
20
-7.56954491947832
30
0
41
1
10
61.4304005730071
20
-7.752139295593
30
0
41
1
10
61.1608353071614
20
-7.84052569377749
30
0
41
1
10
60.3524774734182
20
-8.09530392103278
30
0
41
1
10
59.8144629596872
20
-8.25031113654978
30
0
41
1
10
58.740185226859
20
-8.53526608704721
30
0
41
1
10
58.2032980988786
20
-8.66535555395757
30
0
41
1
10
57.1283930647316
20
-8.89596035512557
30
0
41
1
10
56.5906052741314
20
-8.99778808623756
30
0
41
1
10
55.783343544132
20
-9.12855320007597
30
0
41
1
10
55.5137968907227
20
-9.16806137766571
30
0
41
1
10
54.9751151745324
20
-9.23944437277297
30
0
41
1
10
54.7059199129023
20
-9.27162432133568
30
0
41
1
10
53.8987496059232
20
-9.35727843901901
30
0
41
1
10
53.3613240160517
20
-9.39902947890869
30
0
41
1
10
52.2873033702883
20
-9.4523822462362
30
0
41
1
10
51.7499537977966
20
-9.46496345480341
30
0
41
1
10
50.94276867658
20
-9.4594766297339
30
0
41
1
10
50.6735096798852
20
-9.45353767770072
30
0
41
1
10
50.1347402833405
20
-9.43476949195255
30
0
41
1
10
49.8652135011821
20
-9.42175677400411
30
0
41
1
10
49.0576833364142
20
-9.37101573230285
30
0
41
1
10
48.5198481179689
20
-9.32065529933638
30
0
41
1
10
47.4445391231571
20
-9.19305417917116
30
0
41
1
10
46.907485829125
20
-9.11488075363334
30
0
41
1
10
45.8326998922515
20
-8.92875318042653
30
0
41
1
10
45.2945599359598
20
-8.82168854605845
30
0
41
1
10
44.4856896351332
20
-8.63800408994396
30
0
41
1
10
44.2162225131002
20
-8.57267639869156
30
0
41
1
10
43.6788750585656
20
-8.43553673328236
30
0
41
1
10
43.4107206791123
20
-8.36410708252316
30
0
41
1
10
42.6069762585381
20
-8.14119262212273
30
0
41
1
10
42.0722755024518
20
-7.98080187598072
30
0
41
1
10
41.0049972134245
20
-7.63579504574162
30
0
41
1
10
40.4728815897275
20
-7.45073635588892
30
0
41
1
10
39.6747683264498
20
-7.15370599960522
30
0
41
1
10
39.4087023906407
20
-7.05165795249405
30
0
41
1
10
38.8764818873942
20
-6.84335721474679
30
0
41
1
10
38.6103285971803
20
-6.73672978822134
30
0
41
1
10
37.8117869285347
20
-6.40928916035017
30
0
41
1
10
37.2797360944651
20
-6.1802792328449
30
0
41
1
10
36.4797536233726
20
-5.82238028445772
30
0
41
1
10
36.212791032304
20
-5.70072662750994
30
0
41
1
10
35.6781136468242
20
-5.45231786790251
30
0
41
1
10
35.4103328437199
20
-5.32522355725933
30
0
41
1
10
34.6059054790953
20
-4.93713358661364
30
0
41
1
10
34.068384170257
20
-4.66934860343451
30
0
41
1
10
32.9900076142791
20
-4.12039272216657
30
0
41
1
10
32.4515458590411
20
-3.84012744273903
30
0
41
1
10
31.6449229996002
20
-3.41048571950296
30
0
41
1
10
31.3763092353742
20
-3.26562721940056
30
0
41
1
10
30.8391805114441
20
-2.97291315440793
30
0
41
1
10
30.5705397616776
20
-2.82526244803506
30
0
41
1
10
29.764202569344
20
-2.3800489803229
30
0
41
1
10
29.2261089963931
20
-2.07974071824725
30
0
41
1
10
28.148878759317
20
-1.47119607984416
30
0
41
1
10
27.6097449353771
20
-1.16263778111201
30
0
41
1
10
26.5335269354132
20
-0.546402111084916
30
0
41
1
10
25.9959610980483
20
-0.237899649869235
30
0
41
1
10
24.9218956963399
20
0.380074398639835
30
0
41
1
10
24.385383312911
20
0.689472114047902
30
0
41
1
10
23.310330273516
20
1.30372762943716
30
0
41
1
10
22.7720922057593
20
1.60913803557813
30
0
41
1
10
21.9637001821822
20
2.06464083039734
30
0
41
1
10
21.6941999468738
20
2.21597313416677
30
0
41
1
10
21.1557807524052
20
2.51587522157371
30
0
41
1
10
20.8867174578492
20
2.66465709879591
30
0
41
1
10
20.0799153206633
20
3.10714316155355
30
0
41
1
10
19.5425177585556
20
3.3967789341001
30
0
41
1
10
18.4689443014386
20
3.96604409871492
30
0
41
1
10
17.9322132778096
20
4.24460315905984
30
0
41
1
10
16.8568170780537
20
4.78614748963273
30
0
41
1
10
16.3182440926464
20
5.04988854945964
30
0
41
1
10
15.7789192844253
20
5.30665726893801
30
0
0
SPLINE
5
CD
100
AcDbEntity
8
1
62
256
6
ByLayer
370
18
48
1
60
0
100
AcDbSpline
70
4
71
3
72
18
73
14
40
0
40
0
40
0
40
0
40
0.249999999999996
40
0.249999999999996
40
0.499999999999993
40
0.499999999999993
40
0.624999999999995
40
0.624999999999995
40
0.749999999999996
40
0.749999999999996
40
0.874999999999998
40
0.874999999999998
40
1
40
1
40
1
40
1
41
1
10
4.00000044456229
20
9.62145578946559
30
0
41
1
10
4.00000044456229
20
9.59987636911526
30
0
41
1
10
4.00353475883361
20
9.57681158688669
30
0
41
1
10
4.02318084867005
20
9.52504091320452
30
0
41
1
10
4.03953785144927
20
9.49635364111265
30
0
41
1
10
4.07977567298656
20
9.45428998251668
30
0
41
1
10
4.09557852068022
20
9.44093918104582
30
0
41
1
10
4.12845728979968
20
9.41848849560003
30
0
41
1
10
4.14550056509984
20
9.40931524299995
30
0
41
1
10
4.17783370327084
20
9.39510364601082
30
0
41
1
10
4.19356826806603
20
9.38981621855893
30
0
41
1
10
4.22309902456485
20
9.38203983789344
30
0
41
1
10
4.23708814381393
20
9.37947364609099
30
0
41
1
10
4.25053872725499
20
9.37784524987509
30
0
0
SPLINE
5
CE
100
AcDbEntity
8
1
62
256
6
ByLayer
370
18
48
1
60
0
100
AcDbSpline
70
4
71
3
72
18
73
14
40
0
40
0
40
0
40
0
40
0.0498060575802222
40
0.0498060575802222
40
0.259515642306179
40
0.259515642306179
40
0.678934811758091
40
0.678934811758091
40
0.78378960412107
40
0.78378960412107
40
0.888644396484049
40
0.888644396484049
40
1
40
1
40
1
40
1
41
1
10
75.889454817006
20
-9.47812482174626
30
0
41
1
10
75.7079166501579
20
-9.47784018577383
30
0
41
1
10
75.5265144649058
20
-9.47581435339981
30
0
41
1
10
74.581896767585
20
-9.45623873695988
30
0
41
1
10
73.8205660889413
20
-9.40977003481987
30
0
41
1
10
71.537333810101
20
-9.18042007674856
30
0
41
1
10
70.0160988289172
20
-8.90743852195396
30
0
41
1
10
68.0971578885575
20
-8.42223040014886
30
0
41
1
10
67.7117802587309
20
-8.31778506752136
30
0
41
1
10
66.9432171010766
20
-8.09604203466375
30
0
41
1
10
66.5599675763818
20
-7.97876838345914
30
0
41
1
10
65.7714086989172
20
-7.72428592309012
30
0
41
1
10
65.3662039910875
20
-7.58629274631585
30
0
41
1
10
64.961637651694
20
-7.44176135723515
30
0
0
SPLINE
5
CF
100
AcDbEntity
8
1
62
256
6
ByLayer
370
13
48
1
60
0
100
AcDbSpline
70
4
71
3
72
22
73
18
40
0
40
0
40
0
40
0
40
0.0546939192601818
40
0.0546939192601818
40
0.287929807719475
40
0.287929807719475
40
0.404547751949123
40
0.404547751949123
40
0.462856724063946
40
0.462856724063946
40
0.521165696178769
40
0.521165696178769
40
0.754401584638059
40
0.754401584638059
40
0.98763747309735
40
0.98763747309735
40
1
40
1
40
1
40
1
41
1
10
64.9616376516543
20
-7.44176135722094
30
0
41
1
10
64.6043075408644
20
-7.31410511831979
30
0
41
1
10
64.2474754321373
20
-7.18134830891623
30
0
41
1
10
62.3705395399952
20
-6.45702136339688
30
0
41
1
10
60.855726548451
20
-5.78205844519496
30
0
41
1
10
58.570237432743
20
-4.66600701592745
30
0
41
1
10
57.8062650094138
20
-4.27658998168613
30
0
41
1
10
56.6541567674001
20
-3.67035245626758
30
0
41
1
10
56.2685632339237
20
-3.46423979456216
30
0
41
1
10
55.5005137030657
20
-3.04847069320454
30
0
41
1
10
55.1174716723898
20
-2.83852291339414
30
0
41
1
10
53.2062792121132
20
-1.78005572566588
30
0
41
1
10
51.6895864689991
20
-0.906388228982422
30
0
41
1
10
48.6519408364465
20
0.843823314517209
30
0
41
1
10
47.1310084973851
20
1.72040352426512
30
0
41
1
10
45.5117343458852
20
2.61757722239011
30
0
41
1
10
45.4301784067291
20
2.66266794626759
30
0
41
1
10
45.3485926364834
20
2.7076740823899
30
0
0
SPLINE
5
D0
100
AcDbEntity
8
1
62
256
6
ByLayer
370
18
48
1
60
0
100
AcDbSpline
70
4
71
3
72
14
73
10
40
0
40
0
40
0
40
0
40
0.25
40
0.25
40
0.5
40
0.5
40
0.75
40
0.75
40
1
40
1
40
1
40
1
41
1
10
4.00000044456229
20
-3.14955747677581
30
0
41
1
10
4.00000044456229
20
-3.16486991449767
30
0
41
1
10
4.00266010097283
20
-3.18051215238691
30
0
41
1
10
4.0133232943858
20
-3.21072891019045
30
0
41
1
10
4.0211698944471
20
-3.22513807881006
30
0
41
1
10
4.04192539740714
20
-3.25249418655972
30
0
41
1
10
4.05509854212374
20
-3.26564337357931
30
0
41
1
10
4.08621963348543
20
-3.28912479448707
30
0
41
1
10
4.10398248950926
20
-3.29944389796859
30
0
41
1
10
4.12432523389651
20
-3.30810597880526
30
0
0
SPLINE
5
D1
100
AcDbEntity
8
1
62
256
6
ByLayer
370
18
48
1
60
0
100
AcDbSpline
70
4
71
3
72
32
73
28
40
0
40
0
40
0
40
0
40
0.124999999999999
40
0.124999999999999
40
0.249999999999997
40
0.249999999999997
40
0.374999999999996
40
0.374999999999996
40
0.499999999999994
40
0.499999999999994
40
0.624999999999993
40
0.624999999999993
40
0.687499999999992
40
0.687499999999992
40
0.749999999999991
40
0.749999999999991
40
0.812499999999991
40
0.812499999999991
40
0.843749999999991
40
0.843749999999991
40
0.87499999999999
40
0.87499999999999
40
0.937499999999995
40
0.937499999999995
40
0.968749999999998
40
0.968749999999998
40
1
40
1
40
1
40
1
41
1
10
76.4065584385862
20
2.73895203175948
30
0
41
1
10
76.5737855484452
20
2.76728023151162
30
0
41
1
10
76.7399870420427
20
2.8007001876928
30
0
41
1
10
77.0714556123797
20
2.8725798391404
30
0
41
1
10
77.2365717816816
20
2.91175254246525
30
0
41
1
10
77.563738764435
20
2.9984674492143
30
0
41
1
10
77.7259540682367
20
3.04599148267991
30
0
41
1
10
78.0465919634768
20
3.15279789041543
30
0
41
1
10
78.2055483623998
20
3.21221525470668
30
0
41
1
10
78.5151208802029
20
3.34812759125515
30
0
41
1
10
78.6654379122108
20
3.42420583986328
30
0
41
1
10
78.879538251877
20
3.55934949480303
30
0
41
1
10
78.949329812135
20
3.6082685925594
30
0
41
1
10
79.0811789198319
20
3.71426516222604
30
0
41
1
10
79.143332788314
20
3.77131046186113
30
0
41
1
10
79.2573900524231
20
3.896494035769
30
0
41
1
10
79.3093200794197
20
3.96503612340498
30
0
41
1
10
79.3736136774642
20
4.07438600165983
30
0
41
1
10
79.3929200471009
20
4.11206766629013
30
0
41
1
10
79.426811671169
20
4.1901789985038
30
0
41
1
10
79.4414450836151
20
4.2308943195296
30
0
41
1
10
79.4764966284759
20
4.35381787960011
30
0
41
1
10
79.4886082143182
20
4.43762994035063
30
0
41
1
10
79.490543037333
20
4.56605409709138
30
0
41
1
10
79.4884208503935
20
4.60923215792769
30
0
41
1
10
79.4793796555642
20
4.69382682101084
30
0
41
1
10
79.472476789196
20
4.73559434247724
30
0
41
1
10
79.4635227125237
20
4.77690274267971
30
0
0
SPLINE
5
D2
100
AcDbEntity
8
1
62
256
6
ByLayer
370
18
48
1
60
0
100
AcDbSpline
70
4
71
3
72
14
73
10
40
0
40
0
40
0
40
0
40
0.25
40
0.25
40
0.5
40
0.5
40
0.75
40
0.75
40
1
40
1
40
1
40
1
41
1
10
4.12137699218431
20
-3.4106514701194
30
0
41
1
10
4.10278509293423
20
-3.40018173769167
30
0
41
1
10
4.08602531896719
20
-3.38770253605651
30
0
41
1
10
4.0560580096533
20
-3.35883028659058
30
0
41
1
10
4.04295659608658
20
-3.34240096258887
30
0
41
1
10
4.02190114600154
20
-3.30737281272835
30
0
41
1
10
4.01365588500906
20
-3.28826281328176
30
0
41
1
10
4.00277280657693
20
-3.24919734674771
30
0
41
1
10
4.00000044456229
20
-3.22919107841184
30
0
41
1
10
4.00000044456229
20
-3.20869066021999
30
0
0
SPLINE
5
D3
100
AcDbEntity
8
1
62
256
6
ByLayer
370
18
48
1
60
0
100
AcDbSpline
70
4
71
3
72
8
73
4
40
0
40
0
40
0
40
0
40
1
40
1
40
1
40
1
41
1
10
77.6429843256205
20
-9.42669876750151
30
0
41
1
10
77.6057763043529
20
-9.46146402783648
30
0
41
1
10
77.5747273262622
20
-9.47898099064318
30
0
41
1
10
77.5499467227273
20
-9.47894347522225
30
0
0
SPLINE
5
D4
100
AcDbEntity
8
1
62
256
6
ByLayer
370
18
48
1
60
0
100
AcDbSpline
70
4
71
3
72
22
73
18
40
0
40
0
40
0
40
0
40
0.211522631733464
40
0.211522631733464
40
0.317283947600197
40
0.317283947600197
40
0.42304526346693
40
0.42304526346693
40
0.634567895200396
40
0.634567895200396
40
0.74032921106713
40
0.74032921106713
40
0.793209869000498
40
0.793209869000498
40
0.846090526933864
40
0.846090526933864
40
1
40
1
40
1
40
1
41
1
10
24.8587143783164
20
9.79142273100055
30
0
41
1
10
23.7596181485204
20
9.87344907625629
30
0
41
1
10
22.6481758404849
20
9.8853526322751
30
0
41
1
10
20.9515110795958
20
9.82265761854384
30
0
41
1
10
20.3804125587091
20
9.78827316132708
30
0
41
1
10
19.2333942512842
20
9.6983391906432
30
0
41
1
10
18.6566467017275
20
9.6427856586478
30
0
41
1
10
16.9137024765599
20
9.45374098455068
30
0
41
1
10
15.7346692436778
20
9.29778619778901
30
0
41
1
10
13.9302254602608
20
9.0599817064876
30
0
41
1
10
13.3227933661001
20
8.98010098838665
30
0
41
1
10
12.4017187302403
20
8.86444853455015
30
0
41
1
10
12.0930414003733
20
8.82659036759853
30
0
41
1
10
11.472235047597
20
8.75306983728123
30
0
41
1
10
11.1597248012386
20
8.71736732467801
30
0
41
1
10
9.93486993814363
20
8.58401467589795
30
0
41
1
10
9.01783012913853
20
8.49874888653383
30
0
41
1
10
8.09496628259376
20
8.43412535807298
30
0
0
SPLINE
5
D5
100
AcDbEntity
8
1
62
256
6
ByLayer
370
18
48
1
60
0
100
AcDbSpline
70
4
71
3
72
12
73
8
40
0
40
0
40
0
40
0
40
0.176883547076263
40
0.176883547076263
40
0.45125569805084
40
0.45125569805084
40
1
40
1
40
1
40
1
41
1
10
2.90370167760275
20
9.85513911702915
30
0
41
1
10
2.96157112426852
20
9.85494281025646
30
0
41
1
10
3.02108865717705
20
9.85369149344788
30
0
41
1
10
3.17588433061087
20
9.84805559809581
30
0
41
1
10
3.27310487896742
20
9.84233066162071
30
0
41
1
10
3.57254641864739
20
9.81911388643229
30
0
41
1
10
3.78247220476283
20
9.7956240903749
30
0
41
1
10
4.00000044452918
20
9.76560263042796
30
0
0
SPLINE
5
D6
100
AcDbEntity
8
1
62
256
6
ByLayer
370
18
48
1
60
0
100
AcDbSpline
70
4
71
3
72
92
73
88
40
0
40
0
40
0
40
0
40
0.0332623755989741
40
0.0332623755989741
40
0.0498935633984611
40
0.0498935633984611
40
0.0665247511979481
40
0.0665247511979481
40
0.0997871267969222
40
0.0997871267969222
40
0.116418314596409
40
0.116418314596409
40
0.133049502395896
40
0.133049502395896
40
0.16631187799487
40
0.16631187799487
40
0.182943065794356
40
0.182943065794356
40
0.199574253593843
40
0.199574253593843
40
0.232836629192815
40
0.232836629192815
40
0.266099004791788
40
0.266099004791788
40
0.299361380390761
40
0.299361380390761
40
0.315992568190247
40
0.315992568190247
40
0.332623755989734
40
0.332623755989734
40
0.365886131588706
40
0.365886131588706
40
0.382517319388192
40
0.382517319388192
40
0.399148507187678
40
0.399148507187678
40
0.432410882786651
40
0.432410882786651
40
0.449042070586136
40
0.449042070586136
40
0.465673258385622
40
0.465673258385622
40
0.498935633984594
40
0.498935633984594
40
0.532198009583565
40
0.532198009583565
40
0.565460385182537
40
0.565460385182537
40
0.598722760781509
40
0.598722760781509
40
0.615353948580994
40
0.615353948580994
40
0.63198513638048
40
0.63198513638048
40
0.648616324179965
40
0.648616324179965
40
0.665247511979451
40
0.665247511979451
40
0.681878699778936
40
0.681878699778936
40
0.698509887578422
40
0.698509887578422
40
0.731772263177392
40
0.731772263177392
40
0.748403450976877
40
0.748403450976877
40
0.765034638776362
40
0.765034638776362
40
0.798297014375332
40
0.798297014375332
40
0.831559389974301
40
0.831559389974301
40
0.864821765573271
40
0.864821765573271
40
0.881452953372756
40
0.881452953372756
40
0.898084141172241
40
0.898084141172241
40
0.931346516771211
40
0.931346516771211
40
0.947977704570696
40
0.947977704570696
40
0.964608892370181
40
0.964608892370181
40
0.99787126796915
40
0.99787126796915
40
1
40
1
40
1
40
1
41
1
10
24.8587493432217
20
9.7914240901197
30
0
41
1
10
25.4132439197484
20
9.75001476812722
30
0
41
1
10
25.9665925600064
20
9.69223776348332
30
0
41
1
10
26.7939333073157
20
9.58166596174334
30
0
41
1
10
27.069271631733
20
9.54081031265338
30
0
41
1
10
27.6189336196837
20
9.45105481352377
30
0
41
1
10
27.8931088561432
20
9.40206943456633
30
0
41
1
10
28.7152736322469
20
9.24359740105993
30
0
41
1
10
29.263625847748
20
9.12311597908462
30
0
41
1
10
30.0853590300773
20
8.91983931081944
30
0
41
1
10
30.3591559525828
20
8.84831929635695
30
0
41
1
10
30.9063641837778
20
8.69757337145754
30
0
41
1
10
31.1796527182739
20
8.61822987412299
30
0
41
1
10
32.0009399177622
20
8.37019517006527
30
0
41
1
10
32.5499563899051
20
8.19129969298666
30
0
41
1
10
33.374658491165
20
7.90162494957838
30
0
41
1
10
33.6497721249445
20
7.80151443297359
30
0
41
1
10
34.2002658330469
20
7.59387401989329
30
0
41
1
10
34.4757547587586
20
7.48644312947337
30
0
41
1
10
35.3048479895895
20
7.15542913701097
30
0
41
1
10
35.8617091414299
20
6.92167201684922
30
0
41
1
10
36.9682731537017
20
6.43251106945729
30
0
41
1
10
37.5182703590605
20
6.17585877697229
30
0
41
1
10
38.6180046604566
20
5.64714732738003
30
0
41
1
10
39.1670984026846
20
5.3742957748035
30
0
41
1
10
39.9887743457191
20
4.95122191378525
30
0
41
1
10
40.2622070909486
20
4.80769369602214
30
0
41
1
10
40.8089988017523
20
4.51685261744097
30
0
41
1
10
41.0826236200902
20
4.36994337007872
30
0
41
1
10
41.903937363521
20
3.924445383326
30
0
41
1
10
42.4520072380513
20
3.62102046852038
30
0
41
1
10
43.2740746600193
20
3.1548109193094
30
0
41
1
10
43.5479382336432
20
2.99730068747036
30
0
41
1
10
44.0968199609179
20
2.68042932988038
30
0
41
1
10
44.3718495104855
20
2.52109830948092
30
0
41
1
10
45.1982564763536
20
2.03969050258797
30
0
41
1
10
45.7510338316373
20
1.71435978752285
30
0
41
1
10
46.5821620169943
20
1.21802207663134
30
0
41
1
10
46.8593247814314
20
1.05135511515451
30
0
41
1
10
47.4125975098802
20
0.719723275234514
30
0
41
1
10
47.688907401128
20
0.554210326952841
30
0
41
1
10
48.5165777882906
20
0.0580445898719972
30
0
41
1
10
49.0666572492098
20
-0.27228105905445
30
0
41
1
10
50.1627033896952
20
-0.933252870497313
30
0
41
1
10
50.7104488242102
20
-1.26085804413367
30
0
41
1
10
51.8058184671911
20
-1.90972144821984
30
0
41
1
10
52.3529157378009
20
-2.23185956412991
30
0
41
1
10
53.4465175638069
20
-2.8704778394397
30
0
41
1
10
53.9948429829306
20
-3.18398469314926
30
0
41
1
10
54.8188242740979
20
-3.64685913232518
30
0
41
1
10
55.0937283353069
20
-3.79992539740536
30
0
41
1
10
55.643888359472
20
-4.10379835580497
30
0
41
1
10
55.9189898211529
20
-4.25484587800406
30
0
41
1
10
56.4705219467684
20
-4.55310934222183
30
0
41
1
10
56.7470685807244
20
-4.70014824108819
30
0
41
1
10
57.3014108529747
20
-4.99052757466026
30
0
41
1
10
57.5793748992889
20
-5.1339100918396
30
0
41
1
10
58.1332781879387
20
-5.41548345480422
30
0
41
1
10
58.4096071890063
20
-5.55387367338787
30
0
41
1
10
58.9608572565894
20
-5.82610264086975
30
0
41
1
10
59.2357331501787
20
-5.95998642110678
30
0
41
1
10
60.0604382694373
20
-6.35182321681842
30
0
41
1
10
60.6096615778886
20
-6.60101260363157
30
0
41
1
10
61.4316767282774
20
-6.95829788826899
30
0
41
1
10
61.7053743486461
20
-7.07463606653809
30
0
41
1
10
62.2520713817627
20
-7.30184069179143
30
0
41
1
10
62.525282615982
20
-7.41244959731091
30
0
41
1
10
63.3459580064836
20
-7.73374700112919
30
0
41
1
10
63.8937489016288
20
-7.93478026612607
30
0
41
1
10
64.9895539001458
20
-8.31159977544414
30
0
41
1
10
65.537014135345
20
-8.48776378345309
30
0
41
1
10
66.6373054334015
20
-8.80966249980261
30
0
41
1
10
67.1894093113501
20
-8.95617033782545
30
0
41
1
10
68.0197453173074
20
-9.15438535413378
30
0
41
1
10
68.2971147166566
20
-9.21701370426044
30
0
41
1
10
68.8503299518097
20
-9.33375852815547
30
0
41
1
10
69.1266176981143
20
-9.38784382676235
30
0
41
1
10
69.9541393593393
20
-9.53778831793841
30
0
41
1
10
70.5040774017482
20
-9.62136003478926
30
0
41
1
10
71.3255636676899
20
-9.72274396226578
30
0
41
1
10
71.5987076313724
20
-9.7525441200649
30
0
41
1
10
72.1451948674193
20
-9.80373054506927
30
0
41
1
10
72.418441169735
20
-9.8251687750622
30
0
41
1
10
73.2378075877372
20
-9.8772705985007
30
0
41
1
10
73.7836307852184
20
-9.89575601899804
30
0
41
1
10
74.3633187167549
20
-9.89802127053161
30
0
41
1
10
74.3981837838172
20
-9.89808996436625
30
0
41
1
10
74.4330477235781
20
-9.89809119008677
30
0
0
SPLINE
5
D7
100
AcDbEntity
8
1
62
256
6
ByLayer
370
18
48
1
60
0
100
AcDbSpline
70
4
71
3
72
16
73
12
40
0
40
0
40
0
40
0
40
0.249999999999985
40
0.249999999999985
40
0.374999999999988
40
0.374999999999988
40
0.499999999999991
40
0.499999999999991
40
0.749999999999996
40
0.749999999999996
40
1
40
1
40
1
40
1
41
1
10
76.2272173634879
20
2.48350894266309
30
0
41
1
10
76.2198256111134
20
2.51120182737856
30
0
41
1
10
76.216578882623
20
2.54011287451595
30
0
41
1
10
76.2212788466693
20
2.58335648306075
30
0
41
1
10
76.224414613887
20
2.59753244112972
30
0
41
1
10
76.2344313984131
20
2.62530372678282
30
0
41
1
10
76.241424522155
20
2.63891430820513
30
0
41
1
10
76.2671816223272
20
2.67581021661769
30
0
41
1
10
76.291530346261
20
2.69611675480263
30
0
41
1
10
76.3465872248816
20
2.72506657387967
30
0
41
1
10
76.3760684682715
20
2.73378704403552
30
0
41
1
10
76.4065584385876
20
2.73895203175988
30
0
0
SPLINE
5
D8
100
AcDbEntity
8
SK1
62
256
6
ByLayer
370
18
48
1
60
0
100
AcDbSpline
70
4
71
3
72
8
73
4
40
0
40
0
40
0
40
0
40
1
40
1
40
1
40
1
41
1
10
-50
20
0.164522503195599
30
0
41
1
10
-49.9174519795364
20
0.109437168056928
30
0
41
1
10
-49.8344018637611
20
0.0544376880087043
30
0
41
1
10
-49.7509288966294
20
-0.0004883452355102
30
0
0
SPLINE
5
D9
100
AcDbEntity
8
SK1
62
256
6
ByLayer
370
18
48
1
60
0
100
AcDbSpline
70
4
71
4
72
10
73
5
40
0
40
0
40
0
40
0
40
0
40
1
40
1
40
1
40
1
40
1
41
0.995599555340987
10
-49.9999996199572
20
3.16059400532303
30
0
41
0.995389793907358
10
-49.9999998041453
20
3.13977566747367
30
0
41
0.995216079306549
10
-49.9999999923111
20
3.11877148093957
30
0
41
0.995079532898601
10
-50.0000001843254
20
3.09759715418144
30
0
41
0.994980675548362
10
-50.000000380043
20
3.07626906740995
30
0
0
SPLINE
5
DA
100
AcDbEntity
8
SK1
62
256
6
ByLayer
370
18
48
1
60
0
100
AcDbSpline
70
4
71
3
72
14
73
10
40
0
40
0
40
0
40
0
40
0.124999999999999
40
0.124999999999999
40
0.249999999999999
40
0.249999999999999
40
0.499999999999999
40
0.499999999999999
40
1
40
1
40
1
40
1
41
1
10
-47.5
20
4.6215786564731
30
0
41
1
10
-47.5
20
4.63077800110506
30
0
41
1
10
-47.501710769746
20
4.63825084834238
30
0
41
1
10
-47.5068845888985
20
4.64979775921924
30
0
41
1
10
-47.5102281895672
20
4.65387670596098
30
0
41
1
10
-47.5215282375218
20
4.66327320317126
30
0
41
1
10
-47.5303630420012
20
4.66551420353161
30
0
41
1
10
-47.5585252427806
20
4.66620820784811
30
0
41
1
10
-47.5788396428364
20
4.65863843123378
30
0
41
1
10
-47.6
20
4.64535512308547
30
0
0
SPLINE
5
DB
100
AcDbEntity
8
SK1
62
256
6
ByLayer
370
18
48
1
60
0
100
AcDbSpline
70
4
71
3
72
8
73
4
40
0
40
0
40
0
40
0
40
1
40
1
40
1
40
1
41
1
10
-47.6
20
4.64535512308547
30
0
41
1
10
-48.0582198959367
20
4.35770988012763
30
0
41
1
10
-48.5146946690929
20
4.06972023397412
30
0
41
1
10
-48.9661810888674
20
3.78074612709091
30
0
0
SPLINE
5
DC
100
AcDbEntity
8
SK1
62
256
6
ByLayer
370
18
48
1
60
0
100
AcDbSpline
70
4
71
3
72
10
73
6
40
0
40
0
40
0
40
0
40
0.5
40
0.5
40
1
40
1
40
1
40
1
41
1
10
-50
20
-0.16452250319557
30
0
41
1
10
-49.61253415059
20
0.0940383447770614
30
0
41
1
10
-49.2140061471606
20
0.350707635087133
30
0
41
1
10
-48.4112157374708
20
0.862829487160781
30
0
41
1
10
-48.0063224608591
20
1.11818470283001
30
0
41
1
10
-47.6
20
1.37325159104125
30
0
0
SPLINE
5
DD
100
AcDbEntity
8
SK1
62
256
6
ByLayer
370
18
48
1
60
0
100
AcDbSpline
70
4
71
3
72
14
73
10
40
0
40
0
40
0
40
0
40
0.500000000000001
40
0.500000000000001
40
0.75
40
0.75
40
0.875
40
0.875
40
1
40
1
40
1
40
1
41
1
10
-47.6
20
1.37325159104125
30
0
41
1
10
-47.5789465118596
20
1.38646781269591
30
0
41
1
10
-47.5585985142981
20
1.405264552414
30
0
41
1
10
-47.5303873672755
20
1.44436607155254
30
0
41
1
10
-47.5214287539013
20
1.45923968853097
30
0
41
1
10
-47.5102864584886
20
1.48508850387245
30
0
41
1
10
-47.50688945626
20
1.49447419916288
30
0
41
1
10
-47.5017228477084
20
1.51480422292249
30
0
41
1
10
-47.5
20
1.52575698207971
30
0
41
1
10
-47.5
20
1.53645246911711
30
0
0
SPLINE
5
DE
100
AcDbEntity
8
SK1
62
256
6
ByLayer
370
18
48
1
60
0
100
AcDbSpline
70
4
71
3
72
30
73
26
40
0
40
0
40
0
40
0
40
0.125
40
0.125
40
0.25
40
0.25
40
0.375
40
0.375
40
0.5
40
0.5
40
0.5625
40
0.5625
40
0.624999999999999
40
0.624999999999999
40
0.656249999999999
40
0.656249999999999
40
0.687499999999999
40
0.687499999999999
40
0.749999999999999
40
0.749999999999999
40
0.8125
40
0.8125
40
0.875
40
0.875
40
1
40
1
40
1
40
1
41
1
10
-50.0000000000001
20
3.07626903863761
30
0
41
1
10
-49.8688389907551
20
3.09063146728866
30
0
41
1
10
-49.7386545004926
20
3.10604330969633
30
0
41
1
10
-49.4809230671622
20
3.13970142820867
30
0
41
1
10
-49.353145820091
20
3.15796400000619
30
0
41
1
10
-49.1024666632062
20
3.19850791840707
30
0
41
1
10
-48.9798794406276
20
3.22067349591802
30
0
41
1
10
-48.744003946321
20
3.27140232059833
30
0
41
1
10
-48.6318013014636
20
3.2995313719625
30
0
41
1
10
-48.4827271067684
20
3.34990448080387
30
0
41
1
10
-48.4358478341787
20
3.36832667143
30
0
41
1
10
-48.3562089966653
20
3.40838845171504
30
0
41
1
10
-48.3228863043072
20
3.43045773964164
30
0
41
1
10
-48.2917470950142
20
3.46527022831259
30
0
41
1
10
-48.2844013913718
20
3.47718624087437
30
0
41
1
10
-48.276885036852
20
3.50175574578256
30
0
41
1
10
-48.2768808536876
20
3.5140989166438
30
0
41
1
10
-48.2877734622734
20
3.55043785774015
30
0
41
1
10
-48.3102559210769
20
3.57434198881199
30
0
41
1
10
-48.3745114994816
20
3.61754608555501
30
0
41
1
10
-48.4166722601317
20
3.63751442222886
30
0
41
1
10
-48.5097114664048
20
3.67338661624967
30
0
41
1
10
-48.5610845416036
20
3.68959936963915
30
0
41
1
10
-48.7250992047386
20
3.73472401338219
30
0
41
1
10
-48.8435613187854
20
3.75923838751007
30
0
41
1
10
-48.9661810888674
20
3.78074612709091
30
0
0
SPLINE
5
DF
100
AcDbEntity
8
SK1
62
256
6
ByLayer
370
18
48
1
60
0
100
AcDbSpline
70
4
71
3
72
22
73
18
40
0
40
0
40
0
40
0
40
0.125
40
0.125
40
0.25
40
0.25
40
0.374999999999999
40
0.374999999999999
40
0.499999999999999
40
0.499999999999999
40
0.624999999999999
40
0.624999999999999
40
0.75
40
0.75
40
0.875
40
0.875
40
1
40
1
40
1
40
1
41
1
10
-48.9661810888674
20
3.78074612709091
30
0
41
1
10
-48.9980239691191
20
3.80566774528353
30
0
41
1
10
-49.032329222035
20
3.82420119942884
30
0
41
1
10
-49.103864788747
20
3.84772317833583
30
0
41
1
10
-49.1412080176429
20
3.85290339899515
30
0
41
1
10
-49.2192998443036
20
3.85049432846114
30
0
41
1
10
-49.260295754974
20
3.84281583124326
30
0
41
1
10
-49.3450546627423
20
3.81454211725457
30
0
41
1
10
-49.3883888843092
20
3.79416700544527
30
0
41
1
10
-49.4772615943357
20
3.74119012770098
30
0
41
1
10
-49.5227979954437
20
3.7085938773389
30
0
41
1
10
-49.6165093083022
20
3.63043365320803
30
0
41
1
10
-49.6644898501943
20
3.58492105267729
30
0
41
1
10
-49.7599228404111
20
3.48357049156067
30
0
41
1
10
-49.8077856794849
20
3.42742065858261
30
0
41
1
10
-49.9038737122304
20
3.30321856999606
30
0
41
1
10
-49.9524620554662
20
3.2346054716501
30
0
41
1
10
-50
20
3.1605940409645
30
0
0
LINE
5
76
100
AcDbEntity
8
81
62
256
6
ByLayer
370
18
48
1
60
0
100
AcDbLine
10
81
20
0
30
0
11
86
21
0
31
0
39
0
210
0
220
0
230
1
0
LINE
5
77
100
AcDbEntity
8
1
62
256
6
ByLayer
370
18
48
1
60
0
100
AcDbLine
10
2.885646
20
9.855167
30
0
11
0.8
21
9.853916
31
0
39
0
210
0
220
0
230
1
0
LINE
5
79
100
AcDbEntity
8
1
62
256
6
ByLayer
370
18
48
1
60
0
100
AcDbLine
10
24.117842
20
9.867907
30
0
11
22.737476
21
9.867079
31
0
39
0
210
0
220
0
230
1
0
LINE
5
7A
100
AcDbEntity
8
1
62
256
6
ByLayer
370
18
48
1
60
0
100
AcDbLine
10
75.718466
20
9.898867
30
0
11
74.416425
21
9.898086
31
0
39
0
210
0
220
0
230
1
0
LINE
5
7B
100
AcDbEntity
8
1
62
256
6
ByLayer
370
18
48
1
60
0
100
AcDbLine
10
74.416425
20
-9.898086
30
0
11
75.718145
21
-9.898867
31
0
39
0
210
0
220
0
230
1
0
LINE
5
7C
100
AcDbEntity
8
1
62
256
6
ByLayer
370
18
48
1
60
0
100
AcDbLine
10
22.737476
20
-9.867079
30
0
11
24.118054
21
-9.867907
31
0
39
0
210
0
220
0
230
1
0
LINE
5
7D
100
AcDbEntity
8
1
62
256
6
ByLayer
370
18
48
1
60
0
100
AcDbLine
10
0.8
20
-9.853916
30
0
11
2.885646
21
-9.855167
31
0
39
0
210
0
220
0
230
1
0
LINE
5
7E
100
AcDbEntity
8
1
62
256
6
ByLayer
370
18
48
1
60
0
100
AcDbLine
10
0
20
-10
30
0
11
0.8
21
-9.853916
31
0
39
0
210
0
220
0
230
1
0
LINE
5
7F
100
AcDbEntity
8
1
62
256
6
ByLayer
370
18
48
1
60
0
100
AcDbLine
10
0.8
20
9.853916
30
0
11
0
21
10
31
0
39
0
210
0
220
0
230
1
0
LINE
5
80
100
AcDbEntity
8
SK1
62
256
6
ByLayer
370
18
48
1
60
0
100
AcDbLine
10
0
20
10
30
0
11
-46.824574
21
10
31
0
39
0
210
0
220
0
230
1
0
LINE
5
82
100
AcDbEntity
8
SK1
62
256
6
ByLayer
370
18
48
1
60
0
100
AcDbLine
10
-46.824574
20
-10
30
0
11
0
21
-10
31
0
39
0
210
0
220
0
230
1
0
LINE
5
83
100
AcDbEntity
8
SK1
62
256
6
ByLayer
370
18
48
1
60
0
100
AcDbLine
10
-46.824574
20
10
30
0
11
-50
21
4.5
31
0
39
0
210
0
220
0
230
1
0
LINE
5
84
100
AcDbEntity
8
SK1
62
256
6
ByLayer
370
18
48
1
60
0
100
AcDbLine
10
-50
20
-4.5
30
0
11
-46.824574
21
-10
31
0
39
0
210
0
220
0
230
1
0
LINE
5
85
100
AcDbEntity
8
SK4
62
256
6
ByLayer
370
18
48
0.05
60
0
100
AcDbLine
10
86
20
0
30
0
11
-55
21
0
31
0
39
0
210
0
220
0
230
1
0
LINE
5
87
100
AcDbEntity
8
4
62
256
6
ByLayer
370
18
48
0.05
60
0
100
AcDbLine
10
81
20
0
30
0
11
0
21
0
31
0
39
0
210
0
220
0
230
1
0
LINE
5
89
100
AcDbEntity
8
80
62
256
6
ByLayer
370
18
48
1
60
0
100
AcDbLine
10
0
20
0
30
0
11
-5
21
0
31
0
39
0
210
0
220
0
230
1
0
LINE
5
8A
100
AcDbEntity
8
1
62
256
6
ByLayer
370
18
48
1
60
0
100
AcDbLine
10
76.011673
20
-5.492307
30
0
11
80.892817
21
-0.05236
31
0
39
0
210
0
220
0
230
1
0
LINE
5
8B
100
AcDbEntity
8
1
62
256
6
ByLayer
370
13
48
1
60
0
100
AcDbLine
10
80.537882
20
1.577782
30
0
11
78.469542
21
1.577782
31
0
39
0
210
0
220
0
230
1
0
LINE
5
8C
100
AcDbEntity
8
1
62
256
6
ByLayer
370
18
48
1
60
0
100
AcDbLine
10
4
20
-3.208691
30
0
11
4
21
9.765603
31
0
39
0
210
0
220
0
230
1
0
LINE
5
8D
100
AcDbEntity
8
1
62
256
6
ByLayer
370
13
48
1
60
0
100
AcDbLine
10
78.469542
20
1.577782
30
0
11
80.884037
21
0.382314
31
0
39
0
210
0
220
0
230
1
0
LINE
5
8E
100
AcDbEntity
8
1
62
256
6
ByLayer
370
18
48
1
60
0
100
AcDbLine
10
0
20
-10
30
0
11
0
21
10
31
0
39
0
210
0
220
0
230
1
0
LINE
5
8F
100
AcDbEntity
8
1
62
256
6
ByLayer
370
18
48
1
60
0
100
AcDbLine
10
81
20
0
30
0
11
77.549947
21
-9.478943
31
0
39
0
210
0
220
0
230
1
0
LINE
5
90
100
AcDbEntity
8
1
62
256
6
ByLayer
370
18
48
1
60
0
100
AcDbLine
10
80.884037
20
0.382314
30
0
11
80.537882
21
1.577782
31
0
39
0
210
0
220
0
230
1
0
LINE
5
91
100
AcDbEntity
8
1
62
256
6
ByLayer
370
18
48
1
60
0
100
AcDbLine
10
0.8
20
9.853916
30
0
11
0.8
21
-9.853916
31
0
39
0
210
0
220
0
230
1
0
LINE
5
92
100
AcDbEntity
8
1
62
256
6
ByLayer
370
13
48
1
60
0
100
AcDbLine
10
78.300083
20
1.231358
30
0
11
80.892817
21
-0.05236
31
0
39
0
210
0
220
0
230
1
0
LINE
5
93
100
AcDbEntity
8
1
62
256
6
ByLayer
370
18
48
1
60
0
100
AcDbLine
10
80.884037
20
-0.382314
30
0
11
80.537882
21
-1.577782
31
0
39
0
210
0
220
0
230
1
0
LINE
5
94
100
AcDbEntity
8
1
62
256
6
ByLayer
370
18
48
1
60
0
100
AcDbLine
10
80.977396
20
0.091643
30
0
11
81
21
0
31
0
39
0
210
0
220
0
230
1
0
LINE
5
95
100
AcDbEntity
8
1
62
256
6
ByLayer
370
18
48
1
60
0
100
AcDbLine
10
81
20
0
30
0
11
80.977396
21
-0.091643
31
0
39
0
210
0
220
0
230
1
0
LINE
5
96
100
AcDbEntity
8
SK1
62
256
6
ByLayer
370
13
48
1
60
0
100
AcDbLine
10
-47.6
20
4.645355
30
0
11
-47.6
21
1.373302
31
0
39
0
210
0
220
0
230
1
0
LINE
5
97
100
AcDbEntity
8
SK1
62
256
6
ByLayer
370
18
48
1
60
0
100
AcDbLine
10
-50
20
4.5
30
0
11
-50
21
3.160594
31
0
39
0
210
0
220
0
230
1
0
LINE
5
98
100
AcDbEntity
8
SK1
62
256
6
ByLayer
370
18
48
1
60
0
100
AcDbLine
10
-47.5
20
1.536452
30
0
11
-47.5
21
4.621579
31
0
39
0
210
0
220
0
230
1
0
LINE
5
99
100
AcDbEntity
8
SK1
62
256
6
ByLayer
370
18
48
1
60
0
100
AcDbLine
10
-46.824574
20
10
30
0
11
-46.824574
21
-10
31
0
39
0
210
0
220
0
230
1
0
LINE
5
9A
100
AcDbEntity
8
SK1
62
256
6
ByLayer
370
18
48
1
60
0
100
AcDbLine
10
0
20
-10
30
0
11
0
21
10
31
0
39
0
210
0
220
0
230
1
0
LINE
5
9B
100
AcDbEntity
8
SK1
62
256
6
ByLayer
370
18
48
1
60
0
100
AcDbLine
10
-50
20
-0.164523
30
0
11
-50
21
-4.5
31
0
39
0
210
0
220
0
230
1
0
LINE
5
9C
100
AcDbEntity
8
SK1
62
256
6
ByLayer
370
18
48
1
60
0
100
AcDbLine
10
-50
20
3.076269
30
0
11
-50
21
0.164523
31
0
39
0
210
0
220
0
230
1
0
MTEXT
5
E0
100
AcDbEntity
8
SK6
62
256
6
ByLayer
370
13
48
1
60
0
100
AcDbMText
10
17.629169
20
42.282694
30
0
210
0
220
0
230
1
1
\W0.7415;R840-1980-30-A1A1220
40
3.5
41
0
44
1.084337
50
0
71
8
72
5
7
iso_b_vert
0
DIMENSION
5
ED
100
AcDbEntity
8
SK2
62
256
6
ByLayer
370
13
48
1
60
0
100
AcDbDimension
2
DimnDraft3D1
10
77.59
20
-20.113398
30
0
11
36.340059
21
-20.113398
31
0
70
32
71
5
72
1
41
1
210
0
220
0
230
1
3
Standard
100
AcDbAlignedDimension
13
0
23
-1.5875
33
0
14
77.59
24
-11.4875
34
0
50
0
100
AcDbRotatedDimension
1001
ACAD
1000
DSTYLE
1002
{
1070
   279
1070
     0
1070
   172
1070
     1
1070
   173
1070
     1
1070
   340
1005
E1
1070
   271
1070
     2
1070
   272
1070
     2
1070
    77
1070
     1
1070
    73
1070
     0
1070
   171
1070
     3
1070
   274
1070
     4
1070
   177
1070
    35
1070
   176
1070
    35
1070
   178
1070
    35
1070
    48
1040
-0.005
1070
    41
1041
3.5
1070
   147
1041
1.75
1070
    42
1041
1.5875
1070
    44
1041
2.0
1070
   140
1041
3.5
1070
   343
1005
0
1070
   344
1005
0
1002
}
0
DIMENSION
5
F7
100
AcDbEntity
8
SK2
62
256
6
ByLayer
370
13
48
1
60
0
100
AcDbDimension
2
DimnDraft3D2
10
81
20
-38.692985
30
0
11
13.4313
21
-38.692985
31
0
70
32
71
5
72
1
41
1
210
0
220
0
230
1
3
Standard
100
AcDbAlignedDimension
13
-50
23
-11.5875
33
0
14
81
24
-1.5875
34
0
50
0
100
AcDbRotatedDimension
1001
ACAD
1000
DSTYLE
1002
{
1070
   279
1070
     0
1070
   172
1070
     1
1070
   173
1070
     1
1070
   340
1005
E1
1070
   271
1070
     2
1070
   272
1070
     2
1070
    77
1070
     1
1070
    73
1070
     0
1070
   171
1070
     3
1070
   274
1070
     4
1070
   177
1070
    35
1070
   176
1070
    35
1070
   178
1070
    35
1070
    48
1040
-0.005
1070
    41
1041
3.5
1070
   147
1041
1.75
1070
    42
1041
1.5875
1070
    44
1041
2.0
1070
   140
1041
3.5
1070
   343
1005
0
1070
   344
1005
0
1002
}
0
DIMENSION
5
101
100
AcDbEntity
8
SK2
62
256
6
ByLayer
370
13
48
1
60
0
100
AcDbDimension
2
DimnDraft3D3
10
81
20
21.509119
30
0
11
49.595
21
21.509119
31
0
70
32
71
5
72
1
41
1
210
0
220
0
230
1
3
Standard
100
AcDbAlignedDimension
13
18.19
23
11.4875
33
0
14
81
24
1.5875
34
0
50
0
100
AcDbRotatedDimension
1001
ACAD
1000
DSTYLE
1002
{
1070
   279
1070
     0
1070
   172
1070
     1
1070
   173
1070
     1
1070
   340
1005
E1
1070
   271
1070
     2
1070
   272
1070
     2
1070
    77
1070
     1
1070
    73
1070
     0
1070
   171
1070
     3
1070
   274
1070
     4
1070
   177
1070
    35
1070
   176
1070
    35
1070
   178
1070
    35
1070
    48
1040
-0.005
1070
    41
1041
3.5
1070
   147
1041
1.75
1070
    42
1041
1.5875
1070
    44
1041
2.0
1070
   140
1041
3.5
1070
   343
1005
0
1070
   344
1005
0
1002
}
0
DIMENSION
5
10B
100
AcDbEntity
8
SK2
62
256
6
ByLayer
370
13
48
1
60
0
100
AcDbDimension
2
DimnDraft3D4
10
77.59
20
-22.702503
30
0
11
90.981425
21
-22.702503
31
0
70
32
71
5
72
1
41
1
210
0
220
0
230
1
3
Standard
100
AcDbAlignedDimension
13
81
23
-1.5875
33
0
14
77.59
24
-11.4875
34
0
50
0
100
AcDbRotatedDimension
1001
ACAD
1000
DSTYLE
1002
{
1070
   279
1070
     0
1070
   172
1070
     1
1070
   173
1070
     1
1070
   340
1005
E1
1070
   271
1070
     2
1070
   272
1070
     2
1070
    77
1070
     1
1070
    73
1070
     0
1070
   171
1070
     3
1070
   274
1070
     4
1070
   177
1070
    35
1070
   176
1070
    35
1070
   178
1070
    35
1070
    48
1040
-0.005
1070
    41
1041
3.5
1070
   147
1041
1.75
1070
    42
1041
1.5875
1070
    44
1041
2.0
1070
   140
1041
3.5
1070
   343
1005
0
1070
   344
1005
0
1002
}
0
DIMENSION
5
115
100
AcDbEntity
8
SK2
62
256
6
ByLayer
370
13
48
1
60
0
100
AcDbDimension
2
DimnDraft3D5
10
77.59
20
-28.343428
30
0
11
10.350676
21
-28.343428
31
0
70
32
71
5
72
1
41
1
210
0
220
0
230
1
3
Standard
100
AcDbAlignedDimension
13
-50
23
-11.5875
33
0
14
77.59
24
-11.4875
34
0
50
0
100
AcDbRotatedDimension
1001
ACAD
1000
DSTYLE
1002
{
1070
   279
1070
     0
1070
   172
1070
     1
1070
   173
1070
     1
1070
   340
1005
E1
1070
   271
1070
     2
1070
   272
1070
     2
1070
    77
1070
     1
1070
    73
1070
     0
1070
   171
1070
     3
1070
   274
1070
     4
1070
   177
1070
    35
1070
   176
1070
    35
1070
   178
1070
    35
1070
    48
1040
-0.005
1070
    41
1041
3.5
1070
   147
1041
1.75
1070
    42
1041
1.5875
1070
    44
1041
2.0
1070
   140
1041
3.5
1070
   343
1005
0
1070
   344
1005
0
1002
}
0
DIMENSION
5
120
100
AcDbEntity
8
SK2
62
256
6
ByLayer
370
13
48
1
60
0
100
AcDbDimension
2
DimnDraft3D6
10
-60.625163
20
10
30
0
11
-61.250163
21
28.47418
31
0
70
33
71
5
72
1
41
1
210
0
220
0
230
1
3
Standard
100
AcDbAlignedDimension
13
-51.5875
23
-10
33
0
14
-51.5875
24
10
34
0
1001
ACAD
1000
DSTYLE
1002
{
1070
   279
1070
     0
1070
    74
1070
     0
1070
   173
1070
     1
1070
   340
1005
E1
1070
   271
1070
     3
1070
   272
1070
     2
1070
    77
1070
     1
1070
    73
1070
     0
1070
   171
1070
     3
1070
   274
1070
     4
1070
   177
1070
    35
1070
   176
1070
    35
1070
   178
1070
    35
1070
    48
1040
-0.005
1070
    41
1041
3.5
1070
   147
1041
1.75
1070
    42
1041
1.5875
1070
    44
1041
2.0
1070
   140
1041
3.5
1070
   343
1005
0
1070
   344
1005
0
1002
}
0
DIMENSION
5
12B
100
AcDbEntity
8
2
62
256
6
ByLayer
370
13
48
1
60
0
100
AcDbDimension
2
DimnDraft3D7
10
95.083343
20
9.9
30
0
11
90.458343
21
26.967266
31
0
70
33
71
5
72
1
41
1
210
0
220
0
230
1
3
Standard
100
AcDbAlignedDimension
13
79.1775
23
-9.9
33
0
14
79.1775
24
9.9
34
0
1001
ACAD
1000
DSTYLE
1002
{
1070
   279
1070
     0
1070
    74
1070
     0
1070
   173
1070
     1
1070
   340
1005
E1
1070
   271
1070
     3
1070
   272
1070
     2
1070
    77
1070
     1
1070
    73
1070
     0
1070
   171
1070
     3
1070
   274
1070
     4
1070
   177
1070
    35
1070
   176
1070
    35
1070
   178
1070
    35
1070
    48
1040
-0.005
1070
    41
1041
3.5
1070
   147
1041
1.75
1070
    42
1041
1.5875
1070
    44
1041
2.0
1070
   140
1041
3.5
1070
   343
1005
0
1070
   344
1005
0
1002
}
0
ENDSEC
0
SECTION
2
OBJECTS
0
DICTIONARY
5
196
330
0
100
AcDbDictionary
280
0
281
1
3
ACAD_GROUP
350
197
3
ACAD_MLINESTYLE
350
198
0
DICTIONARY
5
197
330
0
100
AcDbDictionary
280
0
281
1
0
DICTIONARY
5
198
330
0
100
AcDbDictionary
280
0
281
1
3
Standard
350
18
0
MLINESTYLE
5
18
330
198
100
AcDbMlineStyle
2
Standard
70
0
3

62
256
51
90
52
90
71
2
49
-0.5
62
256
6
ByLayer
49
0.5
62
256
6
ByLayer
0
RASTERVARIABLES
5
184
330

100
AcDbRasterVariables
90
0
70
1
71
1
72
1
0
ENDSEC
0
EOF
