0
SECTION
2
HEADER
9
$ACADVER
1
AC1015
9
$DWGCODEPAGE
3
ANSI_1252
9
$HANDSEED
5
1a1
9
$ANGBASE
50
0
9
$ANGDIR
70
0
9
$ATTMODE
70
1
9
$AUNITS
70
0
9
$AUPREC
70
0
9
$CECOLOR
62
256
9
$CELTSCALE
40
1
9
$CELTYPE
6
ByLayer
9
$CELWEIGHT
370
18
9
$CLAYER
8
0
9
$CMLJUST
70
0
9
$CMLSCALE
40
1
9
$CMLSTYLE
2
Standard
9
$DIMSTYLE
2
Standard
9
$TEXTSIZE
40
0.2
9
$TEXTSTYLE
7
Standard
9
$LUNITS
70
2
9
$LUPREC
70
4
9
$EXTNAMES
290
1
9
$INSUNITS
70
4
9
$LTSCALE
40
1
9
$LWDISPLAY
290
1
9
$PDMODE
70
0
9
$PDSIZE
40
0
9
$PLINEGEN
70
0
0
ENDSEC
0
SECTION
2
CLASSES
0
CLASS
1
RASTERVARIABLES
2
AcDbRasterVariables
3
ISM
90
0
280
0
281
0
0
ENDSEC
0
SECTION
2
TABLES
0
TABLE
2
VPORT
5
197
100
AcDbSymbolTable
0
VPORT
5
1
100
AcDbSymbolTableRecord
100
AcDbViewportTableRecord
2
*Active
70
0
10
0
20
0
11
1
21
1
12
-1
22
1
13
0
23
0
14
0.5
24
0.5
15
10
25
10
16
0
26
0
36
1
17
0
27
0
37
0
0
ENDTAB
0
TABLE
2
LTYPE
5
198
100
AcDbSymbolTable
0
LTYPE
5
14
100
AcDbSymbolTableRecord
100
AcDbLinetypeTableRecord
70
0
2
ByBlock
3

72
65
73
0
40
0
0
LTYPE
5
15
100
AcDbSymbolTableRecord
100
AcDbLinetypeTableRecord
70
0
2
ByLayer
3

72
65
73
0
40
0
0
LTYPE
5
16
100
AcDbSymbolTableRecord
100
AcDbLinetypeTableRecord
70
0
2
CONTINUOUS
3
Solid line
72
65
73
0
40
0
0
LTYPE
5
6A
100
AcDbSymbolTableRecord
100
AcDbLinetypeTableRecord
70
0
2
CENTER
3
____ _ ____ _ ____ _ ____
72
65
73
4
40
47.5
49
22
74
0
49
-8.5
74
0
49
8.5
74
0
49
-8.5
74
0
0
LTYPE
5
6B
100
AcDbSymbolTableRecord
100
AcDbLinetypeTableRecord
70
0
2
DASHED
3
__ __ __ __ __ __ __ __ __
72
65
73
2
40
25.72
49
12.86
74
0
49
-12.86
74
0
0
ENDTAB
0
TABLE
2
LAYER
5
199
100
AcDbSymbolTable
0
LAYER
5
10
100
AcDbSymbolTableRecord
100
AcDbLayerTableRecord
2
0
70
0
62
7
6
CONTINUOUS
290
1
370
-3
390
0
0
LAYER
5
6D
100
AcDbSymbolTableRecord
100
AcDbLayerTableRecord
2
81
70
0
62
-3
6
CONTINUOUS
290
1
370
-3
390
0
0
LAYER
5
6F
100
AcDbSymbolTableRecord
100
AcDbLayerTableRecord
2
80
70
0
62
-6
6
CONTINUOUS
290
1
370
-3
390
0
0
LAYER
5
74
100
AcDbSymbolTableRecord
100
AcDbLayerTableRecord
2
2
70
0
62
7
6
CONTINUOUS
290
1
370
-3
390
0
0
LAYER
5
78
100
AcDbSymbolTableRecord
100
AcDbLayerTableRecord
2
1
70
0
62
4
6
CONTINUOUS
290
1
370
-3
390
0
0
LAYER
5
86
100
AcDbSymbolTableRecord
100
AcDbLayerTableRecord
2
4
70
0
62
-2
6
CENTER
290
1
370
-3
390
0
0
LAYER
5
183
100
AcDbSymbolTableRecord
100
AcDbLayerTableRecord
2
SK2
70
0
62
7
6
CONTINUOUS
290
1
370
-3
390
0
0
LAYER
5
184
100
AcDbSymbolTableRecord
100
AcDbLayerTableRecord
2
SK1
70
0
62
4
6
CONTINUOUS
290
1
370
-3
390
0
0
LAYER
5
185
100
AcDbSymbolTableRecord
100
AcDbLayerTableRecord
2
SK4
70
0
62
2
6
CENTER
290
1
370
-3
390
0
0
LAYER
5
186
100
AcDbSymbolTableRecord
100
AcDbLayerTableRecord
2
SK6
70
0
62
5
6
CONTINUOUS
290
1
370
-3
390
0
0
ENDTAB
0
TABLE
2
STYLE
5
19a
100
AcDbSymbolTable
0
STYLE
5
11
100
AcDbSymbolTableRecord
100
AcDbTextStyleTableRecord
2
Standard
3
txt
70
0
71
0
40
0
41
1
42
0
50
0
0
STYLE
5
DF
100
AcDbSymbolTableRecord
100
AcDbTextStyleTableRecord
2
iso_b_vert
3
simplex.shx
70
0
71
0
40
0
41
1
42
0
50
0
0
STYLE
5
E0
100
AcDbSymbolTableRecord
100
AcDbTextStyleTableRecord
2
DWGDirectTextStyle
3
simplex
70
0
71
0
40
0
41
1
42
0
50
0
0
ENDTAB
0
TABLE
2
DIMSTYLE
5
19b
100
AcDbSymbolTable
100
AcDbDimStyleTable
0
DIMSTYLE
105
27
100
AcDbSymbolTableRecord
100
AcDbDimStyleTableRecord
2
Standard
70
0
3
<>
41
0.18
42
0.0625
44
0.18
140
0.18
147
0.09
73
0
74
0
77
1
271
2
275
0
278
52
280
0
340
11
0
ENDTAB
0
TABLE
2
VIEW
5
19c
100
AcDbSymbolTable
0
ENDTAB
0
TABLE
2
UCS
5
19d
100
AcDbSymbolTable
0
ENDTAB
0
TABLE
2
APPID
5
19e
100
AcDbSymbolTable
0
APPID
5
12
100
AcDbSymbolTableRecord
100
AcDbRegAppTableRecord
2
ACAD
70
0
0
ENDTAB
0
TABLE
2
BLOCK_RECORD
5
19f
100
AcDbSymbolTable
0
BLOCK_RECORD
5
1F
100
AcDbSymbolTableRecord
100
AcDbBlockTableRecord
2
*Model_Space
340
0
70
0
0
BLOCK_RECORD
5
1B
100
AcDbSymbolTableRecord
100
AcDbBlockTableRecord
2
*Paper_Space
340
0
70
0
0
BLOCK_RECORD
5
23
100
AcDbSymbolTableRecord
100
AcDbBlockTableRecord
2
*Paper_Space0
340
0
70
0
0
BLOCK_RECORD
5
E2
100
AcDbSymbolTableRecord
100
AcDbBlockTableRecord
2
DimnDraft3D1
340
0
70
0
0
BLOCK_RECORD
5
EC
100
AcDbSymbolTableRecord
100
AcDbBlockTableRecord
2
DimnDraft3D2
340
0
70
0
0
BLOCK_RECORD
5
F6
100
AcDbSymbolTableRecord
100
AcDbBlockTableRecord
2
DimnDraft3D3
340
0
70
0
0
BLOCK_RECORD
5
100
100
AcDbSymbolTableRecord
100
AcDbBlockTableRecord
2
DimnDraft3D4
340
0
70
0
0
BLOCK_RECORD
5
10A
100
AcDbSymbolTableRecord
100
AcDbBlockTableRecord
2
DimnDraft3D5
340
0
70
0
0
BLOCK_RECORD
5
114
100
AcDbSymbolTableRecord
100
AcDbBlockTableRecord
2
DimnDraft3D6
340
0
70
0
0
BLOCK_RECORD
5
11F
100
AcDbSymbolTableRecord
100
AcDbBlockTableRecord
2
DimnDraft3D7
340
0
70
0
0
ENDTAB
0
ENDSEC
0
SECTION
2
BLOCKS
0
BLOCK
5
20
100
AcDbEntity
8
0
100
AcDbBlockBegin
2
*Model_Space
70
0
10
0
20
0
30
0
3
*Model_Space
0
ENDBLK
5
21
100
AcDbEntity
8
0
100
AcDbBlockEnd
0
BLOCK
5
1C
100
AcDbEntity
8
0
100
AcDbBlockBegin
2
*Paper_Space
70
0
10
0
20
0
30
0
3
*Paper_Space
0
ENDBLK
5
1D
100
AcDbEntity
8
0
100
AcDbBlockEnd
0
BLOCK
5
24
100
AcDbEntity
8
0
100
AcDbBlockBegin
2
*Paper_Space0
70
0
10
0
20
0
30
0
3
*Paper_Space0
0
ENDBLK
5
25
100
AcDbEntity
8
0
100
AcDbBlockEnd
0
BLOCK
5
E9
100
AcDbEntity
8
0
100
AcDbBlockBegin
2
DimnDraft3D1
70
0
10
0
20
0
30
0
3
DimnDraft3D1
0
MTEXT
5
E3
100
AcDbEntity
8
SK2
62
256
6
ByLayer
370
13
48
1
60
0
100
AcDbMText
10
43.061375
20
-18.738398
30
0
210
0
220
0
230
1
1
\W0.7317;99,76
40
3.5
41
0
44
1.084337
50
0
71
7
72
5
7
iso_b_vert
0
LINE
5
E4
100
AcDbEntity
8
SK2
62
256
6
ByLayer
370
13
48
1
60
0
100
AcDbLine
10
0
20
-1.5875
30
0
11
0
21
-21.613398
31
0
39
0
210
0
220
0
230
1
0
LINE
5
E5
100
AcDbEntity
8
SK2
62
256
6
ByLayer
370
13
48
1
60
0
100
AcDbLine
10
99.76
20
-10.9875
30
0
11
99.76
21
-21.613398
31
0
39
0
210
0
220
0
230
1
0
LINE
5
E6
100
AcDbEntity
8
SK2
62
256
6
ByLayer
370
13
48
1
60
0
100
AcDbLine
10
0
20
-19.613398
30
0
11
99.76
21
-19.613398
31
0
39
0
210
0
220
0
230
1
0
SOLID
5
E7
100
AcDbEntity
8
SK2
62
256
6
ByLayer
370
13
48
1
60
0
100
AcDbTrace
10
0
20
-19.613398
30
0
11
3.499998
21
-19.152615
31
0
12
3.500002
22
-20.074182
32
0
13
0
23
-19.613398
33
0
39
0
210
0
220
0
230
1
0
SOLID
5
E8
100
AcDbEntity
8
SK2
62
256
6
ByLayer
370
13
48
1
60
0
100
AcDbTrace
10
99.76
20
-19.613398
30
0
11
96.260002
21
-20.074182
31
0
12
96.259998
22
-19.152615
32
0
13
99.76
23
-19.613398
33
0
39
0
210
0
220
0
230
1
0
ENDBLK
5
EA
100
AcDbEntity
8
0
100
AcDbBlockEnd
0
BLOCK
5
F3
100
AcDbEntity
8
0
100
AcDbBlockBegin
2
DimnDraft3D2
70
0
10
0
20
0
30
0
3
DimnDraft3D2
0
MTEXT
5
ED
100
AcDbEntity
8
SK2
62
256
6
ByLayer
370
13
48
1
60
0
100
AcDbMText
10
19.282221
20
-37.817985
30
0
210
0
220
0
230
1
1
\W0.6930;153,00
40
3.5
41
0
44
1.084337
50
0
71
7
72
5
7
iso_b_vert
0
LINE
5
EE
100
AcDbEntity
8
SK2
62
256
6
ByLayer
370
13
48
1
60
0
100
AcDbLine
10
-50
20
-11.5875
30
0
11
-50
21
-40.692985
31
0
39
0
210
0
220
0
230
1
0
LINE
5
EF
100
AcDbEntity
8
SK2
62
256
6
ByLayer
370
13
48
1
60
0
100
AcDbLine
10
103
20
-1.5875
30
0
11
103
21
-40.692985
31
0
39
0
210
0
220
0
230
1
0
LINE
5
F0
100
AcDbEntity
8
SK2
62
256
6
ByLayer
370
13
48
1
60
0
100
AcDbLine
10
-50
20
-38.692985
30
0
11
103
21
-38.692985
31
0
39
0
210
0
220
0
230
1
0
SOLID
5
F1
100
AcDbEntity
8
SK2
62
256
6
ByLayer
370
13
48
1
60
0
100
AcDbTrace
10
-50
20
-38.692985
30
0
11
-46.500002
21
-38.232202
31
0
12
-46.499998
22
-39.153769
32
0
13
-50
23
-38.692985
33
0
39
0
210
0
220
0
230
1
0
SOLID
5
F2
100
AcDbEntity
8
SK2
62
256
6
ByLayer
370
13
48
1
60
0
100
AcDbTrace
10
103
20
-38.692985
30
0
11
99.500002
21
-39.153769
31
0
12
99.499998
22
-38.232202
32
0
13
103
23
-38.692985
33
0
39
0
210
0
220
0
230
1
0
ENDBLK
5
F4
100
AcDbEntity
8
0
100
AcDbBlockEnd
0
BLOCK
5
FD
100
AcDbEntity
8
0
100
AcDbBlockBegin
2
DimnDraft3D3
70
0
10
0
20
0
30
0
3
DimnDraft3D3
0
MTEXT
5
F7
100
AcDbEntity
8
SK2
62
256
6
ByLayer
370
13
48
1
60
0
100
AcDbMText
10
49.747105
20
21.884119
30
0
210
0
220
0
230
1
1
\W0.7495;97,24
40
3.5
41
0
44
1.084337
50
0
71
7
72
5
7
iso_b_vert
0
LINE
5
F8
100
AcDbEntity
8
SK2
62
256
6
ByLayer
370
13
48
1
60
0
100
AcDbLine
10
5.76
20
10.9875
30
0
11
5.76
21
23.009119
31
0
39
0
210
0
220
0
230
1
0
LINE
5
F9
100
AcDbEntity
8
SK2
62
256
6
ByLayer
370
13
48
1
60
0
100
AcDbLine
10
103
20
1.5875
30
0
11
103
21
23.009119
31
0
39
0
210
0
220
0
230
1
0
LINE
5
FA
100
AcDbEntity
8
SK2
62
256
6
ByLayer
370
13
48
1
60
0
100
AcDbLine
10
5.76
20
21.009119
30
0
11
103
21
21.009119
31
0
39
0
210
0
220
0
230
1
0
SOLID
5
FB
100
AcDbEntity
8
SK2
62
256
6
ByLayer
370
13
48
1
60
0
100
AcDbTrace
10
5.76
20
21.009119
30
0
11
9.259998
21
21.469903
31
0
12
9.260002
22
20.548335
32
0
13
5.76
23
21.009119
33
0
39
0
210
0
220
0
230
1
0
SOLID
5
FC
100
AcDbEntity
8
SK2
62
256
6
ByLayer
370
13
48
1
60
0
100
AcDbTrace
10
103
20
21.009119
30
0
11
99.500002
21
20.548335
31
0
12
99.499998
22
21.469903
32
0
13
103
23
21.009119
33
0
39
0
210
0
220
0
230
1
0
ENDBLK
5
FE
100
AcDbEntity
8
0
100
AcDbBlockEnd
0
BLOCK
5
107
100
AcDbEntity
8
0
100
AcDbBlockBegin
2
DimnDraft3D4
70
0
10
0
20
0
30
0
3
DimnDraft3D4
0
MTEXT
5
101
100
AcDbEntity
8
SK2
62
256
6
ByLayer
370
13
48
1
60
0
100
AcDbMText
10
109.656425
20
-21.327503
30
0
210
0
220
0
230
1
1
\W0.7383;3,24
40
3.5
41
0
44
1.084337
50
0
71
7
72
5
7
iso_b_vert
0
LINE
5
102
100
AcDbEntity
8
SK2
62
256
6
ByLayer
370
13
48
1
60
0
100
AcDbLine
10
103
20
-1.5875
30
0
11
103
21
-24.202503
31
0
39
0
210
0
220
0
230
1
0
LINE
5
103
100
AcDbEntity
8
SK2
62
256
6
ByLayer
370
13
48
1
60
0
100
AcDbLine
10
99.76
20
-10.9875
30
0
11
99.76
21
-24.202503
31
0
39
0
210
0
220
0
230
1
0
LINE
5
104
100
AcDbEntity
8
SK2
62
256
6
ByLayer
370
13
48
1
60
0
100
AcDbLine
10
91.01
20
-22.202503
30
0
11
117.181425
21
-22.202503
31
0
39
0
210
0
220
0
230
1
0
SOLID
5
105
100
AcDbEntity
8
SK2
62
256
6
ByLayer
370
13
48
1
60
0
100
AcDbTrace
10
103
20
-22.202503
30
0
11
106.499998
21
-21.741719
31
0
12
106.500002
22
-22.663287
32
0
13
103
23
-22.202503
33
0
39
0
210
0
220
0
230
1
0
SOLID
5
106
100
AcDbEntity
8
SK2
62
256
6
ByLayer
370
13
48
1
60
0
100
AcDbTrace
10
99.76
20
-22.202503
30
0
11
96.260002
21
-22.663287
31
0
12
96.259998
22
-21.741719
32
0
13
99.76
23
-22.202503
33
0
39
0
210
0
220
0
230
1
0
ENDBLK
5
108
100
AcDbEntity
8
0
100
AcDbBlockEnd
0
BLOCK
5
111
100
AcDbEntity
8
0
100
AcDbBlockBegin
2
DimnDraft3D5
70
0
10
0
20
0
30
0
3
DimnDraft3D5
0
MTEXT
5
10B
100
AcDbEntity
8
SK2
62
256
6
ByLayer
370
13
48
1
60
0
100
AcDbMText
10
16.017387
20
-27.468428
30
0
210
0
220
0
230
1
1
\W0.7145;149,76
40
3.5
41
0
44
1.084337
50
0
71
7
72
5
7
iso_b_vert
0
LINE
5
10C
100
AcDbEntity
8
SK2
62
256
6
ByLayer
370
13
48
1
60
0
100
AcDbLine
10
-50
20
-11.5875
30
0
11
-50
21
-30.343428
31
0
39
0
210
0
220
0
230
1
0
LINE
5
10D
100
AcDbEntity
8
SK2
62
256
6
ByLayer
370
13
48
1
60
0
100
AcDbLine
10
99.76
20
-10.9875
30
0
11
99.76
21
-30.343428
31
0
39
0
210
0
220
0
230
1
0
LINE
5
10E
100
AcDbEntity
8
SK2
62
256
6
ByLayer
370
13
48
1
60
0
100
AcDbLine
10
-50
20
-28.343428
30
0
11
99.76
21
-28.343428
31
0
39
0
210
0
220
0
230
1
0
SOLID
5
10F
100
AcDbEntity
8
SK2
62
256
6
ByLayer
370
13
48
1
60
0
100
AcDbTrace
10
-50
20
-28.343428
30
0
11
-46.500002
21
-27.882645
31
0
12
-46.499998
22
-28.804212
32
0
13
-50
23
-28.343428
33
0
39
0
210
0
220
0
230
1
0
SOLID
5
110
100
AcDbEntity
8
SK2
62
256
6
ByLayer
370
13
48
1
60
0
100
AcDbTrace
10
99.76
20
-28.343428
30
0
11
96.260002
21
-28.804212
31
0
12
96.259998
22
-27.882645
32
0
13
99.76
23
-28.343428
33
0
39
0
210
0
220
0
230
1
0
ENDBLK
5
112
100
AcDbEntity
8
0
100
AcDbBlockEnd
0
BLOCK
5
11C
100
AcDbEntity
8
0
100
AcDbBlockBegin
2
DimnDraft3D6
70
0
10
0
20
0
30
0
3
DimnDraft3D6
0
MTEXT
5
115
100
AcDbEntity
8
SK2
62
256
6
ByLayer
370
13
48
1
60
0
100
AcDbMText
10
-60.375163
20
29.34918
30
0
210
0
220
0
230
1
1
\W0.7421;20,000
40
3.5
41
0
44
1.084337
50
90
71
7
72
5
7
iso_b_vert
0
MTEXT
5
116
100
AcDbEntity
8
SK2
62
256
6
ByLayer
370
13
48
1
60
0
100
AcDbMText
10
-60.375163
20
24.126524
30
0
210
0
220
0
230
1
1
%%c
40
3.5
41
0
44
1.084337
50
90
71
7
72
5
7
iso_b_vert
0
LINE
5
117
100
AcDbEntity
8
SK2
62
256
6
ByLayer
370
13
48
1
60
0
100
AcDbLine
10
-51.5875
20
-10
30
0
11
-60.625163
21
-10
31
0
39
0
210
0
220
0
230
1
0
LINE
5
118
100
AcDbEntity
8
SK2
62
256
6
ByLayer
370
13
48
1
60
0
100
AcDbLine
10
-51.5875
20
10
30
0
11
-60.625163
21
10
31
0
39
0
210
0
220
0
230
1
0
LINE
5
119
100
AcDbEntity
8
SK2
62
256
6
ByLayer
370
13
48
1
60
0
100
AcDbLine
10
-58.625163
20
-10
30
0
11
-58.625163
21
41.737338
31
0
39
0
210
0
220
0
230
1
0
SOLID
5
11A
100
AcDbEntity
8
SK2
62
256
6
ByLayer
370
13
48
1
60
0
100
AcDbTrace
10
-58.625163
20
-10
30
0
11
-59.085946
21
-6.500002
31
0
12
-58.164379
22
-6.499998
32
0
13
-58.625163
23
-10
33
0
39
0
210
0
220
0
230
1
0
SOLID
5
11B
100
AcDbEntity
8
SK2
62
256
6
ByLayer
370
13
48
1
60
0
100
AcDbTrace
10
-58.625163
20
10
30
0
11
-58.164379
21
6.500002
31
0
12
-59.085946
22
6.499998
32
0
13
-58.625163
23
10
33
0
39
0
210
0
220
0
230
1
0
ENDBLK
5
11D
100
AcDbEntity
8
0
100
AcDbBlockEnd
0
BLOCK
5
127
100
AcDbEntity
8
0
100
AcDbBlockBegin
2
DimnDraft3D7
70
0
10
0
20
0
30
0
3
DimnDraft3D7
0
MTEXT
5
120
100
AcDbEntity
8
2
62
256
6
ByLayer
370
13
48
1
60
0
100
AcDbMText
10
113.333343
20
27.342266
30
0
210
0
220
0
230
1
1
\W0.6930;18,800
40
3.5
41
0
44
1.084337
50
90
71
7
72
5
7
iso_b_vert
0
MTEXT
5
121
100
AcDbEntity
8
2
62
256
6
ByLayer
370
13
48
1
60
0
100
AcDbMText
10
113.333343
20
22.11961
30
0
210
0
220
0
230
1
1
%%c
40
3.5
41
0
44
1.084337
50
90
71
7
72
5
7
iso_b_vert
0
LINE
5
122
100
AcDbEntity
8
2
62
256
6
ByLayer
370
13
48
1
60
0
100
AcDbLine
10
101.3475
20
-9.4
30
0
11
117.083343
21
-9.4
31
0
39
0
210
0
220
0
230
1
0
LINE
5
123
100
AcDbEntity
8
2
62
256
6
ByLayer
370
13
48
1
60
0
100
AcDbLine
10
101.3475
20
9.4
30
0
11
117.083343
21
9.4
31
0
39
0
210
0
220
0
230
1
0
LINE
5
124
100
AcDbEntity
8
2
62
256
6
ByLayer
370
13
48
1
60
0
100
AcDbLine
10
115.083343
20
-9.4
30
0
11
115.083343
21
38.855424
31
0
39
0
210
0
220
0
230
1
0
SOLID
5
125
100
AcDbEntity
8
2
62
256
6
ByLayer
370
13
48
1
60
0
100
AcDbTrace
10
115.083343
20
-9.4
30
0
11
114.622559
21
-5.900002
31
0
12
115.544126
22
-5.899998
32
0
13
115.083343
23
-9.4
33
0
39
0
210
0
220
0
230
1
0
SOLID
5
126
100
AcDbEntity
8
2
62
256
6
ByLayer
370
13
48
1
60
0
100
AcDbTrace
10
115.083343
20
9.4
30
0
11
115.544126
21
5.900002
31
0
12
114.622559
22
5.899998
32
0
13
115.083343
23
9.4
33
0
39
0
210
0
220
0
230
1
0
ENDBLK
5
128
100
AcDbEntity
8
0
100
AcDbBlockEnd
0
ENDSEC
0
SECTION
2
ENTITIES
0
ARC
5
9D
100
AcDbEntity
8
1
62
256
6
ByLayer
370
18
48
1
60
0
100
AcDbCircle
39
0
10
0
20
9.2
30
0
40
0.799999999999996
210
0
220
0
230
1
100
AcDbArc
50
36.019993
51
90
0
ARC
5
9E
100
AcDbEntity
8
1
62
256
6
ByLayer
370
18
48
1
60
0
100
AcDbCircle
39
0
10
0
20
-9.2
30
0
40
0.799999999999996
210
0
220
0
230
1
100
AcDbArc
50
270
51
323.980007
0
ARC
5
9F
100
AcDbEntity
8
1
62
256
6
ByLayer
370
18
48
1
60
0
100
AcDbCircle
39
0
10
-1.294099
20
10.140908
30
0
40
0.800000000000002
210
0
220
0
230
-1
100
AcDbArc
50
269.965623
51
323.980007
0
ARC
5
A0
100
AcDbEntity
8
1
62
256
6
ByLayer
370
18
48
1
60
0
100
AcDbCircle
39
0
10
-1.294099
20
-10.140908
30
0
40
0.800000000000002
210
0
220
0
230
-1
100
AcDbArc
50
36.019993
51
90.034377
0
ELLIPSE
5
A1
100
AcDbEntity
8
1
62
256
6
ByLayer
370
18
48
1
60
0
100
AcDbEllipse
10
4.25
20
-9.192235
30
0
11
-0.25
21
3.06151588455594E-17
31
0
210
0
220
0
230
1
40
0.999999
41
-1.5661435473518
42
-0.0219908751476306
0
ELLIPSE
5
A2
100
AcDbEntity
8
1
62
256
6
ByLayer
370
18
48
1
60
0
100
AcDbEllipse
10
4.25
20
9.192235
30
0
11
-0.25
21
3.06151588455594E-17
31
0
210
0
220
0
230
1
40
0.999999
41
0.0219908751475666
42
1.58080632134383
0
ELLIPSE
5
A3
100
AcDbEntity
8
1
62
256
6
ByLayer
370
18
48
1
60
0
100
AcDbEllipse
10
103.000779
20
-0.002053
30
0
11
3.43783724082406
21
-9.39922106867349
31
0
210
0
220
0
230
-1
40
0.065672
41
-3.00720168069331
42
-2.92166372683457
0
ELLIPSE
5
A4
100
AcDbEntity
8
1
62
256
6
ByLayer
370
18
48
1
60
0
100
AcDbEllipse
10
102.994992
20
0.108156
30
0
11
0.137829328480753
21
-0.402528286850122
31
0
210
0
220
0
230
-1
40
0.052723
41
1.53624324508737
42
2.3102281287238
0
ELLIPSE
5
A5
100
AcDbEntity
8
1
62
256
6
ByLayer
370
18
48
1
60
0
100
AcDbEllipse
10
103.000779
20
0.002053
30
0
11
3.43783720141548
21
9.39922095683077
31
0
210
0
220
0
230
-1
40
0.065672
41
2.92166372552405
42
3.00720167989785
0
ELLIPSE
5
A6
100
AcDbEntity
8
1
62
256
6
ByLayer
370
18
48
1
60
0
100
AcDbEllipse
10
102.994992
20
-0.108156
30
0
11
0.137829328598515
21
0.40252828715949
31
0
210
0
220
0
230
-1
40
0.052723
41
-2.31022812871318
42
-1.53624324563159
0
ELLIPSE
5
A7
100
AcDbEntity
8
1
62
256
6
ByLayer
370
18
48
1
60
0
100
AcDbEllipse
10
101.328141
20
-4.320818
30
0
11
1.44359490858699
21
3.94686156966866
31
0
210
0
220
0
230
-1
40
0.065672
41
0.761382749776446
42
1.60361498739947
0
ELLIPSE
5
A8
100
AcDbEntity
8
1
62
256
6
ByLayer
370
18
48
1
60
0
100
AcDbEllipse
10
102.858959
20
0.17551
30
0
11
0.0868803724556201
21
0.290676908836746
31
0
210
0
220
0
230
-1
40
0.467765
41
1.73825865566597
42
2.36053717389434
0
ELLIPSE
5
A9
100
AcDbEntity
8
1
62
256
6
ByLayer
370
13
48
1
60
0
100
AcDbEllipse
10
101.689874
20
4.186526
30
0
11
6.02293139631698
21
-3.09632473321209
31
0
210
0
220
0
230
-1
40
0.482873
41
1.53949524922208
42
1.88083288268664
0
ELLIPSE
5
AA
100
AcDbEntity
8
1
62
256
6
ByLayer
370
13
48
1
60
0
100
AcDbEllipse
10
100.553427
20
1.317028
30
0
11
0.133113781883907
21
0.268850741253513
31
0
210
0
220
0
230
1
40
0.40558
41
0.884485917130835
42
2.28074931872641
0
ELLIPSE
5
AB
100
AcDbEntity
8
1
62
256
6
ByLayer
370
13
48
1
60
0
100
AcDbEllipse
10
101.859333
20
4.320818
30
0
11
6.07154148861365
21
-2.78135641823549
31
0
210
0
220
0
230
-1
40
0.461484
41
1.57447952975687
42
1.91712038265633
0
ELLIPSE
5
AC
100
AcDbEntity
8
1
62
256
6
ByLayer
370
18
48
1
60
0
100
AcDbEllipse
10
101.328141
20
4.320818
30
0
11
1.44359490857913
21
-3.94686156964979
31
0
210
0
220
0
230
-1
40
0.065672
41
-1.60361498740891
42
-0.761382749776284
0
POINT
5
6C
100
AcDbEntity
8
81
62
256
6
ByLayer
370
18
48
1
60
0
100
AcDbPoint
10
103
20
0
30
0
39
0
210
0
220
0
230
1
50
360
0
POINT
5
6E
100
AcDbEntity
8
80
62
256
6
ByLayer
370
18
48
1
60
0
100
AcDbPoint
10
0
20
0
30
0
39
0
210
0
220
0
230
1
50
360
0
POINT
5
70
100
AcDbEntity
8
SK2
62
256
6
ByLayer
370
18
48
1
60
1
100
AcDbPoint
10
-50
20
-10
30
0
39
0
210
0
220
0
230
1
50
360
0
POINT
5
72
100
AcDbEntity
8
SK2
62
256
6
ByLayer
370
18
48
1
60
1
100
AcDbPoint
10
-50
20
10
30
0
39
0
210
0
220
0
230
1
50
360
0
POINT
5
73
100
AcDbEntity
8
2
62
256
6
ByLayer
370
18
48
1
60
1
100
AcDbPoint
10
99.76
20
-9.4
30
0
39
0
210
0
220
0
230
1
50
360
0
POINT
5
75
100
AcDbEntity
8
2
62
256
6
ByLayer
370
18
48
1
60
1
100
AcDbPoint
10
99.76
20
9.4
30
0
39
0
210
0
220
0
230
1
50
360
0
SPLINE
5
AD
100
AcDbEntity
8
1
62
256
6
ByLayer
370
18
48
1
60
0
100
AcDbSpline
70
4
71
3
72
31
73
27
40
0
40
0
40
0
40
0
40
0.0524339753722465
40
0.105986230996411
40
0.14661169539003
40
0.175158191750454
40
0.202555662030346
40
0.263669648231416
40
0.32544136924457
40
0.357991952292909
40
0.391640419225147
40
0.432866294804521
40
0.47727388372318
40
0.514764107338579
40
0.549340253153909
40
0.612192275011734
40
0.673566870741287
40
0.7099685894961
40
0.759735820853973
40
0.811148878535008
40
0.854921706398902
40
0.882064039004756
40
0.910474661825465
40
0.940334446552483
40
0.974533967461556
40
1
40
1
40
1
40
1
41
1
10
4.25065091335594
20
-8.94210280888845
30
0
41
1
10
4.55846449671483
20
-8.94298888886973
30
0
41
1
10
5.18065674273814
20
-8.94443400014211
30
0
41
1
10
6.04135783357239
20
-8.94531209981886
30
0
41
1
10
6.76180096461752
20
-8.94555379251537
30
0
41
1
10
7.32872309952782
20
-8.94559233369063
30
0
41
1
10
8.0159277530903
20
-8.94561963522736
30
0
41
1
10
8.89813474762099
20
-8.94580559340076
30
0
41
1
10
9.81079905521847
20
-8.94718964248455
30
0
41
1
10
10.5616063840624
20
-8.94802015935832
30
0
41
1
10
11.1920793319
20
-8.94825039058122
30
0
41
1
10
11.892409563228
20
-8.94858841887091
30
0
41
1
10
12.6147144548385
20
-8.94925440071637
30
0
41
1
10
13.298432420014
20
-8.95009396816027
30
0
41
1
10
14.0904951949279
20
-8.95014987894839
30
0
41
1
10
15.0227579441283
20
-8.95005579254931
30
0
41
1
10
15.9657391770493
20
-8.95156697146879
30
0
41
1
10
16.8319190215662
20
-8.95173444813906
30
0
41
1
10
17.6395452291821
20
-8.95123185350604
30
0
41
1
10
18.490673762017
20
-8.95200636406301
30
0
41
1
10
19.2077500193836
20
-8.95270881424733
30
0
41
1
10
19.790621979847
20
-8.95265579032989
30
0
41
1
10
20.2922146999375
20
-8.95293235184545
30
0
41
1
10
20.830099192793
20
-8.95335211791112
30
0
41
1
10
21.3501740496738
20
-8.95322647839302
30
0
41
1
10
21.7005791403068
20
-8.95354756312003
30
0
41
1
10
21.850547736234
20
-8.95370956217096
30
0
0
SPLINE
5
AE
100
AcDbEntity
8
1
62
256
6
ByLayer
370
18
48
1
60
0
100
AcDbSpline
70
4
71
3
72
11
73
7
40
0
40
0
40
0
40
0
40
0.18817455539409
40
0.389620551699089
40
0.656014369626179
40
1
40
1
40
1
40
1
41
1
10
74.6486885958158
20
-2.20553756805353
30
0
41
1
10
74.6495748471457
20
-2.20601718769325
30
0
41
1
10
74.6549838204638
20
-2.20866296590037
30
0
41
1
10
74.6421070252576
20
-2.20128105954635
30
0
41
1
10
74.651541922638
20
-2.20644997670115
30
0
41
1
10
74.6810809952813
20
-2.22309162560509
30
0
41
1
10
74.7050922462635
20
-2.2366444348749
30
0
0
SPLINE
5
AF
100
AcDbEntity
8
1
62
256
6
ByLayer
370
18
48
1
60
0
100
AcDbSpline
70
4
71
2
72
6
73
3
40
0
40
0
40
0
40
1
40
1
40
1
41
1
10
98.0740011012246
20
-8.99813863773522
30
0
41
1
10
98.8988613736155
20
-8.99500582474266
30
0
41
1
10
99.723758167607
20
-9.00200567440194
30
0
0
SPLINE
5
B0
100
AcDbEntity
8
1
62
256
6
ByLayer
370
18
48
1
60
0
100
AcDbSpline
70
4
71
3
72
39
73
35
40
0
40
0
40
0
40
0
40
0.0168143394809324
40
0.0369689076140661
40
0.0690006859588233
40
0.102017852615741
40
0.132108834107251
40
0.159336002718369
40
0.184677047777984
40
0.208633940775744
40
0.248169857694474
40
0.288981180919885
40
0.324873086838899
40
0.35225048501014
40
0.382709616187366
40
0.412084745411183
40
0.4353844625575
40
0.456846358851766
40
0.483773535621357
40
0.514247575347234
40
0.548669153809914
40
0.582700935483714
40
0.620984718500713
40
0.662884700416987
40
0.699197119796926
40
0.729516982637853
40
0.771521756966709
40
0.824414462779679
40
0.864477490253471
40
0.896466765341786
40
0.923586086786274
40
0.956105013558521
40
0.986099250594437
40
1
40
1
40
1
40
1
41
1
10
46.405175880501
20
-8.96639493847513
30
0
41
1
10
46.5470218178957
20
-8.96603666525573
30
0
41
1
10
46.8645891658331
20
-8.9652003660859
30
0
41
1
10
47.487081708198
20
-8.96112185867327
30
0
41
1
10
48.2760757603435
20
-8.96315029473689
30
0
41
1
10
49.1184370093417
20
-8.96886202754536
30
0
41
1
10
49.9419510345728
20
-8.96888183895044
30
0
41
1
10
50.6985874171377
20
-8.96984002172559
30
0
41
1
10
51.3982913500585
20
-8.97027123915151
30
0
41
1
10
52.2107988121099
20
-8.97041923892314
30
0
41
1
10
53.1647001881502
20
-8.97076883159292
30
0
41
1
10
54.2278553068367
20
-8.97225517102868
30
0
41
1
10
55.1797881882676
20
-8.97190719228121
30
0
41
1
10
56.0370426046809
20
-8.97247850942279
30
0
41
1
10
56.834692364737
20
-8.97368356296457
30
0
41
1
10
57.5950514057758
20
-8.97386213713301
30
0
41
1
10
58.2731085910318
20
-8.97345098245162
30
0
41
1
10
58.928808931563
20
-8.97380828353218
30
0
41
1
10
59.6499878145254
20
-8.97485947632961
30
0
41
1
10
60.490332208158
20
-8.9747394841344
30
0
41
1
10
61.3918414410096
20
-8.97490644378155
30
0
41
1
10
62.3596141447759
20
-8.97372393581793
30
0
41
1
10
63.4082800484538
20
-8.97400889522456
30
0
41
1
10
64.4667261237287
20
-8.97644327214462
30
0
41
1
10
65.4572890575931
20
-8.97805641572526
30
0
41
1
10
66.4512499463087
20
-8.97768775271976
30
0
41
1
10
67.5963892729891
20
-8.97856544202159
30
0
41
1
10
68.8307425438471
20
-8.98012572686477
30
0
41
1
10
69.9736692200364
20
-8.97918189350688
30
0
41
1
10
70.8801724748449
20
-8.98081355680853
30
0
41
1
10
71.7187763854367
20
-8.98124850516885
30
0
41
1
10
72.5363998232575
20
-8.98148413402384
30
0
41
1
10
73.2146211196367
20
-8.97931146622051
30
0
41
1
10
73.614862575836
20
-8.97894685149615
30
0
41
1
10
73.7419369905467
20
-8.97884504280347
30
0
0
SPLINE
5
B1
100
AcDbEntity
8
1
62
256
6
ByLayer
370
18
48
1
60
0
100
AcDbSpline
70
4
71
3
72
33
73
29
40
0
40
0
40
0
40
0
40
0.0255563399248918
40
0.0631102459377257
40
0.0952095109700089
40
0.122636960580664
40
0.146818256366301
40
0.175525535509835
40
0.208354378553366
40
0.244965887436431
40
0.282324368401245
40
0.312936764336229
40
0.352668869911292
40
0.396456479676757
40
0.448836148605496
40
0.497817425939269
40
0.541004261983112
40
0.584338001116455
40
0.628448201383584
40
0.665131670869387
40
0.696242169119693
40
0.736820611674413
40
0.78139632922374
40
0.820736799981913
40
0.861825981626119
40
0.915286093186229
40
0.965684488124082
40
1
40
1
40
1
40
1
41
1
10
73.7374084842158
20
8.97887465855965
30
0
41
1
10
73.5445062331032
20
8.97923782704044
30
0
41
1
10
73.0686030582382
20
8.98002552194629
30
0
41
1
10
72.3615901067654
20
8.98138857453748
30
0
41
1
10
71.6251567988517
20
8.98122152791873
30
0
41
1
10
70.9886633382191
20
8.98088029991578
30
0
41
1
10
70.3787078600607
20
8.97985419923666
30
0
41
1
10
69.7272122964886
20
8.97938903424827
30
0
41
1
10
68.9813321704283
20
8.97974015670215
30
0
41
1
10
68.169666213927
20
8.9798013860995
30
0
41
1
10
67.3748449563003
20
8.97824922657298
30
0
41
1
10
66.5563576938929
20
8.97774335751058
30
0
41
1
10
65.6887619024607
20
8.97807284998339
30
0
41
1
10
64.6569096901194
20
8.97694740570921
30
0
41
1
10
63.56178168507
20
8.97421444277572
30
0
41
1
10
62.4594208103386
20
8.97363214586917
30
0
41
1
10
61.4371982153851
20
8.97488682338061
30
0
41
1
10
60.4486167180711
20
8.97474619856737
30
0
41
1
10
59.5043648315021
20
8.97484644134119
30
0
41
1
10
58.6541031889255
20
8.97335356492817
30
0
41
1
10
57.8304422275745
20
8.97376735540271
30
0
41
1
10
56.9468598913324
20
8.97386022556563
30
0
41
1
10
56.0007089120626
20
8.97233245986646
30
0
41
1
10
55.0506910075725
20
8.97201276704286
30
0
41
1
10
54.0331220291887
20
8.97212398326778
30
0
41
1
10
52.9316408070316
20
8.97039470232079
30
0
41
1
10
51.8812537196216
20
8.97051299557927
30
0
41
1
10
51.2381383288902
20
8.97008853991599
30
0
41
1
10
50.9773039199017
20
8.96991029229875
30
0
0
SPLINE
5
B2
100
AcDbEntity
8
1
62
256
6
ByLayer
370
18
48
1
60
0
100
AcDbSpline
70
4
71
3
72
31
73
27
40
0
40
0
40
0
40
0
40
0.0062507151108424
40
0.0407690286894315
40
0.0769517904962389
40
0.127366822284209
40
0.177264989291462
40
0.222176614212163
40
0.279562476896712
40
0.341018368245018
40
0.390163544017266
40
0.438430830875918
40
0.47811929862098
40
0.521647508063813
40
0.5597285371233
40
0.59008456931689
40
0.617510415562356
40
0.650897647870336
40
0.690723809373605
40
0.722718110935641
40
0.753832799476762
40
0.784161458230375
40
0.821674721787089
40
0.87232533878037
40
0.936290434660008
40
1
40
1
40
1
40
1
41
1
10
22.3498105688154
20
8.94677543636928
30
0
41
1
10
22.3119385255881
20
8.94687768248519
30
0
41
1
10
22.0655842952568
20
8.9476049180883
30
0
41
1
10
21.6269904387552
20
8.95310176719761
30
0
41
1
10
20.8998306962245
20
8.95288152271087
30
0
41
1
10
20.0762590280482
20
8.95307988283344
30
0
41
1
10
19.1971098470411
20
8.95291183359518
30
0
41
1
10
18.2762128418338
20
8.95166914273594
30
0
41
1
10
17.2852648502553
20
8.95133124672472
30
0
41
1
10
16.2687071883229
20
8.95192449030341
30
0
41
1
10
15.3073231117635
20
8.950502862787
30
0
41
1
10
14.4776832750217
20
8.95000761302055
30
0
41
1
10
13.6819612398526
20
8.95023624368875
30
0
41
1
10
12.9481474058634
20
8.94971306402292
30
0
41
1
10
12.2699774782988
20
8.9489318716854
30
0
41
1
10
11.6957415032907
20
8.94813321758497
30
0
41
1
10
11.1521961219164
20
8.94594379496274
30
0
41
1
10
10.5393645231885
20
8.946019857978
30
0
41
1
10
9.90892708266136
20
8.94677148228345
30
0
41
1
10
9.28905660846391
20
8.94630170937691
30
0
41
1
10
8.72438541097421
20
8.94586646032195
30
0
41
1
10
8.12543162517233
20
8.94563168869539
30
0
41
1
10
7.40845737693422
20
8.94558521359809
30
0
41
1
10
6.48787839038823
20
8.94552609521972
30
0
41
1
10
5.40873672586042
20
8.94485978871904
30
0
41
1
10
4.63616315151833
20
8.94315830616469
30
0
41
1
10
4.25065575512386
20
8.94206657523279
30
0
0
SPLINE
5
B3
100
AcDbEntity
8
1
62
256
6
ByLayer
370
18
48
1
60
0
100
AcDbSpline
70
4
71
3
72
20
73
16
40
0
40
0
40
0
40
0
40
0.125
40
0.125
40
0.250000000000001
40
0.250000000000001
40
0.500000000000001
40
0.500000000000001
40
0.625
40
0.625
40
0.75
40
0.75
40
0.875
40
0.875
40
1
40
1
40
1
40
1
41
1
10
101.539831175948
20
4.54507785431142
30
0
41
1
10
101.466780697767
20
4.74173996184197
30
0
41
1
10
101.393689179522
20
4.93818476038416
30
0
41
1
10
101.247401845697
20
5.33052209835648
30
0
41
1
10
101.174210349587
20
5.52643750958546
30
0
41
1
10
100.95460689247
20
6.11403035222841
30
0
41
1
10
100.808126709311
20
6.50534654426815
30
0
41
1
10
100.588113408586
20
7.09076924649494
30
0
41
1
10
100.51470719868
20
7.28554773847117
30
0
41
1
10
100.367813447886
20
7.67467407120242
30
0
41
1
10
100.294359796032
20
7.86912183594703
30
0
41
1
10
100.147475106709
20
8.25727014518441
30
0
41
1
10
100.074039101713
20
8.45101827364934
30
0
41
1
10
99.9271988422845
20
8.83688171368485
30
0
41
1
10
99.8538018156179
20
9.02862532730151
30
0
41
1
10
99.7804115337743
20
9.2200220790061
30
0
0
SPLINE
5
B4
100
AcDbEntity
8
1
62
256
6
ByLayer
370
18
48
1
60
0
100
AcDbSpline
70
4
71
3
72
106
73
102
40
0
40
0
40
0
40
0
40
0.0203300178539328
40
0.0203300178539328
40
0.0387282440148546
40
0.0387282440148546
40
0.0571264701757765
40
0.0571264701757765
40
0.0755246963366983
40
0.0755246963366983
40
0.0939229224976202
40
0.0939229224976202
40
0.130719374819463
40
0.130719374819463
40
0.149117600980385
40
0.149117600980385
40
0.167515827141307
40
0.167515827141307
40
0.185914053302229
40
0.185914053302229
40
0.204312279463151
40
0.204312279463151
40
0.241108731784995
40
0.241108731784995
40
0.259506957945917
40
0.259506957945917
40
0.277905184106839
40
0.277905184106839
40
0.296303410267761
40
0.296303410267761
40
0.314701636428683
40
0.314701636428683
40
0.351498088750528
40
0.351498088750528
40
0.369896314911451
40
0.369896314911451
40
0.388294541072373
40
0.388294541072373
40
0.406692767233296
40
0.406692767233296
40
0.425090993394219
40
0.425090993394219
40
0.461887445716064
40
0.461887445716064
40
0.480285671876987
40
0.480285671876987
40
0.49868389803791
40
0.49868389803791
40
0.517082124198832
40
0.517082124198832
40
0.535480350359755
40
0.535480350359755
40
0.553878576520678
40
0.553878576520678
40
0.572276802681601
40
0.572276802681601
40
0.590675028842524
40
0.590675028842524
40
0.609073255003447
40
0.609073255003447
40
0.62747148116437
40
0.62747148116437
40
0.645869707325293
40
0.645869707325293
40
0.664267933486216
40
0.664267933486216
40
0.682666159647139
40
0.682666159647139
40
0.719462611968986
40
0.719462611968986
40
0.737860838129909
40
0.737860838129909
40
0.756259064290832
40
0.756259064290832
40
0.774657290451756
40
0.774657290451756
40
0.793055516612679
40
0.793055516612679
40
0.811453742773602
40
0.811453742773602
40
0.829851968934526
40
0.829851968934526
40
0.848250195095449
40
0.848250195095449
40
0.866648421256373
40
0.866648421256373
40
0.885046647417296
40
0.885046647417296
40
0.90344487357822
40
0.90344487357822
40
0.921843099739143
40
0.921843099739143
40
0.940241325900067
40
0.940241325900067
40
0.95863955206099
40
0.95863955206099
40
0.977037778221914
40
0.977037778221914
40
0.995436004382837
40
0.995436004382837
40
1
40
1
40
1
40
1
41
1
10
32.8853120977503
20
6.95025149524974
30
0
41
1
10
33.3168147319729
20
7.11466110368912
30
0
41
1
10
33.7485022742843
20
7.27158176305036
30
0
41
1
10
34.5705626494074
20
7.55711501422226
30
0
41
1
10
34.9606529884286
20
7.68724777477362
30
0
41
1
10
35.7420415804061
20
7.93413352081319
30
0
41
1
10
36.1340682672329
20
8.05047631750469
30
0
41
1
10
36.9166911091945
20
8.26883435519625
30
0
41
1
10
37.3076550718453
20
8.3709355646084
30
0
41
1
10
38.0884974412367
20
8.56128035239826
30
0
41
1
10
38.477971389438
20
8.64976867984765
30
0
41
1
10
39.6476085421958
20
8.89217817658994
30
0
41
1
10
40.4298052139476
20
9.02299422544252
30
0
41
1
10
41.6038943405877
20
9.17447591912415
30
0
41
1
10
41.9945162122498
20
9.21746568930072
30
0
41
1
10
42.7755069799362
20
9.28713662933581
30
0
41
1
10
43.166183371191
20
9.31393086668564
30
0
41
1
10
43.9473034683914
20
9.35183494725055
30
0
41
1
10
44.3377678438988
20
9.36293703668889
30
0
41
1
10
45.118118778141
20
9.3693361738782
30
0
41
1
10
45.5075950851812
20
9.36456210439204
30
0
41
1
10
46.6791140436165
20
9.32635866819246
30
0
41
1
10
47.4643224108445
20
9.26932224449922
30
0
41
1
10
48.6356000995241
20
9.13667827970087
30
0
41
1
10
49.0249381602695
20
9.08436321750094
30
0
41
1
10
49.8050315178049
20
8.96505486329318
30
0
41
1
10
50.195482254353
20
8.89799972717893
30
0
41
1
10
50.9766718150308
20
8.74894756104274
30
0
41
1
10
51.3674235957446
20
8.66695575329109
30
0
41
1
10
52.1488644642677
20
8.48754644189907
30
0
41
1
10
52.5396564538267
20
8.38975474266366
30
0
41
1
10
53.7126448007447
20
8.07754483860865
30
0
41
1
10
54.4943683005532
20
7.84331393526278
30
0
41
1
10
55.6640476816387
20
7.45060265659748
30
0
41
1
10
56.0533246082754
20
7.31255685656464
30
0
41
1
10
56.834072278959
20
7.02594722015033
30
0
41
1
10
57.2250809714259
20
6.87692338363362
30
0
41
1
10
58.0079122577787
20
6.56691115425744
30
0
41
1
10
58.3996882912521
20
6.40593503585293
30
0
41
1
10
59.1806348753349
20
6.07263335166547
30
0
41
1
10
59.5702066661213
20
5.90014631626775
30
0
41
1
10
60.7409194211127
20
5.37173506858573
30
0
41
1
10
61.5221051589246
20
5.0024328189798
30
0
41
1
10
62.6925420588737
20
4.41906855260001
30
0
41
1
10
63.0826849456428
20
4.21998244281704
30
0
41
1
10
63.8656461029898
20
3.8168046555509
30
0
41
1
10
64.2569618199255
20
3.61254650594725
30
0
41
1
10
65.0385442429086
20
3.19822141354868
30
0
41
1
10
65.4288643019808
20
2.98813334019545
30
0
41
1
10
66.2081732489218
20
2.56139974741527
30
0
41
1
10
66.5976085577151
20
2.34549143839686
30
0
41
1
10
67.3781445012163
20
1.91222279963239
30
0
41
1
10
67.7688460881722
20
1.69419155497894
30
0
41
1
10
68.5507004502664
20
1.25460783568104
30
0
41
1
10
68.9422225728923
20
1.03284349308629
30
0
41
1
10
69.7234084119195
20
0.586191059995855
30
0
41
1
10
70.1135896765104
20
0.362637465880454
30
0
41
1
10
70.894541079014
20
-0.0824501351709443
30
0
41
1
10
71.2850042847451
20
-0.304527708890447
30
0
41
1
10
72.065493757121
20
-0.748478647500491
30
0
41
1
10
72.4554954015568
20
-0.970395000075314
30
0
41
1
10
73.2347994649706
20
-1.41446283436448
30
0
41
1
10
73.6249762181396
20
-1.63508474985434
30
0
41
1
10
74.4071363651549
20
-2.07219616668044
30
0
41
1
10
74.7991209001981
20
-2.28918146762734
30
0
41
1
10
75.5810976139034
20
-2.71883911427454
30
0
41
1
10
75.9713543823163
20
-2.93182244407882
30
0
41
1
10
77.140061225789
20
-3.56488725854064
30
0
41
1
10
77.9207288627241
20
-3.97207040152844
30
0
41
1
10
79.0922088801098
20
-4.56377340907466
30
0
41
1
10
79.4826068651359
20
-4.75807717423237
30
0
41
1
10
80.263739543058
20
-5.13986122914989
30
0
41
1
10
80.6549273710789
20
-5.32562368363875
30
0
41
1
10
81.4364482331465
20
-5.68665925948588
30
0
41
1
10
81.8270076768327
20
-5.86214396623183
30
0
41
1
10
82.6073261084102
20
-6.20361299820217
30
0
41
1
10
82.9968738133672
20
-6.36986190345979
30
0
41
1
10
83.7758038929817
20
-6.69183383462561
30
0
41
1
10
84.1660554319159
20
-6.84648094379958
30
0
41
1
10
84.947543092482
20
-7.14397914550639
30
0
41
1
10
85.3390269242896
20
-7.28691042636657
30
0
41
1
10
86.1214929466412
20
-7.56089789216932
30
0
41
1
10
86.5115818091108
20
-7.69204020100671
30
0
41
1
10
87.2911871845395
20
-7.94074438321988
30
0
41
1
10
87.6813684625897
20
-8.05770209086756
30
0
41
1
10
88.4617834337777
20
-8.27776487253371
30
0
41
1
10
88.8520452802891
20
-8.3808395564522
30
0
41
1
10
89.6322854869122
20
-8.57330664374334
30
0
41
1
10
90.0218920617702
20
-8.66293017402805
30
0
41
1
10
90.8024476390433
20
-8.82707117745588
30
0
41
1
10
91.1941448385695
20
-8.90144300028368
30
0
41
1
10
91.9763278414708
20
-9.03477048538059
30
0
41
1
10
92.3670245307331
20
-9.09375964330147
30
0
41
1
10
93.1472395458017
20
-9.19654947521312
30
0
41
1
10
93.5363396315722
20
-9.24045090942997
30
0
41
1
10
94.3154318669747
20
-9.31217273486229
30
0
41
1
10
94.7055753046973
20
-9.34002371562846
30
0
41
1
10
95.4864255644496
20
-9.38003781398649
30
0
41
1
10
95.8771562546474
20
-9.39219243003984
30
0
41
1
10
96.3649595189809
20
-9.39744974399474
30
0
41
1
10
96.461895216478
20
-9.39800068355837
30
0
41
1
10
96.5588118062156
20
-9.39805834556594
30
0
0
SPLINE
5
B5
100
AcDbEntity
8
1
62
256
6
ByLayer
370
18
48
1
60
0
100
AcDbSpline
70
2053
71
3
72
86
73
82
40
0
40
0
40
0
40
0
40
0.0312499999999992
40
0.0312499999999992
40
0.0468749999999988
40
0.0468749999999988
40
0.0624999999999984
40
0.0624999999999984
40
0.0937500000000013
40
0.0937500000000013
40
0.109375000000003
40
0.109375000000003
40
0.125000000000004
40
0.125000000000004
40
0.140625000000006
40
0.140625000000006
40
0.156250000000007
40
0.156250000000007
40
0.171875000000008
40
0.171875000000008
40
0.18750000000001
40
0.18750000000001
40
0.218750000000013
40
0.218750000000013
40
0.250000000000016
40
0.250000000000016
40
0.281250000000019
40
0.281250000000019
40
0.312500000000021
40
0.312500000000021
40
0.343750000000024
40
0.343750000000024
40
0.375000000000027
40
0.375000000000027
40
0.437500000000033
40
0.437500000000033
40
0.468750000000036
40
0.468750000000036
40
0.500000000000039
40
0.500000000000039
40
0.531250000000042
40
0.531250000000042
40
0.562500000000045
40
0.562500000000045
40
0.578125000000044
40
0.578125000000044
40
0.593750000000044
40
0.593750000000044
40
0.625000000000044
40
0.625000000000044
40
0.640625000000043
40
0.640625000000043
40
0.656250000000042
40
0.656250000000042
40
0.68750000000004
40
0.68750000000004
40
0.703125000000038
40
0.703125000000038
40
0.718750000000037
40
0.718750000000037
40
0.734375000000036
40
0.734375000000036
40
0.750000000000034
40
0.750000000000034
40
0.765625000000033
40
0.765625000000033
40
0.781250000000032
40
0.781250000000032
40
0.812500000000027
40
0.812500000000027
40
0.843750000000023
40
0.843750000000023
40
0.875000000000018
40
0.875000000000018
40
0.906250000000014
40
0.906250000000014
40
0.937500000000009
40
0.937500000000009
40
0.968750000000005
40
0.968750000000005
40
1
40
1
40
1
40
1
41
1
10
100.084023307171
20
-3.63235213680136
30
0
41
1
10
100.033193769067
20
-3.70303817721475
30
0
41
1
10
99.9833062386451
20
-3.77905501457883
30
0
41
1
10
99.9100216758568
20
-3.90183319154283
30
0
41
1
10
99.8858529727053
20
-3.94422766624825
30
0
41
1
10
99.8380842164315
20
-4.0322345913761
30
0
41
1
10
99.8144266866886
20
-4.077990533129
30
0
41
1
10
99.7460191720419
20
-4.21731665070561
30
0
41
1
10
99.7032752982506
20
-4.31382145216566
30
0
41
1
10
99.6441324285245
20
-4.4648718337989
30
0
41
1
10
99.6253463878991
20
-4.51610908230103
30
0
41
1
10
99.5906946097323
20
-4.61764196098227
30
0
41
1
10
99.5746787207984
20
-4.66831040050786
30
0
41
1
10
99.5453362679705
20
-4.76944609381425
30
0
41
1
10
99.5320089243287
20
-4.81991340592728
30
0
41
1
10
99.5082186925696
20
-4.92063374306966
30
0
41
1
10
99.4979418989914
20
-4.97017092696595
30
0
41
1
10
99.4808724649008
20
-5.06594077937339
30
0
41
1
10
99.474013236712
20
-5.11245255314392
30
0
41
1
10
99.4635907431843
20
-5.20277488343137
30
0
41
1
10
99.4600241864351
20
-5.24687722448434
30
0
41
1
10
99.4544411354947
20
-5.37214609739638
30
0
41
1
10
99.4573254813995
20
-5.44680906556746
30
0
41
1
10
99.4749745111324
20
-5.58022062758883
30
0
41
1
10
99.4894942529085
20
-5.63694530776934
30
0
41
1
10
99.5280740029546
20
-5.732713631975
30
0
41
1
10
99.5523148720105
20
-5.77173981970523
30
0
41
1
10
99.6077574475555
20
-5.83153972299809
30
0
41
1
10
99.6391751745593
20
-5.85281111352387
30
0
41
1
10
99.708572638464
20
-5.87923941469521
30
0
41
1
10
99.7458562831728
20
-5.88415872985462
30
0
41
1
10
99.825082636589
20
-5.87904669346096
30
0
41
1
10
99.8672138853823
20
-5.86892484617982
30
0
41
1
10
99.9993554227003
20
-5.81670464439648
30
0
41
1
10
100.092735432635
20
-5.75451421707064
30
0
41
1
10
100.240839057367
20
-5.61961860587746
30
0
41
1
10
100.290925488619
20
-5.56808417498712
30
0
41
1
10
100.390870472565
20
-5.45337160415039
30
0
41
1
10
100.440985886263
20
-5.38997472953562
30
0
41
1
10
100.541532638886
20
-5.24982839505023
30
0
41
1
10
100.592401986076
20
-5.17227014018076
30
0
41
1
10
100.690506295018
20
-5.00778249487607
30
0
41
1
10
100.738113660834
20
-4.92047401446698
30
0
41
1
10
100.806992044861
20
-4.78063312344011
30
0
41
1
10
100.82951683607
20
-4.73250245253575
30
0
41
1
10
100.872523119186
20
-4.63542331624603
30
0
41
1
10
100.893148017342
20
-4.58619443404055
30
0
41
1
10
100.95223406535
20
-4.43631903974071
30
0
41
1
10
100.988290145999
20
-4.3320393766445
30
0
41
1
10
101.033008277749
20
-4.17962254050644
30
0
41
1
10
101.04647222615
20
-4.12924000368966
30
0
41
1
10
101.070433807863
20
-4.0293451736855
30
0
41
1
10
101.080989257065
20
-3.97950650955602
30
0
41
1
10
101.107497592363
20
-3.83368866261063
30
0
41
1
10
101.118093933511
20
-3.7432803964422
30
0
41
1
10
101.124019204245
20
-3.61725366315699
30
0
41
1
10
101.124283645997
20
-3.57701269884089
30
0
41
1
10
101.121602616924
20
-3.50177238819737
30
0
41
1
10
101.118674750152
20
-3.46647473098017
30
0
41
1
10
101.109843049319
20
-3.40023363499606
30
0
41
1
10
101.103895663144
20
-3.36914458129047
30
0
41
1
10
101.089342038889
20
-3.31201330761033
30
0
41
1
10
101.080765684482
20
-3.28597942017171
30
0
41
1
10
101.061242201081
20
-3.23853035390843
30
0
41
1
10
101.050294056588
20
-3.21711715346453
30
0
41
1
10
101.026159198993
20
-3.17865189943578
30
0
41
1
10
101.012924872932
20
-3.16157857298776
30
0
41
1
10
100.970775458909
20
-3.11741708101402
30
0
41
1
10
100.939254727462
20
-3.09693724239079
30
0
41
1
10
100.870216166101
20
-3.07168613487997
30
0
41
1
10
100.832391237903
20
-3.06698077867938
30
0
41
1
10
100.75242794261
20
-3.072741987141
30
0
41
1
10
100.710482309135
20
-3.08306612285401
30
0
41
1
10
100.622894060373
20
-3.11772600277118
30
0
41
1
10
100.57694558283
20
-3.14227928210479
30
0
41
1
10
100.482721968642
20
-3.20486332401302
30
0
41
1
10
100.434752788081
20
-3.24260466604841
30
0
41
1
10
100.33710024983
20
-3.33098170609114
30
0
41
1
10
100.287418225993
20
-3.38160737061759
30
0
41
1
10
100.18616783158
20
-3.49704814714514
30
0
41
1
10
100.134852845276
20
-3.56166609638797
30
0
41
1
10
100.084023307171
20
-3.63235213680135
30
0
0
SPLINE
5
B6
100
AcDbEntity
8
1
62
256
6
ByLayer
370
18
48
1
60
0
100
AcDbSpline
70
4
71
3
72
66
73
62
40
0
40
0
40
0
40
0
40
0.125000000000001
40
0.125000000000001
40
0.187500000000001
40
0.187500000000001
40
0.250000000000002
40
0.250000000000002
40
0.375000000000002
40
0.375000000000002
40
0.500000000000002
40
0.500000000000002
40
0.562500000000002
40
0.562500000000002
40
0.593750000000001
40
0.593750000000001
40
0.625000000000001
40
0.625000000000001
40
0.687500000000002
40
0.687500000000002
40
0.718750000000002
40
0.718750000000002
40
0.726562500000002
40
0.726562500000002
40
0.730468750000001
40
0.730468750000001
40
0.732421875000001
40
0.732421875000001
40
0.734375000000001
40
0.734375000000001
40
0.73828125
40
0.73828125
40
0.740234375
40
0.740234375
40
0.7421875
40
0.7421875
40
0.75
40
0.75
40
0.765625
40
0.765625
40
0.78125
40
0.78125
40
0.796875
40
0.796875
40
0.812499999999999
40
0.812499999999999
40
0.843749999999999
40
0.843749999999999
40
0.874999999999999
40
0.874999999999999
40
0.906249999999999
40
0.906249999999999
40
0.921874999999999
40
0.921874999999999
40
0.937499999999999
40
0.937499999999999
40
0.96875
40
0.96875
40
0.984375
40
0.984375
40
1
40
1
40
1
40
1
41
1
10
24.8036142940705
20
-3.16261987050706
30
0
41
1
10
23.7073983560623
20
-2.57182384751576
30
0
41
1
10
22.598612221165
20
-1.98816979563415
30
0
41
1
10
20.9076755166346
20
-1.14567305462626
30
0
41
1
10
20.338831865499
20
-0.870255793932927
30
0
41
1
10
19.1977485308914
20
-0.338895899151652
30
0
41
1
10
18.6246179133963
20
-0.0825090882091786
30
0
41
1
10
16.8952024619267
20
0.652498287620602
30
0
41
1
10
15.7287868481967
20
1.09662140009181
30
0
41
1
10
13.3587708608259
20
1.86569178301869
30
0
41
1
10
12.1551863688325
20
2.19072150528371
30
0
41
1
10
10.3166044653548
20
2.57565080968072
30
0
41
1
10
9.69823361041523
20
2.68692847160685
30
0
41
1
10
8.76185490139514
20
2.82690662562848
30
0
41
1
10
8.44789040742342
20
2.86911618494955
30
0
41
1
10
7.81917133295138
20
2.94404826553873
30
0
41
1
10
7.50440195120774
20
2.97678782923961
30
0
41
1
10
6.55883718514684
20
3.06068190404307
30
0
41
1
10
5.9267132497522
20
3.09755099016124
30
0
41
1
10
4.97611403206045
20
3.12317910095499
30
0
41
1
10
4.65918726198674
20
3.12675947565793
30
0
41
1
10
4.26295141586553
20
3.1248830578503
30
0
41
1
10
4.18370025663484
20
3.1241898872272
30
0
41
1
10
4.06483571932242
20
3.12267005881898
30
0
41
1
10
4.02521549205483
20
3.12208343214184
30
0
41
1
10
3.96578708570058
20
3.12108302105477
30
0
41
1
10
3.94597026041024
20
3.12103889908028
30
0
41
1
10
3.90638281429938
20
3.11875237183691
30
0
41
1
10
3.88678988065575
20
3.11662973192656
30
0
41
1
10
3.82869336432725
20
3.10693141004902
30
0
41
1
10
3.78998414299576
20
3.0959574401198
30
0
41
1
10
3.7386124361278
20
3.06954749516251
30
0
41
1
10
3.72310939492897
20
3.05823304837114
30
0
41
1
10
3.69224104585337
20
3.03537373319387
30
0
41
1
10
3.67684698954824
20
3.02387074820601
30
0
41
1
10
3.6001569557794
20
2.96603804414514
30
0
41
1
10
3.53964969272187
20
2.91871852613949
30
0
41
1
10
3.36086130684726
20
2.77333345357769
30
0
41
1
10
3.24500941855575
20
2.67155037772398
30
0
41
1
10
3.02427074313033
20
2.4594428191034
30
0
41
1
10
2.91918197126603
20
2.3490037035468
30
0
41
1
10
2.72120492117813
20
2.11790763911807
30
0
41
1
10
2.62830681477112
20
1.99725928540798
30
0
41
1
10
2.45698259476492
20
1.74374728824446
30
0
41
1
10
2.37833158044697
20
1.61047812219252
30
0
41
1
10
2.17036534482423
20
1.19063914743694
30
0
41
1
10
2.07442896248026
20
0.895471524552534
30
0
41
1
10
1.98400018837555
20
0.270583491013582
30
0
41
1
10
1.99213729769869
20
-0.0409730244354591
30
0
41
1
10
2.1019412488721
20
-0.662569683529341
30
0
41
1
10
2.20046572411152
20
-0.957410634182594
30
0
41
1
10
2.3932351325372
20
-1.38104085925846
30
0
41
1
10
2.4655668617315
20
-1.51985174329244
30
0
41
1
10
2.62061707325199
20
-1.78755713151472
30
0
41
1
10
2.70343878539563
20
-1.91686376789323
30
0
41
1
10
2.96479275907268
20
-2.29364147586699
30
0
41
1
10
3.15606175731546
20
-2.53009738888781
30
0
41
1
10
3.46110982812209
20
-2.86884022536651
30
0
41
1
10
3.56607061062849
20
-2.97926260987867
30
0
41
1
10
3.7803414661094
20
-3.19440878441063
30
0
41
1
10
3.88937185605488
20
-3.29887674587582
30
0
41
1
10
4.00000017041179
20
-3.40068842988376
30
0
0
SPLINE
5
B7
100
AcDbEntity
8
1
62
256
6
ByLayer
370
18
48
1
60
0
100
AcDbSpline
70
4
71
3
72
38
73
34
40
0
40
0
40
0
40
0
40
0.0666311285153137
40
0.0666311285153137
40
0.133262257030627
40
0.133262257030627
40
0.199893385545941
40
0.199893385545941
40
0.266524514061255
40
0.266524514061255
40
0.333155642576569
40
0.333155642576569
40
0.399786771091882
40
0.399786771091882
40
0.466417899607196
40
0.466417899607196
40
0.53304902812251
40
0.53304902812251
40
0.599680156637824
40
0.599680156637824
40
0.666311285153138
40
0.666311285153138
40
0.732942413668451
40
0.732942413668451
40
0.799573542183765
40
0.799573542183765
40
0.866204670699079
40
0.866204670699079
40
0.932835799214393
40
0.932835799214393
40
0.999466927729707
40
0.999466927729707
40
1
40
1
40
1
40
1
41
1
10
15.3841436319139
20
-8.3058895853961
30
0
41
1
10
15.7737607966712
20
-8.3854634179512
30
0
41
1
10
16.1630690308427
20
-8.45789482700459
30
0
41
1
10
16.9409518254928
20
-8.58751473894628
30
0
41
1
10
17.3295223965167
20
-8.64486177568511
30
0
41
1
10
18.1062050464671
20
-8.74567692606712
30
0
41
1
10
18.4942337851737
20
-8.78923111715568
30
0
41
1
10
19.2705921095604
20
-8.8612691248739
30
0
41
1
10
19.659238525808
20
-8.88951156513025
30
0
41
1
10
20.43725430271
20
-8.93096054804616
30
0
41
1
10
20.8268267275978
20
-8.9443293743862
30
0
41
1
10
21.6059444170957
20
-8.95655767240129
30
0
41
1
10
21.9946371738679
20
-8.95524458524685
30
0
41
1
10
22.7716611647846
20
-8.93681151276607
30
0
41
1
10
23.1601916321253
20
-8.91983203125378
30
0
41
1
10
23.9371024457909
20
-8.87149064696206
30
0
41
1
10
24.3255094591314
20
-8.84024076897927
30
0
41
1
10
25.1022398026603
20
-8.76273062430988
30
0
41
1
10
25.4903887814901
20
-8.7161767974556
30
0
41
1
10
26.2678769670759
20
-8.6085063098177
30
0
41
1
10
26.657580079974
20
-8.54775800195728
30
0
41
1
10
27.4365830015426
20
-8.41255709365223
30
0
41
1
10
27.8255346259474
20
-8.33722489930406
30
0
41
1
10
28.6025157462118
20
-8.17212129765295
30
0
41
1
10
28.9903675205665
20
-8.08234238340458
30
0
41
1
10
29.7665608415934
20
-7.8908546001669
30
0
41
1
10
30.1548652203835
20
-7.78946054960275
30
0
41
1
10
30.9317496652716
20
-7.5721316051407
30
0
41
1
10
31.3203810565229
20
-7.45649774624323
30
0
41
1
10
32.0980403508909
20
-7.21254253422677
30
0
41
1
10
32.487232063952
20
-7.08397415058494
30
0
41
1
10
32.8794494524015
20
-6.94941126434907
30
0
41
1
10
32.8825624061311
20
-6.94834289296935
30
0
41
1
10
32.8856753425124
20
-6.94727415581039
30
0
0
SPLINE
5
B8
100
AcDbEntity
8
1
62
256
6
ByLayer
370
18
48
1
60
0
100
AcDbSpline
70
4
71
3
72
30
73
26
40
0
40
0
40
0
40
0
40
0.1395382290669
40
0.1395382290669
40
0.211243376644657
40
0.211243376644657
40
0.282948524222414
40
0.282948524222414
40
0.35465367180017
40
0.35465367180017
40
0.426358819377928
40
0.426358819377928
40
0.569769114533445
40
0.569769114533445
40
0.641474262111205
40
0.641474262111205
40
0.713179409688963
40
0.713179409688963
40
0.784884557266722
40
0.784884557266722
40
0.856589704844482
40
0.856589704844482
40
0.928294852422241
40
0.928294852422241
40
1
40
1
40
1
40
1
41
1
10
73.7326141408951
20
8.97925479680629
30
0
41
1
10
74.4880283643166
20
8.96898045908819
30
0
41
1
10
75.243422606699
20
8.92728471627066
30
0
41
1
10
76.3870487256864
20
8.82321261698422
30
0
41
1
10
76.7751164069373
20
8.78101306226066
30
0
41
1
10
77.5519789779949
20
8.680973238197
30
0
41
1
10
77.9414981031658
20
8.62313940875885
30
0
41
1
10
78.7200577419395
20
8.49410586479405
30
0
41
1
10
79.108939863116
20
8.4232011159182
30
0
41
1
10
79.8858177784639
20
8.26830441547057
30
0
41
1
10
80.2736101521899
20
8.18298030911777
30
0
41
1
10
81.4370932198718
20
7.90507370415455
30
0
41
1
10
82.2138198099482
20
7.69190280688321
30
0
41
1
10
83.3802682472822
20
7.33472129688619
30
0
41
1
10
83.7694866147082
20
7.20901833216016
30
0
41
1
10
84.5472261293399
20
6.94724555772402
30
0
41
1
10
84.9359887487307
20
6.81160664992044
30
0
41
1
10
85.7129236219155
20
6.52890613677687
30
0
41
1
10
86.1011315765471
20
6.38173407912262
30
0
41
1
10
86.877146135238
20
6.07569309418804
30
0
41
1
10
87.2647730925528
20
5.91671602730511
30
0
41
1
10
88.0409475165593
20
5.58964067450128
30
0
41
1
10
88.4295459385511
20
5.42161402462975
30
0
41
1
10
89.2075862795425
20
5.07636411237746
30
0
41
1
10
89.5973441544534
20
4.8990293468344
30
0
41
1
10
89.9862519464859
20
4.71788615875062
30
0
0
SPLINE
5
B9
100
AcDbEntity
8
1
62
256
6
ByLayer
370
18
48
1
60
0
100
AcDbSpline
70
4
71
3
72
20
73
16
40
0
40
0
40
0
40
0
40
0.124999999999999
40
0.124999999999999
40
0.249999999999999
40
0.249999999999999
40
0.500000000000003
40
0.500000000000003
40
0.625000000000002
40
0.625000000000002
40
0.750000000000001
40
0.750000000000001
40
0.875000000000001
40
0.875000000000001
40
1
40
1
40
1
40
1
41
1
10
101.539831175956
20
-4.54507785428845
30
0
41
1
10
101.466780697775
20
-4.74173996181997
30
0
41
1
10
101.39368917953
20
-4.93818476036313
30
0
41
1
10
101.247401845704
20
-5.33052209833741
30
0
41
1
10
101.174210349594
20
-5.52643750956739
30
0
41
1
10
100.954606892476
20
-6.11403035221321
30
0
41
1
10
100.808126709316
20
-6.50534654425488
30
0
41
1
10
100.58811340859
20
-7.09076924648454
30
0
41
1
10
100.514707198684
20
-7.28554773846173
30
0
41
1
10
100.367813447889
20
-7.67467407119491
30
0
41
1
10
100.294359796034
20
-7.86912183594043
30
0
41
1
10
100.14747510671
20
-8.25727014517975
30
0
41
1
10
100.074039101714
20
-8.45101827364559
30
0
41
1
10
99.9271988422852
20
-8.836881713683
30
0
41
1
10
99.8538018156182
20
-9.02862532730063
30
0
41
1
10
99.7804115337743
20
-9.22002207900613
30
0
0
SPLINE
5
BA
100
AcDbEntity
8
1
62
256
6
ByLayer
370
18
48
1
60
0
100
AcDbSpline
70
4
71
3
72
106
73
102
40
0
40
0
40
0
40
0
40
0.0052106510750815
40
0.0052106510750815
40
0.0239533861159557
40
0.0239533861159557
40
0.0426961211568298
40
0.0426961211568298
40
0.0614388561977039
40
0.0614388561977039
40
0.080181591238578
40
0.080181591238578
40
0.0989243262794521
40
0.0989243262794521
40
0.117667061320326
40
0.117667061320326
40
0.1364097963612
40
0.1364097963612
40
0.173895266442949
40
0.173895266442949
40
0.192638001483822
40
0.192638001483822
40
0.211380736524696
40
0.211380736524696
40
0.23012347156557
40
0.23012347156557
40
0.248866206606444
40
0.248866206606444
40
0.286351676688192
40
0.286351676688192
40
0.305094411729066
40
0.305094411729066
40
0.323837146769939
40
0.323837146769939
40
0.361322616851687
40
0.361322616851687
40
0.380065351892561
40
0.380065351892561
40
0.398808086933436
40
0.398808086933436
40
0.417550821974309
40
0.417550821974309
40
0.436293557015184
40
0.436293557015184
40
0.455036292056058
40
0.455036292056058
40
0.473779027096932
40
0.473779027096932
40
0.492521762137806
40
0.492521762137806
40
0.51126449717868
40
0.51126449717868
40
0.548749967260428
40
0.548749967260428
40
0.567492702301303
40
0.567492702301303
40
0.586235437342177
40
0.586235437342177
40
0.604978172383051
40
0.604978172383051
40
0.623720907423925
40
0.623720907423925
40
0.642463642464799
40
0.642463642464799
40
0.661206377505673
40
0.661206377505673
40
0.679949112546547
40
0.679949112546547
40
0.698691847587421
40
0.698691847587421
40
0.717434582628295
40
0.717434582628295
40
0.736177317669169
40
0.736177317669169
40
0.773662787750918
40
0.773662787750918
40
0.792405522791792
40
0.792405522791792
40
0.811148257832666
40
0.811148257832666
40
0.82989099287354
40
0.82989099287354
40
0.848633727914414
40
0.848633727914414
40
0.867376462955288
40
0.867376462955288
40
0.886119197996163
40
0.886119197996163
40
0.904861933037037
40
0.904861933037037
40
0.923604668077911
40
0.923604668077911
40
0.942347403118785
40
0.942347403118785
40
0.961090138159659
40
0.961090138159659
40
0.979832873200533
40
0.979832873200533
40
0.998575608241407
40
0.998575608241407
40
1
40
1
40
1
40
1
41
1
10
84.4815577151707
20
-6.96822397281969
30
0
41
1
10
84.3736118150459
20
-7.00531504744433
30
0
41
1
10
84.2656681454017
20
-7.04201427610147
30
0
41
1
10
83.7694766687589
20
-7.20901628369435
30
0
41
1
10
83.3811321490466
20
-7.33445092274084
30
0
41
1
10
82.602858987064
20
-7.57277983665853
30
0
41
1
10
82.2131897641866
20
-7.6858369908098
30
0
41
1
10
81.4354391945921
20
-7.89851666627499
30
0
41
1
10
81.0469791375049
20
-7.99828418678902
30
0
41
1
10
80.2710957007043
20
-8.18355190009376
30
0
41
1
10
79.8834077035381
20
-8.26881048335491
30
0
41
1
10
79.1071883801542
20
-8.42352465702803
30
0
41
1
10
78.7188242341962
20
-8.4943163631979
30
0
41
1
10
77.9416713645767
20
-8.62310462058772
30
0
41
1
10
77.5528613119553
20
-8.68085552282034
30
0
41
1
10
76.7748535362186
20
-8.78105100352079
30
0
41
1
10
76.3858628482286
20
-8.82334127102192
30
0
41
1
10
75.2197822126129
20
-8.92939442704082
30
0
41
1
10
74.4431780875491
20
-8.97136897731164
30
0
41
1
10
73.2795280834437
20
-8.984410738837
30
0
41
1
10
72.8914015924862
20
-8.98152439925249
30
0
41
1
10
72.114122245607
20
-8.9618822588931
30
0
41
1
10
71.7249934376475
20
-8.9448762985277
30
0
41
1
10
70.9459529463031
20
-8.8947396171254
30
0
41
1
10
70.5570917589934
20
-8.86154532018506
30
0
41
1
10
69.7805461916171
20
-8.78132805999667
30
0
41
1
10
69.3923711402652
20
-8.73436542805919
30
0
41
1
10
68.2276462658725
20
-8.5717552317096
30
0
41
1
10
67.4510386657587
20
-8.43256743837983
30
0
41
1
10
66.2857335511557
20
-8.18309522744306
30
0
41
1
10
65.8964156670311
20
-8.09319665190529
30
0
41
1
10
65.1177517226616
20
-7.89952491488927
30
0
41
1
10
64.7288419744921
20
-7.79565826897897
30
0
41
1
10
63.5630973471187
20
-7.4661199118452
30
0
41
1
10
62.7880975894641
20
-7.22104999174641
30
0
41
1
10
61.6229327322955
20
-6.81748284706202
30
0
41
1
10
61.2342673464298
20
-6.67732793503779
30
0
41
1
10
60.4563818186298
20
-6.38609349469996
30
0
41
1
10
60.0669609639298
20
-6.234491581399
30
0
41
1
10
59.2892532956471
20
-5.92070756190583
30
0
41
1
10
58.9006521108744
20
-5.75872464921335
30
0
41
1
10
58.1236323410156
20
-5.42695533005147
30
0
41
1
10
57.7352687081559
20
-5.25698795831738
30
0
41
1
10
56.9588226692865
20
-4.90773727771
30
0
41
1
10
56.5709501953472
20
-4.72816255674621
30
0
41
1
10
55.7946624299743
20
-4.36095065624707
30
0
41
1
10
55.4060603215356
20
-4.17404534913123
30
0
41
1
10
54.6278848426431
20
-3.79386713708499
30
0
41
1
10
54.2380257636282
20
-3.60016047717068
30
0
41
1
10
53.4600243527755
20
-3.20697306721894
30
0
41
1
10
53.0718348154262
20
-3.00693422331452
30
0
41
1
10
51.9074119018363
20
-2.40143579776583
30
0
41
1
10
51.1309720187059
20
-1.99100587394148
30
0
41
1
10
49.9655356485321
20
-1.36439556412478
30
0
41
1
10
49.5772195270303
20
-1.15349904594908
30
0
41
1
10
48.7993143839121
20
-0.730324459463162
30
0
41
1
10
48.4096749490487
20
-0.518135004316662
30
0
41
1
10
47.6318452219186
20
-0.0942730982506248
30
0
41
1
10
47.2432831812286
20
0.117547359586609
30
0
41
1
10
46.4667362651309
20
0.541051398252336
30
0
41
1
10
46.0790380237923
20
0.753207964184782
30
0
41
1
10
45.3030607035004
20
1.17509069793735
30
0
41
1
10
44.914773827642
20
1.38470348006376
30
0
41
1
10
44.1375080924199
20
1.80133112317063
30
0
41
1
10
43.7485611058819
20
2.00845141645678
30
0
41
1
10
42.9700665067589
20
2.4202424847615
30
0
41
1
10
42.5811737208806
20
2.62515339525393
30
0
41
1
10
41.8041476580158
20
3.02778692307524
30
0
41
1
10
41.4157557688409
20
3.22594359528654
30
0
41
1
10
40.6391200788569
20
3.61701232089058
30
0
41
1
10
40.2508893306904
20
3.80974934250892
30
0
41
1
10
39.4746822954288
20
4.18917472288894
30
0
41
1
10
39.0868867584177
20
4.37581557894959
30
0
41
1
10
37.9214409053565
20
4.92262743876492
30
0
41
1
10
37.1412712803143
20
5.27348037081666
30
0
41
1
10
35.9759134462358
20
5.76939027028925
30
0
41
1
10
35.5881787482738
20
5.92973522094809
30
0
41
1
10
34.8121079344912
20
6.24044144254768
30
0
41
1
10
34.423955445348
20
6.39071408852143
30
0
41
1
10
33.6474129294761
20
6.68026585100128
30
0
41
1
10
33.2589806523008
20
6.81925468033154
30
0
41
1
10
32.4818484438702
20
7.08576645388078
30
0
41
1
10
32.0930476215638
20
7.21416620207532
30
0
41
1
10
31.3146983060466
20
7.45822223133331
30
0
41
1
10
30.925838624459
20
7.57385654263143
30
0
41
1
10
30.1487511622909
20
7.79109845147974
30
0
41
1
10
29.7604758646104
20
7.89241522218856
30
0
41
1
10
28.9845502811922
20
8.08371713289839
30
0
41
1
10
28.5969352715205
20
8.17337078627381
30
0
41
1
10
27.8206664013754
20
8.33819483075334
30
0
41
1
10
27.43219272737
20
8.41336606742198
30
0
41
1
10
26.6544078096723
20
8.54826109641229
30
0
41
1
10
26.2647699770235
20
8.60897630500787
30
0
41
1
10
25.4868505951023
20
8.71662671907453
30
0
41
1
10
25.098560216467
20
8.76314600596356
30
0
41
1
10
24.3217089954164
20
8.84057135734435
30
0
41
1
10
23.9333198970161
20
8.87177134806197
30
0
41
1
10
23.1565926923016
20
8.92001019238336
30
0
41
1
10
22.7682291550683
20
8.93693516763778
30
0
41
1
10
22.3504586661982
20
8.94680015746161
30
0
41
1
10
22.3209511973942
20
8.94745131577517
30
0
41
1
10
22.2914428317438
20
8.94805708787848
30
0
0
SPLINE
5
BB
100
AcDbEntity
8
1
62
256
6
ByLayer
370
18
48
1
60
0
100
AcDbSpline
70
4
71
3
72
8
73
4
40
0
40
0
40
0
40
0
40
1
40
1
40
1
40
1
41
1
10
99.6766454079143
20
-9.34266603193689
30
0
41
1
10
99.7146010328985
20
-9.24054196244765
30
0
41
1
10
99.7525322143009
20
-9.13833711732707
30
0
41
1
10
99.7904388812814
20
-9.03605126247911
30
0
0
SPLINE
5
BC
100
AcDbEntity
8
1
62
256
6
ByLayer
370
18
48
1
60
0
100
AcDbSpline
70
4
71
3
72
22
73
18
40
0
40
0
40
0
40
0
40
0.119812427165959
40
0.119812427165959
40
0.226217815150026
40
0.226217815150026
40
0.332623203134093
40
0.332623203134093
40
0.545433979102224
40
0.545433979102224
40
0.651839367086289
40
0.651839367086289
40
0.758244755070354
40
0.758244755070354
40
0.971055531038485
40
0.971055531038485
40
1
40
1
40
1
40
1
41
1
10
20.4767589269437
20
-0.0076263860537438
30
0
41
1
10
21.0383542170213
20
-0.317104935219902
30
0
41
1
10
21.6000268771825
20
-0.626644903905003
30
0
41
1
10
22.6619723423942
20
-1.20882281156278
30
0
41
1
10
23.1626579589797
20
-1.48208607396867
30
0
41
1
10
24.1623316506094
20
-2.0227715153078
30
0
41
1
10
24.6614533365109
20
-2.29026588327767
30
0
41
1
10
26.1579466706731
20
-3.08196429714292
30
0
41
1
10
27.1545498912719
20
-3.59524464461487
30
0
41
1
10
28.6537925772343
20
-4.33318977370146
30
0
41
1
10
29.154458851749
20
-4.5740467957028
30
0
41
1
10
30.1534483510842
20
-5.04116829920733
30
0
41
1
10
30.6523423824476
20
-5.26774834966329
30
0
41
1
10
32.1484301045925
20
-5.92468934848904
30
0
41
1
10
33.1451857875679
20
-6.33210311817345
30
0
41
1
10
34.2811988603963
20
-6.75404920829271
30
0
41
1
10
34.417300905977
20
-6.80391213518323
30
0
41
1
10
34.553354748514
20
-6.85305459234939
30
0
0
SPLINE
5
BD
100
AcDbEntity
8
1
62
256
6
ByLayer
370
13
48
1
60
0
100
AcDbSpline
70
4
71
3
72
22
73
18
40
0
40
0
40
0
40
0
40
0.0244587932968052
40
0.0244587932968052
40
0.0781012223857208
40
0.0781012223857208
40
0.185386080563554
40
0.185386080563554
40
0.399955796919218
40
0.399955796919218
40
0.614525513274882
40
0.614525513274882
40
0.721810371452715
40
0.721810371452715
40
0.829095229630547
40
0.829095229630547
40
1
40
1
40
1
40
1
41
1
10
34.5533538076229
20
-6.8530542525009
30
0
41
1
10
34.6673802150921
20
-6.89424043372137
30
0
41
1
10
34.7813727645988
20
-6.9349205515725
30
0
41
1
10
35.145000520706
20
-7.06308054085241
30
0
41
1
10
35.3943836779954
20
-7.14855783603531
30
0
41
1
10
36.1416192364172
20
-7.39718607848866
30
0
41
1
10
36.638544010709
20
-7.55258859152835
30
0
41
1
10
38.1270845739338
20
-7.98662001872805
30
0
41
1
10
39.1165364878193
20
-8.2329220106632
30
0
41
1
10
41.0967403749812
20
-8.63403479748465
30
0
41
1
10
42.0876666031258
20
-8.78881302719432
30
0
41
1
10
43.580811158986
20
-8.94823517942825
30
0
41
1
10
44.0798971844839
20
-8.98923609604839
30
0
41
1
10
45.0802901431161
20
-9.04625949222452
30
0
41
1
10
45.5797291483301
20
-9.06222139606649
30
0
41
1
10
46.8739380506102
20
-9.07097125288132
30
0
41
1
10
47.6683390584282
20
-9.04455483050273
30
0
41
1
10
48.4639072128463
20
-8.98636397256374
30
0
0
SPLINE
5
BE
100
AcDbEntity
8
1
62
256
6
ByLayer
370
18
48
1
60
0
100
AcDbSpline
70
4
71
3
72
91
73
87
40
0
40
0
40
0
40
0
40
0.0371547567981775
40
0.0371547567981775
40
0.075340637893562
40
0.075340637893562
40
0.151712400084331
40
0.151712400084331
40
0.189898281179715
40
0.189898281179715
40
0.2280841622751
40
0.2280841622751
40
0.266270043370484
40
0.266270043370484
40
0.304455924465869
40
0.304455924465869
40
0.342641805561253
40
0.342641805561253
40
0.361734746108945
40
0.361734746108945
40
0.371281216382791
40
0.371281216382791
40
0.376054451519715
40
0.377247760303945
40
0.377844414696061
40
0.378142741892118
40
0.378142741892118
40
0.378291905490147
40
0.378291905490147
40
0.378441069088176
40
0.378441069088176
40
0.379037723480291
40
0.379037723480291
40
0.379634377872407
40
0.379634377872407
40
0.380827686656637
40
0.380827686656637
40
0.385600921793559
40
0.385600921793559
40
0.390374156930481
40
0.390374156930481
40
0.399920627204325
40
0.399920627204325
40
0.419013567752013
40
0.419013567752013
40
0.45719944884739
40
0.45719944884739
40
0.495385329942766
40
0.495385329942766
40
0.533571211038142
40
0.533571211038142
40
0.609942973228895
40
0.609942973228895
40
0.648128854324271
40
0.648128854324271
40
0.667221794871959
40
0.667221794871959
40
0.676768265145803
40
0.676768265145803
40
0.679154882714264
40
0.679154882714264
40
0.680348191498495
40
0.680348191498495
40
0.680646518694552
40
0.680646518694552
40
0.680795682292581
40
0.680795682292581
40
0.68094484589061
40
0.681541500282725
40
0.686314735419648
40
0.686314735419648
40
0.724500616515028
40
0.724500616515028
40
0.762686497610407
40
0.762686497610407
40
0.839058259801166
40
0.839058259801166
40
0.877244140896545
40
0.877244140896545
40
0.915430021991925
40
0.915430021991925
40
0.953615903087304
40
0.953615903087304
40
0.991801784182683
40
0.991801784182683
40
1
40
1
40
1
40
1
41
1
10
22.2301530804405
20
-1.81209219042424
30
0
41
1
10
21.9911094038258
20
-1.70392883386089
30
0
41
1
10
21.7506747869988
20
-1.60141540849955
30
0
41
1
10
21.2686688752475
20
-1.41064802207112
30
0
41
1
10
21.026514921599
20
-1.32248000974576
30
0
41
1
10
20.3040587417226
20
-1.08466040813181
30
0
41
1
10
19.8277217151575
20
-0.96172963493683
30
0
41
1
10
19.1117748651602
20
-0.834099146097145
30
0
41
1
10
18.8728944382537
20
-0.801004570910038
30
0
41
1
10
18.3932137211359
20
-0.754209261340037
30
0
41
1
10
18.1520559032746
20
-0.740551538378156
30
0
41
1
10
17.671549176055
20
-0.733036855407391
30
0
41
1
10
17.431606921581
20
-0.739089024649047
30
0
41
1
10
16.9510629490896
20
-0.770473915235669
30
0
41
1
10
16.7102337727223
20
-0.79584101264274
30
0
41
1
10
16.2278223476721
20
-0.865485735491831
30
0
41
1
10
15.9866385481357
20
-0.909685088527084
30
0
41
1
10
15.6241080176349
20
-0.989682934682378
30
0
41
1
10
15.5032291750469
20
-1.01861394492732
30
0
41
1
10
15.3218229915051
20
-1.06534181949252
30
0
41
1
10
15.2613330276093
20
-1.08147480740783
30
0
41
1
10
15.1705875360481
20
-1.10649460639036
30
0
41
1
10
15.1327735836145
20
-1.1170907010831
30
0
41
1
10
15.0911720901044
20
-1.12898080129344
30
0
41
1
10
15.0779346276224
20
-1.1327863668011
30
0
41
1
10
15.072261296591
20
-1.1344221092954
30
0
41
1
10
15.0694246198893
20
-1.13524077472076
30
0
41
1
10
15.0682813434549
20
-1.13546448171041
30
0
41
1
10
15.0676827020547
20
-1.13667496006445
30
0
41
1
10
15.0680466455154
20
-1.13739102222897
30
0
41
1
10
15.0702381505697
20
-1.14061992855935
30
0
41
1
10
15.0734416815695
20
-1.14288750296009
30
0
41
1
10
15.0795744003612
20
-1.14733383384692
30
0
41
1
10
15.0828157315029
20
-1.14948253798451
30
0
41
1
10
15.0926947028002
20
-1.15581475234296
30
0
41
1
10
15.0995297360219
20
-1.15989884553983
30
0
41
1
10
15.1341398507539
20
-1.18008316003349
30
0
41
1
10
15.1630698645914
20
-1.19549991560223
30
0
41
1
10
15.2211403085376
20
-1.22613669942902
30
0
41
1
10
15.2504585475681
20
-1.24127931048599
30
0
41
1
10
15.3388015671367
20
-1.28649543902014
30
0
41
1
10
15.3982017406165
20
-1.31634168275159
30
0
41
1
10
15.5769758924246
20
-1.4056279565028
30
0
41
1
10
15.6969821303557
20
-1.46480372953385
30
0
41
1
10
16.0579445528625
20
-1.64245476890844
30
0
41
1
10
16.2999103943836
20
-1.76099106744871
30
0
41
1
10
16.7846702821324
20
-1.99940896104624
30
0
41
1
10
17.0276455045313
20
-2.11911998957064
30
0
41
1
10
17.5134383766942
20
-2.3613858460333
30
0
41
1
10
17.7563777604909
20
-2.48378541969362
30
0
41
1
10
18.4854981930873
20
-2.85452389432689
30
0
41
1
10
18.9726384127042
20
-3.10564084389532
30
0
41
1
10
19.6996841718965
20
-3.49395056103927
30
0
41
1
10
19.941568668418
20
-3.6251280480318
30
0
41
1
10
20.302118793463
20
-3.82725550354803
30
0
41
1
10
20.4220246418612
20
-3.89538478103987
30
0
41
1
10
20.5998464554361
20
-4.00135487621262
30
0
41
1
10
20.6590440278319
20
-4.03691014100835
30
0
41
1
10
20.7305043217604
20
-4.08524057346682
30
0
41
1
10
20.7446986928022
20
-4.09506953065073
30
0
41
1
10
20.7649744944818
20
-4.11112698197562
30
0
41
1
10
20.7719423737787
20
-4.11648051311255
30
0
41
1
10
20.7784811164172
20
-4.12501515268883
30
0
41
1
10
20.7800770441885
20
-4.1269432321028
30
0
41
1
10
20.7796335701597
20
-4.13033730986245
30
0
41
1
10
20.7785835136597
20
-4.13111926228243
30
0
41
1
10
20.7769354590077
20
-4.13277195463411
30
0
41
1
10
20.7728153694384
20
-4.13690370257225
30
0
41
1
10
20.742328431799
20
-4.16747926614545
30
0
41
1
10
20.7126776334811
20
-4.19723230308787
30
0
41
1
10
20.4755619945309
20
-4.43525102465435
30
0
41
1
10
20.2655661984738
20
-4.64668424111778
30
0
41
1
10
19.8461193819332
20
-5.06662939430061
30
0
41
1
10
19.6380381795619
20
-5.27376998119934
30
0
41
1
10
19.0154406288604
20
-5.88349688806912
30
0
41
1
10
18.6029534740467
20
-6.27482512616155
30
0
41
1
10
17.970172596542
20
-6.82034576000163
30
0
41
1
10
17.7561015743726
20
-6.99560182134692
30
0
41
1
10
17.3278637899945
20
-7.32096666779339
30
0
41
1
10
17.1127507161357
20
-7.47193864741121
30
0
41
1
10
16.6767667182929
20
-7.7469075830312
30
0
41
1
10
16.4558857167427
20
-7.87088636191646
30
0
41
1
10
16.0044733969483
20
-8.08841806938815
30
0
41
1
10
15.7734652048484
20
-8.18209208216061
30
0
41
1
10
15.4859807449094
20
-8.27541362853935
30
0
41
1
10
15.4350997807823
20
-8.29106373846392
30
0
41
1
10
15.3841436336477
20
-8.30588958489162
30
0
0
SPLINE
5
BF
100
AcDbEntity
8
1
62
256
6
ByLayer
370
18
48
1
60
0
100
AcDbSpline
70
4
71
3
72
26
73
22
40
0
40
0
40
0
40
0
40
0.125
40
0.125
40
0.250000000000001
40
0.250000000000001
40
0.375000000000001
40
0.375000000000001
40
0.500000000000001
40
0.500000000000001
40
0.625000000000001
40
0.625000000000001
40
0.687500000000002
40
0.687500000000002
40
0.750000000000002
40
0.750000000000002
40
0.875000000000001
40
0.875000000000001
40
0.937500000000001
40
0.937500000000001
40
1
40
1
40
1
40
1
41
1
10
15.3841557761969
20
-8.30588288868381
30
0
41
1
10
14.8877985060128
20
-8.20506265738587
30
0
41
1
10
14.3954877765978
20
-8.09184566418224
30
0
41
1
10
13.4182653603961
20
-7.83928868384814
30
0
41
1
10
12.9332573744517
20
-7.69941631241645
30
0
41
1
10
11.9690004049253
20
-7.39328715874612
30
0
41
1
10
11.4897257904586
20
-7.22729068619435
30
0
41
1
10
10.536326241443
20
-6.86726055072606
30
0
41
1
10
10.0622249040378
20
-6.67291354112271
30
0
41
1
10
9.11926410079775
20
-6.25405020333434
30
0
41
1
10
8.65034023174459
20
-6.03012008701211
30
0
41
1
10
7.95177962392927
20
-5.66805074280359
30
0
41
1
10
7.71974099182353
20
-5.54296260337037
30
0
41
1
10
7.25761963842032
20
-5.28277962040556
30
0
41
1
10
7.02787703722572
20
-5.14785451645668
30
0
41
1
10
6.34788526509982
20
-4.72929231371359
30
0
41
1
10
5.90504087209348
20
-4.43131128047895
30
0
41
1
10
5.2638648361729
20
-3.94502715584318
30
0
41
1
10
5.05403113582983
20
-3.77631873293888
30
0
41
1
10
4.64432166760642
20
-3.42247474270377
30
0
41
1
10
4.44441777794586
20
-3.23738077634934
30
0
41
1
10
4.25121133678715
20
-3.04153964645897
30
0
0
SPLINE
5
C0
100
AcDbEntity
8
1
62
256
6
ByLayer
370
18
48
1
60
0
100
AcDbSpline
70
4
71
3
72
58
73
54
40
0
40
0
40
0
40
0
40
0.0558846412834382
40
0.0558846412834382
40
0.111769282566877
40
0.111769282566877
40
0.139711603208596
40
0.139711603208596
40
0.167653923850315
40
0.167653923850315
40
0.223538565133752
40
0.223538565133752
40
0.25148088577547
40
0.25148088577547
40
0.279423206417189
40
0.279423206417189
40
0.335307847700627
40
0.335307847700627
40
0.391192488984065
40
0.391192488984065
40
0.419134809625784
40
0.419134809625784
40
0.447077130267504
40
0.447077130267504
40
0.475019450909223
40
0.475019450909223
40
0.502961771550942
40
0.502961771550942
40
0.558846412834381
40
0.558846412834381
40
0.614731054117819
40
0.614731054117819
40
0.642673374759539
40
0.642673374759539
40
0.670615695401258
40
0.670615695401258
40
0.698558016042978
40
0.698558016042978
40
0.726500336684697
40
0.726500336684697
40
0.782384977968136
40
0.782384977968136
40
0.838269619251576
40
0.838269619251576
40
0.866211939893296
40
0.866211939893296
40
0.894154260535015
40
0.894154260535015
40
0.950038901818454
40
0.950038901818454
40
0.977981222460174
40
0.977981222460174
40
1
40
1
40
1
40
1
41
1
10
99.6766454079144
20
-9.34266603193691
30
0
41
1
10
98.6820839211912
20
-9.40487816920586
30
0
41
1
10
97.6867871061053
20
-9.41540650348696
30
0
41
1
10
95.6971787027682
20
-9.33313077256611
30
0
41
1
10
94.7019157714647
20
-9.24026366591394
30
0
41
1
10
93.2095587893653
20
-9.02563949778906
30
0
41
1
10
92.7117558581814
20
-8.94151575028636
30
0
41
1
10
91.7168500865388
20
-8.74907613772126
30
0
41
1
10
91.219500724333
20
-8.64073448233393
30
0
41
1
10
89.7264042455168
20
-8.28019107026805
30
0
41
1
10
88.7336871291178
20
-7.99360110282018
30
0
41
1
10
87.2442765076429
20
-7.50056557585057
30
0
41
1
10
86.7476900257092
20
-7.32564615861881
30
0
41
1
10
85.7531888141347
20
-6.95573664488819
30
0
41
1
10
85.2552051252555
20
-6.76072703437026
30
0
41
1
10
83.7628109736942
20
-6.14913164447037
30
0
41
1
10
82.7669341722854
20
-5.70492392890861
30
0
41
1
10
80.7800677178925
20
-4.76155010417202
30
0
41
1
10
79.7878736452578
20
-4.26185890104526
30
0
41
1
10
78.2956950071969
20
-3.47894881494602
30
0
41
1
10
77.7977628218109
20
-3.21258087287507
30
0
41
1
10
76.8026921841664
20
-2.67239616059854
30
0
41
1
10
76.3050158570474
20
-2.39830897141846
30
0
41
1
10
75.3093455626758
20
-1.84406679490928
30
0
41
1
10
74.8118916145045
20
-1.56421524497273
30
0
41
1
10
73.8166623008894
20
-1.0009249961262
30
0
41
1
10
73.3186856667637
20
-0.717288413696451
30
0
41
1
10
71.8259390400446
20
0.135014025908248
30
0
41
1
10
70.830243108583
20
0.705343305621966
30
0
41
1
10
68.8399504818083
20
1.83176135098756
30
0
41
1
10
67.8442290001083
20
2.3879104883907
30
0
41
1
10
66.351244284628
20
3.19781331203981
30
0
41
1
10
65.8532360472755
20
3.46390457584587
30
0
41
1
10
64.8578854658759
20
3.98525178536261
30
0
41
1
10
64.3603228594308
20
4.24068473634216
30
0
41
1
10
63.3645473737703
20
4.73966811373595
30
0
41
1
10
62.8668547090212
20
4.98283427511524
30
0
41
1
10
61.8715116722672
20
5.45457813479868
30
0
41
1
10
61.373372276678
20
5.68343972898447
30
0
41
1
10
59.8807325706371
20
6.34498307013203
30
0
41
1
10
58.8882355323572
20
6.75207698506333
30
0
41
1
10
56.9007410812176
20
7.48907015992941
30
0
41
1
10
55.9044367607337
20
7.81912540589582
30
0
41
1
10
54.4112714961691
20
8.24648912391547
30
0
41
1
10
53.9130445934397
20
8.3778879682495
30
0
41
1
10
52.9180086392838
20
8.61686567282834
30
0
41
1
10
52.4211197051494
20
8.72449392385585
30
0
41
1
10
50.9308735540656
20
9.01098851355999
30
0
41
1
10
49.9374707057176
20
9.15346252392828
30
0
41
1
10
48.4434295518094
20
9.29098249547323
30
0
41
1
10
47.945749689792
20
9.32402681307997
30
0
41
1
10
47.0556581937313
20
9.36010548085025
30
0
41
1
10
46.6631630361146
20
9.36800859681702
30
0
41
1
10
46.2707796340707
20
9.36789066330579
30
0
0
SPLINE
5
C1
100
AcDbEntity
8
1
62
256
6
ByLayer
370
18
48
1
60
0
100
AcDbSpline
70
4
71
3
72
34
73
30
40
0
40
0
40
0
40
0
40
0.0625000000000017
40
0.0625000000000017
40
0.093750000000002
40
0.093750000000002
40
0.125000000000002
40
0.125000000000002
40
0.187500000000005
40
0.187500000000005
40
0.218750000000005
40
0.218750000000005
40
0.250000000000005
40
0.250000000000005
40
0.375000000000002
40
0.375000000000002
40
0.4375
40
0.4375
40
0.468749999999997
40
0.468749999999997
40
0.499999999999995
40
0.499999999999995
40
0.624999999999996
40
0.624999999999996
40
0.749999999999997
40
0.749999999999997
40
0.874999999999999
40
0.874999999999999
40
1
40
1
40
1
40
1
41
1
10
89.9862519465014
20
4.71788615874343
30
0
41
1
10
89.9951152495305
20
4.47339555624222
30
0
41
1
10
90.0239345478417
20
4.22357351174472
30
0
41
1
10
90.0961382823762
20
3.84109954335852
30
0
41
1
10
90.1250439953152
20
3.71231575394668
30
0
41
1
10
90.1924691250522
20
3.45217977882052
30
0
41
1
10
90.2307610172595
20
3.32180354878034
30
0
41
1
10
90.3573413889824
20
2.9334713845339
30
0
41
1
10
90.4576872005565
20
2.67672000578773
30
0
41
1
10
90.6290437468791
20
2.29438290677945
30
0
41
1
10
90.6896505564237
20
2.16740420887052
30
0
41
1
10
90.8174810311652
20
1.91433274137646
30
0
41
1
10
90.8849029437984
20
1.78789228200097
30
0
41
1
10
91.2354027253805
20
1.16214668260267
30
0
41
1
10
91.5551286770377
20
0.686726610473215
30
0
41
1
10
92.0773329470966
20
0.0008786509189065
30
0
41
1
10
92.2585809704617
20
-0.223140774902248
30
0
41
1
10
92.5399941910626
20
-0.553061690004853
30
0
41
1
10
92.6355718373725
20
-0.662208328305184
30
0
41
1
10
92.8285811899547
20
-0.877268796519559
30
0
41
1
10
92.9260564230767
20
-0.983246024563471
30
0
41
1
10
93.4179191198842
20
-1.50595318264467
30
0
41
1
10
93.8253683455471
20
-1.90178274404576
30
0
41
1
10
94.6638785044812
20
-2.65566033369746
30
0
41
1
10
95.095223732359
20
-3.01325345685297
30
0
41
1
10
95.9769770291219
20
-3.69793689619223
30
0
41
1
10
96.4285245947886
20
-4.02525677045324
30
0
41
1
10
97.3390868988222
20
-4.64556818465465
30
0
41
1
10
97.7991665402179
20
-4.93947662715945
30
0
41
1
10
98.2634882503603
20
-5.21902179657528
30
0
0
SPLINE
5
C2
100
AcDbEntity
8
1
62
256
6
ByLayer
370
18
48
1
60
0
100
AcDbSpline
70
4
71
3
72
42
73
38
40
0
40
0
40
0
40
0
40
0.249999999999996
40
0.249999999999996
40
0.374999999999996
40
0.374999999999996
40
0.437499999999994
40
0.437499999999994
40
0.499999999999991
40
0.499999999999991
40
0.624999999999987
40
0.624999999999987
40
0.687499999999984
40
0.687499999999984
40
0.749999999999982
40
0.749999999999982
40
0.765624999999982
40
0.765624999999982
40
0.781249999999983
40
0.781249999999983
40
0.812499999999985
40
0.812499999999985
40
0.843749999999986
40
0.843749999999986
40
0.859374999999987
40
0.859374999999987
40
0.874999999999987
40
0.874999999999987
40
0.890624999999988
40
0.890624999999988
40
0.906249999999989
40
0.906249999999989
40
0.937499999999993
40
0.937499999999993
40
0.968749999999996
40
0.968749999999996
40
1
40
1
40
1
40
1
41
1
10
89.9862519465011
20
4.71788615874289
30
0
41
1
10
90.7337817549916
20
4.10415539285987
30
0
41
1
10
91.5003721099734
20
3.54532799067511
30
0
41
1
10
92.6839980766245
20
2.80427525132612
30
0
41
1
10
93.0841309010149
20
2.57336191469002
30
0
41
1
10
93.6937852936637
20
2.25422721867085
30
0
41
1
10
93.8988443784303
20
2.15230487322901
30
0
41
1
10
94.3082470532652
20
1.96026889882467
30
0
41
1
10
94.5130538298909
20
1.86993163493224
30
0
41
1
10
95.1278076661004
20
1.6168880851292
30
0
41
1
10
95.5380825672464
20
1.47184484160687
30
0
41
1
10
96.1542543312845
20
1.29519465440461
30
0
41
1
10
96.3594735866404
20
1.24328696061801
30
0
41
1
10
96.7669701680543
20
1.15513964441479
30
0
41
1
10
96.9697100008094
20
1.11877556378201
30
0
41
1
10
97.2212975018348
20
1.08387652061924
30
0
41
1
10
97.2715433694303
20
1.07730418282236
30
0
41
1
10
97.3711705120907
20
1.06778592558024
30
0
41
1
10
97.4206967740547
20
1.06429675970961
30
0
41
1
10
97.5677568186877
20
1.05819181093727
30
0
41
1
10
97.6638907530787
20
1.05990895023669
30
0
41
1
10
97.8510584565303
20
1.07882786490731
30
0
41
1
10
97.9414441542802
20
1.09588523081413
30
0
41
1
10
98.0682325073968
20
1.13751865820939
30
0
41
1
10
98.1091016164864
20
1.1540900894332
30
0
41
1
10
98.1868545529858
20
1.19493549415137
30
0
41
1
10
98.2234879899921
20
1.21845896280237
30
0
41
1
10
98.2915262083001
20
1.27141015657864
30
0
41
1
10
98.3230094845325
20
1.30093312799221
30
0
41
1
10
98.3802978753657
20
1.36680266119106
30
0
41
1
10
98.4061985022535
20
1.40348199595036
30
0
41
1
10
98.4717895876577
20
1.52113130239312
30
0
41
1
10
98.5003779922708
20
1.61081368963977
30
0
41
1
10
98.5261824456676
20
1.81104721596063
30
0
41
1
10
98.5231107206832
20
1.91680177984483
30
0
41
1
10
98.491881494151
20
2.13716460969491
30
0
41
1
10
98.4638165283388
20
2.24923788260074
30
0
41
1
10
98.428469329708
20
2.36154352135335
30
0
0
SPLINE
5
C3
100
AcDbEntity
8
1
62
256
6
ByLayer
370
18
48
1
60
0
100
AcDbSpline
70
4
71
3
72
8
73
4
40
0
40
0
40
0
40
0
40
1
40
1
40
1
40
1
41
1
10
99.6766454079143
20
9.34266603193691
30
0
41
1
10
99.0719744770402
20
9.38048960690566
30
0
41
1
10
98.4669805759104
20
9.39921034078051
30
0
41
1
10
97.8619716002357
20
9.39882713120755
30
0
0
SPLINE
5
C4
100
AcDbEntity
8
1
62
256
6
ByLayer
370
18
48
1
60
0
100
AcDbSpline
70
4
71
3
72
54
73
50
40
0
40
0
40
0
40
0
40
0.0110696990687004
40
0.0110696990687004
40
0.0429706765180976
40
0.0429706765180976
40
0.0748716539674951
40
0.0748716539674951
40
0.106772631416892
40
0.106772631416892
40
0.170574586315687
40
0.170574586315687
40
0.202475563765084
40
0.202475563765084
40
0.234376541214482
40
0.234376541214482
40
0.298178496113277
40
0.298178496113277
40
0.330079473562674
40
0.330079473562674
40
0.361980451012072
40
0.361980451012072
40
0.425782405910866
40
0.425782405910866
40
0.489584360809661
40
0.489584360809661
40
0.521485338259058
40
0.521485338259058
40
0.553386315708455
40
0.553386315708455
40
0.617188270607248
40
0.617188270607248
40
0.649089248056644
40
0.649089248056644
40
0.680990225506041
40
0.680990225506041
40
0.744792180404834
40
0.744792180404834
40
0.776693157854229
40
0.776693157854229
40
0.808594135303625
40
0.808594135303625
40
0.872396090202417
40
0.872396090202417
40
0.904297067651813
40
0.904297067651813
40
0.936198045101209
40
0.936198045101209
40
1
40
1
40
1
40
1
41
1
10
50.9514428009219
20
-8.99143648043213
30
0
41
1
10
50.7790204264736
20
-9.01903835662768
30
0
41
1
10
50.6065625778013
20
-9.04515833581951
30
0
41
1
10
49.9368923871825
20
-9.14075333737009
30
0
41
1
10
49.4389025947359
20
-9.19936105367211
30
0
41
1
10
48.4431042631996
20
-9.29100492046368
30
0
41
1
10
47.9454466613119
20
-9.32404552325812
30
0
41
1
10
46.9496834437038
20
-9.36439459339923
30
0
41
1
10
46.4515517952427
20
-9.37168369673972
30
0
41
1
10
44.9581822684307
20
-9.35478059764509
30
0
41
1
10
43.9621178498895
20
-9.29171100275741
30
0
41
1
10
42.4686408184181
20
-9.1210885633165
30
0
41
1
10
41.970427792916
20
-9.05152018366783
30
0
41
1
10
40.9745866411213
20
-8.88770465338192
30
0
41
1
10
40.4769177003283
20
-8.79346072708881
30
0
41
1
10
38.9830503637661
20
-8.47463841333666
30
0
41
1
10
37.9873061649983
20
-8.21425331621862
30
0
41
1
10
36.4929874950246
20
-7.75779540207282
30
0
41
1
10
35.9952433898809
20
-7.59484963958511
30
0
41
1
10
34.9994401000395
20
-7.2484526554257
30
0
41
1
10
34.5011559553408
20
-7.06489312438868
30
0
41
1
10
33.0072998722491
20
-6.48624706274097
30
0
41
1
10
32.0111137500661
20
-6.0623448007843
30
0
41
1
10
30.0195136847107
20
-5.15313494917908
30
0
41
1
10
29.0232928963962
20
-4.66734021001784
30
0
41
1
10
27.5292853190973
20
-3.90459517893422
30
0
41
1
10
27.0309343204926
20
-3.64445729081819
30
0
41
1
10
26.0350446894978
20
-3.11517226974303
30
0
41
1
10
25.5372395184355
20
-2.8459362939407
30
0
41
1
10
24.0425919885634
20
-2.02718582632016
30
0
41
1
10
23.0488346811745
20
-1.46874038445398
30
0
41
1
10
21.557842286965
20
-0.623604492758801
30
0
41
1
10
21.0606873367908
20
-0.340612595299604
30
0
41
1
10
20.0651229223528
20
0.226287930163551
30
0
41
1
10
19.5666413845848
20
0.5102164364217
30
0
41
1
10
18.0726181435355
20
1.35769644826669
30
0
41
1
10
17.0761123225486
20
1.91843130899838
30
0
41
1
10
15.5819594352082
20
2.73850893325201
30
0
41
1
10
15.0835542248951
20
3.00867137772025
30
0
41
1
10
14.0873317533008
20
3.53965402538125
30
0
41
1
10
13.5894417579789
20
3.80048800015655
30
0
41
1
10
12.0948544297264
20
4.56646387928319
30
0
41
1
10
11.098839092616
20
5.05456679586032
30
0
41
1
10
9.60375597021215
20
5.7408346601699
30
0
41
1
10
9.10576693532866
20
5.96182451200454
30
0
41
1
10
8.10956572995036
20
6.38695260951005
30
0
41
1
10
7.61102684646451
20
6.591153793046
30
0
41
1
10
6.11723516688909
20
7.17477776037069
30
0
41
1
10
5.12285332582439
20
7.52562414447669
30
0
41
1
10
4.12633382119211
20
7.83415528530796
30
0
0
SPLINE
5
C5
100
AcDbEntity
8
1
62
256
6
ByLayer
370
18
48
1
60
0
100
AcDbSpline
70
4
71
3
72
26
73
22
40
0
40
0
40
0
40
0
40
0.124999999999998
40
0.124999999999998
40
0.187499999999999
40
0.187499999999999
40
0.249999999999999
40
0.249999999999999
40
0.499999999999999
40
0.499999999999999
40
0.562499999999998
40
0.562499999999998
40
0.624999999999998
40
0.624999999999998
40
0.749999999999999
40
0.749999999999999
40
0.874999999999999
40
0.874999999999999
40
0.9375
40
0.9375
40
1
40
1
40
1
40
1
41
1
10
99.7246491526352
20
-8.99895249392688
30
0
41
1
10
99.5933520382411
20
-8.99883440799024
30
0
41
1
10
99.4684051250611
20
-8.97957283763085
30
0
41
1
10
99.2909780212659
20
-8.92055451835105
30
0
41
1
10
99.2335053644349
20
-8.89584819004168
30
0
41
1
10
99.1220348305933
20
-8.83596037033325
30
0
41
1
10
99.0678689743193
20
-8.80062225949416
30
0
41
1
10
98.8093770526727
20
-8.59912938172846
30
0
41
1
10
98.6398337861631
20
-8.35942171681714
30
0
41
1
10
98.4768171685911
20
-7.95669306236971
30
0
41
1
10
98.4466918719762
20
-7.87092432986137
30
0
41
1
10
98.3915987520552
20
-7.68851632447704
30
0
41
1
10
98.3665933388353
20
-7.59157372963901
30
0
41
1
10
98.3006898990652
20
-7.28879853537845
30
0
41
1
10
98.2684133235559
20
-7.06984490297597
30
0
41
1
10
98.2268416559438
20
-6.59822444248704
30
0
41
1
10
98.2175454057715
20
-6.34555931325585
30
0
41
1
10
98.2213517943352
20
-5.94052174358077
30
0
41
1
10
98.2256129099459
20
-5.80071304812273
30
0
41
1
10
98.2401316521082
20
-5.5143906958449
30
0
41
1
10
98.2503527056633
20
-5.3681979021504
30
0
41
1
10
98.2634882503603
20
-5.21902179657528
30
0
0
SPLINE
5
C6
100
AcDbEntity
8
1
62
256
6
ByLayer
370
13
48
1
60
0
100
AcDbSpline
70
4
71
3
72
17
73
13
40
0
40
0
40
0
40
0
40
0.102620886924444
40
0.102620886924444
40
0.322483743934496
40
0.542346600944547
40
0.542346600944547
40
0.762209457954599
40
0.762209457954599
40
0.982072314964651
40
0.982072314964651
40
1
40
1
40
1
40
1
41
1
10
4.25031553265845
20
7.80025209530112
30
0
41
1
10
4.2503309935415
20
7.87702355080827
30
0
41
1
10
4.25034599459448
20
7.95003718880307
30
0
41
1
10
4.25039167927784
20
8.1669493229048
30
0
41
1
10
4.25044997048172
20
8.42745225810907
30
0
41
1
10
4.25050227062451
20
8.61861714622464
30
0
41
1
10
4.25055249328577
20
8.77439960904587
30
0
41
1
10
4.25057662856688
20
8.83457723151056
30
0
41
1
10
4.25062285959564
20
8.91649997674244
30
0
41
1
10
4.25064509895259
20
8.93867768604173
30
0
41
1
10
4.25066855386081
20
8.94210353572527
30
0
41
1
10
4.25067031699695
20
8.94223564408512
30
0
41
1
10
4.25067207515238
20
8.94224193697616
30
0
0
SPLINE
5
C7
100
AcDbEntity
8
1
62
256
6
ByLayer
370
18
48
1
60
0
100
AcDbSpline
70
4
71
3
72
12
73
8
40
0
40
0
40
0
40
0
40
0.250000000000005
40
0.250000000000005
40
0.50000000000001
40
0.50000000000001
40
1
40
1
40
1
40
1
41
1
10
99.7904388812831
20
-9.03605126247899
30
0
41
1
10
99.7953017487508
20
-9.02292949273306
30
0
41
1
10
99.800027011491
20
-9.00955433087424
30
0
41
1
10
99.8080339818883
20
-8.98535204677515
30
0
41
1
10
99.8112966007336
20
-8.97456609287832
30
0
41
1
10
99.8176598500264
20
-8.95016686957442
30
0
41
1
10
99.8172375156901
20
-8.94534030147199
30
0
41
1
10
99.8141038018251
20
-8.94828889384183
30
0
0
SPLINE
5
C8
100
AcDbEntity
8
1
62
256
6
ByLayer
370
18
48
1
60
0
100
AcDbSpline
70
4
71
3
72
8
73
4
40
0
40
0
40
0
40
0
40
1
40
1
40
1
40
1
41
1
10
99.8141038018251
20
-8.94828889384183
30
0
41
1
10
99.7782806493123
20
-8.9819958239305
30
0
41
1
10
99.7484277243512
20
-8.99898090490606
30
0
41
1
10
99.7246491526352
20
-8.99895249392688
30
0
0
SPLINE
5
C9
100
AcDbEntity
8
1
62
256
6
ByLayer
370
18
48
1
60
0
100
AcDbSpline
70
4
71
3
72
36
73
32
40
0
40
0
40
0
40
0
40
0.116380389781858
40
0.116380389781858
40
0.174570584672786
40
0.174570584672786
40
0.232760779563714
40
0.232760779563714
40
0.290950974454642
40
0.290950974454642
40
0.34914116934557
40
0.34914116934557
40
0.465521559127427
40
0.465521559127427
40
0.523711754018354
40
0.523711754018354
40
0.581901948909281
40
0.581901948909281
40
0.640092143800209
40
0.640092143800209
40
0.698282338691136
40
0.698282338691136
40
0.814662728472991
40
0.814662728472991
40
0.872852923363918
40
0.872852923363918
40
0.931043118254845
40
0.931043118254845
40
0.989233313145772
40
0.989233313145772
40
1
40
1
40
1
40
1
41
1
10
24.8036489006515
20
-3.16261119701508
30
0
41
1
10
25.5855874822929
20
-3.58477190714692
30
0
41
1
10
26.3679881798738
20
-3.99028780323411
30
0
41
1
10
27.539400226734
20
-4.57896992237411
30
0
41
1
10
27.9293584093965
20
-4.77211943057171
30
0
41
1
10
28.7089995520898
20
-5.15098003360859
30
0
41
1
10
29.0996109105146
20
-5.33531310907077
30
0
41
1
10
29.8819665657816
20
-5.69455987375255
30
0
41
1
10
30.2740573775433
20
-5.86966596261661
30
0
41
1
10
31.0569451876078
20
-6.21012251602428
30
0
41
1
10
31.4473334556131
20
-6.37573947438105
30
0
41
1
10
32.6174166766673
20
-6.85584953572962
30
0
41
1
10
33.3989794998865
20
-7.15017903260312
30
0
41
1
10
34.5705626494074
20
-7.55711501422226
30
0
41
1
10
34.9606529884286
20
-7.68724777477365
30
0
41
1
10
35.7420415804061
20
-7.93413352081322
30
0
41
1
10
36.1340682672329
20
-8.05047631750469
30
0
41
1
10
36.9166911091944
20
-8.26883435519628
30
0
41
1
10
37.3076550718453
20
-8.3709355646084
30
0
41
1
10
38.0884974412367
20
-8.56128035239828
30
0
41
1
10
38.477971389438
20
-8.64976867984768
30
0
41
1
10
39.6476085421958
20
-8.89217817658994
30
0
41
1
10
40.4298052139476
20
-9.02299422544255
30
0
41
1
10
41.6038943405877
20
-9.17447591912418
30
0
41
1
10
41.9945162122498
20
-9.21746568930072
30
0
41
1
10
42.7755069799361
20
-9.28713662933581
30
0
41
1
10
43.166183371191
20
-9.31393086668564
30
0
41
1
10
43.9473034683914
20
-9.35183494725055
30
0
41
1
10
44.3377678438988
20
-9.36293703668889
30
0
41
1
10
44.8001358355606
20
-9.3667286079945
30
0
41
1
10
44.8723044246753
20
-9.36704763684625
30
0
41
1
10
44.9444600314154
20
-9.3670937756338
30
0
0
SPLINE
5
CA
100
AcDbEntity
8
1
62
256
6
ByLayer
370
18
48
1
60
0
100
AcDbSpline
70
4
71
3
72
32
73
28
40
0
40
0
40
0
40
0
40
0.0032203918328292
40
0.0032203918328292
40
0.0798957463072269
40
0.0798957463072269
40
0.156571100781625
40
0.156571100781625
40
0.233246455256023
40
0.233246455256023
40
0.309921809730422
40
0.309921809730422
40
0.386597164204819
40
0.386597164204819
40
0.463272518679218
40
0.463272518679218
40
0.539947873153616
40
0.539947873153616
40
0.616623227628014
40
0.616623227628014
40
0.693298582102412
40
0.693298582102412
40
0.76997393657681
40
0.76997393657681
40
0.846649291051208
40
0.846649291051208
40
1
40
1
40
1
40
1
41
1
10
84.5075677546903
20
6.97645625568262
30
0
41
1
10
84.5239773742449
20
6.98272461137512
30
0
41
1
10
84.5403878840137
20
6.98898253014445
30
0
41
1
10
84.9475430924821
20
7.14397914550642
30
0
41
1
10
85.3390269242896
20
7.28691042636663
30
0
41
1
10
86.1214929466413
20
7.56089789216935
30
0
41
1
10
86.5115818091109
20
7.69204020100673
30
0
41
1
10
87.2911871845396
20
7.94074438321994
30
0
41
1
10
87.6813684625898
20
8.05770209086762
30
0
41
1
10
88.4617834337777
20
8.27776487253374
30
0
41
1
10
88.8520452802892
20
8.38083955645223
30
0
41
1
10
89.6322854869122
20
8.57330664374342
30
0
41
1
10
90.0218920617702
20
8.66293017402808
30
0
41
1
10
90.8024476390434
20
8.82707117745588
30
0
41
1
10
91.1941448385696
20
8.90144300028368
30
0
41
1
10
91.9763278414709
20
9.03477048538059
30
0
41
1
10
92.3670245307333
20
9.0937596433015
30
0
41
1
10
93.1472395458018
20
9.19654947521312
30
0
41
1
10
93.5363396315723
20
9.24045090942997
30
0
41
1
10
94.3154318669749
20
9.31217273486229
30
0
41
1
10
94.7055753046974
20
9.34002371562846
30
0
41
1
10
95.4864255644497
20
9.38003781398649
30
0
41
1
10
95.8771562546475
20
9.39219243003987
30
0
41
1
10
96.6588501922794
20
9.40061715932569
30
0
41
1
10
97.049362437017
20
9.39680171576705
30
0
41
1
10
98.2201878696061
20
9.36141585314098
30
0
41
1
10
99.0010477110229
20
9.30645764780928
30
0
41
1
10
99.7804115337638
20
9.22002207900718
30
0
0
SPLINE
5
CB
100
AcDbEntity
8
1
62
256
6
ByLayer
370
13
48
1
60
0
100
AcDbSpline
70
4
71
3
72
29
73
25
40
0
40
0
40
0
40
0
40
0.084337821921891
40
0.084337821921891
40
0.175904039729702
40
0.175904039729702
40
0.267470257537513
40
0.267470257537513
40
0.359036475345324
40
0.359036475345324
40
0.450602693153135
40
0.450602693153135
40
0.633735128768757
40
0.633735128768757
40
0.679518237672662
40
0.679518237672662
40
0.725301346576568
40
0.725301346576568
40
0.816867564384378
40
0.908433782192189
40
0.908433782192189
40
0.954216891096095
40
0.954216891096095
40
1
40
1
40
1
40
1
41
1
10
4.25067190704752
20
-8.9422409519903
30
0
41
1
10
4.25069177030568
20
-8.94240262096187
30
0
41
1
10
4.25071099718741
20
-8.92650955259924
30
0
41
1
10
4.25075041296714
20
-8.86095924771766
30
0
41
1
10
4.25077054128937
20
-8.80852102028481
30
0
41
1
10
4.25081059288755
20
-8.66693359960098
30
0
41
1
10
4.25083054290144
20
-8.57764021876432
30
0
41
1
10
4.25087051826534
20
-8.36147180289046
30
0
41
1
10
4.25089031634928
20
-8.23588410456165
30
0
41
1
10
4.25092972077158
20
-7.94994904872325
30
0
41
1
10
4.25094936861518
20
-7.78903967397468
30
0
41
1
10
4.25100684431948
20
-7.26378441160404
30
0
41
1
10
4.25104369455556
20
-6.85511120434361
30
0
41
1
10
4.2510861488376
20
-6.27120268165052
30
0
41
1
10
4.25109444975129
20
-6.15072500407993
30
0
41
1
10
4.25111058626982
20
-5.90220204490066
30
0
41
1
10
4.25111839462065
20
-5.77452437398688
30
0
41
1
10
4.25114070157971
20
-5.38498638312876
30
0
41
1
10
4.25116765612484
20
-4.84555118451894
30
0
41
1
10
4.25118761498814
20
-4.26691413519885
30
0
41
1
10
4.25119924981846
20
-3.81801686233263
30
0
41
1
10
4.25120257041141
20
-3.66589215020454
30
0
41
1
10
4.25120795025205
20
-3.35654882403139
30
0
41
1
10
4.25121000110329
20
-3.19959687508288
30
0
41
1
10
4.25121133678755
20
-3.04153964648501
30
0
0
SPLINE
5
CC
100
AcDbEntity
8
1
62
256
6
ByLayer
370
18
48
1
60
0
100
AcDbSpline
70
4
71
3
72
22
73
18
40
0
40
0
40
0
40
0
40
0.0609394622515746
40
0.0609394622515746
40
0.166737170660378
40
0.166737170660378
40
0.27253487906918
40
0.27253487906918
40
0.484130295886783
40
0.484130295886783
40
0.589928004295582
40
0.589928004295582
40
0.69572571270438
40
0.69572571270438
40
0.907321129521978
40
0.907321129521978
40
1
40
1
40
1
40
1
41
1
10
72.0998481019893
20
-0.0204425829126365
30
0
41
1
10
72.3869814658021
20
-0.179261304589488
30
0
41
1
10
72.6740068825043
20
-0.338045138738522
30
0
41
1
10
73.4593356019911
20
-0.771871277938743
30
0
41
1
10
73.9577125030792
20
-1.04631845752726
30
0
41
1
10
74.9553639087076
20
-1.59219011156063
30
0
41
1
10
75.4549136573099
20
-1.86378224754415
30
0
41
1
10
76.9546894942725
20
-2.67013092311666
30
0
41
1
10
77.9509655120474
20
-3.19420747447464
30
0
41
1
10
79.4458034264622
20
-3.95021604269417
30
0
41
1
10
79.9442397628726
20
-4.19707607988531
30
0
41
1
10
80.9422687663761
20
-4.67906482189645
30
0
41
1
10
81.4425312373374
20
-4.91445270365853
30
0
41
1
10
82.9409282167143
20
-5.5983620467529
30
0
41
1
10
83.9362903033492
20
-6.02448329954871
30
0
41
1
10
85.3681685098016
20
-6.58651357880035
30
0
41
1
10
85.8044122518048
20
-6.75092696482298
30
0
41
1
10
86.2410275666758
20
-6.90821121306808
30
0
0
SPLINE
5
CD
100
AcDbEntity
8
1
62
256
6
ByLayer
370
13
48
1
60
0
100
AcDbSpline
70
4
71
3
72
20
73
16
40
0
40
0
40
0
40
0
40
0.0135905189252364
40
0.0135905189252364
40
0.123191572377984
40
0.123191572377984
40
0.561595786188992
40
0.561595786188992
40
0.780797893094499
40
0.780797893094499
40
0.890398946547251
40
0.890398946547251
40
0.945199473273625
40
0.945199473273625
40
1
40
1
40
1
40
1
41
1
10
86.2410266251932
20
-6.90821087391279
30
0
41
1
10
86.3028305142837
20
-6.93047481782048
30
0
41
1
10
86.3646418485929
20
-6.9525959148767
30
0
41
1
10
86.9250063752047
20
-7.15180917529497
30
0
41
1
10
87.4246974625911
20
-7.31982707516238
30
0
41
1
10
89.9222949693219
20
-8.10747662155572
30
0
41
1
10
91.8902863933045
20
-8.56195747372257
30
0
41
1
10
94.8419477422135
20
-8.95816313623294
30
0
41
1
10
95.8258808677956
20
-9.0427933013442
30
0
41
1
10
97.3071725083272
20
-9.09615958317232
30
0
41
1
10
97.8018537868659
20
-9.1016781214434
30
0
41
1
10
98.5458944693092
20
-9.09119794908111
30
0
41
1
10
98.7942446433184
20
-9.08457853996217
30
0
41
1
10
99.2917297585441
20
-9.06503208810051
30
0
41
1
10
99.5409285490885
20
-9.0516732768902
30
0
41
1
10
99.7904388812815
20
-9.03605126247908
30
0
0
SPLINE
5
CE
100
AcDbEntity
8
1
62
256
6
ByLayer
370
18
48
1
60
0
100
AcDbSpline
70
4
71
3
72
14
73
10
40
0
40
0
40
0
40
0
40
0.12959664981097
40
0.12959664981097
40
0.41041282220544
40
0.41041282220544
40
0.972045166994373
40
0.972045166994373
40
1
40
1
40
1
40
1
41
1
10
98.2071546530627
20
-8.99789052420476
30
0
41
1
10
97.7495454567407
20
-8.99972107405222
30
0
41
1
10
97.2930397388901
20
-8.99103885879137
30
0
41
1
10
95.8497955250281
20
-8.93084524240064
30
0
41
1
10
94.8658315334671
20
-8.84118776850525
30
0
41
1
10
91.9140017420406
20
-8.43189313125325
30
0
41
1
10
89.945906341692
20
-7.97124474284553
30
0
41
1
10
87.8488154489964
20
-7.30666117050572
30
0
41
1
10
87.7493829275182
20
-7.27474457159127
30
0
41
1
10
87.6499582411832
20
-7.24243156967898
30
0
0
SPLINE
5
CF
100
AcDbEntity
8
1
62
256
6
ByLayer
370
13
48
1
60
0
100
AcDbSpline
70
4
71
3
72
28
73
24
40
0
40
0
40
0
40
0
40
0.0589988040338299
40
0.0589988040338299
40
0.132664162103128
40
0.132664162103128
40
0.279994878241723
40
0.279994878241723
40
0.35366023631102
40
0.35366023631102
40
0.427325594380316
40
0.427325594380316
40
0.574656310518912
40
0.574656310518912
40
0.648321668588211
40
0.648321668588211
40
0.72198702665751
40
0.72198702665751
40
0.79565238472681
40
0.79565238472681
40
0.869317742796109
40
0.869317742796109
40
1
40
1
40
1
40
1
41
1
10
87.6499582411686
20
-7.24243156967424
30
0
41
1
10
87.2500048798466
20
-7.11244681231034
30
0
41
1
10
86.8501783062405
20
-6.9760474904925
30
0
41
1
10
85.9526418821698
20
-6.65630294960096
30
0
41
1
10
85.454770005156
20
-6.46959759813032
30
0
41
1
10
83.9615465937474
20
-5.88360808775408
30
0
41
1
10
82.9664322173085
20
-5.458436985552
30
0
41
1
10
81.4684629367964
20
-4.77711360195499
30
0
41
1
10
80.9684144722396
20
-4.54280833858053
30
0
41
1
10
79.9707295120876
20
-4.06335447441586
30
0
41
1
10
79.4724378336432
20
-3.81795650831725
30
0
41
1
10
77.978017954715
20
-3.0668676239205
30
0
41
1
10
76.9820002179026
20
-2.54677017665571
30
0
41
1
10
75.4826689791616
20
-1.74742696124792
30
0
41
1
10
74.9833434702095
20
-1.47837268093667
30
0
41
1
10
73.9860221266416
20
-0.937825270071755
30
0
41
1
10
73.48778717447
20
-0.666200365619886
30
0
41
1
10
72.4914559856877
20
-0.121565687767458
30
0
41
1
10
71.9932847708794
20
0.151310684545194
30
0
41
1
10
70.9958183365987
20
0.696134937696428
30
0
41
1
10
70.4959100217287
20
0.968388890566331
30
0
41
1
10
69.110543867474
20
1.71869803646788
30
0
41
1
10
68.2299136305288
20
2.18990684885119
30
0
41
1
10
67.352073028411
20
2.64827274892556
30
0
0
SPLINE
5
D0
100
AcDbEntity
8
1
62
256
6
ByLayer
370
18
48
1
60
0
100
AcDbSpline
70
4
71
3
72
18
73
14
40
0
40
0
40
0
40
0
40
0.0332164265333539
40
0.0332164265333539
40
0.184892549213508
40
0.184892549213508
40
0.336568671893661
40
0.336568671893661
40
0.63992091725397
40
0.63992091725397
40
0.94327316261428
40
0.94327316261428
40
1
40
1
40
1
40
1
41
1
10
46.4423480449684
20
-8.96677861661894
30
0
41
1
10
46.3330978258036
20
-8.96661325464248
30
0
41
1
10
46.2238394591691
20
-8.96585411409376
30
0
41
1
10
45.6156032430749
20
-8.95832380912441
30
0
41
1
10
45.1163138301674
20
-8.9397008365064
30
0
41
1
10
44.1162313282176
20
-8.87767684913001
30
0
41
1
10
43.6173545463734
20
-8.83434331396774
30
0
41
1
10
42.1246631812735
20
-8.6684208283244
30
0
41
1
10
41.1339201448672
20
-8.50999748663432
30
0
41
1
10
39.1540814954606
20
-8.10297234969343
30
0
41
1
10
38.1647605379706
20
-7.85442915776554
30
0
41
1
10
36.987058030325
20
-7.50918442864378
30
0
41
1
10
36.8014190669009
20
-7.45332086734706
30
0
41
1
10
36.6156515578615
20
-7.39600379542034
30
0
0
SPLINE
5
D1
100
AcDbEntity
8
1
62
256
6
ByLayer
370
13
48
1
60
0
100
AcDbSpline
70
4
71
3
72
32
73
28
40
0
40
0
40
0
40
0
40
0.0456435170863406
40
0.0456435170863406
40
0.0820999505231631
40
0.0820999505231631
40
0.118556383959986
40
0.118556383959986
40
0.264382117707276
40
0.264382117707276
40
0.337294984580922
40
0.337294984580922
40
0.410207851454568
40
0.410207851454568
40
0.556033585201859
40
0.556033585201859
40
0.628946452075506
40
0.628946452075506
40
0.701859318949152
40
0.701859318949152
40
0.847685052696446
40
0.847685052696446
40
0.920597919570093
40
0.920597919570093
40
0.993510786443741
40
0.993510786443741
40
1
40
1
40
1
40
1
41
1
10
36.6156525143469
20
-7.39600409053622
30
0
41
1
10
36.3047148511291
20
-7.3000667816359
30
0
41
1
10
35.9934170537899
20
-7.20005730770498
30
0
41
1
10
35.4326225101941
20
-7.01301400474722
30
0
41
1
10
35.1833039023927
20
-6.92740481950275
30
0
41
1
10
34.6839436597033
20
-6.7511914234627
30
0
41
1
10
34.4337207891141
20
-6.66051809958819
30
0
41
1
10
33.1841742301114
20
-6.19633259298891
30
0
41
1
10
32.1876921630631
20
-5.78978166755346
30
0
41
1
10
30.6920490733643
20
-5.13521590431304
30
0
41
1
10
30.1932956955678
20
-4.90962489525791
30
0
41
1
10
29.1946046508625
20
-4.4448677140465
30
0
41
1
10
28.6941177466062
20
-4.20538449309453
30
0
41
1
10
27.1954030992337
20
-3.47206763237981
30
0
41
1
10
26.1990681748885
20
-2.96259359530271
30
0
41
1
10
24.7030146188606
20
-2.17754041555088
30
0
41
1
10
24.2040389480005
20
-1.91242870842342
30
0
41
1
10
23.2046836444105
20
-1.37682293653697
30
0
41
1
10
22.7041865345493
20
-1.10626494078173
30
0
41
1
10
21.2061709669225
20
-0.293242807211129
30
0
41
1
10
20.2098653616487
20
0.252032725514425
30
0
41
1
10
18.7132674018858
20
1.06433548668022
30
0
41
1
10
18.2140232647927
20
1.33412778173897
30
0
41
1
10
17.2139038253949
20
1.87015051638946
30
0
41
1
10
16.7138422930046
20
2.13592706432794
30
0
41
1
10
16.1702442974148
20
2.42112695053936
30
0
41
1
10
16.1258223144146
20
2.44440708808622
30
0
41
1
10
16.0814040818037
20
2.46765851300231
30
0
0
SPLINE
5
D2
100
AcDbEntity
8
1
62
256
6
ByLayer
370
18
48
1
60
0
100
AcDbSpline
70
4
71
3
72
14
73
10
40
0
40
0
40
0
40
0
40
0.25
40
0.25
40
0.5
40
0.5
40
0.75
40
0.75
40
1
40
1
40
1
40
1
41
1
10
98.428469329708
20
2.36154352135335
30
0
41
1
10
98.4197123455983
20
2.38936633990997
30
0
41
1
10
98.4146400801916
20
2.41829130562979
30
0
41
1
10
98.4163014897826
20
2.4773507192871
30
0
41
1
10
98.4234401795475
20
2.50727454538003
30
0
41
1
10
98.4534652578595
20
2.55997346929055
30
0
41
1
10
98.4764816033185
20
2.58226941906364
30
0
41
1
10
98.5302478936408
20
2.61388435152688
30
0
41
1
10
98.5604064822855
20
2.6238168099257
30
0
41
1
10
98.5910503573829
20
2.62936610099109
30
0
0
SPLINE
5
D3
100
AcDbEntity
8
1
62
256
6
ByLayer
370
18
48
1
60
0
100
AcDbSpline
70
4
71
3
72
12
73
8
40
0
40
0
40
0
40
0
40
0.25000000000001
40
0.25000000000001
40
0.50000000000002
40
0.50000000000002
40
1
40
1
40
1
40
1
41
1
10
4.12633382119378
20
7.83415528530745
30
0
41
1
10
4.10708474555241
20
7.84011496722033
30
0
41
1
10
4.08969456661342
20
7.8472968814626
30
0
41
1
10
4.05852387506511
20
7.86398557348608
30
0
41
1
10
4.04489335100288
20
7.87348924226748
30
0
41
1
10
4.01194751871742
20
7.90386017767915
30
0
41
1
10
4.00000017041185
20
7.92708617022689
30
0
41
1
10
4.00000017041185
20
7.95035072712392
30
0
0
SPLINE
5
D4
100
AcDbEntity
8
1
62
256
6
ByLayer
370
18
48
1
60
0
100
AcDbSpline
70
4
71
3
72
28
73
24
40
0
40
0
40
0
40
0
40
0.250000000000005
40
0.250000000000005
40
0.374999999999998
40
0.374999999999998
40
0.49999999999999
40
0.49999999999999
40
0.624999999999982
40
0.624999999999982
40
0.687499999999988
40
0.687499999999988
40
0.749999999999993
40
0.749999999999993
40
0.812499999999998
40
0.812499999999998
40
0.875000000000003
40
0.875000000000003
40
0.906250000000002
40
0.906250000000002
40
0.937500000000002
40
0.937500000000002
40
1
40
1
40
1
40
1
41
1
10
98.5910503573829
20
2.62936610099106
30
0
41
1
10
98.9096997245099
20
2.6870702288258
30
0
41
1
10
99.2269305589799
20
2.75330341111447
30
0
41
1
10
99.6947271160615
20
2.87449859300071
30
0
41
1
10
99.8493754838449
20
2.91860340996649
30
0
41
1
10
100.155071463823
20
3.01736749256835
30
0
41
1
10
100.306144739845
20
3.07194651435046
30
0
41
1
10
100.602832853647
20
3.19736586331686
30
0
41
1
10
100.749476301872
20
3.26858857170322
30
0
41
1
10
100.957374849029
20
3.39409474594243
30
0
41
1
10
101.024691048253
20
3.43907941753506
30
0
41
1
10
101.153854752896
20
3.53780423585081
30
0
41
1
10
101.214879077277
20
3.59093970280057
30
0
41
1
10
101.326700781232
20
3.70675387058205
30
0
41
1
10
101.37783967701
20
3.76978354327443
30
0
41
1
10
101.465104235128
20
3.90832598391097
30
0
41
1
10
101.49983031046
20
3.98167864267128
30
0
41
1
10
101.536279555462
20
4.09893266042403
30
0
41
1
10
101.545769081523
20
4.13930213540201
30
0
41
1
10
101.558841771759
20
4.21987008716687
30
0
41
1
10
101.562545143933
20
4.26038961852115
30
0
41
1
10
101.565675455624
20
4.38261460179822
30
0
41
1
10
101.556820839696
20
4.46541287366085
30
0
41
1
10
101.539831175948
20
4.54507785431153
30
0
0
SPLINE
5
D5
100
AcDbEntity
8
1
62
256
6
ByLayer
370
18
48
1
60
0
100
AcDbSpline
70
4
71
3
72
8
73
4
40
0
40
0
40
0
40
0
40
1
40
1
40
1
40
1
41
1
10
4.00000017041191
20
-3.18117186945884
30
0
41
1
10
4.00000017041191
20
-3.25452808857045
30
0
41
1
10
4.00000017041191
20
-3.32770130181385
30
0
41
1
10
4.00000017041191
20
-3.40068842988387
30
0
0
SPLINE
5
D6
100
AcDbEntity
8
1
62
256
6
ByLayer
370
18
48
1
60
0
100
AcDbSpline
70
4
71
3
72
20
73
16
40
0
40
0
40
0
40
0
40
0.125
40
0.125
40
0.249999999999999
40
0.249999999999999
40
0.374999999999999
40
0.374999999999999
40
0.499999999999999
40
0.499999999999999
40
0.624999999999998
40
0.624999999999998
40
0.749999999999998
40
0.749999999999998
40
1
40
1
40
1
40
1
41
1
10
4.25121133678752
20
-3.04153964645832
30
0
41
1
10
4.23747355726658
20
-3.02761452963802
30
0
41
1
10
4.22316699602993
20
-3.01478011766724
30
0
41
1
10
4.19289440153742
20
-2.99226462262246
30
0
41
1
10
4.17673961379595
20
-2.98249969387862
30
0
41
1
10
4.14356460156611
20
-2.96914534798972
30
0
41
1
10
4.1262359275934
20
-2.96554809532714
30
0
41
1
10
4.09312522287388
20
-2.96788150060414
30
0
41
1
10
4.07762050184559
20
-2.97391341776697
30
0
41
1
10
4.05149294482283
20
-2.99369630711172
30
0
41
1
10
4.04088582743287
20
-3.00717866050158
30
0
41
1
10
4.02416186023794
20
-3.03713253320095
30
0
41
1
10
4.01783377501567
20
-3.05385889550902
30
0
41
1
10
4.00352635644188
20
-3.10608646562062
30
0
41
1
10
4.00000017041188
20
-3.14302876384306
30
0
41
1
10
4.00000017041188
20
-3.18117186945881
30
0
0
SPLINE
5
D7
100
AcDbEntity
8
SK1
62
256
6
ByLayer
370
18
48
1
60
0
100
AcDbSpline
70
4
71
3
72
14
73
10
40
0
40
0
40
0
40
0
40
0.124999999999993
40
0.124999999999993
40
0.249999999999987
40
0.249999999999987
40
0.499999999999991
40
0.499999999999991
40
1
40
1
40
1
40
1
41
1
10
-47.5
20
-8.38335522053583
30
0
41
1
10
-47.5
20
-8.37996459917883
30
0
41
1
10
-47.5017107697461
20
-8.37380178238047
30
0
41
1
10
-47.5068845888983
20
-8.35923273160614
30
0
41
1
10
-47.5102281895671
20
-8.3510633210991
30
0
41
1
10
-47.521528237522
20
-8.32507214081647
30
0
41
1
10
-47.5303630420009
20
-8.30663420734473
30
0
41
1
10
-47.558525242781
20
-8.25027367716595
30
0
41
1
10
-47.5788396428357
20
-8.21263697075878
30
0
41
1
10
-47.6
20
-8.17553663033445
30
0
0
SPLINE
5
D8
100
AcDbEntity
8
SK1
62
256
6
ByLayer
370
18
48
1
60
0
100
AcDbSpline
70
4
71
3
72
8
73
4
40
0
40
0
40
0
40
0
40
1
40
1
40
1
40
1
41
1
10
-47.6
20
-8.17553663033445
30
0
41
1
10
-48.0582305917801
20
-7.37212339794527
30
0
41
1
10
-48.5147193672157
20
-6.56774211062529
30
0
41
1
10
-48.9662084904362
20
-5.76063076452533
30
0
0
SPLINE
5
D9
100
AcDbEntity
8
SK1
62
256
6
ByLayer
370
18
48
1
60
0
100
AcDbSpline
70
4
71
3
72
14
73
10
40
0
40
0
40
0
40
0
40
0.500000000000009
40
0.500000000000009
40
0.750000000000004
40
0.750000000000004
40
0.875000000000002
40
0.875000000000002
40
1
40
1
40
1
40
1
41
1
10
-47.6
20
8.63445945454512
30
0
41
1
10
-47.5789465118595
20
8.67137242208466
30
0
41
1
10
-47.5585985142981
20
8.70748794788756
30
0
41
1
10
-47.5303873672755
20
8.75836026440965
30
0
41
1
10
-47.5214287539013
20
8.77466578023567
30
0
41
1
10
-47.5102864584886
20
8.79536830188135
30
0
41
1
10
-47.50688945626
20
8.80176638988297
30
0
41
1
10
-47.5017228477084
20
8.81184300777781
30
0
41
1
10
-47.5
20
8.81544092576425
30
0
41
1
10
-47.5
20
8.81605388336305
30
0
0
SPLINE
5
DA
100
AcDbEntity
8
SK1
62
256
6
ByLayer
370
18
48
1
60
0
100
AcDbSpline
70
4
71
3
72
22
73
18
40
0
40
0
40
0
40
0
40
0.125
40
0.125
40
0.25
40
0.25
40
0.375
40
0.375
40
0.5
40
0.5
40
0.625
40
0.625
40
0.75
40
0.75
40
0.875
40
0.875
40
1
40
1
40
1
40
1
41
1
10
-48.9662084904362
20
-5.76063076452533
30
0
41
1
10
-48.9980502136253
20
-5.68093622421179
30
0
41
1
10
-49.0323539792969
20
-5.59770165167569
30
0
41
1
10
-49.1038863969036
20
-5.4297744984132
30
0
41
1
10
-49.1412278589812
20
-5.34476237671953
30
0
41
1
10
-49.2193158042848
20
-5.17284966053887
30
0
41
1
10
-49.2603092326299
20
-5.08543983424752
30
0
41
1
10
-49.345065028736
20
-4.91117500372064
30
0
41
1
10
-49.388397630139
20
-4.82516982928624
30
0
41
1
10
-49.4772670104
20
-4.65554833016844
30
0
41
1
10
-49.5228017030445
20
-4.57193033981159
30
0
41
1
10
-49.6165094965624
20
-4.4073900321213
30
0
41
1
10
-49.6644900995668
20
-4.32689036121508
30
0
41
1
10
-49.7599224898469
20
-4.17476163257939
30
0
41
1
10
-49.807785016921
20
-4.10239413478678
30
0
41
1
10
-49.9038724935269
20
-3.96572950249509
30
0
41
1
10
-49.952460611836
20
-3.90100051842742
30
0
41
1
10
-50
20
-3.84251434154848
30
0
0
SPLINE
5
DB
100
AcDbEntity
8
SK1
62
256
6
ByLayer
370
18
48
1
60
0
100
AcDbSpline
70
4
71
3
72
10
73
6
40
0
40
0
40
0
40
0
40
0.5
40
0.5
40
1
40
1
40
1
40
1
41
1
10
-50
20
4.33944937474109
30
0
41
1
10
-49.6125311369819
20
5.06161662270847
30
0
41
1
10
-49.214050670593
20
5.77840969380625
30
0
41
1
10
-48.4112381725706
20
7.20880869525024
30
0
41
1
10
-48.0063336878893
20
7.92203678466723
30
0
41
1
10
-47.6
20
8.63445945454512
30
0
0
SPLINE
5
DC
100
AcDbEntity
8
SK1
62
256
6
ByLayer
370
18
48
1
60
0
100
AcDbSpline
70
4
71
3
72
14
73
10
40
0
40
0
40
0
40
0
40
0.499999999999994
40
0.499999999999994
40
0.749999999999997
40
0.749999999999997
40
0.874999999999999
40
0.874999999999999
40
1
40
1
40
1
40
1
41
1
10
-47.6
20
-8.63445945454512
30
0
41
1
10
-47.5789465118595
20
-8.67137242208466
30
0
41
1
10
-47.5585985142981
20
-8.70748794788756
30
0
41
1
10
-47.5303873672755
20
-8.75836026440965
30
0
41
1
10
-47.5214287539013
20
-8.77466578023567
30
0
41
1
10
-47.5102864584886
20
-8.79536830188135
30
0
41
1
10
-47.50688945626
20
-8.80176638988294
30
0
41
1
10
-47.5017228477084
20
-8.81184300777781
30
0
41
1
10
-47.5
20
-8.81544092576425
30
0
41
1
10
-47.5
20
-8.81605388336305
30
0
0
SPLINE
5
DD
100
AcDbEntity
8
SK1
62
256
6
ByLayer
370
18
48
1
60
0
100
AcDbSpline
70
4
71
3
72
10
73
6
40
0
40
0
40
0
40
0
40
0.5
40
0.5
40
1
40
1
40
1
40
1
41
1
10
-50
20
-4.33944937474109
30
0
41
1
10
-49.6125311369819
20
-5.06161662270847
30
0
41
1
10
-49.214050670593
20
-5.77840969380622
30
0
41
1
10
-48.4112381725706
20
-7.20880869525024
30
0
41
1
10
-48.0063336878893
20
-7.92203678466723
30
0
41
1
10
-47.6
20
-8.63445945454512
30
0
0
LINE
5
76
100
AcDbEntity
8
81
62
256
6
ByLayer
370
18
48
1
60
0
100
AcDbLine
10
103
20
0
30
0
11
108
21
0
31
0
39
0
210
0
220
0
230
1
0
LINE
5
77
100
AcDbEntity
8
1
62
256
6
ByLayer
370
18
48
1
60
0
100
AcDbLine
10
4
20
9.342531
30
0
11
1.294579
21
9.340908
31
0
39
0
210
0
220
0
230
1
0
LINE
5
79
100
AcDbEntity
8
1
62
256
6
ByLayer
370
18
48
1
60
0
100
AcDbLine
10
46.262735
20
9.367889
30
0
11
44.944859
21
9.367098
31
0
39
0
210
0
220
0
230
1
0
LINE
5
7A
100
AcDbEntity
8
1
62
256
6
ByLayer
370
18
48
1
60
0
100
AcDbLine
10
97.863598
20
9.39885
30
0
11
96.559816
21
9.398067
31
0
39
0
210
0
220
0
230
1
0
LINE
5
7B
100
AcDbEntity
8
1
62
256
6
ByLayer
370
18
48
1
60
0
100
AcDbLine
10
96.559816
20
-9.398067
30
0
11
97.863395
21
-9.398849
31
0
39
0
210
0
220
0
230
1
0
LINE
5
7C
100
AcDbEntity
8
1
62
256
6
ByLayer
370
18
48
1
60
0
100
AcDbLine
10
44.944859
20
-9.367098
30
0
11
46.262715
21
-9.367889
31
0
39
0
210
0
220
0
230
1
0
LINE
5
7D
100
AcDbEntity
8
1
62
256
6
ByLayer
370
18
48
1
60
0
100
AcDbLine
10
1.294579
20
-9.340908
30
0
11
4
21
-9.342531
31
0
39
0
210
0
220
0
230
1
0
LINE
5
7E
100
AcDbEntity
8
SK1
62
256
6
ByLayer
370
18
48
1
60
0
100
AcDbLine
10
0
20
10
30
0
11
-46.824574
21
10
31
0
39
0
210
0
220
0
230
1
0
LINE
5
80
100
AcDbEntity
8
SK1
62
256
6
ByLayer
370
18
48
1
60
0
100
AcDbLine
10
-46.824574
20
-10
30
0
11
0
21
-10
31
0
39
0
210
0
220
0
230
1
0
LINE
5
81
100
AcDbEntity
8
SK1
62
256
6
ByLayer
370
18
48
1
60
0
100
AcDbLine
10
-46.824574
20
10
30
0
11
-47.5
21
8.830127
31
0
39
0
210
0
220
0
230
1
0
LINE
5
82
100
AcDbEntity
8
SK1
62
256
6
ByLayer
370
18
48
1
60
0
100
AcDbLine
10
-47.5
20
-8.830127
30
0
11
-46.824574
21
-10
31
0
39
0
210
0
220
0
230
1
0
LINE
5
83
100
AcDbEntity
8
SK4
62
256
6
ByLayer
370
18
48
0.05
60
0
100
AcDbLine
10
108
20
0
30
0
11
-55
21
0
31
0
39
0
210
0
220
0
230
1
0
LINE
5
85
100
AcDbEntity
8
4
62
256
6
ByLayer
370
18
48
0.05
60
0
100
AcDbLine
10
103
20
0
30
0
11
0
21
0
31
0
39
0
210
0
220
0
230
1
0
LINE
5
87
100
AcDbEntity
8
80
62
256
6
ByLayer
370
18
48
1
60
0
100
AcDbLine
10
0
20
0
30
0
11
-5
21
0
31
0
39
0
210
0
220
0
230
1
0
LINE
5
88
100
AcDbEntity
8
1
62
256
6
ByLayer
370
13
48
1
60
0
100
AcDbLine
10
102.551961
20
1.52916
30
0
11
100.553427
21
1.52916
31
0
39
0
210
0
220
0
230
1
0
LINE
5
89
100
AcDbEntity
8
1
62
256
6
ByLayer
370
13
48
1
60
0
100
AcDbLine
10
100.553427
20
1.52916
30
0
11
102.886433
21
0.374038
31
0
39
0
210
0
220
0
230
1
0
LINE
5
8A
100
AcDbEntity
8
1
62
256
6
ByLayer
370
18
48
1
60
0
100
AcDbLine
10
102.978544
20
0.086988
30
0
11
103
21
0
31
0
39
0
210
0
220
0
230
1
0
LINE
5
8B
100
AcDbEntity
8
1
62
256
6
ByLayer
370
18
48
1
60
0
100
AcDbLine
10
98.263488
20
-5.219022
30
0
11
102.892985
21
-0.059532
31
0
39
0
210
0
220
0
230
1
0
LINE
5
8C
100
AcDbEntity
8
1
62
256
6
ByLayer
370
18
48
1
60
0
100
AcDbLine
10
102.886433
20
-0.374038
30
0
11
102.551961
21
-1.52916
31
0
39
0
210
0
220
0
230
1
0
LINE
5
8D
100
AcDbEntity
8
1
62
256
6
ByLayer
370
18
48
1
60
0
100
AcDbLine
10
4
20
9.342531
30
0
11
4
21
7.950351
31
0
39
0
210
0
220
0
230
1
0
LINE
5
8E
100
AcDbEntity
8
1
62
256
6
ByLayer
370
18
48
1
60
0
100
AcDbLine
10
103
20
0
30
0
11
99.724649
21
-8.998952
31
0
39
0
210
0
220
0
230
1
0
LINE
5
8F
100
AcDbEntity
8
1
62
256
6
ByLayer
370
18
48
1
60
0
100
AcDbLine
10
4
20
-9.342531
30
0
11
4
21
-3.400688
31
0
39
0
210
0
220
0
230
1
0
LINE
5
90
100
AcDbEntity
8
1
62
256
6
ByLayer
370
13
48
1
60
0
100
AcDbLine
10
100.383968
20
1.182736
30
0
11
102.892985
21
-0.059532
31
0
39
0
210
0
220
0
230
1
0
LINE
5
91
100
AcDbEntity
8
1
62
256
6
ByLayer
370
13
48
1
60
0
100
AcDbLine
10
0.647049
20
9.670454
30
0
11
0.647049
21
-9.670454
31
0
39
0
210
0
220
0
230
1
0
LINE
5
92
100
AcDbEntity
8
1
62
256
6
ByLayer
370
18
48
1
60
0
100
AcDbLine
10
102.886433
20
0.374038
30
0
11
102.551961
21
1.52916
31
0
39
0
210
0
220
0
230
1
0
LINE
5
93
100
AcDbEntity
8
1
62
256
6
ByLayer
370
18
48
1
60
0
100
AcDbLine
10
0
20
-10
30
0
11
0
21
10
31
0
39
0
210
0
220
0
230
1
0
LINE
5
94
100
AcDbEntity
8
1
62
256
6
ByLayer
370
18
48
1
60
0
100
AcDbLine
10
103
20
0
30
0
11
102.978544
21
-0.086988
31
0
39
0
210
0
220
0
230
1
0
LINE
5
95
100
AcDbEntity
8
1
62
256
6
ByLayer
370
13
48
1
60
0
100
AcDbLine
10
1.294579
20
9.340908
30
0
11
1.294579
21
-9.340908
31
0
39
0
210
0
220
0
230
1
0
LINE
5
96
100
AcDbEntity
8
SK1
62
256
6
ByLayer
370
18
48
1
60
0
100
AcDbLine
10
-47.5
20
-8.830127
30
0
11
-47.5
21
-8.383355
31
0
39
0
210
0
220
0
230
1
0
LINE
5
97
100
AcDbEntity
8
SK1
62
256
6
ByLayer
370
18
48
1
60
0
100
AcDbLine
10
-46.824574
20
10
30
0
11
-46.824574
21
-10
31
0
39
0
210
0
220
0
230
1
0
LINE
5
98
100
AcDbEntity
8
SK1
62
256
6
ByLayer
370
18
48
1
60
0
100
AcDbLine
10
0
20
-10
30
0
11
0
21
10
31
0
39
0
210
0
220
0
230
1
0
LINE
5
99
100
AcDbEntity
8
SK1
62
256
6
ByLayer
370
18
48
1
60
0
100
AcDbLine
10
-47.5
20
8.830127
30
0
11
-47.5
21
8.816054
31
0
39
0
210
0
220
0
230
1
0
LINE
5
9A
100
AcDbEntity
8
SK1
62
256
6
ByLayer
370
18
48
1
60
0
100
AcDbLine
10
-50
20
4.339449
30
0
11
-50
21
-3.842514
31
0
39
0
210
0
220
0
230
1
0
LINE
5
9B
100
AcDbEntity
8
SK1
62
256
6
ByLayer
370
18
48
1
60
0
100
AcDbLine
10
-50
20
-3.842471
30
0
11
-50
21
-4.339449
31
0
39
0
210
0
220
0
230
1
0
LINE
5
9C
100
AcDbEntity
8
SK1
62
256
6
ByLayer
370
13
48
1
60
0
100
AcDbLine
10
-47.6
20
-8.175336
30
0
11
-47.6
21
-8.634459
31
0
39
0
210
0
220
0
230
1
0
MTEXT
5
DE
100
AcDbEntity
8
SK6
62
256
6
ByLayer
370
13
48
1
60
0
100
AcDbMText
10
28.629169
20
41.782694
30
0
210
0
220
0
230
1
1
\W0.7415;R840-1880-50-A1A1220
40
3.5
41
0
44
1.084337
50
0
71
8
72
5
7
iso_b_vert
0
DIMENSION
5
EB
100
AcDbEntity
8
SK2
62
256
6
ByLayer
370
13
48
1
60
0
100
AcDbDimension
2
DimnDraft3D1
10
99.76
20
-19.613398
30
0
11
47.510059
21
-19.613398
31
0
70
32
71
5
72
1
41
1
210
0
220
0
230
1
3
Standard
100
AcDbAlignedDimension
13
0
23
-1.5875
33
0
14
99.76
24
-10.9875
34
0
50
0
100
AcDbRotatedDimension
1001
ACAD
1000
DSTYLE
1002
{
1070
   279
1070
     0
1070
   172
1070
     1
1070
   173
1070
     1
1070
   340
1005
DF
1070
   271
1070
     2
1070
   272
1070
     2
1070
    77
1070
     1
1070
    73
1070
     0
1070
   171
1070
     3
1070
   274
1070
     4
1070
   177
1070
    35
1070
   176
1070
    35
1070
   178
1070
    35
1070
    48
1040
-0.005
1070
    41
1041
3.5
1070
   147
1041
1.75
1070
    42
1041
1.5875
1070
    44
1041
2.0
1070
   140
1041
3.5
1070
   343
1005
0
1070
   344
1005
0
1002
}
0
DIMENSION
5
F5
100
AcDbEntity
8
SK2
62
256
6
ByLayer
370
13
48
1
60
0
100
AcDbDimension
2
DimnDraft3D2
10
103
20
-38.692985
30
0
11
24.6013
21
-38.692985
31
0
70
32
71
5
72
1
41
1
210
0
220
0
230
1
3
Standard
100
AcDbAlignedDimension
13
-50
23
-11.5875
33
0
14
103
24
-1.5875
34
0
50
0
100
AcDbRotatedDimension
1001
ACAD
1000
DSTYLE
1002
{
1070
   279
1070
     0
1070
   172
1070
     1
1070
   173
1070
     1
1070
   340
1005
DF
1070
   271
1070
     2
1070
   272
1070
     2
1070
    77
1070
     1
1070
    73
1070
     0
1070
   171
1070
     3
1070
   274
1070
     4
1070
   177
1070
    35
1070
   176
1070
    35
1070
   178
1070
    35
1070
    48
1040
-0.005
1070
    41
1041
3.5
1070
   147
1041
1.75
1070
    42
1041
1.5875
1070
    44
1041
2.0
1070
   140
1041
3.5
1070
   343
1005
0
1070
   344
1005
0
1002
}
0
DIMENSION
5
FF
100
AcDbEntity
8
SK2
62
256
6
ByLayer
370
13
48
1
60
0
100
AcDbDimension
2
DimnDraft3D3
10
103
20
21.009119
30
0
11
54.38
21
21.009119
31
0
70
32
71
5
72
1
41
1
210
0
220
0
230
1
3
Standard
100
AcDbAlignedDimension
13
5.76
23
10.9875
33
0
14
103
24
1.5875
34
0
50
0
100
AcDbRotatedDimension
1001
ACAD
1000
DSTYLE
1002
{
1070
   279
1070
     0
1070
   172
1070
     1
1070
   173
1070
     1
1070
   340
1005
DF
1070
   271
1070
     2
1070
   272
1070
     2
1070
    77
1070
     1
1070
    73
1070
     0
1070
   171
1070
     3
1070
   274
1070
     4
1070
   177
1070
    35
1070
   176
1070
    35
1070
   178
1070
    35
1070
    48
1040
-0.005
1070
    41
1041
3.5
1070
   147
1041
1.75
1070
    42
1041
1.5875
1070
    44
1041
2.0
1070
   140
1041
3.5
1070
   343
1005
0
1070
   344
1005
0
1002
}
0
DIMENSION
5
109
100
AcDbEntity
8
SK2
62
256
6
ByLayer
370
13
48
1
60
0
100
AcDbDimension
2
DimnDraft3D4
10
99.76
20
-22.202503
30
0
11
112.981425
21
-22.202503
31
0
70
32
71
5
72
1
41
1
210
0
220
0
230
1
3
Standard
100
AcDbAlignedDimension
13
103
23
-1.5875
33
0
14
99.76
24
-10.9875
34
0
50
0
100
AcDbRotatedDimension
1001
ACAD
1000
DSTYLE
1002
{
1070
   279
1070
     0
1070
   172
1070
     1
1070
   173
1070
     1
1070
   340
1005
DF
1070
   271
1070
     2
1070
   272
1070
     2
1070
    77
1070
     1
1070
    73
1070
     0
1070
   171
1070
     3
1070
   274
1070
     4
1070
   177
1070
    35
1070
   176
1070
    35
1070
   178
1070
    35
1070
    48
1040
-0.005
1070
    41
1041
3.5
1070
   147
1041
1.75
1070
    42
1041
1.5875
1070
    44
1041
2.0
1070
   140
1041
3.5
1070
   343
1005
0
1070
   344
1005
0
1002
}
0
DIMENSION
5
113
100
AcDbEntity
8
SK2
62
256
6
ByLayer
370
13
48
1
60
0
100
AcDbDimension
2
DimnDraft3D5
10
99.76
20
-28.343428
30
0
11
21.520676
21
-28.343428
31
0
70
32
71
5
72
1
41
1
210
0
220
0
230
1
3
Standard
100
AcDbAlignedDimension
13
-50
23
-11.5875
33
0
14
99.76
24
-10.9875
34
0
50
0
100
AcDbRotatedDimension
1001
ACAD
1000
DSTYLE
1002
{
1070
   279
1070
     0
1070
   172
1070
     1
1070
   173
1070
     1
1070
   340
1005
DF
1070
   271
1070
     2
1070
   272
1070
     2
1070
    77
1070
     1
1070
    73
1070
     0
1070
   171
1070
     3
1070
   274
1070
     4
1070
   177
1070
    35
1070
   176
1070
    35
1070
   178
1070
    35
1070
    48
1040
-0.005
1070
    41
1041
3.5
1070
   147
1041
1.75
1070
    42
1041
1.5875
1070
    44
1041
2.0
1070
   140
1041
3.5
1070
   343
1005
0
1070
   344
1005
0
1002
}
0
DIMENSION
5
11E
100
AcDbEntity
8
SK2
62
256
6
ByLayer
370
13
48
1
60
0
100
AcDbDimension
2
DimnDraft3D6
10
-60.625163
20
10
30
0
11
-61.250163
21
28.47418
31
0
70
33
71
5
72
1
41
1
210
0
220
0
230
1
3
Standard
100
AcDbAlignedDimension
13
-51.5875
23
-10
33
0
14
-51.5875
24
10
34
0
1001
ACAD
1000
DSTYLE
1002
{
1070
   279
1070
     0
1070
    74
1070
     0
1070
   173
1070
     1
1070
   340
1005
DF
1070
   271
1070
     3
1070
   272
1070
     2
1070
    77
1070
     1
1070
    73
1070
     0
1070
   171
1070
     3
1070
   274
1070
     4
1070
   177
1070
    35
1070
   176
1070
    35
1070
   178
1070
    35
1070
    48
1040
-0.005
1070
    41
1041
3.5
1070
   147
1041
1.75
1070
    42
1041
1.5875
1070
    44
1041
2.0
1070
   140
1041
3.5
1070
   343
1005
0
1070
   344
1005
0
1002
}
0
DIMENSION
5
129
100
AcDbEntity
8
2
62
256
6
ByLayer
370
13
48
1
60
0
100
AcDbDimension
2
DimnDraft3D7
10
117.083343
20
9.4
30
0
11
112.458343
21
26.467266
31
0
70
33
71
5
72
1
41
1
210
0
220
0
230
1
3
Standard
100
AcDbAlignedDimension
13
101.3475
23
-9.4
33
0
14
101.3475
24
9.4
34
0
1001
ACAD
1000
DSTYLE
1002
{
1070
   279
1070
     0
1070
    74
1070
     0
1070
   173
1070
     1
1070
   340
1005
DF
1070
   271
1070
     3
1070
   272
1070
     2
1070
    77
1070
     1
1070
    73
1070
     0
1070
   171
1070
     3
1070
   274
1070
     4
1070
   177
1070
    35
1070
   176
1070
    35
1070
   178
1070
    35
1070
    48
1040
-0.005
1070
    41
1041
3.5
1070
   147
1041
1.75
1070
    42
1041
1.5875
1070
    44
1041
2.0
1070
   140
1041
3.5
1070
   343
1005
0
1070
   344
1005
0
1002
}
0
ENDSEC
0
SECTION
2
OBJECTS
0
DICTIONARY
5
194
330
0
100
AcDbDictionary
280
0
281
1
3
ACAD_GROUP
350
195
3
ACAD_MLINESTYLE
350
196
0
DICTIONARY
5
195
330
0
100
AcDbDictionary
280
0
281
1
0
DICTIONARY
5
196
330
0
100
AcDbDictionary
280
0
281
1
3
Standard
350
18
0
MLINESTYLE
5
18
330
196
100
AcDbMlineStyle
2
Standard
70
0
3

62
256
51
90
52
90
71
2
49
-0.5
62
256
6
ByLayer
49
0.5
62
256
6
ByLayer
0
RASTERVARIABLES
5
182
330

100
AcDbRasterVariables
90
0
70
1
71
1
72
1
0
ENDSEC
0
EOF
