0
SECTION
2
HEADER
9
$ACADVER
1
AC1015
9
$DWGCODEPAGE
3
ANSI_1252
9
$HANDSEED
5
191
9
$ANGBASE
50
0
9
$ANGDIR
70
0
9
$ATTMODE
70
1
9
$AUNITS
70
0
9
$AUPREC
70
0
9
$CECOLOR
62
256
9
$CELTSCALE
40
1
9
$CELTYPE
6
ByLayer
9
$CELWEIGHT
370
18
9
$CLAYER
8
0
9
$CMLJUST
70
0
9
$CMLSCALE
40
1
9
$CMLSTYLE
2
Standard
9
$DIMSTYLE
2
Standard
9
$TEXTSIZE
40
0.2
9
$TEXTSTYLE
7
Standard
9
$LUNITS
70
2
9
$LUPREC
70
4
9
$EXTNAMES
290
1
9
$INSUNITS
70
4
9
$LTSCALE
40
1
9
$LWDISPLAY
290
1
9
$PDMODE
70
0
9
$PDSIZE
40
0
9
$PLINEGEN
70
0
0
ENDSEC
0
SECTION
2
CLASSES
0
CLASS
1
RASTERVARIABLES
2
AcDbRasterVariables
3
ISM
90
0
280
0
281
0
0
ENDSEC
0
SECTION
2
TABLES
0
TABLE
2
VPORT
5
187
100
AcDbSymbolTable
0
VPORT
5
1
100
AcDbSymbolTableRecord
100
AcDbViewportTableRecord
2
*Active
70
0
10
0
20
0
11
1
21
1
12
-1
22
1
13
0
23
0
14
0.5
24
0.5
15
10
25
10
16
0
26
0
36
1
17
0
27
0
37
0
0
ENDTAB
0
TABLE
2
LTYPE
5
188
100
AcDbSymbolTable
0
LTYPE
5
14
100
AcDbSymbolTableRecord
100
AcDbLinetypeTableRecord
70
0
2
ByBlock
3

72
65
73
0
40
0
0
LTYPE
5
15
100
AcDbSymbolTableRecord
100
AcDbLinetypeTableRecord
70
0
2
ByLayer
3

72
65
73
0
40
0
0
LTYPE
5
16
100
AcDbSymbolTableRecord
100
AcDbLinetypeTableRecord
70
0
2
CONTINUOUS
3
Solid line
72
65
73
0
40
0
0
LTYPE
5
6A
100
AcDbSymbolTableRecord
100
AcDbLinetypeTableRecord
70
0
2
CENTER
3
____ _ ____ _ ____ _ ____
72
65
73
4
40
47.5
49
22
74
0
49
-8.5
74
0
49
8.5
74
0
49
-8.5
74
0
0
LTYPE
5
6B
100
AcDbSymbolTableRecord
100
AcDbLinetypeTableRecord
70
0
2
DASHED
3
__ __ __ __ __ __ __ __ __
72
65
73
2
40
25.72
49
12.86
74
0
49
-12.86
74
0
0
ENDTAB
0
TABLE
2
LAYER
5
189
100
AcDbSymbolTable
0
LAYER
5
10
100
AcDbSymbolTableRecord
100
AcDbLayerTableRecord
2
0
70
0
62
7
6
CONTINUOUS
290
1
370
-3
390
0
0
LAYER
5
6D
100
AcDbSymbolTableRecord
100
AcDbLayerTableRecord
2
81
70
0
62
-3
6
CONTINUOUS
290
1
370
-3
390
0
0
LAYER
5
6F
100
AcDbSymbolTableRecord
100
AcDbLayerTableRecord
2
80
70
0
62
-6
6
CONTINUOUS
290
1
370
-3
390
0
0
LAYER
5
74
100
AcDbSymbolTableRecord
100
AcDbLayerTableRecord
2
2
70
0
62
7
6
CONTINUOUS
290
1
370
-3
390
0
0
LAYER
5
78
100
AcDbSymbolTableRecord
100
AcDbLayerTableRecord
2
1
70
0
62
4
6
CONTINUOUS
290
1
370
-3
390
0
0
LAYER
5
88
100
AcDbSymbolTableRecord
100
AcDbLayerTableRecord
2
4
70
0
62
-2
6
CENTER
290
1
370
-3
390
0
0
LAYER
5
173
100
AcDbSymbolTableRecord
100
AcDbLayerTableRecord
2
SK2
70
0
62
7
6
CONTINUOUS
290
1
370
-3
390
0
0
LAYER
5
174
100
AcDbSymbolTableRecord
100
AcDbLayerTableRecord
2
SK1
70
0
62
4
6
CONTINUOUS
290
1
370
-3
390
0
0
LAYER
5
175
100
AcDbSymbolTableRecord
100
AcDbLayerTableRecord
2
SK4
70
0
62
2
6
CENTER
290
1
370
-3
390
0
0
LAYER
5
176
100
AcDbSymbolTableRecord
100
AcDbLayerTableRecord
2
SK6
70
0
62
5
6
CONTINUOUS
290
1
370
-3
390
0
0
ENDTAB
0
TABLE
2
STYLE
5
18a
100
AcDbSymbolTable
0
STYLE
5
11
100
AcDbSymbolTableRecord
100
AcDbTextStyleTableRecord
2
Standard
3
txt
70
0
71
0
40
0
41
1
42
0
50
0
0
STYLE
5
CF
100
AcDbSymbolTableRecord
100
AcDbTextStyleTableRecord
2
iso_b_vert
3
simplex.shx
70
0
71
0
40
0
41
1
42
0
50
0
0
STYLE
5
D0
100
AcDbSymbolTableRecord
100
AcDbTextStyleTableRecord
2
DWGDirectTextStyle
3
simplex
70
0
71
0
40
0
41
1
42
0
50
0
0
ENDTAB
0
TABLE
2
DIMSTYLE
5
18b
100
AcDbSymbolTable
100
AcDbDimStyleTable
0
DIMSTYLE
105
27
100
AcDbSymbolTableRecord
100
AcDbDimStyleTableRecord
2
Standard
70
0
3
<>
41
0.18
42
0.0625
44
0.18
140
0.18
147
0.09
73
0
74
0
77
1
271
2
275
0
278
52
280
0
340
11
0
ENDTAB
0
TABLE
2
VIEW
5
18c
100
AcDbSymbolTable
0
ENDTAB
0
TABLE
2
UCS
5
18d
100
AcDbSymbolTable
0
ENDTAB
0
TABLE
2
APPID
5
18e
100
AcDbSymbolTable
0
APPID
5
12
100
AcDbSymbolTableRecord
100
AcDbRegAppTableRecord
2
ACAD
70
0
0
ENDTAB
0
TABLE
2
BLOCK_RECORD
5
18f
100
AcDbSymbolTable
0
BLOCK_RECORD
5
1F
100
AcDbSymbolTableRecord
100
AcDbBlockTableRecord
2
*Model_Space
340
0
70
0
0
BLOCK_RECORD
5
1B
100
AcDbSymbolTableRecord
100
AcDbBlockTableRecord
2
*Paper_Space
340
0
70
0
0
BLOCK_RECORD
5
23
100
AcDbSymbolTableRecord
100
AcDbBlockTableRecord
2
*Paper_Space0
340
0
70
0
0
BLOCK_RECORD
5
D2
100
AcDbSymbolTableRecord
100
AcDbBlockTableRecord
2
DimnDraft3D1
340
0
70
0
0
BLOCK_RECORD
5
DC
100
AcDbSymbolTableRecord
100
AcDbBlockTableRecord
2
DimnDraft3D2
340
0
70
0
0
BLOCK_RECORD
5
E6
100
AcDbSymbolTableRecord
100
AcDbBlockTableRecord
2
DimnDraft3D3
340
0
70
0
0
BLOCK_RECORD
5
F0
100
AcDbSymbolTableRecord
100
AcDbBlockTableRecord
2
DimnDraft3D4
340
0
70
0
0
BLOCK_RECORD
5
FA
100
AcDbSymbolTableRecord
100
AcDbBlockTableRecord
2
DimnDraft3D5
340
0
70
0
0
BLOCK_RECORD
5
104
100
AcDbSymbolTableRecord
100
AcDbBlockTableRecord
2
DimnDraft3D6
340
0
70
0
0
BLOCK_RECORD
5
10F
100
AcDbSymbolTableRecord
100
AcDbBlockTableRecord
2
DimnDraft3D7
340
0
70
0
0
ENDTAB
0
ENDSEC
0
SECTION
2
BLOCKS
0
BLOCK
5
20
100
AcDbEntity
8
0
100
AcDbBlockBegin
2
*Model_Space
70
0
10
0
20
0
30
0
3
*Model_Space
0
ENDBLK
5
21
100
AcDbEntity
8
0
100
AcDbBlockEnd
0
BLOCK
5
1C
100
AcDbEntity
8
0
100
AcDbBlockBegin
2
*Paper_Space
70
0
10
0
20
0
30
0
3
*Paper_Space
0
ENDBLK
5
1D
100
AcDbEntity
8
0
100
AcDbBlockEnd
0
BLOCK
5
24
100
AcDbEntity
8
0
100
AcDbBlockBegin
2
*Paper_Space0
70
0
10
0
20
0
30
0
3
*Paper_Space0
0
ENDBLK
5
25
100
AcDbEntity
8
0
100
AcDbBlockEnd
0
BLOCK
5
D9
100
AcDbEntity
8
0
100
AcDbBlockBegin
2
DimnDraft3D1
70
0
10
0
20
0
30
0
3
DimnDraft3D1
0
MTEXT
5
D3
100
AcDbEntity
8
SK2
62
256
6
ByLayer
370
13
48
1
60
0
100
AcDbMText
10
39.638875
20
-18.338398
30
0
210
0
220
0
230
1
1
\W0.6713;91,90
40
3.5
41
0
44
1.084337
50
0
71
7
72
5
7
iso_b_vert
0
LINE
5
D4
100
AcDbEntity
8
SK2
62
256
6
ByLayer
370
13
48
1
60
0
100
AcDbLine
10
0
20
-1.5875
30
0
11
0
21
-21.213398
31
0
39
0
210
0
220
0
230
1
0
LINE
5
D5
100
AcDbEntity
8
SK2
62
256
6
ByLayer
370
13
48
1
60
0
100
AcDbLine
10
91.9
20
-10.5875
30
0
11
91.9
21
-21.213398
31
0
39
0
210
0
220
0
230
1
0
LINE
5
D6
100
AcDbEntity
8
SK2
62
256
6
ByLayer
370
13
48
1
60
0
100
AcDbLine
10
0
20
-19.213398
30
0
11
91.9
21
-19.213398
31
0
39
0
210
0
220
0
230
1
0
SOLID
5
D7
100
AcDbEntity
8
SK2
62
256
6
ByLayer
370
13
48
1
60
0
100
AcDbTrace
10
0
20
-19.213398
30
0
11
3.499998
21
-18.752615
31
0
12
3.500002
22
-19.674182
32
0
13
0
23
-19.213398
33
0
39
0
210
0
220
0
230
1
0
SOLID
5
D8
100
AcDbEntity
8
SK2
62
256
6
ByLayer
370
13
48
1
60
0
100
AcDbTrace
10
91.9
20
-19.213398
30
0
11
88.400002
21
-19.674182
31
0
12
88.399998
22
-18.752615
32
0
13
91.9
23
-19.213398
33
0
39
0
210
0
220
0
230
1
0
ENDBLK
5
DA
100
AcDbEntity
8
0
100
AcDbBlockEnd
0
BLOCK
5
E3
100
AcDbEntity
8
0
100
AcDbBlockBegin
2
DimnDraft3D2
70
0
10
0
20
0
30
0
3
DimnDraft3D2
0
MTEXT
5
DD
100
AcDbEntity
8
SK2
62
256
6
ByLayer
370
13
48
1
60
0
100
AcDbMText
10
16.238011
20
-36.817985
30
0
210
0
220
0
230
1
1
\W0.7145;143,00
40
3.5
41
0
44
1.084337
50
0
71
7
72
5
7
iso_b_vert
0
LINE
5
DE
100
AcDbEntity
8
SK2
62
256
6
ByLayer
370
13
48
1
60
0
100
AcDbLine
10
-48
20
-10.5875
30
0
11
-48
21
-39.692985
31
0
39
0
210
0
220
0
230
1
0
LINE
5
DF
100
AcDbEntity
8
SK2
62
256
6
ByLayer
370
13
48
1
60
0
100
AcDbLine
10
95
20
-1.5875
30
0
11
95
21
-39.692985
31
0
39
0
210
0
220
0
230
1
0
LINE
5
E0
100
AcDbEntity
8
SK2
62
256
6
ByLayer
370
13
48
1
60
0
100
AcDbLine
10
-48
20
-37.692985
30
0
11
95
21
-37.692985
31
0
39
0
210
0
220
0
230
1
0
SOLID
5
E1
100
AcDbEntity
8
SK2
62
256
6
ByLayer
370
13
48
1
60
0
100
AcDbTrace
10
-48
20
-37.692985
30
0
11
-44.500002
21
-37.232202
31
0
12
-44.499998
22
-38.153769
32
0
13
-48
23
-37.692985
33
0
39
0
210
0
220
0
230
1
0
SOLID
5
E2
100
AcDbEntity
8
SK2
62
256
6
ByLayer
370
13
48
1
60
0
100
AcDbTrace
10
95
20
-37.692985
30
0
11
91.500002
21
-38.153769
31
0
12
91.499998
22
-37.232202
32
0
13
95
23
-37.692985
33
0
39
0
210
0
220
0
230
1
0
ENDBLK
5
E4
100
AcDbEntity
8
0
100
AcDbBlockEnd
0
BLOCK
5
ED
100
AcDbEntity
8
0
100
AcDbBlockBegin
2
DimnDraft3D3
70
0
10
0
20
0
30
0
3
DimnDraft3D3
0
MTEXT
5
E7
100
AcDbEntity
8
SK2
62
256
6
ByLayer
370
13
48
1
60
0
100
AcDbMText
10
44.438816
20
21.484119
30
0
210
0
220
0
230
1
1
\W0.6713;93,10
40
3.5
41
0
44
1.084337
50
0
71
7
72
5
7
iso_b_vert
0
LINE
5
E8
100
AcDbEntity
8
SK2
62
256
6
ByLayer
370
13
48
1
60
0
100
AcDbLine
10
1.9
20
10.5875
30
0
11
1.9
21
22.609119
31
0
39
0
210
0
220
0
230
1
0
LINE
5
E9
100
AcDbEntity
8
SK2
62
256
6
ByLayer
370
13
48
1
60
0
100
AcDbLine
10
95
20
1.5875
30
0
11
95
21
22.609119
31
0
39
0
210
0
220
0
230
1
0
LINE
5
EA
100
AcDbEntity
8
SK2
62
256
6
ByLayer
370
13
48
1
60
0
100
AcDbLine
10
1.9
20
20.609119
30
0
11
95
21
20.609119
31
0
39
0
210
0
220
0
230
1
0
SOLID
5
EB
100
AcDbEntity
8
SK2
62
256
6
ByLayer
370
13
48
1
60
0
100
AcDbTrace
10
1.9
20
20.609119
30
0
11
5.399998
21
21.069903
31
0
12
5.400002
22
20.148335
32
0
13
1.9
23
20.609119
33
0
39
0
210
0
220
0
230
1
0
SOLID
5
EC
100
AcDbEntity
8
SK2
62
256
6
ByLayer
370
13
48
1
60
0
100
AcDbTrace
10
95
20
20.609119
30
0
11
91.500002
21
20.148335
31
0
12
91.499998
22
21.069903
32
0
13
95
23
20.609119
33
0
39
0
210
0
220
0
230
1
0
ENDBLK
5
EE
100
AcDbEntity
8
0
100
AcDbBlockEnd
0
BLOCK
5
F7
100
AcDbEntity
8
0
100
AcDbBlockBegin
2
DimnDraft3D4
70
0
10
0
20
0
30
0
3
DimnDraft3D4
0
MTEXT
5
F1
100
AcDbEntity
8
SK2
62
256
6
ByLayer
370
13
48
1
60
0
100
AcDbMText
10
102.278136
20
-20.927503
30
0
210
0
220
0
230
1
1
\W0.6367;3,10
40
3.5
41
0
44
1.084337
50
0
71
7
72
5
7
iso_b_vert
0
LINE
5
F2
100
AcDbEntity
8
SK2
62
256
6
ByLayer
370
13
48
1
60
0
100
AcDbLine
10
95
20
-1.5875
30
0
11
95
21
-23.802503
31
0
39
0
210
0
220
0
230
1
0
LINE
5
F3
100
AcDbEntity
8
SK2
62
256
6
ByLayer
370
13
48
1
60
0
100
AcDbLine
10
91.9
20
-10.5875
30
0
11
91.9
21
-23.802503
31
0
39
0
210
0
220
0
230
1
0
LINE
5
F4
100
AcDbEntity
8
SK2
62
256
6
ByLayer
370
13
48
1
60
0
100
AcDbLine
10
83.15
20
-21.802503
30
0
11
108.559715
21
-21.802503
31
0
39
0
210
0
220
0
230
1
0
SOLID
5
F5
100
AcDbEntity
8
SK2
62
256
6
ByLayer
370
13
48
1
60
0
100
AcDbTrace
10
95
20
-21.802503
30
0
11
98.499998
21
-21.341719
31
0
12
98.500002
22
-22.263287
32
0
13
95
23
-21.802503
33
0
39
0
210
0
220
0
230
1
0
SOLID
5
F6
100
AcDbEntity
8
SK2
62
256
6
ByLayer
370
13
48
1
60
0
100
AcDbTrace
10
91.9
20
-21.802503
30
0
11
88.400002
21
-22.263287
31
0
12
88.399998
22
-21.341719
32
0
13
91.9
23
-21.802503
33
0
39
0
210
0
220
0
230
1
0
ENDBLK
5
F8
100
AcDbEntity
8
0
100
AcDbBlockEnd
0
BLOCK
5
101
100
AcDbEntity
8
0
100
AcDbBlockBegin
2
DimnDraft3D5
70
0
10
0
20
0
30
0
3
DimnDraft3D5
0
MTEXT
5
FB
100
AcDbEntity
8
SK2
62
256
6
ByLayer
370
13
48
1
60
0
100
AcDbMText
10
13.341597
20
-26.468428
30
0
210
0
220
0
230
1
1
\W0.6930;139,90
40
3.5
41
0
44
1.084337
50
0
71
7
72
5
7
iso_b_vert
0
LINE
5
FC
100
AcDbEntity
8
SK2
62
256
6
ByLayer
370
13
48
1
60
0
100
AcDbLine
10
-48
20
-10.5875
30
0
11
-48
21
-29.343428
31
0
39
0
210
0
220
0
230
1
0
LINE
5
FD
100
AcDbEntity
8
SK2
62
256
6
ByLayer
370
13
48
1
60
0
100
AcDbLine
10
91.9
20
-10.5875
30
0
11
91.9
21
-29.343428
31
0
39
0
210
0
220
0
230
1
0
LINE
5
FE
100
AcDbEntity
8
SK2
62
256
6
ByLayer
370
13
48
1
60
0
100
AcDbLine
10
-48
20
-27.343428
30
0
11
91.9
21
-27.343428
31
0
39
0
210
0
220
0
230
1
0
SOLID
5
FF
100
AcDbEntity
8
SK2
62
256
6
ByLayer
370
13
48
1
60
0
100
AcDbTrace
10
-48
20
-27.343428
30
0
11
-44.500002
21
-26.882645
31
0
12
-44.499998
22
-27.804212
32
0
13
-48
23
-27.343428
33
0
39
0
210
0
220
0
230
1
0
SOLID
5
100
100
AcDbEntity
8
SK2
62
256
6
ByLayer
370
13
48
1
60
0
100
AcDbTrace
10
91.9
20
-27.343428
30
0
11
88.400002
21
-27.804212
31
0
12
88.399998
22
-26.882645
32
0
13
91.9
23
-27.343428
33
0
39
0
210
0
220
0
230
1
0
ENDBLK
5
102
100
AcDbEntity
8
0
100
AcDbBlockEnd
0
BLOCK
5
10C
100
AcDbEntity
8
0
100
AcDbBlockBegin
2
DimnDraft3D6
70
0
10
0
20
0
30
0
3
DimnDraft3D6
0
MTEXT
5
105
100
AcDbEntity
8
SK2
62
256
6
ByLayer
370
13
48
1
60
0
100
AcDbMText
10
-58.375163
20
28.34918
30
0
210
0
220
0
230
1
1
\W0.6930;18,000
40
3.5
41
0
44
1.084337
50
90
71
7
72
5
7
iso_b_vert
0
MTEXT
5
106
100
AcDbEntity
8
SK2
62
256
6
ByLayer
370
13
48
1
60
0
100
AcDbMText
10
-58.375163
20
23.126524
30
0
210
0
220
0
230
1
1
%%c
40
3.5
41
0
44
1.084337
50
90
71
7
72
5
7
iso_b_vert
0
LINE
5
107
100
AcDbEntity
8
SK2
62
256
6
ByLayer
370
13
48
1
60
0
100
AcDbLine
10
-49.5875
20
-9
30
0
11
-58.625163
21
-9
31
0
39
0
210
0
220
0
230
1
0
LINE
5
108
100
AcDbEntity
8
SK2
62
256
6
ByLayer
370
13
48
1
60
0
100
AcDbLine
10
-49.5875
20
9
30
0
11
-58.625163
21
9
31
0
39
0
210
0
220
0
230
1
0
LINE
5
109
100
AcDbEntity
8
SK2
62
256
6
ByLayer
370
13
48
1
60
0
100
AcDbLine
10
-56.625163
20
-9
30
0
11
-56.625163
21
39.862338
31
0
39
0
210
0
220
0
230
1
0
SOLID
5
10A
100
AcDbEntity
8
SK2
62
256
6
ByLayer
370
13
48
1
60
0
100
AcDbTrace
10
-56.625163
20
-9
30
0
11
-57.085946
21
-5.500002
31
0
12
-56.164379
22
-5.499998
32
0
13
-56.625163
23
-9
33
0
39
0
210
0
220
0
230
1
0
SOLID
5
10B
100
AcDbEntity
8
SK2
62
256
6
ByLayer
370
13
48
1
60
0
100
AcDbTrace
10
-56.625163
20
9
30
0
11
-56.164379
21
5.500002
31
0
12
-57.085946
22
5.499998
32
0
13
-56.625163
23
9
33
0
39
0
210
0
220
0
230
1
0
ENDBLK
5
10D
100
AcDbEntity
8
0
100
AcDbBlockEnd
0
BLOCK
5
117
100
AcDbEntity
8
0
100
AcDbBlockBegin
2
DimnDraft3D7
70
0
10
0
20
0
30
0
3
DimnDraft3D7
0
MTEXT
5
110
100
AcDbEntity
8
2
62
256
6
ByLayer
370
13
48
1
60
0
100
AcDbMText
10
105.333343
20
26.942266
30
0
210
0
220
0
230
1
1
\W0.6930;18,000
40
3.5
41
0
44
1.084337
50
90
71
7
72
5
7
iso_b_vert
0
MTEXT
5
111
100
AcDbEntity
8
2
62
256
6
ByLayer
370
13
48
1
60
0
100
AcDbMText
10
105.333343
20
21.71961
30
0
210
0
220
0
230
1
1
%%c
40
3.5
41
0
44
1.084337
50
90
71
7
72
5
7
iso_b_vert
0
LINE
5
112
100
AcDbEntity
8
2
62
256
6
ByLayer
370
13
48
1
60
0
100
AcDbLine
10
93.4875
20
-9
30
0
11
109.083343
21
-9
31
0
39
0
210
0
220
0
230
1
0
LINE
5
113
100
AcDbEntity
8
2
62
256
6
ByLayer
370
13
48
1
60
0
100
AcDbLine
10
93.4875
20
9
30
0
11
109.083343
21
9
31
0
39
0
210
0
220
0
230
1
0
LINE
5
114
100
AcDbEntity
8
2
62
256
6
ByLayer
370
13
48
1
60
0
100
AcDbLine
10
107.083343
20
-9
30
0
11
107.083343
21
38.455424
31
0
39
0
210
0
220
0
230
1
0
SOLID
5
115
100
AcDbEntity
8
2
62
256
6
ByLayer
370
13
48
1
60
0
100
AcDbTrace
10
107.083343
20
-9
30
0
11
106.622559
21
-5.500002
31
0
12
107.544126
22
-5.499998
32
0
13
107.083343
23
-9
33
0
39
0
210
0
220
0
230
1
0
SOLID
5
116
100
AcDbEntity
8
2
62
256
6
ByLayer
370
13
48
1
60
0
100
AcDbTrace
10
107.083343
20
9
30
0
11
107.544126
21
5.500002
31
0
12
106.622559
22
5.499998
32
0
13
107.083343
23
9
33
0
39
0
210
0
220
0
230
1
0
ENDBLK
5
118
100
AcDbEntity
8
0
100
AcDbBlockEnd
0
ENDSEC
0
SECTION
2
ENTITIES
0
ELLIPSE
5
9A
100
AcDbEntity
8
1
62
256
6
ByLayer
370
18
48
1
60
0
100
AcDbEllipse
10
4.25
20
-8.812715
30
0
11
0.25
21
0
31
0
210
0
220
0
230
1
40
0.999996
41
1.58336867139626
42
3.13715148743849
0
ELLIPSE
5
9B
100
AcDbEntity
8
1
62
256
6
ByLayer
370
18
48
1
60
0
100
AcDbEllipse
10
4.25
20
8.812715
30
0
11
0.25
21
0
31
0
210
0
220
0
230
1
40
0.999996
41
-3.13715148743854
42
-1.55440769511118
0
ELLIPSE
5
9C
100
AcDbEntity
8
1
62
256
6
ByLayer
370
13
48
1
60
0
100
AcDbEllipse
10
93.789297
20
3.987244
30
0
11
5.78473636972135
21
-2.97387121281655
31
0
210
0
220
0
230
-1
40
0.482873
41
1.53949524924294
42
1.88469434718398
0
ELLIPSE
5
9D
100
AcDbEntity
8
1
62
256
6
ByLayer
370
18
48
1
60
0
100
AcDbEllipse
10
95.000745
20
-0.001966
30
0
11
3.29154555510613
21
-8.9992521734243
31
0
210
0
220
0
230
-1
40
0.065672
41
-3.00627484063425
42
-2.91901645958595
0
ELLIPSE
5
9E
100
AcDbEntity
8
1
62
256
6
ByLayer
370
13
48
1
60
0
100
AcDbEllipse
10
92.704495
20
1.23654
30
0
11
0.133113781883907
21
0.268850741253513
31
0
210
0
220
0
230
1
40
0.40558
41
0.884485917130774
42
2.28074931872642
0
ELLIPSE
5
9F
100
AcDbEntity
8
1
62
256
6
ByLayer
370
13
48
1
60
0
100
AcDbEllipse
10
93.958755
20
4.121536
30
0
11
5.83312847931956
21
-2.65927697784072
31
0
210
0
220
0
230
-1
40
0.460539
41
1.57586667730373
42
1.92026356827977
0
ELLIPSE
5
A0
100
AcDbEntity
8
1
62
256
6
ByLayer
370
18
48
1
60
0
100
AcDbEllipse
10
94.996916
20
-0.101514
30
0
11
0.137829328473304
21
0.402528286829638
31
0
210
0
220
0
230
-1
40
0.052723
41
-2.31022812875302
42
-1.54350641183949
0
ELLIPSE
5
A1
100
AcDbEntity
8
1
62
256
6
ByLayer
370
18
48
1
60
0
100
AcDbEllipse
10
94.859093
20
0.169752
30
0
11
0.0868803724492338
21
0.290676908891462
31
0
210
0
220
0
230
-1
40
0.467765
41
1.7309954890421
42
2.36053717394708
0
ELLIPSE
5
A2
100
AcDbEntity
8
1
62
256
6
ByLayer
370
18
48
1
60
0
100
AcDbEllipse
10
93.403524
20
-4.121536
30
0
11
1.38216533807201
21
3.77891001366494
31
0
210
0
220
0
230
-1
40
0.065672
41
0.761382749781003
42
1.60916641920172
0
ELLIPSE
5
A3
100
AcDbEntity
8
1
62
256
6
ByLayer
370
18
48
1
60
0
100
AcDbEllipse
10
95.000745
20
0.001966
30
0
11
3.29154571497403
21
8.99925262707474
31
0
210
0
220
0
230
-1
40
0.065672
41
2.91901646520584
42
3.00627484402842
0
ELLIPSE
5
A4
100
AcDbEntity
8
1
62
256
6
ByLayer
370
18
48
1
60
0
100
AcDbEllipse
10
93.403524
20
4.121536
30
0
11
1.38216533800594
21
-3.77891001350548
31
0
210
0
220
0
230
-1
40
0.065672
41
-1.60916641923096
42
-0.761382749775887
0
ELLIPSE
5
A5
100
AcDbEntity
8
1
62
256
6
ByLayer
370
18
48
1
60
0
100
AcDbEllipse
10
94.996916
20
0.101514
30
0
11
0.137829328563159
21
-0.402528287066074
31
0
210
0
220
0
230
-1
40
0.052723
41
1.54350641224216
42
2.31022812873411
0
POINT
5
6C
100
AcDbEntity
8
81
62
256
6
ByLayer
370
18
48
1
60
0
100
AcDbPoint
10
95
20
0
30
0
39
0
210
0
220
0
230
1
50
360
0
POINT
5
6E
100
AcDbEntity
8
80
62
256
6
ByLayer
370
18
48
1
60
0
100
AcDbPoint
10
0
20
0
30
0
39
0
210
0
220
0
230
1
50
360
0
POINT
5
70
100
AcDbEntity
8
SK2
62
256
6
ByLayer
370
18
48
1
60
1
100
AcDbPoint
10
-48
20
-9
30
0
39
0
210
0
220
0
230
1
50
360
0
POINT
5
72
100
AcDbEntity
8
SK2
62
256
6
ByLayer
370
18
48
1
60
1
100
AcDbPoint
10
-48
20
9
30
0
39
0
210
0
220
0
230
1
50
360
0
POINT
5
73
100
AcDbEntity
8
2
62
256
6
ByLayer
370
18
48
1
60
1
100
AcDbPoint
10
91.9
20
-9
30
0
39
0
210
0
220
0
230
1
50
360
0
POINT
5
75
100
AcDbEntity
8
2
62
256
6
ByLayer
370
18
48
1
60
1
100
AcDbPoint
10
91.9
20
9
30
0
39
0
210
0
220
0
230
1
50
360
0
SPLINE
5
A6
100
AcDbEntity
8
1
62
256
6
ByLayer
370
18
48
1
60
0
100
AcDbSpline
70
4
71
3
72
38
73
34
40
0
40
0
40
0
40
0
40
0.018811813209381
40
0.0449492379310532
40
0.0711345517870993
40
0.105574546438153
40
0.140621718954222
40
0.182795881378457
40
0.22162211538241
40
0.265928558879421
40
0.302922365024776
40
0.328835974777879
40
0.362550178377539
40
0.398651829523737
40
0.424972533369178
40
0.456835489119237
40
0.497288402209896
40
0.53843989455741
40
0.575978629372653
40
0.610720405180842
40
0.645878184182824
40
0.682389280696648
40
0.712432305402446
40
0.736090020814489
40
0.746061540882946
40
0.759607809845476
40
0.776591447232526
40
0.798526137238123
40
0.827242568077631
40
0.862935401075637
40
0.905766829564157
40
0.95590452984869
40
1
40
1
40
1
40
1
41
1
10
22.5595055397471
20
8.57125925990695
30
0
41
1
10
22.4429135525789
20
8.57120214711753
30
0
41
1
10
22.1660257482322
20
8.57127298959983
30
0
41
1
10
21.742513897545
20
8.57362862068399
30
0
41
1
10
21.2149255780232
20
8.57405093957161
30
0
41
1
10
20.6308750995284
20
8.57371181018806
30
0
41
1
10
19.9446324623532
20
8.57214511859098
30
0
41
1
10
19.2292461843752
20
8.57131352177873
30
0
41
1
10
18.4573568530494
20
8.57162391265413
30
0
41
1
10
17.7185645373394
20
8.57141643658852
30
0
41
1
10
17.0589579949479
20
8.57049769648779
30
0
41
1
10
16.4635034270777
20
8.57009623042202
30
0
41
1
10
15.873729671933
20
8.5701908669329
30
0
41
1
10
15.2813909913447
20
8.5700405980528
30
0
41
1
10
14.7004760652227
20
8.5692825169929
30
0
41
1
10
14.0927430004201
20
8.56851893540471
30
0
41
1
10
13.3936629318714
20
8.56876763252913
30
0
41
1
10
12.6594936647894
20
8.56945925929296
30
0
41
1
10
11.9609197247958
20
8.5688669334059
30
0
41
1
10
11.2978919487058
20
8.56822222084594
30
0
41
1
10
10.6482897943932
20
8.56758574615228
30
0
41
1
10
10.0532476986464
20
8.56299494500936
30
0
41
1
10
9.53376286540885
20
8.55197385392222
30
0
41
1
10
9.13955234450594
20
8.54807088567867
30
0
41
1
10
8.84724826019934
20
8.54996155521658
30
0
41
1
10
8.62409159333723
20
8.55652146172366
30
0
41
1
10
8.33207323201239
20
8.56165805296629
30
0
41
1
10
7.92189237249139
20
8.56359830582952
30
0
41
1
10
7.39732094560867
20
8.56486734549881
30
0
41
1
10
6.73881710190844
20
8.56518120202551
30
0
41
1
10
5.94725080958352
20
8.56498168793661
30
0
41
1
10
5.10258041693675
20
8.56421519906564
30
0
41
1
10
4.52211747987826
20
8.56322849746252
30
0
41
1
10
4.25045755416372
20
8.56267171890968
30
0
0
SPLINE
5
A7
100
AcDbEntity
8
1
62
256
6
ByLayer
370
18
48
1
60
0
100
AcDbSpline
70
4
71
2
72
6
73
3
40
0
40
0
40
0
40
1
40
1
40
1
41
1
10
90.3845172722907
20
-8.61424203129175
30
0
41
1
10
91.1239791879822
20
-8.61109387465638
30
0
41
1
10
91.8634792537032
20
-8.61800307648952
30
0
0
SPLINE
5
A8
100
AcDbEntity
8
1
62
256
6
ByLayer
370
18
48
1
60
0
100
AcDbSpline
70
4
71
3
72
34
73
30
40
0
40
0
40
0
40
0
40
0.0043159217124856
40
0.0474967516226693
40
0.0776061731756563
40
0.102960089779332
40
0.123894464873794
40
0.142516412923099
40
0.163363382288294
40
0.189087314708658
40
0.219178757803193
40
0.248590796527054
40
0.284196108322067
40
0.323807274274754
40
0.372431384389181
40
0.423373895180232
40
0.470685809725776
40
0.510927930768772
40
0.548305031002412
40
0.619841199797056
40
0.68578185009352
40
0.74318308230525
40
0.80191390844029
40
0.853591072646343
40
0.902215652170007
40
0.932594041710364
40
0.959792785364838
40
0.982135746179726
40
1
40
1
40
1
40
1
41
1
10
68.5562340676223
20
8.59897369073306
30
0
41
1
10
68.527086613701
20
8.59895133730242
30
0
41
1
10
68.2064746054423
20
8.5987188458713
30
0
41
1
10
67.6818972522149
20
8.59860339115241
30
0
41
1
10
67.0282191873158
20
8.59888661396445
30
0
41
1
10
66.5128230130488
20
8.59869615447408
30
0
41
1
10
66.0694548654564
20
8.59907385493435
30
0
41
1
10
65.6828312502748
20
8.59789470324654
30
0
41
1
10
65.2425158857945
20
8.5958006733334
30
0
41
1
10
64.7231775663386
20
8.59572163685172
30
0
41
1
10
64.1541904023173
20
8.59692329916072
30
0
41
1
10
63.5137348837828
20
8.59756608943559
30
0
41
1
10
62.8064610406181
20
8.59748842193457
30
0
41
1
10
61.9693553984579
20
8.59571119634217
30
0
41
1
10
61.0285620827323
20
8.59569083753331
30
0
41
1
10
60.0357323752266
20
8.59552418723996
30
0
41
1
10
59.0995242713924
20
8.5941363996746
30
0
41
1
10
58.2551039196905
20
8.59425536416612
30
0
41
1
10
57.2465716364504
20
8.59404677663309
30
0
41
1
10
56.067464765845
20
8.59217312873082
30
0
41
1
10
54.748620484299
20
8.59202596135873
30
0
41
1
10
53.5205833614074
20
8.59171452998501
30
0
41
1
10
52.3856916595709
20
8.5919500712487
30
0
41
1
10
51.31080370252
20
8.59002112700105
30
0
41
1
10
50.4274946551158
20
8.59050363387624
30
0
41
1
10
49.7095012549448
20
8.58996517075897
30
0
41
1
10
49.1695770525712
20
8.58936062952301
30
0
41
1
10
48.7130790565769
20
8.58899011308336
30
0
41
1
10
48.4430315841726
20
8.58882294491579
30
0
41
1
10
48.3226590937673
20
8.58876278340895
30
0
0
SPLINE
5
A9
100
AcDbEntity
8
1
62
256
6
ByLayer
370
18
48
1
60
0
100
AcDbSpline
70
4
71
3
72
32
73
28
40
0
40
0
40
0
40
0
40
0.0493676391216825
40
0.103923991979234
40
0.149879057769785
40
0.190579056192572
40
0.221220287121572
40
0.244192642055465
40
0.264915219952455
40
0.283627820567872
40
0.300726903511376
40
0.345447274610312
40
0.396853708868411
40
0.439916506759078
40
0.478825346669877
40
0.522554626623613
40
0.573034324291652
40
0.620028939950482
40
0.67069354270625
40
0.727975870795503
40
0.77344630267805
40
0.827455567973164
40
0.864003917991059
40
0.901641247506997
40
0.942505072801653
40
0.993220127715101
40
1
40
1
40
1
40
1
41
1
10
4.2504606902377
20
-8.56266303146077
30
0
41
1
10
4.54527857853356
20
-8.56326811576238
30
0
41
1
10
5.16593668866986
20
-8.5643117365413
30
0
41
1
10
6.06124267445239
20
-8.56498597627703
30
0
41
1
10
6.90472500396695
20
-8.56521393087763
30
0
41
1
10
7.60532349962335
20
-8.56532797198091
30
0
41
1
10
8.16867302395005
20
-8.56555015585789
30
0
41
1
10
8.61270508488175
20
-8.56591458140448
30
0
41
1
10
8.98548228051567
20
-8.56633635713823
30
0
41
1
10
9.32317276294958
20
-8.56676581683652
30
0
41
1
10
9.80419159370186
20
-8.56736514118754
30
0
41
1
10
10.4805234343945
20
-8.56779843229614
30
0
41
1
10
11.3119408750199
20
-8.56814303125802
30
0
41
1
10
12.1086457509873
20
-8.56908966205941
30
0
41
1
10
12.8594907398738
20
-8.56937752463361
30
0
41
1
10
13.6546425676747
20
-8.56846030235005
30
0
41
1
10
14.4980844667988
20
-8.56889071249071
30
0
41
1
10
15.3829778382507
20
-8.57028853550733
30
0
41
1
10
16.3084061363979
20
-8.57000314582154
30
0
41
1
10
17.2251254759597
20
-8.57058931089145
30
0
41
1
10
18.1604839169426
20
-8.57223837762717
30
0
41
1
10
18.9605487031136
20
-8.56949961996546
30
0
41
1
10
19.7292163663776
20
-8.5697464249823
30
0
41
1
10
20.4136431243141
20
-8.57246738738746
30
0
41
1
10
21.1741565557994
20
-8.57436002328686
30
0
41
1
10
21.7627221258457
20
-8.57419259094934
30
0
41
1
10
22.1060701664686
20
-8.5746221011878
30
0
41
1
10
22.1465761806762
20
-8.57467279996484
30
0
0
SPLINE
5
AA
100
AcDbEntity
8
1
62
256
6
ByLayer
370
18
48
1
60
0
100
AcDbSpline
70
4
71
3
72
38
73
34
40
0
40
0
40
0
40
0
40
0.0421196150674114
40
0.0813632134151986
40
0.112826831307558
40
0.137409794391354
40
0.157436248133553
40
0.173618331114306
40
0.189615416384373
40
0.215528146132442
40
0.246897143512217
40
0.275051305534998
40
0.300039423179008
40
0.330092108126804
40
0.363264879252853
40
0.395729211627367
40
0.427902506265367
40
0.463675695154775
40
0.50406917097424
40
0.543541032392006
40
0.59014192787701
40
0.646451883567502
40
0.709519134822274
40
0.76194257420044
40
0.806529764680738
40
0.852869586108191
40
0.872476854363062
40
0.88835962271762
40
0.905039762979692
40
0.925669380963773
40
0.950734085578364
40
0.989325699157479
40
1
40
1
40
1
40
1
41
1
10
44.2688059940361
20
-8.58627119386387
30
0
41
1
10
44.6097762616452
20
-8.58649142948838
30
0
41
1
10
45.2688475429164
20
-8.5869591131403
30
0
41
1
10
46.1830305579656
20
-8.58698876885728
30
0
41
1
10
46.9572442782911
20
-8.58821086493168
30
0
41
1
10
47.5666553301454
20
-8.58864171090016
30
0
41
1
10
48.0609281131637
20
-8.58856975062605
30
0
41
1
10
48.4819144493927
20
-8.58889746447181
30
0
41
1
10
48.9528350886989
20
-8.58911299632703
30
0
41
1
10
49.5470016245004
20
-8.58981792360828
30
0
41
1
10
50.2396962986329
20
-8.59039711499494
30
0
41
1
10
50.9249172804533
20
-8.5903350853379
30
0
41
1
10
51.5994098025922
20
-8.59046483323769
30
0
41
1
10
52.3146458250305
20
-8.59166203775607
30
0
41
1
10
53.0905130512668
20
-8.59208574521179
30
0
41
1
10
53.8834284426899
20
-8.59145374633223
30
0
41
1
10
54.6956568130682
20
-8.59203578318107
30
0
41
1
10
55.5746649528388
20
-8.5923222560246
30
0
41
1
10
56.5115464507375
20
-8.59265811106684
30
0
41
1
10
57.5351579629162
20
-8.59438340438078
30
0
41
1
10
58.6901166836887
20
-8.59387866052234
30
0
41
1
10
60.0356125105046
20
-8.59570669199323
30
0
41
1
10
61.428856469756
20
-8.59513604075866
30
0
41
1
10
62.7259598022232
20
-8.59745815496859
30
0
41
1
10
63.8906626758063
20
-8.59769686401751
30
0
41
1
10
64.7728244701267
20
-8.59518550514341
30
0
41
1
10
65.4439532393699
20
-8.59648478908031
30
0
41
1
10
65.8503537534515
20
-8.59885979896788
30
0
41
1
10
66.2747801363159
20
-8.59884145597817
30
0
41
1
10
66.7841032652463
20
-8.59875687175807
30
0
41
1
10
67.4592409169519
20
-8.59887168040908
30
0
41
1
10
68.0551534626067
20
-8.59869167925817
30
0
41
1
10
68.4545518205525
20
-8.59894516475865
30
0
41
1
10
68.5412104052344
20
-8.5990069251356
30
0
0
SPLINE
5
AB
100
AcDbEntity
8
1
62
256
6
ByLayer
370
18
48
1
60
0
100
AcDbSpline
70
4
71
3
72
20
73
16
40
0
40
0
40
0
40
0
40
0.250000000000001
40
0.250000000000001
40
0.375000000000001
40
0.375000000000001
40
0.500000000000001
40
0.500000000000001
40
0.625000000000001
40
0.625000000000001
40
0.750000000000002
40
0.750000000000002
40
0.875000000000001
40
0.875000000000001
40
1
40
1
40
1
40
1
41
1
10
93.5984890921181
20
-4.35720020064036
30
0
41
1
10
93.459072402205
20
-4.7319556796181
30
0
41
1
10
93.3195691482371
20
-5.10621664913353
30
0
41
1
10
93.1100678714189
20
-5.66620053200862
30
0
41
1
10
93.0402076023638
20
-5.85271038349774
30
0
41
1
10
92.9004847652318
20
-6.22571695298674
30
0
41
1
10
92.8306123004064
20
-6.41215713440442
30
0
41
1
10
92.6908266698432
20
-6.78480498749528
30
0
41
1
10
92.6209142307254
20
-6.9710168100892
30
0
41
1
10
92.481000946887
20
-7.34293542570717
30
0
41
1
10
92.4109777849967
20
-7.52851314144454
30
0
41
1
10
92.2709509802968
20
-7.89947042510929
30
0
41
1
10
92.2009371914886
20
-8.08489867880203
30
0
41
1
10
92.0609036752086
20
-8.45498087673212
30
0
41
1
10
91.9908840714959
20
-8.63965095723353
30
0
41
1
10
91.9208544084743
20
-8.82300946023526
30
0
0
SPLINE
5
AC
100
AcDbEntity
8
1
62
256
6
ByLayer
370
18
48
1
60
0
100
AcDbSpline
70
4
71
3
72
14
73
10
40
0
40
0
40
0
40
0
40
0.25
40
0.25
40
0.5
40
0.5
40
0.75
40
0.75
40
1
40
1
40
1
40
1
41
1
10
4.11979388710341
20
8.17661103658838
30
0
41
1
10
4.10142058014515
20
8.18115238296932
30
0
41
1
10
4.08486862248085
20
8.18652519229144
30
0
41
1
10
4.05529430837032
20
8.198830858485
30
0
41
1
10
4.04236445923226
20
8.20578244911468
30
0
41
1
10
4.02159861232408
20
8.22045195191669
30
0
41
1
10
4.01347176537547
20
8.22838129843515
30
0
41
1
10
4.00273260626278
20
8.24445171443938
30
0
41
1
10
4.00000027110312
20
8.25260425818439
30
0
41
1
10
4.00000027110312
20
8.26087145408866
30
0
0
SPLINE
5
AD
100
AcDbEntity
8
1
62
256
6
ByLayer
370
13
48
1
60
0
100
AcDbSpline
70
4
71
3
72
18
73
14
40
0
40
0
40
0
40
0
40
0.0395023265840889
40
0.0395023265840889
40
0.216243942907084
40
0.216243942907084
40
0.392985559230079
40
0.392985559230079
40
0.746468791876069
40
0.746468791876069
40
0.923210408199064
40
0.923210408199064
40
1
40
1
40
1
40
1
41
1
10
4.25032644555907
20
8.14254995681972
30
0
41
1
10
4.25032901866462
20
8.15353609064348
30
0
41
1
10
4.25033156610405
20
8.16431222318789
30
0
41
1
10
4.2503453752152
20
8.22215544452158
30
0
41
1
10
4.2503561631857
20
8.26522571837066
30
0
41
1
10
4.25037687869835
20
8.34290130131109
30
0
41
1
10
4.25038682231553
20
8.37755438253319
30
0
41
1
10
4.25041541912765
20
8.46817848090555
30
0
41
1
10
4.25043284817681
20
8.51092888865298
30
0
41
1
10
4.25045742675781
20
8.54863666239763
30
0
41
1
10
4.25046537561937
20
8.55679368736327
30
0
41
1
10
4.25047642242711
20
8.5620677676466
30
0
41
1
10
4.25047972217035
20
8.56282504630735
30
0
41
1
10
4.2504829818001
20
8.56274954401033
30
0
0
SPLINE
5
AE
100
AcDbEntity
8
1
62
256
6
ByLayer
370
18
48
1
60
0
100
AcDbSpline
70
4
71
3
72
8
73
4
40
0
40
0
40
0
40
0
40
1
40
1
40
1
40
1
41
1
10
91.8190182228157
20
-8.94418142945216
30
0
41
1
10
91.8551318325781
20
-8.8473072915769
30
0
41
1
10
91.8912243682554
20
-8.75034222311334
30
0
41
1
10
91.9272957628963
20
-8.65328593517933
30
0
0
SPLINE
5
AF
100
AcDbEntity
8
1
62
256
6
ByLayer
370
18
48
1
60
0
100
AcDbSpline
70
4
71
3
72
68
73
64
40
0
40
0
40
0
40
0
40
0.12499999999998
40
0.12499999999998
40
0.156249999999975
40
0.156249999999975
40
0.18749999999997
40
0.18749999999997
40
0.24999999999996
40
0.24999999999996
40
0.37499999999994
40
0.37499999999994
40
0.499999999999919
40
0.499999999999919
40
0.531249999999915
40
0.531249999999915
40
0.56249999999991
40
0.56249999999991
40
0.6249999999999
40
0.6249999999999
40
0.687499999999891
40
0.687499999999891
40
0.703124999999889
40
0.703124999999889
40
0.710937499999889
40
0.710937499999889
40
0.714843749999889
40
0.714843749999889
40
0.718749999999889
40
0.718749999999889
40
0.720703124999889
40
0.720703124999889
40
0.722656249999889
40
0.722656249999889
40
0.726562499999891
40
0.726562499999891
40
0.734374999999894
40
0.734374999999894
40
0.7499999999999
40
0.7499999999999
40
0.765624999999907
40
0.765624999999907
40
0.781249999999913
40
0.781249999999913
40
0.812499999999926
40
0.812499999999926
40
0.843749999999938
40
0.843749999999938
40
0.859374999999945
40
0.859374999999945
40
0.874999999999951
40
0.874999999999951
40
0.890624999999957
40
0.890624999999957
40
0.906249999999963
40
0.906249999999963
40
0.92187499999997
40
0.92187499999997
40
0.937499999999976
40
0.937499999999976
40
0.968749999999988
40
0.968749999999988
40
1
40
1
40
1
40
1
41
1
10
22.8884169300581
20
-1.84595376470102
30
0
41
1
10
21.8788440774475
20
-1.24012069121966
30
0
41
1
10
20.8584275492212
20
-0.645837912679667
30
0
41
1
10
19.5596929861371
20
0.063930859025902
30
0
41
1
10
19.2985327467628
20
0.204315692974688
30
0
41
1
10
18.7752706419211
20
0.480230289151535
30
0
41
1
10
18.5130610317144
20
0.615822764683287
30
0
41
1
10
17.7243251096712
20
1.01471965146354
30
0
41
1
10
17.1956875624699
20
1.27012714904197
30
0
41
1
10
15.5984335168641
20
1.99886938479668
30
0
41
1
10
14.5183315844227
20
2.43430054227423
30
0
41
1
10
12.3145702817539
20
3.18093681718943
30
0
41
1
10
11.1909388597371
20
3.49230882958207
30
0
41
1
10
9.75364047411281
20
3.79629818666089
30
0
41
1
10
9.46455047007635
20
3.85285131445005
30
0
41
1
10
8.88299192771746
20
3.95731037144844
30
0
41
1
10
8.59043752079623
20
4.00521691381971
30
0
41
1
10
7.7116797779002
20
4.13516919902227
30
0
41
1
10
7.12295438036767
20
4.20374173686244
30
0
41
1
10
5.94002791985122
20
4.30433244735792
30
0
41
1
10
5.34746904238602
20
4.3362415186885
30
0
41
1
10
4.60533740752828
20
4.35257119933553
30
0
41
1
10
4.45683930893526
20
4.35465527555743
30
0
41
1
10
4.23398287519379
20
4.35598426254472
30
0
41
1
10
4.15969309326314
20
4.35612756978153
30
0
41
1
10
4.04826123980615
20
4.35588992395617
30
0
41
1
10
4.01106147705121
20
4.35601342421467
30
0
41
1
10
3.93689497956319
20
4.35495706916598
30
0
41
1
10
3.90042894574697
20
4.35113709107773
30
0
41
1
10
3.846992973635
20
4.33865332075445
30
0
41
1
10
3.82915144953148
20
4.33324380800886
30
0
41
1
10
3.79540391342476
20
4.3195631388808
30
0
41
1
10
3.77995856024984
20
4.31093493689883
30
0
41
1
10
3.73564144222689
20
4.28249714398314
30
0
41
1
10
3.70625831749945
20
4.26329931700491
30
0
41
1
10
3.61861219800494
20
4.20495753710483
30
0
41
1
10
3.56083123524243
20
4.16504815344598
30
0
41
1
10
3.39030856478618
20
4.04253665024615
30
0
41
1
10
3.28016847151113
20
3.95703111161208
30
0
41
1
10
3.06806037739364
20
3.77703864228349
30
0
41
1
10
2.96608604341839
20
3.68255927813192
30
0
41
1
10
2.77181122109943
20
3.48281005631517
30
0
41
1
10
2.67906924076556
20
3.37692012568291
30
0
41
1
10
2.42330165153081
20
3.04566211693378
30
0
41
1
10
2.28139730849935
20
2.80651272628077
30
0
41
1
10
2.07431969113108
20
2.27774132387356
30
0
41
1
10
2.01490344469394
20
2.00097040651662
30
0
41
1
10
1.99624419323931
20
1.56798171654026
30
0
41
1
10
2.00195296368273
20
1.42341539165028
30
0
41
1
10
2.03461985263715
20
1.13703595296875
30
0
41
1
10
2.06155769674356
20
0.994663920800178
30
0
41
1
10
2.13450443799962
20
0.711338759178972
30
0
41
1
10
2.18008091566526
20
0.572244452704922
30
0
41
1
10
2.28507883902685
20
0.301506232230906
30
0
41
1
10
2.34466569855613
20
0.169272421543212
30
0
41
1
10
2.47562933439789
20
-0.0899864395950658
30
0
41
1
10
2.54701541982905
20
-0.217007344180246
30
0
41
1
10
2.69984669337421
20
-0.46661079099087
30
0
41
1
10
2.78073114158653
20
-0.588245149231511
30
0
41
1
10
3.0327079128802
20
-0.942938206798999
30
0
41
1
10
3.21372688437515
20
-1.16708992095732
30
0
41
1
10
3.59411147505972
20
-1.59786753750239
30
0
41
1
10
3.7935566378722
20
-1.80442029375377
30
0
41
1
10
4.00000027103229
20
-2.00420316707852
30
0
0
SPLINE
5
B0
100
AcDbEntity
8
1
62
256
6
ByLayer
370
18
48
1
60
0
100
AcDbSpline
70
4
71
3
72
38
73
34
40
0
40
0
40
0
40
0
40
0.107857373133622
40
0.107857373133622
40
0.161786059700433
40
0.161786059700433
40
0.215714746267244
40
0.215714746267244
40
0.269643432834056
40
0.269643432834056
40
0.323572119400867
40
0.323572119400867
40
0.431429492534489
40
0.431429492534489
40
0.485358179101299
40
0.485358179101299
40
0.53928686566811
40
0.53928686566811
40
0.59321555223492
40
0.59321555223492
40
0.64714423880173
40
0.64714423880173
40
0.755001611935351
40
0.755001611935351
40
0.808930298502161
40
0.808930298502161
40
0.86285898506897
40
0.86285898506897
40
0.91678767163578
40
0.91678767163578
40
0.970716358202589
40
0.970716358202589
40
1
40
1
40
1
40
1
41
1
10
22.8884509503031
20
-1.8459303072147
30
0
41
1
10
23.6083524881271
20
-2.27902610359374
30
0
41
1
10
24.3287881481787
20
-2.69946331945823
30
0
41
1
10
25.4073847084172
20
-3.3161711929136
30
0
41
1
10
25.766383271032
20
-3.51967648333476
30
0
41
1
10
26.4844057102709
20
-3.92079916882869
30
0
41
1
10
26.8443161555362
20
-4.11709947109944
30
0
41
1
10
27.5653447232803
20
-4.50212316507458
30
0
41
1
10
27.9265229643995
20
-4.69086170741659
30
0
41
1
10
28.6466663771111
20
-5.05966555899445
30
0
41
1
10
29.0056578870651
20
-5.24039453077049
30
0
41
1
10
30.0826538163928
20
-5.76704723209616
30
0
41
1
10
30.8025707840186
20
-6.09525277864603
30
0
41
1
10
31.882381818171
20
-6.55703102317383
30
0
41
1
10
32.2422941594867
20
-6.70638612567703
30
0
41
1
10
32.9622221662364
20
-6.9912539741988
30
0
41
1
10
33.3222776610949
20
-7.12667298420183
30
0
41
1
10
34.0419617901353
20
-7.38437066224233
30
0
41
1
10
34.4016133278272
20
-7.50662261687444
30
0
41
1
10
35.1201632864246
20
-7.73818234352228
30
0
41
1
10
35.4786414783527
20
-7.84778674863219
30
0
41
1
10
36.5570315843103
20
-8.15360017079459
30
0
41
1
10
37.2803412256799
20
-8.32806729113014
30
0
41
1
10
38.3590157317921
20
-8.54489018360809
30
0
41
1
10
38.7174803462037
20
-8.60981156525278
30
0
41
1
10
39.4359336829658
20
-8.72322926516762
30
0
41
1
10
39.7955508627652
20
-8.77196458651329
30
0
41
1
10
40.5150719865749
20
-8.85378356167163
30
0
41
1
10
40.8749873260981
20
-8.88686159551193
30
0
41
1
10
41.5947681761018
20
-8.93716135245592
30
0
41
1
10
41.9546083308057
20
-8.95431384956234
30
0
41
1
10
42.5099608127575
20
-8.9680624569844
30
0
41
1
10
42.7053873597153
20
-8.97052996976086
30
0
41
1
10
42.9007720619695
20
-8.97062306463846
30
0
0
SPLINE
5
B1
100
AcDbEntity
8
1
62
256
6
ByLayer
370
18
48
1
60
0
100
AcDbSpline
70
4
71
3
72
32
73
28
40
0
40
0
40
0
40
0
40
0.0552674283484603
40
0.0552674283484603
40
0.133995142652755
40
0.133995142652755
40
0.21272285695705
40
0.21272285695705
40
0.291450571261345
40
0.291450571261345
40
0.37017828556564
40
0.37017828556564
40
0.448905999869935
40
0.448905999869935
40
0.52763371417423
40
0.52763371417423
40
0.606361428478525
40
0.606361428478525
40
0.68508914278282
40
0.68508914278282
40
0.763816857087115
40
0.763816857087115
40
0.84254457139141
40
0.84254457139141
40
0.921272285695705
40
0.921272285695705
40
1
40
1
40
1
40
1
41
1
10
78.2311305193998
20
6.67486112975115
30
0
41
1
10
78.4836483701094
20
6.77841688038939
30
0
41
1
10
78.7362188789701
20
6.87922326418885
30
0
41
1
10
79.3485398297975
20
7.11709687289758
30
0
41
1
10
79.7079072853264
20
7.25066170163433
30
0
41
1
10
80.4270529813938
20
7.50269830839409
30
0
41
1
10
80.7865913684569
20
7.62171513429848
30
0
41
1
10
81.5051925360042
20
7.84619622761045
30
0
41
1
10
81.8642564886622
20
7.9516586737401
30
0
41
1
10
82.5815575740934
20
8.14904856486569
30
0
41
1
10
82.9405040743608
20
8.24042532882783
30
0
41
1
10
83.6604452997163
20
8.40769018422981
30
0
41
1
10
84.0213285100062
20
8.4838339286695
30
0
41
1
10
84.7411415896033
20
8.62068585700729
30
0
41
1
10
85.1003683823825
20
8.68149978635566
30
0
41
1
10
85.8173990442793
20
8.78772274103355
30
0
41
1
10
86.1761623042412
20
8.83274535659251
30
0
41
1
10
86.8946552525872
20
8.90674289378151
30
0
41
1
10
87.254212167374
20
8.93578196798845
30
0
41
1
10
87.9735569430293
20
8.97794759601138
30
0
41
1
10
88.3335970216059
20
8.99107965686449
30
0
41
1
10
89.0522540225062
20
9.00095753883843
30
0
41
1
10
89.4115248537466
20
8.99770164537111
30
0
41
1
10
90.1296915587852
20
8.97523640066117
30
0
41
1
10
90.4885370033118
20
8.95602397807036
30
0
41
1
10
91.2053714074922
20
8.90160736112966
30
0
41
1
10
91.5631094428667
20
8.86631687694953
30
0
41
1
10
91.9208544084622
20
8.82300946023625
30
0
0
SPLINE
5
B2
100
AcDbEntity
8
1
62
256
6
ByLayer
370
18
48
1
60
0
100
AcDbSpline
70
4
71
3
72
40
73
36
40
0
40
0
40
0
40
0
40
0.124999999999998
40
0.124999999999998
40
0.249999999999996
40
0.249999999999996
40
0.312499999999995
40
0.312499999999995
40
0.374999999999994
40
0.374999999999994
40
0.499999999999991
40
0.499999999999991
40
0.624999999999989
40
0.624999999999989
40
0.687499999999991
40
0.687499999999991
40
0.749999999999993
40
0.749999999999993
40
0.781249999999993
40
0.781249999999993
40
0.812499999999994
40
0.812499999999994
40
0.843749999999995
40
0.843749999999995
40
0.874999999999996
40
0.874999999999996
40
0.890624999999997
40
0.890624999999997
40
0.906249999999997
40
0.906249999999997
40
0.937499999999998
40
0.937499999999998
40
0.968749999999999
40
0.968749999999999
40
1
40
1
40
1
40
1
41
1
10
82.5345590182045
20
4.82292673651196
30
0
41
1
10
82.8840994498936
20
4.51084035877852
30
0
41
1
10
83.2418614697181
20
4.21073430354369
30
0
41
1
10
83.9700947817406
20
3.64081904085694
30
0
41
1
10
84.341427004005
20
3.37020120982081
30
0
41
1
10
84.9062940470857
20
2.98981516437553
30
0
41
1
10
85.0958070152341
20
2.86733164011332
30
0
41
1
10
85.4773763812491
20
2.63132475165779
30
0
41
1
10
85.6697260864104
20
2.51768691915839
30
0
41
1
10
86.2488590221044
20
2.19233276381502
30
0
41
1
10
86.6361650857402
20
1.99668206043356
30
0
41
1
10
87.4133985765756
20
1.65114011696656
30
0
41
1
10
87.8033220172996
20
1.50117928753792
30
0
41
1
10
88.3905018982707
20
1.3162954973956
30
0
41
1
10
88.5871620115763
20
1.26124219771074
30
0
41
1
10
88.9770815484457
20
1.16698627956637
30
0
41
1
10
89.1706366384607
20
1.12764528147468
30
0
41
1
10
89.4586618813022
20
1.08142502013106
30
0
41
1
10
89.5543483444595
20
1.06780303131765
30
0
41
1
10
89.7435129724992
20
1.05280095351549
30
0
41
1
10
89.8377806195865
20
1.05057674022638
30
0
41
1
10
90.0202315918317
20
1.06103862504563
30
0
41
1
10
90.1080754747254
20
1.07372352672934
30
0
41
1
10
90.2731578519631
20
1.12247044710102
30
0
41
1
10
90.3518558357558
20
1.15720605271045
30
0
41
1
10
90.4556637992346
20
1.22634918617771
30
0
41
1
10
90.4880408265158
20
1.25231223539689
30
0
41
1
10
90.5475739540672
20
1.31107720027336
30
0
41
1
10
90.5748025094962
20
1.34414304602524
30
0
41
1
10
90.6448511352476
20
1.45114497870321
30
0
41
1
10
90.6773420355249
20
1.5338293994125
30
0
41
1
10
90.7112156982134
20
1.72220839846406
30
0
41
1
10
90.7112401233899
20
1.82302543882261
30
0
41
1
10
90.689190884601
20
2.03331919733216
30
0
41
1
10
90.6671011025719
20
2.1406049474665
30
0
41
1
10
90.6373166420524
20
2.24867599628672
30
0
0
SPLINE
5
B3
100
AcDbEntity
8
1
62
256
6
ByLayer
370
18
48
1
60
0
100
AcDbSpline
70
4
71
3
72
91
73
87
40
0
40
0
40
0
40
0
40
0.0471211509442259
40
0.0471211509442259
40
0.114674681099313
40
0.114674681099313
40
0.148451446176857
40
0.148451446176857
40
0.182228211254401
40
0.182228211254401
40
0.249781741409489
40
0.249781741409489
40
0.283558506487033
40
0.283558506487033
40
0.317335271564576
40
0.317335271564576
40
0.384888801719664
40
0.384888801719664
40
0.418665566797208
40
0.418665566797208
40
0.452442331874752
40
0.452442331874752
40
0.456664427509445
40
0.458775475326791
40
0.459830999235464
40
0.460094880212632
40
0.460226820701217
40
0.460226820701217
40
0.460358761189801
40
0.460358761189801
40
0.460622642166969
40
0.460622642166969
40
0.460886523144137
40
0.460886523144137
40
0.462997570961484
40
0.462997570961484
40
0.465108618778832
40
0.465108618778832
40
0.469330714413526
40
0.469330714413526
40
0.486219096952302
40
0.486219096952302
40
0.519995862029856
40
0.519995862029856
40
0.553772627107409
40
0.553772627107409
40
0.587549392184963
40
0.587549392184963
40
0.65510292234007
40
0.65510292234007
40
0.688879687417623
40
0.688879687417623
40
0.7057680699564
40
0.7057680699564
40
0.714212261225788
40
0.714212261225788
40
0.716323309043135
40
0.716323309043135
40
0.718434356860482
40
0.718434356860482
40
0.718962118814819
40
0.718962118814819
40
0.719225999791987
40
0.719225999791987
40
0.719489880769156
40
0.719489880769156
40
0.720545404677829
40
0.722656452495176
40
0.722656452495176
40
0.790209982650269
40
0.790209982650269
40
0.857763512805362
40
0.857763512805362
40
0.874651895344135
40
0.874651895344135
40
0.891540277882909
40
0.891540277882909
40
0.925317042960455
40
0.925317042960455
40
0.959093808038002
40
0.959093808038002
40
0.975982190576775
40
0.975982190576775
40
0.992870573115549
40
0.992870573115549
40
1
40
1
40
1
40
1
41
1
10
22.8884435252774
20
-1.84592585343407
30
0
41
1
10
22.580583486345
20
-1.66126107385421
30
0
41
1
10
22.2746214058961
20
-1.48368975439692
30
0
41
1
10
21.5329872816606
20
-1.07485759644322
30
0
41
1
10
21.0986186229887
20
-0.853765108847966
30
0
41
1
10
20.4434700228935
20
-0.565632792032687
30
0
41
1
10
20.227166492148
20
-0.478118363275797
30
0
41
1
10
19.7999497130886
20
-0.322174326163548
30
0
41
1
10
19.5885274636386
20
-0.253518128950759
30
0
41
1
10
18.9579033146674
20
-0.0760851835829897
30
0
41
1
10
18.5422770668382
20
0.004144977685911
30
0
41
1
10
17.9151772323381
20
0.0660318380028002
30
0
41
1
10
17.7055494522299
20
0.0769248857411924
30
0
41
1
10
17.2834659589512
20
0.078985757334209
30
0
41
1
10
17.0731652039814
20
0.0701286400211529
30
0
41
1
10
16.4441121361373
20
0.0154542733427547
30
0
41
1
10
16.0262661504474
20
-0.058346474950838
30
0
41
1
10
15.3943970081893
20
-0.220892288100742
30
0
41
1
10
15.1829471425532
20
-0.283743700607687
30
0
41
1
10
14.7573422241693
20
-0.426419620825811
30
0
41
1
10
14.5432307424857
20
-0.506272202590338
30
0
41
1
10
14.3023115158426
20
-0.604628717713325
30
0
41
1
10
14.2621507722179
20
-0.621200977730012
30
0
41
1
10
14.2152809523824
20
-0.640847645063786
30
0
41
1
10
14.1935166891602
20
-0.650041360495692
30
0
41
1
10
14.1843082105154
20
-0.653943657403573
30
0
41
1
10
14.181796763223
20
-0.655008955041978
30
0
41
1
10
14.1801224559661
20
-0.655719383061864
30
0
41
1
10
14.1791333502645
20
-0.656055918800092
30
0
41
1
10
14.178462464515
20
-0.658206676856508
30
0
41
1
10
14.1797436756907
20
-0.659753368683596
30
0
41
1
10
14.1819359838103
20
-0.662481872404925
30
0
41
1
10
14.1832154587934
20
-0.663791677428236
30
0
41
1
10
14.1951173560581
20
-0.675241328708921
30
0
41
1
10
14.2080198698318
20
-0.684095217053965
30
0
41
1
10
14.2333556697911
20
-0.701909923287701
30
0
41
1
10
14.2462959196185
20
-0.710612491240056
30
0
41
1
10
14.2854333520608
20
-0.736488176122407
30
0
41
1
10
14.3119709499654
20
-0.75341628521636
30
0
41
1
10
14.4453502065279
20
-0.837452718979335
30
0
41
1
10
14.554227939076
20
-0.902985990465567
30
0
41
1
10
14.8817490617772
20
-1.09942645683091
30
0
41
1
10
15.1020217017715
20
-1.2293891477787
30
0
41
1
10
15.5435372194581
20
-1.48991752969658
30
0
41
1
10
15.7650498910112
20
-1.62018890203206
30
0
41
1
10
16.2082532059086
20
-1.88242456214513
30
0
41
1
10
16.4299209899382
20
-2.014478893931
30
0
41
1
10
17.0950798432868
20
-2.41306354975242
30
0
41
1
10
17.5394114425918
20
-2.68114907488692
30
0
41
1
10
18.2027503504355
20
-3.09262664116395
30
0
41
1
10
18.4234146605418
20
-3.23116492993
30
0
41
1
10
18.7523204791335
20
-3.4433643616143
30
0
41
1
10
18.8616800656272
20
-3.51474628607019
30
0
41
1
10
19.023933370421
20
-3.6246986515016
30
0
41
1
10
19.0778211017159
20
-3.6616825642318
30
0
41
1
10
19.1436978552657
20
-3.71019485096912
30
0
41
1
10
19.1567911160537
20
-3.72002341186013
30
0
41
1
10
19.1825905041218
20
-3.74026905809959
30
0
41
1
10
19.1954867071556
20
-3.75049670650776
30
0
41
1
10
19.210135179
20
-3.76492909794987
30
0
41
1
10
19.2130149750056
20
-3.76789875734644
30
0
41
1
10
19.2167368096456
20
-3.77286049698063
30
0
41
1
10
19.2179796290455
20
-3.77459092207343
30
0
41
1
10
19.2190482912391
20
-3.77864566594903
30
0
41
1
10
19.2172393245381
20
-3.78035068394911
30
0
41
1
10
19.2098839287528
20
-3.7880374180981
30
0
41
1
10
19.1922340137714
20
-3.8064828866838
30
0
41
1
10
19.174592815451
20
-3.82492030719777
30
0
41
1
10
18.7866253631958
20
-4.23040286210815
30
0
41
1
10
18.4141268989206
20
-4.62026623342322
30
0
41
1
10
17.6823592034281
20
-5.36018005178241
30
0
41
1
10
17.3217959612338
20
-5.71214364839383
30
0
41
1
10
16.8641144321864
20
-6.11612266671989
30
0
41
1
10
16.7721983087423
20
-6.19508342612212
30
0
41
1
10
16.5871125490444
20
-6.34882684950503
30
0
41
1
10
16.4937988029738
20
-6.42370638861351
30
0
41
1
10
16.2140305485657
20
-6.63901032444991
30
0
41
1
10
16.0269234235022
20
-6.77085709717667
30
0
41
1
10
15.647209954047
20
-7.00729338154875
30
0
41
1
10
15.4545980537053
20
-7.11186802049653
30
0
41
1
10
15.1578485007267
20
-7.24500081380774
30
0
41
1
10
15.0576221402625
20
-7.28542103755203
30
0
41
1
10
14.8539021757243
20
-7.35780948877377
30
0
41
1
10
14.7510767122783
20
-7.38951046778877
30
0
41
1
10
14.6043259907654
20
-7.42790242705408
30
0
41
1
10
14.5606536573729
20
-7.43847356949536
30
0
41
1
10
14.5168597835663
20
-7.44823214819402
30
0
0
SPLINE
5
B4
100
AcDbEntity
8
1
62
256
6
ByLayer
370
18
48
1
60
0
100
AcDbSpline
70
4
71
3
72
60
73
56
40
0
40
0
40
0
40
0
40
0.0286968749324377
40
0.0286968749324377
40
0.0573937498648755
40
0.0573937498648755
40
0.114787499729751
40
0.114787499729751
40
0.143484374662189
40
0.143484374662189
40
0.172181249594626
40
0.172181249594626
40
0.229574999459502
40
0.229574999459502
40
0.258271874391939
40
0.258271874391939
40
0.286968749324377
40
0.286968749324377
40
0.315665624256815
40
0.315665624256815
40
0.344362499189252
40
0.344362499189252
40
0.401756249054126
40
0.401756249054126
40
0.430453123986563
40
0.430453123986563
40
0.459149998919
40
0.459149998919
40
0.516543748783875
40
0.516543748783875
40
0.545240623716312
40
0.545240623716312
40
0.573937498648748
40
0.573937498648748
40
0.602634373581185
40
0.602634373581185
40
0.631331248513622
40
0.631331248513622
40
0.688724998378496
40
0.688724998378496
40
0.717421873310933
40
0.717421873310933
40
0.74611874824337
40
0.74611874824337
40
0.803512498108244
40
0.803512498108244
40
0.832209373040682
40
0.832209373040682
40
0.860906247973119
40
0.860906247973119
40
0.918299997837994
40
0.918299997837994
40
0.975693747702869
40
0.975693747702869
40
1
40
1
40
1
40
1
41
1
10
91.8190182228157
20
-8.94418142945216
30
0
41
1
10
91.3619790294301
20
-8.9751006116737
30
0
41
1
10
90.905039877355
20
-8.9929413506124
30
0
41
1
10
89.9904016296646
20
-9.00241703517381
30
0
41
1
10
89.5329498851027
20
-8.99401839455021
30
0
41
1
10
88.1634915611384
20
-8.92982253386361
30
0
41
1
10
87.2525587403655
20
-8.83508575721882
30
0
41
1
10
85.8829543367803
20
-8.61670580806313
30
0
41
1
10
85.4252356768104
20
-8.53106266863384
30
0
41
1
10
84.5112256616648
20
-8.33548941439042
30
0
41
1
10
84.0549409313137
20
-8.22561191760914
30
0
41
1
10
82.6866691143459
20
-7.86096039840049
30
0
41
1
10
81.7752556930718
20
-7.57118559347433
30
0
41
1
10
80.4028966708332
20
-7.07132633152762
30
0
41
1
10
79.9458455207979
20
-6.89426460201256
30
0
41
1
10
79.0331367129432
20
-6.52126125604775
30
0
41
1
10
78.5771793915166
20
-6.3252461635507
30
0
41
1
10
77.6650990138803
20
-5.9153291155574
30
0
41
1
10
77.2089244805269
20
-5.70148673777626
30
0
41
1
10
76.295219154933
20
-5.25732206007939
30
0
41
1
10
75.8372242975743
20
-5.02673873992333
30
0
41
1
10
74.4665088256249
20
-4.31589264704266
30
0
41
1
10
73.5553049049486
20
-3.8155810780957
30
0
41
1
10
72.1861488744436
20
-3.03471008830675
30
0
41
1
10
71.729013731012
20
-2.76932907019537
30
0
41
1
10
70.8138958992942
20
-2.23090943965141
30
0
41
1
10
70.3572119661687
20
-1.95859741193547
30
0
41
1
10
68.9882564640115
20
-1.13484473157823
30
0
41
1
10
68.0768127055915
20
-0.577025570895302
30
0
41
1
10
66.7054665742436
20
0.262983732890859
30
0
41
1
10
66.2475531414699
20
0.543363228860414
30
0
41
1
10
65.3340190730241
20
1.10015128305685
30
0
41
1
10
64.8778098398973
20
1.37698913897506
30
0
41
1
10
63.9655701870105
20
1.92604170413119
30
0
41
1
10
63.5094624513113
20
2.19813053730272
30
0
41
1
10
62.5960860466321
20
2.73552957083268
30
0
41
1
10
62.1382569868762
20
3.00120269321516
30
0
41
1
10
60.7663140374012
20
3.78343817776832
30
0
41
1
10
59.8546740218911
20
4.28382654814573
30
0
41
1
10
58.4856477106313
20
4.99413104933743
30
0
41
1
10
58.0290013179568
20
5.22412024283619
30
0
41
1
10
57.1139413693988
20
5.66888812172846
30
0
41
1
10
56.6563466753656
20
5.88331544396539
30
0
41
1
10
55.2864888060511
20
6.49889137079708
30
0
41
1
10
54.3749857138438
20
6.87285009334454
30
0
41
1
10
53.0041683672975
20
7.37232071622523
30
0
41
1
10
52.546045526153
20
7.52871349871
30
0
41
1
10
51.6317102552692
20
7.81840246641676
30
0
41
1
10
51.175228422803
20
7.95184057819029
30
0
41
1
10
49.8062674362652
20
8.31689805513545
30
0
41
1
10
48.8941774172487
20
8.51322847708067
30
0
41
1
10
47.0627070279609
20
8.8058924895731
30
0
41
1
10
46.150597694396
20
8.90102568459056
30
0
41
1
10
44.8513366443298
20
8.96262159655748
30
0
41
1
10
44.4646562697245
20
8.9716391980682
30
0
41
1
10
44.0775311512577
20
8.9712934004707
30
0
0
SPLINE
5
B5
100
AcDbEntity
8
1
62
256
6
ByLayer
370
18
48
1
60
0
100
AcDbSpline
70
4
71
3
72
26
73
22
40
0
40
0
40
0
40
0
40
0.249999999999984
40
0.249999999999984
40
0.374999999999986
40
0.374999999999986
40
0.499999999999989
40
0.499999999999989
40
0.624999999999991
40
0.624999999999991
40
0.749999999999994
40
0.749999999999994
40
0.812499999999995
40
0.812499999999995
40
0.874999999999997
40
0.874999999999997
40
0.906249999999997
40
0.906249999999997
40
0.937499999999998
40
0.937499999999998
40
1
40
1
40
1
40
1
41
1
10
90.8108345253532
20
2.50806123965017
30
0
41
1
10
91.1149181029538
20
2.56252716442359
30
0
41
1
10
91.4175396745497
20
2.62557352090622
30
0
41
1
10
91.8633852805561
20
2.74188159193776
30
0
41
1
10
92.0107202953332
20
2.78433771525377
30
0
41
1
10
92.3018005026944
20
2.87975589506758
30
0
41
1
10
92.4455694025428
20
2.93264275342256
30
0
41
1
10
92.7276490171132
20
3.05466555522955
30
0
41
1
10
92.8669004486171
20
3.12417675044813
30
0
41
1
10
93.1288741042644
20
3.28763514962833
30
0
41
1
10
93.2532961565439
20
3.38262138718071
30
0
41
1
10
93.4094261697846
20
3.55199244236331
30
0
41
1
10
93.4569100705147
20
3.61367921385758
30
0
41
1
10
93.5365804687023
20
3.74771368524333
30
0
41
1
10
93.5679145263972
20
3.81851477860243
30
0
41
1
10
93.6002393477485
20
3.93130282086526
30
0
41
1
10
93.6084889753674
20
3.96993897822563
30
0
41
1
10
93.6195833556754
20
4.04699028249507
30
0
41
1
10
93.6225256440583
20
4.08570485519004
30
0
41
1
10
93.6240284643816
20
4.20238167405668
30
0
41
1
10
93.6150021464781
20
4.28124645404839
30
0
41
1
10
93.5984890921183
20
4.35720020064062
30
0
0
SPLINE
5
B6
100
AcDbEntity
8
1
62
256
6
ByLayer
370
18
48
1
60
0
100
AcDbSpline
70
4
71
3
72
34
73
30
40
0
40
0
40
0
40
0
40
0.0624999999999957
40
0.0624999999999957
40
0.0937499999999936
40
0.0937499999999936
40
0.124999999999992
40
0.124999999999992
40
0.187499999999987
40
0.187499999999987
40
0.218749999999985
40
0.218749999999985
40
0.249999999999983
40
0.249999999999983
40
0.374999999999978
40
0.374999999999978
40
0.437499999999977
40
0.437499999999977
40
0.499999999999977
40
0.499999999999977
40
0.624999999999979
40
0.624999999999979
40
0.687499999999983
40
0.687499999999983
40
0.749999999999986
40
0.749999999999986
40
0.874999999999993
40
0.874999999999993
40
1
40
1
40
1
40
1
41
1
10
82.5345590182045
20
4.82292673651199
30
0
41
1
10
82.5258546005283
20
4.58880118979655
30
0
41
1
10
82.537437767258
20
4.34735717432866
30
0
41
1
10
82.5853313321839
20
3.97418190585466
30
0
41
1
10
82.6065271392512
20
3.84733298392624
30
0
41
1
10
82.6585419629589
20
3.59312390379023
30
0
41
1
10
82.6892249449534
20
3.46614559928719
30
0
41
1
10
82.7943325408448
20
3.08556325584056
30
0
41
1
10
82.8817702368866
20
2.83231055667602
30
0
41
1
10
83.0361424449161
20
2.45305830688065
30
0
41
1
10
83.0914816826939
20
2.32674569582107
30
0
41
1
10
83.2095785329327
20
2.0743207621573
30
0
41
1
10
83.2719929317657
20
1.94897269674033
30
0
41
1
10
83.597250619641
20
1.33046537955067
30
0
41
1
10
83.9010215345916
20
0.857038902778783
30
0
41
1
10
84.4050823692203
20
0.170653642700358
30
0
41
1
10
84.5820893727439
20
-0.0549808601508346
30
0
41
1
10
84.9453253149265
20
-0.492376801748634
30
0
41
1
10
85.1318893223363
20
-0.704715502914979
30
0
41
1
10
85.7042320078099
20
-1.32546626313322
30
0
41
1
10
86.1024062339053
20
-1.71794098830776
30
0
41
1
10
86.7197862095348
20
-2.28078593199328
30
0
41
1
10
86.9291030378529
20
-2.46387063789155
30
0
41
1
10
87.354379580034
20
-2.82149908929102
30
0
41
1
10
87.5705551759334
20
-2.99635096924999
30
0
41
1
10
88.2226448147276
20
-3.50586960460254
30
0
41
1
10
88.6637125086594
20
-3.82675915839931
30
0
41
1
10
89.5566406956965
20
-4.43655859077282
30
0
41
1
10
90.0085074035276
20
-4.72545005476476
30
0
41
1
10
90.4651553319759
20
-5.00017449127441
30
0
0
SPLINE
5
B7
100
AcDbEntity
8
1
62
256
6
ByLayer
370
18
48
1
60
0
100
AcDbSpline
70
4
71
3
72
106
73
102
40
0
40
0
40
0
40
0
40
0.0179849293004431
40
0.0179849293004431
40
0.0370165980845216
40
0.0370165980845216
40
0.0750799356526787
40
0.0750799356526787
40
0.0941116044367572
40
0.0941116044367572
40
0.113143273220836
40
0.113143273220836
40
0.132174942004914
40
0.132174942004914
40
0.151206610788993
40
0.151206610788993
40
0.170238279573071
40
0.170238279573071
40
0.18926994835715
40
0.18926994835715
40
0.208301617141228
40
0.208301617141228
40
0.227333285925307
40
0.227333285925307
40
0.246364954709385
40
0.246364954709385
40
0.265396623493464
40
0.265396623493464
40
0.284428292277543
40
0.284428292277543
40
0.303459961061621
40
0.303459961061621
40
0.3224916298457
40
0.3224916298457
40
0.341523298629778
40
0.341523298629778
40
0.360554967413857
40
0.360554967413857
40
0.379586636197935
40
0.379586636197935
40
0.417649973766092
40
0.417649973766092
40
0.43668164255017
40
0.43668164255017
40
0.455713311334248
40
0.455713311334248
40
0.474744980118326
40
0.474744980118326
40
0.493776648902405
40
0.493776648902405
40
0.512808317686483
40
0.512808317686483
40
0.531839986470561
40
0.531839986470561
40
0.550871655254639
40
0.550871655254639
40
0.569903324038718
40
0.569903324038718
40
0.588934992822796
40
0.588934992822796
40
0.607966661606874
40
0.607966661606874
40
0.626998330390952
40
0.626998330390952
40
0.646029999175031
40
0.646029999175031
40
0.665061667959109
40
0.665061667959109
40
0.684093336743187
40
0.684093336743187
40
0.703125005527265
40
0.703125005527265
40
0.722156674311344
40
0.722156674311344
40
0.741188343095422
40
0.741188343095422
40
0.7602200118795
40
0.7602200118795
40
0.798283349447656
40
0.798283349447656
40
0.817315018231735
40
0.817315018231735
40
0.836346687015814
40
0.836346687015814
40
0.855378355799892
40
0.855378355799892
40
0.874410024583971
40
0.874410024583971
40
0.893441693368049
40
0.893441693368049
40
0.912473362152128
40
0.912473362152128
40
0.931505030936206
40
0.931505030936206
40
0.950536699720285
40
0.950536699720285
40
0.969568368504363
40
0.969568368504363
40
0.988600037288442
40
0.988600037288442
40
1
40
1
40
1
40
1
41
1
10
78.2262905928974
20
-6.67699840290069
30
0
41
1
10
77.8916699730285
20
-6.79967023816917
30
0
41
1
10
77.5568314046651
20
-6.91746817923638
30
0
41
1
10
76.8674478637139
20
-7.15034636080614
30
0
41
1
10
76.5127544942985
20
-7.26470705357713
30
0
41
1
10
75.449780261308
20
-7.58715679175299
30
0
41
1
10
74.7419890513343
20
-7.77628142561932
30
0
41
1
10
73.6813978065074
20
-8.01605010548511
30
0
41
1
10
73.3279375950415
20
-8.0881251541075
30
0
41
1
10
72.6196388765919
20
-8.21860139149419
30
0
41
1
10
72.2648989074196
20
-8.27745172295749
30
0
41
1
10
71.5549667591151
20
-8.3812438220429
30
0
41
1
10
71.2005243394435
20
-8.42587266188269
30
0
41
1
10
70.4928949278781
20
-8.49964404061018
30
0
41
1
10
70.1394615242543
20
-8.5291634377036
30
0
41
1
10
69.4320616426105
20
-8.57379121606832
30
0
41
1
10
69.0782661451594
20
-8.58888239650088
30
0
41
1
10
68.3703750392643
20
-8.60347796943358
30
0
41
1
10
68.0162099751857
20
-8.60233757727772
30
0
41
1
10
67.3076760215041
20
-8.58515869050223
30
0
41
1
10
66.9527974761502
20
-8.5696715347527
30
0
41
1
10
66.2438688037412
20
-8.52423458936471
30
0
41
1
10
65.8896793099567
20
-8.49416479670566
30
0
41
1
10
65.1817485226917
20
-8.4181011593912
30
0
41
1
10
64.8279715258873
20
-8.37256545996669
30
0
41
1
10
64.1210192936861
20
-8.26783412720872
30
0
41
1
10
63.7674008252937
20
-8.20863561746984
30
0
41
1
10
63.0591129119987
20
-8.07553749603062
30
0
41
1
10
62.7044894004546
20
-8.00127960091282
30
0
41
1
10
61.9942939151309
20
-7.83863618588117
30
0
41
1
10
61.639766263113
20
-7.75087443088049
30
0
41
1
10
60.9319724565569
20
-7.56186907822999
30
0
41
1
10
60.5782025109025
20
-7.46094375257999
30
0
41
1
10
59.8704283564606
20
-7.24581735541199
30
0
41
1
10
59.5164641433321
20
-7.13169355797015
30
0
41
1
10
58.8083478415231
20
-6.89194467843734
30
0
41
1
10
58.4542624762005
20
-6.76604374583633
30
0
41
1
10
57.7457896666084
20
-6.5013983710549
30
0
41
1
10
57.390600436429
20
-6.36290565663697
30
0
41
1
10
56.3265910556649
20
-5.93220936096563
30
0
41
1
10
55.6185520643684
20
-5.62581833508025
30
0
41
1
10
54.5577212387249
20
-5.13476924624456
30
0
41
1
10
54.2037894311211
20
-4.96643393027608
30
0
41
1
10
53.495186407085
20
-4.62259809631135
30
0
41
1
10
53.1405356577568
20
-4.44667067035024
30
0
41
1
10
52.4303189072905
20
-4.08606166859698
30
0
41
1
10
52.0758376572996
20
-3.90155272636753
30
0
41
1
10
51.367790845975
20
-3.52629017835656
30
0
41
1
10
51.013808524127
20
-3.33626286067289
30
0
41
1
10
50.3058165062754
20
-2.95115781668076
30
0
41
1
10
49.9518239393491
20
-2.75595806697979
30
0
41
1
10
49.2436796942531
20
-2.3603619799255
30
0
41
1
10
48.8897331201134
20
-2.15961736508373
30
0
41
1
10
48.1810674404337
20
-1.75483557109999
30
0
41
1
10
47.8257996440192
20
-1.55079165581117
30
0
41
1
10
47.1162970725552
20
-1.14119880036012
30
0
41
1
10
46.7619393565526
20
-0.935540851833139
30
0
41
1
10
46.053816926088
20
-0.522867501954948
30
0
41
1
10
45.7003045555538
20
-0.315435509457245
30
0
41
1
10
44.9929992682171
20
0.0992846056149972
30
0
41
1
10
44.639099646261
20
0.306385647226023
30
0
41
1
10
43.9305281806041
20
0.719638511338417
30
0
41
1
10
43.5758565349403
20
0.925783128198987
30
0
41
1
10
42.8658744026042
20
1.33727917454417
30
0
41
1
10
42.5113998834236
20
1.54271279229471
30
0
41
1
10
41.8031384450091
20
1.94927768369891
30
0
41
1
10
41.4491349073619
20
2.15017336186793
30
0
41
1
10
40.7411259470837
20
2.54757757602155
30
0
41
1
10
40.3871405230061
20
2.74427354787807
30
0
41
1
10
39.679233383905
20
3.1333504762967
30
0
41
1
10
39.3255638258676
20
3.32607615950803
30
0
41
1
10
38.6168176084131
20
3.7041911730191
30
0
41
1
10
38.2614724447637
20
3.89012451628196
30
0
41
1
10
37.5516874594269
20
4.25502468052045
30
0
41
1
10
37.1971798222103
20
4.43388060680496
30
0
41
1
10
36.4890003755156
20
4.78357482482511
30
0
41
1
10
36.1355542939275
20
4.95413927329903
30
0
41
1
10
35.0741298340059
20
5.45135557639332
30
0
41
1
10
34.3656273787902
20
5.76644787513499
30
0
41
1
10
33.3008032606722
20
6.20652724321704
30
0
41
1
10
32.9461498651634
20
6.34779643615025
30
0
41
1
10
32.2373361939984
20
6.61917581240797
30
0
41
1
10
31.8830419494359
20
6.74918893126397
30
0
41
1
10
31.174659692435
20
6.99694042220764
30
0
41
1
10
30.8205347616301
20
7.11426431309428
30
0
41
1
10
30.1124302624899
20
7.33637113821564
30
0
41
1
10
29.7586165891606
20
7.44201455516512
30
0
41
1
10
29.0495784071029
20
7.64005732945469
30
0
41
1
10
28.694133985597
20
7.73268560743313
30
0
41
1
10
27.9840706174609
20
7.90277452305349
30
0
41
1
10
27.6294892609604
20
7.97999946101473
30
0
41
1
10
26.9212266812753
20
8.12241272241366
30
0
41
1
10
26.567631406542
20
8.18720262069562
30
0
41
1
10
25.8597166700264
20
8.30191573625476
30
0
41
1
10
25.5055727034609
20
8.35170048267253
30
0
41
1
10
24.7967214207874
20
8.43523858048806
30
0
41
1
10
24.4420215827168
20
8.4700540471992
30
0
41
1
10
23.7323125183246
20
8.52583943140928
30
0
41
1
10
23.3774957951515
20
8.5465581452693
30
0
41
1
10
22.8106132729332
20
8.5669101897131
30
0
41
1
10
22.5983118338322
20
8.57157427572875
30
0
41
1
10
22.3860540575699
20
8.57356393335954
30
0
0
SPLINE
5
B8
100
AcDbEntity
8
1
62
256
6
ByLayer
370
18
48
1
60
0
100
AcDbSpline
70
4
71
3
72
100
73
96
40
0
40
0
40
0
40
0
40
0.0086640745354299
40
0.0086640745354299
40
0.0276206940108162
40
0.0276206940108162
40
0.0465773134862026
40
0.0465773134862026
40
0.0655339329615889
40
0.0655339329615889
40
0.103447171912361
40
0.103447171912361
40
0.122403791387747
40
0.122403791387747
40
0.141360410863133
40
0.141360410863133
40
0.160317030338519
40
0.160317030338519
40
0.179273649813905
40
0.179273649813905
40
0.217186888764677
40
0.217186888764677
40
0.236143508240063
40
0.236143508240063
40
0.255100127715449
40
0.255100127715449
40
0.274056747190835
40
0.274056747190835
40
0.293013366666222
40
0.293013366666222
40
0.330926605616994
40
0.330926605616994
40
0.34988322509238
40
0.34988322509238
40
0.368839844567767
40
0.368839844567767
40
0.387796464043153
40
0.387796464043153
40
0.406753083518539
40
0.406753083518539
40
0.425709702993926
40
0.425709702993926
40
0.444666322469312
40
0.444666322469312
40
0.482579561420084
40
0.482579561420084
40
0.50153618089547
40
0.50153618089547
40
0.520492800370856
40
0.520492800370856
40
0.539449419846242
40
0.539449419846242
40
0.558406039321628
40
0.558406039321628
40
0.5963192782724
40
0.5963192782724
40
0.615275897747786
40
0.615275897747786
40
0.634232517223172
40
0.634232517223172
40
0.653189136698557
40
0.653189136698557
40
0.672145756173943
40
0.672145756173943
40
0.710058995124715
40
0.710058995124715
40
0.7290156146001
40
0.7290156146001
40
0.747972234075486
40
0.747972234075486
40
0.766928853550872
40
0.766928853550872
40
0.785885473026259
40
0.785885473026259
40
0.823798711977032
40
0.823798711977032
40
0.842755331452419
40
0.842755331452419
40
0.861711950927805
40
0.861711950927805
40
0.880668570403192
40
0.880668570403192
40
0.899625189878578
40
0.899625189878578
40
0.918581809353965
40
0.918581809353965
40
0.937538428829351
40
0.937538428829351
40
0.956495048304738
40
0.956495048304738
40
0.975451667780124
40
0.975451667780124
40
0.994408287255511
40
0.994408287255511
40
1
40
1
40
1
40
1
41
1
10
32.1087213642901
20
6.64940990389735
30
0
41
1
10
32.2732276971457
20
6.71717614571375
30
0
41
1
10
32.4377375340988
20
6.78372098848493
30
0
41
1
10
32.9622221662366
20
6.99125397419888
30
0
41
1
10
33.3222776610951
20
7.12667298420192
30
0
41
1
10
34.0419617901356
20
7.38437066224242
30
0
41
1
10
34.4016133278276
20
7.50662261687452
30
0
41
1
10
35.120163286425
20
7.73818234352237
30
0
41
1
10
35.478641478353
20
7.84778674863227
30
0
41
1
10
36.5570315843107
20
8.15360017079468
30
0
41
1
10
37.2803412256803
20
8.32806729113022
30
0
41
1
10
38.3590157317926
20
8.54489018360815
30
0
41
1
10
38.7174803462041
20
8.60981156525287
30
0
41
1
10
39.4359336829662
20
8.72322926516767
30
0
41
1
10
39.7955508627657
20
8.77196458651335
30
0
41
1
10
40.5150719865753
20
8.85378356167169
30
0
41
1
10
40.8749873260985
20
8.88686159551199
30
0
41
1
10
41.5947681761023
20
8.93716135245595
30
0
41
1
10
41.9546083308061
20
8.95431384956234
30
0
41
1
10
43.0343556659194
20
8.98104466054804
30
0
41
1
10
43.7540494386478
20
8.96670276935066
30
0
41
1
10
44.8310084335237
20
8.89667694961338
30
0
41
1
10
45.1896954405279
20
8.86514810898689
30
0
41
1
10
45.9094578897967
20
8.78650214469141
30
0
41
1
10
46.270416444861
20
8.73924961949794
30
0
41
1
10
46.9913593012892
20
8.62910463013705
30
0
41
1
10
47.3511942379155
20
8.56625571857873
30
0
41
1
10
48.0692179999638
20
8.42467640881551
30
0
41
1
10
48.4278791508503
20
8.34615021292623
30
0
41
1
10
49.5060023177479
20
8.0895616905228
30
0
41
1
10
50.225931885989
20
7.88980161680584
30
0
41
1
10
51.3054726257303
20
7.54437538452888
30
0
41
1
10
51.6652579921585
20
7.42252862076788
30
0
41
1
10
52.384874928452
20
7.1669840766865
30
0
41
1
10
52.7445915845934
20
7.03301351017868
30
0
41
1
10
53.4634439036492
20
6.75231671439462
30
0
41
1
10
53.8225026333502
20
6.60550143036158
30
0
41
1
10
54.5400288063861
20
6.29886133176359
30
0
41
1
10
54.8994956566485
20
6.1401795350738
30
0
41
1
10
55.6199756320539
20
5.81241378726659
30
0
41
1
10
55.9810231903609
20
5.64310039408466
30
0
41
1
10
56.7010276916529
20
5.29466494327838
30
0
41
1
10
57.0601602117121
20
5.11512645541066
30
0
41
1
10
58.1362778317753
20
4.56218837794796
30
0
41
1
10
58.85570005079
20
4.17975148585688
30
0
41
1
10
59.9350900363696
20
3.58168928723049
30
0
41
1
10
60.2949921175222
20
3.37755625779999
30
0
41
1
10
61.0143103175658
20
2.96396382683605
30
0
41
1
10
61.3741457178532
20
2.75564046730585
30
0
41
1
10
62.0934706059859
20
2.33492964524947
30
0
41
1
10
62.4529895093252
20
2.12258699157334
30
0
41
1
10
63.1713628618373
20
1.69331333539583
30
0
41
1
10
63.5298011554454
20
1.47570093628104
30
0
41
1
10
64.6071265870304
20
0.82075771114296
30
0
41
1
10
65.3300779829954
20
0.381792613080194
30
0
41
1
10
66.4085981735213
20
-0.278523884037582
30
0
41
1
10
66.7669430797081
20
-0.499742659539549
30
0
41
1
10
67.4847672732363
20
-0.938728879233736
30
0
41
1
10
67.8441490491281
20
-1.15666374321407
30
0
41
1
10
68.5632804720797
20
-1.59036524772094
30
0
41
1
10
68.9230493406535
20
-1.80610030259689
30
0
41
1
10
69.6426317283238
20
-2.23590025446114
30
0
41
1
10
70.002274091962
20
-2.45063399361203
30
0
41
1
10
71.0812331536256
20
-3.0824840814357
30
0
41
1
10
71.8006396540781
20
-3.49046090192115
30
0
41
1
10
72.8774062215963
20
-4.08640857774139
30
0
41
1
10
73.2357422306804
20
-4.28262119911463
30
0
41
1
10
73.9548742282261
20
-4.66488933169984
30
0
41
1
10
74.3155640615576
20
-4.85180188252227
30
0
41
1
10
75.0362724488087
20
-5.21657820954016
30
0
41
1
10
75.3960401084472
20
-5.39431012249239
30
0
41
1
10
76.1140330717693
20
-5.74087443642321
30
0
41
1
10
76.4722844164316
20
-5.90962504151466
30
0
41
1
10
77.5496097470048
20
-6.39643230389649
30
0
41
1
10
78.2692478213373
20
-6.69781498395341
30
0
41
1
10
79.3485398297989
20
-7.11709687289817
30
0
41
1
10
79.7079072853279
20
-7.25066170163487
30
0
41
1
10
80.4270529813954
20
-7.5026983083946
30
0
41
1
10
80.7865913684585
20
-7.62171513429897
30
0
41
1
10
81.5051925360058
20
-7.8461962276109
30
0
41
1
10
81.8642564886638
20
-7.95165867374055
30
0
41
1
10
82.5815575740949
20
-8.14904856486609
30
0
41
1
10
82.9405040743624
20
-8.2404253288282
30
0
41
1
10
83.6604452997179
20
-8.40769018423015
30
0
41
1
10
84.0213285100078
20
-8.48383392866981
30
0
41
1
10
84.741141589605
20
-8.6206858570076
30
0
41
1
10
85.1003683823843
20
-8.68149978635594
30
0
41
1
10
85.817399044281
20
-8.78772274103375
30
0
41
1
10
86.1761623042429
20
-8.83274535659271
30
0
41
1
10
86.8946552525889
20
-8.90674289378168
30
0
41
1
10
87.2542121673757
20
-8.93578196798859
30
0
41
1
10
87.9735569430312
20
-8.97794759601143
30
0
41
1
10
88.3335970216077
20
-8.99107965686454
30
0
41
1
10
88.798918141577
20
-8.99747545777828
30
0
41
1
10
88.9049057433127
20
-8.9982192872076
30
0
41
1
10
89.0108849956224
20
-8.99825568395565
30
0
0
SPLINE
5
B9
100
AcDbEntity
8
1
62
256
6
ByLayer
370
13
48
1
60
0
100
AcDbSpline
70
4
71
3
72
33
73
29
40
0
40
0
40
0
40
0
40
0.0230211855602161
40
0.0230211855602161
40
0.185850987966847
40
0.185850987966847
40
0.226558438568505
40
0.226558438568505
40
0.267265889170163
40
0.267265889170163
40
0.348680790373478
40
0.348680790373478
40
0.430095691576793
40
0.430095691576793
40
0.511510592780109
40
0.511510592780109
40
0.674340395186739
40
0.674340395186739
40
0.715047845788397
40
0.715047845788397
40
0.755755296390054
40
0.755755296390054
40
0.837170197593369
40
0.918585098796685
40
0.918585098796685
40
0.959292549398343
40
0.959292549398343
40
1
40
1
40
1
40
1
41
1
10
4.25048298177055
20
-8.56274954469487
30
0
41
1
10
4.25048722462907
20
-8.56265127458252
30
0
41
1
10
4.25049139952475
20
-8.56114205556699
30
0
41
1
10
4.25052466183871
20
-8.53769836506061
30
0
41
1
10
4.25055116215134
20
-8.44817670784624
30
0
41
1
10
4.25058569846021
20
-8.24907080215803
30
0
41
1
10
4.25059268712391
20
-8.20472367526577
30
0
41
1
10
4.25060680732656
20
-8.10758251215077
30
0
41
1
10
4.25061393064331
20
-8.05486723220892
30
0
41
1
10
4.2506356094797
20
-7.88437855501533
30
0
41
1
10
4.25065050164565
20
-7.75409189944591
30
0
41
1
10
4.2506815133803
20
-7.46113528513135
30
0
41
1
10
4.250697526669
20
-7.29950936109168
30
0
41
1
10
4.2507307781259
20
-6.94620825110152
30
0
41
1
10
4.25074808786911
20
-6.75364786577055
30
0
41
1
10
4.25080087311758
20
-6.14113603124144
30
0
41
1
10
4.25083752708582
20
-5.68477775400268
30
0
41
1
10
4.25088309203892
20
-5.05448040419085
30
0
41
1
10
4.25089218353955
20
-4.92539414708477
30
0
41
1
10
4.25091023302642
20
-4.66103010774256
30
0
41
1
10
4.25091914233371
20
-4.52644295985579
30
0
41
1
10
4.25094521838002
20
-4.1180283098106
30
0
41
1
10
4.25097839575128
20
-3.55909352181914
30
0
41
1
10
4.25100664849506
20
-2.97200290357191
30
0
41
1
10
4.25102517323717
20
-2.52096322777621
30
0
41
1
10
4.25103090217499
20
-2.36882569764549
30
0
41
1
10
4.25104130548783
20
-2.060890121965
30
0
41
1
10
4.25104596103785
20
-1.90552051210594
30
0
41
1
10
4.2510499621186
20
-1.75023761376812
30
0
0
SPLINE
5
BA
100
AcDbEntity
8
1
62
256
6
ByLayer
370
18
48
1
60
0
100
AcDbSpline
70
4
71
3
72
20
73
16
40
0
40
0
40
0
40
0
40
0.125000000000001
40
0.125000000000001
40
0.250000000000002
40
0.250000000000002
40
0.375000000000003
40
0.375000000000003
40
0.500000000000003
40
0.500000000000003
40
0.625000000000004
40
0.625000000000004
40
0.750000000000005
40
0.750000000000005
40
1
40
1
40
1
40
1
41
1
10
4.2510499621186
20
-1.75023761299874
30
0
41
1
10
4.23753854443331
20
-1.73612575523586
30
0
41
1
10
4.22353411542869
20
-1.72291429191767
30
0
41
1
10
4.19414725947053
20
-1.69898752562409
30
0
41
1
10
4.17854867457257
20
-1.68813795188987
30
0
41
1
10
4.14660578767126
20
-1.67127171209438
30
0
41
1
10
4.12990700901187
20
-1.66515149748082
30
0
41
1
10
4.09777233590015
20
-1.66070407084697
30
0
41
1
10
4.08218803680529
20
-1.66248950831388
30
0
41
1
10
4.05536104794464
20
-1.67397137868133
30
0
41
1
10
4.04404436108862
20
-1.68352592417034
30
0
41
1
10
4.02599796144895
20
-1.70697211475002
30
0
41
1
10
4.01929024856048
20
-1.720538930971
30
0
41
1
10
4.00381959633123
20
-1.76487128114522
30
0
41
1
10
4.00000027110315
20
-1.79799046014716
30
0
41
1
10
4.00000027110315
20
-1.83242037727842
30
0
0
SPLINE
5
BB
100
AcDbEntity
8
1
62
256
6
ByLayer
370
18
48
1
60
0
100
AcDbSpline
70
4
71
3
72
22
73
18
40
0
40
0
40
0
40
0
40
0.0108695774797791
40
0.0108695774797791
40
0.121783856058082
40
0.121783856058082
40
0.232698134636384
40
0.232698134636384
40
0.454526691792986
40
0.454526691792986
40
0.565440970371288
40
0.565440970371288
40
0.676355248949591
40
0.676355248949591
40
0.898183806106195
40
0.898183806106195
40
1
40
1
40
1
40
1
41
1
10
67.0832556185055
20
0.030571301149422
30
0
41
1
10
67.1278326772476
20
0.0041346221208869
30
0
41
1
10
67.1724164103514
20
-0.0223082290646062
30
0
41
1
10
67.6720164158734
20
-0.318638140138489
30
0
41
1
10
68.1279030889439
20
-0.588835565891941
30
0
41
1
10
69.0423597782058
20
-1.12831796795922
30
0
41
1
10
69.5012189369483
20
-1.39787163259561
30
0
41
1
10
70.8812384476733
20
-2.20132656634033
30
0
41
1
10
71.7978515121927
20
-2.72493739109521
30
0
41
1
10
73.1733881223426
20
-3.48310574443829
30
0
41
1
10
73.6321155894723
20
-3.73113089336187
30
0
41
1
10
74.5509752693032
20
-4.21617935258951
30
0
41
1
10
75.0114610088627
20
-4.45332700371492
30
0
41
1
10
76.3892891700345
20
-5.14253612794644
30
0
41
1
10
77.3052300398401
20
-5.57355373893719
30
0
41
1
10
78.6440167946361
20
-6.15236436465008
30
0
41
1
10
79.0659252389963
20
-6.32733301250167
30
0
41
1
10
79.4879457636668
20
-6.49434595489612
30
0
0
SPLINE
5
BC
100
AcDbEntity
8
1
62
256
6
ByLayer
370
13
48
1
60
0
100
AcDbSpline
70
4
71
3
72
20
73
16
40
0
40
0
40
0
40
0
40
0.009031911544788
40
0.009031911544788
40
0.119139476928701
40
0.119139476928701
40
0.55956973846435
40
0.55956973846435
40
0.779784869232175
40
0.779784869232175
40
0.889892434616087
40
0.889892434616087
40
0.944946217308044
40
0.944946217308044
40
1
40
1
40
1
40
1
41
1
10
79.4879457637903
20
-6.49434595494498
30
0
41
1
10
79.5256566457337
20
-6.50926988633083
30
0
41
1
10
79.5633684226205
20
-6.52413029267942
30
0
41
1
10
80.0608284469786
20
-6.71930732892804
30
0
41
1
10
80.5187899740183
20
-6.889387902896
30
0
41
1
10
82.8024135024092
20
-7.68625333819602
30
0
41
1
10
84.6092709409387
20
-8.15301359992159
30
0
41
1
10
87.3376829915924
20
-8.56466320362384
30
0
41
1
10
88.2503334089155
20
-8.65387331347711
30
0
41
1
10
89.6300830017728
20
-8.71140380010741
30
0
41
1
10
90.0896660674618
20
-8.71775675652299
30
0
41
1
10
90.7787129240854
20
-8.70800636270911
30
0
41
1
10
91.0083699289401
20
-8.7015446682378
30
0
41
1
10
91.4677532531471
20
-8.68219898339066
30
0
41
1
10
91.6974972365069
20
-8.66884698242006
30
0
41
1
10
91.9272957628849
20
-8.65328593517435
30
0
0
SPLINE
5
BD
100
AcDbEntity
8
1
62
256
6
ByLayer
370
18
48
1
60
0
100
AcDbSpline
70
4
71
3
72
8
73
4
40
0
40
0
40
0
40
0
40
1
40
1
40
1
40
1
41
1
10
4.00000027110315
20
-1.8324203772784
30
0
41
1
10
4.00000027110315
20
-1.8901446501003
30
0
41
1
10
4.00000027110315
20
-1.94740546850787
30
0
41
1
10
4.00000027110315
20
-2.00420316714698
30
0
0
SPLINE
5
BE
100
AcDbEntity
8
1
62
256
6
ByLayer
370
18
48
1
60
0
100
AcDbSpline
70
4
71
3
72
20
73
16
40
0
40
0
40
0
40
0
40
0.25
40
0.25
40
0.375
40
0.375
40
0.5
40
0.5
40
0.625
40
0.625
40
0.75
40
0.75
40
0.875
40
0.875
40
1
40
1
40
1
40
1
41
1
10
93.598489092118
20
4.35720020064056
30
0
41
1
10
93.4590724022048
20
4.73195567961827
30
0
41
1
10
93.3195691482371
20
5.1062166491337
30
0
41
1
10
93.1100678714189
20
5.66620053200876
30
0
41
1
10
93.0402076023639
20
5.85271038349788
30
0
41
1
10
92.9004847652319
20
6.22571695298686
30
0
41
1
10
92.8306123004063
20
6.41215713440451
30
0
41
1
10
92.6908266698431
20
6.78480498749533
30
0
41
1
10
92.6209142307256
20
6.97101681008928
30
0
41
1
10
92.4810009468871
20
7.34293542570725
30
0
41
1
10
92.4109777849966
20
7.52851314144459
30
0
41
1
10
92.2709509802968
20
7.89947042510931
30
0
41
1
10
92.2009371914888
20
8.08489867880209
30
0
41
1
10
92.0609036752087
20
8.45498087673215
30
0
41
1
10
91.9908840714958
20
8.63965095723347
30
0
41
1
10
91.9208544084742
20
8.82300946023523
30
0
0
SPLINE
5
BF
100
AcDbEntity
8
1
62
256
6
ByLayer
370
18
48
1
60
0
100
AcDbSpline
70
4
71
3
72
8
73
4
40
0
40
0
40
0
40
0
40
1
40
1
40
1
40
1
41
1
10
91.8190182228157
20
8.94418142945216
30
0
41
1
10
91.273348283858
20
8.98109657484807
30
0
41
1
10
90.7271214448018
20
8.99931988223426
30
0
41
1
10
90.1812899750042
20
8.99891158098248
30
0
0
SPLINE
5
C0
100
AcDbEntity
8
1
62
256
6
ByLayer
370
18
48
1
60
0
100
AcDbSpline
70
4
71
3
72
54
73
50
40
0
40
0
40
0
40
0
40
0.0086772743033152
40
0.0086772743033152
40
0.0706349446593574
40
0.0706349446593574
40
0.101613779837379
40
0.101613779837379
40
0.132592615015401
40
0.132592615015401
40
0.194550285371444
40
0.194550285371444
40
0.225529120549465
40
0.225529120549465
40
0.256507955727486
40
0.256507955727486
40
0.31846562608353
40
0.31846562608353
40
0.380423296439573
40
0.380423296439573
40
0.411402131617594
40
0.411402131617594
40
0.442380966795616
40
0.442380966795616
40
0.504338637151659
40
0.504338637151659
40
0.53531747232968
40
0.53531747232968
40
0.566296307507701
40
0.566296307507701
40
0.628253977863743
40
0.628253977863743
40
0.659232813041764
40
0.659232813041764
40
0.690211648219786
40
0.690211648219786
40
0.721190483397807
40
0.721190483397807
40
0.752169318575829
40
0.752169318575829
40
0.814126988931872
40
0.814126988931872
40
0.845105824109894
40
0.845105824109894
40
0.876084659287915
40
0.876084659287915
40
0.938042329643958
40
0.938042329643958
40
1
40
1
40
1
40
1
41
1
10
48.361052618284
20
-8.59547973563085
30
0
41
1
10
48.2328836257675
20
-8.61792755055475
30
0
41
1
10
48.1047061331786
20
-8.63939354297725
30
0
41
1
10
47.061471654149
20
-8.80602011646312
30
0
41
1
10
46.1495838683095
20
-8.90112009502951
30
0
41
1
10
44.7801868663952
20
-8.96597147518392
30
0
41
1
10
44.3234150692001
20
-8.97461388284668
30
0
41
1
10
43.4082606738089
20
-8.96572833971246
30
0
41
1
10
42.9504469579243
20
-8.94816345988974
30
0
41
1
10
41.5799886919661
20
-8.85669223760675
30
0
41
1
10
40.6682813922622
20
-8.74402169570794
30
0
41
1
10
39.2972397342595
20
-8.49951515494351
30
0
41
1
10
38.8390059082898
20
-8.40528718818115
30
0
41
1
10
37.9242828076648
20
-8.19295339567245
30
0
41
1
10
37.4676669118219
20
-8.07485000791726
30
0
41
1
10
36.0983222672215
20
-7.6861294023592
30
0
41
1
10
35.1860060893086
20
-7.38120392566535
30
0
41
1
10
33.3543002805999
20
-6.68637368450996
30
0
41
1
10
32.4416019588044
20
-6.29910337332808
30
0
41
1
10
31.0720706456893
20
-5.66703720750351
30
0
41
1
10
30.6154073662508
20
-5.44779039364062
30
0
41
1
10
29.700795917688
20
-4.99334883454165
30
0
41
1
10
29.2424660897683
20
-4.75794547692399
30
0
41
1
10
27.8708736117373
20
-4.03390865608421
30
0
41
1
10
26.9589446827977
20
-3.52635469000546
30
0
41
1
10
25.5882145265287
20
-2.73759044828088
30
0
41
1
10
25.1304931238645
20
-2.46980426665658
30
0
41
1
10
24.2148019026063
20
-1.92758710068273
30
0
41
1
10
23.7578089056911
20
-1.65379210907037
30
0
41
1
10
22.3876398485396
20
-0.827212602997463
30
0
41
1
10
21.4755395170472
20
-0.268800607330007
30
0
41
1
10
20.1026368156606
20
0.568776978187429
30
0
41
1
10
19.6443904542268
20
0.847854971784301
30
0
41
1
10
18.7302127685506
20
1.40136825721515
30
0
41
1
10
18.2736636487021
20
1.6761536957172
30
0
41
1
10
17.3605088211233
20
2.21996063938565
30
0
41
1
10
16.9039136483854
20
2.48899973036825
30
0
41
1
10
15.9896708265036
20
3.01971254912866
30
0
41
1
10
15.5314018774183
20
3.28170492223518
30
0
41
1
10
14.1583755564923
20
4.05095827973838
30
0
41
1
10
13.2460520712524
20
4.54135586170219
30
0
41
1
10
11.8756020321984
20
5.23414015367391
30
0
41
1
10
11.4184901800981
20
5.45797549956481
30
0
41
1
10
10.5025355369766
20
5.88983918260485
30
0
41
1
10
10.0449558371094
20
6.09722299705641
30
0
41
1
10
8.67597346824161
20
6.69006978348426
30
0
41
1
10
7.76689561091584
20
7.04745814350608
30
0
41
1
10
5.94678189064246
20
7.67751975094157
30
0
41
1
10
5.03570918573084
20
7.95022344963311
30
0
41
1
10
4.11979388710344
20
8.17661103658835
30
0
0
SPLINE
5
C1
100
AcDbEntity
8
1
62
256
6
ByLayer
370
18
48
1
60
0
100
AcDbSpline
70
4
71
3
72
18
73
14
40
0
40
0
40
0
40
0
40
0.171380825448506
40
0.171380825448506
40
0.458943667595432
40
0.458943667595432
40
0.530834378132165
40
0.530834378132165
40
0.602725088668897
40
0.602725088668897
40
0.746506509742359
40
0.746506509742359
40
1
40
1
40
1
40
1
41
1
10
44.2414097172023
20
-8.58624209211223
30
0
41
1
10
43.6985540908081
20
-8.58504531419882
30
0
41
1
10
43.1559232327786
20
-8.56623043686977
30
0
41
1
10
41.7012365421729
20
-8.46880800645079
30
0
41
1
10
40.7879234094033
20
-8.35828066137148
30
0
41
1
10
39.6390724088595
20
-8.15854357947998
30
0
41
1
10
39.4088040811616
20
-8.11547632690906
30
0
41
1
10
38.9495918163641
20
-8.02368919457828
30
0
41
1
10
38.7203867395692
20
-7.97492724533109
30
0
41
1
10
38.0338492486192
20
-7.8202046569705
30
0
41
1
10
37.5775911549604
20
-7.70581805929743
30
0
41
1
10
36.3193566784607
20
-7.36016349903903
30
0
41
1
10
35.5192073547084
20
-7.10638862160241
30
0
41
1
10
34.7190774063631
20
-6.82225415314937
30
0
0
SPLINE
5
C2
100
AcDbEntity
8
1
62
256
6
ByLayer
370
13
48
1
60
0
100
AcDbSpline
70
4
71
3
72
24
73
20
40
0
40
0
40
0
40
0
40
0.170695220060038
40
0.170695220060038
40
0.247002261964337
40
0.247002261964337
40
0.285155782916486
40
0.285155782916486
40
0.323309303868634
40
0.323309303868634
40
0.47592338767723
40
0.47592338767723
40
0.78115155529442
40
0.78115155529442
40
0.857458597198717
40
0.857458597198717
40
0.933765639103014
40
0.933765639103014
40
1
40
1
40
1
40
1
41
1
10
34.7190774066841
20
-6.82225415326337
30
0
41
1
10
33.7038736215063
20
-6.46174472793655
30
0
41
1
10
32.6887010278275
20
-6.05236091584104
30
0
41
1
10
31.211813484747
20
-5.3976969594105
30
0
41
1
10
30.7544231332759
20
-5.18689644477595
30
0
41
1
10
30.0659936198351
20
-4.8586043661002
30
0
41
1
10
29.8358578517858
20
-4.7470170571913
30
0
41
1
10
29.3760080152774
20
-4.52062805324655
30
0
41
1
10
29.1465220103843
20
-4.40594381369723
30
0
41
1
10
28.0009208796163
20
-3.82566917170686
30
0
41
1
10
27.0903168840625
20
-3.33952458969014
30
0
41
1
10
24.3640118118051
20
-1.83582103113946
30
0
41
1
10
22.554382042381
20
-0.772136846381358
30
0
41
1
10
20.2621113700821
20
0.566193305640923
30
0
41
1
10
19.8010131627922
20
0.834862189311337
30
0
41
1
10
18.8832251286244
20
1.36648532366053
30
0
41
1
10
18.4259108953735
20
1.62978919445479
30
0
41
1
10
17.5735630639684
20
2.11525120136264
30
0
41
1
10
17.1782987481351
20
2.3382996716345
30
0
41
1
10
16.7835005171838
20
2.55829599745687
30
0
0
SPLINE
5
C3
100
AcDbEntity
8
1
62
256
6
ByLayer
370
18
48
1
60
0
100
AcDbSpline
70
4
71
3
72
12
73
8
40
0
40
0
40
0
40
0
40
0.250000000000014
40
0.250000000000014
40
0.500000000000027
40
0.500000000000027
40
1
40
1
40
1
40
1
41
1
10
91.9272957628984
20
-8.65328593517344
30
0
41
1
10
91.9322062789015
20
-8.64007334775226
30
0
41
1
10
91.9369914380934
20
-8.62655318314367
30
0
41
1
10
91.9450554298535
20
-8.60216546294555
30
0
41
1
10
91.9483193121362
20
-8.59131501203564
30
0
41
1
10
91.954505504664
20
-8.56729556402354
30
0
41
1
10
91.9539495208247
20
-8.56276835987256
30
0
41
1
10
91.9507831713737
20
-8.56576136694932
30
0
0
SPLINE
5
C4
100
AcDbEntity
8
1
62
256
6
ByLayer
370
18
48
1
60
0
100
AcDbSpline
70
4
71
3
72
40
73
36
40
0
40
0
40
0
40
0
40
0.0604229599628459
40
0.0604229599628459
40
0.120845919925692
40
0.120845919925692
40
0.181268879888538
40
0.181268879888538
40
0.241691839851384
40
0.241691839851384
40
0.302114799814229
40
0.302114799814229
40
0.362537759777075
40
0.362537759777075
40
0.422960719739921
40
0.422960719739921
40
0.483383679702767
40
0.483383679702767
40
0.543806639665613
40
0.543806639665613
40
0.604229599628459
40
0.604229599628459
40
0.664652559591305
40
0.664652559591305
40
0.72507551955415
40
0.72507551955415
40
0.785498479516996
40
0.785498479516996
40
0.845921439479842
40
0.845921439479842
40
0.906344399442688
40
0.906344399442688
40
0.966767359405534
40
0.966767359405534
40
1
40
1
40
1
40
1
41
1
10
14.5168802719851
20
-7.44822758270314
30
0
41
1
10
14.8720642772626
20
-7.55124161558865
30
0
41
1
10
15.2269352156721
20
-7.64745416032261
30
0
41
1
10
15.9359653702244
20
-7.82554823439341
30
0
41
1
10
16.2901190549879
20
-7.90757135668559
30
0
41
1
10
16.9980363997919
20
-8.05838229354342
30
0
41
1
10
17.3517163536127
20
-8.12726309627931
30
0
41
1
10
18.0595022557734
20
-8.25047672841637
30
0
41
1
10
18.413903215265
20
-8.30452700639924
30
0
41
1
10
19.1235272388934
20
-8.39798499335043
30
0
41
1
10
19.479101170192
20
-8.43754947111853
30
0
41
1
10
20.1887209490321
20
-8.50232334051671
30
0
41
1
10
20.542750006179
20
-8.52745653194646
30
0
41
1
10
21.2507021302117
20
-8.56204458457611
30
0
41
1
10
21.6047942206609
20
-8.5715897020014
30
0
41
1
10
22.3130266459927
20
-8.57649729580839
30
0
41
1
10
22.6671850393489
20
-8.57203654889565
30
0
41
1
10
23.3756973620373
20
-8.54664557082029
30
0
41
1
10
23.7298788893444
20
-8.52599902920863
30
0
41
1
10
24.4397468862766
20
-8.47026432920802
30
0
41
1
10
24.7949250839183
20
-8.43542761804292
30
0
41
1
10
25.5041421129129
20
-8.3518916355155
30
0
41
1
10
25.8583755356391
20
-8.30211450010148
30
0
41
1
10
26.5662923418936
20
-8.18743809605897
30
0
41
1
10
26.9198029903915
20
-8.12268013541029
30
0
41
1
10
27.6277346619705
20
-7.98037103534122
30
0
41
1
10
27.9820769789305
20
-7.90321904651597
30
0
41
1
10
28.6914695676768
20
-7.73335666083355
30
0
41
1
10
29.0469288919504
20
-7.64076764950514
30
0
41
1
10
29.7565628248976
20
-7.44261772051709
30
0
41
1
10
30.1105879849054
20
-7.3369303183658
30
0
41
1
10
30.8189528042372
20
-7.11477910180179
30
0
41
1
10
31.1731182725075
20
-6.99746100920606
30
0
41
1
10
31.7220312147766
20
-6.80551137083862
30
0
41
1
10
31.9168111946122
20
-6.73555333716129
30
0
41
1
10
32.1115981806248
20
-6.66382610213367
30
0
0
SPLINE
5
C5
100
AcDbEntity
8
1
62
256
6
ByLayer
370
18
48
1
60
0
100
AcDbSpline
70
4
71
3
72
32
73
28
40
0
40
0
40
0
40
0
40
0.0120827786329964
40
0.0120827786329964
40
0.0880764110458431
40
0.0880764110458431
40
0.16407004345869
40
0.16407004345869
40
0.240063675871537
40
0.240063675871537
40
0.316057308284384
40
0.316057308284384
40
0.392050940697231
40
0.392050940697231
40
0.544038205522924
40
0.544038205522924
40
0.620031837935772
40
0.620031837935772
40
0.696025470348617
40
0.696025470348617
40
0.772019102761464
40
0.772019102761464
40
0.848012735174309
40
0.848012735174309
40
0.924006367587155
40
0.924006367587155
40
1
40
1
40
1
40
1
41
1
10
68.5572021231993
20
8.59900194641816
30
0
41
1
10
68.6135195427144
20
8.59825968893489
30
0
41
1
10
68.6698296524612
20
8.59730793049533
30
0
41
1
10
69.0802405108482
20
8.58881456559774
30
0
41
1
10
69.4341160701404
20
8.57368982566922
30
0
41
1
10
70.1415221957139
20
8.52900505398273
30
0
41
1
10
70.4948817152517
20
8.49946251633429
30
0
41
1
10
71.2022107053073
20
8.42567112138957
30
0
41
1
10
71.5564183612132
20
8.38104670847855
30
0
41
1
10
72.2657213053014
20
8.27731632914089
30
0
41
1
10
72.6209496669655
20
8.21837884393977
30
0
41
1
10
73.3296731881687
20
8.08778644360032
30
0
41
1
10
73.6832742866519
20
8.01565221311398
30
0
41
1
10
74.7440374061813
20
7.77576548602562
30
0
41
1
10
75.4516155521862
20
7.58663257618687
30
0
41
1
10
76.5138331148092
20
7.26436355477694
30
0
41
1
10
76.8680196277456
20
7.1501612536764
30
0
41
1
10
77.5773485377555
20
6.91052930356921
30
0
41
1
10
77.931830612315
20
6.7855199201808
30
0
41
1
10
78.6401629741779
20
6.52459506584523
30
0
41
1
10
78.9940211977812
20
6.3883630391386
30
0
41
1
10
79.7012089336116
20
6.10356620074072
30
0
41
1
10
80.0543779034008
20
5.95488516047925
30
0
41
1
10
80.7618016003752
20
5.64794740054467
30
0
41
1
10
81.1159723069629
20
5.48963686538201
30
0
41
1
10
81.8251298160437
20
5.16328105994091
30
0
41
1
10
82.1803402399419
20
4.99514931094461
30
0
41
1
10
82.5345590181935
20
4.82292673651733
30
0
0
SPLINE
5
C6
100
AcDbEntity
8
1
62
256
6
ByLayer
370
18
48
1
60
0
100
AcDbSpline
70
4
71
3
72
20
73
16
40
0
40
0
40
0
40
0
40
0.125
40
0.125
40
0.25
40
0.25
40
0.5
40
0.5
40
0.625
40
0.625
40
0.75
40
0.75
40
0.875
40
0.875
40
1
40
1
40
1
40
1
41
1
10
14.5168297287461
20
-7.44821116649328
30
0
41
1
10
14.0609684399094
20
-7.31665328401641
30
0
41
1
10
13.6066641427495
20
-7.17223365556367
30
0
41
1
10
12.7066958929814
20
-6.85922577551943
30
0
41
1
10
12.2605152534966
20
-6.69002162922621
30
0
41
1
10
10.9308192344785
20
-6.14606358536781
30
0
41
1
10
10.0556121105537
20
-5.73661726090742
30
0
41
1
10
8.7569193387971
20
-5.04489224260095
30
0
41
1
10
8.3263944028256
20
-4.80189583280205
30
0
41
1
10
7.47112396713732
20
-4.28702155746191
30
0
41
1
10
7.04635343023622
20
-4.01517464913965
30
0
41
1
10
6.20533301696489
20
-3.43401647966061
30
0
41
1
10
5.79385429668042
20
-3.12810947647293
30
0
41
1
10
4.99822309912128
20
-2.47536408325033
30
0
41
1
10
4.61356500876875
20
-2.12886263180829
30
0
41
1
10
4.25104996211846
20
-1.75023761299903
30
0
0
SPLINE
5
C7
100
AcDbEntity
8
1
62
256
6
ByLayer
370
18
48
1
60
0
100
AcDbSpline
70
4
71
3
72
26
73
22
40
0
40
0
40
0
40
0
40
0.125
40
0.125
40
0.1875
40
0.1875
40
0.25
40
0.25
40
0.5
40
0.5
40
0.5625
40
0.5625
40
0.625000000000001
40
0.625000000000001
40
0.750000000000001
40
0.750000000000001
40
0.875
40
0.875
40
0.9375
40
0.9375
40
1
40
1
40
1
40
1
41
1
10
91.8644123378411
20
-8.61495629850268
30
0
41
1
10
91.7387794812947
20
-8.61485192698601
30
0
41
1
10
91.6192207156323
20
-8.59644488029983
30
0
41
1
10
91.4494421422797
20
-8.54002904510395
30
0
41
1
10
91.3944465071702
20
-8.5164109563037
30
0
41
1
10
91.2877789889635
20
-8.45915952628303
30
0
41
1
10
91.2359423967081
20
-8.42537478914588
30
0
41
1
10
90.9885199089746
20
-8.23269415977813
30
0
41
1
10
90.8262424085092
20
-8.00345740539441
30
0
41
1
10
90.6701727623663
20
-7.61841008241808
30
0
41
1
10
90.6413286154298
20
-7.53641043715467
30
0
41
1
10
90.588570988413
20
-7.36202837074532
30
0
41
1
10
90.5646111241311
20
-7.26932082119649
30
0
41
1
10
90.5014372143326
20
-6.97969594067877
30
0
41
1
10
90.4704814156366
20
-6.77026538076225
30
0
41
1
10
90.4305522925247
20
-6.31920446762294
30
0
41
1
10
90.4215780057028
20
-6.07757552412698
30
0
41
1
10
90.4250829921799
20
-5.69027980589627
30
0
41
1
10
90.4291092507003
20
-5.5566293259995
30
0
41
1
10
90.4429048368022
20
-5.28272649265961
30
0
41
1
10
90.452636158557
20
-5.14287644447126
30
0
41
1
10
90.465155331976
20
-5.00017449127441
30
0
0
SPLINE
5
C8
100
AcDbEntity
8
1
62
256
6
ByLayer
370
18
48
1
60
0
100
AcDbSpline
70
4
71
3
72
14
73
10
40
0
40
0
40
0
40
0
40
0.25
40
0.25
40
0.5
40
0.5
40
0.75
40
0.75
40
1
40
1
40
1
40
1
41
1
10
90.6373166420524
20
2.24867599628672
30
0
41
1
10
90.6297110035758
20
2.27627257895995
30
0
41
1
10
90.6260932355424
20
2.30499653994056
30
0
41
1
10
90.631170306686
20
2.36285993684228
30
0
41
1
10
90.640351768891
20
2.39193227794476
30
0
41
1
10
90.6730460348374
20
2.44190350620232
30
0
41
1
10
90.6967641490607
20
2.46286057503161
30
0
41
1
10
90.7508922131588
20
2.49304741344557
30
0
41
1
10
90.7804706817058
20
2.50262262031737
30
0
41
1
10
90.8108345253532
20
2.5080612396502
30
0
0
SPLINE
5
C9
100
AcDbEntity
8
1
62
256
6
ByLayer
370
18
48
1
60
0
100
AcDbSpline
70
4
71
3
72
12
73
8
40
0
40
0
40
0
40
0
40
0.144400064468437
40
0.144400064468437
40
0.452946717951301
40
0.452946717951301
40
1
40
1
40
1
40
1
41
1
10
90.4848122823679
20
-8.61407647293575
30
0
41
1
10
90.0549673150631
20
-8.61560816779482
30
0
41
1
10
89.6248749693052
20
-8.6060123171905
30
0
41
1
10
88.2753552455384
20
-8.54115303236253
30
0
41
1
10
87.3630906115077
20
-8.44682359805302
30
0
41
1
10
84.841868241271
20
-8.0542214335465
30
0
41
1
10
83.2390774534742
20
-7.65432103751093
30
0
41
1
10
81.6235258317113
20
-7.12086180687572
30
0
0
SPLINE
5
CA
100
AcDbEntity
8
1
62
256
6
ByLayer
370
13
48
1
60
0
100
AcDbSpline
70
4
71
3
72
28
73
24
40
0
40
0
40
0
40
0
40
0.0327963817337111
40
0.0327963817337111
40
0.10503506495064
40
0.10503506495064
40
0.177273748167568
40
0.177273748167568
40
0.321751114601425
40
0.321751114601425
40
0.393989797818354
40
0.393989797818354
40
0.466228481035283
40
0.466228481035283
40
0.610705847469141
40
0.610705847469141
40
0.68294453068607
40
0.68294453068607
40
0.755183213902998
40
0.755183213902998
40
0.899660580336855
40
0.899660580336855
40
1
40
1
40
1
40
1
41
1
10
81.6235267812933
20
-7.12086212043016
30
0
41
1
10
81.4166850487542
20
-7.0525624638091
30
0
41
1
10
81.2096341393893
20
-6.98207349705191
30
0
41
1
10
80.5457065173397
20
-6.74941397513047
30
0
41
1
10
80.0878623209358
20
-6.578901009341
30
0
41
1
10
79.1686328405322
20
-6.21773113392609
30
0
41
1
10
78.7092343533024
20
-6.02789684424474
30
0
41
1
10
77.3333659233556
20
-5.43359875990132
30
0
41
1
10
76.4177546500719
20
-5.00390818746772
30
0
41
1
10
75.0404491316799
20
-4.31789051709458
30
0
41
1
10
74.580172510409
20
-4.08202191294592
30
0
41
1
10
73.661735079332
20
-3.59996784630562
30
0
41
1
10
73.2031866374936
20
-3.35364287617415
30
0
41
1
10
71.8281661428931
20
-2.60112364636606
30
0
41
1
10
70.911879543823
20
-2.08197666235571
30
0
41
1
10
69.5323834955205
20
-1.28631898371597
30
0
41
1
10
69.0738161089731
20
-1.01958811750299
30
0
41
1
10
68.1597399624866
20
-0.485931095810457
30
0
41
1
10
67.70400192419
20
-0.21879523886858
30
0
41
1
10
66.3393667370372
20
0.581332778648687
30
0
41
1
10
65.4324896426479
20
1.11199616639891
30
0
41
1
10
63.8949279913995
20
1.99676231825765
30
0
41
1
10
63.2642667093472
20
2.35485313000942
30
0
41
1
10
62.631921905976
20
2.70635850940505
30
0
0
SPLINE
5
CB
100
AcDbEntity
8
1
62
256
6
ByLayer
370
18
48
1
60
0
100
AcDbSpline
70
4
71
3
72
8
73
4
40
0
40
0
40
0
40
0
40
1
40
1
40
1
40
1
41
1
10
91.9507831713726
20
-8.5657613669504
30
0
41
1
10
91.9161644498167
20
-8.59848488032264
30
0
41
1
10
91.8873391136389
20
-8.61498138762195
30
0
41
1
10
91.8644123378411
20
-8.6149562985027
30
0
0
SPLINE
5
CC
100
AcDbEntity
8
1
62
256
6
ByLayer
370
18
48
1
60
0
100
AcDbSpline
70
4
71
3
72
18
73
14
40
0
40
0
40
0
40
0
40
0.458748594210995
40
0.458748594210995
40
0.704660461884406
40
0.704660461884406
40
0.766138428802756
40
0.766138428802756
40
0.827616395721107
40
0.827616395721107
40
0.950572329557811
40
0.950572329557811
40
1
40
1
40
1
40
1
41
1
10
21.044919421657
20
-0.0058475691687079
30
0
41
1
10
22.7530538232261
20
-1.01535838305622
30
0
41
1
10
24.4416892843882
20
-2.01354112266208
30
0
41
1
10
27.0463879793746
20
-3.46140728910328
30
0
41
1
10
27.9572249460891
20
-3.95098757985079
30
0
41
1
10
29.1033002135887
20
-4.53463664383682
30
0
41
1
10
29.3328879603563
20
-4.64995376735973
30
0
41
1
10
29.792956717268
20
-4.87752414261783
30
0
41
1
10
30.0231767489807
20
-4.98964308563319
30
0
41
1
10
30.7118403934535
20
-5.31937733338154
30
0
41
1
10
31.1693593750777
20
-5.53092392112086
30
0
41
1
10
31.8092028101895
20
-5.81521498451269
30
0
41
1
10
31.9924861490614
20
-5.89530775434218
30
0
41
1
10
32.175622622104
20
-5.97394454796597
30
0
0
SPLINE
5
CD
100
AcDbEntity
8
1
62
256
6
ByLayer
370
13
48
1
60
0
100
AcDbSpline
70
4
71
3
72
20
73
16
40
0
40
0
40
0
40
0
40
0.35243623329708
40
0.35243623329708
40
0.450389469376377
40
0.450389469376377
40
0.499366087416026
40
0.499366087416026
40
0.548342705455675
40
0.548342705455675
40
0.744249177614277
40
0.744249177614277
40
0.940155649772878
40
0.940155649772878
40
1
40
1
40
1
40
1
41
1
10
32.1756226224698
20
-5.973944548123
30
0
41
1
10
33.8147622841947
20
-6.67777314739166
30
0
41
1
10
35.4421366464118
20
-7.2649647029788
30
0
41
1
10
37.536597497587
20
-7.83535627747494
30
0
41
1
10
37.9930080705203
20
-7.94851127278795
30
0
41
1
10
38.6798075286712
20
-8.10109879474541
30
0
41
1
10
38.9091055208049
20
-8.1491008534563
30
0
41
1
10
39.3685250154172
20
-8.23927128706748
30
0
41
1
10
39.5989047652522
20
-8.28147962640892
30
0
41
1
10
40.7481832457159
20
-8.47666606692147
30
0
41
1
10
41.6617271859795
20
-8.58281190141273
30
0
41
1
10
43.4851477838445
20
-8.69484287246388
30
0
41
1
10
44.3951398264024
20
-8.70083631395934
30
0
41
1
10
45.5859649679185
20
-8.64287831505186
30
0
41
1
10
45.8648591213352
20
-8.62462458859196
30
0
41
1
10
46.1440889110725
20
-8.60167426372607
30
0
0
LINE
5
76
100
AcDbEntity
8
81
62
256
6
ByLayer
370
18
48
1
60
0
100
AcDbLine
10
95
20
0
30
0
11
100
21
0
31
0
39
0
210
0
220
0
230
1
0
LINE
5
77
100
AcDbEntity
8
1
62
256
6
ByLayer
370
18
48
1
60
0
100
AcDbLine
10
4
20
8.947248
30
0
11
0.8
21
8.945328
31
0
39
0
210
0
220
0
230
1
0
LINE
5
79
100
AcDbEntity
8
1
62
256
6
ByLayer
370
18
48
1
60
0
100
AcDbLine
10
44.084052
20
8.971298
30
0
11
42.898014
21
8.970587
31
0
39
0
210
0
220
0
230
1
0
LINE
5
7A
100
AcDbEntity
8
1
62
256
6
ByLayer
370
18
48
1
60
0
100
AcDbLine
10
90.185697
20
8.998959
30
0
11
89.006673
21
8.998252
31
0
39
0
210
0
220
0
230
1
0
LINE
5
7B
100
AcDbEntity
8
1
62
256
6
ByLayer
370
18
48
1
60
0
100
AcDbLine
10
89.006673
20
-8.998252
30
0
11
90.185308
21
-8.998959
31
0
39
0
210
0
220
0
230
1
0
LINE
5
7C
100
AcDbEntity
8
1
62
256
6
ByLayer
370
18
48
1
60
0
100
AcDbLine
10
42.898014
20
-8.970587
30
0
11
44.083947
21
-8.971298
31
0
39
0
210
0
220
0
230
1
0
LINE
5
7D
100
AcDbEntity
8
1
62
256
6
ByLayer
370
18
48
1
60
0
100
AcDbLine
10
0.8
20
-8.945328
30
0
11
4
21
-8.947248
31
0
39
0
210
0
220
0
230
1
0
LINE
5
7E
100
AcDbEntity
8
1
62
256
6
ByLayer
370
18
48
1
60
0
100
AcDbLine
10
0
20
-9
30
0
11
0.8
21
-8.945328
31
0
39
0
210
0
220
0
230
1
0
LINE
5
7F
100
AcDbEntity
8
1
62
256
6
ByLayer
370
18
48
1
60
0
100
AcDbLine
10
0.8
20
8.945328
30
0
11
0
21
9
31
0
39
0
210
0
220
0
230
1
0
LINE
5
80
100
AcDbEntity
8
SK1
62
256
6
ByLayer
370
18
48
1
60
0
100
AcDbLine
10
-45.401924
20
9
30
0
11
-48
21
4.5
31
0
39
0
210
0
220
0
230
1
0
LINE
5
82
100
AcDbEntity
8
SK1
62
256
6
ByLayer
370
18
48
1
60
0
100
AcDbLine
10
-48
20
-4.5
30
0
11
-45.401924
21
-9
31
0
39
0
210
0
220
0
230
1
0
LINE
5
83
100
AcDbEntity
8
SK1
62
256
6
ByLayer
370
18
48
1
60
0
100
AcDbLine
10
0
20
9
30
0
11
-45.401924
21
9
31
0
39
0
210
0
220
0
230
1
0
LINE
5
84
100
AcDbEntity
8
SK1
62
256
6
ByLayer
370
18
48
1
60
0
100
AcDbLine
10
-45.401924
20
-9
30
0
11
0
21
-9
31
0
39
0
210
0
220
0
230
1
0
LINE
5
85
100
AcDbEntity
8
SK4
62
256
6
ByLayer
370
18
48
0.05
60
0
100
AcDbLine
10
100
20
0
30
0
11
-53
21
0
31
0
39
0
210
0
220
0
230
1
0
LINE
5
87
100
AcDbEntity
8
4
62
256
6
ByLayer
370
18
48
0.05
60
0
100
AcDbLine
10
95
20
0
30
0
11
0
21
0
31
0
39
0
210
0
220
0
230
1
0
LINE
5
89
100
AcDbEntity
8
80
62
256
6
ByLayer
370
18
48
1
60
0
100
AcDbLine
10
0
20
0
30
0
11
-5
21
0
31
0
39
0
210
0
220
0
230
1
0
LINE
5
8A
100
AcDbEntity
8
1
62
256
6
ByLayer
370
18
48
1
60
0
100
AcDbLine
10
4
20
8.947248
30
0
11
4
21
8.260871
31
0
39
0
210
0
220
0
230
1
0
LINE
5
8B
100
AcDbEntity
8
1
62
256
6
ByLayer
370
13
48
1
60
0
100
AcDbLine
10
92.704495
20
1.448672
30
0
11
94.888357
21
0.367396
31
0
39
0
210
0
220
0
230
1
0
LINE
5
8C
100
AcDbEntity
8
1
62
256
6
ByLayer
370
18
48
1
60
0
100
AcDbLine
10
95
20
0
30
0
11
91.864412
21
-8.614956
31
0
39
0
210
0
220
0
230
1
0
LINE
5
8D
100
AcDbEntity
8
1
62
256
6
ByLayer
370
18
48
1
60
0
100
AcDbLine
10
95
20
0
30
0
11
94.979462
21
-0.083266
31
0
39
0
210
0
220
0
230
1
0
LINE
5
8E
100
AcDbEntity
8
1
62
256
6
ByLayer
370
18
48
1
60
0
100
AcDbLine
10
90.465155
20
-5.000174
30
0
11
94.893119
21
-0.065289
31
0
39
0
210
0
220
0
230
1
0
LINE
5
8F
100
AcDbEntity
8
1
62
256
6
ByLayer
370
18
48
1
60
0
100
AcDbLine
10
94.888357
20
-0.367396
30
0
11
94.575267
21
-1.448672
31
0
39
0
210
0
220
0
230
1
0
LINE
5
90
100
AcDbEntity
8
1
62
256
6
ByLayer
370
18
48
1
60
0
100
AcDbLine
10
4
20
-8.947248
30
0
11
4
21
-2.004203
31
0
39
0
210
0
220
0
230
1
0
LINE
5
91
100
AcDbEntity
8
1
62
256
6
ByLayer
370
18
48
1
60
0
100
AcDbLine
10
94.888357
20
0.367396
30
0
11
94.575267
21
1.448672
31
0
39
0
210
0
220
0
230
1
0
LINE
5
92
100
AcDbEntity
8
1
62
256
6
ByLayer
370
13
48
1
60
0
100
AcDbLine
10
94.575267
20
1.448672
30
0
11
92.704495
21
1.448672
31
0
39
0
210
0
220
0
230
1
0
LINE
5
93
100
AcDbEntity
8
1
62
256
6
ByLayer
370
18
48
1
60
0
100
AcDbLine
10
0
20
-9
30
0
11
0
21
9
31
0
39
0
210
0
220
0
230
1
0
LINE
5
94
100
AcDbEntity
8
1
62
256
6
ByLayer
370
13
48
1
60
0
100
AcDbLine
10
92.535036
20
1.102248
30
0
11
94.893119
21
-0.065289
31
0
39
0
210
0
220
0
230
1
0
LINE
5
95
100
AcDbEntity
8
1
62
256
6
ByLayer
370
18
48
1
60
0
100
AcDbLine
10
94.979462
20
0.083266
30
0
11
95
21
0
31
0
39
0
210
0
220
0
230
1
0
LINE
5
96
100
AcDbEntity
8
1
62
256
6
ByLayer
370
18
48
1
60
0
100
AcDbLine
10
0.8
20
8.945328
30
0
11
0.8
21
-8.945328
31
0
39
0
210
0
220
0
230
1
0
LINE
5
97
100
AcDbEntity
8
SK1
62
256
6
ByLayer
370
18
48
1
60
0
100
AcDbLine
10
0
20
-9
30
0
11
0
21
9
31
0
39
0
210
0
220
0
230
1
0
LINE
5
98
100
AcDbEntity
8
SK1
62
256
6
ByLayer
370
18
48
1
60
0
100
AcDbLine
10
-45.401924
20
9
30
0
11
-45.401924
21
-9
31
0
39
0
210
0
220
0
230
1
0
LINE
5
99
100
AcDbEntity
8
SK1
62
256
6
ByLayer
370
18
48
1
60
0
100
AcDbLine
10
-48
20
4.5
30
0
11
-48
21
-4.5
31
0
39
0
210
0
220
0
230
1
0
MTEXT
5
CE
100
AcDbEntity
8
SK6
62
256
6
ByLayer
370
13
48
1
60
0
100
AcDbMText
10
25.629169
20
41.382694
30
0
210
0
220
0
230
1
1
\W0.7542;R840-1800-50-A0A1220
40
3.5
41
0
44
1.084337
50
0
71
8
72
5
7
iso_b_vert
0
DIMENSION
5
DB
100
AcDbEntity
8
SK2
62
256
6
ByLayer
370
13
48
1
60
0
100
AcDbDimension
2
DimnDraft3D1
10
91.9
20
-19.213398
30
0
11
43.650059
21
-19.213398
31
0
70
32
71
5
72
1
41
1
210
0
220
0
230
1
3
Standard
100
AcDbAlignedDimension
13
0
23
-1.5875
33
0
14
91.9
24
-10.5875
34
0
50
0
100
AcDbRotatedDimension
1001
ACAD
1000
DSTYLE
1002
{
1070
   279
1070
     0
1070
   172
1070
     1
1070
   173
1070
     1
1070
   340
1005
CF
1070
   271
1070
     2
1070
   272
1070
     2
1070
    77
1070
     1
1070
    73
1070
     0
1070
   171
1070
     3
1070
   274
1070
     4
1070
   177
1070
    35
1070
   176
1070
    35
1070
   178
1070
    35
1070
    48
1040
-0.005
1070
    41
1041
3.5
1070
   147
1041
1.75
1070
    42
1041
1.5875
1070
    44
1041
2.0
1070
   140
1041
3.5
1070
   343
1005
0
1070
   344
1005
0
1002
}
0
DIMENSION
5
E5
100
AcDbEntity
8
SK2
62
256
6
ByLayer
370
13
48
1
60
0
100
AcDbDimension
2
DimnDraft3D2
10
95
20
-37.692985
30
0
11
21.7413
21
-37.692985
31
0
70
32
71
5
72
1
41
1
210
0
220
0
230
1
3
Standard
100
AcDbAlignedDimension
13
-48
23
-10.5875
33
0
14
95
24
-1.5875
34
0
50
0
100
AcDbRotatedDimension
1001
ACAD
1000
DSTYLE
1002
{
1070
   279
1070
     0
1070
   172
1070
     1
1070
   173
1070
     1
1070
   340
1005
CF
1070
   271
1070
     2
1070
   272
1070
     2
1070
    77
1070
     1
1070
    73
1070
     0
1070
   171
1070
     3
1070
   274
1070
     4
1070
   177
1070
    35
1070
   176
1070
    35
1070
   178
1070
    35
1070
    48
1040
-0.005
1070
    41
1041
3.5
1070
   147
1041
1.75
1070
    42
1041
1.5875
1070
    44
1041
2.0
1070
   140
1041
3.5
1070
   343
1005
0
1070
   344
1005
0
1002
}
0
DIMENSION
5
EF
100
AcDbEntity
8
SK2
62
256
6
ByLayer
370
13
48
1
60
0
100
AcDbDimension
2
DimnDraft3D3
10
95
20
20.609119
30
0
11
48.45
21
20.609119
31
0
70
32
71
5
72
1
41
1
210
0
220
0
230
1
3
Standard
100
AcDbAlignedDimension
13
1.9
23
10.5875
33
0
14
95
24
1.5875
34
0
50
0
100
AcDbRotatedDimension
1001
ACAD
1000
DSTYLE
1002
{
1070
   279
1070
     0
1070
   172
1070
     1
1070
   173
1070
     1
1070
   340
1005
CF
1070
   271
1070
     2
1070
   272
1070
     2
1070
    77
1070
     1
1070
    73
1070
     0
1070
   171
1070
     3
1070
   274
1070
     4
1070
   177
1070
    35
1070
   176
1070
    35
1070
   178
1070
    35
1070
    48
1040
-0.005
1070
    41
1041
3.5
1070
   147
1041
1.75
1070
    42
1041
1.5875
1070
    44
1041
2.0
1070
   140
1041
3.5
1070
   343
1005
0
1070
   344
1005
0
1002
}
0
DIMENSION
5
F9
100
AcDbEntity
8
SK2
62
256
6
ByLayer
370
13
48
1
60
0
100
AcDbDimension
2
DimnDraft3D4
10
91.9
20
-21.802503
30
0
11
104.981425
21
-21.802503
31
0
70
32
71
5
72
1
41
1
210
0
220
0
230
1
3
Standard
100
AcDbAlignedDimension
13
95
23
-1.5875
33
0
14
91.9
24
-10.5875
34
0
50
0
100
AcDbRotatedDimension
1001
ACAD
1000
DSTYLE
1002
{
1070
   279
1070
     0
1070
   172
1070
     1
1070
   173
1070
     1
1070
   340
1005
CF
1070
   271
1070
     2
1070
   272
1070
     2
1070
    77
1070
     1
1070
    73
1070
     0
1070
   171
1070
     3
1070
   274
1070
     4
1070
   177
1070
    35
1070
   176
1070
    35
1070
   178
1070
    35
1070
    48
1040
-0.005
1070
    41
1041
3.5
1070
   147
1041
1.75
1070
    42
1041
1.5875
1070
    44
1041
2.0
1070
   140
1041
3.5
1070
   343
1005
0
1070
   344
1005
0
1002
}
0
DIMENSION
5
103
100
AcDbEntity
8
SK2
62
256
6
ByLayer
370
13
48
1
60
0
100
AcDbDimension
2
DimnDraft3D5
10
91.9
20
-27.343428
30
0
11
18.660676
21
-27.343428
31
0
70
32
71
5
72
1
41
1
210
0
220
0
230
1
3
Standard
100
AcDbAlignedDimension
13
-48
23
-10.5875
33
0
14
91.9
24
-10.5875
34
0
50
0
100
AcDbRotatedDimension
1001
ACAD
1000
DSTYLE
1002
{
1070
   279
1070
     0
1070
   172
1070
     1
1070
   173
1070
     1
1070
   340
1005
CF
1070
   271
1070
     2
1070
   272
1070
     2
1070
    77
1070
     1
1070
    73
1070
     0
1070
   171
1070
     3
1070
   274
1070
     4
1070
   177
1070
    35
1070
   176
1070
    35
1070
   178
1070
    35
1070
    48
1040
-0.005
1070
    41
1041
3.5
1070
   147
1041
1.75
1070
    42
1041
1.5875
1070
    44
1041
2.0
1070
   140
1041
3.5
1070
   343
1005
0
1070
   344
1005
0
1002
}
0
DIMENSION
5
10E
100
AcDbEntity
8
SK2
62
256
6
ByLayer
370
13
48
1
60
0
100
AcDbDimension
2
DimnDraft3D6
10
-58.625163
20
9
30
0
11
-59.250163
21
27.47418
31
0
70
33
71
5
72
1
41
1
210
0
220
0
230
1
3
Standard
100
AcDbAlignedDimension
13
-49.5875
23
-9
33
0
14
-49.5875
24
9
34
0
1001
ACAD
1000
DSTYLE
1002
{
1070
   279
1070
     0
1070
    74
1070
     0
1070
   173
1070
     1
1070
   340
1005
CF
1070
   271
1070
     3
1070
   272
1070
     2
1070
    77
1070
     1
1070
    73
1070
     0
1070
   171
1070
     3
1070
   274
1070
     4
1070
   177
1070
    35
1070
   176
1070
    35
1070
   178
1070
    35
1070
    48
1040
-0.005
1070
    41
1041
3.5
1070
   147
1041
1.75
1070
    42
1041
1.5875
1070
    44
1041
2.0
1070
   140
1041
3.5
1070
   343
1005
0
1070
   344
1005
0
1002
}
0
DIMENSION
5
119
100
AcDbEntity
8
2
62
256
6
ByLayer
370
13
48
1
60
0
100
AcDbDimension
2
DimnDraft3D7
10
109.083343
20
9
30
0
11
104.458343
21
26.067266
31
0
70
33
71
5
72
1
41
1
210
0
220
0
230
1
3
Standard
100
AcDbAlignedDimension
13
93.4875
23
-9
33
0
14
93.4875
24
9
34
0
1001
ACAD
1000
DSTYLE
1002
{
1070
   279
1070
     0
1070
    74
1070
     0
1070
   173
1070
     1
1070
   340
1005
CF
1070
   271
1070
     3
1070
   272
1070
     2
1070
    77
1070
     1
1070
    73
1070
     0
1070
   171
1070
     3
1070
   274
1070
     4
1070
   177
1070
    35
1070
   176
1070
    35
1070
   178
1070
    35
1070
    48
1040
-0.005
1070
    41
1041
3.5
1070
   147
1041
1.75
1070
    42
1041
1.5875
1070
    44
1041
2.0
1070
   140
1041
3.5
1070
   343
1005
0
1070
   344
1005
0
1002
}
0
ENDSEC
0
SECTION
2
OBJECTS
0
DICTIONARY
5
184
330
0
100
AcDbDictionary
280
0
281
1
3
ACAD_GROUP
350
185
3
ACAD_MLINESTYLE
350
186
0
DICTIONARY
5
185
330
0
100
AcDbDictionary
280
0
281
1
0
DICTIONARY
5
186
330
0
100
AcDbDictionary
280
0
281
1
3
Standard
350
18
0
MLINESTYLE
5
18
330
186
100
AcDbMlineStyle
2
Standard
70
0
3

62
256
51
90
52
90
71
2
49
-0.5
62
256
6
ByLayer
49
0.5
62
256
6
ByLayer
0
RASTERVARIABLES
5
172
330

100
AcDbRasterVariables
90
0
70
1
71
1
72
1
0
ENDSEC
0
EOF
