0
SECTION
2
HEADER
9
$ACADVER
1
AC1015
9
$DWGCODEPAGE
3
ANSI_1252
9
$HANDSEED
5
1a1
9
$ANGBASE
50
0
9
$ANGDIR
70
0
9
$ATTMODE
70
1
9
$AUNITS
70
0
9
$AUPREC
70
0
9
$CECOLOR
62
256
9
$CELTSCALE
40
1
9
$CELTYPE
6
ByLayer
9
$CELWEIGHT
370
18
9
$CLAYER
8
0
9
$CMLJUST
70
0
9
$CMLSCALE
40
1
9
$CMLSTYLE
2
Standard
9
$DIMSTYLE
2
Standard
9
$TEXTSIZE
40
0.2
9
$TEXTSTYLE
7
Standard
9
$LUNITS
70
2
9
$LUPREC
70
4
9
$EXTNAMES
290
1
9
$INSUNITS
70
4
9
$LTSCALE
40
1
9
$LWDISPLAY
290
1
9
$PDMODE
70
0
9
$PDSIZE
40
0
9
$PLINEGEN
70
0
0
ENDSEC
0
SECTION
2
CLASSES
0
CLASS
1
RASTERVARIABLES
2
AcDbRasterVariables
3
ISM
90
0
280
0
281
0
0
ENDSEC
0
SECTION
2
TABLES
0
TABLE
2
VPORT
5
197
100
AcDbSymbolTable
0
VPORT
5
1
100
AcDbSymbolTableRecord
100
AcDbViewportTableRecord
2
*Active
70
0
10
0
20
0
11
1
21
1
12
-1
22
1
13
0
23
0
14
0.5
24
0.5
15
10
25
10
16
0
26
0
36
1
17
0
27
0
37
0
0
ENDTAB
0
TABLE
2
LTYPE
5
198
100
AcDbSymbolTable
0
LTYPE
5
14
100
AcDbSymbolTableRecord
100
AcDbLinetypeTableRecord
70
0
2
ByBlock
3

72
65
73
0
40
0
0
LTYPE
5
15
100
AcDbSymbolTableRecord
100
AcDbLinetypeTableRecord
70
0
2
ByLayer
3

72
65
73
0
40
0
0
LTYPE
5
16
100
AcDbSymbolTableRecord
100
AcDbLinetypeTableRecord
70
0
2
CONTINUOUS
3
Solid line
72
65
73
0
40
0
0
LTYPE
5
6A
100
AcDbSymbolTableRecord
100
AcDbLinetypeTableRecord
70
0
2
CENTER
3
____ _ ____ _ ____ _ ____
72
65
73
4
40
47.5
49
22
74
0
49
-8.5
74
0
49
8.5
74
0
49
-8.5
74
0
0
LTYPE
5
6B
100
AcDbSymbolTableRecord
100
AcDbLinetypeTableRecord
70
0
2
DASHED
3
__ __ __ __ __ __ __ __ __
72
65
73
2
40
25.72
49
12.86
74
0
49
-12.86
74
0
0
ENDTAB
0
TABLE
2
LAYER
5
199
100
AcDbSymbolTable
0
LAYER
5
10
100
AcDbSymbolTableRecord
100
AcDbLayerTableRecord
2
0
70
0
62
7
6
CONTINUOUS
290
1
370
-3
390
0
0
LAYER
5
6D
100
AcDbSymbolTableRecord
100
AcDbLayerTableRecord
2
81
70
0
62
-3
6
CONTINUOUS
290
1
370
-3
390
0
0
LAYER
5
6F
100
AcDbSymbolTableRecord
100
AcDbLayerTableRecord
2
80
70
0
62
-6
6
CONTINUOUS
290
1
370
-3
390
0
0
LAYER
5
74
100
AcDbSymbolTableRecord
100
AcDbLayerTableRecord
2
2
70
0
62
7
6
CONTINUOUS
290
1
370
-3
390
0
0
LAYER
5
78
100
AcDbSymbolTableRecord
100
AcDbLayerTableRecord
2
1
70
0
62
4
6
CONTINUOUS
290
1
370
-3
390
0
0
LAYER
5
86
100
AcDbSymbolTableRecord
100
AcDbLayerTableRecord
2
4
70
0
62
-2
6
CENTER
290
1
370
-3
390
0
0
LAYER
5
183
100
AcDbSymbolTableRecord
100
AcDbLayerTableRecord
2
SK2
70
0
62
7
6
CONTINUOUS
290
1
370
-3
390
0
0
LAYER
5
184
100
AcDbSymbolTableRecord
100
AcDbLayerTableRecord
2
SK1
70
0
62
4
6
CONTINUOUS
290
1
370
-3
390
0
0
LAYER
5
185
100
AcDbSymbolTableRecord
100
AcDbLayerTableRecord
2
SK4
70
0
62
2
6
CENTER
290
1
370
-3
390
0
0
LAYER
5
186
100
AcDbSymbolTableRecord
100
AcDbLayerTableRecord
2
SK6
70
0
62
5
6
CONTINUOUS
290
1
370
-3
390
0
0
ENDTAB
0
TABLE
2
STYLE
5
19a
100
AcDbSymbolTable
0
STYLE
5
11
100
AcDbSymbolTableRecord
100
AcDbTextStyleTableRecord
2
Standard
3
txt
70
0
71
0
40
0
41
1
42
0
50
0
0
STYLE
5
DF
100
AcDbSymbolTableRecord
100
AcDbTextStyleTableRecord
2
iso_b_vert
3
simplex.shx
70
0
71
0
40
0
41
1
42
0
50
0
0
STYLE
5
E0
100
AcDbSymbolTableRecord
100
AcDbTextStyleTableRecord
2
DWGDirectTextStyle
3
simplex
70
0
71
0
40
0
41
1
42
0
50
0
0
ENDTAB
0
TABLE
2
DIMSTYLE
5
19b
100
AcDbSymbolTable
100
AcDbDimStyleTable
0
DIMSTYLE
105
27
100
AcDbSymbolTableRecord
100
AcDbDimStyleTableRecord
2
Standard
70
0
3
<>
41
0.18
42
0.0625
44
0.18
140
0.18
147
0.09
73
0
74
0
77
1
271
2
275
0
278
52
280
0
340
11
0
ENDTAB
0
TABLE
2
VIEW
5
19c
100
AcDbSymbolTable
0
ENDTAB
0
TABLE
2
UCS
5
19d
100
AcDbSymbolTable
0
ENDTAB
0
TABLE
2
APPID
5
19e
100
AcDbSymbolTable
0
APPID
5
12
100
AcDbSymbolTableRecord
100
AcDbRegAppTableRecord
2
ACAD
70
0
0
ENDTAB
0
TABLE
2
BLOCK_RECORD
5
19f
100
AcDbSymbolTable
0
BLOCK_RECORD
5
1F
100
AcDbSymbolTableRecord
100
AcDbBlockTableRecord
2
*Model_Space
340
0
70
0
0
BLOCK_RECORD
5
1B
100
AcDbSymbolTableRecord
100
AcDbBlockTableRecord
2
*Paper_Space
340
0
70
0
0
BLOCK_RECORD
5
23
100
AcDbSymbolTableRecord
100
AcDbBlockTableRecord
2
*Paper_Space0
340
0
70
0
0
BLOCK_RECORD
5
E2
100
AcDbSymbolTableRecord
100
AcDbBlockTableRecord
2
DimnDraft3D1
340
0
70
0
0
BLOCK_RECORD
5
EC
100
AcDbSymbolTableRecord
100
AcDbBlockTableRecord
2
DimnDraft3D2
340
0
70
0
0
BLOCK_RECORD
5
F6
100
AcDbSymbolTableRecord
100
AcDbBlockTableRecord
2
DimnDraft3D3
340
0
70
0
0
BLOCK_RECORD
5
100
100
AcDbSymbolTableRecord
100
AcDbBlockTableRecord
2
DimnDraft3D4
340
0
70
0
0
BLOCK_RECORD
5
10A
100
AcDbSymbolTableRecord
100
AcDbBlockTableRecord
2
DimnDraft3D5
340
0
70
0
0
BLOCK_RECORD
5
114
100
AcDbSymbolTableRecord
100
AcDbBlockTableRecord
2
DimnDraft3D6
340
0
70
0
0
BLOCK_RECORD
5
11F
100
AcDbSymbolTableRecord
100
AcDbBlockTableRecord
2
DimnDraft3D7
340
0
70
0
0
ENDTAB
0
ENDSEC
0
SECTION
2
BLOCKS
0
BLOCK
5
20
100
AcDbEntity
8
0
100
AcDbBlockBegin
2
*Model_Space
70
0
10
0
20
0
30
0
3
*Model_Space
0
ENDBLK
5
21
100
AcDbEntity
8
0
100
AcDbBlockEnd
0
BLOCK
5
1C
100
AcDbEntity
8
0
100
AcDbBlockBegin
2
*Paper_Space
70
0
10
0
20
0
30
0
3
*Paper_Space
0
ENDBLK
5
1D
100
AcDbEntity
8
0
100
AcDbBlockEnd
0
BLOCK
5
24
100
AcDbEntity
8
0
100
AcDbBlockBegin
2
*Paper_Space0
70
0
10
0
20
0
30
0
3
*Paper_Space0
0
ENDBLK
5
25
100
AcDbEntity
8
0
100
AcDbBlockEnd
0
BLOCK
5
E9
100
AcDbEntity
8
0
100
AcDbBlockBegin
2
DimnDraft3D1
70
0
10
0
20
0
30
0
3
DimnDraft3D1
0
MTEXT
5
E3
100
AcDbEntity
8
SK2
62
256
6
ByLayer
370
13
48
1
60
0
100
AcDbMText
10
39.718875
20
-18.088398
30
0
210
0
220
0
230
1
1
\W0.6713;91,98
40
3.5
41
0
44
1.084337
50
0
71
7
72
5
7
iso_b_vert
0
LINE
5
E4
100
AcDbEntity
8
SK2
62
256
6
ByLayer
370
13
48
1
60
0
100
AcDbLine
10
0
20
-1.5875
30
0
11
0
21
-20.963398
31
0
39
0
210
0
220
0
230
1
0
LINE
5
E5
100
AcDbEntity
8
SK2
62
256
6
ByLayer
370
13
48
1
60
0
100
AcDbLine
10
91.98
20
-10.3375
30
0
11
91.98
21
-20.963398
31
0
39
0
210
0
220
0
230
1
0
LINE
5
E6
100
AcDbEntity
8
SK2
62
256
6
ByLayer
370
13
48
1
60
0
100
AcDbLine
10
0
20
-18.963398
30
0
11
91.98
21
-18.963398
31
0
39
0
210
0
220
0
230
1
0
SOLID
5
E7
100
AcDbEntity
8
SK2
62
256
6
ByLayer
370
13
48
1
60
0
100
AcDbTrace
10
0
20
-18.963398
30
0
11
3.499998
21
-18.502615
31
0
12
3.500002
22
-19.424182
32
0
13
0
23
-18.963398
33
0
39
0
210
0
220
0
230
1
0
SOLID
5
E8
100
AcDbEntity
8
SK2
62
256
6
ByLayer
370
13
48
1
60
0
100
AcDbTrace
10
91.98
20
-18.963398
30
0
11
88.480002
21
-19.424182
31
0
12
88.479998
22
-18.502615
32
0
13
91.98
23
-18.963398
33
0
39
0
210
0
220
0
230
1
0
ENDBLK
5
EA
100
AcDbEntity
8
0
100
AcDbBlockEnd
0
BLOCK
5
F3
100
AcDbEntity
8
0
100
AcDbBlockBegin
2
DimnDraft3D2
70
0
10
0
20
0
30
0
3
DimnDraft3D2
0
MTEXT
5
ED
100
AcDbEntity
8
SK2
62
256
6
ByLayer
370
13
48
1
60
0
100
AcDbMText
10
16.318011
20
-36.817985
30
0
210
0
220
0
230
1
1
\W0.7145;143,00
40
3.5
41
0
44
1.084337
50
0
71
7
72
5
7
iso_b_vert
0
LINE
5
EE
100
AcDbEntity
8
SK2
62
256
6
ByLayer
370
13
48
1
60
0
100
AcDbLine
10
-48
20
-10.5875
30
0
11
-48
21
-39.692985
31
0
39
0
210
0
220
0
230
1
0
LINE
5
EF
100
AcDbEntity
8
SK2
62
256
6
ByLayer
370
13
48
1
60
0
100
AcDbLine
10
95
20
-1.5875
30
0
11
95
21
-39.692985
31
0
39
0
210
0
220
0
230
1
0
LINE
5
F0
100
AcDbEntity
8
SK2
62
256
6
ByLayer
370
13
48
1
60
0
100
AcDbLine
10
-48
20
-37.692985
30
0
11
95
21
-37.692985
31
0
39
0
210
0
220
0
230
1
0
SOLID
5
F1
100
AcDbEntity
8
SK2
62
256
6
ByLayer
370
13
48
1
60
0
100
AcDbTrace
10
-48
20
-37.692985
30
0
11
-44.500002
21
-37.232202
31
0
12
-44.499998
22
-38.153769
32
0
13
-48
23
-37.692985
33
0
39
0
210
0
220
0
230
1
0
SOLID
5
F2
100
AcDbEntity
8
SK2
62
256
6
ByLayer
370
13
48
1
60
0
100
AcDbTrace
10
95
20
-37.692985
30
0
11
91.500002
21
-38.153769
31
0
12
91.499998
22
-37.232202
32
0
13
95
23
-37.692985
33
0
39
0
210
0
220
0
230
1
0
ENDBLK
5
F4
100
AcDbEntity
8
0
100
AcDbBlockEnd
0
BLOCK
5
FD
100
AcDbEntity
8
0
100
AcDbBlockBegin
2
DimnDraft3D3
70
0
10
0
20
0
30
0
3
DimnDraft3D3
0
MTEXT
5
F7
100
AcDbEntity
8
SK2
62
256
6
ByLayer
370
13
48
1
60
0
100
AcDbMText
10
45.291316
20
21.234119
30
0
210
0
220
0
230
1
1
\W0.7317;90,52
40
3.5
41
0
44
1.084337
50
0
71
7
72
5
7
iso_b_vert
0
LINE
5
F8
100
AcDbEntity
8
SK2
62
256
6
ByLayer
370
13
48
1
60
0
100
AcDbLine
10
4.48
20
10.3375
30
0
11
4.48
21
22.359119
31
0
39
0
210
0
220
0
230
1
0
LINE
5
F9
100
AcDbEntity
8
SK2
62
256
6
ByLayer
370
13
48
1
60
0
100
AcDbLine
10
95
20
1.5875
30
0
11
95
21
22.359119
31
0
39
0
210
0
220
0
230
1
0
LINE
5
FA
100
AcDbEntity
8
SK2
62
256
6
ByLayer
370
13
48
1
60
0
100
AcDbLine
10
4.48
20
20.359119
30
0
11
95
21
20.359119
31
0
39
0
210
0
220
0
230
1
0
SOLID
5
FB
100
AcDbEntity
8
SK2
62
256
6
ByLayer
370
13
48
1
60
0
100
AcDbTrace
10
4.48
20
20.359119
30
0
11
7.979998
21
20.819903
31
0
12
7.980002
22
19.898335
32
0
13
4.48
23
20.359119
33
0
39
0
210
0
220
0
230
1
0
SOLID
5
FC
100
AcDbEntity
8
SK2
62
256
6
ByLayer
370
13
48
1
60
0
100
AcDbTrace
10
95
20
20.359119
30
0
11
91.500002
21
19.898335
31
0
12
91.499998
22
20.819903
32
0
13
95
23
20.359119
33
0
39
0
210
0
220
0
230
1
0
ENDBLK
5
FE
100
AcDbEntity
8
0
100
AcDbBlockEnd
0
BLOCK
5
107
100
AcDbEntity
8
0
100
AcDbBlockBegin
2
DimnDraft3D4
70
0
10
0
20
0
30
0
3
DimnDraft3D4
0
MTEXT
5
101
100
AcDbEntity
8
SK2
62
256
6
ByLayer
370
13
48
1
60
0
100
AcDbMText
10
101.840636
20
-20.677503
30
0
210
0
220
0
230
1
1
\W0.7150;3,02
40
3.5
41
0
44
1.084337
50
0
71
7
72
5
7
iso_b_vert
0
LINE
5
102
100
AcDbEntity
8
SK2
62
256
6
ByLayer
370
13
48
1
60
0
100
AcDbLine
10
95
20
-1.5875
30
0
11
95
21
-23.552503
31
0
39
0
210
0
220
0
230
1
0
LINE
5
103
100
AcDbEntity
8
SK2
62
256
6
ByLayer
370
13
48
1
60
0
100
AcDbLine
10
91.98
20
-10.3375
30
0
11
91.98
21
-23.552503
31
0
39
0
210
0
220
0
230
1
0
LINE
5
104
100
AcDbEntity
8
SK2
62
256
6
ByLayer
370
13
48
1
60
0
100
AcDbLine
10
83.23
20
-21.552503
30
0
11
108.997215
21
-21.552503
31
0
39
0
210
0
220
0
230
1
0
SOLID
5
105
100
AcDbEntity
8
SK2
62
256
6
ByLayer
370
13
48
1
60
0
100
AcDbTrace
10
95
20
-21.552503
30
0
11
98.499998
21
-21.091719
31
0
12
98.500002
22
-22.013287
32
0
13
95
23
-21.552503
33
0
39
0
210
0
220
0
230
1
0
SOLID
5
106
100
AcDbEntity
8
SK2
62
256
6
ByLayer
370
13
48
1
60
0
100
AcDbTrace
10
91.98
20
-21.552503
30
0
11
88.480002
21
-22.013287
31
0
12
88.479998
22
-21.091719
32
0
13
91.98
23
-21.552503
33
0
39
0
210
0
220
0
230
1
0
ENDBLK
5
108
100
AcDbEntity
8
0
100
AcDbBlockEnd
0
BLOCK
5
111
100
AcDbEntity
8
0
100
AcDbBlockBegin
2
DimnDraft3D5
70
0
10
0
20
0
30
0
3
DimnDraft3D5
0
MTEXT
5
10B
100
AcDbEntity
8
SK2
62
256
6
ByLayer
370
13
48
1
60
0
100
AcDbMText
10
13.421597
20
-26.468428
30
0
210
0
220
0
230
1
1
\W0.6930;139,98
40
3.5
41
0
44
1.084337
50
0
71
7
72
5
7
iso_b_vert
0
LINE
5
10C
100
AcDbEntity
8
SK2
62
256
6
ByLayer
370
13
48
1
60
0
100
AcDbLine
10
-48
20
-10.5875
30
0
11
-48
21
-29.343428
31
0
39
0
210
0
220
0
230
1
0
LINE
5
10D
100
AcDbEntity
8
SK2
62
256
6
ByLayer
370
13
48
1
60
0
100
AcDbLine
10
91.98
20
-10.3375
30
0
11
91.98
21
-29.343428
31
0
39
0
210
0
220
0
230
1
0
LINE
5
10E
100
AcDbEntity
8
SK2
62
256
6
ByLayer
370
13
48
1
60
0
100
AcDbLine
10
-48
20
-27.343428
30
0
11
91.98
21
-27.343428
31
0
39
0
210
0
220
0
230
1
0
SOLID
5
10F
100
AcDbEntity
8
SK2
62
256
6
ByLayer
370
13
48
1
60
0
100
AcDbTrace
10
-48
20
-27.343428
30
0
11
-44.500002
21
-26.882645
31
0
12
-44.499998
22
-27.804212
32
0
13
-48
23
-27.343428
33
0
39
0
210
0
220
0
230
1
0
SOLID
5
110
100
AcDbEntity
8
SK2
62
256
6
ByLayer
370
13
48
1
60
0
100
AcDbTrace
10
91.98
20
-27.343428
30
0
11
88.480002
21
-27.804212
31
0
12
88.479998
22
-26.882645
32
0
13
91.98
23
-27.343428
33
0
39
0
210
0
220
0
230
1
0
ENDBLK
5
112
100
AcDbEntity
8
0
100
AcDbBlockEnd
0
BLOCK
5
11C
100
AcDbEntity
8
0
100
AcDbBlockBegin
2
DimnDraft3D6
70
0
10
0
20
0
30
0
3
DimnDraft3D6
0
MTEXT
5
115
100
AcDbEntity
8
SK2
62
256
6
ByLayer
370
13
48
1
60
0
100
AcDbMText
10
-58.375163
20
28.34918
30
0
210
0
220
0
230
1
1
\W0.6930;18,000
40
3.5
41
0
44
1.084337
50
90
71
7
72
5
7
iso_b_vert
0
MTEXT
5
116
100
AcDbEntity
8
SK2
62
256
6
ByLayer
370
13
48
1
60
0
100
AcDbMText
10
-58.375163
20
23.126524
30
0
210
0
220
0
230
1
1
%%c
40
3.5
41
0
44
1.084337
50
90
71
7
72
5
7
iso_b_vert
0
LINE
5
117
100
AcDbEntity
8
SK2
62
256
6
ByLayer
370
13
48
1
60
0
100
AcDbLine
10
-49.5875
20
-9
30
0
11
-58.625163
21
-9
31
0
39
0
210
0
220
0
230
1
0
LINE
5
118
100
AcDbEntity
8
SK2
62
256
6
ByLayer
370
13
48
1
60
0
100
AcDbLine
10
-49.5875
20
9
30
0
11
-58.625163
21
9
31
0
39
0
210
0
220
0
230
1
0
LINE
5
119
100
AcDbEntity
8
SK2
62
256
6
ByLayer
370
13
48
1
60
0
100
AcDbLine
10
-56.625163
20
-9
30
0
11
-56.625163
21
39.862338
31
0
39
0
210
0
220
0
230
1
0
SOLID
5
11A
100
AcDbEntity
8
SK2
62
256
6
ByLayer
370
13
48
1
60
0
100
AcDbTrace
10
-56.625163
20
-9
30
0
11
-57.085946
21
-5.500002
31
0
12
-56.164379
22
-5.499998
32
0
13
-56.625163
23
-9
33
0
39
0
210
0
220
0
230
1
0
SOLID
5
11B
100
AcDbEntity
8
SK2
62
256
6
ByLayer
370
13
48
1
60
0
100
AcDbTrace
10
-56.625163
20
9
30
0
11
-56.164379
21
5.500002
31
0
12
-57.085946
22
5.499998
32
0
13
-56.625163
23
9
33
0
39
0
210
0
220
0
230
1
0
ENDBLK
5
11D
100
AcDbEntity
8
0
100
AcDbBlockEnd
0
BLOCK
5
127
100
AcDbEntity
8
0
100
AcDbBlockBegin
2
DimnDraft3D7
70
0
10
0
20
0
30
0
3
DimnDraft3D7
0
MTEXT
5
120
100
AcDbEntity
8
2
62
256
6
ByLayer
370
13
48
1
60
0
100
AcDbMText
10
105.333343
20
26.692266
30
0
210
0
220
0
230
1
1
\W0.6930;17,500
40
3.5
41
0
44
1.084337
50
90
71
7
72
5
7
iso_b_vert
0
MTEXT
5
121
100
AcDbEntity
8
2
62
256
6
ByLayer
370
13
48
1
60
0
100
AcDbMText
10
105.333343
20
21.46961
30
0
210
0
220
0
230
1
1
%%c
40
3.5
41
0
44
1.084337
50
90
71
7
72
5
7
iso_b_vert
0
LINE
5
122
100
AcDbEntity
8
2
62
256
6
ByLayer
370
13
48
1
60
0
100
AcDbLine
10
93.5675
20
-8.75
30
0
11
109.083343
21
-8.75
31
0
39
0
210
0
220
0
230
1
0
LINE
5
123
100
AcDbEntity
8
2
62
256
6
ByLayer
370
13
48
1
60
0
100
AcDbLine
10
93.5675
20
8.75
30
0
11
109.083343
21
8.75
31
0
39
0
210
0
220
0
230
1
0
LINE
5
124
100
AcDbEntity
8
2
62
256
6
ByLayer
370
13
48
1
60
0
100
AcDbLine
10
107.083343
20
-8.75
30
0
11
107.083343
21
38.205424
31
0
39
0
210
0
220
0
230
1
0
SOLID
5
125
100
AcDbEntity
8
2
62
256
6
ByLayer
370
13
48
1
60
0
100
AcDbTrace
10
107.083343
20
-8.75
30
0
11
106.622559
21
-5.250002
31
0
12
107.544126
22
-5.249998
32
0
13
107.083343
23
-8.75
33
0
39
0
210
0
220
0
230
1
0
SOLID
5
126
100
AcDbEntity
8
2
62
256
6
ByLayer
370
13
48
1
60
0
100
AcDbTrace
10
107.083343
20
8.75
30
0
11
107.544126
21
5.250002
31
0
12
106.622559
22
5.249998
32
0
13
107.083343
23
8.75
33
0
39
0
210
0
220
0
230
1
0
ENDBLK
5
128
100
AcDbEntity
8
0
100
AcDbBlockEnd
0
ENDSEC
0
SECTION
2
ENTITIES
0
ARC
5
9D
100
AcDbEntity
8
1
62
256
6
ByLayer
370
18
48
1
60
0
100
AcDbCircle
39
0
10
0
20
8.2
30
0
40
0.800000000000001
210
0
220
0
230
1
100
AcDbArc
50
54.056816
51
90
0
ARC
5
9E
100
AcDbEntity
8
1
62
256
6
ByLayer
370
18
48
1
60
0
100
AcDbCircle
39
0
10
-0.939172
20
9.495359
30
0
40
0.799999999999998
210
0
220
0
230
-1
100
AcDbArc
50
269.965623
51
305.943184
0
ARC
5
9F
100
AcDbEntity
8
1
62
256
6
ByLayer
370
18
48
1
60
0
100
AcDbCircle
39
0
10
0
20
-8.2
30
0
40
0.800000000000001
210
0
220
0
230
1
100
AcDbArc
50
270
51
305.943184
0
ARC
5
A0
100
AcDbEntity
8
1
62
256
6
ByLayer
370
18
48
1
60
0
100
AcDbCircle
39
0
10
-0.939172
20
-9.495359
30
0
40
0.799999999999998
210
0
220
0
230
-1
100
AcDbArc
50
54.056816
51
90.034377
0
ELLIPSE
5
A1
100
AcDbEntity
8
1
62
256
6
ByLayer
370
18
48
1
60
0
100
AcDbEllipse
10
4.25
20
8.572764
30
0
11
0.25
21
0
31
0
210
0
220
0
230
1
40
0.999996
41
-3.13817507167702
42
-1.55646638674865
0
ELLIPSE
5
A2
100
AcDbEntity
8
1
62
256
6
ByLayer
370
18
48
1
60
0
100
AcDbEllipse
10
4.25
20
-8.572764
30
0
11
0.25
21
0
31
0
210
0
220
0
230
1
40
0.999996
41
1.58061069638082
42
3.13817507167708
0
ELLIPSE
5
A3
100
AcDbEntity
8
1
62
256
6
ByLayer
370
18
48
1
60
0
100
AcDbEllipse
10
95.000725
20
-0.001911
30
0
11
3.20011346086138
21
-8.74927220669223
31
0
210
0
220
0
230
-1
40
0.065672
41
-3.0051593899852
42
-2.91766381461506
0
ELLIPSE
5
A4
100
AcDbEntity
8
1
62
256
6
ByLayer
370
13
48
1
60
0
100
AcDbEllipse
10
92.745521
20
1.212662
30
0
11
0.133113781883907
21
0.268850741253513
31
0
210
0
220
0
230
1
40
0.40558
41
0.884485917131022
42
2.2807493187263
0
ELLIPSE
5
A5
100
AcDbEntity
8
1
62
256
6
ByLayer
370
18
48
1
60
0
100
AcDbEllipse
10
93.442987
20
4.023411
30
0
11
1.34377185643447
21
-3.67394029100401
31
0
210
0
220
0
230
-1
40
0.065672
41
-1.60715745349674
42
-0.761382749777673
0
ELLIPSE
5
A6
100
AcDbEntity
8
1
62
256
6
ByLayer
370
18
48
1
60
0
100
AcDbEllipse
10
94.859178
20
0.166145
30
0
11
0.0868803724498463
21
0.29067690888644
31
0
210
0
220
0
230
-1
40
0.467765
41
1.72642962324874
42
2.36053717394405
0
ELLIPSE
5
A7
100
AcDbEntity
8
1
62
256
6
ByLayer
370
18
48
1
60
0
100
AcDbEllipse
10
95.000725
20
0.001912
30
0
11
3.20011366513559
21
8.74927278642063
31
0
210
0
220
0
230
-1
40
0.065672
41
2.91766382204692
42
3.00515939448325
0
ELLIPSE
5
A8
100
AcDbEntity
8
1
62
256
6
ByLayer
370
13
48
1
60
0
100
AcDbEllipse
10
93.798044
20
3.889119
30
0
11
5.6358644772172
21
-2.89733776228726
31
0
210
0
220
0
230
-1
40
0.482873
41
1.53949524920254
42
1.88245961430003
0
ELLIPSE
5
A9
100
AcDbEntity
8
1
62
256
6
ByLayer
370
13
48
1
60
0
100
AcDbEllipse
10
93.967503
20
4.023411
30
0
11
5.68411133204179
21
-2.58299368209837
31
0
210
0
220
0
230
-1
40
0.459904
41
1.57679072381095
42
1.92042810894297
0
ELLIPSE
5
AA
100
AcDbEntity
8
1
62
256
6
ByLayer
370
18
48
1
60
0
100
AcDbEllipse
10
94.998121
20
0.097351
30
0
11
0.137829328519067
21
-0.402528286949091
31
0
210
0
220
0
230
-1
40
0.052723
41
1.54807227784317
42
2.31022812876794
0
ELLIPSE
5
AB
100
AcDbEntity
8
1
62
256
6
ByLayer
370
18
48
1
60
0
100
AcDbEllipse
10
94.998121
20
-0.097351
30
0
11
0.137829328578678
21
0.402528287108458
31
0
210
0
220
0
230
-1
40
0.052723
41
-2.31022812868412
42
-1.54807227806056
0
ELLIPSE
5
AC
100
AcDbEntity
8
1
62
256
6
ByLayer
370
18
48
1
60
0
100
AcDbEllipse
10
93.442987
20
-4.023411
30
0
11
1.34377185645372
21
3.67394029105097
31
0
210
0
220
0
230
-1
40
0.065672
41
0.761382749781292
42
1.60715745348935
0
POINT
5
6C
100
AcDbEntity
8
81
62
256
6
ByLayer
370
18
48
1
60
0
100
AcDbPoint
10
95
20
0
30
0
39
0
210
0
220
0
230
1
50
360
0
POINT
5
6E
100
AcDbEntity
8
80
62
256
6
ByLayer
370
18
48
1
60
0
100
AcDbPoint
10
0
20
0
30
0
39
0
210
0
220
0
230
1
50
360
0
POINT
5
70
100
AcDbEntity
8
SK2
62
256
6
ByLayer
370
18
48
1
60
1
100
AcDbPoint
10
-48
20
-9
30
0
39
0
210
0
220
0
230
1
50
360
0
POINT
5
72
100
AcDbEntity
8
SK2
62
256
6
ByLayer
370
18
48
1
60
1
100
AcDbPoint
10
-48
20
9
30
0
39
0
210
0
220
0
230
1
50
360
0
POINT
5
73
100
AcDbEntity
8
2
62
256
6
ByLayer
370
18
48
1
60
1
100
AcDbPoint
10
91.98
20
-8.75
30
0
39
0
210
0
220
0
230
1
50
360
0
POINT
5
75
100
AcDbEntity
8
2
62
256
6
ByLayer
370
18
48
1
60
1
100
AcDbPoint
10
91.98
20
8.75
30
0
39
0
210
0
220
0
230
1
50
360
0
SPLINE
5
AD
100
AcDbEntity
8
1
62
256
6
ByLayer
370
18
48
1
60
0
100
AcDbSpline
70
4
71
3
72
10
73
6
40
0
40
0
40
0
40
0
40
0.333995982928854
40
0.686164557036787
40
1
40
1
40
1
40
1
41
1
10
69.1370244414799
20
-1.84345375329193
30
0
41
1
10
69.136177439725
20
-1.84315425291018
30
0
41
1
10
69.1511097444574
20
-1.85147419950528
30
0
41
1
10
69.2150576807788
20
-1.88662437761025
30
0
41
1
10
69.2375375414154
20
-1.89944612311046
30
0
41
1
10
69.2473041321443
20
-1.90509322328001
30
0
0
SPLINE
5
AE
100
AcDbEntity
8
1
62
256
6
ByLayer
370
18
48
1
60
0
100
AcDbSpline
70
4
71
3
72
42
73
38
40
0
40
0
40
0
40
0
40
0.017422278212404
40
0.0379097294985899
40
0.0700596130682018
40
0.102866022022348
40
0.130351863366375
40
0.151528659539725
40
0.177346168512398
40
0.210426735680529
40
0.22984132531027
40
0.250041786646811
40
0.275547621837014
40
0.301145203236085
40
0.321614789146049
40
0.3450000556145
40
0.375211857572154
40
0.414861010779981
40
0.454329298633923
40
0.489500280224542
40
0.522495065209145
40
0.564730475919577
40
0.603682755924203
40
0.633606046405152
40
0.670401793630263
40
0.713062712083326
40
0.750540951485168
40
0.789921895855317
40
0.83348981715087
40
0.872791537493815
40
0.886833153367781
40
0.901659242951123
40
0.917272389205062
40
0.93601298371539
40
0.963503827252376
40
0.999986144457571
40
1
40
1
40
1
40
1
41
1
10
44.3054003511343
20
-8.34599965781371
30
0
41
1
10
44.4334808857769
20
-8.34574928729754
30
0
41
1
10
44.7171583824844
20
-8.34508692370363
30
0
41
1
10
45.265654826472
20
-8.34158216293562
30
0
41
1
10
45.9553458943532
20
-8.34217200854181
30
0
41
1
10
46.667645667438
20
-8.34794579594481
30
0
41
1
10
47.3006475461623
20
-8.34884961341785
30
0
41
1
10
47.8786407463548
20
-8.34707718943457
30
0
41
1
10
48.5233186310563
20
-8.34766409520097
30
0
41
1
10
49.1343715835631
20
-8.34942622154867
30
0
41
1
10
49.7139859824273
20
-8.34994247518915
30
0
41
1
10
50.2322806287092
20
-8.35037973312737
30
0
41
1
10
50.8000117872788
20
-8.35048623689795
30
0
41
1
10
51.3698625159874
20
-8.35036196442883
30
0
41
1
10
51.9227898908352
20
-8.35106253776038
30
0
41
1
10
52.5127429819295
20
-8.35182233421071
30
0
41
1
10
53.2538524629203
20
-8.35207560454637
30
0
41
1
10
54.117024915165
20
-8.34986443805107
30
0
41
1
10
55.0270013228821
20
-8.34969917683006
30
0
41
1
10
55.8844147109522
20
-8.3513367042261
30
0
41
1
10
56.7510579955318
20
-8.35343953067107
30
0
41
1
10
57.6623277986698
20
-8.35437654952005
30
0
41
1
10
58.5464423110109
20
-8.35428997687001
30
0
41
1
10
59.3878973227461
20
-8.35443443753735
30
0
41
1
10
60.258738253245
20
-8.35584086438371
30
0
41
1
10
61.1897803015281
20
-8.35569559709057
30
0
41
1
10
62.141391702701
20
-8.35588360966383
30
0
41
1
10
63.1002250177177
20
-8.35795235581264
30
0
41
1
10
64.0735817267556
20
-8.35709603277468
30
0
41
1
10
64.8451789020605
20
-8.35739099276799
30
0
41
1
10
65.3879083410237
20
-8.35831865706928
30
0
41
1
10
65.742040448387
20
-8.35884748241548
30
0
41
1
10
66.1335802583219
20
-8.3589658077002
30
0
41
1
10
66.6259435329644
20
-8.35883962376764
30
0
41
1
10
67.2844651574221
20
-8.35841014441198
30
0
41
1
10
67.7939435692489
20
-8.36039679554102
30
0
41
1
10
68.0845176425048
20
-8.36057235399559
30
0
41
1
10
68.0846279571238
20
-8.36057242063058
30
0
0
SPLINE
5
AF
100
AcDbEntity
8
1
62
256
6
ByLayer
370
18
48
1
60
0
100
AcDbSpline
70
4
71
2
72
6
73
3
40
0
40
0
40
0
40
1
40
1
40
1
41
1
10
90.4617941517082
20
-8.37424053370827
30
0
41
1
10
91.2063490511509
20
-8.37117656221091
30
0
41
1
10
91.9509450838084
20
-8.37792149584831
30
0
0
SPLINE
5
B0
100
AcDbEntity
8
1
62
256
6
ByLayer
370
18
48
1
60
0
100
AcDbSpline
70
4
71
3
72
41
73
37
40
0
40
0
40
0
40
0
40
2.19779176557E-05
40
0.0440629794619313
40
0.0772495853416054
40
0.104758039645924
40
0.12794612263532
40
0.149639771351766
40
0.170903658377846
40
0.193580930946471
40
0.217701403675207
40
0.242867087484664
40
0.285561358671745
40
0.323802590729987
40
0.3653199265304
40
0.405409796410798
40
0.4392510814888
40
0.466443352717639
40
0.498487597274576
40
0.537494389365261
40
0.576453253941089
40
0.608921165197944
40
0.642424697868505
40
0.679214013958171
40
0.719595654539742
40
0.757311536213679
40
0.786744997949446
40
0.809169624352534
40
0.835702971288421
40
0.871005760855773
40
0.895824300867221
40
0.916886554334147
40
0.934120406829874
40
0.9527747287903
40
0.98108825164508
40
1
40
1
40
1
40
1
41
1
10
68.0847318663596
20
8.36057248344906
30
0
41
1
10
68.0845869153293
20
8.36057239591511
30
0
41
1
10
67.7939782064502
20
8.36039684996467
30
0
41
1
10
67.2844650375407
20
8.35841416568638
30
0
41
1
10
66.5937267756864
20
8.35885104506266
30
0
41
1
10
66.0405243918375
20
8.35901049328569
30
0
41
1
10
65.5631104801587
20
8.35865055814952
30
0
41
1
10
65.1268765029607
20
8.3578410185456
30
0
41
1
10
64.6940023663951
20
8.35734047473949
30
0
41
1
10
64.24510943925
20
8.35720967279164
30
0
41
1
10
63.7704779081306
20
8.35742757197579
30
0
41
1
10
63.1638244795565
20
8.35769726781811
30
0
41
1
10
62.4640392924939
20
8.35656075942669
30
0
41
1
10
61.6564079836364
20
8.35561352487221
30
0
41
1
10
60.8659516591468
20
8.35587706199053
30
0
41
1
10
60.104516999786
20
8.3555325887998
30
0
41
1
10
59.437561127875
20
8.35456422251835
30
0
41
1
10
58.8236845506604
20
8.35429606023607
30
0
41
1
10
58.1756986051432
20
8.35437623735933
30
0
41
1
10
57.4502543622319
20
8.35415030094637
30
0
41
1
10
56.7214830097871
20
8.35326771310852
30
0
41
1
10
56.0377463917013
20
8.35188992259359
30
0
41
1
10
55.3635302820738
20
8.35010842039549
30
0
41
1
10
54.6318089223884
20
8.34964374330607
30
0
41
1
10
53.87745413873
20
8.35062354541989
30
0
41
1
10
53.1729393590907
20
8.35198974942736
30
0
41
1
10
52.5835196413017
20
8.35182675805441
30
0
41
1
10
52.0662789756053
20
8.35130247585593
30
0
41
1
10
51.510621368146
20
8.35042877577931
30
0
41
1
10
50.9390655711697
20
8.35045413105289
30
0
41
1
10
50.4036675889026
20
8.35042488112543
30
0
41
1
10
49.9874265303959
20
8.35019188766188
30
0
41
1
10
49.6117679502138
20
8.34984960983573
30
0
41
1
10
49.1885212357423
20
8.34940106346571
30
0
41
1
10
48.7602488742323
20
8.34854954538852
30
0
41
1
10
48.4506886202202
20
8.34768968085464
30
0
41
1
10
48.3263608024179
20
8.34748189030805
30
0
0
SPLINE
5
B1
100
AcDbEntity
8
1
62
256
6
ByLayer
370
18
48
1
60
0
100
AcDbSpline
70
4
71
3
72
31
73
27
40
0
40
0
40
0
40
0
40
0.0492598627629939
40
0.103869323397309
40
0.14996506559853
40
0.190908341700345
40
0.221877150956517
40
0.245097879108905
40
0.265917617101253
40
0.284603182812158
40
0.30152515389701
40
0.345939669719879
40
0.397535104372814
40
0.440989373412435
40
0.480283510022658
40
0.524421429938069
40
0.575366870996216
40
0.622616866950287
40
0.673017511747655
40
0.729946667329825
40
0.776571086409626
40
0.830936288163815
40
0.875123061765389
40
0.921019949744699
40
0.975439023311075
40
1
40
1
40
1
40
1
41
1
10
4.25054836190583
20
-8.32268668693581
30
0
41
1
10
4.54363069612577
20
-8.32340251775472
30
0
41
1
10
5.16165661248686
20
-8.32463074228409
30
0
41
1
10
6.05413024170511
20
-8.32539685011588
30
0
41
1
10
6.89706676702818
20
-8.32559990502517
30
0
41
1
10
7.59928829762055
20
-8.3256537483158
30
0
41
1
10
8.16541098017916
20
-8.32582670133425
30
0
41
1
10
8.61179172256374
20
-8.32616522751232
30
0
41
1
10
8.98507316287362
20
-8.32658815061831
30
0
41
1
10
9.32086707064431
20
-8.32705486041323
30
0
41
1
10
9.7970561322949
20
-8.32772431421316
30
0
41
1
10
10.4691147594156
20
-8.32823331130484
30
0
41
1
10
11.2990638489009
20
-8.32843809464407
30
0
41
1
10
12.0985425968625
20
-8.32957451194949
30
0
41
1
10
12.8536392739983
20
-8.33067392326652
30
0
41
1
10
13.6533203384747
20
-8.33025438264096
30
0
41
1
10
14.5003386183149
20
-8.33077825375062
30
0
41
1
10
15.3846485451731
20
-8.33163215577915
30
0
41
1
10
16.3044825211811
20
-8.33090409068723
30
0
41
1
10
17.2209294609408
20
-8.3312355094464
30
0
41
1
10
18.1598127876782
20
-8.33281043138805
30
0
41
1
10
19.0105450142106
20
-8.32971108440151
30
0
41
1
10
19.8755193719315
20
-8.33040127613677
30
0
41
1
10
20.7249115284441
20
-8.33454344199791
30
0
41
1
10
21.4639969866655
20
-8.33434404642679
30
0
41
1
10
21.9339200168974
20
-8.3350005423209
30
0
41
1
10
22.0802964726345
20
-8.33517527062622
30
0
0
SPLINE
5
B2
100
AcDbEntity
8
1
62
256
6
ByLayer
370
18
48
1
60
0
100
AcDbSpline
70
4
71
3
72
38
73
34
40
0
40
0
40
0
40
0
40
0.0160511372401392
40
0.0423414819528937
40
0.0687774338091193
40
0.103691103206229
40
0.139349930820849
40
0.181758864025915
40
0.220370224390173
40
0.264162969905213
40
0.301000337111853
40
0.327087923233811
40
0.36131431295836
40
0.397906049826018
40
0.423934004700432
40
0.45522020355696
40
0.495482244394687
40
0.536752622487842
40
0.574349606184099
40
0.609036149597079
40
0.644171978965783
40
0.680729803513535
40
0.711159215521398
40
0.73517031234262
40
0.745265690074613
40
0.75890095040233
40
0.775813503904782
40
0.797755912187394
40
0.826541121582952
40
0.862357773213177
40
0.905361342006517
40
0.955710871604307
40
1
40
1
40
1
40
1
41
1
10
22.512017238012
20
8.33139069163121
30
0
41
1
10
22.4129423013916
20
8.33136564814248
30
0
41
1
10
22.1529707729422
20
8.33148039359023
30
0
41
1
10
21.7447692719547
20
8.33395503993097
30
0
41
1
10
21.2131088956058
20
8.33446982641914
30
0
41
1
10
20.6224760374276
20
8.33420757526727
30
0
41
1
10
19.9300393370845
20
8.33265616827416
30
0
41
1
10
19.2129781330521
20
8.33184565066693
30
0
41
1
10
18.4463591800554
20
8.33218071623415
30
0
41
1
10
17.715021091536
20
8.33201327090617
30
0
41
1
10
17.0603135331241
20
8.33120253017032
30
0
41
1
10
16.4633895550505
20
8.33095701084213
30
0
41
1
10
15.8681413760578
20
8.33129744156005
30
0
41
1
10
15.2732076844188
20
8.33145485977298
30
0
41
1
10
14.6963510396544
20
8.33101752317734
30
0
41
1
10
14.0969398893303
20
8.33041965877086
30
0
41
1
10
13.4039243318332
20
8.33040151936092
30
0
41
1
10
12.6720248579646
20
8.33058965871126
30
0
41
1
10
11.9747756740762
20
8.32928222397535
30
0
41
1
10
11.313860051475
20
8.32858195507271
30
0
41
1
10
10.6658619736511
20
8.32803455363521
30
0
41
1
10
10.0672175117884
20
8.32380344847149
30
0
41
1
10
9.54460456499049
20
8.31282798843918
30
0
41
1
10
9.14668770476641
20
8.30867470463113
30
0
41
1
10
8.85161279949173
20
8.31036287618048
30
0
41
1
10
8.62587202504341
20
8.31672277545297
30
0
41
1
10
8.33470023971208
20
8.32197002486259
30
0
41
1
10
7.92510006148183
20
8.32388608521757
30
0
41
1
10
7.40078179264776
20
8.3252155631065
30
0
41
1
10
6.74186514939106
20
8.32557456973788
30
0
41
1
10
5.94952544294756
20
8.32539294205895
30
0
41
1
10
5.10382650075434
20
8.32452704195671
30
0
41
1
10
4.5225914109289
20
8.32335980178914
30
0
41
1
10
4.2505452323507
20
8.32269616087459
30
0
0
SPLINE
5
B3
100
AcDbEntity
8
1
62
256
6
ByLayer
370
18
48
1
60
0
100
AcDbSpline
70
4
71
3
72
11
73
7
40
0
40
0
40
0
40
0
40
0.0913904462040163
40
0.352390602106959
40
0.709963272596782
40
1
40
1
40
1
40
1
41
1
10
23.0461655397675
20
-1.8469013824583
30
0
41
1
10
23.0455382680703
20
-1.84663223600293
30
0
41
1
10
23.0604048424973
20
-1.8547627467328
30
0
41
1
10
23.1331063408707
20
-1.89531114060824
30
0
41
1
10
23.2619526589032
20
-1.96969268285355
30
0
41
1
10
23.3710187037761
20
-2.03509459114613
30
0
41
1
10
23.4239976918422
20
-2.06718329829064
30
0
0
SPLINE
5
B4
100
AcDbEntity
8
1
62
256
6
ByLayer
370
18
48
1
60
0
100
AcDbSpline
70
4
71
3
72
26
73
22
40
0
40
0
40
0
40
0
40
0.124999999999996
40
0.124999999999996
40
0.187499999999996
40
0.187499999999996
40
0.249999999999996
40
0.249999999999996
40
0.499999999999999
40
0.499999999999999
40
0.562499999999999
40
0.562499999999999
40
0.624999999999999
40
0.624999999999999
40
0.749999999999999
40
0.749999999999999
40
0.875
40
0.875
40
0.9375
40
0.9375
40
1
40
1
40
1
40
1
41
1
10
91.9517655222159
20
-8.37495539691542
30
0
41
1
10
91.829680518837
20
-8.37485114815968
30
0
41
1
10
91.7134951020322
20
-8.35696606915553
30
0
41
1
10
91.5485017523048
20
-8.3021549615309
30
0
41
1
10
91.4950552820758
20
-8.27920907260457
30
0
41
1
10
91.3913905685882
20
-8.22358770522226
30
0
41
1
10
91.3410134130364
20
-8.19076568532915
30
0
41
1
10
91.1005613719158
20
-8.00358707945691
30
0
41
1
10
90.942827481648
20
-7.78089543173243
30
0
41
1
10
90.7910945396475
20
-7.40681614893569
30
0
41
1
10
90.763049683391
20
-7.32715133313303
30
0
41
1
10
90.7117492511999
20
-7.15773233246247
30
0
41
1
10
90.688450933394
20
-7.06767046752037
30
0
41
1
10
90.6270146712714
20
-6.78632776793313
30
0
41
1
10
90.5968948162268
20
-6.58288009115512
30
0
41
1
10
90.5580057556068
20
-6.14468886649902
30
0
41
1
10
90.5492355757568
20
-5.90994674671666
30
0
41
1
10
90.5525611547887
20
-5.53367587007855
30
0
41
1
10
90.5564460292185
20
-5.40382382189173
30
0
41
1
10
90.5697933520913
20
-5.13773049080316
30
0
41
1
10
90.5792194066292
20
-5.00186629716242
30
0
41
1
10
90.5913535844735
20
-4.86322989285847
30
0
0
SPLINE
5
B5
100
AcDbEntity
8
1
62
256
6
ByLayer
370
18
48
1
60
0
100
AcDbSpline
70
4
71
3
72
8
73
4
40
0
40
0
40
0
40
0
40
1
40
1
40
1
40
1
41
1
10
92.0362630777254
20
-8.32662565775752
30
0
41
1
10
92.002370631672
20
-8.3587764378195
30
0
41
1
10
91.9741710218561
20
-8.37498091096157
30
0
41
1
10
91.9517655222161
20
-8.37495539691545
30
0
0
SPLINE
5
B6
100
AcDbEntity
8
1
62
256
6
ByLayer
370
18
48
1
60
0
100
AcDbSpline
70
4
71
3
72
8
73
4
40
0
40
0
40
0
40
0
40
1
40
1
40
1
40
1
41
1
10
91.908497699299
20
8.69464128181451
30
0
41
1
10
91.3577739600082
20
8.7312187971942
30
0
41
1
10
90.8064879519804
20
8.74928793356833
30
0
41
1
10
90.2556107243991
20
8.74890735254834
30
0
0
SPLINE
5
B7
100
AcDbEntity
8
1
62
256
6
ByLayer
370
18
48
1
60
0
100
AcDbSpline
70
4
71
3
72
58
73
54
40
0
40
0
40
0
40
0
40
0.0070746174065211
40
0.0070746174065211
40
0.0381035356125669
40
0.0381035356125669
40
0.0691324538186126
40
0.0691324538186126
40
0.100161372024658
40
0.100161372024658
40
0.131190290230704
40
0.131190290230704
40
0.193248126642795
40
0.193248126642795
40
0.224277044848841
40
0.224277044848841
40
0.255305963054887
40
0.255305963054887
40
0.317363799466978
40
0.317363799466978
40
0.348392717673024
40
0.348392717673024
40
0.379421635879071
40
0.379421635879071
40
0.441479472291163
40
0.441479472291163
40
0.472508390497209
40
0.472508390497209
40
0.503537308703256
40
0.503537308703256
40
0.534566226909302
40
0.534566226909302
40
0.565595145115349
40
0.565595145115349
40
0.627652981527442
40
0.627652981527442
40
0.658681899733488
40
0.658681899733488
40
0.689710817939535
40
0.689710817939535
40
0.751768654351629
40
0.751768654351629
40
0.782797572557675
40
0.782797572557675
40
0.813826490763722
40
0.813826490763722
40
0.875884327175815
40
0.875884327175815
40
0.906913245381861
40
0.906913245381861
40
0.937942163587907
40
0.937942163587907
40
1
40
1
40
1
40
1
41
1
10
48.3432538968966
20
-8.37132949568405
30
0
41
1
10
48.2389502896772
20
-8.38871738547971
30
0
41
1
10
48.1346137893462
20
-8.40547616298591
30
0
41
1
10
47.5724526206693
20
-8.49232818633473
30
0
41
1
10
47.1140580060649
20
-8.55080007619014
30
0
41
1
10
46.1994995172315
20
-8.64238845540748
30
0
41
1
10
45.7427768617537
20
-8.67561314776177
30
0
41
1
10
44.8293356016724
20
-8.71677670645246
30
0
41
1
10
44.3725911019885
20
-8.72471628133684
30
0
41
1
10
43.4581015157312
20
-8.71519606091854
30
0
41
1
10
42.999835300255
20
-8.69768717881897
30
0
41
1
10
41.6260911009369
20
-8.6071577420424
30
0
41
1
10
40.7133210632219
20
-8.49639698117713
30
0
41
1
10
39.3426189510149
20
-8.25726603075856
30
0
41
1
10
38.8854312760899
20
-8.16540430342653
30
0
41
1
10
37.9695096769747
20
-7.95777335405117
30
0
41
1
10
37.5112110474277
20
-7.84205347041359
30
0
41
1
10
36.1394298645719
20
-7.46198630869372
30
0
41
1
10
35.2267756838745
20
-7.16435711152198
30
0
41
1
10
33.8546788133469
20
-6.65701141321634
30
0
41
1
10
33.3961780473959
20
-6.47750864666344
30
0
41
1
10
32.4803661222638
20
-6.10062625007515
30
0
41
1
10
32.0232011351114
20
-5.90332403420916
30
0
41
1
10
30.6523186356986
20
-5.28698149323918
30
0
41
1
10
29.7393407866005
20
-4.84334400490371
30
0
41
1
10
28.3649889800635
20
-4.13708938621079
30
0
41
1
10
27.9067546366627
20
-3.89526073541566
30
0
41
1
10
26.9921422034419
20
-3.4019988460752
30
0
41
1
10
26.5352980826514
20
-3.15033170084339
30
0
41
1
10
25.6214508467985
20
-2.63865484140672
30
0
41
1
10
25.1644948934239
20
-2.37857041675551
30
0
41
1
10
24.2494947956499
20
-1.85152971223056
30
0
41
1
10
23.79082827051
20
-1.58425515581646
30
0
41
1
10
22.4170946869197
20
-0.778300990503709
30
0
41
1
10
21.5042185862706
20
-0.2349095968178
30
0
41
1
10
20.1328199012373
20
0.578304744978794
30
0
41
1
10
19.6753421635829
20
0.849068305540101
30
0
41
1
10
18.7587339677025
20
1.38835054042633
30
0
41
1
10
18.3006471018666
20
1.65622287777111
30
0
41
1
10
16.9286489277657
20
2.4499081728778
30
0
41
1
10
16.015711918018
20
2.96672053564478
30
0
41
1
10
14.6426450672634
20
3.71337609710611
30
0
41
1
10
14.1837765120064
20
3.95781802323887
30
0
41
1
10
13.2681016201759
20
4.43338559466005
30
0
41
1
10
12.8110114288485
20
4.6646525892404
30
0
41
1
10
11.4403516320185
20
5.33668570825358
30
0
41
1
10
10.5275226578262
20
5.75585548581159
30
0
41
1
10
9.15309993040054
20
6.3324096063233
30
0
41
1
10
8.69440217145174
20
6.51584931747416
30
0
41
1
10
7.77955759250261
20
6.86227131461192
30
0
41
1
10
7.32274652885107
20
7.02548774295693
30
0
41
1
10
5.95251029562741
20
7.48364039542417
30
0
41
1
10
5.03923352335141
20
7.74708127055556
30
0
41
1
10
4.12247009621896
20
7.96495568192049
30
0
0
SPLINE
5
B8
100
AcDbEntity
8
1
62
256
6
ByLayer
370
18
48
1
60
0
100
AcDbSpline
70
4
71
3
72
32
73
28
40
0
40
0
40
0
40
0
40
0.0624999999999994
40
0.0624999999999994
40
0.0937499999999996
40
0.0937499999999996
40
0.125
40
0.125
40
0.1875
40
0.1875
40
0.21875
40
0.21875
40
0.25
40
0.25
40
0.375000000000001
40
0.375000000000001
40
0.437500000000003
40
0.437500000000003
40
0.500000000000005
40
0.500000000000005
40
0.750000000000005
40
0.750000000000005
40
0.812500000000004
40
0.812500000000004
40
0.875000000000002
40
0.875000000000002
40
1
40
1
40
1
40
1
41
1
10
82.8751308754269
20
4.49372509776589
30
0
41
1
10
82.8777599583686
20
4.2658572895802
30
0
41
1
10
82.8994119408059
20
4.03226494746872
30
0
41
1
10
82.9598561230678
20
3.673460603162
30
0
41
1
10
82.9846947233945
20
3.55236591888843
30
0
41
1
10
83.0436239241592
20
3.30772569612606
30
0
41
1
10
83.0773129262525
20
3.18580600229157
30
0
41
1
10
83.1900815069492
20
2.82115607565618
30
0
41
1
10
83.2808188034382
20
2.5795308407026
30
0
41
1
10
83.4373939123412
20
2.21903319497173
30
0
41
1
10
83.4930075897809
20
2.09919167109285
30
0
41
1
10
83.6107375951028
20
1.86012498880331
30
0
41
1
10
83.6730363720158
20
1.7405967427816
30
0
41
1
10
83.9960976076674
20
1.15154714822103
30
0
41
1
10
84.2931115762128
20
0.702819962472347
30
0
41
1
10
84.7811961686019
20
0.0545759102145666
30
0
41
1
10
84.9510455936722
20
-0.157328931674044
30
0
41
1
10
85.3034183674886
20
-0.573740152426865
30
0
41
1
10
85.4839437413003
20
-0.775876419921332
30
0
41
1
10
86.4041532782665
20
-1.75974812857101
30
0
41
1
10
87.1960977247679
20
-2.46446038220515
30
0
41
1
10
88.2352625891718
20
-3.27262919731342
30
0
41
1
10
88.4456688887828
20
-3.43068280985273
30
0
41
1
10
88.8683564855618
20
-3.7379788429707
30
0
41
1
10
89.0809824800623
20
-3.88749426470429
30
0
41
1
10
89.7224277636068
20
-4.32454290830867
30
0
41
1
10
90.1547943239185
20
-4.60064306252485
30
0
41
1
10
90.5913535844735
20
-4.86322989285844
30
0
0
SPLINE
5
B9
100
AcDbEntity
8
1
62
256
6
ByLayer
370
18
48
1
60
0
100
AcDbSpline
70
4
71
3
72
102
73
98
40
0
40
0
40
0
40
0
40
0.0088917428243749
40
0.0088917428243749
40
0.0278494488240266
40
0.0278494488240266
40
0.0468071548236784
40
0.0468071548236784
40
0.0657648608233302
40
0.0657648608233302
40
0.084722566822982
40
0.084722566822982
40
0.103680272822634
40
0.103680272822634
40
0.122637978822286
40
0.122637978822286
40
0.141595684821937
40
0.141595684821937
40
0.160553390821589
40
0.160553390821589
40
0.179511096821241
40
0.179511096821241
40
0.217426508820544
40
0.217426508820544
40
0.236384214820196
40
0.236384214820196
40
0.255341920819848
40
0.255341920819848
40
0.274299626819499
40
0.274299626819499
40
0.293257332819151
40
0.293257332819151
40
0.331172744818455
40
0.331172744818455
40
0.350130450818107
40
0.350130450818107
40
0.369088156817759
40
0.369088156817759
40
0.388045862817411
40
0.388045862817411
40
0.407003568817064
40
0.407003568817064
40
0.425961274816715
40
0.425961274816715
40
0.444918980816367
40
0.444918980816367
40
0.482834392815672
40
0.482834392815672
40
0.501792098815324
40
0.501792098815324
40
0.520749804814977
40
0.520749804814977
40
0.539707510814629
40
0.539707510814629
40
0.558665216814282
40
0.558665216814282
40
0.596580628813586
40
0.596580628813586
40
0.615538334813238
40
0.615538334813238
40
0.634496040812891
40
0.634496040812891
40
0.653453746812543
40
0.653453746812543
40
0.672411452812195
40
0.672411452812195
40
0.691369158811848
40
0.691369158811848
40
0.7103268648115
40
0.7103268648115
40
0.729284570811152
40
0.729284570811152
40
0.748242276810805
40
0.748242276810805
40
0.767199982810457
40
0.767199982810457
40
0.786157688810109
40
0.786157688810109
40
0.824073100809415
40
0.824073100809415
40
0.843030806809067
40
0.843030806809067
40
0.86198851280872
40
0.86198851280872
40
0.880946218808372
40
0.880946218808372
40
0.899903924808025
40
0.899903924808025
40
0.918861630807677
40
0.918861630807677
40
0.93781933680733
40
0.93781933680733
40
0.975734748806636
40
0.975734748806636
40
0.99469245480629
40
0.99469245480629
40
1
40
1
40
1
40
1
41
1
10
32.1327353140825
20
6.4468795572588
30
0
41
1
10
32.3016139099812
20
6.51473514128668
30
0
41
1
10
32.4705404985411
20
6.58135713021582
30
0
41
1
10
33.0000494164198
20
6.78546337817366
30
0
41
1
10
33.3605193611489
20
6.91756342293922
30
0
41
1
10
34.0809168861434
20
7.16897293423602
30
0
41
1
10
34.4408653615048
20
7.28825717189773
30
0
41
1
10
35.1598862161459
20
7.51424976676637
30
0
41
1
10
35.5185693520704
20
7.62123622325004
30
0
41
1
10
36.2378426559019
20
7.82014939102513
30
0
41
1
10
36.5981902789694
20
7.9123394897492
30
0
41
1
10
37.3197764606006
20
8.08264017636918
30
0
41
1
10
37.6809809902994
20
8.16070770925774
30
0
41
1
10
38.4009530635813
20
8.30215621687117
30
0
41
1
10
38.759841200665
20
8.36568970650501
30
0
41
1
10
39.4790042692257
20
8.47670091829363
30
0
41
1
10
39.838863272636
20
8.52444246264997
30
0
41
1
10
40.5586638423894
20
8.60469773524653
30
0
41
1
10
40.9186143472579
20
8.63720685393491
30
0
41
1
10
41.6382493197149
20
8.68680929926245
30
0
41
1
10
41.9982708952489
20
8.70383781835392
30
0
41
1
10
43.0799130774576
20
8.73087112490413
30
0
41
1
10
43.8003903267215
20
8.71754340958861
30
0
41
1
10
44.8778241933033
20
8.65029335501021
30
0
41
1
10
45.2367326488602
20
8.61994103248455
30
0
41
1
10
45.9565373519215
20
8.54410343126483
30
0
41
1
10
46.316995795055
20
8.49854481162387
30
0
41
1
10
47.0386148671857
20
8.391944891169
30
0
41
1
10
47.3993420594156
20
8.33095241234832
30
0
41
1
10
48.1183150157649
20
8.19354170801529
30
0
41
1
10
48.4775651746934
20
8.11743819479693
30
0
41
1
10
49.5566622309262
20
7.86859228568522
30
0
41
1
10
50.2765009807267
20
7.67472680671509
30
0
41
1
10
51.3552081622584
20
7.33967378823738
30
0
41
1
10
51.7159812406274
20
7.22132400670222
30
0
41
1
10
52.4370475429832
20
6.97288639806808
30
0
41
1
10
52.7973132951682
20
6.84263662032208
30
0
41
1
10
53.516917847849
20
6.56971452132902
30
0
41
1
10
53.8760957787767
20
6.4268511145749
30
0
41
1
10
54.5939099699589
20
6.1289349530748
30
0
41
1
10
54.9534967204837
20
5.97501600153902
30
0
41
1
10
55.673610405076
20
5.65693225150011
30
0
41
1
10
56.034109732806
20
5.49273220334305
30
0
41
1
10
56.7556137969585
20
5.15339466593375
30
0
41
1
10
57.1153685012392
20
4.97827127223474
30
0
41
1
10
58.1934774651914
20
4.44045219105655
30
0
41
1
10
58.9134441715263
20
4.06879632227466
30
0
41
1
10
59.992246902039
20
3.48754834671911
30
0
41
1
10
60.3512818106722
20
3.28920249572087
30
0
41
1
10
61.0709931687741
20
2.88754378315289
30
0
41
1
10
61.432133788269
20
2.6844708003411
30
0
41
1
10
62.1529893742743
20
2.27477794906886
30
0
41
1
10
62.5130422077301
20
2.06802374351204
30
0
41
1
10
63.2320219513163
20
1.65007415312471
30
0
41
1
10
63.5905295674565
20
1.43817287151003
30
0
41
1
10
64.6681909961304
20
0.802134428294295
30
0
41
1
10
65.3893113295513
20
0.376528859897633
30
0
41
1
10
66.4704958276178
20
-0.267604252137005
30
0
41
1
10
66.8295803883179
20
-0.483258493189652
30
0
41
1
10
67.5487623696355
20
-0.910308377123926
30
0
41
1
10
67.9085176657626
20
-1.12229473698275
30
0
41
1
10
68.6278612570949
20
-1.54405095282436
30
0
41
1
10
68.9874612879231
20
-1.75380083706912
30
0
41
1
10
69.7061474780992
20
-2.17162251882792
30
0
41
1
10
70.0650804419973
20
-2.37993380374419
30
0
41
1
10
70.7855846350161
20
-2.78969430956269
30
0
41
1
10
71.1466880411016
20
-2.99189655644651
30
0
41
1
10
71.8671707825255
20
-3.39004664085826
30
0
41
1
10
72.2269322292787
20
-3.58619902921947
30
0
41
1
10
72.9451206077595
20
-3.97316441471415
30
0
41
1
10
73.3036678560448
20
-4.1637623012536
30
0
41
1
10
74.0225905274696
20
-4.53489241671377
30
0
41
1
10
74.3824906175853
20
-4.71615322151084
30
0
41
1
10
75.1027505074585
20
-5.07066926669043
30
0
41
1
10
75.4634622933204
20
-5.24408166488328
30
0
41
1
10
76.1832129962161
20
-5.58235646028385
30
0
41
1
10
76.5424929860289
20
-5.74643625147115
30
0
41
1
10
77.6215665019388
20
-6.21994523732971
30
0
41
1
10
78.3409908814878
20
-6.51293716697009
30
0
41
1
10
79.418066117832
20
-6.92028932268667
30
0
41
1
10
79.7776154374199
20
-7.04973435066375
30
0
41
1
10
80.4986633291642
20
-7.29515023843112
30
0
41
1
10
80.8595244107089
20
-7.41122432245533
30
0
41
1
10
81.5794789757419
20
-7.62987263242903
30
0
41
1
10
81.9387807953602
20
-7.73262028371215
30
0
41
1
10
82.6562800064154
20
-7.92455672438595
30
0
41
1
10
83.0154616911037
20
-8.0130114620045
30
0
41
1
10
83.7346595504421
20
-8.17517827749683
30
0
41
1
10
84.0945830386179
20
-8.2489562923567
30
0
41
1
10
84.8146916405911
20
-8.38202718234339
30
0
41
1
10
85.1750246660314
20
-8.44144942094633
30
0
41
1
10
86.2537868580627
20
-8.59642608634411
30
0
41
1
10
86.9737735330406
20
-8.66785302911444
30
0
41
1
10
88.0521022613074
20
-8.72892802895475
30
0
41
1
10
88.410942243447
20
-8.74154487632612
30
0
41
1
10
88.8708716519361
20
-8.74749886332884
30
0
41
1
10
88.9715668836973
20
-8.74817953433575
30
0
41
1
10
89.0723319796778
20
-8.74824050045029
30
0
0
SPLINE
5
BA
100
AcDbEntity
8
1
62
256
6
ByLayer
370
18
48
1
60
0
100
AcDbSpline
70
4
71
3
72
66
73
62
40
0
40
0
40
0
40
0
40
0.125000000000012
40
0.125000000000012
40
0.156250000000015
40
0.156250000000015
40
0.187500000000019
40
0.187500000000019
40
0.250000000000026
40
0.250000000000026
40
0.375000000000041
40
0.375000000000041
40
0.500000000000057
40
0.500000000000057
40
0.562500000000065
40
0.562500000000065
40
0.625000000000073
40
0.625000000000073
40
0.687500000000081
40
0.687500000000081
40
0.718750000000085
40
0.718750000000085
40
0.722656250000085
40
0.722656250000085
40
0.726562500000084
40
0.726562500000084
40
0.730468750000084
40
0.730468750000084
40
0.732421875000084
40
0.732421875000084
40
0.734375000000083
40
0.734375000000083
40
0.750000000000079
40
0.750000000000079
40
0.781250000000069
40
0.781250000000069
40
0.796875000000064
40
0.796875000000064
40
0.81250000000006
40
0.81250000000006
40
0.828125000000055
40
0.828125000000055
40
0.84375000000005
40
0.84375000000005
40
0.859375000000045
40
0.859375000000045
40
0.867187500000042
40
0.867187500000042
40
0.87500000000004
40
0.87500000000004
40
0.890625000000035
40
0.890625000000035
40
0.90625000000003
40
0.90625000000003
40
0.937500000000021
40
0.937500000000021
40
0.953125000000015
40
0.953125000000015
40
0.96875000000001
40
0.96875000000001
40
1
40
1
40
1
40
1
41
1
10
22.9190639482725
20
-1.7735468810456
30
0
41
1
10
21.9162127573728
20
-1.1881392328643
30
0
41
1
10
20.902495417228
20
-0.615293393772447
30
0
41
1
10
19.6133027108386
20
0.0680854474413763
30
0
41
1
10
19.3541135923914
20
0.203210309415851
30
0
41
1
10
18.8348191357095
20
0.468791354161851
30
0
41
1
10
18.5746371900253
20
0.599292091934018
30
0
41
1
10
17.7921585271031
20
0.983207595228635
30
0
41
1
10
17.2679255343105
20
1.22902127153535
30
0
41
1
10
15.6849109049368
20
1.93065622292238
30
0
41
1
10
14.6156880382367
20
2.35028529903352
30
0
41
1
10
12.4378498314371
20
3.07165317815196
30
0
41
1
10
11.3292526548574
20
3.37352810665493
30
0
41
1
10
9.63086530599935
20
3.72955413515146
30
0
41
1
10
9.0583944006477
20
3.83223521833287
30
0
41
1
10
7.90277054260406
20
4.00404713321825
30
0
41
1
10
7.32256582427931
20
4.0727846889902
30
0
41
1
10
6.15712706594511
20
4.17567645335043
30
0
41
1
10
5.57250187265856
20
4.20976974544053
30
0
41
1
10
4.69481081167055
20
4.23415010659946
30
0
41
1
10
4.40192502080714
20
4.23781678240002
30
0
41
1
10
4.07238944018508
20
4.23678952310334
30
0
41
1
10
4.03577659417863
20
4.23660379730021
30
0
41
1
10
3.96255535358347
20
4.23608869323633
30
0
41
1
10
3.92591741586989
20
4.23671313613241
30
0
41
1
10
3.8529161691244
20
4.22909733272985
30
0
41
1
10
3.81636169649064
20
4.22159354898523
30
0
41
1
10
3.76593903399302
20
4.20199782264066
30
0
41
1
10
3.74985024201394
20
4.193536613383
30
0
41
1
10
3.71972769196617
20
4.17428567313578
30
0
41
1
10
3.70471150803505
20
4.16459923383223
30
0
41
1
10
3.56997915272726
20
4.07686122051601
30
0
41
1
10
3.45291193559777
20
3.99472837579572
30
0
41
1
10
3.11374590910191
20
3.73546104672329
30
0
41
1
10
2.90424895476582
20
3.54650075882327
30
0
41
1
10
2.62449614800801
20
3.22855918990925
30
0
41
1
10
2.53681320513778
20
3.1164186746953
30
0
41
1
10
2.37682360968682
20
2.87905134260583
30
0
41
1
10
2.30577274392786
20
2.7557221824253
30
0
41
1
10
2.1837226976964
20
2.49849671883524
30
0
41
1
10
2.13271320253523
20
2.36460637679355
30
0
41
1
10
2.05368393546692
20
2.08454621588172
30
0
41
1
10
2.02688769852466
20
1.94254243596092
30
0
41
1
10
1.99814914018452
20
1.65501973415695
30
0
41
1
10
1.99618802452119
20
1.50942881040612
30
0
41
1
10
2.01155553767444
20
1.28826953445403
30
0
41
1
10
2.01973827401446
20
1.21437359342806
30
0
41
1
10
2.04159554143166
20
1.06826734251885
30
0
41
1
10
2.05528792191879
20
0.995749913652219
30
0
41
1
10
2.10401497036119
20
0.779672435866701
30
0
41
1
10
2.1466762437845
20
0.637582419835951
30
0
41
1
10
2.24962359237864
20
0.356762507397122
30
0
41
1
10
2.30899251848754
20
0.220489592738147
30
0
41
1
10
2.50546410085721
20
-0.177358654622481
30
0
41
1
10
2.66089467849017
20
-0.428675777219439
30
0
41
1
10
2.91935581235907
20
-0.79122139875858
30
0
41
1
10
3.00973967079039
20
-0.909467174646181
30
0
41
1
10
3.19534430924139
20
-1.13883994611734
30
0
41
1
10
3.29087594322763
20
-1.25040433923866
30
0
41
1
10
3.58426530674723
20
-1.57726633897124
30
0
41
1
10
3.78884781781625
20
-1.78480986762347
30
0
41
1
10
3.99999967262812
20
-1.98465000915652
30
0
0
SPLINE
5
BB
100
AcDbEntity
8
1
62
256
6
ByLayer
370
18
48
1
60
0
100
AcDbSpline
70
4
71
3
72
20
73
16
40
0
40
0
40
0
40
0
40
0.25
40
0.25
40
0.375
40
0.375
40
0.5
40
0.5
40
0.625
40
0.625
40
0.75
40
0.75
40
0.875
40
0.875
40
1
40
1
40
1
40
1
41
1
10
93.6352517148156
20
4.24516042576516
30
0
41
1
10
93.4999939687712
20
4.60894701756317
30
0
41
1
10
93.3646200093684
20
4.97237188352406
30
0
41
1
10
93.1613685134726
20
5.51605978848678
30
0
41
1
10
93.0935762125192
20
5.69702046779429
30
0
41
1
10
92.9579914450615
20
6.05894076257505
30
0
41
1
10
92.8901892559552
20
6.23983790046282
30
0
41
1
10
92.7545467297904
20
6.60138703692246
30
0
41
1
10
92.6867042024021
20
6.7820529124227
30
0
41
1
10
92.5510185558038
20
7.14266935061258
30
0
41
1
10
92.4831667972578
20
7.32248452633351
30
0
41
1
10
92.3474528036429
20
7.68153678743278
30
0
41
1
10
92.2795948832776
20
7.86101195641425
30
0
41
1
10
92.1438655536994
20
8.21921798515123
30
0
41
1
10
92.0759944814843
20
8.39796744031287
30
0
41
1
10
92.00810284061
20
8.57558192503794
30
0
0
SPLINE
5
BC
100
AcDbEntity
8
1
62
256
6
ByLayer
370
18
48
1
60
0
100
AcDbSpline
70
4
71
3
72
104
73
100
40
0
40
0
40
0
40
0
40
0.0475211825726048
40
0.0475211825726048
40
0.115240410285859
40
0.115240410285859
40
0.132170217214172
40
0.132170217214172
40
0.149100024142486
40
0.149100024142486
40
0.182959637999113
40
0.182959637999113
40
0.250678865712366
40
0.250678865712366
40
0.284538479568993
40
0.284538479568993
40
0.31839809342562
40
0.31839809342562
40
0.386117321138874
40
0.386117321138874
40
0.419976934995501
40
0.419976934995501
40
0.436906741923814
40
0.445371645387971
40
0.44960409712005
40
0.44960409712005
40
0.451720322986089
40
0.451720322986089
40
0.452778435919108
40
0.453307492385618
40
0.453572020618873
40
0.453572020618873
40
0.453836548852128
40
0.453836548852128
40
0.454101077085383
40
0.454101077085383
40
0.454365605318638
40
0.454365605318638
40
0.454894661785147
40
0.454894661785147
40
0.455952774718167
40
0.455952774718167
40
0.458069000584206
40
0.458069000584206
40
0.462301452316284
40
0.462301452316284
40
0.470766355780441
40
0.470766355780441
40
0.487696162708754
40
0.487696162708754
40
0.521555776565381
40
0.521555776565381
40
0.555415390422007
40
0.555415390422007
40
0.589275004278634
40
0.589275004278634
40
0.656994231991887
40
0.656994231991887
40
0.690853845848514
40
0.690853845848514
40
0.707783652776827
40
0.707783652776827
40
0.712016104508905
40
0.712016104508905
40
0.714132330374945
40
0.714132330374945
40
0.715190443307964
40
0.715190443307964
40
0.715719499774474
40
0.715719499774474
40
0.716248556240984
40
0.716248556240984
40
0.716513084474239
40
0.716513084474239
40
0.716777612707493
40
0.717306669174003
40
0.718364782107023
40
0.720481007973062
40
0.724713459705141
40
0.724713459705141
40
0.758573073561773
40
0.758573073561773
40
0.792432687418404
40
0.792432687418404
40
0.860151915131666
40
0.860151915131666
40
0.877081722059982
40
0.877081722059982
40
0.894011528988298
40
0.894011528988298
40
0.927871142844929
40
0.927871142844929
40
0.96173075670156
40
0.96173075670156
40
0.978660563629876
40
0.978660563629876
40
0.995590370558192
40
0.995590370558192
40
1
40
1
40
1
40
1
41
1
10
22.9190903991539
20
-1.77352186255473
30
0
41
1
10
22.6021301272124
20
-1.59098416808337
30
0
41
1
10
22.28698072977
20
-1.41588439565032
30
0
41
1
10
21.5255108522482
20
-1.0153517306515
30
0
41
1
10
21.0803890552825
20
-0.800217852227149
30
0
41
1
10
20.5211497290728
20
-0.567844259333725
30
0
41
1
10
20.4088630328012
20
-0.523101646982781
30
0
41
1
10
20.1860282367957
20
-0.438408651810136
30
0
41
1
10
20.0753059223315
20
-0.398375645842918
30
0
41
1
10
19.7448776493979
20
-0.28531898194629
30
0
41
1
10
19.5269091566444
20
-0.21934369396979
30
0
41
1
10
18.8771651236612
20
-0.0501558901185319
30
0
41
1
10
18.4494894242091
20
0.0242985333277943
30
0
41
1
10
17.8057411259982
20
0.0773959196854435
30
0
41
1
10
17.5907999247988
20
0.0853402809081558
30
0
41
1
10
17.1586150977001
20
0.081543899495955
30
0
41
1
10
16.9406981450636
20
0.0696789130174977
30
0
41
1
10
16.2913219427146
20
0.005519132566036
30
0
41
1
10
15.8614223414744
20
-0.0750039663696214
30
0
41
1
10
15.213607849373
20
-0.247326206867882
30
0
41
1
10
14.9972003286153
20
-0.313384737893841
30
0
41
1
10
14.6710990906168
20
-0.425001736749181
30
0
41
1
10
14.5076769711918
20
-0.483944895118356
30
0
41
1
10
14.3162026564505
20
-0.55813479368959
30
0
41
1
10
14.2339500416203
20
-0.591087275582424
30
0
41
1
10
14.1927902371375
20
-0.607755910836659
30
0
41
1
10
14.1790669886704
20
-0.613343273681949
30
0
41
1
10
14.1584821492342
20
-0.621768807247832
30
0
41
1
10
14.1481893284435
20
-0.625992862138077
30
0
41
1
10
14.1361804039066
20
-0.630940605835491
30
0
41
1
10
14.1310335810365
20
-0.633065281597027
30
0
41
1
10
14.1276023341112
20
-0.634482668184774
30
0
41
1
10
14.125381033153
20
-0.634840021760027
30
0
41
1
10
14.1232249294574
20
-0.637178545286133
30
0
41
1
10
14.1245477981615
20
-0.638906697436283
30
0
41
1
10
14.1266585741279
20
-0.641604988391634
30
0
41
1
10
14.1279259685429
20
-0.642890542111047
30
0
41
1
10
14.1318535371788
20
-0.646625172770854
30
0
41
1
10
14.1347021061697
20
-0.648980947780672
30
0
41
1
10
14.1434509757571
20
-0.655930467443341
30
0
41
1
10
14.1495940556273
20
-0.660386474296075
30
0
41
1
10
14.1682330340132
20
-0.673540182490939
30
0
41
1
10
14.181024070171
20
-0.682028297270904
30
0
41
1
10
14.2197371843945
20
-0.707237542415498
30
0
41
1
10
14.2460541797328
20
-0.723663886192469
30
0
41
1
10
14.3254139467088
20
-0.772559466513627
30
0
41
1
10
14.3789766664084
20
-0.804617723655156
30
0
41
1
10
14.5403043208473
20
-0.900368206580964
30
0
41
1
10
14.6488006107758
20
-0.963559043751872
30
0
41
1
10
14.9751329308013
20
-1.15280766881656
30
0
41
1
10
15.1939903835653
20
-1.27846536674457
30
0
41
1
10
15.6326286556121
20
-1.53040040332641
30
0
41
1
10
15.852586277173
20
-1.65646676312176
30
0
41
1
10
16.2923978697299
20
-1.91055381349179
30
0
41
1
10
16.5123098468119
20
-2.03843724264362
30
0
41
1
10
17.1722254656118
20
-2.42436126961513
30
0
41
1
10
17.6128502815809
20
-2.6839742199312
30
0
41
1
10
18.2702657008009
20
-3.0831455162506
30
0
41
1
10
18.4890020635257
20
-3.21756956914032
30
0
41
1
10
18.8147028417179
20
-3.42438290234819
30
0
41
1
10
18.9231015806111
20
-3.49389000800932
30
0
41
1
10
19.0560120136496
20
-3.5847516050168
30
0
41
1
10
19.0824591222511
20
-3.60313439503136
30
0
41
1
10
19.1215097785282
20
-3.63164912726748
30
0
41
1
10
19.1344325860781
20
-3.64129694318825
30
0
41
1
10
19.1533840313
20
-3.65641947981368
30
0
41
1
10
19.1596353048222
20
-3.66155943666445
30
0
41
1
10
19.1687117511373
20
-3.66971981392155
30
0
41
1
10
19.1717032083029
20
-3.67252279768337
30
0
41
1
10
19.1773383800548
20
-3.67845711916843
30
0
41
1
10
19.1805504110643
20
-3.68142038317308
30
0
41
1
10
19.1822097837218
20
-3.68749632592437
30
0
41
1
10
19.1803125042839
20
-3.68915705040851
30
0
41
1
10
19.1773198945938
20
-3.69216290164434
30
0
41
1
10
19.1728311223413
20
-3.69667146191685
30
0
41
1
10
19.1623583060922
20
-3.70718991569132
30
0
41
1
10
19.1414166722211
20
-3.72822057034611
30
0
41
1
10
19.0995493777002
20
-3.77025595665793
30
0
41
1
10
19.0636917878863
20
-3.80623735405447
30
0
41
1
10
18.8486471827068
20
-4.02191749992303
30
0
41
1
10
18.6585197479005
20
-4.21187562385313
30
0
41
1
10
18.2789227814878
20
-4.58631115369985
30
0
41
1
10
18.090992124715
20
-4.76926904735328
30
0
41
1
10
17.5298728430094
20
-5.30244626109592
30
0
41
1
10
17.1596581425728
20
-5.6374724052645
30
0
41
1
10
16.6876734317241
20
-6.01647453353567
30
0
41
1
10
16.5927869293733
20
-6.09025197966105
30
0
41
1
10
16.4015465360668
20
-6.23325054828788
30
0
41
1
10
16.3049255677965
20
-6.30265094335368
30
0
41
1
10
16.0141714877397
20
-6.50168417960924
30
0
41
1
10
15.8196224411901
20
-6.62190512670378
30
0
41
1
10
15.4252620487021
20
-6.8342294008701
30
0
41
1
10
15.2254402324427
20
-6.926313345224
30
0
41
1
10
14.9187581808417
20
-7.04103675650362
30
0
41
1
10
14.8153723553913
20
-7.07538029378682
30
0
41
1
10
14.6058066575239
20
-7.13595889063953
30
0
41
1
10
14.4993098234783
20
-7.16223479042284
30
0
41
1
10
14.3648817792569
20
-7.18977600037678
30
0
41
1
10
14.3370720047951
20
-7.19517120603081
30
0
41
1
10
14.3092297174066
20
-7.20027502364258
30
0
0
SPLINE
5
BD
100
AcDbEntity
8
1
62
256
6
ByLayer
370
18
48
1
60
0
100
AcDbSpline
70
4
71
3
72
22
73
18
40
0
40
0
40
0
40
0
40
0.074474624084978
40
0.074474624084978
40
0.18240821543261
40
0.18240821543261
40
0.398275398127876
40
0.398275398127876
40
0.614142580823142
40
0.614142580823142
40
0.722076172170773
40
0.722076172170773
40
0.776042967844589
40
0.776042967844589
40
0.830009763518406
40
0.830009763518406
40
1
40
1
40
1
40
1
41
1
10
21.1130927958399
20
-0.0028787737814753
30
0
41
1
10
21.4306774778255
20
-0.185405806101187
30
0
41
1
10
21.7485680944032
20
-0.368140125029214
30
0
41
1
10
22.5241256656422
20
-0.812998134930581
30
0
41
1
10
22.9815676630136
20
-1.07450087250552
30
0
41
1
10
24.3508301929728
20
-1.85156473534312
30
0
41
1
10
25.2595058543577
20
-2.35981609160348
30
0
41
1
10
27.0767813967108
20
-3.3430605756362
30
0
41
1
10
27.9851501159593
20
-3.81839985762244
30
0
41
1
10
29.3531820652366
20
-4.49718401196697
30
0
41
1
10
29.8100861531041
20
-4.71776439606282
30
0
41
1
10
30.4976227442938
20
-5.03876310675241
30
0
41
1
10
30.7271655843326
20
-5.14411584155201
30
0
41
1
10
31.1870855088115
20
-5.35135294027074
30
0
41
1
10
31.4176897157069
20
-5.45333093177354
30
0
41
1
10
32.3719663885269
20
-5.86687224857619
30
0
41
1
10
33.0921458630993
20
-6.15865533557368
30
0
41
1
10
33.810081432077
20
-6.42659559190665
30
0
0
SPLINE
5
BE
100
AcDbEntity
8
1
62
256
6
ByLayer
370
13
48
1
60
0
100
AcDbSpline
70
4
71
3
72
18
73
14
40
0
40
0
40
0
40
0
40
0.264195658312051
40
0.264195658312051
40
0.482084681010488
40
0.482084681010488
40
0.591029192359707
40
0.591029192359707
40
0.699973703708927
40
0.699973703708927
40
0.917862726407369
40
0.917862726407369
40
1
40
1
40
1
40
1
41
1
10
33.8100814323608
20
-6.42659559201252
30
0
41
1
10
34.9155297450875
20
-6.83915922176814
30
0
41
1
10
36.0156580714026
20
-7.19519483382359
30
0
41
1
10
38.0260516683753
20
-7.73015409148212
30
0
41
1
10
38.9358563507445
20
-7.92918892245439
30
0
41
1
10
40.3079921564886
20
-8.15844185571973
30
0
41
1
10
40.766629101704
20
-8.22326710845152
30
0
41
1
10
41.6874138858845
20
-8.32892288126578
30
0
41
1
10
42.1474885998549
20
-8.36951858719144
30
0
41
1
10
43.5240119112766
20
-8.45394159573854
30
0
41
1
10
44.4387291848522
20
-8.46087467619523
30
0
41
1
10
45.6994456709543
20
-8.40251406541103
30
0
41
1
10
46.0447733836167
20
-8.37954544245679
30
0
41
1
10
46.3904458693458
20
-8.34960101343063
30
0
0
SPLINE
5
BF
100
AcDbEntity
8
1
62
256
6
ByLayer
370
18
48
1
60
0
100
AcDbSpline
70
4
71
3
72
14
73
10
40
0
40
0
40
0
40
0
40
0.25
40
0.25
40
0.5
40
0.5
40
0.75
40
0.75
40
1
40
1
40
1
40
1
41
1
10
90.7382025521808
20
2.18726207266374
30
0
41
1
10
90.7299574627131
20
2.21497790095191
30
0
41
1
10
90.7255163546903
20
2.24379491412537
30
0
41
1
10
90.728555926378
20
2.30236248455853
30
0
41
1
10
90.7364391606317
20
2.3319257389152
30
0
41
1
10
90.7673982704608
20
2.38376252866692
30
0
41
1
10
90.7907128091402
20
2.40626499417959
30
0
41
1
10
90.8442076865263
20
2.43744925765677
30
0
41
1
10
90.8738901126744
20
2.44677957252369
30
0
41
1
10
90.9043404129115
20
2.45223179602118
30
0
0
SPLINE
5
C0
100
AcDbEntity
8
1
62
256
6
ByLayer
370
13
48
1
60
0
100
AcDbSpline
70
4
71
3
72
16
73
12
40
0
40
0
40
0
40
0
40
0.0342921229470593
40
0.0342921229470593
40
0.393375834896013
40
0.393375834896013
40
0.752459546844966
40
0.752459546844966
40
0.932001402819443
40
0.932001402819443
40
1
40
1
40
1
40
1
41
1
10
4.25035715570428
20
7.93099972777097
30
0
41
1
10
4.25036004026859
20
7.93989457797969
30
0
41
1
10
4.25036290658406
20
7.94864165658703
30
0
41
1
10
4.25039558296248
20
8.04728967392637
30
0
41
1
10
4.2504235146838
20
8.12127845001544
30
0
41
1
10
4.25047621352687
20
8.23569122858612
30
0
41
1
10
4.25050084327404
20
8.27587099427691
30
0
41
1
10
4.25053602968543
20
8.31071592939341
30
0
41
1
10
4.25054748922517
20
8.31808647172468
30
0
41
1
10
4.25056288065716
20
8.32231040400245
30
0
41
1
10
4.25056706462456
20
8.32285579760415
30
0
41
1
10
4.25057120835808
20
8.32279115388141
30
0
0
SPLINE
5
C1
100
AcDbEntity
8
1
62
256
6
ByLayer
370
18
48
1
60
0
100
AcDbSpline
70
2053
71
3
72
80
73
76
40
0
40
0
40
0
40
0
40
0.0312500000000041
40
0.0312500000000041
40
0.0468750000000037
40
0.0468750000000037
40
0.0625000000000032
40
0.0625000000000032
40
0.0937500000000024
40
0.0937500000000024
40
0.109375000000002
40
0.109375000000002
40
0.125000000000002
40
0.125000000000002
40
0.156250000000004
40
0.156250000000004
40
0.171875000000005
40
0.171875000000005
40
0.187500000000007
40
0.187500000000007
40
0.218750000000009
40
0.218750000000009
40
0.250000000000011
40
0.250000000000011
40
0.281250000000014
40
0.281250000000014
40
0.312500000000016
40
0.312500000000016
40
0.343750000000019
40
0.343750000000019
40
0.375000000000021
40
0.375000000000021
40
0.406250000000023
40
0.406250000000023
40
0.437500000000026
40
0.437500000000026
40
0.468750000000028
40
0.468750000000028
40
0.50000000000003
40
0.50000000000003
40
0.531250000000033
40
0.531250000000033
40
0.562500000000035
40
0.562500000000035
40
0.578125000000036
40
0.578125000000036
40
0.593750000000038
40
0.593750000000038
40
0.625000000000036
40
0.625000000000036
40
0.640625000000035
40
0.640625000000035
40
0.656250000000034
40
0.656250000000034
40
0.687500000000031
40
0.687500000000031
40
0.718750000000028
40
0.718750000000028
40
0.750000000000025
40
0.750000000000025
40
0.781250000000022
40
0.781250000000022
40
0.812500000000019
40
0.812500000000019
40
0.843750000000016
40
0.843750000000016
40
0.875000000000013
40
0.875000000000013
40
0.906250000000009
40
0.906250000000009
40
0.937500000000006
40
0.937500000000006
40
0.968750000000003
40
0.968750000000003
40
1
40
1
40
1
40
1
41
1
10
92.6181445753141
20
-4.80887275026344
30
0
41
1
10
92.6557973608558
20
-4.75572954961714
30
0
41
1
10
92.6927070847638
20
-4.69868349112463
30
0
41
1
10
92.7468526019303
20
-4.60671129932805
30
0
41
1
10
92.7646965678244
20
-4.5749795710195
30
0
41
1
10
92.7999359021234
20
-4.50915988768171
30
0
41
1
10
92.8173662042858
20
-4.47497876843804
30
0
41
1
10
92.8677082775676
20
-4.37099474017072
30
0
41
1
10
92.8990949406816
20
-4.29907569742599
30
0
41
1
10
92.9423689278477
20
-4.18665321072422
30
0
41
1
10
92.9560560371236
20
-4.14862205892658
30
0
41
1
10
92.9812367152391
20
-4.07330451016085
30
0
41
1
10
92.9928345468471
20
-4.03575357264785
30
0
41
1
10
93.0245579894839
20
-3.92343432417226
30
0
41
1
10
93.041745587678
20
-3.84791563080577
30
0
41
1
10
93.0594173445655
20
-3.74242245818707
30
0
41
1
10
93.0640408340042
20
-3.70833063024713
30
0
41
1
10
93.0707902295135
20
-3.64226111168551
30
0
41
1
10
93.0729098990757
20
-3.61010087297268
30
0
41
1
10
93.0754412233992
20
-3.51923052612156
30
0
41
1
10
93.0721841565382
20
-3.46528365621884
30
0
41
1
10
93.0568837608184
20
-3.36984773099445
30
0
41
1
10
93.0450912259743
20
-3.32975267747719
30
0
41
1
10
93.0145100880056
20
-3.26243704026811
30
0
41
1
10
92.9956773621398
20
-3.23547895713963
30
0
41
1
10
92.9532303223286
20
-3.19480500028578
30
0
41
1
10
92.929460946163
20
-3.18074627924747
30
0
41
1
10
92.8772752079062
20
-3.16408862545103
30
0
41
1
10
92.8489273137898
20
-3.16162745226026
30
0
41
1
10
92.7895284103571
20
-3.16757023395215
30
0
41
1
10
92.7582828022738
20
-3.17590621933701
30
0
41
1
10
92.6927754132032
20
-3.20304320195066
30
0
41
1
10
92.6586361351364
20
-3.22186492009104
30
0
41
1
10
92.5892055708991
20
-3.26889578472054
30
0
41
1
10
92.5537007939099
20
-3.29718302617133
30
0
41
1
10
92.4810519627155
20
-3.36366551264285
30
0
41
1
10
92.4436011423242
20
-3.40223720291746
30
0
41
1
10
92.3689367593823
20
-3.48815492659119
30
0
41
1
10
92.331634348273
20
-3.53549862940832
30
0
41
1
10
92.2570949321365
20
-3.63981638372428
30
0
41
1
10
92.2194803592637
20
-3.69745013324268
30
0
41
1
10
92.1468314666736
20
-3.82016315669838
30
0
41
1
10
92.1116956440384
20
-3.88524606007937
30
0
41
1
10
92.0610796819867
20
-3.98941567926695
30
0
41
1
10
92.0445208816531
20
-4.02535425445731
30
0
41
1
10
92.0130181745236
20
-4.09777054015106
30
0
41
1
10
91.9979682174396
20
-4.13445370879018
30
0
41
1
10
91.9550367901564
20
-4.24600567178115
30
0
41
1
10
91.9291146876679
20
-4.3234322322609
30
0
41
1
10
91.8974442657474
20
-4.43609704934201
30
0
41
1
10
91.8879959965539
20
-4.47327236552292
30
0
41
1
10
91.8713634026932
20
-4.54684770197505
30
0
41
1
10
91.8641342413623
20
-4.58354427284686
30
0
41
1
10
91.8464359130649
20
-4.68989491155693
30
0
41
1
10
91.8398433550748
20
-4.75567099354919
30
0
41
1
10
91.8363860348586
20
-4.87764854478542
30
0
41
1
10
91.8396087268414
20
-4.93182865429514
30
0
41
1
10
91.8545298341432
20
-5.02721098794231
30
0
41
1
10
91.8662999286955
20
-5.06829202483434
30
0
41
1
10
91.8964315434214
20
-5.13620755596227
30
0
41
1
10
91.9150664405936
20
-5.1636954113516
30
0
41
1
10
91.9575107342363
20
-5.20549452182809
30
0
41
1
10
91.9812571998604
20
-5.21993670384109
30
0
41
1
10
92.0332970230427
20
-5.23718981978382
30
0
41
1
10
92.0616604177175
20
-5.2398863787291
30
0
41
1
10
92.1210849521671
20
-5.23419678387657
30
0
41
1
10
92.1523337179842
20
-5.22589553720337
30
0
41
1
10
92.2178117092763
20
-5.19870876676174
30
0
41
1
10
92.2521472485161
20
-5.17968086277858
30
0
41
1
10
92.3218589547828
20
-5.13209500651595
30
0
41
1
10
92.3574631700581
20
-5.10347236146853
30
0
41
1
10
92.4302060914342
20
-5.0363239029983
30
0
41
1
10
92.467595893318
20
-4.99750356862782
30
0
41
1
10
92.5427622961954
20
-4.91029461250699
30
0
41
1
10
92.5804917897724
20
-4.86201595090972
30
0
41
1
10
92.6181445753141
20
-4.80887275026344
30
0
0
SPLINE
5
C2
100
AcDbEntity
8
1
62
256
6
ByLayer
370
18
48
1
60
0
100
AcDbSpline
70
4
71
3
72
62
73
58
40
0
40
0
40
0
40
0
40
0.0287158633215658
40
0.0287158633215658
40
0.0574317266431316
40
0.0574317266431316
40
0.114863453286265
40
0.114863453286265
40
0.143579316607831
40
0.143579316607831
40
0.172295179929397
40
0.172295179929397
40
0.229726906572529
40
0.229726906572529
40
0.258442769894095
40
0.258442769894095
40
0.287158633215662
40
0.287158633215662
40
0.315874496537228
40
0.315874496537228
40
0.344590359858794
40
0.344590359858794
40
0.402022086501926
40
0.402022086501926
40
0.430737949823492
40
0.430737949823492
40
0.459453813145058
40
0.459453813145058
40
0.516885539788191
40
0.516885539788191
40
0.545601403109758
40
0.545601403109758
40
0.574317266431325
40
0.574317266431325
40
0.631748993074458
40
0.631748993074458
40
0.660464856396024
40
0.660464856396024
40
0.689180719717591
40
0.689180719717591
40
0.717896583039157
40
0.717896583039157
40
0.746612446360724
40
0.746612446360724
40
0.804044173003857
40
0.804044173003857
40
0.832760036325423
40
0.832760036325423
40
0.861475899646989
40
0.861475899646989
40
0.918907626290121
40
0.918907626290121
40
0.947623489611688
40
0.947623489611688
40
0.976339352933254
40
0.976339352933254
40
1
40
1
40
1
40
1
41
1
10
91.9084976992989
20
-8.69464128181454
30
0
41
1
10
91.4510503171607
20
-8.72502364498831
30
0
41
1
10
90.9936921415106
20
-8.74266805766874
30
0
41
1
10
90.0782448171913
20
-8.75243811485493
30
0
41
1
10
89.6203918878426
20
-8.74453188185549
30
0
41
1
10
88.2497040786105
20
-8.68282230487463
30
0
41
1
10
87.3379695018932
20
-8.59107331679223
30
0
41
1
10
85.9673301708391
20
-8.3791988852758
30
0
41
1
10
85.5093220206663
20
-8.29608244007477
30
0
41
1
10
84.5943015320788
20
-8.10612264418913
30
0
41
1
10
84.1375231432661
20
-7.99937026213496
30
0
41
1
10
82.7680046342628
20
-7.64492645073358
30
0
41
1
10
81.855893993553
20
-7.36318286109463
30
0
41
1
10
80.4829201699803
20
-6.8772949468889
30
0
41
1
10
80.0250812743877
20
-6.70494559192699
30
0
41
1
10
79.1113534008546
20
-6.34204745222729
30
0
41
1
10
78.6549408676758
20
-6.1513504637673
30
0
41
1
10
77.742096973164
20
-5.75260202600401
30
0
41
1
10
77.2856178599214
20
-5.54460733543249
30
0
41
1
10
76.371501843669
20
-5.11266845985134
30
0
41
1
10
75.913263423235
20
-4.88840965052702
30
0
41
1
10
74.5406621979303
20
-4.19643644839488
30
0
41
1
10
73.6285051233075
20
-3.70951280492517
30
0
41
1
10
72.2586043544607
20
-2.94993236218914
30
0
41
1
10
71.8016079414115
20
-2.69200568937634
30
0
41
1
10
70.8858988176208
20
-2.16821104886603
30
0
41
1
10
70.4281224895049
20
-1.90283147468617
30
0
41
1
10
69.0574169497997
20
-1.10094228161358
30
0
41
1
10
68.1452374834231
20
-0.558266938640315
30
0
41
1
10
66.7738038183975
20
0.258480603991814
30
0
41
1
10
66.3154747553301
20
0.531411613228897
30
0
41
1
10
65.4004746836987
20
1.07362418335006
30
0
41
1
10
64.9436225911797
20
1.3430480386032
30
0
41
1
10
63.573811665057
20
2.14430703451859
30
0
41
1
10
62.6611676370923
20
2.6684165270498
30
0
41
1
10
61.2872030421365
20
3.42984394687312
30
0
41
1
10
60.8296214923986
20
3.67875425064727
30
0
41
1
10
59.9157082610024
20
4.16427243514462
30
0
41
1
10
59.4591509742233
20
4.40106091082359
30
0
41
1
10
58.5459532132955
20
4.86141833798436
30
0
41
1
10
58.0892472837293
20
5.08489048909016
30
0
41
1
10
57.1745093619467
20
5.51682765492032
30
0
41
1
10
56.7159822312032
20
5.72555801607916
30
0
41
1
10
55.3435934968144
20
6.3245404017392
30
0
41
1
10
54.4311952239997
20
6.68793304521731
30
0
41
1
10
53.0604489785973
20
7.17269564737458
30
0
41
1
10
52.6031647544817
20
7.32421239255626
30
0
41
1
10
51.6867665918115
20
7.60591417056375
30
0
41
1
10
51.229334230773
20
7.73559041259244
30
0
41
1
10
49.8584312482441
20
8.08997772728804
30
0
41
1
10
48.9460200255483
20
8.28008854011051
30
0
41
1
10
47.5735234610984
20
8.49217676147993
30
0
41
1
10
47.1149268532592
20
8.55070123578221
30
0
41
1
10
46.1999249963018
20
8.64235765890359
30
0
41
1
10
45.7430839048262
20
8.67559393622579
30
0
41
1
10
44.9100159077481
20
8.71314533332387
30
0
41
1
10
44.5337047965533
20
8.72152160720984
30
0
41
1
10
44.1571878301214
20
8.72128687249895
30
0
0
SPLINE
5
C3
100
AcDbEntity
8
1
62
256
6
ByLayer
370
18
48
1
60
0
100
AcDbSpline
70
4
71
3
72
20
73
16
40
0
40
0
40
0
40
0
40
0.125
40
0.125
40
0.25
40
0.25
40
0.375
40
0.375
40
0.499999999999999
40
0.499999999999999
40
0.624999999999999
40
0.624999999999999
40
0.749999999999999
40
0.749999999999999
40
1
40
1
40
1
40
1
41
1
10
4.25121795781308
20
-1.73302228891544
30
0
41
1
10
4.23755546529333
20
-1.71905734827092
30
0
41
1
10
4.22338206882131
20
-1.70603316781256
30
0
41
1
10
4.19359600937966
20
-1.68261443859978
30
0
41
1
10
4.1777728029
20
-1.67210428652669
30
0
41
1
10
4.14546394804836
20
-1.65620191555016
30
0
41
1
10
4.12859652576589
20
-1.65071481157423
30
0
41
1
10
4.09635030626339
20
-1.647753566468
30
0
41
1
10
4.08090207984662
20
-1.65036677363099
30
0
41
1
10
4.05433558164123
20
-1.66329695712906
30
0
41
1
10
4.04326291232587
20
-1.67341556643461
30
0
41
1
10
4.02560823696302
20
-1.69760022630072
30
0
41
1
10
4.01901120525287
20
-1.71143732410931
30
0
41
1
10
4.00377869011839
20
-1.75644564235805
30
0
41
1
10
3.9999996726261
20
-1.78969774461242
30
0
41
1
10
3.99999967262608
20
-1.8242747111214
30
0
0
SPLINE
5
C4
100
AcDbEntity
8
1
62
256
6
ByLayer
370
18
48
1
60
0
100
AcDbSpline
70
4
71
3
72
104
73
100
40
0
40
0
40
0
40
0
40
0.0129197925758159
40
0.0129197925758159
40
0.0320034239448558
40
0.0320034239448558
40
0.0510870553138957
40
0.0510870553138957
40
0.0701706866829357
40
0.0701706866829357
40
0.0892543180519756
40
0.0892543180519756
40
0.108337949421016
40
0.108337949421016
40
0.127421580790055
40
0.127421580790055
40
0.146505212159095
40
0.146505212159095
40
0.184672474897175
40
0.184672474897175
40
0.203756106266215
40
0.203756106266215
40
0.222839737635255
40
0.222839737635255
40
0.241923369004295
40
0.241923369004295
40
0.261007000373335
40
0.261007000373335
40
0.299174263111415
40
0.299174263111415
40
0.318257894480455
40
0.318257894480455
40
0.337341525849495
40
0.337341525849495
40
0.356425157218535
40
0.356425157218535
40
0.375508788587576
40
0.375508788587576
40
0.413676051325656
40
0.413676051325656
40
0.432759682694696
40
0.432759682694696
40
0.451843314063736
40
0.451843314063736
40
0.470926945432777
40
0.470926945432777
40
0.490010576801817
40
0.490010576801817
40
0.509094208170857
40
0.509094208170857
40
0.528177839539897
40
0.528177839539897
40
0.547261470908937
40
0.547261470908937
40
0.566345102277977
40
0.566345102277977
40
0.585428733647018
40
0.585428733647018
40
0.604512365016058
40
0.604512365016058
40
0.623595996385098
40
0.623595996385098
40
0.642679627754138
40
0.642679627754138
40
0.661763259123178
40
0.661763259123178
40
0.680846890492219
40
0.680846890492219
40
0.699930521861259
40
0.699930521861259
40
0.719014153230299
40
0.719014153230299
40
0.738097784599339
40
0.738097784599339
40
0.757181415968379
40
0.757181415968379
40
0.79534867870646
40
0.79534867870646
40
0.8144323100755
40
0.8144323100755
40
0.83351594144454
40
0.83351594144454
40
0.85259957281358
40
0.85259957281358
40
0.87168320418262
40
0.87168320418262
40
0.890766835551661
40
0.890766835551661
40
0.909850466920701
40
0.909850466920701
40
0.928934098289741
40
0.928934098289741
40
0.948017729658781
40
0.948017729658781
40
0.967101361027822
40
0.967101361027822
40
0.986184992396862
40
0.986184992396862
40
1
40
1
40
1
40
1
41
1
10
78.2426305988201
20
-6.46083880449879
30
0
41
1
10
78.0009795311277
20
-6.54758357552075
30
0
41
1
10
77.7592954273504
20
-6.63176016279172
30
0
41
1
10
77.1605485558084
20
-6.8344196417996
30
0
41
1
10
76.8035743299037
20
-6.95001657938926
30
0
41
1
10
76.0892335376053
20
-7.16952615128756
30
0
41
1
10
75.7311201812211
20
-7.27315215485396
30
0
41
1
10
75.0157715679111
20
-7.46673487515838
30
0
41
1
10
74.6584759773182
20
-7.55678281001002
30
0
41
1
10
73.9445388630114
20
-7.72213951200555
30
0
41
1
10
73.588085268882
20
-7.7974040851484
30
0
41
1
10
72.875075991716
20
-7.93345384490303
30
0
41
1
10
72.518280746633
20
-7.99504413765081
30
0
41
1
10
71.8040411676377
20
-8.10485199983873
30
0
41
1
10
71.446614742233
20
-8.15293523622006
30
0
41
1
10
70.7309726314018
20
-8.2338345779055
30
0
41
1
10
70.3734193148876
20
-8.26693214825914
30
0
41
1
10
69.3022280508144
20
-8.34492257135682
30
0
41
1
10
68.5885229856505
20
-8.36802530510866
30
0
41
1
10
67.517896987137
20
-8.35402376454834
30
0
41
1
10
67.1612906063517
20
-8.34254514337476
30
0
41
1
10
66.4469675970598
20
-8.30546233276931
30
0
41
1
10
66.0888794105992
20
-8.27970691656944
30
0
41
1
10
65.373247361466
20
-8.21235731915127
30
0
41
1
10
65.0158562480896
20
-8.17094267434078
30
0
41
1
10
64.301842638368
20
-8.07493393682091
30
0
41
1
10
63.9454741992768
20
-8.02002341877991
30
0
41
1
10
62.8755162937577
20
-7.83390773423318
30
0
41
1
10
62.1612289442993
20
-7.68013214360454
30
0
41
1
10
61.0883085194178
20
-7.4108137108866
30
0
41
1
10
60.7306846417121
20
-7.31404602244322
30
0
41
1
10
60.0162053081699
20
-7.10785346671656
30
0
41
1
10
59.6591291305319
20
-6.99822623668706
30
0
41
1
10
58.9451933268469
20
-6.7679042621694
30
0
41
1
10
58.5883236891564
20
-6.64703546144065
30
0
41
1
10
57.8749172671053
20
-6.3928701184594
30
0
41
1
10
57.5184342411632
20
-6.25933317930912
30
0
41
1
10
56.44680078893
20
-5.84280898862457
30
0
41
1
10
55.7295634062904
20
-5.5449546951015
30
0
41
1
10
54.6588685138028
20
-5.06827914849904
30
0
41
1
10
54.3024477549554
20
-4.90418120037887
30
0
41
1
10
53.5889303048822
20
-4.56974411512331
30
0
41
1
10
53.2320443381469
20
-4.39880378907282
30
0
41
1
10
52.5179296293773
20
-4.04869253606444
30
0
41
1
10
52.1606543892917
20
-3.86957322118298
30
0
41
1
10
51.4458486311945
20
-3.50318274456526
30
0
41
1
10
51.0879622835133
20
-3.3165987222369
30
0
41
1
10
50.3730126735802
20
-2.93964954401324
30
0
41
1
10
50.0158002979698
20
-2.74876929370021
30
0
41
1
10
49.3017856529161
20
-2.36228175454823
30
0
41
1
10
48.9449468422557
20
-2.16673353291924
30
0
41
1
10
48.2318418363314
20
-1.77132868897098
30
0
41
1
10
47.8751594999136
20
-1.57206212424597
30
0
41
1
10
47.1607207771017
20
-1.17137069036951
30
0
41
1
10
46.8029791222491
20
-0.969719795619142
30
0
41
1
10
46.0867175318784
20
-0.564439741995784
30
0
41
1
10
45.7291411760071
20
-0.361308503458361
30
0
41
1
10
45.0152124925963
20
0.0460431912969739
30
0
41
1
10
44.6583497751194
20
0.249368760133677
30
0
41
1
10
43.9444233264725
20
0.654461470368489
30
0
41
1
10
43.5873814312767
20
0.85630133710049
30
0
41
1
10
42.873125840422
20
1.2587121192368
30
0
41
1
10
42.5160305353207
20
1.45946712700112
30
0
41
1
10
41.8013995834655
20
1.85909156952144
30
0
41
1
10
41.4431001640449
20
2.05714803653049
30
0
41
1
10
40.7274949912841
20
2.44819202884887
30
0
41
1
10
40.3699722043851
20
2.64152122967133
30
0
41
1
10
39.6555186879725
20
3.02337637212895
30
0
41
1
10
39.2987877406386
20
3.21213762387822
30
0
41
1
10
38.5852359626987
20
3.58298656181614
30
0
41
1
10
38.2281506647594
20
3.76504335176657
30
0
41
1
10
37.5132962483322
20
4.12279083911037
30
0
41
1
10
37.1555521289561
20
4.2984244641309
30
0
41
1
10
36.4392526168313
20
4.64218526797532
30
0
41
1
10
36.0817304690023
20
4.80969148918933
30
0
41
1
10
35.0101178936203
20
5.29859031425713
30
0
41
1
10
34.2959252734216
20
5.60739050110624
30
0
41
1
10
33.2245841164045
20
6.03683889412565
30
0
41
1
10
32.8676930717418
20
6.17501497366487
30
0
41
1
10
32.1527801517116
20
6.44111156953244
30
0
41
1
10
31.7943845473321
20
6.56884330775154
30
0
41
1
10
31.0785157145951
20
6.81155511243625
30
0
41
1
10
30.7210152676403
20
6.92604498066203
30
0
41
1
10
30.0067421499004
20
7.14296605439529
30
0
41
1
10
29.6502031941338
20
7.24610974723055
30
0
41
1
10
28.9365222973272
20
7.43892829098101
30
0
41
1
10
28.5794641503254
20
7.52875363677961
30
0
41
1
10
27.8647383738186
20
7.69352758869604
30
0
41
1
10
27.5070372384886
20
7.76871903956399
30
0
41
1
10
26.7912044250372
20
7.90723884472999
30
0
41
1
10
26.4335317105152
20
7.97014301924023
30
0
41
1
10
25.7187827786026
20
8.08076572407342
30
0
41
1
10
25.3615792033425
20
8.12808663222711
30
0
41
1
10
24.6473416189219
20
8.20774952172411
30
0
41
1
10
24.29027721756
20
8.24095811147168
30
0
41
1
10
23.5764555356575
20
8.29323060366559
30
0
41
1
10
23.2197586017212
20
8.31224822129849
30
0
41
1
10
22.6035523890551
20
8.33120711706644
30
0
41
1
10
22.3442746594454
20
8.33499683697778
30
0
41
1
10
22.0850381714503
20
8.33505805084343
30
0
0
SPLINE
5
C5
100
AcDbEntity
8
1
62
256
6
ByLayer
370
18
48
1
60
0
100
AcDbSpline
70
4
71
3
72
8
73
4
40
0
40
0
40
0
40
0
40
1
40
1
40
1
40
1
41
1
10
3.99999967262608
20
-1.82427471112209
30
0
41
1
10
3.99999967262608
20
-1.87812213843262
30
0
41
1
10
3.99999967262608
20
-1.93158050605649
30
0
41
1
10
3.99999967262608
20
-1.98465000915456
30
0
0
SPLINE
5
C6
100
AcDbEntity
8
1
62
256
6
ByLayer
370
18
48
1
60
0
100
AcDbSpline
70
4
71
3
72
14
73
10
40
0
40
0
40
0
40
0
40
0.25
40
0.25
40
0.5
40
0.5
40
0.75
40
0.75
40
1
40
1
40
1
40
1
41
1
10
4.12247009621896
20
7.96495568192049
30
0
41
1
10
4.10372693763446
20
7.96941010770018
30
0
41
1
10
4.0868232289439
20
7.9747166911516
30
0
41
1
10
4.05658352679436
20
7.9869280830041
30
0
41
1
10
4.0433635484402
20
7.99384246039048
30
0
41
1
10
4.02210771968947
20
8.00846860863618
30
0
41
1
10
4.01378114427686
20
8.01639332757543
30
0
41
1
10
4.00279937445765
20
8.0324229026503
30
0
41
1
10
3.99999967262605
20
8.04055969131366
30
0
41
1
10
3.99999967262605
20
8.04881591804985
30
0
0
SPLINE
5
C7
100
AcDbEntity
8
1
62
256
6
ByLayer
370
18
48
1
60
0
100
AcDbSpline
70
4
71
3
72
20
73
16
40
0
40
0
40
0
40
0
40
0.25
40
0.25
40
0.375
40
0.375
40
0.5
40
0.5
40
0.625
40
0.625
40
0.75
40
0.75
40
0.875
40
0.875
40
1
40
1
40
1
40
1
41
1
10
93.6352517148155
20
-4.24516042576511
30
0
41
1
10
93.4999939687712
20
-4.60894701756311
30
0
41
1
10
93.3646200093685
20
-4.97237188352403
30
0
41
1
10
93.1613685134726
20
-5.51605978848676
30
0
41
1
10
93.0935762125193
20
-5.69702046779426
30
0
41
1
10
92.9579914450615
20
-6.05894076257505
30
0
41
1
10
92.8901892559551
20
-6.23983790046279
30
0
41
1
10
92.7545467297904
20
-6.60138703692243
30
0
41
1
10
92.6867042024021
20
-6.7820529124227
30
0
41
1
10
92.5510185558038
20
-7.14266935061258
30
0
41
1
10
92.4831667972578
20
-7.32248452633351
30
0
41
1
10
92.3474528036429
20
-7.68153678743278
30
0
41
1
10
92.2795948832774
20
-7.86101195641425
30
0
41
1
10
92.1438655536992
20
-8.21921798515123
30
0
41
1
10
92.0759944814843
20
-8.39796744031287
30
0
41
1
10
92.00810284061
20
-8.57558192503797
30
0
0
SPLINE
5
C8
100
AcDbEntity
8
1
62
256
6
ByLayer
370
18
48
1
60
0
100
AcDbSpline
70
4
71
3
72
16
73
12
40
0
40
0
40
0
40
0
40
0.21443755923797
40
0.21443755923797
40
0.37531358189469
40
0.37531358189469
40
0.53618960455141
40
0.53618960455141
40
0.85794164986485
40
0.85794164986485
40
1
40
1
40
1
40
1
41
1
10
44.4765627633643
20
-8.34611075568404
30
0
41
1
10
43.8665972467688
20
-8.34852873999742
30
0
41
1
10
43.2564619062745
20
-8.32932754784625
30
0
41
1
10
42.1863761607151
20
-8.2577940749523
30
0
41
1
10
41.7264376417529
20
-8.21482854495622
30
0
41
1
10
40.8060771269664
20
-8.10483587934243
30
0
41
1
10
40.3476235404117
20
-8.038025623858
30
0
41
1
10
38.9759605126631
20
-7.80337422481128
30
0
41
1
10
38.0663371262156
20
-7.60149910937398
30
0
41
1
10
36.7567747414225
20
-7.24992534374763
30
0
41
1
10
36.35588041424
20
-7.13405790423707
30
0
41
1
10
35.954863910322
20
-7.0103141883387
30
0
0
SPLINE
5
C9
100
AcDbEntity
8
1
62
256
6
ByLayer
370
13
48
1
60
0
100
AcDbSpline
70
4
71
3
72
24
73
20
40
0
40
0
40
0
40
0
40
0.224017349764881
40
0.224017349764881
40
0.259952456214833
40
0.259952456214833
40
0.295887562664786
40
0.295887562664786
40
0.367757775564692
40
0.367757775564692
40
0.511498201364502
40
0.511498201364502
40
0.655238627164313
40
0.655238627164313
40
0.727108840064218
40
0.727108840064218
40
0.798979052964122
40
0.798979052964122
40
1
40
1
40
1
40
1
41
1
10
35.9548648658768
20
-7.01031448319915
30
0
41
1
10
34.5393334119631
20
-6.5735167386157
30
0
41
1
10
33.122279651391
20
-6.03858137506901
30
0
41
1
10
31.4594228829674
20
-5.31973912150494
30
0
41
1
10
31.228923093827
20
-5.21810236116676
30
0
41
1
10
30.7692006486307
20
-5.01165391565306
30
0
41
1
10
30.5397453696921
20
-4.90674532757566
30
0
41
1
10
29.8524545071414
20
-4.58720834730229
30
0
41
1
10
29.3956915162364
20
-4.36777473640538
30
0
41
1
10
28.0280307678186
20
-3.69294452269961
30
0
41
1
10
27.1198072146018
20
-3.22099002043348
30
0
41
1
10
25.3028614829829
20
-2.24578779493322
30
0
41
1
10
24.3943174015018
20
-1.74228555732171
30
0
41
1
10
23.0253866198451
20
-0.973276245842783
30
0
41
1
10
22.5680634305057
20
-0.714640277554167
30
0
41
1
10
21.6505402049255
20
-0.194240441682609
30
0
41
1
10
21.1892293361092
20
0.0680996479112821
30
0
41
1
10
19.4455345729263
20
1.05745952617613
30
0
41
1
10
18.173015277836
20
1.77527853822383
30
0
41
1
10
16.9019436902802
20
2.46430532572012
30
0
0
SPLINE
5
CA
100
AcDbEntity
8
1
62
256
6
ByLayer
370
18
48
1
60
0
100
AcDbSpline
70
4
71
3
72
12
73
8
40
0
40
0
40
0
40
0
40
0.136359935246398
40
0.136359935246398
40
0.456819768194268
40
0.456819768194268
40
1
40
1
40
1
40
1
41
1
10
90.4516212666923
20
-8.37422099868598
30
0
41
1
10
90.0602031120994
20
-8.3738781453406
30
0
41
1
10
89.668427659189
20
-8.36456269382177
30
0
41
1
10
88.36027167149
20
-8.30373148310682
30
0
41
1
10
87.4488297661956
20
-8.21242997998559
30
0
41
1
10
84.998986259124
20
-7.84232649224839
30
0
41
1
10
83.4648091304456
20
-7.47693624497364
30
0
41
1
10
81.9188383418058
20
-6.99155678139829
30
0
0
SPLINE
5
CB
100
AcDbEntity
8
1
62
256
6
ByLayer
370
13
48
1
60
0
100
AcDbSpline
70
4
71
3
72
26
73
22
40
0
40
0
40
0
40
0
40
0.0434129842158894
40
0.0434129842158894
40
0.114582322847373
40
0.114582322847373
40
0.185751661478856
40
0.185751661478856
40
0.328090338741822
40
0.328090338741822
40
0.399259677373306
40
0.399259677373306
40
0.47042901600479
40
0.47042901600479
40
0.61276769326776
40
0.61276769326776
40
0.755106370530729
40
0.755106370530729
40
0.897445047793698
40
0.897445047793698
40
1
40
1
40
1
40
1
41
1
10
81.9188392958831
20
-6.99155708094446
30
0
41
1
10
81.6406581813567
20
-6.90421818176946
30
0
41
1
10
81.3620952094548
20
-6.81299424749071
30
0
41
1
10
80.625577112946
20
-6.56216198232156
30
0
41
1
10
80.1662699684376
20
-6.39588174617708
30
0
41
1
10
79.2463988678692
20
-6.04454760356538
30
0
41
1
10
78.7872264311672
20
-5.86010279287521
30
0
41
1
10
77.410803957755
20
-5.28216598408952
30
0
41
1
10
76.4944571580964
20
-4.86411756434535
30
0
41
1
10
75.1157466612129
20
-4.19649916770101
30
0
41
1
10
74.6551889932005
20
-3.96704488172472
30
0
41
1
10
73.7364204938014
20
-3.49822610103067
30
0
41
1
10
73.2776390948742
20
-3.25862784141182
30
0
41
1
10
71.9017666604246
20
-2.52658726849509
30
0
41
1
10
70.9847371278596
20
-2.02146320633329
30
0
41
1
10
69.1438545926527
20
-0.989246475070729
30
0
41
1
10
68.2300109131448
20
-0.468550655365078
30
0
41
1
10
66.4088919126423
20
0.569488014780404
30
0
41
1
10
65.5010862039337
20
1.08598659749856
30
0
41
1
10
63.938073222626
20
1.96000589668537
30
0
41
1
10
63.2830214347595
20
2.32130258274768
30
0
41
1
10
62.6261559603221
20
2.67558061312312
30
0
0
SPLINE
5
CC
100
AcDbEntity
8
1
62
256
6
ByLayer
370
13
48
1
60
0
100
AcDbSpline
70
4
71
3
72
32
73
28
40
0
40
0
40
0
40
0
40
0.0258813936673376
40
0.0258813936673376
40
0.188234494722782
40
0.188234494722782
40
0.269411045250504
40
0.269411045250504
40
0.350587595778226
40
0.350587595778226
40
0.431764146305948
40
0.431764146305948
40
0.51294069683367
40
0.51294069683367
40
0.675293797889114
40
0.675293797889114
40
0.715882073152974
40
0.715882073152974
40
0.756470348416835
40
0.756470348416835
40
0.837646898944557
40
0.837646898944557
40
0.918823449472279
40
0.918823449472279
40
0.959411724736139
40
0.959411724736139
40
1
40
1
40
1
40
1
41
1
10
4.25057067013424
20
-8.32279611866741
30
0
41
1
10
4.25057765262247
20
-8.32277619734347
30
0
41
1
10
4.25058452059673
20
-8.32102641157874
30
0
41
1
10
4.25063376940543
20
-8.29588808518093
30
0
41
1
10
4.25067255234646
20
-8.20780510729179
30
0
41
1
10
4.25073042239222
20
-7.97534773806464
30
0
41
1
10
4.25074968872028
20
-7.8805740796488
30
0
41
1
10
4.25078802694514
20
-7.66002382440553
30
0
41
1
10
4.25080719281266
20
-7.53392226042521
30
0
41
1
10
4.25084591171122
20
-7.25014903849592
30
0
41
1
10
4.25086529774867
20
-7.09372271910828
30
0
41
1
10
4.25090434242932
20
-6.75207956919112
30
0
41
1
10
4.25092408654606
20
-6.56592761217618
30
0
41
1
10
4.25098271620161
20
-5.97357691191505
30
0
41
1
10
4.25102131280286
20
-5.53263911721172
30
0
41
1
10
4.25106715107898
20
-4.92431911186404
30
0
41
1
10
4.25107618899406
20
-4.79976525451917
30
0
41
1
10
4.25109392028239
20
-4.54475383277375
30
0
41
1
10
4.25110259612418
20
-4.41450506252525
30
0
41
1
10
4.25112765207049
20
-4.01973300450055
30
0
41
1
10
4.25114317349107
20
-3.74969518864333
30
0
41
1
10
4.25117108609754
20
-3.19622967637963
30
0
41
1
10
4.25118347889867
20
-2.91280151947961
30
0
41
1
10
4.25119897745088
20
-2.47748929870519
30
0
41
1
10
4.25120362660923
20
-2.33068645769095
30
0
41
1
10
4.25121173992167
20
-2.03361422978006
30
0
41
1
10
4.25121520080782
20
-1.88323741130893
30
0
41
1
10
4.25121795781476
20
-1.73302228938857
30
0
0
SPLINE
5
CD
100
AcDbEntity
8
1
62
256
6
ByLayer
370
18
48
1
60
0
100
AcDbSpline
70
4
71
3
72
40
73
36
40
0
40
0
40
0
40
0
40
0.060150369699047
40
0.060150369699047
40
0.120300739398094
40
0.120300739398094
40
0.180451109097141
40
0.180451109097141
40
0.240601478796188
40
0.240601478796188
40
0.300751848495235
40
0.300751848495235
40
0.360902218194282
40
0.360902218194282
40
0.421052587893329
40
0.421052587893329
40
0.481202957592376
40
0.481202957592376
40
0.541353327291423
40
0.541353327291423
40
0.60150369699047
40
0.60150369699047
40
0.661654066689517
40
0.661654066689517
40
0.721804436388564
40
0.721804436388564
40
0.781954806087611
40
0.781954806087611
40
0.842105175786658
40
0.842105175786658
40
0.902255545485705
40
0.902255545485705
40
0.962405915184752
40
0.962405915184752
40
1
40
1
40
1
40
1
41
1
10
14.309229716909
20
-7.20027502373381
30
0
41
1
10
14.6672821501752
20
-7.3028424050618
30
0
41
1
10
15.02503659216
20
-7.39880007716289
30
0
41
1
10
15.7398396684521
20
-7.57668607109238
30
0
41
1
10
16.0968766355929
20
-7.65865384355439
30
0
41
1
10
16.8105536990846
20
-7.80938432725213
30
0
41
1
10
17.167094277847
20
-7.8783430630954
30
0
41
1
10
17.8806563636188
20
-8.00211794360268
30
0
41
1
10
18.2379206945952
20
-8.056664487213
30
0
41
1
10
18.9532351416768
20
-8.15109917657443
30
0
41
1
10
19.3116578485733
20
-8.19114833475217
30
0
41
1
10
20.0271306542621
20
-8.25726340889378
30
0
41
1
10
20.3840598078594
20
-8.28326320303952
30
0
41
1
10
21.0979261978847
20
-8.31980524674032
30
0
41
1
10
21.454926724472
20
-8.33032697704564
30
0
41
1
10
22.1689151462186
20
-8.33719579734179
30
0
41
1
10
22.5259209306404
20
-8.33389522420453
30
0
41
1
10
23.2400342956557
20
-8.3113069248061
30
0
41
1
10
23.5969882350739
20
-8.2920035126478
30
0
41
1
10
24.3125267523164
20
-8.23903525269196
30
0
41
1
10
24.6708175770861
20
-8.20543364177504
30
0
41
1
10
25.3859956874966
20
-8.12503987020534
30
0
41
1
10
25.7431781746463
20
-8.07731057864746
30
0
41
1
10
26.4568540130114
20
-7.96619063704946
30
0
41
1
10
26.813236545752
20
-7.9032163476831
30
0
41
1
10
27.5269969318798
20
-7.76460115264288
30
0
41
1
10
27.8841669678404
20
-7.689315461419
30
0
41
1
10
28.5990783295127
20
-7.5239497984702
30
0
41
1
10
28.9571176564727
20
-7.43362618038768
30
0
41
1
10
29.6727897321968
20
-7.23972887973716
30
0
41
1
10
30.0298620400737
20
-7.13617813258779
30
0
41
1
10
30.744337403498
20
-6.91871303550946
30
0
41
1
10
31.1014580741024
20
-6.80402469757504
30
0
41
1
10
31.6816143949641
20
-6.60690958309846
30
0
41
1
10
31.9047220015949
20
-6.52870115158484
30
0
41
1
10
32.1278092905527
20
-6.44822470650504
30
0
0
SPLINE
5
CE
100
AcDbEntity
8
1
62
256
6
ByLayer
370
18
48
1
60
0
100
AcDbSpline
70
4
71
3
72
30
73
26
40
0
40
0
40
0
40
0
40
0.0587911203604327
40
0.0587911203604327
40
0.13119180340963
40
0.13119180340963
40
0.203592486458829
40
0.203592486458829
40
0.275993169508026
40
0.275993169508026
40
0.348393852557224
40
0.348393852557224
40
0.420794535606422
40
0.420794535606422
40
0.565595901704815
40
0.565595901704815
40
0.637996584754011
40
0.637996584754011
40
0.710397267803208
40
0.710397267803208
40
0.782797950852405
40
0.782797950852405
40
0.855198633901602
40
0.855198633901602
40
1
40
1
40
1
40
1
41
1
10
68.0869370375466
20
8.36054114605273
30
0
41
1
10
68.3773625111851
20
8.3617976443918
30
0
41
1
10
68.6681777236707
20
8.35781339801528
30
0
41
1
10
69.3161215472603
20
8.33709504519152
30
0
41
1
10
69.6731957129363
20
8.31809217234724
30
0
41
1
10
70.3865048036984
20
8.26579382490618
30
0
41
1
10
70.7428661281842
20
8.23263955908308
30
0
41
1
10
71.4563518350449
20
8.15168043770342
30
0
41
1
10
71.813248074413
20
8.10355230197573
30
0
41
1
10
72.5274126755363
20
7.99352139344614
30
0
41
1
10
72.8846512712311
20
7.93175614200564
30
0
41
1
10
73.5994827767495
20
7.79509610952738
30
0
41
1
10
73.9568795235797
20
7.71944581543258
30
0
41
1
10
75.0280025997303
20
7.47085801434829
30
0
41
1
10
75.7410279420752
20
7.2766968617585
30
0
41
1
10
76.8099320056126
20
6.94797626818973
30
0
41
1
10
77.1665478387827
20
6.83245002542424
30
0
41
1
10
77.8808233871058
20
6.59056423581657
30
0
41
1
10
78.238684292856
20
6.46418794172476
30
0
41
1
10
78.9535056217543
20
6.19999715500413
30
0
41
1
10
79.3102288335139
20
6.06196988212395
30
0
41
1
10
80.0227501163438
20
5.77422634105491
30
0
41
1
10
80.3790704448955
20
5.62528834549383
30
0
41
1
10
81.4483252048769
20
5.16445953952123
30
0
41
1
10
82.161210111829
20
4.83793434298846
30
0
41
1
10
82.8751308754266
20
4.49372509776606
30
0
0
SPLINE
5
CF
100
AcDbEntity
8
1
62
256
6
ByLayer
370
18
48
1
60
0
100
AcDbSpline
70
4
71
3
72
22
73
18
40
0
40
0
40
0
40
0
40
0.009636107024837
40
0.009636107024837
40
0.226178396108057
40
0.226178396108057
40
0.442720685191278
40
0.442720685191278
40
0.550991829732887
40
0.550991829732887
40
0.659262974274497
40
0.659262974274497
40
0.875805263357715
40
0.875805263357715
40
0.984076407899324
40
0.984076407899324
40
1
40
1
40
1
40
1
41
1
10
67.1661650738134
20
0.0240314327076305
30
0
41
1
10
67.2066848677811
20
0.0006620024427377
30
0
41
1
10
67.2472099580856
20
-0.0227119814003061
30
0
41
1
10
68.1985450952956
20
-0.571439770370205
30
0
41
1
10
69.1128720508921
20
-1.09805298296152
30
0
41
1
10
70.9544383911989
20
-2.14065814960105
30
0
41
1
10
71.8717814914498
20
-2.65024017685826
30
0
41
1
10
73.2481433403691
20
-3.38791525304157
30
0
41
1
10
73.7070932701903
20
-3.62920851195992
30
0
41
1
10
74.6262602746208
20
-4.10100917518889
30
0
41
1
10
75.0870387911729
20
-4.33175000035544
30
0
41
1
10
76.4662578327667
20
-5.00255843914982
30
0
41
1
10
77.3829176977695
20
-5.42192817252848
30
0
41
1
10
78.7598559131339
20
-6.0006373093116
30
0
41
1
10
79.2192158505993
20
-6.18512377190663
30
0
41
1
10
79.7470438559745
20
-6.38643319783478
30
0
41
1
10
79.814702443869
20
-6.41203495706293
30
0
41
1
10
79.8823410063901
20
-6.43742444042653
30
0
0
SPLINE
5
D0
100
AcDbEntity
8
1
62
256
6
ByLayer
370
13
48
1
60
0
100
AcDbSpline
70
4
71
3
72
18
73
14
40
0
40
0
40
0
40
0
40
0.0963442978745386
40
0.0963442978745386
40
0.548172148937264
40
0.548172148937264
40
0.77408607446863
40
0.77408607446863
40
0.887043037234312
40
0.887043037234312
40
0.943521518617157
40
0.943521518617157
40
1
40
1
40
1
40
1
41
1
10
79.8823400634529
20
-6.43742408647631
30
0
41
1
10
80.2746046154536
20
-6.58466842006976
30
0
41
1
10
80.6661956487266
20
-6.72477321788151
30
0
41
1
10
82.8867461191119
20
-7.47775096570936
30
0
41
1
10
84.6957189711967
20
-7.93119598591719
30
0
41
1
10
87.4234726863738
20
-8.33011327433496
30
0
41
1
10
88.3352389543809
20
-8.41631303823431
30
0
41
1
10
89.7124499638153
20
-8.47163144815167
30
0
41
1
10
90.1732734507837
20
-8.47767809031834
30
0
41
1
10
90.8631191152479
20
-8.46789466163716
30
0
41
1
10
91.0930218179303
20
-8.46150327959217
30
0
41
1
10
91.5528493340994
20
-8.44246418104777
30
0
41
1
10
91.7827875079188
20
-8.42937969233668
30
0
41
1
10
92.0127630352331
20
-8.41410061469827
30
0
0
SPLINE
5
D1
100
AcDbEntity
8
1
62
256
6
ByLayer
370
18
48
1
60
0
100
AcDbSpline
70
4
71
3
72
28
73
24
40
0
40
0
40
0
40
0
40
0.24999999999998
40
0.24999999999998
40
0.374999999999981
40
0.374999999999981
40
0.499999999999981
40
0.499999999999981
40
0.624999999999982
40
0.624999999999982
40
0.687499999999983
40
0.687499999999983
40
0.749999999999983
40
0.749999999999983
40
0.812499999999984
40
0.812499999999984
40
0.843749999999984
40
0.843749999999984
40
0.874999999999984
40
0.874999999999984
40
0.937499999999992
40
0.937499999999992
40
1
40
1
40
1
40
1
41
1
10
90.9043404129115
20
2.45223179602107
30
0
41
1
10
91.2011209476807
20
2.50537129851094
30
0
41
1
10
91.4959905773998
20
2.56664779236962
30
0
41
1
10
91.9326593828101
20
2.68012438136708
30
0
41
1
10
92.0775285635167
20
2.72169595392398
30
0
41
1
10
92.3627254405727
20
2.81477391172126
30
0
41
1
10
92.5031945754794
20
2.86623293126272
30
0
41
1
10
92.7777264998873
20
2.98420061976637
30
0
41
1
10
92.9121387634424
20
3.05063832022313
30
0
41
1
10
93.1047792594599
20
3.16935234265836
30
0
41
1
10
93.1668572737963
20
3.21179147025634
30
0
41
1
10
93.2852974799977
20
3.30440776147685
30
0
41
1
10
93.3420617836489
20
3.35501246901265
30
0
41
1
10
93.4449008255424
20
3.46440656381662
30
0
41
1
10
93.491118960837
20
3.52316750742062
30
0
41
1
10
93.550074155203
20
3.61947648315447
30
0
41
1
10
93.5681002644495
20
3.6532254179096
30
0
41
1
10
93.5994122800925
20
3.72248296806254
30
0
41
1
10
93.6126848376809
20
3.75786551492615
30
0
41
1
10
93.6451356202539
20
3.86635215739869
30
0
41
1
10
93.6568167002155
20
3.94294932913715
30
0
41
1
10
93.6597495514011
20
4.0946038587509
30
0
41
1
10
93.651368146173
20
4.17064939489291
30
0
41
1
10
93.6352517148153
20
4.24516042576508
30
0
0
SPLINE
5
D2
100
AcDbEntity
8
1
62
256
6
ByLayer
370
18
48
1
60
0
100
AcDbSpline
70
4
71
3
72
12
73
8
40
0
40
0
40
0
40
0
40
0.249999999999987
40
0.249999999999987
40
0.499999999999973
40
0.499999999999973
40
1
40
1
40
1
40
1
41
1
10
92.0127630352325
20
-8.4141006146983
30
0
41
1
10
92.0176519732231
20
-8.40092687595066
30
0
41
1
10
92.0224090060142
20
-8.38747192925698
30
0
41
1
10
92.0304394938187
20
-8.36318160477566
30
0
41
1
10
92.033697584108
20
-8.35236900864228
30
0
41
1
10
92.0399361303165
20
-8.32824577639985
30
0
41
1
10
92.0394236429176
20
-8.32362750778026
30
0
41
1
10
92.0362630777255
20
-8.32662565775752
30
0
0
SPLINE
5
D3
100
AcDbEntity
8
1
62
256
6
ByLayer
370
18
48
1
60
0
100
AcDbSpline
70
4
71
3
72
44
73
40
40
0
40
0
40
0
40
0
40
0.124999999999999
40
0.124999999999999
40
0.249999999999998
40
0.249999999999998
40
0.374999999999998
40
0.374999999999998
40
0.499999999999997
40
0.499999999999997
40
0.624999999999996
40
0.624999999999996
40
0.687499999999992
40
0.687499999999992
40
0.749999999999989
40
0.749999999999989
40
0.765624999999989
40
0.765624999999989
40
0.78124999999999
40
0.78124999999999
40
0.812499999999991
40
0.812499999999991
40
0.828124999999992
40
0.828124999999992
40
0.843749999999992
40
0.843749999999992
40
0.859374999999993
40
0.859374999999993
40
0.874999999999994
40
0.874999999999994
40
0.906249999999995
40
0.906249999999995
40
0.937499999999997
40
0.937499999999997
40
0.953124999999997
40
0.953124999999997
40
0.968749999999998
40
0.968749999999998
40
1
40
1
40
1
40
1
41
1
10
82.8751308754268
20
4.49372509776592
30
0
41
1
10
83.2207842541094
20
4.19895843670295
30
0
41
1
10
83.5734676561467
20
3.9153871654388
30
0
41
1
10
84.2900167845867
20
3.37748626292165
30
0
41
1
10
84.6543431775381
20
3.12262146331693
30
0
41
1
10
85.3934375613103
20
2.64538319025687
30
0
41
1
10
85.7682497528102
20
2.42298753881002
30
0
41
1
10
86.5228827745581
20
2.01713620837771
30
0
41
1
10
86.9031182327846
20
1.83333370257304
30
0
41
1
10
87.6674424620469
20
1.50974352704824
30
0
41
1
10
88.0481864562112
20
1.37132368732898
30
0
41
1
10
88.6168999953604
20
1.20329416974985
30
0
41
1
10
88.8060689737061
20
1.15391392023031
30
0
41
1
10
89.1835268166254
20
1.06966056512394
30
0
41
1
10
89.3723941411776
20
1.03471620235476
30
0
41
1
10
89.6057492932282
20
1.00142281327203
30
0
41
1
10
89.6523441673509
20
0.995045621385913
30
0
41
1
10
89.7447707781191
20
0.985111916904856
30
0
41
1
10
89.7906707512249
20
0.981303191338611
30
0
41
1
10
89.9272798115254
20
0.973909005638745
30
0
41
1
10
90.0169405355251
20
0.974198465085436
30
0
41
1
10
90.1481462652808
20
0.986775861211271
30
0
41
1
10
90.1913078362536
20
0.993447784459562
30
0
41
1
10
90.2747811003663
20
1.01142058039127
30
0
41
1
10
90.3153442246011
20
1.02258542282871
30
0
41
1
10
90.3939327100413
20
1.0496260910829
30
0
41
1
10
90.4319658211799
20
1.0654875302898
30
0
41
1
10
90.5050241727549
20
1.10279407775346
30
0
41
1
10
90.5398806841818
20
1.12422454801796
30
0
41
1
10
90.636399021178
20
1.19661411030495
30
0
41
1
10
90.6909550776227
20
1.25597245850162
30
0
41
1
10
90.7748864310458
20
1.40323730751177
30
0
41
1
10
90.8016752328638
20
1.48721868418002
30
0
41
1
10
90.8182190091932
20
1.6268951100779
30
0
41
1
10
90.8200193780973
20
1.67603469575218
30
0
41
1
10
90.8176470691705
20
1.77506424588458
30
0
41
1
10
90.8134727548472
20
1.82528495631186
30
0
41
1
10
90.7932627640712
20
1.97776310786148
30
0
41
1
10
90.7693891961002
20
2.08242832026892
30
0
41
1
10
90.7382025521811
20
2.18726207266391
30
0
0
SPLINE
5
D4
100
AcDbEntity
8
1
62
256
6
ByLayer
370
18
48
1
60
0
100
AcDbSpline
70
4
71
3
72
8
73
4
40
0
40
0
40
0
40
0
40
1
40
1
40
1
40
1
41
1
10
91.908497699299
20
-8.69464128181454
30
0
41
1
10
91.9432740978604
20
-8.60120785382773
30
0
41
1
10
91.9780292296909
20
-8.50769437285265
30
0
41
1
10
92.0127630352325
20
-8.41410061469816
30
0
0
SPLINE
5
D5
100
AcDbEntity
8
1
62
256
6
ByLayer
370
18
48
1
60
0
100
AcDbSpline
70
4
71
3
72
24
73
20
40
0
40
0
40
0
40
0
40
0.125000000000001
40
0.125000000000001
40
0.250000000000001
40
0.250000000000001
40
0.375000000000002
40
0.375000000000002
40
0.500000000000002
40
0.500000000000002
40
0.625000000000003
40
0.625000000000003
40
0.687500000000002
40
0.687500000000002
40
0.750000000000002
40
0.750000000000002
40
0.875000000000001
40
0.875000000000001
40
1
40
1
40
1
40
1
41
1
10
14.3092353350193
20
-7.20027173489191
30
0
41
1
10
13.862630136661
20
-7.07298451464271
30
0
41
1
10
13.4186795316259
20
-6.93408222067075
30
0
41
1
10
12.5386580867222
20
-6.63314697521849
30
0
41
1
10
12.1020358925309
20
-6.47047025052231
30
0
41
1
10
11.2339825718254
20
-6.12293618227011
30
0
41
1
10
10.8025528475823
20
-5.93810748321323
30
0
41
1
10
9.94427132825015
20
-5.5448525556009
30
0
41
1
10
9.51744433383419
20
-5.33614772741575
30
0
41
1
10
8.66826754074776
20
-4.89412799624648
30
0
41
1
10
8.24587160302718
20
-4.66118520675707
30
0
41
1
10
7.61631602410125
20
-4.29060935152432
30
0
41
1
10
7.40714647224175
20
-4.16352768416368
30
0
41
1
10
6.99043133130874
20
-3.90133780369425
30
0
41
1
10
6.78249840536176
20
-3.7659629314214
30
0
41
1
10
6.16595530336551
20
-3.34885154655112
30
0
41
1
10
5.76375368474291
20
-3.05601886413621
30
0
41
1
10
4.98471911357859
20
-2.43000038191113
30
0
41
1
10
4.60757095293846
20
-2.09726391015533
30
0
41
1
10
4.25121795781456
20
-1.73302228892606
30
0
0
SPLINE
5
D6
100
AcDbEntity
8
1
62
256
6
ByLayer
370
18
48
1
60
0
100
AcDbSpline
70
4
71
3
72
40
73
36
40
0
40
0
40
0
40
0
40
0.107758593230426
40
0.107758593230426
40
0.161637889845638
40
0.161637889845638
40
0.21551718646085
40
0.21551718646085
40
0.269396483076062
40
0.269396483076062
40
0.323275779691274
40
0.323275779691274
40
0.431034372921698
40
0.431034372921698
40
0.48491366953691
40
0.48491366953691
40
0.538792966152121
40
0.538792966152121
40
0.592672262767332
40
0.592672262767332
40
0.646551559382543
40
0.646551559382543
40
0.700430855997755
40
0.700430855997755
40
0.754310152612966
40
0.754310152612966
40
0.808189449228177
40
0.808189449228177
40
0.862068745843389
40
0.862068745843389
40
0.9159480424586
40
0.9159480424586
40
0.969827339073811
40
0.969827339073811
40
1
40
1
40
1
40
1
41
1
10
22.9190992892977
20
-1.7735269823979
30
0
41
1
10
23.6395566296513
20
-2.19511339427692
30
0
41
1
10
24.360527136402
20
-2.60433187871604
30
0
41
1
10
25.4398982329594
20
-3.20477321807243
30
0
41
1
10
25.7991440002491
20
-3.40296810408864
30
0
41
1
10
26.5176786839561
20
-3.79358377050494
30
0
41
1
10
26.8778145136019
20
-3.9847098474693
30
0
41
1
10
27.5992086977621
20
-4.3596089929454
30
0
41
1
10
27.9606861998474
20
-4.54346814920203
30
0
41
1
10
28.6814908036439
20
-4.90284570330411
30
0
41
1
10
29.0407849540872
20
-5.07902758911905
30
0
41
1
10
30.1187658008612
20
-5.5921903669051
30
0
41
1
10
30.8391266790456
20
-5.9119661093487
30
0
41
1
10
31.9193170464407
20
-6.36203044536796
30
0
41
1
10
32.2791536850344
20
-6.50758454000163
30
0
41
1
10
33.0000494164198
20
-6.78546337817372
30
0
41
1
10
33.3605193611489
20
-6.91756342293928
30
0
41
1
10
34.0809168861435
20
-7.16897293423608
30
0
41
1
10
34.4408653615049
20
-7.28825717189775
30
0
41
1
10
35.159886216146
20
-7.51424976676643
30
0
41
1
10
35.5185693520705
20
-7.62123622325009
30
0
41
1
10
36.237842655902
20
-7.82014939102515
30
0
41
1
10
36.5981902789696
20
-7.91233948974926
30
0
41
1
10
37.3197764606008
20
-8.08264017636924
30
0
41
1
10
37.6809809902995
20
-8.16070770925776
30
0
41
1
10
38.4009530635815
20
-8.3021562168712
30
0
41
1
10
38.7598412006652
20
-8.36568970650504
30
0
41
1
10
39.4790042692259
20
-8.47670091829369
30
0
41
1
10
39.8388632726362
20
-8.52444246264997
30
0
41
1
10
40.5586638423896
20
-8.60469773524656
30
0
41
1
10
40.918614347258
20
-8.63720685393494
30
0
41
1
10
41.638249319715
20
-8.68680929926245
30
0
41
1
10
41.9982708952491
20
-8.70383781835395
30
0
41
1
10
42.5607265352035
20
-8.71789518037795
30
0
41
1
10
42.7625863652226
20
-8.72048356499997
30
0
41
1
10
42.9643633036331
20
-8.72061065562812
30
0
0
SPLINE
5
D7
100
AcDbEntity
8
1
62
256
6
ByLayer
370
18
48
1
60
0
100
AcDbSpline
70
4
71
3
72
30
73
26
40
0
40
0
40
0
40
0
40
0.0594138446650978
40
0.0594138446650978
40
0.137796024276341
40
0.137796024276341
40
0.216178203887584
40
0.216178203887584
40
0.294560383498827
40
0.294560383498827
40
0.37294256311007
40
0.37294256311007
40
0.451324742721313
40
0.451324742721313
40
0.529706922332556
40
0.529706922332556
40
0.686471281555038
40
0.686471281555038
40
0.764853461166278
40
0.764853461166278
40
0.843235640777519
40
0.843235640777519
40
0.92161782038876
40
0.92161782038876
40
1
40
1
40
1
40
1
41
1
10
78.2421008287476
20
6.46643105122376
30
0
41
1
10
78.5145602267687
20
6.57557876409689
30
0
41
1
10
78.7868993307269
20
6.6815806952219
30
0
41
1
10
79.4180661178326
20
6.92028932268695
30
0
41
1
10
79.7776154374204
20
7.04973435066398
30
0
41
1
10
80.4986633291647
20
7.29515023843132
30
0
41
1
10
80.8595244107097
20
7.41122432245555
30
0
41
1
10
81.5794789757426
20
7.62987263242923
30
0
41
1
10
81.9387807953609
20
7.73262028371238
30
0
41
1
10
82.6562800064162
20
7.92455672438609
30
0
41
1
10
83.0154616911044
20
8.01301146200467
30
0
41
1
10
83.7346595504426
20
8.17517827749694
30
0
41
1
10
84.0945830386186
20
8.24895629235681
30
0
41
1
10
84.8146916405917
20
8.38202718234351
30
0
41
1
10
85.1750246660322
20
8.44144942094644
30
0
41
1
10
86.2537868580632
20
8.59642608634422
30
0
41
1
10
86.9737735330413
20
8.6678530291145
30
0
41
1
10
88.0521022613081
20
8.72892802895475
30
0
41
1
10
88.4109422434478
20
8.74154487632615
30
0
41
1
10
89.1296000836035
20
8.75084821584022
30
0
41
1
10
89.490137743707
20
8.74756889424597
30
0
41
1
10
90.2113630744802
20
8.72532520153518
30
0
41
1
10
90.571537464292
20
8.70638515025189
30
0
41
1
10
91.2906328365043
20
8.65280671044013
30
0
41
1
10
91.6491281484578
20
8.61800749800753
30
0
41
1
10
92.0081028405978
20
8.57558192503879
30
0
0
SPLINE
5
D8
100
AcDbEntity
8
SK1
62
256
6
ByLayer
370
18
48
1
60
0
100
AcDbSpline
70
4
71
3
72
14
73
10
40
0
40
0
40
0
40
0
40
0.499999999999993
40
0.499999999999993
40
0.749999999999994
40
0.749999999999994
40
0.874999999999997
40
0.874999999999997
40
1
40
1
40
1
40
1
41
1
10
-45.6
20
-8.18604285624195
30
0
41
1
10
-45.5789465118595
20
-8.21807646386119
30
0
41
1
10
-45.5585985142981
20
-8.24705233468424
30
0
41
1
10
-45.5303873672755
20
-8.28277644052437
30
0
41
1
10
-45.5214287539013
20
-8.29328263313317
30
0
41
1
10
-45.5102864584886
20
-8.30381333046498
30
0
41
1
10
-45.50688945626
20
-8.30650437336004
30
0
41
1
10
-45.5017228477084
20
-8.30850512413238
30
0
41
1
10
-45.5
20
-8.3077298360744
30
0
41
1
10
-45.5
20
-8.30403690532901
30
0
0
SPLINE
5
D9
100
AcDbEntity
8
SK1
62
256
6
ByLayer
370
18
48
1
60
0
100
AcDbSpline
70
4
71
3
72
12
73
8
40
0
40
0
40
0
40
0
40
0.25
40
0.25
40
0.5
40
0.5
40
1
40
1
40
1
40
1
41
1
10
-47.4674170054607
20
-3.52337382706327
30
0
41
1
10
-47.5009495915739
20
-3.45037239708918
30
0
41
1
10
-47.535686367344
20
-3.37987378925305
30
0
41
1
10
-47.607828306993
20
-3.24393326206908
30
0
41
1
10
-47.64547595222
20
-3.17809797610758
30
0
41
1
10
-47.7615260816414
20
-2.99166085377595
30
0
41
1
10
-47.840775789289
20
-2.88489390822932
30
0
41
1
10
-47.9228943939015
20
-2.79903816048011
30
0
0
SPLINE
5
DA
100
AcDbEntity
8
SK1
62
256
6
ByLayer
370
18
48
1
60
0
100
AcDbSpline
70
4
71
3
72
8
73
4
40
0
40
0
40
0
40
0
40
1
40
1
40
1
40
1
41
1
10
-47.9228943939015
20
-2.79903816048017
30
0
41
1
10
-47.9486454839317
20
-2.75759658140768
30
0
41
1
10
-47.9743488715757
20
-2.71613230989186
30
0
41
1
10
-48
20
-2.67464317820708
30
0
0
SPLINE
5
DB
100
AcDbEntity
8
SK1
62
256
6
ByLayer
370
18
48
1
60
0
100
AcDbSpline
70
4
71
3
72
10
73
6
40
0
40
0
40
0
40
0
40
0.5
40
0.5
40
1
40
1
40
1
40
1
41
1
10
-45.6
20
-6.40191510425058
30
0
41
1
10
-45.9143396641838
20
-5.92363647438927
30
0
41
1
10
-46.2277713975027
20
-5.44492227639788
30
0
41
1
10
-46.8511393395701
20
-4.48583450499984
30
0
41
1
10
-47.1611769770348
20
-4.00550744398845
30
0
41
1
10
-47.4674170054607
20
-3.52337382706327
30
0
0
SPLINE
5
DC
100
AcDbEntity
8
SK1
62
256
6
ByLayer
370
18
48
1
60
0
100
AcDbSpline
70
4
71
3
72
10
73
6
40
0
40
0
40
0
40
0
40
0.5
40
0.5
40
1
40
1
40
1
40
1
41
1
10
-48
20
-4.45877093019843
30
0
41
1
10
-47.6125327890862
20
-5.08547545061026
30
0
41
1
10
-47.2139909098581
20
-5.70761449075442
30
0
41
1
10
-46.4112087243417
20
-6.94888746053863
30
0
41
1
10
-46.0063190677275
20
-7.56781439467062
30
0
41
1
10
-45.6
20
-8.18604285624193
30
0
0
SPLINE
5
DD
100
AcDbEntity
8
SK1
62
256
6
ByLayer
370
18
48
1
60
0
100
AcDbSpline
70
4
71
3
72
14
73
10
40
0
40
0
40
0
40
0
40
0.125000000000001
40
0.125000000000001
40
0.250000000000001
40
0.250000000000001
40
0.500000000000001
40
0.500000000000001
40
1
40
1
40
1
40
1
41
1
10
-45.5
20
-6.62185931059426
30
0
41
1
10
-45.5
20
-6.61471730693756
30
0
41
1
10
-45.5017107697461
20
-6.60546554492632
30
0
41
1
10
-45.5068845888983
20
-6.5860619099694
30
0
41
1
10
-45.5102281895671
20
-6.5761477820852
30
0
41
1
10
-45.521528237522
20
-6.54604982605599
30
0
41
1
10
-45.5303630420009
20
-6.52648305109403
30
0
41
1
10
-45.5585252427809
20
-6.46915464624558
30
0
41
1
10
-45.5788396428357
20
-6.43411131677183
30
0
41
1
10
-45.6
20
-6.40191510425058
30
0
0
LINE
5
76
100
AcDbEntity
8
81
62
256
6
ByLayer
370
18
48
1
60
0
100
AcDbLine
10
95
20
0
30
0
11
100
21
0
31
0
39
0
210
0
220
0
230
1
0
LINE
5
77
100
AcDbEntity
8
1
62
256
6
ByLayer
370
18
48
1
60
0
100
AcDbLine
10
4
20
8.697195
30
0
11
0.939652
21
8.695359
31
0
39
0
210
0
220
0
230
1
0
LINE
5
79
100
AcDbEntity
8
1
62
256
6
ByLayer
370
18
48
1
60
0
100
AcDbLine
10
44.15797
20
8.72129
30
0
11
42.962959
21
8.720573
31
0
39
0
210
0
220
0
230
1
0
LINE
5
7A
100
AcDbEntity
8
1
62
256
6
ByLayer
370
18
48
1
60
0
100
AcDbLine
10
90.258752
20
8.748951
30
0
11
89.074241
21
8.74824
31
0
39
0
210
0
220
0
230
1
0
LINE
5
7B
100
AcDbEntity
8
1
62
256
6
ByLayer
370
18
48
1
60
0
100
AcDbLine
10
89.074241
20
-8.74824
30
0
11
90.258345
21
-8.74895
31
0
39
0
210
0
220
0
230
1
0
LINE
5
7C
100
AcDbEntity
8
1
62
256
6
ByLayer
370
18
48
1
60
0
100
AcDbLine
10
42.962959
20
-8.720573
30
0
11
44.157675
21
-8.72129
31
0
39
0
210
0
220
0
230
1
0
LINE
5
7D
100
AcDbEntity
8
1
62
256
6
ByLayer
370
18
48
1
60
0
100
AcDbLine
10
0.939652
20
-8.695359
30
0
11
4
21
-8.697195
31
0
39
0
210
0
220
0
230
1
0
LINE
5
7E
100
AcDbEntity
8
SK1
62
256
6
ByLayer
370
18
48
1
60
0
100
AcDbLine
10
0
20
9
30
0
11
-45.401924
21
9
31
0
39
0
210
0
220
0
230
1
0
LINE
5
80
100
AcDbEntity
8
SK1
62
256
6
ByLayer
370
18
48
1
60
0
100
AcDbLine
10
-45.401924
20
-9
30
0
11
0
21
-9
31
0
39
0
210
0
220
0
230
1
0
LINE
5
81
100
AcDbEntity
8
SK1
62
256
6
ByLayer
370
18
48
1
60
0
100
AcDbLine
10
-45.401924
20
9
30
0
11
-48
21
4.5
31
0
39
0
210
0
220
0
230
1
0
LINE
5
82
100
AcDbEntity
8
SK1
62
256
6
ByLayer
370
18
48
1
60
0
100
AcDbLine
10
-48
20
-4.5
30
0
11
-45.401924
21
-9
31
0
39
0
210
0
220
0
230
1
0
LINE
5
83
100
AcDbEntity
8
SK4
62
256
6
ByLayer
370
18
48
0.05
60
0
100
AcDbLine
10
100
20
0
30
0
11
-53
21
0
31
0
39
0
210
0
220
0
230
1
0
LINE
5
85
100
AcDbEntity
8
4
62
256
6
ByLayer
370
18
48
0.05
60
0
100
AcDbLine
10
95
20
0
30
0
11
0
21
0
31
0
39
0
210
0
220
0
230
1
0
LINE
5
87
100
AcDbEntity
8
80
62
256
6
ByLayer
370
18
48
1
60
0
100
AcDbLine
10
0
20
0
30
0
11
-5
21
0
31
0
39
0
210
0
220
0
230
1
0
LINE
5
88
100
AcDbEntity
8
1
62
256
6
ByLayer
370
13
48
1
60
0
100
AcDbLine
10
94.582181
20
1.424794
30
0
11
92.745521
21
1.424794
31
0
39
0
210
0
220
0
230
1
0
LINE
5
89
100
AcDbEntity
8
1
62
256
6
ByLayer
370
13
48
1
60
0
100
AcDbLine
10
92.745521
20
1.424794
30
0
11
94.889562
21
0.363233
31
0
39
0
210
0
220
0
230
1
0
LINE
5
8A
100
AcDbEntity
8
1
62
256
6
ByLayer
370
13
48
1
60
0
100
AcDbLine
10
92.576062
20
1.07837
30
0
11
94.893203
21
-0.068896
31
0
39
0
210
0
220
0
230
1
0
LINE
5
8B
100
AcDbEntity
8
1
62
256
6
ByLayer
370
18
48
1
60
0
100
AcDbLine
10
4
20
8.697195
30
0
11
4
21
8.048816
31
0
39
0
210
0
220
0
230
1
0
LINE
5
8C
100
AcDbEntity
8
1
62
256
6
ByLayer
370
18
48
1
60
0
100
AcDbLine
10
0
20
-9
30
0
11
0
21
9
31
0
39
0
210
0
220
0
230
1
0
LINE
5
8D
100
AcDbEntity
8
1
62
256
6
ByLayer
370
13
48
1
60
0
100
AcDbLine
10
0.469586
20
8.84768
30
0
11
0.469586
21
-8.84768
31
0
39
0
210
0
220
0
230
1
0
LINE
5
8E
100
AcDbEntity
8
1
62
256
6
ByLayer
370
18
48
1
60
0
100
AcDbLine
10
94.889562
20
0.363233
30
0
11
94.582181
21
1.424794
31
0
39
0
210
0
220
0
230
1
0
LINE
5
8F
100
AcDbEntity
8
1
62
256
6
ByLayer
370
18
48
1
60
0
100
AcDbLine
10
94.889562
20
-0.363233
30
0
11
94.582181
21
-1.424794
31
0
39
0
210
0
220
0
230
1
0
LINE
5
90
100
AcDbEntity
8
1
62
256
6
ByLayer
370
18
48
1
60
0
100
AcDbLine
10
94.980036
20
0.08094
30
0
11
95
21
0
31
0
39
0
210
0
220
0
230
1
0
LINE
5
91
100
AcDbEntity
8
1
62
256
6
ByLayer
370
18
48
1
60
0
100
AcDbLine
10
90.591354
20
-4.86323
30
0
11
94.893203
21
-0.068896
31
0
39
0
210
0
220
0
230
1
0
LINE
5
92
100
AcDbEntity
8
1
62
256
6
ByLayer
370
18
48
1
60
0
100
AcDbLine
10
95
20
0
30
0
11
94.980036
21
-0.08094
31
0
39
0
210
0
220
0
230
1
0
LINE
5
93
100
AcDbEntity
8
1
62
256
6
ByLayer
370
13
48
1
60
0
100
AcDbLine
10
0.939652
20
8.695359
30
0
11
0.939652
21
-8.695359
31
0
39
0
210
0
220
0
230
1
0
LINE
5
94
100
AcDbEntity
8
1
62
256
6
ByLayer
370
18
48
1
60
0
100
AcDbLine
10
95
20
0
30
0
11
91.951766
21
-8.374955
31
0
39
0
210
0
220
0
230
1
0
LINE
5
95
100
AcDbEntity
8
1
62
256
6
ByLayer
370
18
48
1
60
0
100
AcDbLine
10
4
20
-8.697195
30
0
11
4
21
-1.98465
31
0
39
0
210
0
220
0
230
1
0
LINE
5
96
100
AcDbEntity
8
SK1
62
256
6
ByLayer
370
18
48
1
60
0
100
AcDbLine
10
0
20
-9
30
0
11
0
21
9
31
0
39
0
210
0
220
0
230
1
0
LINE
5
97
100
AcDbEntity
8
SK1
62
256
6
ByLayer
370
18
48
1
60
0
100
AcDbLine
10
-48
20
4.5
30
0
11
-48
21
-2.674643
31
0
39
0
210
0
220
0
230
1
0
LINE
5
98
100
AcDbEntity
8
SK1
62
256
6
ByLayer
370
18
48
1
60
0
100
AcDbLine
10
-45.401924
20
9
30
0
11
-45.401924
21
-9
31
0
39
0
210
0
220
0
230
1
0
LINE
5
99
100
AcDbEntity
8
SK1
62
256
6
ByLayer
370
13
48
1
60
0
100
AcDbLine
10
-45.6
20
-6.401753
30
0
11
-45.6
21
-8.186043
31
0
39
0
210
0
220
0
230
1
0
LINE
5
9A
100
AcDbEntity
8
SK1
62
256
6
ByLayer
370
18
48
1
60
0
100
AcDbLine
10
-48
20
-4.5
30
0
11
-48
21
-4.458771
31
0
39
0
210
0
220
0
230
1
0
LINE
5
9B
100
AcDbEntity
8
SK1
62
256
6
ByLayer
370
18
48
1
60
0
100
AcDbLine
10
-48
20
-2.674637
30
0
11
-48
21
-4.458771
31
0
39
0
210
0
220
0
230
1
0
LINE
5
9C
100
AcDbEntity
8
SK1
62
256
6
ByLayer
370
18
48
1
60
0
100
AcDbLine
10
-45.5
20
-8.304037
30
0
11
-45.5
21
-6.621859
31
0
39
0
210
0
220
0
230
1
0
MTEXT
5
DE
100
AcDbEntity
8
SK6
62
256
6
ByLayer
370
13
48
1
60
0
100
AcDbMText
10
25.629169
20
41.132694
30
0
210
0
220
0
230
1
1
\W0.7415;R840-1750-50-A1A1220
40
3.5
41
0
44
1.084337
50
0
71
8
72
5
7
iso_b_vert
0
DIMENSION
5
EB
100
AcDbEntity
8
SK2
62
256
6
ByLayer
370
13
48
1
60
0
100
AcDbDimension
2
DimnDraft3D1
10
91.98
20
-18.963398
30
0
11
43.730059
21
-18.963398
31
0
70
32
71
5
72
1
41
1
210
0
220
0
230
1
3
Standard
100
AcDbAlignedDimension
13
0
23
-1.5875
33
0
14
91.98
24
-10.3375
34
0
50
0
100
AcDbRotatedDimension
1001
ACAD
1000
DSTYLE
1002
{
1070
   279
1070
     0
1070
   172
1070
     1
1070
   173
1070
     1
1070
   340
1005
DF
1070
   271
1070
     2
1070
   272
1070
     2
1070
    77
1070
     1
1070
    73
1070
     0
1070
   171
1070
     3
1070
   274
1070
     4
1070
   177
1070
    35
1070
   176
1070
    35
1070
   178
1070
    35
1070
    48
1040
-0.005
1070
    41
1041
3.5
1070
   147
1041
1.75
1070
    42
1041
1.5875
1070
    44
1041
2.0
1070
   140
1041
3.5
1070
   343
1005
0
1070
   344
1005
0
1002
}
0
DIMENSION
5
F5
100
AcDbEntity
8
SK2
62
256
6
ByLayer
370
13
48
1
60
0
100
AcDbDimension
2
DimnDraft3D2
10
95
20
-37.692985
30
0
11
21.8213
21
-37.692985
31
0
70
32
71
5
72
1
41
1
210
0
220
0
230
1
3
Standard
100
AcDbAlignedDimension
13
-48
23
-10.5875
33
0
14
95
24
-1.5875
34
0
50
0
100
AcDbRotatedDimension
1001
ACAD
1000
DSTYLE
1002
{
1070
   279
1070
     0
1070
   172
1070
     1
1070
   173
1070
     1
1070
   340
1005
DF
1070
   271
1070
     2
1070
   272
1070
     2
1070
    77
1070
     1
1070
    73
1070
     0
1070
   171
1070
     3
1070
   274
1070
     4
1070
   177
1070
    35
1070
   176
1070
    35
1070
   178
1070
    35
1070
    48
1040
-0.005
1070
    41
1041
3.5
1070
   147
1041
1.75
1070
    42
1041
1.5875
1070
    44
1041
2.0
1070
   140
1041
3.5
1070
   343
1005
0
1070
   344
1005
0
1002
}
0
DIMENSION
5
FF
100
AcDbEntity
8
SK2
62
256
6
ByLayer
370
13
48
1
60
0
100
AcDbDimension
2
DimnDraft3D3
10
95
20
20.359119
30
0
11
49.74
21
20.359119
31
0
70
32
71
5
72
1
41
1
210
0
220
0
230
1
3
Standard
100
AcDbAlignedDimension
13
4.48
23
10.3375
33
0
14
95
24
1.5875
34
0
50
0
100
AcDbRotatedDimension
1001
ACAD
1000
DSTYLE
1002
{
1070
   279
1070
     0
1070
   172
1070
     1
1070
   173
1070
     1
1070
   340
1005
DF
1070
   271
1070
     2
1070
   272
1070
     2
1070
    77
1070
     1
1070
    73
1070
     0
1070
   171
1070
     3
1070
   274
1070
     4
1070
   177
1070
    35
1070
   176
1070
    35
1070
   178
1070
    35
1070
    48
1040
-0.005
1070
    41
1041
3.5
1070
   147
1041
1.75
1070
    42
1041
1.5875
1070
    44
1041
2.0
1070
   140
1041
3.5
1070
   343
1005
0
1070
   344
1005
0
1002
}
0
DIMENSION
5
109
100
AcDbEntity
8
SK2
62
256
6
ByLayer
370
13
48
1
60
0
100
AcDbDimension
2
DimnDraft3D4
10
91.98
20
-21.552503
30
0
11
104.981425
21
-21.552503
31
0
70
32
71
5
72
1
41
1
210
0
220
0
230
1
3
Standard
100
AcDbAlignedDimension
13
95
23
-1.5875
33
0
14
91.98
24
-10.3375
34
0
50
0
100
AcDbRotatedDimension
1001
ACAD
1000
DSTYLE
1002
{
1070
   279
1070
     0
1070
   172
1070
     1
1070
   173
1070
     1
1070
   340
1005
DF
1070
   271
1070
     2
1070
   272
1070
     2
1070
    77
1070
     1
1070
    73
1070
     0
1070
   171
1070
     3
1070
   274
1070
     4
1070
   177
1070
    35
1070
   176
1070
    35
1070
   178
1070
    35
1070
    48
1040
-0.005
1070
    41
1041
3.5
1070
   147
1041
1.75
1070
    42
1041
1.5875
1070
    44
1041
2.0
1070
   140
1041
3.5
1070
   343
1005
0
1070
   344
1005
0
1002
}
0
DIMENSION
5
113
100
AcDbEntity
8
SK2
62
256
6
ByLayer
370
13
48
1
60
0
100
AcDbDimension
2
DimnDraft3D5
10
91.98
20
-27.343428
30
0
11
18.740676
21
-27.343428
31
0
70
32
71
5
72
1
41
1
210
0
220
0
230
1
3
Standard
100
AcDbAlignedDimension
13
-48
23
-10.5875
33
0
14
91.98
24
-10.3375
34
0
50
0
100
AcDbRotatedDimension
1001
ACAD
1000
DSTYLE
1002
{
1070
   279
1070
     0
1070
   172
1070
     1
1070
   173
1070
     1
1070
   340
1005
DF
1070
   271
1070
     2
1070
   272
1070
     2
1070
    77
1070
     1
1070
    73
1070
     0
1070
   171
1070
     3
1070
   274
1070
     4
1070
   177
1070
    35
1070
   176
1070
    35
1070
   178
1070
    35
1070
    48
1040
-0.005
1070
    41
1041
3.5
1070
   147
1041
1.75
1070
    42
1041
1.5875
1070
    44
1041
2.0
1070
   140
1041
3.5
1070
   343
1005
0
1070
   344
1005
0
1002
}
0
DIMENSION
5
11E
100
AcDbEntity
8
SK2
62
256
6
ByLayer
370
13
48
1
60
0
100
AcDbDimension
2
DimnDraft3D6
10
-58.625163
20
9
30
0
11
-59.250163
21
27.47418
31
0
70
33
71
5
72
1
41
1
210
0
220
0
230
1
3
Standard
100
AcDbAlignedDimension
13
-49.5875
23
-9
33
0
14
-49.5875
24
9
34
0
1001
ACAD
1000
DSTYLE
1002
{
1070
   279
1070
     0
1070
    74
1070
     0
1070
   173
1070
     1
1070
   340
1005
DF
1070
   271
1070
     3
1070
   272
1070
     2
1070
    77
1070
     1
1070
    73
1070
     0
1070
   171
1070
     3
1070
   274
1070
     4
1070
   177
1070
    35
1070
   176
1070
    35
1070
   178
1070
    35
1070
    48
1040
-0.005
1070
    41
1041
3.5
1070
   147
1041
1.75
1070
    42
1041
1.5875
1070
    44
1041
2.0
1070
   140
1041
3.5
1070
   343
1005
0
1070
   344
1005
0
1002
}
0
DIMENSION
5
129
100
AcDbEntity
8
2
62
256
6
ByLayer
370
13
48
1
60
0
100
AcDbDimension
2
DimnDraft3D7
10
109.083343
20
8.75
30
0
11
104.458343
21
25.817266
31
0
70
33
71
5
72
1
41
1
210
0
220
0
230
1
3
Standard
100
AcDbAlignedDimension
13
93.5675
23
-8.75
33
0
14
93.5675
24
8.75
34
0
1001
ACAD
1000
DSTYLE
1002
{
1070
   279
1070
     0
1070
    74
1070
     0
1070
   173
1070
     1
1070
   340
1005
DF
1070
   271
1070
     3
1070
   272
1070
     2
1070
    77
1070
     1
1070
    73
1070
     0
1070
   171
1070
     3
1070
   274
1070
     4
1070
   177
1070
    35
1070
   176
1070
    35
1070
   178
1070
    35
1070
    48
1040
-0.005
1070
    41
1041
3.5
1070
   147
1041
1.75
1070
    42
1041
1.5875
1070
    44
1041
2.0
1070
   140
1041
3.5
1070
   343
1005
0
1070
   344
1005
0
1002
}
0
ENDSEC
0
SECTION
2
OBJECTS
0
DICTIONARY
5
194
330
0
100
AcDbDictionary
280
0
281
1
3
ACAD_GROUP
350
195
3
ACAD_MLINESTYLE
350
196
0
DICTIONARY
5
195
330
0
100
AcDbDictionary
280
0
281
1
0
DICTIONARY
5
196
330
0
100
AcDbDictionary
280
0
281
1
3
Standard
350
18
0
MLINESTYLE
5
18
330
196
100
AcDbMlineStyle
2
Standard
70
0
3

62
256
51
90
52
90
71
2
49
-0.5
62
256
6
ByLayer
49
0.5
62
256
6
ByLayer
0
RASTERVARIABLES
5
182
330

100
AcDbRasterVariables
90
0
70
1
71
1
72
1
0
ENDSEC
0
EOF
