0
SECTION
2
HEADER
9
$ACADVER
1
AC1015
9
$DWGCODEPAGE
3
ANSI_1252
9
$HANDSEED
5
1a8
9
$ANGBASE
50
0
9
$ANGDIR
70
0
9
$ATTMODE
70
1
9
$AUNITS
70
0
9
$AUPREC
70
0
9
$CECOLOR
62
256
9
$CELTSCALE
40
1
9
$CELTYPE
6
ByLayer
9
$CELWEIGHT
370
18
9
$CLAYER
8
0
9
$CMLJUST
70
0
9
$CMLSCALE
40
1
9
$CMLSTYLE
2
Standard
9
$DIMSTYLE
2
Standard
9
$TEXTSIZE
40
0.2
9
$TEXTSTYLE
7
Standard
9
$LUNITS
70
2
9
$LUPREC
70
4
9
$EXTNAMES
290
1
9
$INSUNITS
70
4
9
$LTSCALE
40
1
9
$LWDISPLAY
290
1
9
$PDMODE
70
0
9
$PDSIZE
40
0
9
$PLINEGEN
70
0
0
ENDSEC
0
SECTION
2
CLASSES
0
CLASS
1
RASTERVARIABLES
2
AcDbRasterVariables
3
ISM
90
0
280
0
281
0
0
ENDSEC
0
SECTION
2
TABLES
0
TABLE
2
VPORT
5
19e
100
AcDbSymbolTable
0
VPORT
5
1
100
AcDbSymbolTableRecord
100
AcDbViewportTableRecord
2
*Active
70
0
10
0
20
0
11
1
21
1
12
-1
22
1
13
0
23
0
14
0.5
24
0.5
15
10
25
10
16
0
26
0
36
1
17
0
27
0
37
0
0
ENDTAB
0
TABLE
2
LTYPE
5
19f
100
AcDbSymbolTable
0
LTYPE
5
14
100
AcDbSymbolTableRecord
100
AcDbLinetypeTableRecord
70
0
2
ByBlock
3

72
65
73
0
40
0
0
LTYPE
5
15
100
AcDbSymbolTableRecord
100
AcDbLinetypeTableRecord
70
0
2
ByLayer
3

72
65
73
0
40
0
0
LTYPE
5
16
100
AcDbSymbolTableRecord
100
AcDbLinetypeTableRecord
70
0
2
CONTINUOUS
3
Solid line
72
65
73
0
40
0
0
LTYPE
5
6A
100
AcDbSymbolTableRecord
100
AcDbLinetypeTableRecord
70
0
2
CENTER
3
____ _ ____ _ ____ _ ____
72
65
73
4
40
47.5
49
22
74
0
49
-8.5
74
0
49
8.5
74
0
49
-8.5
74
0
0
LTYPE
5
6B
100
AcDbSymbolTableRecord
100
AcDbLinetypeTableRecord
70
0
2
DASHED
3
__ __ __ __ __ __ __ __ __
72
65
73
2
40
25.72
49
12.86
74
0
49
-12.86
74
0
0
ENDTAB
0
TABLE
2
LAYER
5
1a0
100
AcDbSymbolTable
0
LAYER
5
10
100
AcDbSymbolTableRecord
100
AcDbLayerTableRecord
2
0
70
0
62
7
6
CONTINUOUS
290
1
370
-3
390
0
0
LAYER
5
6D
100
AcDbSymbolTableRecord
100
AcDbLayerTableRecord
2
81
70
0
62
-3
6
CONTINUOUS
290
1
370
-3
390
0
0
LAYER
5
6F
100
AcDbSymbolTableRecord
100
AcDbLayerTableRecord
2
80
70
0
62
-6
6
CONTINUOUS
290
1
370
-3
390
0
0
LAYER
5
74
100
AcDbSymbolTableRecord
100
AcDbLayerTableRecord
2
2
70
0
62
7
6
CONTINUOUS
290
1
370
-3
390
0
0
LAYER
5
78
100
AcDbSymbolTableRecord
100
AcDbLayerTableRecord
2
1
70
0
62
4
6
CONTINUOUS
290
1
370
-3
390
0
0
LAYER
5
86
100
AcDbSymbolTableRecord
100
AcDbLayerTableRecord
2
4
70
0
62
-2
6
CENTER
290
1
370
-3
390
0
0
LAYER
5
18a
100
AcDbSymbolTableRecord
100
AcDbLayerTableRecord
2
SK2
70
0
62
7
6
CONTINUOUS
290
1
370
-3
390
0
0
LAYER
5
18b
100
AcDbSymbolTableRecord
100
AcDbLayerTableRecord
2
SK1
70
0
62
4
6
CONTINUOUS
290
1
370
-3
390
0
0
LAYER
5
18c
100
AcDbSymbolTableRecord
100
AcDbLayerTableRecord
2
SK4
70
0
62
2
6
CENTER
290
1
370
-3
390
0
0
LAYER
5
18d
100
AcDbSymbolTableRecord
100
AcDbLayerTableRecord
2
SK6
70
0
62
5
6
CONTINUOUS
290
1
370
-3
390
0
0
ENDTAB
0
TABLE
2
STYLE
5
1a1
100
AcDbSymbolTable
0
STYLE
5
11
100
AcDbSymbolTableRecord
100
AcDbTextStyleTableRecord
2
Standard
3
txt
70
0
71
0
40
0
41
1
42
0
50
0
0
STYLE
5
E6
100
AcDbSymbolTableRecord
100
AcDbTextStyleTableRecord
2
iso_b_vert
3
simplex.shx
70
0
71
0
40
0
41
1
42
0
50
0
0
STYLE
5
E7
100
AcDbSymbolTableRecord
100
AcDbTextStyleTableRecord
2
DWGDirectTextStyle
3
simplex
70
0
71
0
40
0
41
1
42
0
50
0
0
ENDTAB
0
TABLE
2
DIMSTYLE
5
1a2
100
AcDbSymbolTable
100
AcDbDimStyleTable
0
DIMSTYLE
105
27
100
AcDbSymbolTableRecord
100
AcDbDimStyleTableRecord
2
Standard
70
0
3
<>
41
0.18
42
0.0625
44
0.18
140
0.18
147
0.09
73
0
74
0
77
1
271
2
275
0
278
52
280
0
340
11
0
ENDTAB
0
TABLE
2
VIEW
5
1a3
100
AcDbSymbolTable
0
ENDTAB
0
TABLE
2
UCS
5
1a4
100
AcDbSymbolTable
0
ENDTAB
0
TABLE
2
APPID
5
1a5
100
AcDbSymbolTable
0
APPID
5
12
100
AcDbSymbolTableRecord
100
AcDbRegAppTableRecord
2
ACAD
70
0
0
ENDTAB
0
TABLE
2
BLOCK_RECORD
5
1a6
100
AcDbSymbolTable
0
BLOCK_RECORD
5
1F
100
AcDbSymbolTableRecord
100
AcDbBlockTableRecord
2
*Model_Space
340
0
70
0
0
BLOCK_RECORD
5
1B
100
AcDbSymbolTableRecord
100
AcDbBlockTableRecord
2
*Paper_Space
340
0
70
0
0
BLOCK_RECORD
5
23
100
AcDbSymbolTableRecord
100
AcDbBlockTableRecord
2
*Paper_Space0
340
0
70
0
0
BLOCK_RECORD
5
E9
100
AcDbSymbolTableRecord
100
AcDbBlockTableRecord
2
DimnDraft3D1
340
0
70
0
0
BLOCK_RECORD
5
F3
100
AcDbSymbolTableRecord
100
AcDbBlockTableRecord
2
DimnDraft3D2
340
0
70
0
0
BLOCK_RECORD
5
FD
100
AcDbSymbolTableRecord
100
AcDbBlockTableRecord
2
DimnDraft3D3
340
0
70
0
0
BLOCK_RECORD
5
107
100
AcDbSymbolTableRecord
100
AcDbBlockTableRecord
2
DimnDraft3D4
340
0
70
0
0
BLOCK_RECORD
5
111
100
AcDbSymbolTableRecord
100
AcDbBlockTableRecord
2
DimnDraft3D5
340
0
70
0
0
BLOCK_RECORD
5
11B
100
AcDbSymbolTableRecord
100
AcDbBlockTableRecord
2
DimnDraft3D6
340
0
70
0
0
BLOCK_RECORD
5
126
100
AcDbSymbolTableRecord
100
AcDbBlockTableRecord
2
DimnDraft3D7
340
0
70
0
0
ENDTAB
0
ENDSEC
0
SECTION
2
BLOCKS
0
BLOCK
5
20
100
AcDbEntity
8
0
100
AcDbBlockBegin
2
*Model_Space
70
0
10
0
20
0
30
0
3
*Model_Space
0
ENDBLK
5
21
100
AcDbEntity
8
0
100
AcDbBlockEnd
0
BLOCK
5
1C
100
AcDbEntity
8
0
100
AcDbBlockBegin
2
*Paper_Space
70
0
10
0
20
0
30
0
3
*Paper_Space
0
ENDBLK
5
1D
100
AcDbEntity
8
0
100
AcDbBlockEnd
0
BLOCK
5
24
100
AcDbEntity
8
0
100
AcDbBlockBegin
2
*Paper_Space0
70
0
10
0
20
0
30
0
3
*Paper_Space0
0
ENDBLK
5
25
100
AcDbEntity
8
0
100
AcDbBlockEnd
0
BLOCK
5
F0
100
AcDbEntity
8
0
100
AcDbBlockBegin
2
DimnDraft3D1
70
0
10
0
20
0
30
0
3
DimnDraft3D1
0
MTEXT
5
EA
100
AcDbEntity
8
SK2
62
256
6
ByLayer
370
13
48
1
60
0
100
AcDbMText
10
29.728875
20
-18.068398
30
0
210
0
220
0
230
1
1
\W0.6791;71,99
40
3.5
41
0
44
1.084337
50
0
71
7
72
5
7
iso_b_vert
0
LINE
5
EB
100
AcDbEntity
8
SK2
62
256
6
ByLayer
370
13
48
1
60
0
100
AcDbLine
10
0
20
-1.5875
30
0
11
0
21
-20.943398
31
0
39
0
210
0
220
0
230
1
0
LINE
5
EC
100
AcDbEntity
8
SK2
62
256
6
ByLayer
370
13
48
1
60
0
100
AcDbLine
10
71.99
20
-10.3175
30
0
11
71.99
21
-20.943398
31
0
39
0
210
0
220
0
230
1
0
LINE
5
ED
100
AcDbEntity
8
SK2
62
256
6
ByLayer
370
13
48
1
60
0
100
AcDbLine
10
0
20
-18.943398
30
0
11
71.99
21
-18.943398
31
0
39
0
210
0
220
0
230
1
0
SOLID
5
EE
100
AcDbEntity
8
SK2
62
256
6
ByLayer
370
13
48
1
60
0
100
AcDbTrace
10
0
20
-18.943398
30
0
11
3.499998
21
-18.482615
31
0
12
3.500002
22
-19.404182
32
0
13
0
23
-18.943398
33
0
39
0
210
0
220
0
230
1
0
SOLID
5
EF
100
AcDbEntity
8
SK2
62
256
6
ByLayer
370
13
48
1
60
0
100
AcDbTrace
10
71.99
20
-18.943398
30
0
11
68.490002
21
-19.404182
31
0
12
68.489998
22
-18.482615
32
0
13
71.99
23
-18.943398
33
0
39
0
210
0
220
0
230
1
0
ENDBLK
5
F1
100
AcDbEntity
8
0
100
AcDbBlockEnd
0
BLOCK
5
FA
100
AcDbEntity
8
0
100
AcDbBlockBegin
2
DimnDraft3D2
70
0
10
0
20
0
30
0
3
DimnDraft3D2
0
MTEXT
5
F4
100
AcDbEntity
8
SK2
62
256
6
ByLayer
370
13
48
1
60
0
100
AcDbMText
10
6.512221
20
-36.817985
30
0
210
0
220
0
230
1
1
\W0.6930;123,00
40
3.5
41
0
44
1.084337
50
0
71
7
72
5
7
iso_b_vert
0
LINE
5
F5
100
AcDbEntity
8
SK2
62
256
6
ByLayer
370
13
48
1
60
0
100
AcDbLine
10
-48
20
-10.5875
30
0
11
-48
21
-39.692985
31
0
39
0
210
0
220
0
230
1
0
LINE
5
F6
100
AcDbEntity
8
SK2
62
256
6
ByLayer
370
13
48
1
60
0
100
AcDbLine
10
75
20
-1.5875
30
0
11
75
21
-39.692985
31
0
39
0
210
0
220
0
230
1
0
LINE
5
F7
100
AcDbEntity
8
SK2
62
256
6
ByLayer
370
13
48
1
60
0
100
AcDbLine
10
-48
20
-37.692985
30
0
11
75
21
-37.692985
31
0
39
0
210
0
220
0
230
1
0
SOLID
5
F8
100
AcDbEntity
8
SK2
62
256
6
ByLayer
370
13
48
1
60
0
100
AcDbTrace
10
-48
20
-37.692985
30
0
11
-44.500002
21
-37.232202
31
0
12
-44.499998
22
-38.153769
32
0
13
-48
23
-37.692985
33
0
39
0
210
0
220
0
230
1
0
SOLID
5
F9
100
AcDbEntity
8
SK2
62
256
6
ByLayer
370
13
48
1
60
0
100
AcDbTrace
10
75
20
-37.692985
30
0
11
71.500002
21
-38.153769
31
0
12
71.499998
22
-37.232202
32
0
13
75
23
-37.692985
33
0
39
0
210
0
220
0
230
1
0
ENDBLK
5
FB
100
AcDbEntity
8
0
100
AcDbBlockEnd
0
BLOCK
5
104
100
AcDbEntity
8
0
100
AcDbBlockBegin
2
DimnDraft3D3
70
0
10
0
20
0
30
0
3
DimnDraft3D3
0
MTEXT
5
FE
100
AcDbEntity
8
SK2
62
256
6
ByLayer
370
13
48
1
60
0
100
AcDbMText
10
42.856316
20
21.214119
30
0
210
0
220
0
230
1
1
\W0.7402;55,39
40
3.5
41
0
44
1.084337
50
0
71
7
72
5
7
iso_b_vert
0
LINE
5
FF
100
AcDbEntity
8
SK2
62
256
6
ByLayer
370
13
48
1
60
0
100
AcDbLine
10
19.61
20
10.3175
30
0
11
19.61
21
22.339119
31
0
39
0
210
0
220
0
230
1
0
LINE
5
100
100
AcDbEntity
8
SK2
62
256
6
ByLayer
370
13
48
1
60
0
100
AcDbLine
10
75
20
1.5875
30
0
11
75
21
22.339119
31
0
39
0
210
0
220
0
230
1
0
LINE
5
101
100
AcDbEntity
8
SK2
62
256
6
ByLayer
370
13
48
1
60
0
100
AcDbLine
10
19.61
20
20.339119
30
0
11
75
21
20.339119
31
0
39
0
210
0
220
0
230
1
0
SOLID
5
102
100
AcDbEntity
8
SK2
62
256
6
ByLayer
370
13
48
1
60
0
100
AcDbTrace
10
19.61
20
20.339119
30
0
11
23.109998
21
20.799903
31
0
12
23.110002
22
19.878335
32
0
13
19.61
23
20.339119
33
0
39
0
210
0
220
0
230
1
0
SOLID
5
103
100
AcDbEntity
8
SK2
62
256
6
ByLayer
370
13
48
1
60
0
100
AcDbTrace
10
75
20
20.339119
30
0
11
71.500002
21
19.878335
31
0
12
71.499998
22
20.799903
32
0
13
75
23
20.339119
33
0
39
0
210
0
220
0
230
1
0
ENDBLK
5
105
100
AcDbEntity
8
0
100
AcDbBlockEnd
0
BLOCK
5
10E
100
AcDbEntity
8
0
100
AcDbBlockBegin
2
DimnDraft3D4
70
0
10
0
20
0
30
0
3
DimnDraft3D4
0
MTEXT
5
108
100
AcDbEntity
8
SK2
62
256
6
ByLayer
370
13
48
1
60
0
100
AcDbMText
10
82.278136
20
-20.657503
30
0
210
0
220
0
230
1
1
\W0.6993;3,01
40
3.5
41
0
44
1.084337
50
0
71
7
72
5
7
iso_b_vert
0
LINE
5
109
100
AcDbEntity
8
SK2
62
256
6
ByLayer
370
13
48
1
60
0
100
AcDbLine
10
75
20
-1.5875
30
0
11
75
21
-23.532503
31
0
39
0
210
0
220
0
230
1
0
LINE
5
10A
100
AcDbEntity
8
SK2
62
256
6
ByLayer
370
13
48
1
60
0
100
AcDbLine
10
71.99
20
-10.3175
30
0
11
71.99
21
-23.532503
31
0
39
0
210
0
220
0
230
1
0
LINE
5
10B
100
AcDbEntity
8
SK2
62
256
6
ByLayer
370
13
48
1
60
0
100
AcDbLine
10
63.24
20
-21.532503
30
0
11
88.559715
21
-21.532503
31
0
39
0
210
0
220
0
230
1
0
SOLID
5
10C
100
AcDbEntity
8
SK2
62
256
6
ByLayer
370
13
48
1
60
0
100
AcDbTrace
10
75
20
-21.532503
30
0
11
78.499998
21
-21.071719
31
0
12
78.500002
22
-21.993287
32
0
13
75
23
-21.532503
33
0
39
0
210
0
220
0
230
1
0
SOLID
5
10D
100
AcDbEntity
8
SK2
62
256
6
ByLayer
370
13
48
1
60
0
100
AcDbTrace
10
71.99
20
-21.532503
30
0
11
68.490002
21
-21.993287
31
0
12
68.489998
22
-21.071719
32
0
13
71.99
23
-21.532503
33
0
39
0
210
0
220
0
230
1
0
ENDBLK
5
10F
100
AcDbEntity
8
0
100
AcDbBlockEnd
0
BLOCK
5
118
100
AcDbEntity
8
0
100
AcDbBlockBegin
2
DimnDraft3D5
70
0
10
0
20
0
30
0
3
DimnDraft3D5
0
MTEXT
5
112
100
AcDbEntity
8
SK2
62
256
6
ByLayer
370
13
48
1
60
0
100
AcDbMText
10
3.869097
20
-26.468428
30
0
210
0
220
0
230
1
1
\W0.6501;119,99
40
3.5
41
0
44
1.084337
50
0
71
7
72
5
7
iso_b_vert
0
LINE
5
113
100
AcDbEntity
8
SK2
62
256
6
ByLayer
370
13
48
1
60
0
100
AcDbLine
10
-48
20
-10.5875
30
0
11
-48
21
-29.343428
31
0
39
0
210
0
220
0
230
1
0
LINE
5
114
100
AcDbEntity
8
SK2
62
256
6
ByLayer
370
13
48
1
60
0
100
AcDbLine
10
71.99
20
-10.3175
30
0
11
71.99
21
-29.343428
31
0
39
0
210
0
220
0
230
1
0
LINE
5
115
100
AcDbEntity
8
SK2
62
256
6
ByLayer
370
13
48
1
60
0
100
AcDbLine
10
-48
20
-27.343428
30
0
11
71.99
21
-27.343428
31
0
39
0
210
0
220
0
230
1
0
SOLID
5
116
100
AcDbEntity
8
SK2
62
256
6
ByLayer
370
13
48
1
60
0
100
AcDbTrace
10
-48
20
-27.343428
30
0
11
-44.500002
21
-26.882645
31
0
12
-44.499998
22
-27.804212
32
0
13
-48
23
-27.343428
33
0
39
0
210
0
220
0
230
1
0
SOLID
5
117
100
AcDbEntity
8
SK2
62
256
6
ByLayer
370
13
48
1
60
0
100
AcDbTrace
10
71.99
20
-27.343428
30
0
11
68.490002
21
-27.804212
31
0
12
68.489998
22
-26.882645
32
0
13
71.99
23
-27.343428
33
0
39
0
210
0
220
0
230
1
0
ENDBLK
5
119
100
AcDbEntity
8
0
100
AcDbBlockEnd
0
BLOCK
5
123
100
AcDbEntity
8
0
100
AcDbBlockBegin
2
DimnDraft3D6
70
0
10
0
20
0
30
0
3
DimnDraft3D6
0
MTEXT
5
11C
100
AcDbEntity
8
SK2
62
256
6
ByLayer
370
13
48
1
60
0
100
AcDbMText
10
-58.375163
20
28.34918
30
0
210
0
220
0
230
1
1
\W0.6930;18,000
40
3.5
41
0
44
1.084337
50
90
71
7
72
5
7
iso_b_vert
0
MTEXT
5
11D
100
AcDbEntity
8
SK2
62
256
6
ByLayer
370
13
48
1
60
0
100
AcDbMText
10
-58.375163
20
23.126524
30
0
210
0
220
0
230
1
1
%%c
40
3.5
41
0
44
1.084337
50
90
71
7
72
5
7
iso_b_vert
0
LINE
5
11E
100
AcDbEntity
8
SK2
62
256
6
ByLayer
370
13
48
1
60
0
100
AcDbLine
10
-49.5875
20
-9
30
0
11
-58.625163
21
-9
31
0
39
0
210
0
220
0
230
1
0
LINE
5
11F
100
AcDbEntity
8
SK2
62
256
6
ByLayer
370
13
48
1
60
0
100
AcDbLine
10
-49.5875
20
9
30
0
11
-58.625163
21
9
31
0
39
0
210
0
220
0
230
1
0
LINE
5
120
100
AcDbEntity
8
SK2
62
256
6
ByLayer
370
13
48
1
60
0
100
AcDbLine
10
-56.625163
20
-9
30
0
11
-56.625163
21
39.862338
31
0
39
0
210
0
220
0
230
1
0
SOLID
5
121
100
AcDbEntity
8
SK2
62
256
6
ByLayer
370
13
48
1
60
0
100
AcDbTrace
10
-56.625163
20
-9
30
0
11
-57.085946
21
-5.500002
31
0
12
-56.164379
22
-5.499998
32
0
13
-56.625163
23
-9
33
0
39
0
210
0
220
0
230
1
0
SOLID
5
122
100
AcDbEntity
8
SK2
62
256
6
ByLayer
370
13
48
1
60
0
100
AcDbTrace
10
-56.625163
20
9
30
0
11
-56.164379
21
5.500002
31
0
12
-57.085946
22
5.499998
32
0
13
-56.625163
23
9
33
0
39
0
210
0
220
0
230
1
0
ENDBLK
5
124
100
AcDbEntity
8
0
100
AcDbBlockEnd
0
BLOCK
5
12E
100
AcDbEntity
8
0
100
AcDbBlockBegin
2
DimnDraft3D7
70
0
10
0
20
0
30
0
3
DimnDraft3D7
0
MTEXT
5
127
100
AcDbEntity
8
2
62
256
6
ByLayer
370
13
48
1
60
0
100
AcDbMText
10
85.333343
20
26.672266
30
0
210
0
220
0
230
1
1
\W0.7145;17,460
40
3.5
41
0
44
1.084337
50
90
71
7
72
5
7
iso_b_vert
0
MTEXT
5
128
100
AcDbEntity
8
2
62
256
6
ByLayer
370
13
48
1
60
0
100
AcDbMText
10
85.333343
20
21.44961
30
0
210
0
220
0
230
1
1
%%c
40
3.5
41
0
44
1.084337
50
90
71
7
72
5
7
iso_b_vert
0
LINE
5
129
100
AcDbEntity
8
2
62
256
6
ByLayer
370
13
48
1
60
0
100
AcDbLine
10
73.5775
20
-8.73
30
0
11
89.083343
21
-8.73
31
0
39
0
210
0
220
0
230
1
0
LINE
5
12A
100
AcDbEntity
8
2
62
256
6
ByLayer
370
13
48
1
60
0
100
AcDbLine
10
73.5775
20
8.73
30
0
11
89.083343
21
8.73
31
0
39
0
210
0
220
0
230
1
0
LINE
5
12B
100
AcDbEntity
8
2
62
256
6
ByLayer
370
13
48
1
60
0
100
AcDbLine
10
87.083343
20
-8.73
30
0
11
87.083343
21
38.553845
31
0
39
0
210
0
220
0
230
1
0
SOLID
5
12C
100
AcDbEntity
8
2
62
256
6
ByLayer
370
13
48
1
60
0
100
AcDbTrace
10
87.083343
20
-8.73
30
0
11
86.622559
21
-5.230002
31
0
12
87.544126
22
-5.229998
32
0
13
87.083343
23
-8.73
33
0
39
0
210
0
220
0
230
1
0
SOLID
5
12D
100
AcDbEntity
8
2
62
256
6
ByLayer
370
13
48
1
60
0
100
AcDbTrace
10
87.083343
20
8.73
30
0
11
87.544126
21
5.230002
31
0
12
86.622559
22
5.229998
32
0
13
87.083343
23
8.73
33
0
39
0
210
0
220
0
230
1
0
ENDBLK
5
12F
100
AcDbEntity
8
0
100
AcDbBlockEnd
0
ENDSEC
0
SECTION
2
ENTITIES
0
ARC
5
9D
100
AcDbEntity
8
1
62
256
6
ByLayer
370
18
48
1
60
0
100
AcDbCircle
39
0
10
0
20
8.2
30
0
40
0.800000000000001
210
0
220
0
230
1
100
AcDbArc
50
53.571734
51
90
0
ARC
5
9E
100
AcDbEntity
8
1
62
256
6
ByLayer
370
18
48
1
60
0
100
AcDbCircle
39
0
10
0
20
-8.2
30
0
40
0.800000000000001
210
0
220
0
230
1
100
AcDbArc
50
270
51
306.428266
0
ARC
5
9F
100
AcDbEntity
8
1
62
256
6
ByLayer
370
18
48
1
60
0
100
AcDbCircle
39
0
10
-0.950105
20
-9.487362
30
0
40
0.800000000000001
210
0
220
0
230
-1
100
AcDbArc
50
53.571734
51
90.034377
0
ARC
5
A0
100
AcDbEntity
8
1
62
256
6
ByLayer
370
18
48
1
60
0
100
AcDbCircle
39
0
10
-0.950105
20
9.487362
30
0
40
0.800000000000001
210
0
220
0
230
-1
100
AcDbArc
50
269.965623
51
306.428266
0
ELLIPSE
5
A1
100
AcDbEntity
8
1
62
256
6
ByLayer
370
18
48
1
60
0
100
AcDbEllipse
10
4.25
20
-8.565491
30
0
11
-0.25
21
3.06151588455594E-17
31
0
210
0
220
0
230
1
40
0.99999
41
-1.30944885979299
42
-1.13527264769945
0
ELLIPSE
5
A2
100
AcDbEntity
8
1
62
256
6
ByLayer
370
18
48
1
60
0
100
AcDbEllipse
10
75.000723
20
-0.001907
30
0
11
3.1927989146688
21
-8.72927386981597
31
0
210
0
220
0
230
-1
40
0.065672
41
-3.00506859081122
42
-2.91808197639645
0
ELLIPSE
5
A3
100
AcDbEntity
8
1
62
256
6
ByLayer
370
18
48
1
60
0
100
AcDbEllipse
10
74.998217
20
0.097018
30
0
11
0.137829328475895
21
-0.402528286837044
31
0
210
0
220
0
230
-1
40
0.052723
41
1.54843843802754
42
2.31022812873358
0
ELLIPSE
5
A4
100
AcDbEntity
8
1
62
256
6
ByLayer
370
18
48
1
60
0
100
AcDbEllipse
10
74.859184
20
0.165856
30
0
11
0.0868803724477651
21
0.290676908904919
31
0
210
0
220
0
230
-1
40
0.467765
41
1.72606346288809
42
2.3605371739587
0
ELLIPSE
5
A5
100
AcDbEntity
8
1
62
256
6
ByLayer
370
13
48
1
60
0
100
AcDbEllipse
10
73.96997
20
4.014686
30
0
11
5.67218964005556
21
-2.57689160094449
31
0
210
0
220
0
230
-1
40
0.459852
41
1.5768666728149
42
1.92080385420241
0
ELLIPSE
5
A6
100
AcDbEntity
8
1
62
256
6
ByLayer
370
13
48
1
60
0
100
AcDbEllipse
10
4.250128
20
-1.672203
30
0
11
0.0489910287829116
21
0.0871772854520713
31
0
210
0
220
0
230
1
40
0.09811
41
1.39624383921436
42
2.95842828419746
0
ELLIPSE
5
A7
100
AcDbEntity
8
1
62
256
6
ByLayer
370
13
48
1
60
0
100
AcDbEllipse
10
4.175272
20
-1.634194
30
0
11
-0.0407745306274303
21
-0.0913095704300089
31
0
210
0
220
0
230
1
40
0.524043
41
-1.52104249684105
42
-0.20909148181179
0
ELLIPSE
5
A8
100
AcDbEntity
8
1
62
256
6
ByLayer
370
18
48
1
60
0
100
AcDbEllipse
10
75.000723
20
0.001907
30
0
11
3.19279890485119
21
8.7292738421112
31
0
210
0
220
0
230
-1
40
0.065672
41
2.91808197604004
42
3.00506859059382
0
ELLIPSE
5
A9
100
AcDbEntity
8
1
62
256
6
ByLayer
370
18
48
1
60
0
100
AcDbEllipse
10
74.998217
20
-0.097018
30
0
11
0.13782932855361
21
0.402528287042316
31
0
210
0
220
0
230
-1
40
0.052723
41
-2.31022812869205
42
-1.54843843835572
0
ELLIPSE
5
AA
100
AcDbEntity
8
1
62
256
6
ByLayer
370
13
48
1
60
0
100
AcDbEllipse
10
73.800512
20
3.880394
30
0
11
5.62395472559771
21
-2.89121508617674
31
0
210
0
220
0
230
-1
40
0.482873
41
1.53949524918511
42
1.88223366245177
0
ELLIPSE
5
AB
100
AcDbEntity
8
1
62
256
6
ByLayer
370
13
48
1
60
0
100
AcDbEllipse
10
72.750571
20
1.209876
30
0
11
0.133113781883896
21
0.268850741253519
31
0
210
0
220
0
230
1
40
0.40558
41
0.884485917131019
42
2.28074931872629
0
ELLIPSE
5
AC
100
AcDbEntity
8
1
62
256
6
ByLayer
370
18
48
1
60
0
100
AcDbEllipse
10
73.446397
20
-4.014686
30
0
11
1.34070037787329
21
3.66554271311856
31
0
210
0
220
0
230
-1
40
0.065672
41
0.761382749776928
42
1.61077187993005
0
ELLIPSE
5
AD
100
AcDbEntity
8
1
62
256
6
ByLayer
370
18
48
1
60
0
100
AcDbEllipse
10
73.446397
20
4.014686
30
0
11
1.34070037789683
21
-3.66554271317474
31
0
210
0
220
0
230
-1
40
0.065672
41
-1.61077187991797
42
-0.761382749776684
0
POINT
5
6C
100
AcDbEntity
8
81
62
256
6
ByLayer
370
18
48
1
60
0
100
AcDbPoint
10
75
20
0
30
0
39
0
210
0
220
0
230
1
50
360
0
POINT
5
6E
100
AcDbEntity
8
80
62
256
6
ByLayer
370
18
48
1
60
0
100
AcDbPoint
10
0
20
0
30
0
39
0
210
0
220
0
230
1
50
360
0
POINT
5
70
100
AcDbEntity
8
SK2
62
256
6
ByLayer
370
18
48
1
60
1
100
AcDbPoint
10
-48
20
-9
30
0
39
0
210
0
220
0
230
1
50
360
0
POINT
5
72
100
AcDbEntity
8
SK2
62
256
6
ByLayer
370
18
48
1
60
1
100
AcDbPoint
10
-48
20
9
30
0
39
0
210
0
220
0
230
1
50
360
0
POINT
5
73
100
AcDbEntity
8
2
62
256
6
ByLayer
370
18
48
1
60
1
100
AcDbPoint
10
71.99
20
-8.73
30
0
39
0
210
0
220
0
230
1
50
360
0
POINT
5
75
100
AcDbEntity
8
2
62
256
6
ByLayer
370
18
48
1
60
1
100
AcDbPoint
10
71.99
20
8.73
30
0
39
0
210
0
220
0
230
1
50
360
0
SPLINE
5
AE
100
AcDbEntity
8
1
62
256
6
ByLayer
370
18
48
1
60
0
100
AcDbSpline
70
4
71
1
72
4
73
2
40
0
40
0
40
1
40
1
41
1
10
4.286633266238
20
-8.31423558546723
30
0
41
1
10
4.33985741381787
20
-8.31478662393883
30
0
0
SPLINE
5
AF
100
AcDbEntity
8
1
62
256
6
ByLayer
370
18
48
1
60
0
100
AcDbSpline
70
4
71
3
72
9
73
5
40
0
40
0
40
0
40
0
40
0.385824157613445
40
1
40
1
40
1
40
1
41
1
10
49.1489033531129
20
-1.83873868144758
30
0
41
1
10
49.1479805058222
20
-1.83836241329848
30
0
41
1
10
49.1749628977382
20
-1.85357205135992
30
0
41
1
10
49.2142689972912
20
-1.87669339158717
30
0
41
1
10
49.2515665072196
20
-1.89841662376037
30
0
0
SPLINE
5
B0
100
AcDbEntity
8
1
62
256
6
ByLayer
370
18
48
1
60
0
100
AcDbSpline
70
4
71
3
72
30
73
26
40
0
40
0
40
0
40
0
40
0.026428588697647
40
0.065400044141296
40
0.103618765614995
40
0.140166695682019
40
0.17359037736614
40
0.21466845381586
40
0.257743337711344
40
0.297576191915228
40
0.336510219023183
40
0.37823165324664
40
0.422681658933538
40
0.469215694442457
40
0.516202990365961
40
0.573398755434028
40
0.628317374409821
40
0.682813709538416
40
0.748586377264604
40
0.812924182106467
40
0.870487487945996
40
0.910784920577187
40
0.955408353910601
40
0.99619287813958
40
1
40
1
40
1
40
1
41
1
10
48.7257772222215
20
8.33312591074812
30
0
41
1
10
48.5486229240543
20
8.33463085946559
30
0
41
1
10
48.1100284978815
20
8.33766888985829
30
0
41
1
10
47.4204290449744
20
8.33991610086915
30
0
41
1
10
46.6491078065471
20
8.33862850255721
30
0
41
1
10
45.9124484397362
20
8.33888940388729
30
0
41
1
10
45.1546859880884
20
8.33749781509295
30
0
41
1
10
44.355172220473
20
8.33682003138375
30
0
41
1
10
43.5094375105176
20
8.33724651645588
30
0
41
1
10
42.6787909957786
20
8.33709085610323
30
0
41
1
10
41.8575156317856
20
8.33813582797708
30
0
41
1
10
41.0036771890949
20
8.33535307386563
30
0
41
1
10
40.1027263843353
20
8.33351676180965
30
0
41
1
10
39.1686325109202
20
8.33085368975634
30
0
41
1
10
38.1446425853424
20
8.33612881862794
30
0
41
1
10
37.0657788214779
20
8.33450449554866
30
0
41
1
10
35.9282728613172
20
8.33159571944233
30
0
41
1
10
34.7343388990748
20
8.33229401760286
30
0
41
1
10
33.4755930977861
20
8.33402584454367
30
0
41
1
10
32.1961304276706
20
8.32909835148942
30
0
41
1
10
31.0902789502797
20
8.3297096482234
30
0
41
1
10
30.1188600753204
20
8.33025804023015
30
0
41
1
10
29.261788702865
20
8.33059674475524
30
0
41
1
10
28.6536285756534
20
8.3294694963482
30
0
41
1
10
28.3496092036503
20
8.32912624118808
30
0
41
1
10
28.3236526905574
20
8.32909846487365
30
0
0
SPLINE
5
B1
100
AcDbEntity
8
1
62
256
6
ByLayer
370
18
48
1
60
0
100
AcDbSpline
70
4
71
3
72
36
73
32
40
0
40
0
40
0
40
0
40
0.0371102184775344
40
0.0696792141139434
40
0.0930456301180642
40
0.110897038725998
40
0.12805936626694
40
0.160955232577565
40
0.198518919226978
40
0.235813409222731
40
0.269706720878422
40
0.300718915432938
40
0.334383978763978
40
0.377162338266237
40
0.420766353627915
40
0.458480740927704
40
0.492553342746499
40
0.529989463734414
40
0.567341969365967
40
0.608331465059098
40
0.648898996532931
40
0.687427216854468
40
0.723441905737681
40
0.757532767780908
40
0.796362518300403
40
0.835817536709176
40
0.875237020975026
40
0.919948841618202
40
0.955243727969231
40
0.991366508199646
40
1
40
1
40
1
40
1
41
1
10
24.345154999706
20
-8.32711375439024
30
0
41
1
10
24.6460588446869
20
-8.32718055225797
30
0
41
1
10
25.2122294478642
20
-8.32735389718343
30
0
41
1
10
25.9701431439434
20
-8.32666738617311
30
0
41
1
10
26.574556333696
20
-8.32761337510823
30
0
41
1
10
27.0395894939238
20
-8.3286380260972
30
0
41
1
10
27.5922484390532
20
-8.32861108271507
30
0
41
1
10
28.3081615553651
20
-8.32886863999354
30
0
41
1
10
29.1871631498495
20
-8.33055400154024
30
0
41
1
10
30.0748313624592
20
-8.33029949618034
30
0
41
1
10
30.9089043219155
20
-8.32978278316736
30
0
41
1
10
31.7133530689594
20
-8.32945008106395
30
0
41
1
10
32.5903176371658
20
-8.33031309828132
30
0
41
1
10
33.5700889003933
20
-8.33378404137881
30
0
41
1
10
34.5828051834403
20
-8.33233281559524
30
0
41
1
10
35.5247274483413
20
-8.33208864085631
30
0
41
1
10
36.4155525360506
20
-8.33206530999428
30
0
41
1
10
37.3061417258198
20
-8.33566480301042
30
0
41
1
10
38.242581223939
20
-8.33546343580693
30
0
41
1
10
39.2117886888295
20
-8.33087457704212
30
0
41
1
10
40.1830872913702
20
-8.33347075534979
30
0
41
1
10
41.1203698652893
20
-8.33615639383706
30
0
41
1
10
42.0075079222099
20
-8.33793204603367
30
0
41
1
10
42.8963880472336
20
-8.33706190668744
30
0
41
1
10
43.8137690804161
20
-8.33724179216247
30
0
41
1
10
44.7735926775439
20
-8.33655915105177
30
0
41
1
10
45.7817832105544
20
-8.33908472903664
30
0
41
1
10
46.7557577494675
20
-8.33840037904565
30
0
41
1
10
47.6976515595215
20
-8.34054426403449
30
0
41
1
10
48.3257903630233
20
-8.33501142830542
30
0
41
1
10
48.6880139304563
20
-8.33302441769621
30
0
41
1
10
48.7579910503039
20
-8.33262308174022
30
0
0
SPLINE
5
B2
100
AcDbEntity
8
1
62
256
6
ByLayer
370
18
48
1
60
0
100
AcDbSpline
70
4
71
2
72
6
73
3
40
0
40
0
40
0
40
1
40
1
40
1
41
1
10
70.4610281362642
20
-8.35502008045452
30
0
41
1
10
71.1928591481992
20
-8.35340369181205
30
0
41
1
10
71.9222313629387
20
-8.3570873046346
30
0
0
SPLINE
5
B3
100
AcDbEntity
8
1
62
256
6
ByLayer
370
18
48
1
60
0
100
AcDbSpline
70
4
71
1
72
4
73
2
40
0
40
0
40
1
40
1
41
1
10
4.33969021248589
20
8.31478489287559
30
0
41
1
10
4.25051272923517
20
8.31386162352695
30
0
0
SPLINE
5
B4
100
AcDbEntity
8
1
62
256
6
ByLayer
370
18
48
1
60
0
100
AcDbSpline
70
4
71
3
72
8
73
4
40
0
40
0
40
0
40
0
40
1
40
1
40
1
40
1
41
1
10
71.9156550291326
20
-8.67467876195096
30
0
41
1
10
71.9503250209753
20
-8.58151934735415
30
0
41
1
10
71.9849736605001
20
-8.48828059953402
30
0
41
1
10
72.0196008854468
20
-8.39496228716723
30
0
0
SPLINE
5
B5
100
AcDbEntity
8
1
62
256
6
ByLayer
370
18
48
1
60
0
100
AcDbSpline
70
4
71
3
72
70
73
66
40
0
40
0
40
0
40
0
40
0.0221793349455644
40
0.0221793349455644
40
0.0443586698911289
40
0.0443586698911289
40
0.0887173397822578
40
0.0887173397822578
40
0.133076009673387
40
0.133076009673387
40
0.155255344618951
40
0.155255344618951
40
0.177434679564516
40
0.177434679564516
40
0.221793349455645
40
0.221793349455645
40
0.24397268440121
40
0.24397268440121
40
0.266152019346774
40
0.266152019346774
40
0.310510689237903
40
0.310510689237903
40
0.332690024183467
40
0.332690024183467
40
0.354869359129032
40
0.354869359129032
40
0.39922802902016
40
0.39922802902016
40
0.421407363965724
40
0.421407363965724
40
0.443586698911288
40
0.443586698911288
40
0.532304038693545
40
0.532304038693545
40
0.554483373639109
40
0.554483373639109
40
0.576662708584673
40
0.576662708584673
40
0.621021378475801
40
0.621021378475801
40
0.643200713421366
40
0.643200713421366
40
0.66538004836693
40
0.66538004836693
40
0.709738718258058
40
0.709738718258058
40
0.731918053203623
40
0.731918053203623
40
0.754097388149187
40
0.754097388149187
40
0.798456058040317
40
0.798456058040317
40
0.820635392985882
40
0.820635392985882
40
0.842814727931447
40
0.842814727931447
40
0.887173397822576
40
0.887173397822576
40
0.931532067713706
40
0.931532067713706
40
0.953711402659272
40
0.953711402659272
40
0.975890737604837
40
0.975890737604837
40
1
40
1
40
1
40
1
41
1
10
71.9156550291326
20
-8.67467876195096
30
0
41
1
10
71.5623131248201
20
-8.69810926322126
30
0
41
1
10
71.2090632535202
20
-8.71395792592685
30
0
41
1
10
70.5023173437489
20
-8.73047631384972
30
0
41
1
10
70.1485645324064
20
-8.7311381938724
30
0
41
1
10
69.0882933892111
20
-8.71034775111244
30
0
41
1
10
68.3833108725167
20
-8.66618829236552
30
0
41
1
10
66.973422581365
20
-8.51837506053937
30
0
41
1
10
66.2684766238856
20
-8.41472515822613
30
0
41
1
10
65.2081620536245
20
-8.21546368520043
30
0
41
1
10
64.8544768117202
20
-8.14178771923707
30
0
41
1
10
64.1484499363269
20
-7.98073461976145
30
0
41
1
10
63.7957827201945
20
-7.89329827000765
30
0
41
1
10
62.7381140991721
20
-7.61083992799971
30
0
41
1
10
62.0334254172415
20
-7.39568815745412
30
0
41
1
10
60.9742343648412
20
-7.03494419466057
30
0
41
1
10
60.6204709167417
20
-6.90821586691663
30
0
41
1
10
59.9136114636509
20
-6.64320980104154
30
0
41
1
10
59.5606458764342
20
-6.5049985639001
30
0
41
1
10
58.5023980090464
20
-6.07417158328923
30
0
41
1
10
57.7977643359903
20
-5.76536945285886
30
0
41
1
10
56.7393771517941
20
-5.27318923167354
30
0
41
1
10
56.3863432728097
20
-5.10429586132923
30
0
41
1
10
55.6792722595572
20
-4.75750001227701
30
0
41
1
10
55.3255325374413
20
-4.57974064580978
30
0
41
1
10
54.2663268373405
20
-4.03598673800789
30
0
41
1
10
53.5615825338657
20
-3.65895584271584
30
0
41
1
10
52.5036626901076
20
-3.07608260761296
30
0
41
1
10
52.1509026532031
20
-2.8788816077803
30
0
41
1
10
51.4446082002286
20
-2.47948630059079
30
0
41
1
10
51.0907269039879
20
-2.27707646193508
30
0
41
1
10
49.323285002501
20
-1.25695422291105
30
0
41
1
10
47.9166784976654
20
-0.416648255620771
30
0
41
1
10
46.1486810030373
20
0.632147292705469
30
0
41
1
10
45.7949445747347
20
0.841624192983687
30
0
41
1
10
45.088713690399
20
1.25789140412755
30
0
41
1
10
44.7359293387886
20
1.46487914926888
30
0
41
1
10
43.6779278441041
20
2.08134976972147
30
0
41
1
10
42.9729789694393
20
2.4862018806588
30
0
41
1
10
41.9133379211421
20
3.07967786674701
30
0
41
1
10
41.5594072999899
20
3.27541079185411
30
0
41
1
10
40.8523499886133
20
3.66033937107599
30
0
41
1
10
40.4992841556475
20
3.84952349362538
30
0
41
1
10
39.4407385935994
20
4.40617565676632
30
0
41
1
10
38.7358371397399
20
4.76263966096954
30
0
41
1
10
37.677019658571
20
5.27155747423086
30
0
41
1
10
37.3238393724581
20
5.43690261877262
30
0
41
1
10
36.6164782651053
20
5.75825679277159
30
0
41
1
10
36.2627171163817
20
5.91410592263583
30
0
41
1
10
35.2032973803916
20
6.36497402323326
30
0
41
1
10
34.4982713774304
20
6.64374075159878
30
0
41
1
10
33.439919848269
20
7.02630130419308
30
0
41
1
10
33.0870085862739
20
7.14789688664874
30
0
41
1
10
32.3804986794507
20
7.37875025708925
30
0
41
1
10
32.0265363863538
20
7.48810051092545
30
0
41
1
10
30.9658638688216
20
7.79576401093323
30
0
41
1
10
30.2604348096812
20
7.97375873914473
30
0
41
1
10
28.8494364582062
20
8.27349892493152
30
0
41
1
10
28.1439784879992
20
8.39528886103676
30
0
41
1
10
27.082755361123
20
8.5339106309539
30
0
41
1
10
26.7289309264017
20
8.57269682721355
30
0
41
1
10
26.0224844711035
20
8.63518267665972
30
0
41
1
10
25.6695929237648
20
8.65891709854154
30
0
41
1
10
24.9332801249233
20
8.69274573263834
30
0
41
1
10
24.5499182290675
20
8.70147645866089
30
0
41
1
10
24.1663705925061
20
8.70128912415507
30
0
0
SPLINE
5
B6
100
AcDbEntity
8
1
62
256
6
ByLayer
370
13
48
1
60
0
100
AcDbSpline
70
4
71
3
72
10
73
6
40
0
40
0
40
0
40
0
40
0.5
40
0.5
40
1
40
1
40
1
40
1
41
1
10
4.00000015227718
20
-1.53290763702282
30
0
41
1
10
4.00000015227718
20
-1.5495210399352
30
0
41
1
10
4.01090797631113
20
-1.56633568623084
30
0
41
1
10
4.05292322218725
20
-1.59549034561354
30
0
41
1
10
4.08456033936562
20
-1.60839934470627
30
0
41
1
10
4.1254532304483
20
-1.61739414087057
30
0
0
SPLINE
5
B7
100
AcDbEntity
8
1
62
256
6
ByLayer
370
13
48
1
60
0
100
AcDbSpline
70
4
71
3
72
8
73
4
40
0
40
0
40
0
40
0
40
1
40
1
40
1
40
1
41
1
10
4.1254532304483
20
-1.71907971347147
30
0
41
1
10
4.14887891263604
20
-1.72951902564722
30
0
41
1
10
4.17424674023869
20
-1.74238298638605
30
0
41
1
10
4.20039851367201
20
-1.75704693591001
30
0
0
SPLINE
5
B8
100
AcDbEntity
8
1
62
256
6
ByLayer
370
18
48
1
60
0
100
AcDbSpline
70
4
71
3
72
12
73
8
40
0
40
0
40
0
40
0
40
0.249999999999996
40
0.249999999999996
40
0.499999999999991
40
0.499999999999991
40
1
40
1
40
1
40
1
41
1
10
72.0196008854487
20
-8.39496228716709
30
0
41
1
10
72.0244878782326
20
-8.38179213218532
30
0
41
1
10
72.0292424310685
20
-8.36834302428295
30
0
41
1
10
72.0372700343247
20
-8.34406122542308
30
0
41
1
10
72.0405275943884
20
-8.33325209660674
30
0
41
1
10
72.0467707855975
20
-8.30911963686287
30
0
41
1
10
72.0462618887783
20
-8.30449405119202
30
0
41
1
10
72.0431017237169
20
-8.30749301181024
30
0
0
SPLINE
5
B9
100
AcDbEntity
8
1
62
256
6
ByLayer
370
18
48
1
60
0
100
AcDbSpline
70
4
71
3
72
24
73
20
40
0
40
0
40
0
40
0
40
0.147435183702928
40
0.147435183702928
40
0.35114013637582
40
0.35114013637582
40
0.402066374544044
40
0.402066374544044
40
0.452992612712267
40
0.452992612712267
40
0.554845089048714
40
0.554845089048714
40
0.758550041721608
40
0.758550041721608
40
0.860402518058054
40
0.860402518058054
40
0.962254994394501
40
0.962254994394501
40
1
40
1
40
1
40
1
41
1
10
22.971635399689
20
8.70057100910793
30
0
41
1
10
22.6455165370553
20
8.5751089759859
30
0
41
1
10
22.3213123265493
20
8.43504536599391
30
0
41
1
10
21.5520222095172
20
8.06350342276738
30
0
41
1
10
21.1080432299828
20
7.81741889763629
30
0
41
1
10
20.5503101891294
20
7.47343797800411
30
0
41
1
10
20.438303128762
20
7.40264757397065
30
0
41
1
10
20.215835652718
20
7.25897521296545
30
0
41
1
10
20.1052973091087
20
7.18605684308454
30
0
41
1
10
19.775428302943
20
6.96453143212543
30
0
41
1
10
19.5578425938297
20
6.81315534209554
30
0
41
1
10
18.9093240493779
20
6.35180090711228
30
0
41
1
10
18.4825698952502
20
6.03468009581374
30
0
41
1
10
17.8405148611275
20
5.55919675305987
30
0
41
1
10
17.6261894323176
20
5.40071655552046
30
0
41
1
10
17.1953612848615
20
5.08598629931504
30
0
41
1
10
16.9780200685414
20
4.92915608062259
30
0
41
1
10
16.6818186071442
20
4.72008816552361
30
0
41
1
10
16.6018419616888
20
4.66410899576462
30
0
41
1
10
16.5219453509319
20
4.60871223886105
30
0
0
SPLINE
5
BA
100
AcDbEntity
8
1
62
256
6
ByLayer
370
18
48
1
60
0
100
AcDbSpline
70
4
71
3
72
34
73
30
40
0
40
0
40
0
40
0
40
0.0624999999999985
40
0.0624999999999985
40
0.0937499999999978
40
0.0937499999999978
40
0.124999999999997
40
0.124999999999997
40
0.187499999999996
40
0.187499999999996
40
0.218749999999995
40
0.218749999999995
40
0.249999999999994
40
0.249999999999994
40
0.374999999999994
40
0.374999999999994
40
0.437499999999995
40
0.437499999999995
40
0.499999999999996
40
0.499999999999996
40
0.624999999999997
40
0.624999999999997
40
0.749999999999999
40
0.749999999999999
40
0.8125
40
0.8125
40
0.875000000000001
40
0.875000000000001
40
1
40
1
40
1
40
1
41
1
10
62.9019893737554
20
4.47080301359404
30
0
41
1
10
62.9053433291092
20
4.24344742396789
30
0
41
1
10
62.9276682628112
20
4.01046127121799
30
0
41
1
10
62.989045896903
20
3.65270425495984
30
0
41
1
10
63.0141737084862
20
3.53202197108627
30
0
41
1
10
63.0737000244621
20
3.28808494236176
30
0
41
1
10
63.1076738342285
20
3.16654189701174
30
0
41
1
10
63.2212593962694
20
2.80309137351361
30
0
41
1
10
63.3124924766891
20
2.56235818268908
30
0
41
1
10
63.4697417458873
20
2.20331969688371
30
0
41
1
10
63.5255702398044
20
2.08398497731531
30
0
41
1
10
63.643696645848
20
1.84596924623159
30
0
41
1
10
63.7061851508634
20
1.72696865361669
30
0
41
1
10
64.0301070883135
20
1.14044935726017
30
0
41
1
10
64.3271234412115
20
0.693724937289801
30
0
41
1
10
64.8135031840401
20
0.0478966057590924
30
0
41
1
10
64.9825666360095
20
-0.163260650065126
30
0
41
1
10
65.3329839454355
20
-0.57827757840252
30
0
41
1
10
65.512922658279
20
-0.780514681490615
30
0
41
1
10
66.0624099237915
20
-1.37024986041067
30
0
41
1
10
66.4436980992157
20
-1.74103084864586
30
0
41
1
10
67.2290256177596
20
-2.44857128936573
30
0
41
1
10
67.6331428348533
20
-2.7852142910277
30
0
41
1
10
68.2538755705454
20
-3.26841074880474
30
0
41
1
10
68.4634879660565
20
-3.42595845209149
30
0
41
1
10
68.8847575793066
20
-3.73205031938409
30
0
41
1
10
69.0967082725779
20
-3.88081028330856
30
0
41
1
10
69.7361045048803
20
-4.31554652860197
30
0
41
1
10
70.167021547065
20
-4.59021578938072
30
0
41
1
10
70.6019979433622
20
-4.85166334229822
30
0
0
SPLINE
5
BB
100
AcDbEntity
8
1
62
256
6
ByLayer
370
18
48
1
60
0
100
AcDbSpline
70
4
71
3
72
14
73
10
40
0
40
0
40
0
40
0
40
0.357547663333875
40
0.357547663333875
40
0.840231595275418
40
0.840231595275418
40
0.960902578260803
40
0.960902578260803
40
1
40
1
40
1
40
1
41
1
10
24.3069265947977
20
-8.32709264310262
30
0
41
1
10
23.260811022689
20
-8.32413290588704
30
0
41
1
10
22.2208086420505
20
-8.2577784125844
30
0
41
1
10
19.7773505603331
20
-7.95793742406917
30
0
41
1
10
18.3744123399061
20
-7.67419686239037
30
0
41
1
10
16.6038102529781
20
-7.18765641912935
30
0
41
1
10
16.2482642202985
20
-7.08357272203961
30
0
41
1
10
15.7779006771336
20
-6.93771623508366
30
0
41
1
10
15.6629053362462
20
-6.90141163567597
30
0
41
1
10
15.5480096488772
20
-6.86450754468919
30
0
0
SPLINE
5
BC
100
AcDbEntity
8
1
62
256
6
ByLayer
370
13
48
1
60
0
100
AcDbSpline
70
4
71
3
72
18
73
14
40
0
40
0
40
0
40
0
40
0.0633195784685434
40
0.0633195784685434
40
0.250655662774834
40
0.250655662774834
40
0.625327831387417
40
0.625327831387417
40
0.812663915693709
40
0.812663915693709
40
0.906331957846854
40
0.906331957846854
40
1
40
1
40
1
40
1
41
1
10
15.5480096491246
20
-6.86450754476871
30
0
41
1
10
15.3082892282673
20
-6.78751018807876
30
0
41
1
10
15.0690026130995
20
-6.70790316077824
30
0
41
1
10
14.1231563445249
20
-6.382877290674
30
0
41
1
10
13.4192903740787
20
-6.118107328143
30
0
41
1
10
11.3115041223279
20
-5.26539791401819
30
0
41
1
10
9.91214210561901
20
-4.61849184272472
30
0
41
1
10
7.79970824006458
20
-3.56166620031181
30
0
41
1
10
7.09348676531513
20
-3.19473938396382
30
0
41
1
10
6.02837614594867
20
-2.62631829887545
30
0
41
1
10
5.67239573246096
20
-2.43392353305583
30
0
41
1
10
4.96135382054195
20
-2.04579149116714
30
0
41
1
10
4.60587159213819
20
-1.84982825232663
30
0
41
1
10
4.25021304056557
20
-1.6523300709255
30
0
0
SPLINE
5
BD
100
AcDbEntity
8
1
62
256
6
ByLayer
370
18
48
1
60
0
100
AcDbSpline
70
4
71
3
72
22
73
18
40
0
40
0
40
0
40
0
40
0.124999999999999
40
0.124999999999999
40
0.249999999999999
40
0.249999999999999
40
0.312499999999998
40
0.312499999999998
40
0.374999999999998
40
0.374999999999998
40
0.499999999999999
40
0.499999999999999
40
0.75
40
0.75
40
0.875
40
0.875
40
1
40
1
40
1
40
1
41
1
10
4.25052098538089
20
8.31555620836221
30
0
41
1
10
4.60634985161229
20
8.31541588955059
30
0
41
1
10
4.98276000061151
20
8.29079071556748
30
0
41
1
10
5.75985481757647
20
8.20689227711401
30
0
41
1
10
6.16082509453426
20
8.14740414435806
30
0
41
1
10
6.77517357890278
20
8.03684962243895
30
0
41
1
10
6.98227918798216
20
7.99634947738821
30
0
41
1
10
7.39755170209762
20
7.90914877701678
30
0
41
1
10
7.60608201575778
20
7.8623544857378
30
0
41
1
10
8.23385347494454
20
7.71387755167655
30
0
41
1
10
8.65534577479394
20
7.60338956019956
30
0
41
1
10
9.92770306026293
20
7.23741389533458
30
0
41
1
10
10.7857818149503
20
6.94998777530893
30
0
41
1
10
12.0890601013556
20
6.47177861441796
30
0
41
1
10
12.5261762573588
20
6.30504366360918
30
0
41
1
10
13.4078400167386
20
5.95476631645775
30
0
41
1
10
13.8505642096046
20
5.77257924221217
30
0
41
1
10
14.2948507184023
20
5.58634845296203
30
0
0
SPLINE
5
BE
100
AcDbEntity
8
1
62
256
6
ByLayer
370
18
48
1
60
0
100
AcDbSpline
70
4
71
3
72
18
73
14
40
0
40
0
40
0
40
0
40
0.25
40
0.25
40
0.5
40
0.5
40
0.625
40
0.625
40
0.75
40
0.75
40
0.875
40
0.875
40
1
40
1
40
1
40
1
41
1
10
73.6333472945182
20
4.24915490736501
30
0
41
1
10
73.4987921066999
20
4.61091713090323
30
0
41
1
10
73.3640390554796
20
4.97191175226698
30
0
41
1
10
73.0945109682063
20
5.69333500763813
30
0
41
1
10
72.9596889670421
20
6.05367239784656
30
0
41
1
10
72.7572111976572
20
6.59259799435137
30
0
41
1
10
72.6896927650493
20
6.77207507968927
30
0
41
1
10
72.5546699929213
20
7.13085326888938
30
0
41
1
10
72.4871562222483
20
7.3101104097822
30
0
41
1
10
72.3521151108165
20
7.66787378307311
30
0
41
1
10
72.2845856751048
20
7.8462640900548
30
0
41
1
10
72.1495075676618
20
8.20198026782339
30
0
41
1
10
72.0819657114071
20
8.3796832769215
30
0
41
1
10
72.0144115407561
20
8.55670486183362
30
0
0
SPLINE
5
BF
100
AcDbEntity
8
1
62
256
6
ByLayer
370
18
48
1
60
0
100
AcDbSpline
70
4
71
3
72
18
73
14
40
0
40
0
40
0
40
0
40
0.21596505397666
40
0.21596505397666
40
0.411973790482494
40
0.411973790482494
40
0.509978158735411
40
0.509978158735411
40
0.607982526988328
40
0.607982526988328
40
0.803991263494164
40
0.803991263494164
40
1
40
1
40
1
40
1
41
1
10
10.4967510369445
20
-7.03852335102454
30
0
41
1
10
10.0240242274309
20
-7.19714228017307
30
0
41
1
10
9.55410480858845
20
-7.34474328323421
30
0
41
1
10
8.66269601076465
20
-7.60139221661032
30
0
41
1
10
8.24089043775567
20
-7.71210888967283
30
0
41
1
10
7.61217627858278
20
-7.86096407821489
30
0
41
1
10
7.4032558944352
20
-7.90790027554675
30
0
41
1
10
6.98702601602511
20
-7.99540217119841
30
0
41
1
10
6.77944538316697
20
-8.03603870362215
30
0
41
1
10
6.16422275651252
20
-8.14687588483721
30
0
41
1
10
5.76262760632827
20
-8.2065333860331
30
0
41
1
10
4.98419989742152
20
-8.29069446599007
30
0
41
1
10
4.60707929418911
20
-8.3154156018995
30
0
41
1
10
4.25052098538086
20
-8.31555620836215
30
0
0
SPLINE
5
C0
100
AcDbEntity
8
1
62
256
6
ByLayer
370
18
48
1
60
0
100
AcDbSpline
70
4
71
3
72
16
73
12
40
0
40
0
40
0
40
0
40
0.113830359512399
40
0.113830359512399
40
0.227660719024798
40
0.227660719024798
40
0.455321438049596
40
0.455321438049596
40
0.910642876099193
40
0.910642876099193
40
1
40
1
40
1
40
1
41
1
10
4.20039851367201
20
-1.75704693591001
30
0
41
1
10
4.55626553027412
20
-1.95659041933746
30
0
41
1
10
4.91194903449141
20
-2.1544977531934
30
0
41
1
10
5.6233833738693
20
-2.54631932803386
30
0
41
1
10
5.97956146667232
20
-2.74046401853138
30
0
41
1
10
7.0451963339257
20
-3.31379524967431
30
0
41
1
10
7.75168061329731
20
-3.68353515608888
30
0
41
1
10
9.86481793728908
20
-4.74733897457295
30
0
41
1
10
11.2644971770726
20
-5.39708009225521
30
0
41
1
10
12.9459776397175
20
-6.07827748629927
30
0
41
1
10
13.2220341888003
20
-6.18696217387466
30
0
41
1
10
13.4984006567928
20
-6.29243381536082
30
0
0
SPLINE
5
C1
100
AcDbEntity
8
1
62
256
6
ByLayer
370
13
48
1
60
0
100
AcDbSpline
70
4
71
3
72
18
73
14
40
0
40
0
40
0
40
0
40
0.101173496486094
40
0.101173496486094
40
0.184444038258552
40
0.184444038258552
40
0.267714580031009
40
0.267714580031009
40
0.600796747120842
40
0.600796747120842
40
0.933878914210675
40
0.933878914210675
40
1
40
1
40
1
40
1
41
1
10
13.4984006363924
20
-6.29243380757529
30
0
41
1
10
13.9261502665513
20
-6.45567884969554
30
0
41
1
10
14.3546423286734
20
-6.61122681990807
30
0
41
1
10
15.1378889214386
20
-6.8797923101524
30
0
41
1
10
15.4922815866195
20
-6.99545673396165
30
0
41
1
10
16.2031760150197
20
-7.21489635792742
30
0
41
1
10
16.5588873899046
20
-7.31840379837885
30
0
41
1
10
18.3302480577052
20
-7.80145612446253
30
0
41
1
10
19.7335624138162
20
-8.08049574173171
30
0
41
1
10
22.5417480507396
20
-8.41226845596026
30
0
41
1
10
23.9462585101782
20
-8.46492169942943
30
0
41
1
10
25.6478525650214
20
-8.38606161798245
30
0
41
1
10
25.9304886311795
20
-8.36828117069072
30
0
41
1
10
26.2125066833444
20
-8.34592304334205
30
0
0
SPLINE
5
C2
100
AcDbEntity
8
1
62
256
6
ByLayer
370
18
48
1
60
0
100
AcDbSpline
70
4
71
3
72
14
73
10
40
0
40
0
40
0
40
0
40
0.0563924667571093
40
0.0563924667571093
40
0.279728808191908
40
0.279728808191908
40
0.726401491061504
40
0.726401491061504
40
1
40
1
40
1
40
1
41
1
10
70.4564199906982
20
-8.35502888503925
30
0
41
1
10
70.278238314872
20
-8.35486437586297
30
0
41
1
10
70.1001887147532
20
-8.35284690849267
30
0
41
1
10
69.2175096962419
20
-8.33370167536296
30
0
41
1
10
68.5144258605423
20
-8.28956111963387
30
0
41
1
10
66.4050742910082
20
-8.07238346844917
30
0
41
1
10
64.9986088603478
20
-7.8144232802469
30
0
41
1
10
62.7069984791151
20
-7.22329653693072
30
0
41
1
10
61.8394505857677
20
-6.96026179775569
30
0
41
1
10
60.9717656084926
20
-6.66230415136056
30
0
0
SPLINE
5
C3
100
AcDbEntity
8
1
62
256
6
ByLayer
370
13
48
1
60
0
100
AcDbSpline
70
4
71
3
72
26
73
22
40
0
40
0
40
0
40
0
40
0.0895690226382247
40
0.0895690226382247
40
0.147359358588443
40
0.147359358588443
40
0.205149694538661
40
0.205149694538661
40
0.320730366439095
40
0.320730366439095
40
0.551891710239964
40
0.551891710239964
40
0.667472382140399
40
0.667472382140399
40
0.725262718090616
40
0.725262718090616
40
0.783053054040834
40
0.783053054040834
40
0.898633725941268
40
0.898633725941268
40
1
40
1
40
1
40
1
41
1
10
60.9717646627097
20
-6.66230382658449
30
0
41
1
10
60.4228809168909
20
-6.47382053225243
30
0
41
1
10
59.8739423147539
20
-6.2713623942754
30
0
41
1
10
58.9694578898302
20
-5.91677242618547
30
0
41
1
10
58.6138590723327
20
-5.77205003225492
30
0
41
1
10
57.9042027402176
20
-5.47338049327135
30
0
41
1
10
57.5503552402529
20
-5.31954096395455
30
0
41
1
10
56.4910807192794
20
-4.84559676613284
30
0
41
1
10
55.7878600573079
20
-4.51316807365941
30
0
41
1
10
53.6819088107672
20
-3.47493289021034
30
0
41
1
10
52.2829530561745
20
-2.72804489022497
30
0
41
1
10
50.1710195978907
20
-1.56018806572885
30
0
41
1
10
49.4647768110115
20
-1.16298361415696
30
0
41
1
10
48.3993484432408
20
-0.559739013722663
30
0
41
1
10
48.0439933827576
20
-0.357853113606069
30
0
41
1
10
47.3346677205871
20
0.045284883686719
30
0
41
1
10
46.9803410880408
20
0.246740298271448
30
0
41
1
10
45.9178350456567
20
0.84982694183276
30
0
41
1
10
45.2099601768869
20
1.24987254919267
30
0
41
1
10
43.8789168374263
20
1.99135172435595
30
0
41
1
10
43.2550996518376
20
2.33436102924756
30
0
41
1
10
42.6326949183296
20
2.66930157339587
30
0
0
SPLINE
5
C4
100
AcDbEntity
8
1
62
256
6
ByLayer
370
18
48
1
60
0
100
AcDbSpline
70
4
71
3
72
80
73
76
40
0
40
0
40
0
40
0
40
0.0322967964629539
40
0.0322967964629539
40
0.0495772108118286
40
0.0495772108118286
40
0.0668576251607033
40
0.0668576251607033
40
0.101418453858453
40
0.101418453858453
40
0.135979282556204
40
0.135979282556204
40
0.170540111253954
40
0.170540111253954
40
0.205100939951704
40
0.205100939951704
40
0.239661768649454
40
0.239661768649454
40
0.256942182998329
40
0.256942182998329
40
0.274222597347204
40
0.274222597347204
40
0.291503011696079
40
0.291503011696079
40
0.308783426044954
40
0.308783426044954
40
0.343344254742705
40
0.343344254742705
40
0.377905083440456
40
0.377905083440456
40
0.395185497789331
40
0.395185497789331
40
0.412465912138207
40
0.412465912138207
40
0.447026740835959
40
0.447026740835959
40
0.481587569533711
40
0.481587569533711
40
0.498867983882587
40
0.498867983882587
40
0.516148398231463
40
0.516148398231463
40
0.550709226929215
40
0.550709226929215
40
0.567989641278091
40
0.567989641278091
40
0.585270055626967
40
0.585270055626967
40
0.619830884324719
40
0.619830884324719
40
0.654391713022471
40
0.654391713022471
40
0.671672127371348
40
0.671672127371348
40
0.688952541720224
40
0.688952541720224
40
0.723513370417976
40
0.723513370417976
40
0.758074199115729
40
0.758074199115729
40
0.775354613464605
40
0.775354613464605
40
0.792635027813482
40
0.792635027813482
40
0.827195856511235
40
0.827195856511235
40
0.861756685208988
40
0.861756685208988
40
0.896317513906741
40
0.896317513906741
40
0.930878342604494
40
0.930878342604494
40
0.965439171302247
40
0.965439171302247
40
1
40
1
40
1
40
1
41
1
10
58.2475285613043
20
-6.44347057400418
30
0
41
1
10
57.7741099733786
20
-6.61465798755646
30
0
41
1
10
57.3007415290171
20
-6.77574829354208
30
0
41
1
10
56.5751423093712
20
-7.00635522782454
30
0
41
1
10
56.3224674603318
20
-7.08370282898636
30
0
41
1
10
55.8169095115165
20
-7.23124182053857
30
0
41
1
10
55.5639851574863
20
-7.30135404588347
30
0
41
1
10
54.804641084513
20
-7.50210698990259
30
0
41
1
10
54.2973045092811
20
-7.62408287838267
30
0
41
1
10
53.2854269517933
20
-7.84014609192835
30
0
41
1
10
52.780068779093
20
-7.93449601574093
30
0
41
1
10
51.7681009041587
20
-8.09454360968414
30
0
41
1
10
51.2613446205737
20
-8.15864820136304
30
0
41
1
10
50.2487511935487
20
-8.26034304741296
30
0
41
1
10
49.7429248799239
20
-8.29640913951002
30
0
41
1
10
48.7309054227573
20
-8.33782655949372
30
0
41
1
10
48.2250565020935
20
-8.34507144359389
30
0
41
1
10
47.465785658889
20
-8.3320841081372
30
0
41
1
10
47.2123373777116
20
-8.32363708827958
30
0
41
1
10
46.7057992664667
20
-8.30000988245143
30
0
41
1
10
46.4526115284599
20
-8.28479141567774
30
0
41
1
10
45.9464049283235
20
-8.24680664651879
30
0
41
1
10
45.6933764459267
20
-8.22406609348221
30
0
41
1
10
45.1875535211333
20
-8.1705305879091
30
0
41
1
10
44.9347775878201
20
-8.13976907389556
30
0
41
1
10
44.1757962643543
20
-8.03840138849444
30
0
41
1
10
43.6685483044652
20
-7.95703473580122
30
0
41
1
10
42.6555943461411
20
-7.7657884128499
30
0
41
1
10
42.1502470752882
20
-7.656248610744
30
0
41
1
10
41.3914839101598
20
-7.47035633989745
30
0
41
1
10
41.1384310060199
20
-7.40442740385899
30
0
41
1
10
40.6320176258569
20
-7.26645223812082
30
0
41
1
10
40.3786821113876
20
-7.19478391624
30
0
41
1
10
39.6183512016609
20
-6.97048258897465
30
0
41
1
10
39.1127131132989
20
-6.80853892316051
30
0
41
1
10
38.1008430496902
20
-6.46196922390791
30
0
41
1
10
37.5947879266754
20
-6.27685805831126
30
0
41
1
10
36.8353328419153
20
-5.97965128101421
30
0
41
1
10
36.5821102230867
20
-5.8775450188036
30
0
41
1
10
36.0755095890897
20
-5.6692394325872
30
0
41
1
10
35.8222737588354
20
-5.56296654927806
30
0
41
1
10
35.0627124936797
20
-5.23740373625645
30
0
41
1
10
34.5564895140816
20
-5.01156306973004
30
0
41
1
10
33.7976477324365
20
-4.65818247016867
30
0
41
1
10
33.5447119987418
20
-4.53812821376653
30
0
41
1
10
33.03819123658
20
-4.29344818116181
30
0
41
1
10
32.7845243563382
20
-4.16865633815442
30
0
41
1
10
32.0240188643655
20
-3.7904915671632
30
0
41
1
10
31.5174962937272
20
-3.53243783733055
30
0
41
1
10
30.505467894272
20
-3.00338497573625
30
0
41
1
10
29.9991410484559
20
-2.73365345495958
30
0
41
1
10
29.2384548649019
20
-2.32168848341405
30
0
41
1
10
28.9846959755983
20
-2.18303883675395
30
0
41
1
10
28.4779566403871
20
-1.90374617417638
30
0
41
1
10
28.2248896112026
20
-1.76303204483745
30
0
41
1
10
27.4655649203907
20
-1.33952300671103
30
0
41
1
10
26.9591620005284
20
-1.05525829320456
30
0
41
1
10
25.9456497586662
20
-0.483369216586396
30
0
41
1
10
25.4385224406014
20
-0.194664724623976
30
0
41
1
10
24.6787374857001
20
0.236829870755344
30
0
41
1
10
24.4255230846609
20
0.380343597888412
30
0
41
1
10
23.9190626018266
20
0.666746466823469
30
0
41
1
10
23.6658302470433
20
0.809646740038914
30
0
41
1
10
22.9061640780012
20
1.23739439423378
30
0
41
1
10
22.3999356962716
20
1.52197970622518
30
0
41
1
10
21.3857035689694
20
2.08371934417471
30
0
41
1
10
20.8790568963629
20
2.36021287890557
30
0
41
1
10
19.8665931398123
20
2.9045207992526
30
0
41
1
10
19.3609733652093
20
3.17305510881033
30
0
41
1
10
18.3475898866082
20
3.69631743079617
30
0
41
1
10
17.8397343719325
20
3.95173205321362
30
0
41
1
10
16.8270100821117
20
4.44787764220951
30
0
41
1
10
16.3213030619756
20
4.68768974249966
30
0
41
1
10
15.308735945442
20
5.14997403177304
30
0
41
1
10
14.8019936081863
20
5.37275489111462
30
0
41
1
10
14.2948418794995
20
5.58634183758335
30
0
0
SPLINE
5
C5
100
AcDbEntity
8
1
62
256
6
ByLayer
370
18
48
1
60
0
100
AcDbSpline
70
2053
71
3
72
76
73
72
40
0
40
0
40
0
40
0
40
0.0312499999999991
40
0.0312499999999991
40
0.0468749999999987
40
0.0468749999999987
40
0.0624999999999983
40
0.0624999999999983
40
0.0937499999999976
40
0.0937499999999976
40
0.109374999999997
40
0.109374999999997
40
0.124999999999997
40
0.124999999999997
40
0.156249999999996
40
0.156249999999996
40
0.171874999999996
40
0.171874999999996
40
0.187499999999996
40
0.187499999999996
40
0.218749999999996
40
0.218749999999996
40
0.249999999999996
40
0.249999999999996
40
0.281249999999996
40
0.281249999999996
40
0.312499999999996
40
0.312499999999996
40
0.343749999999996
40
0.343749999999996
40
0.374999999999996
40
0.374999999999996
40
0.437499999999998
40
0.437499999999998
40
0.468749999999998
40
0.468749999999998
40
0.499999999999998
40
0.499999999999998
40
0.531249999999998
40
0.531249999999998
40
0.562499999999998
40
0.562499999999998
40
0.593749999999997
40
0.593749999999997
40
0.624999999999997
40
0.624999999999997
40
0.640624999999997
40
0.640624999999997
40
0.656249999999997
40
0.656249999999997
40
0.687499999999997
40
0.687499999999997
40
0.718749999999997
40
0.718749999999997
40
0.749999999999998
40
0.749999999999998
40
0.781249999999998
40
0.781249999999998
40
0.812499999999998
40
0.812499999999998
40
0.843749999999999
40
0.843749999999999
40
0.874999999999999
40
0.874999999999999
40
0.906249999999999
40
0.906249999999999
40
0.937499999999999
40
0.937499999999999
40
0.96875
40
0.96875
40
1
40
1
40
1
40
1
41
1
10
72.3021184173128
20
-3.57686888616165
30
0
41
1
10
72.2644278237611
20
-3.62892843850958
30
0
41
1
10
72.2274143444923
20
-3.68496885564963
30
0
41
1
10
72.173010802677
20
-3.77559460728102
30
0
41
1
10
72.1550636352167
20
-3.80690463152132
30
0
41
1
10
72.119580969916
20
-3.87194495253434
30
0
41
1
10
72.1020099642547
20
-3.90576818506193
30
0
41
1
10
72.0511993736423
20
-4.00880684366365
30
0
41
1
10
72.0194366382086
20
-4.08025723792292
30
0
41
1
10
71.9754870320238
20
-4.19225959266228
30
0
41
1
10
71.9615630966722
20
-4.23018296496085
30
0
41
1
10
71.9358777154751
20
-4.30539722963982
30
0
41
1
10
71.9240121646865
20
-4.34294754440171
30
0
41
1
10
71.8914332036416
20
-4.45542301951875
30
0
41
1
10
71.8736021887876
20
-4.53123337196431
30
0
41
1
10
71.854880717732
20
-4.63749008509527
30
0
41
1
10
71.8498911649765
20
-4.67189656744245
30
0
41
1
10
71.8423773037402
20
-4.73871433459826
30
0
41
1
10
71.8398573014255
20
-4.77130336939564
30
0
41
1
10
71.8361075100002
20
-4.86359436847016
30
0
41
1
10
71.8385194480988
20
-4.91870307739978
30
0
41
1
10
71.8521253897808
20
-5.01679489818917
30
0
41
1
10
71.8630938098774
20
-5.05833237092784
30
0
41
1
10
71.8921114695662
20
-5.12864377315404
30
0
41
1
10
71.9102153170871
20
-5.15718649700335
30
0
41
1
10
71.9515319325622
20
-5.20098177644635
30
0
41
1
10
71.9749847136253
20
-5.21660195612583
30
0
41
1
10
72.0264284351645
20
-5.23592079101985
30
0
41
1
10
72.0540575552615
20
-5.23954247028249
30
0
41
1
10
72.1127729839507
20
-5.23584153891156
30
0
41
1
10
72.1440509554867
20
-5.22842913547652
30
0
41
1
10
72.2417310573403
20
-5.19031882798012
30
0
41
1
10
72.3108239056754
20
-5.14487588202684
30
0
41
1
10
72.4205726850672
20
-5.04589915519651
30
0
41
1
10
72.4575636712579
20
-5.00819251510248
30
0
41
1
10
72.5315709897368
20
-4.92400309086676
30
0
41
1
10
72.5687135040995
20
-4.87741648588206
30
0
41
1
10
72.6433075795148
20
-4.77424577213614
30
0
41
1
10
72.6810616229505
20
-4.71709549763554
30
0
41
1
10
72.75388988002
20
-4.5957631579619
30
0
41
1
10
72.789266901755
20
-4.53126129268418
30
0
41
1
10
72.8575752332926
20
-4.3932122004444
30
0
41
1
10
72.8898394499951
20
-4.32088437602673
30
0
41
1
10
72.9483672941462
20
-4.17273343729858
30
0
41
1
10
72.9751057997679
20
-4.09541168101058
30
0
41
1
10
73.008153162414
20
-3.98251431718438
30
0
41
1
10
73.0180949261888
20
-3.94516941652972
30
0
41
1
10
73.0357594874842
20
-3.87107371056101
30
0
41
1
10
73.043533633868
20
-3.83401312882805
30
0
41
1
10
73.0628500738762
20
-3.72636190085069
30
0
41
1
10
73.0704782545791
20
-3.65954538647105
30
0
41
1
10
73.07580479597
20
-3.53527758417636
30
0
41
1
10
73.073375440294
20
-3.47986729000897
30
0
41
1
10
73.0597615563859
20
-3.38229177564969
30
0
41
1
10
73.0485123973735
20
-3.34022234502234
30
0
41
1
10
73.0192135275409
20
-3.2705325157475
30
0
41
1
10
73.0008711242622
20
-3.24222863810536
30
0
41
1
10
72.9591028133516
20
-3.19908292615628
30
0
41
1
10
72.9356971307075
20
-3.18402379190522
30
0
41
1
10
72.8844317652886
20
-3.16541129557899
30
0
41
1
10
72.8563309480828
20
-3.16191871405965
30
0
41
1
10
72.79717266614
20
-3.16604223064491
30
0
41
1
10
72.7661264799
20
-3.17354739658876
30
0
41
1
10
72.7012533257835
20
-3.19887569777006
30
0
41
1
10
72.6671709735336
20
-3.21688474557476
30
0
41
1
10
72.597537097022
20
-3.26265412637454
30
0
41
1
10
72.5620531173741
20
-3.29029188906273
30
0
41
1
10
72.4897419889375
20
-3.35513830477399
30
0
41
1
10
72.4529160497679
20
-3.39233833853157
30
0
41
1
10
72.3777757779748
20
-3.47734410722714
30
0
41
1
10
72.3398090108645
20
-3.52480933381372
30
0
41
1
10
72.3021184173128
20
-3.57686888616165
30
0
0
SPLINE
5
C6
100
AcDbEntity
8
1
62
256
6
ByLayer
370
18
48
1
60
0
100
AcDbSpline
70
4
71
3
72
18
73
14
40
0
40
0
40
0
40
0
40
0.250000000000001
40
0.250000000000001
40
0.500000000000003
40
0.500000000000003
40
0.625000000000002
40
0.625000000000002
40
0.750000000000001
40
0.750000000000001
40
0.875
40
0.875
40
1
40
1
40
1
40
1
41
1
10
73.6333472945182
20
-4.24915490736495
30
0
41
1
10
73.4987921066999
20
-4.61091713090318
30
0
41
1
10
73.3640390554796
20
-4.97191175226692
30
0
41
1
10
73.0945109682063
20
-5.69333500763807
30
0
41
1
10
72.9596889670421
20
-6.0536723978465
30
0
41
1
10
72.7572111976572
20
-6.59259799435131
30
0
41
1
10
72.6896927650494
20
-6.77207507968924
30
0
41
1
10
72.5546699929213
20
-7.13085326888935
30
0
41
1
10
72.4871562222483
20
-7.31011040978217
30
0
41
1
10
72.3521151108164
20
-7.66787378307308
30
0
41
1
10
72.2845856751048
20
-7.84626409005477
30
0
41
1
10
72.1495075676618
20
-8.20198026782336
30
0
41
1
10
72.081965711407
20
-8.37968327692147
30
0
41
1
10
72.0144115407561
20
-8.55670486183362
30
0
0
SPLINE
5
C7
100
AcDbEntity
8
1
62
256
6
ByLayer
370
18
48
1
60
0
100
AcDbSpline
70
4
71
3
72
90
73
86
40
0
40
0
40
0
40
0
40
0.0332358413896298
40
0.0332358413896298
40
0.0498537620844444
40
0.0498537620844444
40
0.0664716827792589
40
0.0664716827792589
40
0.0997075241688881
40
0.0997075241688881
40
0.116325444863703
40
0.116325444863703
40
0.132943365558517
40
0.132943365558517
40
0.166179206948146
40
0.166179206948146
40
0.199415048337776
40
0.199415048337776
40
0.232650889727405
40
0.232650889727405
40
0.249268810422219
40
0.249268810422219
40
0.265886731117034
40
0.265886731117034
40
0.299122572506663
40
0.299122572506663
40
0.315740493201478
40
0.315740493201478
40
0.332358413896292
40
0.332358413896292
40
0.365594255285921
40
0.365594255285921
40
0.398830096675551
40
0.398830096675551
40
0.415448017370365
40
0.415448017370365
40
0.43206593806518
40
0.43206593806518
40
0.46530177945481
40
0.46530177945481
40
0.481919700149625
40
0.481919700149625
40
0.49853762084444
40
0.49853762084444
40
0.53177346223407
40
0.53177346223407
40
0.565009303623701
40
0.565009303623701
40
0.598245145013331
40
0.598245145013331
40
0.614863065708147
40
0.614863065708147
40
0.631480986402962
40
0.631480986402962
40
0.664716827792592
40
0.664716827792592
40
0.681334748487407
40
0.681334748487407
40
0.697952669182223
40
0.697952669182223
40
0.731188510571853
40
0.731188510571853
40
0.764424351961484
40
0.764424351961484
40
0.781042272656299
40
0.781042272656299
40
0.797660193351114
40
0.797660193351114
40
0.830896034740745
40
0.830896034740745
40
0.84751395543556
40
0.84751395543556
40
0.864131876130375
40
0.864131876130375
40
0.897367717520004
40
0.897367717520004
40
0.930603558909634
40
0.930603558909634
40
0.963839400299264
40
0.963839400299264
40
0.980457320994079
40
0.980457320994079
40
0.997075241688895
40
0.997075241688895
40
1
40
1
40
1
40
1
41
1
10
22.9716433161097
20
8.70057405465164
30
0
41
1
10
23.4826739752222
20
8.70095091968781
30
0
41
1
10
23.9940846410122
20
8.68541087880587
30
0
41
1
10
24.7606958609368
20
8.63870861916166
30
0
41
1
10
25.0161563829407
20
8.61922711826753
30
0
41
1
10
25.52678390314
20
8.57234307309039
30
0
41
1
10
25.7817930770981
20
8.54487753304133
30
0
41
1
10
26.5478853858451
20
8.45093747072949
30
0
41
1
10
27.0605865707946
20
8.37306075614111
30
0
41
1
10
27.8274749372243
20
8.23370829182633
30
0
41
1
10
28.0828966976073
20
8.1834853855726
30
0
41
1
10
28.5931457508703
20
8.07532045172042
30
0
41
1
10
28.8480459992045
20
8.01740191346659
30
0
41
1
10
29.6140712104214
20
7.83349433650986
30
0
41
1
10
30.1260532396923
20
7.69685313951595
30
0
41
1
10
31.1493590660284
20
7.39504041502772
30
0
41
1
10
31.6590614634052
20
7.22955372607478
30
0
41
1
10
32.6806761293827
20
6.87519653152216
30
0
41
1
10
33.1918914335565
20
6.68580607827735
30
0
41
1
10
33.9584821466509
20
6.38234710531273
30
0
41
1
10
34.2139637739383
20
6.27769365046032
30
0
41
1
10
34.7249782531077
20
6.06335969638835
30
0
41
1
10
34.9805917452355
20
5.95381272967174
30
0
41
1
10
35.7472810559462
20
5.61756844935181
30
0
41
1
10
36.2582946553865
20
5.3834098888033
30
0
41
1
10
37.0237427553072
20
5.0158186532787
30
0
41
1
10
37.278771891826
20
4.89061947099779
30
0
41
1
10
37.7899335957798
20
4.63677248496901
30
0
41
1
10
38.0460133156172
20
4.50780163508242
30
0
41
1
10
38.8135122319264
20
4.11535644167344
30
0
41
1
10
39.3243624345955
20
3.84603962370735
30
0
41
1
10
40.3442662259028
20
3.29162674935588
30
0
41
1
10
40.8551838195892
20
3.00941056025857
30
0
41
1
10
41.6225896285016
20
2.57802280271201
30
0
41
1
10
41.8786282783085
20
2.43278014263345
30
0
41
1
10
42.3897131889609
20
2.13989689484922
30
0
41
1
10
42.6447271811968
20
1.99192490496043
30
0
41
1
10
43.4101251638262
20
1.54660679012144
30
0
41
1
10
43.9211557412703
20
1.24836450362616
30
0
41
1
10
44.6876501445758
20
0.796998896954619
30
0
41
1
10
44.9431621454886
20
0.645911562822135
30
0
41
1
10
45.4540401450227
20
0.342159374851434
30
0
41
1
10
45.7094793694468
20
0.18957500845417
30
0
41
1
10
46.4760149713861
20
-0.265730060449158
30
0
41
1
10
46.9871391754438
20
-0.567694149604648
30
0
41
1
10
48.0083634804431
20
-1.17056196087748
30
0
41
1
10
48.5178948035012
20
-1.47240208555655
30
0
41
1
10
49.5409175221303
20
-2.06664575101331
30
0
41
1
10
50.0527493148234
20
-2.35964510433115
30
0
41
1
10
50.8184102080559
20
-2.79335263637782
30
0
41
1
10
51.0732134406337
20
-2.93725182225037
30
0
41
1
10
51.5832569300589
20
-3.22166881908382
30
0
41
1
10
51.8386098017478
20
-3.36201653763757
30
0
41
1
10
52.6051835683122
20
-3.77826698165163
30
0
41
1
10
53.1175480910727
20
-4.0495380729858
30
0
41
1
10
53.8832621820677
20
-4.4462530786391
30
0
41
1
10
54.1381383514105
20
-4.57676147242236
30
0
41
1
10
54.6485547702463
20
-4.83234736662425
30
0
41
1
10
54.9039087675044
20
-4.95770261394
30
0
41
1
10
55.6701154929932
20
-5.32691168712594
30
0
41
1
10
56.1810063979943
20
-5.56407141872486
30
0
41
1
10
57.2027129327375
20
-6.02035818612919
30
0
41
1
10
57.7137181154557
20
-6.23637877327809
30
0
41
1
10
58.479887857329
20
-6.54288657766605
30
0
41
1
10
58.7352024423601
20
-6.64217198047555
30
0
41
1
10
59.2455368836866
20
-6.83508884092441
30
0
41
1
10
59.500400797508
20
-6.9288720172766
30
0
41
1
10
60.2659395608983
20
-7.20019718031253
30
0
41
1
10
60.7783290765936
20
-7.36751478025036
30
0
41
1
10
61.5447910470968
20
-7.59820794560127
30
0
41
1
10
61.8000729403539
20
-7.6717409149023
30
0
41
1
10
62.3100503872766
20
-7.81215305051418
30
0
41
1
10
62.5647747310599
20
-7.8789888574249
30
0
41
1
10
63.3302816077975
20
-8.06786832523667
30
0
41
1
10
63.8418972385345
20
-8.17901819104313
30
0
41
1
10
64.8646756440673
20
-8.37211151067774
30
0
41
1
10
65.3740772490553
20
-8.45396127997216
30
0
41
1
10
66.3950403977744
20
-8.5856752995935
30
0
41
1
10
66.9059405742855
20
-8.63598855218254
30
0
41
1
10
67.6720801499506
20
-8.68820413037062
30
0
41
1
10
67.9274041039972
20
-8.70173380088571
30
0
41
1
10
68.4381339596008
20
-8.72074588402751
30
0
41
1
10
68.6936457324719
20
-8.72623986830354
30
0
41
1
10
68.9941163450974
20
-8.72806305591033
30
0
41
1
10
69.0390851041529
20
-8.72821412098128
30
0
41
1
10
69.0840537697228
20
-8.72824322858358
30
0
0
SPLINE
5
C8
100
AcDbEntity
8
1
62
256
6
ByLayer
370
18
48
1
60
0
100
AcDbSpline
70
4
71
3
72
28
73
24
40
0
40
0
40
0
40
0
40
0.249999999999993
40
0.249999999999993
40
0.37499999999999
40
0.37499999999999
40
0.499999999999986
40
0.499999999999986
40
0.624999999999983
40
0.624999999999983
40
0.687499999999986
40
0.687499999999986
40
0.749999999999989
40
0.749999999999989
40
0.812499999999992
40
0.812499999999992
40
0.843749999999994
40
0.843749999999994
40
0.874999999999995
40
0.874999999999995
40
0.937499999999997
40
0.937499999999997
40
1
40
1
40
1
40
1
41
1
10
70.9118057022947
20
2.44809114335698
30
0
41
1
10
71.2088172894792
20
2.5018587453807
30
0
41
1
10
71.5044270237395
20
2.56368944655389
30
0
41
1
10
71.9405874475404
20
2.67731687972088
30
0
41
1
10
72.0848173427322
20
2.71873932923461
30
0
41
1
10
72.3699985119339
20
2.81179481756649
30
0
41
1
10
72.5109745970669
20
2.86334502460747
30
0
41
1
10
72.7878886559685
20
2.98240450499432
30
0
41
1
10
72.9231848907031
20
3.0495068067126
30
0
41
1
10
73.1152977664541
20
3.16858660863736
30
0
41
1
10
73.177624037272
20
3.21152663423979
30
0
41
1
10
73.2952360913209
20
3.30445330590228
30
0
41
1
10
73.3507982340175
20
3.35456036408667
30
0
41
1
10
73.4529426278653
20
3.46494373750267
30
0
41
1
10
73.4996803727514
20
3.52576577043504
30
0
41
1
10
73.5572778178959
20
3.62303787534157
30
0
41
1
10
73.5745262273023
20
3.65659388057361
30
0
41
1
10
73.6046704900733
20
3.72624206657764
30
0
41
1
10
73.6175819785263
20
3.76253249912531
30
0
41
1
10
73.6482031912017
20
3.87206774159526
30
0
41
1
10
73.6583212999155
20
3.94691679699935
30
0
41
1
10
73.6591059783366
20
4.10009421051547
30
0
41
1
10
73.6497954078647
20
4.17544116730858
30
0
41
1
10
73.6333472945175
20
4.24915490736473
30
0
0
SPLINE
5
C9
100
AcDbEntity
8
1
62
256
6
ByLayer
370
18
48
1
60
0
100
AcDbSpline
70
4
71
3
72
67
73
63
40
0
40
0
40
0
40
0
40
0.124999999999993
40
0.124999999999993
40
0.156249999999992
40
0.156249999999992
40
0.18749999999999
40
0.18749999999999
40
0.249999999999988
40
0.249999999999988
40
0.374999999999983
40
0.374999999999983
40
0.499999999999977
40
0.499999999999977
40
0.562499999999974
40
0.562499999999974
40
0.624999999999972
40
0.624999999999972
40
0.687499999999969
40
0.687499999999969
40
0.718749999999967
40
0.718749999999967
40
0.722656249999968
40
0.724609374999967
40
0.724609374999967
40
0.726562499999967
40
0.726562499999967
40
0.730468749999967
40
0.730468749999967
40
0.732421874999967
40
0.732421874999967
40
0.734374999999967
40
0.734374999999967
40
0.749999999999969
40
0.749999999999969
40
0.781249999999972
40
0.781249999999972
40
0.796874999999974
40
0.796874999999974
40
0.812499999999975
40
0.812499999999975
40
0.828124999999977
40
0.828124999999977
40
0.843749999999979
40
0.843749999999979
40
0.859374999999981
40
0.859374999999981
40
0.867187499999982
40
0.867187499999982
40
0.874999999999983
40
0.874999999999983
40
0.890624999999985
40
0.890624999999985
40
0.906249999999987
40
0.906249999999987
40
0.937499999999991
40
0.937499999999991
40
0.953124999999993
40
0.953124999999993
40
0.968749999999995
40
0.968749999999995
40
1
40
1
40
1
40
1
41
1
10
22.9716118647299
20
-8.70057403994898
30
0
41
1
10
21.9663673953976
20
-8.69983410852501
30
0
41
1
10
20.9502853563742
20
-8.63720694427494
30
0
41
1
10
19.6582063722971
20
-8.50190387959086
30
0
41
1
10
19.3984378143536
20
-8.47197533645056
30
0
41
1
10
18.8779308048165
20
-8.4072372894147
30
0
41
1
10
18.6171460743845
20
-8.37242878607725
30
0
41
1
10
17.8328690541923
20
-8.26176396433209
30
0
41
1
10
17.3074505375009
20
-8.17965396650447
30
0
41
1
10
15.7209131766907
20
-7.91753169217401
30
0
41
1
10
14.6493867018832
20
-7.72171974924868
30
0
41
1
10
12.4669890261688
20
-7.3402386082351
30
0
41
1
10
11.3561351660871
20
-7.15487214968027
30
0
41
1
10
9.65437907379598
20
-6.92122986180385
30
0
41
1
10
9.08087733610662
20
-6.85065040978461
30
0
41
1
10
7.92280338586832
20
-6.72948209893042
30
0
41
1
10
7.34138287947371
20
-6.67922097621968
30
0
41
1
10
6.17353196155989
20
-6.60288480721982
30
0
41
1
10
5.58766069371762
20
-6.57686188742173
30
0
41
1
10
4.70813790385012
20
-6.55794151877654
30
0
41
1
10
4.41465035573191
20
-6.55497346415726
30
0
41
1
10
4.08442101394266
20
-6.55552077790975
30
0
41
1
10
4.02938613499308
20
-6.55569288083379
30
0
41
1
10
3.97435628936077
20
-6.55598667403567
30
0
41
1
10
3.9376708460081
20
-6.55620961824243
30
0
41
1
10
3.91933284409092
20
-6.5564353264019
30
0
41
1
10
3.86442739473338
20
-6.55973597534205
30
0
41
1
10
3.82750534158217
20
-6.56465930334198
30
0
41
1
10
3.77613374821911
20
-6.57786753726677
30
0
41
1
10
3.75940466950235
20
-6.58331806438997
30
0
41
1
10
3.7285651822468
20
-6.59703269783873
30
0
41
1
10
3.71379198811425
20
-6.60442189710304
30
0
41
1
10
3.57876819592192
20
-6.6690269793699
30
0
41
1
10
3.46143877911587
20
-6.72799813644693
30
0
41
1
10
3.12135196610572
20
-6.90866357138594
30
0
41
1
10
2.9111826975975
20
-7.03352825774979
30
0
41
1
10
2.63030348934706
20
-7.22789842237714
30
0
41
1
10
2.54225661333237
20
-7.29404286910764
30
0
41
1
10
2.38134878445001
20
-7.42814623874304
30
0
41
1
10
2.30982671173692
20
-7.49497908749473
30
0
41
1
10
2.18682135548048
20
-7.62771423699732
30
0
41
1
10
2.13532761623628
20
-7.69361855089414
30
0
41
1
10
2.05533487069909
20
-7.82388569293246
30
0
41
1
10
2.02804563650329
20
-7.88635722258724
30
0
41
1
10
1.99844940577213
20
-8.00524920365868
30
0
41
1
10
1.99610166198551
20
-8.06173870793296
30
0
41
1
10
2.01096650185292
20
-8.14177630564782
30
0
41
1
10
2.01899911468874
20
-8.1675722938476
30
0
41
1
10
2.04058907874761
20
-8.21672056431316
30
0
41
1
10
2.05416374920881
20
-8.24018921453376
30
0
41
1
10
2.1025815688092
20
-8.30746193965305
30
0
41
1
10
2.14509506163949
20
-8.34813973006681
30
0
41
1
10
2.24784771630911
20
-8.42192948821693
30
0
41
1
10
2.30717463092822
20
-8.45440169012042
30
0
41
1
10
2.50361429705836
20
-8.54054535572348
30
0
41
1
10
2.65916112844971
20
-8.58322829518062
30
0
41
1
10
2.91792339608409
20
-8.63066101177006
30
0
41
1
10
3.00840162992313
20
-8.64362565056152
30
0
41
1
10
3.1942213582237
20
-8.66435519154564
30
0
41
1
10
3.28987253615173
20
-8.672177798196
30
0
41
1
10
3.5836489624327
20
-8.68902682536589
30
0
41
1
10
3.7885270259429
20
-8.6914866135721
30
0
41
1
10
4.00000015227934
20
-8.68689991461221
30
0
0
SPLINE
5
CA
100
AcDbEntity
8
1
62
256
6
ByLayer
370
18
48
1
60
0
100
AcDbSpline
70
4
71
3
72
28
73
24
40
0
40
0
40
0
40
0
40
0.0359412324974393
40
0.0359412324974393
40
0.143058873331057
40
0.143058873331057
40
0.250176514164674
40
0.250176514164674
40
0.357294154998292
40
0.357294154998292
40
0.46441179583191
40
0.46441179583191
40
0.517970616248719
40
0.517970616248719
40
0.571529436665528
40
0.571529436665528
40
0.678647077499146
40
0.678647077499146
40
0.785764718332764
40
0.785764718332764
40
0.892882359166382
40
0.892882359166382
40
1
40
1
40
1
40
1
41
1
10
48.7245362092915
20
8.3333913865591
30
0
41
1
10
48.8943010272596
20
8.32958612052096
30
0
41
1
10
49.0640864773776
20
8.32417218958992
30
0
41
1
10
49.7400457257674
20
8.29658223526292
30
0
41
1
10
50.2465614391107
20
8.2605233770567
30
0
41
1
10
51.259258301187
20
8.15889715139085
30
0
41
1
10
51.7654904866873
20
8.09490525069384
30
0
41
1
10
52.7775097166206
20
7.93495169198857
30
0
41
1
10
53.2830863486989
20
7.84061103595238
30
0
41
1
10
54.2957783217507
20
7.6244434659242
30
0
41
1
10
54.8029449945844
20
7.50252450576417
30
0
41
1
10
55.5621196153937
20
7.30186261470269
30
0
41
1
10
55.8150343652501
20
7.23177142148634
30
0
41
1
10
56.3206816579729
20
7.08424149008792
30
0
41
1
10
56.5734535947669
20
7.00687949110218
30
0
41
1
10
57.3326320665895
20
6.76563773590763
30
0
41
1
10
57.8399946393572
20
6.59218593951994
30
0
41
1
10
58.8527768704742
20
6.22296937519269
30
0
41
1
10
59.3582025601761
20
6.02722893627475
30
0
41
1
10
60.3703956165879
20
5.61677493658732
30
0
41
1
10
60.8767724122042
20
5.40081927956254
30
0
41
1
10
61.8902896973565
20
4.94911860257261
30
0
41
1
10
62.3959596270317
20
4.71388912617141
30
0
41
1
10
62.9019893737555
20
4.47080301359404
30
0
0
SPLINE
5
CB
100
AcDbEntity
8
1
62
256
6
ByLayer
370
18
48
1
60
0
100
AcDbSpline
70
4
71
3
72
20
73
16
40
0
40
0
40
0
40
0
40
0.0386858203567041
40
0.0386858203567041
40
0.131457636088144
40
0.131457636088144
40
0.317001267551022
40
0.317001267551022
40
0.688088530476778
40
0.688088530476778
40
0.873632161939656
40
0.873632161939656
40
0.966403977671097
40
0.966403977671097
40
1
40
1
40
1
40
1
41
1
10
47.2134722345959
20
0.0001745069172898
30
0
41
1
10
47.3613352679541
20
-0.0848687160381303
30
0
41
1
10
47.5092453003535
20
-0.169941148932537
30
0
41
1
10
48.0120619481112
20
-0.459042972832321
30
0
41
1
10
48.3676511444913
20
-0.663324290107226
30
0
41
1
10
49.4335166023763
20
-1.27332573857308
30
0
41
1
10
50.1399825949241
20
-1.67461101941862
30
0
41
1
10
52.25252279063
20
-2.85336903827584
30
0
41
1
10
53.6517885024006
20
-3.60577822325919
30
0
41
1
10
55.7584221700293
20
-4.64962573132613
30
0
41
1
10
56.461907786921
20
-4.98347628954639
30
0
41
1
10
57.5217135449414
20
-5.45884328467974
30
0
41
1
10
57.8757564944899
20
-5.61304412574651
30
0
41
1
10
58.3593766388071
20
-5.81679345465358
30
0
41
1
10
58.488044268691
20
-5.87033734472573
30
0
41
1
10
58.6167290399934
20
-5.92320797437742
30
0
0
SPLINE
5
CC
100
AcDbEntity
8
1
62
256
6
ByLayer
370
13
48
1
60
0
100
AcDbSpline
70
4
71
3
72
22
73
18
40
0
40
0
40
0
40
0
40
0.0504724460613605
40
0.0504724460613605
40
0.208727038384467
40
0.208727038384467
40
0.366981630707575
40
0.366981630707575
40
0.683490815353787
40
0.683490815353787
40
0.841745407676894
40
0.841745407676894
40
0.920872703838447
40
0.920872703838447
40
0.960436351919223
40
0.960436351919223
40
1
40
1
40
1
40
1
41
1
10
58.6167290493803
20
-5.92320797823402
30
0
41
1
10
58.8433934818844
20
-6.01633392575167
30
0
41
1
10
59.0701110957139
20
-6.10737107966423
30
0
41
1
10
60.0062021690734
20
-6.47411638149447
30
0
41
1
10
60.714399789367
20
-6.72996594344625
30
0
41
1
10
62.1316452702215
20
-7.19302670956625
30
0
41
1
10
62.840956018662
20
-7.40040930030182
30
0
41
1
10
64.9735128910765
20
-7.94396891640625
30
0
41
1
10
66.3802217545773
20
-8.19576707891426
30
0
41
1
10
68.4900099641563
20
-8.40122208554925
30
0
41
1
10
69.1932483234013
20
-8.44105130492846
30
0
41
1
10
70.2506152199793
20
-8.45693965373695
30
0
41
1
10
70.6034836191414
20
-8.45491830750984
30
0
41
1
10
71.1337358672701
20
-8.44078156824838
30
0
41
1
10
71.3106448621739
20
-8.43421818357646
30
0
41
1
10
71.6648342261616
20
-8.4173634668723
30
0
41
1
10
71.8421538512996
20
-8.40674717126757
30
0
41
1
10
72.0196008854468
20
-8.39496228716723
30
0
0
SPLINE
5
CD
100
AcDbEntity
8
1
62
256
6
ByLayer
370
18
48
1
60
0
100
AcDbSpline
70
4
71
3
72
10
73
6
40
0
40
0
40
0
40
0
40
0.5
40
0.5
40
1
40
1
40
1
40
1
41
1
10
4.00000015227718
20
-1.53290763702282
30
0
41
1
10
4.00000015227718
20
-1.56896473786222
30
0
41
1
10
4.01092374158372
20
-1.60577743442588
30
0
41
1
10
4.05293864446762
20
-1.67013467647021
30
0
41
1
10
4.08455685459214
20
-1.69892085883413
30
0
41
1
10
4.1254532304483
20
-1.71907971347147
30
0
0
SPLINE
5
CE
100
AcDbEntity
8
1
62
256
6
ByLayer
370
18
48
1
60
0
100
AcDbSpline
70
4
71
3
72
10
73
6
40
0
40
0
40
0
40
0
40
0.640610365176489
40
0.640610365176489
40
1
40
1
40
1
40
1
41
1
10
71.9156550291325
20
8.67467876195096
30
0
41
1
10
71.5623627286274
20
8.69810597393669
30
0
41
1
10
71.2091061448363
20
8.71395721107612
30
0
41
1
10
70.6573886898895
20
8.72685175420835
30
0
41
1
10
70.4589856201802
20
8.72909273370817
30
0
41
1
10
70.2606351528695
20
8.72894438122322
30
0
0
SPLINE
5
CF
100
AcDbEntity
8
1
62
256
6
ByLayer
370
18
48
1
60
0
100
AcDbSpline
70
4
71
3
72
34
73
30
40
0
40
0
40
0
40
0
40
0.0372869737703485
40
0.0372869737703485
40
0.124806339791227
40
0.124806339791227
40
0.212325705812105
40
0.212325705812105
40
0.256085388822545
40
0.256085388822545
40
0.299845071832984
40
0.299845071832984
40
0.387364437853861
40
0.387364437853861
40
0.474883803874738
40
0.474883803874738
40
0.562403169895615
40
0.562403169895615
40
0.606162852906054
40
0.606162852906054
40
0.649922535916493
40
0.649922535916493
40
0.73744190193737
40
0.73744190193737
40
0.781201584947808
40
0.781201584947808
40
0.824961267958247
40
0.824961267958247
40
1
40
1
40
1
40
1
41
1
10
28.3391841068579
20
-8.35378919697436
30
0
41
1
10
28.038190957038
20
-8.40374399683029
30
0
41
1
10
27.7369869385915
20
-8.44846407016274
30
0
41
1
10
26.7277781503821
20
-8.58025082111138
30
0
41
1
10
26.0220655577997
20
-8.64273136987808
30
0
41
1
10
24.6109420525271
20
-8.70754697711746
30
0
41
1
10
23.9056461671436
20
-8.70987872593213
30
0
41
1
10
22.8450140706538
20
-8.66790298947186
30
0
41
1
10
22.4908406317927
20
-8.64630835681243
30
0
41
1
10
21.7839692370253
20
-8.58819925196727
30
0
41
1
10
21.4309381384734
20
-8.55167790039314
30
0
41
1
10
20.37226773852
20
-8.42005684430737
30
0
41
1
10
19.6671302342596
20
-8.30287667908095
30
0
41
1
10
18.2543117638667
20
-8.01130149338971
30
0
41
1
10
17.5457283934095
20
-7.83657870201498
30
0
41
1
10
16.1331890333865
20
-7.43515499380112
30
0
41
1
10
15.4280497966069
20
-7.20822557550218
30
0
41
1
10
14.369139786788
20
-6.83119830540946
30
0
41
1
10
14.0159535425885
20
-6.69943336535047
30
0
41
1
10
13.3086602647003
20
-6.42419063080638
30
0
41
1
10
12.9544139679865
20
-6.28064324701148
30
0
41
1
10
11.8937774411883
20
-5.83486953114718
30
0
41
1
10
11.1883379473487
20
-5.51678222690268
30
0
41
1
10
10.1294174833204
20
-5.01255535149156
30
0
41
1
10
9.7763065535157
20
-4.83998180710785
30
0
41
1
10
9.06938772084871
20
-4.48640196257176
30
0
41
1
10
8.71523708928115
20
-4.30521445624652
30
0
41
1
10
6.94625841176006
20
-3.38237968429826
30
0
41
1
10
5.53856382937934
20
-2.59027890722138
30
0
41
1
10
4.12263379691208
20
-1.76934894432651
30
0
0
SPLINE
5
D0
100
AcDbEntity
8
1
62
256
6
ByLayer
370
18
48
1
60
0
100
AcDbSpline
70
4
71
3
72
14
73
10
40
0
40
0
40
0
40
0
40
0.25
40
0.25
40
0.5
40
0.5
40
0.75
40
0.75
40
1
40
1
40
1
40
1
41
1
10
4.12263379691214
20
-1.76934894432651
30
0
41
1
10
4.10386814846979
20
-1.75846896952109
30
0
41
1
10
4.08694301611783
20
-1.74545969241211
30
0
41
1
10
4.05666272263252
20
-1.71529909377173
30
0
41
1
10
4.0434250627591
20
-1.69812071332075
30
0
41
1
10
4.02213928425607
20
-1.66146074899069
30
0
41
1
10
4.01380056203953
20
-1.64144245422142
30
0
41
1
10
4.0028039791886
20
-1.60056576145647
30
0
41
1
10
4.00000015227718
20
-1.57963017695209
30
0
41
1
10
4.00000015227718
20
-1.55817567424492
30
0
0
SPLINE
5
D1
100
AcDbEntity
8
1
62
256
6
ByLayer
370
13
48
1
60
0
100
AcDbSpline
70
4
71
3
72
40
73
36
40
0
40
0
40
0
40
0
40
0.0624999999999999
40
0.0624999999999999
40
0.125
40
0.125
40
0.1875
40
0.1875
40
0.21875
40
0.21875
40
0.25
40
0.25
40
0.375
40
0.375
40
0.4375
40
0.4375
40
0.5
40
0.5
40
0.5625
40
0.5625
40
0.625
40
0.625
40
0.75
40
0.75
40
0.78125
40
0.78125
40
0.8125
40
0.8125
40
0.875
40
0.875
40
0.9375
40
0.9375
40
0.96875
40
0.96875
40
1
40
1
40
1
40
1
41
1
10
4.25021304056563
20
-1.6523300709255
30
0
41
1
10
4.25021682767451
20
-1.35006378261426
30
0
41
1
10
4.25021754502086
20
-1.04613826067603
30
0
41
1
10
4.25021436001333
20
-0.435021569238046
30
0
41
1
10
4.25021044180102
20
-0.127141773900547
30
0
41
1
10
4.25019949330155
20
0.488850837432892
30
0
41
1
10
4.25019250450376
20
0.795309643038252
30
0
41
1
10
4.25018092926749
20
1.25270148437858
30
0
41
1
10
4.25017687848512
20
1.40512486560988
30
0
41
1
10
4.25016865131198
20
1.70734624188168
30
0
41
1
10
4.25016447962736
20
1.8570102159226
30
0
41
1
10
4.25014379223074
20
2.59824697799581
30
0
41
1
10
4.25012786969731
20
3.16882490670363
30
0
41
1
10
4.25011254851779
20
3.99081608159051
30
0
41
1
10
4.25010886707582
20
4.25964168835864
30
0
41
1
10
4.2501054789798
20
4.77570911448956
30
0
41
1
10
4.25010574184381
20
5.02431947667617
30
0
41
1
10
4.25011086969184
20
5.50174988548602
30
0
41
1
10
4.25011571146084
20
5.72850912076754
30
0
41
1
10
4.25013022191214
20
6.15835493461785
30
0
41
1
10
4.2501399557552
20
6.36220475879685
30
0
41
1
10
4.2501758724836
20
6.92815701004534
30
0
41
1
10
4.25020883381958
20
7.24777436110153
30
0
41
1
10
4.25025863298879
20
7.57571752775121
30
0
41
1
10
4.2502690160654
20
7.63768660680216
30
0
41
1
10
4.25029053229298
20
7.75423126064612
30
0
41
1
10
4.25030165148581
20
7.80869171500154
30
0
41
1
10
4.25033552359776
20
7.9589915426217
30
0
41
1
10
4.25035892320042
20
8.04251282728643
30
0
41
1
10
4.25040613719537
20
8.17699123630834
30
0
41
1
10
4.2504299540856
20
8.22794719377208
30
0
41
1
10
4.25046496680613
20
8.27965412641129
30
0
41
1
10
4.25047651756881
20
8.292759447761
30
0
41
1
10
4.25049918668398
20
8.31054291902993
30
0
41
1
10
4.25051031245067
20
8.31519058845595
30
0
41
1
10
4.25052098538109
20
8.3155562083621
30
0
0
SPLINE
5
D2
100
AcDbEntity
8
1
62
256
6
ByLayer
370
18
48
1
60
0
100
AcDbSpline
70
4
71
3
72
32
73
28
40
0
40
0
40
0
40
0
40
0.0548204387840114
40
0.0548204387840114
40
0.1104192365026
40
0.1104192365026
40
0.221616831939777
40
0.221616831939777
40
0.277215629658365
40
0.277215629658365
40
0.332814427376952
40
0.332814427376952
40
0.444012022814127
40
0.444012022814127
40
0.555209618251303
40
0.555209618251303
40
0.666407213688478
40
0.666407213688478
40
0.722006011407065
40
0.722006011407065
40
0.777604809125653
40
0.777604809125653
40
0.888802404562828
40
0.888802404562828
40
0.944401202281414
40
0.944401202281414
40
1
40
1
40
1
40
1
41
1
10
58.2352239413238
20
6.44500658975147
30
0
41
1
10
58.4870364142638
20
6.54566592834283
30
0
41
1
10
58.7387746722314
20
6.64352235645597
30
0
41
1
10
59.2455368836866
20
6.83508884092444
30
0
41
1
10
59.500400797508
20
6.92887201727663
30
0
41
1
10
60.2659395608984
20
7.20019718031247
30
0
41
1
10
60.7783290765936
20
7.36751478025036
30
0
41
1
10
61.5447910470968
20
7.59820794560127
30
0
41
1
10
61.8000729403539
20
7.6717409149023
30
0
41
1
10
62.3100503872766
20
7.81215305051421
30
0
41
1
10
62.5647747310599
20
7.8789888574249
30
0
41
1
10
63.3302816077975
20
8.0678683252367
30
0
41
1
10
63.8418972385344
20
8.17901819104313
30
0
41
1
10
64.8646756440673
20
8.37211151067774
30
0
41
1
10
65.3740772490553
20
8.45396127997216
30
0
41
1
10
66.3950403977744
20
8.5856752995935
30
0
41
1
10
66.9059405742854
20
8.63598855218254
30
0
41
1
10
67.6720801499506
20
8.68820413037062
30
0
41
1
10
67.9274041039972
20
8.70173380088571
30
0
41
1
10
68.4381339596009
20
8.72074588402751
30
0
41
1
10
68.6936457324719
20
8.72623986830354
30
0
41
1
10
69.4601522299004
20
8.73089085608041
30
0
41
1
10
69.9711968815955
20
8.71826412289576
30
0
41
1
10
70.7369312940508
20
8.675371531731
30
0
41
1
10
70.9921488774274
20
8.65703601974727
30
0
41
1
10
71.5032803047249
20
8.61265655721905
30
0
41
1
10
71.7588793960402
20
8.58660605091501
30
0
41
1
10
72.0144115407561
20
8.55670486183385
30
0
0
SPLINE
5
D3
100
AcDbEntity
8
1
62
256
6
ByLayer
370
18
48
1
60
0
100
AcDbSpline
70
4
71
3
72
20
73
16
40
0
40
0
40
0
40
0
40
0.124999999999999
40
0.124999999999999
40
0.249999999999997
40
0.249999999999997
40
0.374999999999996
40
0.374999999999996
40
0.499999999999994
40
0.499999999999994
40
0.624999999999993
40
0.624999999999993
40
0.749999999999992
40
0.749999999999992
40
1
40
1
40
1
40
1
41
1
10
4.25052098537984
20
-8.31555620836062
30
0
41
1
10
4.23685585572437
20
-8.31556159711616
30
0
41
1
10
4.2226801844734
20
-8.316622963448
30
0
41
1
10
4.19288862547421
20
-8.3216664921805
30
0
41
1
10
4.17706566545911
20
-8.3257194410086
30
0
41
1
10
4.14478191196514
20
-8.33791125089053
30
0
41
1
10
4.1279384892629
20
-8.34625893180217
30
0
41
1
10
4.09578105926135
20
-8.36751531823603
30
0
41
1
10
4.08041163102641
20
-8.38052281216011
30
0
41
1
10
4.0539853404334
20
-8.40891543093258
30
0
41
1
10
4.04299313024822
20
-8.4241099633133
30
0
41
1
10
4.02545872807659
20
-8.45419279217381
30
0
41
1
10
4.01890244153287
20
-8.46893090931027
30
0
41
1
10
4.00376216211501
20
-8.51258410907576
30
0
41
1
10
4.00000015227718
20
-8.53970749416587
30
0
41
1
10
4.00000015227718
20
-8.56535612496779
30
0
0
SPLINE
5
D4
100
AcDbEntity
8
1
62
256
6
ByLayer
370
18
48
1
60
0
100
AcDbSpline
70
4
71
3
72
16
73
12
40
0
40
0
40
0
40
0
40
0.25000000000001
40
0.25000000000001
40
0.50000000000002
40
0.50000000000002
40
0.625000000000025
40
0.625000000000025
40
0.75000000000003
40
0.75000000000003
40
1
40
1
40
1
40
1
41
1
10
4.00000015227715
20
8.56535612496782
30
0
41
1
10
4.00000015227718
20
8.53973218410619
30
0
41
1
10
4.00370290944883
20
8.5128955741809
30
0
41
1
10
4.02376270735564
20
8.45477863506278
30
0
41
1
10
4.04062052400434
20
8.42340646956521
30
0
41
1
10
4.07990092845097
20
8.38100709183615
30
0
41
1
10
4.09514170312613
20
8.36799846579518
30
0
41
1
10
4.12752640925402
20
8.34647272628521
30
0
41
1
10
4.14437845429242
20
8.33808764036982
30
0
41
1
10
4.1931185900286
20
8.31960973354191
30
0
41
1
10
4.22311009296206
20
8.31556701767059
30
0
41
1
10
4.25052098537734
20
8.31555620836207
30
0
0
SPLINE
5
D5
100
AcDbEntity
8
1
62
256
6
ByLayer
370
13
48
1
60
0
100
AcDbSpline
70
4
71
3
72
10
73
6
40
0
40
0
40
0
40
0
40
0.5
40
0.5
40
1
40
1
40
1
40
1
41
1
10
4.25021304056557
20
-1.6523300709255
30
0
41
1
10
4.22841208270123
20
-1.64506504606425
30
0
41
1
10
4.20704948038357
20
-1.63851829422529
30
0
41
1
10
4.16519541779866
20
-1.62679340410105
30
0
41
1
10
4.1446174675842
20
-1.62160950452216
30
0
41
1
10
4.1254532304483
20
-1.61739414087057
30
0
0
SPLINE
5
D6
100
AcDbEntity
8
1
62
256
6
ByLayer
370
18
48
1
60
0
100
AcDbSpline
70
4
71
3
72
18
73
14
40
0
40
0
40
0
40
0
40
0.256681781916473
40
0.256681781916473
40
0.320852227395592
40
0.320852227395592
40
0.385022672874711
40
0.385022672874711
40
0.513363563832949
40
0.513363563832949
40
0.770045345749423
40
0.770045345749423
40
1
40
1
40
1
40
1
41
1
10
22.9716118647299
20
8.70057403994898
30
0
41
1
10
21.9663673953976
20
8.69983410852501
30
0
41
1
10
20.9502853563743
20
8.63720694427494
30
0
41
1
10
19.6582063722973
20
8.50190387959088
30
0
41
1
10
19.3984378143538
20
8.47197533645061
30
0
41
1
10
18.8779308048168
20
8.40723728941475
30
0
41
1
10
18.6171460743847
20
8.37242878607728
30
0
41
1
10
17.8328690541927
20
8.26176396433212
30
0
41
1
10
17.3074505375013
20
8.17965396650453
30
0
41
1
10
15.7209131766911
20
7.91753169217407
30
0
41
1
10
14.6493867018837
20
7.72171974924876
30
0
41
1
10
12.5806106880986
20
7.36009957203612
30
0
41
1
10
11.5872585670799
20
7.19353317952999
30
0
41
1
10
10.5752588838677
20
7.04870246664228
30
0
0
SPLINE
5
D7
100
AcDbEntity
8
1
62
256
6
ByLayer
370
18
48
1
60
0
100
AcDbSpline
70
4
71
3
72
8
73
4
40
0
40
0
40
0
40
0
40
1
40
1
40
1
40
1
41
1
10
3.80159111298411
20
8.68908273001085
30
0
41
1
10
3.86701785433308
20
8.68909495980094
30
0
41
1
10
3.93317977557453
20
8.68834920019108
30
0
41
1
10
4.00000015227849
20
8.68689991461218
30
0
0
SPLINE
5
D8
100
AcDbEntity
8
1
62
256
6
ByLayer
370
18
48
1
60
0
100
AcDbSpline
70
4
71
3
72
48
73
44
40
0
40
0
40
0
40
0
40
0.250000000000002
40
0.250000000000002
40
0.375000000000001
40
0.375000000000001
40
0.437500000000001
40
0.437500000000001
40
0.5
40
0.5
40
0.625000000000003
40
0.625000000000003
40
0.687500000000002
40
0.687500000000002
40
0.750000000000002
40
0.750000000000002
40
0.765625000000002
40
0.765625000000002
40
0.781250000000002
40
0.781250000000002
40
0.812500000000001
40
0.812500000000001
40
0.843750000000001
40
0.843750000000001
40
0.859375000000001
40
0.859375000000001
40
0.875000000000001
40
0.875000000000001
40
0.890625000000001
40
0.890625000000001
40
0.90625
40
0.90625
40
0.921875
40
0.921875
40
0.9375
40
0.9375
40
0.953125
40
0.953125
40
0.96875
40
0.96875
40
0.984375
40
0.984375
40
1
40
1
40
1
40
1
41
1
10
62.9019893737554
20
4.47080301359401
30
0
41
1
10
63.5901978991516
20
3.88569653811714
30
0
41
1
10
64.2976091246601
20
3.35324689123607
30
0
41
1
10
65.3922982971336
20
2.64663304977199
30
0
41
1
10
65.7627605237131
20
2.42635750101076
30
0
41
1
10
66.3277957651208
20
2.12156114346195
30
0
41
1
10
66.5182167236077
20
2.02400793256018
30
0
41
1
10
66.8996844241769
20
1.83950707885319
30
0
41
1
10
67.0905145613424
20
1.75263093589388
30
0
41
1
10
67.6633087269862
20
1.50895664454021
30
0
41
1
10
68.0455734986018
20
1.36894457315969
30
0
41
1
10
68.6196774485617
20
1.1983763237277
30
0
41
1
10
68.8112556664162
20
1.14814746992582
30
0
41
1
10
69.191437218826
20
1.06303023037893
30
0
41
1
10
69.3804666812307
20
1.02800957262357
30
0
41
1
10
69.6151288270683
20
0.994556038461809
30
0
41
1
10
69.6620346742393
20
0.988048357415067
30
0
41
1
10
69.7550756041435
20
0.978401649532742
30
0
41
1
10
69.8012301888569
20
0.974970567940431
30
0
41
1
10
69.9384895350418
20
0.969103673090956
30
0
41
1
10
70.028072421023
20
0.971095699323286
30
0
41
1
10
70.2008752963875
20
0.989016515761733
30
0
41
1
10
70.2843542379012
20
1.00490075600641
30
0
41
1
10
70.4034090512723
20
1.04332960718568
30
0
41
1
10
70.4421486459582
20
1.05867452863498
30
0
41
1
10
70.5152352527754
20
1.094780539243
30
0
41
1
10
70.5497636694363
20
1.11562300252251
30
0
41
1
10
70.6139340493057
20
1.1640728534974
30
0
41
1
10
70.64374667375
20
1.19192410582437
30
0
41
1
10
70.6972058928134
20
1.25387914110763
30
0
41
1
10
70.7206369071748
20
1.28762621906887
30
0
41
1
10
70.7609583495435
20
1.36061196989698
30
0
41
1
10
70.7778326033098
20
1.39986422294984
30
0
41
1
10
70.8047138621346
20
1.48413459559697
30
0
41
1
10
70.8146031213373
20
1.52901017398355
30
0
41
1
10
70.8270577543721
20
1.62205549855005
30
0
41
1
10
70.8296649805083
20
1.67049123611528
30
0
41
1
10
70.8284098350394
20
1.76879276269813
30
0
41
1
10
70.8246208489043
20
1.81891020051413
30
0
41
1
10
70.811393897906
20
1.92087238071932
30
0
41
1
10
70.8018876854158
20
1.97288808217752
30
0
41
1
10
70.7782674705095
20
2.07689959610099
30
0
41
1
10
70.764174948273
20
2.12905223468817
30
0
41
1
10
70.7482494151185
20
2.18132283414079
30
0
0
SPLINE
5
D9
100
AcDbEntity
8
1
62
256
6
ByLayer
370
18
48
1
60
0
100
AcDbSpline
70
4
71
3
72
8
73
4
40
0
40
0
40
0
40
0
40
1
40
1
40
1
40
1
41
1
10
4.00000015227721
20
-8.56535612496776
30
0
41
1
10
4.00000015227721
20
-8.60536120967524
30
0
41
1
10
4.00000015227718
20
-8.64587557501304
30
0
41
1
10
4.00000015227718
20
-8.68689991461224
30
0
0
SPLINE
5
DA
100
AcDbEntity
8
1
62
256
6
ByLayer
370
18
48
1
60
0
100
AcDbSpline
70
4
71
3
72
26
73
22
40
0
40
0
40
0
40
0
40
0.113461287373555
40
0.113461287373555
40
0.176785481132586
40
0.176785481132586
40
0.240109674891618
40
0.240109674891618
40
0.493406449927745
40
0.493406449927745
40
0.556730643686777
40
0.556730643686777
40
0.620054837445809
40
0.620054837445809
40
0.746703224963873
40
0.746703224963873
40
0.873351612481936
40
0.873351612481936
40
0.936675806240968
40
0.936675806240968
40
1
40
1
40
1
40
1
41
1
10
71.9209092738517
20
-8.35512283584887
30
0
41
1
10
71.8129108069676
20
-8.35168076740118
30
0
41
1
10
71.7096653331388
20
-8.33391289201822
30
0
41
1
10
71.5565213094629
20
-8.28294773327033
30
0
41
1
10
71.5032134785652
20
-8.26002622804111
30
0
41
1
10
71.3998183427122
20
-8.20447635869596
30
0
41
1
10
71.3495740322141
20
-8.17170236784904
30
0
41
1
10
71.1097700052533
20
-7.98483901620301
30
0
41
1
10
70.9524489922199
20
-7.76260070424178
30
0
41
1
10
70.8011082972112
20
-7.38932118539586
30
0
41
1
10
70.7731357465389
20
-7.3098278561263
30
0
41
1
10
70.7219679144673
20
-7.1407741991153
30
0
41
1
10
70.698733475109
20
-7.0509187129293
30
0
41
1
10
70.6374705362767
20
-6.77024956795796
30
0
41
1
10
70.6074353107709
20
-6.56728811834444
30
0
41
1
10
70.5686627043162
20
-6.13013072531811
30
0
41
1
10
70.5599243136648
20
-5.89593626269107
30
0
41
1
10
70.5632619711041
20
-5.52052668902141
30
0
41
1
10
70.5671454088366
20
-5.39096215982175
30
0
41
1
10
70.5804750853293
20
-5.12550594680977
30
0
41
1
10
70.589885724595
20
-4.98996728835709
30
0
41
1
10
70.6019979433623
20
-4.8516633422982
30
0
0
SPLINE
5
DB
100
AcDbEntity
8
1
62
256
6
ByLayer
370
18
48
1
60
0
100
AcDbSpline
70
4
71
3
72
14
73
10
40
0
40
0
40
0
40
0
40
0.25
40
0.25
40
0.5
40
0.5
40
0.75
40
0.75
40
1
40
1
40
1
40
1
41
1
10
70.7482494151185
20
2.18132283414079
30
0
41
1
10
70.7397805690837
20
2.20911918196879
30
0
41
1
10
70.7350359823743
20
2.23800387717492
30
0
41
1
10
70.7373177316772
20
2.29691413542122
30
0
41
1
10
70.7447426740995
20
2.3267152886016
30
0
41
1
10
70.7750278145569
20
2.37918342671887
30
0
41
1
10
70.7981098427238
20
2.40177901355003
30
0
41
1
10
70.8514902264787
20
2.43309646218609
30
0
41
1
10
70.8813153956788
20
2.44257152478841
30
0
41
1
10
70.9118057022947
20
2.44809114335698
30
0
0
SPLINE
5
DC
100
AcDbEntity
8
1
62
256
6
ByLayer
370
18
48
1
60
0
100
AcDbSpline
70
4
71
3
72
8
73
4
40
0
40
0
40
0
40
0
40
1
40
1
40
1
40
1
41
1
10
72.0431017237169
20
-8.30749301181024
30
0
41
1
10
72.0092662947153
20
-8.33960244821878
30
0
41
1
10
71.9811184509344
20
-8.35577921754719
30
0
41
1
10
71.9587581112676
20
-8.35574341639179
30
0
0
SPLINE
5
DD
100
AcDbEntity
8
1
62
256
6
ByLayer
370
13
48
1
60
0
100
AcDbSpline
70
4
71
3
72
8
73
4
40
0
40
0
40
0
40
0
40
1
40
1
40
1
40
1
41
1
10
4.12263379691208
20
-1.76934894432651
30
0
41
1
10
4.12356292180888
20
-1.752602417861
30
0
41
1
10
4.12450270508461
20
-1.7358461741502
30
0
41
1
10
4.1254532304483
20
-1.71907971347147
30
0
0
SPLINE
5
DE
100
AcDbEntity
8
SK1
62
256
6
ByLayer
370
18
48
1
60
0
100
AcDbSpline
70
4
71
3
72
10
73
6
40
0
40
0
40
0
40
0
40
0.5
40
0.5
40
1
40
1
40
1
40
1
41
1
10
-45.6
20
7.02298217767964
30
0
41
1
10
-45.9143197366315
20
6.64702406213985
30
0
41
1
10
-46.2277310187168
20
6.27072435433877
30
0
41
1
10
-46.8510648606785
20
5.51681312791132
30
0
41
1
10
-47.161087844831
20
5.13923937028864
30
0
41
1
10
-47.467318685837
20
4.76023971110857
30
0
0
SPLINE
5
DF
100
AcDbEntity
8
SK1
62
256
6
ByLayer
370
18
48
1
60
0
100
AcDbSpline
70
4
71
3
72
20
73
16
40
0
40
0
40
0
40
0
40
0.25
40
0.25
40
0.375
40
0.375
40
0.5
40
0.5
40
0.625
40
0.625
40
0.75
40
0.75
40
0.875
40
0.875
40
1
40
1
40
1
40
1
41
1
10
-47.923152062906
20
4.19038099633894
30
0
41
1
10
-47.8455477765
20
4.22064506625355
30
0
41
1
10
-47.7707161345921
20
4.25347749626542
30
0
41
1
10
-47.6653752753664
20
4.30912387643576
30
0
41
1
10
-47.6314286270692
20
4.32875366051687
30
0
41
1
10
-47.5668546513576
20
4.37108798684088
30
0
41
1
10
-47.5360171532993
20
4.39398726134849
30
0
41
1
10
-47.4815322279813
20
4.442677048322
30
0
41
1
10
-47.4575776760638
20
4.46860873452403
30
0
41
1
10
-47.4200710958386
20
4.52491966440394
30
0
41
1
10
-47.4072668590859
20
4.55424899180602
30
0
41
1
10
-47.3975401223461
20
4.61584631676723
30
0
41
1
10
-47.4009830088524
20
4.64621014288858
30
0
41
1
10
-47.4240359818391
20
4.70609143458958
30
0
41
1
10
-47.4430705072294
20
4.734108593797
30
0
41
1
10
-47.467318685837
20
4.76023971110857
30
0
0
SPLINE
5
E0
100
AcDbEntity
8
SK1
62
256
6
ByLayer
370
18
48
1
60
0
100
AcDbSpline
70
4
71
3
72
12
73
8
40
0
40
0
40
0
40
0
40
0.25
40
0.25
40
0.5
40
0.5
40
1
40
1
40
1
40
1
41
1
10
-47.467318685837
20
4.76023971110857
30
0
41
1
10
-47.5009134787582
20
4.73143495274826
30
0
41
1
10
-47.5356936776877
20
4.6976082145633
30
0
41
1
10
-47.6078758727649
20
4.62020927431132
30
0
41
1
10
-47.6454307831039
20
4.576445950471
30
0
41
1
10
-47.7617774396295
20
4.43075461949849
30
0
41
1
10
-47.8411099346309
20
4.31896411166989
30
0
41
1
10
-47.9231520629077
20
4.19038099634181
30
0
0
SPLINE
5
E1
100
AcDbEntity
8
SK1
62
256
6
ByLayer
370
18
48
1
60
0
100
AcDbSpline
70
4
71
3
72
8
73
4
40
0
40
0
40
0
40
0
40
1
40
1
40
1
40
1
41
1
10
-47.9231520629077
20
4.19038099634179
30
0
41
1
10
-47.9488181421191
20
4.15791018132899
30
0
41
1
10
-47.9744356571618
20
4.1254231068144
30
0
41
1
10
-48
20
4.09291823000686
30
0
0
SPLINE
5
E2
100
AcDbEntity
8
SK1
62
256
6
ByLayer
370
18
48
1
60
0
100
AcDbSpline
70
4
71
3
72
14
73
10
40
0
40
0
40
0
40
0
40
0.499999999999999
40
0.499999999999999
40
0.749999999999999
40
0.749999999999999
40
0.875
40
0.875
40
1
40
1
40
1
40
1
41
1
10
-45.6
20
4.44482874095579
30
0
41
1
10
-45.5789465118596
20
4.4700108367785
30
0
41
1
10
-45.5585985142981
20
4.49958430859971
30
0
41
1
10
-45.5303873672755
20
4.55186307490675
30
0
41
1
10
-45.5214287539013
20
4.57058886789738
30
0
41
1
10
-45.5102864584886
20
4.60022376874562
30
0
41
1
10
-45.50688945626
20
4.6105578923052
30
0
41
1
10
-45.5017228477084
20
4.63150143585742
30
0
41
1
10
-45.5
20
4.64208723856132
30
0
41
1
10
-45.5
20
4.65131941440146
30
0
0
SPLINE
5
E3
100
AcDbEntity
8
SK1
62
256
6
ByLayer
370
18
48
1
60
0
100
AcDbSpline
70
4
71
3
72
14
73
10
40
0
40
0
40
0
40
0
40
0.125
40
0.125
40
0.249999999999999
40
0.249999999999999
40
0.5
40
0.5
40
1
40
1
40
1
40
1
41
1
10
-45.5
20
7.08214979759819
30
0
41
1
10
-45.5
20
7.08859796192772
30
0
41
1
10
-45.5017107697461
20
7.09253742152231
30
0
41
1
10
-45.5068845888984
20
7.09670210314664
30
0
41
1
10
-45.5102281895671
20
7.09702165545033
30
0
41
1
10
-45.521528237522
20
7.09502563256419
30
0
41
1
10
-45.5303630420009
20
7.0898868607878
30
0
41
1
10
-45.558525242781
20
7.06899927338509
30
0
41
1
10
-45.5788396428357
20
7.04829209963648
30
0
41
1
10
-45.6
20
7.02298217767964
30
0
0
SPLINE
5
E4
100
AcDbEntity
8
SK1
62
256
6
ByLayer
370
18
48
1
60
0
100
AcDbSpline
70
4
71
3
72
10
73
6
40
0
40
0
40
0
40
0
40
0.5
40
0.5
40
1
40
1
40
1
40
1
41
1
10
-48
20
1.51476479328304
30
0
41
1
10
-47.6125332900688
20
2.00742590931668
30
0
41
1
10
-47.2139142402274
20
2.49659307170535
30
0
41
1
10
-46.4111695961855
20
3.47232945525326
30
0
41
1
10
-46.0062994004916
20
3.9588536679592
30
0
41
1
10
-45.6
20
4.44482874095579
30
0
0
LINE
5
76
100
AcDbEntity
8
81
62
256
6
ByLayer
370
18
48
1
60
0
100
AcDbLine
10
75
20
0
30
0
11
80
21
0
31
0
39
0
210
0
220
0
230
1
0
LINE
5
77
100
AcDbEntity
8
1
62
256
6
ByLayer
370
18
48
1
60
0
100
AcDbLine
10
3.807397
20
8.689076
30
0
11
0.950585
21
8.687362
31
0
39
0
210
0
220
0
230
1
0
LINE
5
79
100
AcDbEntity
8
1
62
256
6
ByLayer
370
18
48
1
60
0
100
AcDbLine
10
24.163953
20
8.70129
30
0
11
22.95813
21
8.700566
31
0
39
0
210
0
220
0
230
1
0
LINE
5
7A
100
AcDbEntity
8
1
62
256
6
ByLayer
370
18
48
1
60
0
100
AcDbLine
10
70.264447
20
8.72895
30
0
11
69.085836
21
8.728243
31
0
39
0
210
0
220
0
230
1
0
LINE
5
7B
100
AcDbEntity
8
1
62
256
6
ByLayer
370
18
48
1
60
0
100
AcDbLine
10
69.085836
20
-8.728243
30
0
11
70.264057
21
-8.72895
31
0
39
0
210
0
220
0
230
1
0
LINE
5
7C
100
AcDbEntity
8
1
62
256
6
ByLayer
370
18
48
1
60
0
100
AcDbLine
10
22.975024
20
-8.700576
30
0
11
24.1638
21
-8.70129
31
0
39
0
210
0
220
0
230
1
0
LINE
5
7D
100
AcDbEntity
8
1
62
256
6
ByLayer
370
18
48
1
60
0
100
AcDbLine
10
0.950585
20
-8.687362
30
0
11
3.807397
21
-8.689076
31
0
39
0
210
0
220
0
230
1
0
LINE
5
7E
100
AcDbEntity
8
SK1
62
256
6
ByLayer
370
18
48
1
60
0
100
AcDbLine
10
0
20
9
30
0
11
-45.401924
21
9
31
0
39
0
210
0
220
0
230
1
0
LINE
5
80
100
AcDbEntity
8
SK1
62
256
6
ByLayer
370
18
48
1
60
0
100
AcDbLine
10
-45.401924
20
-9
30
0
11
0
21
-9
31
0
39
0
210
0
220
0
230
1
0
LINE
5
81
100
AcDbEntity
8
SK1
62
256
6
ByLayer
370
18
48
1
60
0
100
AcDbLine
10
-45.401924
20
9
30
0
11
-48
21
4.5
31
0
39
0
210
0
220
0
230
1
0
LINE
5
82
100
AcDbEntity
8
SK1
62
256
6
ByLayer
370
18
48
1
60
0
100
AcDbLine
10
-48
20
-4.5
30
0
11
-45.401924
21
-9
31
0
39
0
210
0
220
0
230
1
0
LINE
5
83
100
AcDbEntity
8
SK4
62
256
6
ByLayer
370
18
48
0.05
60
0
100
AcDbLine
10
80
20
0
30
0
11
-53
21
0
31
0
39
0
210
0
220
0
230
1
0
LINE
5
85
100
AcDbEntity
8
4
62
256
6
ByLayer
370
18
48
0.05
60
0
100
AcDbLine
10
75
20
0
30
0
11
0
21
0
31
0
39
0
210
0
220
0
230
1
0
LINE
5
87
100
AcDbEntity
8
80
62
256
6
ByLayer
370
18
48
1
60
0
100
AcDbLine
10
0
20
0
30
0
11
-5
21
0
31
0
39
0
210
0
220
0
230
1
0
LINE
5
88
100
AcDbEntity
8
1
62
256
6
ByLayer
370
18
48
1
60
0
100
AcDbLine
10
74.889658
20
-0.3629
30
0
11
74.582988
21
-1.422008
31
0
39
0
210
0
220
0
230
1
0
LINE
5
89
100
AcDbEntity
8
1
62
256
6
ByLayer
370
13
48
1
60
0
100
AcDbLine
10
4.250511
20
-8.313989
30
0
11
4.250521
21
-8.315556
31
0
39
0
210
0
220
0
230
1
0
LINE
5
8A
100
AcDbEntity
8
1
62
256
6
ByLayer
370
18
48
1
60
0
100
AcDbLine
10
0
20
-9
30
0
11
0
21
9
31
0
39
0
210
0
220
0
230
1
0
LINE
5
8B
100
AcDbEntity
8
1
62
256
6
ByLayer
370
18
48
1
60
0
100
AcDbLine
10
74.980082
20
0.080754
30
0
11
75
21
0
31
0
39
0
210
0
220
0
230
1
0
LINE
5
8C
100
AcDbEntity
8
1
62
256
6
ByLayer
370
13
48
1
60
0
100
AcDbLine
10
72.750571
20
1.422008
30
0
11
74.889658
21
0.3629
31
0
39
0
210
0
220
0
230
1
0
LINE
5
8D
100
AcDbEntity
8
1
62
256
6
ByLayer
370
18
48
1
60
0
100
AcDbLine
10
74.889658
20
0.3629
30
0
11
74.582988
21
1.422008
31
0
39
0
210
0
220
0
230
1
0
LINE
5
8E
100
AcDbEntity
8
1
62
256
6
ByLayer
370
13
48
1
60
0
100
AcDbLine
10
0.950585
20
8.687362
30
0
11
0.950585
21
-8.687362
31
0
39
0
210
0
220
0
230
1
0
LINE
5
8F
100
AcDbEntity
8
1
62
256
6
ByLayer
370
13
48
1
60
0
100
AcDbLine
10
74.582988
20
1.422008
30
0
11
72.750571
21
1.422008
31
0
39
0
210
0
220
0
230
1
0
LINE
5
90
100
AcDbEntity
8
1
62
256
6
ByLayer
370
18
48
1
60
0
100
AcDbLine
10
75
20
0
30
0
11
74.980082
21
-0.080754
31
0
39
0
210
0
220
0
230
1
0
LINE
5
91
100
AcDbEntity
8
1
62
256
6
ByLayer
370
13
48
1
60
0
100
AcDbLine
10
0.475053
20
8.843681
30
0
11
0.475053
21
-8.843681
31
0
39
0
210
0
220
0
230
1
0
LINE
5
92
100
AcDbEntity
8
1
62
256
6
ByLayer
370
18
48
1
60
0
100
AcDbLine
10
4
20
-1.558176
30
0
11
4
21
8.6869
31
0
39
0
210
0
220
0
230
1
0
LINE
5
93
100
AcDbEntity
8
1
62
256
6
ByLayer
370
18
48
1
60
0
100
AcDbLine
10
75
20
0
30
0
11
71.958758
21
-8.355743
31
0
39
0
210
0
220
0
230
1
0
LINE
5
94
100
AcDbEntity
8
1
62
256
6
ByLayer
370
18
48
1
60
0
100
AcDbLine
10
70.601998
20
-4.851663
30
0
11
74.89321
21
-0.069185
31
0
39
0
210
0
220
0
230
1
0
LINE
5
95
100
AcDbEntity
8
1
62
256
6
ByLayer
370
13
48
1
60
0
100
AcDbLine
10
72.581113
20
1.075584
30
0
11
74.89321
21
-0.069185
31
0
39
0
210
0
220
0
230
1
0
LINE
5
96
100
AcDbEntity
8
SK1
62
256
6
ByLayer
370
18
48
1
60
0
100
AcDbLine
10
-48
20
4.5
30
0
11
-48
21
4.092918
31
0
39
0
210
0
220
0
230
1
0
LINE
5
97
100
AcDbEntity
8
SK1
62
256
6
ByLayer
370
18
48
1
60
0
100
AcDbLine
10
0
20
-9
30
0
11
0
21
9
31
0
39
0
210
0
220
0
230
1
0
LINE
5
98
100
AcDbEntity
8
SK1
62
256
6
ByLayer
370
18
48
1
60
0
100
AcDbLine
10
-45.401924
20
9
30
0
11
-45.401924
21
-9
31
0
39
0
210
0
220
0
230
1
0
LINE
5
99
100
AcDbEntity
8
SK1
62
256
6
ByLayer
370
18
48
1
60
0
100
AcDbLine
10
-48
20
4.092918
30
0
11
-48
21
1.514698
31
0
39
0
210
0
220
0
230
1
0
LINE
5
9A
100
AcDbEntity
8
SK1
62
256
6
ByLayer
370
18
48
1
60
0
100
AcDbLine
10
-45.5
20
4.651319
30
0
11
-45.5
21
7.08215
31
0
39
0
210
0
220
0
230
1
0
LINE
5
9B
100
AcDbEntity
8
SK1
62
256
6
ByLayer
370
13
48
1
60
0
100
AcDbLine
10
-45.6
20
7.022982
30
0
11
-45.6
21
4.444696
31
0
39
0
210
0
220
0
230
1
0
LINE
5
9C
100
AcDbEntity
8
SK1
62
256
6
ByLayer
370
18
48
1
60
0
100
AcDbLine
10
-48
20
1.514765
30
0
11
-48
21
-4.5
31
0
39
0
210
0
220
0
230
1
0
MTEXT
5
E5
100
AcDbEntity
8
SK6
62
256
6
ByLayer
370
13
48
1
60
0
100
AcDbMText
10
15.629169
20
41.112694
30
0
210
0
220
0
230
1
1
\W0.7470;R840-1746-30-A1A1220
40
3.5
41
0
44
1.084337
50
0
71
8
72
5
7
iso_b_vert
0
DIMENSION
5
F2
100
AcDbEntity
8
SK2
62
256
6
ByLayer
370
13
48
1
60
0
100
AcDbDimension
2
DimnDraft3D1
10
71.99
20
-18.943398
30
0
11
33.740059
21
-18.943398
31
0
70
32
71
5
72
1
41
1
210
0
220
0
230
1
3
Standard
100
AcDbAlignedDimension
13
0
23
-1.5875
33
0
14
71.99
24
-10.3175
34
0
50
0
100
AcDbRotatedDimension
1001
ACAD
1000
DSTYLE
1002
{
1070
   279
1070
     0
1070
   172
1070
     1
1070
   173
1070
     1
1070
   340
1005
E6
1070
   271
1070
     2
1070
   272
1070
     2
1070
    77
1070
     1
1070
    73
1070
     0
1070
   171
1070
     3
1070
   274
1070
     4
1070
   177
1070
    35
1070
   176
1070
    35
1070
   178
1070
    35
1070
    48
1040
-0.005
1070
    41
1041
3.5
1070
   147
1041
1.75
1070
    42
1041
1.5875
1070
    44
1041
2.0
1070
   140
1041
3.5
1070
   343
1005
0
1070
   344
1005
0
1002
}
0
DIMENSION
5
FC
100
AcDbEntity
8
SK2
62
256
6
ByLayer
370
13
48
1
60
0
100
AcDbDimension
2
DimnDraft3D2
10
75
20
-37.692985
30
0
11
11.8313
21
-37.692985
31
0
70
32
71
5
72
1
41
1
210
0
220
0
230
1
3
Standard
100
AcDbAlignedDimension
13
-48
23
-10.5875
33
0
14
75
24
-1.5875
34
0
50
0
100
AcDbRotatedDimension
1001
ACAD
1000
DSTYLE
1002
{
1070
   279
1070
     0
1070
   172
1070
     1
1070
   173
1070
     1
1070
   340
1005
E6
1070
   271
1070
     2
1070
   272
1070
     2
1070
    77
1070
     1
1070
    73
1070
     0
1070
   171
1070
     3
1070
   274
1070
     4
1070
   177
1070
    35
1070
   176
1070
    35
1070
   178
1070
    35
1070
    48
1040
-0.005
1070
    41
1041
3.5
1070
   147
1041
1.75
1070
    42
1041
1.5875
1070
    44
1041
2.0
1070
   140
1041
3.5
1070
   343
1005
0
1070
   344
1005
0
1002
}
0
DIMENSION
5
106
100
AcDbEntity
8
SK2
62
256
6
ByLayer
370
13
48
1
60
0
100
AcDbDimension
2
DimnDraft3D3
10
75
20
20.339119
30
0
11
47.305
21
20.339119
31
0
70
32
71
5
72
1
41
1
210
0
220
0
230
1
3
Standard
100
AcDbAlignedDimension
13
19.61
23
10.3175
33
0
14
75
24
1.5875
34
0
50
0
100
AcDbRotatedDimension
1001
ACAD
1000
DSTYLE
1002
{
1070
   279
1070
     0
1070
   172
1070
     1
1070
   173
1070
     1
1070
   340
1005
E6
1070
   271
1070
     2
1070
   272
1070
     2
1070
    77
1070
     1
1070
    73
1070
     0
1070
   171
1070
     3
1070
   274
1070
     4
1070
   177
1070
    35
1070
   176
1070
    35
1070
   178
1070
    35
1070
    48
1040
-0.005
1070
    41
1041
3.5
1070
   147
1041
1.75
1070
    42
1041
1.5875
1070
    44
1041
2.0
1070
   140
1041
3.5
1070
   343
1005
0
1070
   344
1005
0
1002
}
0
DIMENSION
5
110
100
AcDbEntity
8
SK2
62
256
6
ByLayer
370
13
48
1
60
0
100
AcDbDimension
2
DimnDraft3D4
10
71.99
20
-21.532503
30
0
11
84.981425
21
-21.532503
31
0
70
32
71
5
72
1
41
1
210
0
220
0
230
1
3
Standard
100
AcDbAlignedDimension
13
75
23
-1.5875
33
0
14
71.99
24
-10.3175
34
0
50
0
100
AcDbRotatedDimension
1001
ACAD
1000
DSTYLE
1002
{
1070
   279
1070
     0
1070
   172
1070
     1
1070
   173
1070
     1
1070
   340
1005
E6
1070
   271
1070
     2
1070
   272
1070
     2
1070
    77
1070
     1
1070
    73
1070
     0
1070
   171
1070
     3
1070
   274
1070
     4
1070
   177
1070
    35
1070
   176
1070
    35
1070
   178
1070
    35
1070
    48
1040
-0.005
1070
    41
1041
3.5
1070
   147
1041
1.75
1070
    42
1041
1.5875
1070
    44
1041
2.0
1070
   140
1041
3.5
1070
   343
1005
0
1070
   344
1005
0
1002
}
0
DIMENSION
5
11A
100
AcDbEntity
8
SK2
62
256
6
ByLayer
370
13
48
1
60
0
100
AcDbDimension
2
DimnDraft3D5
10
71.99
20
-27.343428
30
0
11
8.750676
21
-27.343428
31
0
70
32
71
5
72
1
41
1
210
0
220
0
230
1
3
Standard
100
AcDbAlignedDimension
13
-48
23
-10.5875
33
0
14
71.99
24
-10.3175
34
0
50
0
100
AcDbRotatedDimension
1001
ACAD
1000
DSTYLE
1002
{
1070
   279
1070
     0
1070
   172
1070
     1
1070
   173
1070
     1
1070
   340
1005
E6
1070
   271
1070
     2
1070
   272
1070
     2
1070
    77
1070
     1
1070
    73
1070
     0
1070
   171
1070
     3
1070
   274
1070
     4
1070
   177
1070
    35
1070
   176
1070
    35
1070
   178
1070
    35
1070
    48
1040
-0.005
1070
    41
1041
3.5
1070
   147
1041
1.75
1070
    42
1041
1.5875
1070
    44
1041
2.0
1070
   140
1041
3.5
1070
   343
1005
0
1070
   344
1005
0
1002
}
0
DIMENSION
5
125
100
AcDbEntity
8
SK2
62
256
6
ByLayer
370
13
48
1
60
0
100
AcDbDimension
2
DimnDraft3D6
10
-58.625163
20
9
30
0
11
-59.250163
21
27.47418
31
0
70
33
71
5
72
1
41
1
210
0
220
0
230
1
3
Standard
100
AcDbAlignedDimension
13
-49.5875
23
-9
33
0
14
-49.5875
24
9
34
0
1001
ACAD
1000
DSTYLE
1002
{
1070
   279
1070
     0
1070
    74
1070
     0
1070
   173
1070
     1
1070
   340
1005
E6
1070
   271
1070
     3
1070
   272
1070
     2
1070
    77
1070
     1
1070
    73
1070
     0
1070
   171
1070
     3
1070
   274
1070
     4
1070
   177
1070
    35
1070
   176
1070
    35
1070
   178
1070
    35
1070
    48
1040
-0.005
1070
    41
1041
3.5
1070
   147
1041
1.75
1070
    42
1041
1.5875
1070
    44
1041
2.0
1070
   140
1041
3.5
1070
   343
1005
0
1070
   344
1005
0
1002
}
0
DIMENSION
5
130
100
AcDbEntity
8
2
62
256
6
ByLayer
370
13
48
1
60
0
100
AcDbDimension
2
DimnDraft3D7
10
89.083343
20
8.73
30
0
11
84.458343
21
25.797266
31
0
70
33
71
5
72
1
41
1
210
0
220
0
230
1
3
Standard
100
AcDbAlignedDimension
13
73.5775
23
-8.73
33
0
14
73.5775
24
8.73
34
0
1001
ACAD
1000
DSTYLE
1002
{
1070
   279
1070
     0
1070
    74
1070
     0
1070
   173
1070
     1
1070
   340
1005
E6
1070
   271
1070
     3
1070
   272
1070
     2
1070
    77
1070
     1
1070
    73
1070
     0
1070
   171
1070
     3
1070
   274
1070
     4
1070
   177
1070
    35
1070
   176
1070
    35
1070
   178
1070
    35
1070
    48
1040
-0.005
1070
    41
1041
3.5
1070
   147
1041
1.75
1070
    42
1041
1.5875
1070
    44
1041
2.0
1070
   140
1041
3.5
1070
   343
1005
0
1070
   344
1005
0
1002
}
0
ENDSEC
0
SECTION
2
OBJECTS
0
DICTIONARY
5
19b
330
0
100
AcDbDictionary
280
0
281
1
3
ACAD_GROUP
350
19c
3
ACAD_MLINESTYLE
350
19d
0
DICTIONARY
5
19c
330
0
100
AcDbDictionary
280
0
281
1
0
DICTIONARY
5
19d
330
0
100
AcDbDictionary
280
0
281
1
3
Standard
350
18
0
MLINESTYLE
5
18
330
19d
100
AcDbMlineStyle
2
Standard
70
0
3

62
256
51
90
52
90
71
2
49
-0.5
62
256
6
ByLayer
49
0.5
62
256
6
ByLayer
0
RASTERVARIABLES
5
189
330

100
AcDbRasterVariables
90
0
70
1
71
1
72
1
0
ENDSEC
0
EOF
