0
SECTION
2
HEADER
9
$ACADVER
1
AC1015
9
$DWGCODEPAGE
3
ANSI_1252
9
$HANDSEED
5
1a1
9
$ANGBASE
50
0
9
$ANGDIR
70
0
9
$ATTMODE
70
1
9
$AUNITS
70
0
9
$AUPREC
70
0
9
$CECOLOR
62
256
9
$CELTSCALE
40
1
9
$CELTYPE
6
ByLayer
9
$CELWEIGHT
370
18
9
$CLAYER
8
0
9
$CMLJUST
70
0
9
$CMLSCALE
40
1
9
$CMLSTYLE
2
Standard
9
$DIMSTYLE
2
Standard
9
$TEXTSIZE
40
0.2
9
$TEXTSTYLE
7
Standard
9
$LUNITS
70
2
9
$LUPREC
70
4
9
$EXTNAMES
290
1
9
$INSUNITS
70
4
9
$LTSCALE
40
1
9
$LWDISPLAY
290
1
9
$PDMODE
70
0
9
$PDSIZE
40
0
9
$PLINEGEN
70
0
0
ENDSEC
0
SECTION
2
CLASSES
0
CLASS
1
RASTERVARIABLES
2
AcDbRasterVariables
3
ISM
90
0
280
0
281
0
0
ENDSEC
0
SECTION
2
TABLES
0
TABLE
2
VPORT
5
197
100
AcDbSymbolTable
0
VPORT
5
1
100
AcDbSymbolTableRecord
100
AcDbViewportTableRecord
2
*Active
70
0
10
0
20
0
11
1
21
1
12
-1
22
1
13
0
23
0
14
0.5
24
0.5
15
10
25
10
16
0
26
0
36
1
17
0
27
0
37
0
0
ENDTAB
0
TABLE
2
LTYPE
5
198
100
AcDbSymbolTable
0
LTYPE
5
14
100
AcDbSymbolTableRecord
100
AcDbLinetypeTableRecord
70
0
2
ByBlock
3

72
65
73
0
40
0
0
LTYPE
5
15
100
AcDbSymbolTableRecord
100
AcDbLinetypeTableRecord
70
0
2
ByLayer
3

72
65
73
0
40
0
0
LTYPE
5
16
100
AcDbSymbolTableRecord
100
AcDbLinetypeTableRecord
70
0
2
CONTINUOUS
3
Solid line
72
65
73
0
40
0
0
LTYPE
5
6A
100
AcDbSymbolTableRecord
100
AcDbLinetypeTableRecord
70
0
2
CENTER
3
____ _ ____ _ ____ _ ____
72
65
73
4
40
47.5
49
22
74
0
49
-8.5
74
0
49
8.5
74
0
49
-8.5
74
0
0
LTYPE
5
6B
100
AcDbSymbolTableRecord
100
AcDbLinetypeTableRecord
70
0
2
DASHED
3
__ __ __ __ __ __ __ __ __
72
65
73
2
40
25.72
49
12.86
74
0
49
-12.86
74
0
0
ENDTAB
0
TABLE
2
LAYER
5
199
100
AcDbSymbolTable
0
LAYER
5
10
100
AcDbSymbolTableRecord
100
AcDbLayerTableRecord
2
0
70
0
62
7
6
CONTINUOUS
290
1
370
-3
390
0
0
LAYER
5
6D
100
AcDbSymbolTableRecord
100
AcDbLayerTableRecord
2
81
70
0
62
-3
6
CONTINUOUS
290
1
370
-3
390
0
0
LAYER
5
6F
100
AcDbSymbolTableRecord
100
AcDbLayerTableRecord
2
80
70
0
62
-6
6
CONTINUOUS
290
1
370
-3
390
0
0
LAYER
5
74
100
AcDbSymbolTableRecord
100
AcDbLayerTableRecord
2
2
70
0
62
7
6
CONTINUOUS
290
1
370
-3
390
0
0
LAYER
5
78
100
AcDbSymbolTableRecord
100
AcDbLayerTableRecord
2
1
70
0
62
4
6
CONTINUOUS
290
1
370
-3
390
0
0
LAYER
5
86
100
AcDbSymbolTableRecord
100
AcDbLayerTableRecord
2
4
70
0
62
-2
6
CENTER
290
1
370
-3
390
0
0
LAYER
5
183
100
AcDbSymbolTableRecord
100
AcDbLayerTableRecord
2
SK2
70
0
62
7
6
CONTINUOUS
290
1
370
-3
390
0
0
LAYER
5
184
100
AcDbSymbolTableRecord
100
AcDbLayerTableRecord
2
SK1
70
0
62
4
6
CONTINUOUS
290
1
370
-3
390
0
0
LAYER
5
185
100
AcDbSymbolTableRecord
100
AcDbLayerTableRecord
2
SK4
70
0
62
2
6
CENTER
290
1
370
-3
390
0
0
LAYER
5
186
100
AcDbSymbolTableRecord
100
AcDbLayerTableRecord
2
SK6
70
0
62
5
6
CONTINUOUS
290
1
370
-3
390
0
0
ENDTAB
0
TABLE
2
STYLE
5
19a
100
AcDbSymbolTable
0
STYLE
5
11
100
AcDbSymbolTableRecord
100
AcDbTextStyleTableRecord
2
Standard
3
txt
70
0
71
0
40
0
41
1
42
0
50
0
0
STYLE
5
DF
100
AcDbSymbolTableRecord
100
AcDbTextStyleTableRecord
2
iso_b_vert
3
simplex.shx
70
0
71
0
40
0
41
1
42
0
50
0
0
STYLE
5
E0
100
AcDbSymbolTableRecord
100
AcDbTextStyleTableRecord
2
DWGDirectTextStyle
3
simplex
70
0
71
0
40
0
41
1
42
0
50
0
0
ENDTAB
0
TABLE
2
DIMSTYLE
5
19b
100
AcDbSymbolTable
100
AcDbDimStyleTable
0
DIMSTYLE
105
27
100
AcDbSymbolTableRecord
100
AcDbDimStyleTableRecord
2
Standard
70
0
3
<>
41
0.18
42
0.0625
44
0.18
140
0.18
147
0.09
73
0
74
0
77
1
271
2
275
0
278
52
280
0
340
11
0
ENDTAB
0
TABLE
2
VIEW
5
19c
100
AcDbSymbolTable
0
ENDTAB
0
TABLE
2
UCS
5
19d
100
AcDbSymbolTable
0
ENDTAB
0
TABLE
2
APPID
5
19e
100
AcDbSymbolTable
0
APPID
5
12
100
AcDbSymbolTableRecord
100
AcDbRegAppTableRecord
2
ACAD
70
0
0
ENDTAB
0
TABLE
2
BLOCK_RECORD
5
19f
100
AcDbSymbolTable
0
BLOCK_RECORD
5
1F
100
AcDbSymbolTableRecord
100
AcDbBlockTableRecord
2
*Model_Space
340
0
70
0
0
BLOCK_RECORD
5
1B
100
AcDbSymbolTableRecord
100
AcDbBlockTableRecord
2
*Paper_Space
340
0
70
0
0
BLOCK_RECORD
5
23
100
AcDbSymbolTableRecord
100
AcDbBlockTableRecord
2
*Paper_Space0
340
0
70
0
0
BLOCK_RECORD
5
E2
100
AcDbSymbolTableRecord
100
AcDbBlockTableRecord
2
DimnDraft3D1
340
0
70
0
0
BLOCK_RECORD
5
EC
100
AcDbSymbolTableRecord
100
AcDbBlockTableRecord
2
DimnDraft3D2
340
0
70
0
0
BLOCK_RECORD
5
F6
100
AcDbSymbolTableRecord
100
AcDbBlockTableRecord
2
DimnDraft3D3
340
0
70
0
0
BLOCK_RECORD
5
100
100
AcDbSymbolTableRecord
100
AcDbBlockTableRecord
2
DimnDraft3D4
340
0
70
0
0
BLOCK_RECORD
5
10A
100
AcDbSymbolTableRecord
100
AcDbBlockTableRecord
2
DimnDraft3D5
340
0
70
0
0
BLOCK_RECORD
5
114
100
AcDbSymbolTableRecord
100
AcDbBlockTableRecord
2
DimnDraft3D6
340
0
70
0
0
BLOCK_RECORD
5
11F
100
AcDbSymbolTableRecord
100
AcDbBlockTableRecord
2
DimnDraft3D7
340
0
70
0
0
ENDTAB
0
ENDSEC
0
SECTION
2
BLOCKS
0
BLOCK
5
20
100
AcDbEntity
8
0
100
AcDbBlockBegin
2
*Model_Space
70
0
10
0
20
0
30
0
3
*Model_Space
0
ENDBLK
5
21
100
AcDbEntity
8
0
100
AcDbBlockEnd
0
BLOCK
5
1C
100
AcDbEntity
8
0
100
AcDbBlockBegin
2
*Paper_Space
70
0
10
0
20
0
30
0
3
*Paper_Space
0
ENDBLK
5
1D
100
AcDbEntity
8
0
100
AcDbBlockEnd
0
BLOCK
5
24
100
AcDbEntity
8
0
100
AcDbBlockBegin
2
*Paper_Space0
70
0
10
0
20
0
30
0
3
*Paper_Space0
0
ENDBLK
5
25
100
AcDbEntity
8
0
100
AcDbBlockEnd
0
BLOCK
5
E9
100
AcDbEntity
8
0
100
AcDbBlockBegin
2
DimnDraft3D1
70
0
10
0
20
0
30
0
3
DimnDraft3D1
0
MTEXT
5
E3
100
AcDbEntity
8
SK2
62
256
6
ByLayer
370
13
48
1
60
0
100
AcDbMText
10
39.838875
20
-17.738398
30
0
210
0
220
0
230
1
1
\W0.6713;92,10
40
3.5
41
0
44
1.084337
50
0
71
7
72
5
7
iso_b_vert
0
LINE
5
E4
100
AcDbEntity
8
SK2
62
256
6
ByLayer
370
13
48
1
60
0
100
AcDbLine
10
0
20
-1.5875
30
0
11
0
21
-20.613398
31
0
39
0
210
0
220
0
230
1
0
LINE
5
E5
100
AcDbEntity
8
SK2
62
256
6
ByLayer
370
13
48
1
60
0
100
AcDbLine
10
92.1
20
-9.9875
30
0
11
92.1
21
-20.613398
31
0
39
0
210
0
220
0
230
1
0
LINE
5
E6
100
AcDbEntity
8
SK2
62
256
6
ByLayer
370
13
48
1
60
0
100
AcDbLine
10
0
20
-18.613398
30
0
11
92.1
21
-18.613398
31
0
39
0
210
0
220
0
230
1
0
SOLID
5
E7
100
AcDbEntity
8
SK2
62
256
6
ByLayer
370
13
48
1
60
0
100
AcDbTrace
10
0
20
-18.613398
30
0
11
3.499998
21
-18.152615
31
0
12
3.500002
22
-19.074182
32
0
13
0
23
-18.613398
33
0
39
0
210
0
220
0
230
1
0
SOLID
5
E8
100
AcDbEntity
8
SK2
62
256
6
ByLayer
370
13
48
1
60
0
100
AcDbTrace
10
92.1
20
-18.613398
30
0
11
88.600002
21
-19.074182
31
0
12
88.599998
22
-18.152615
32
0
13
92.1
23
-18.613398
33
0
39
0
210
0
220
0
230
1
0
ENDBLK
5
EA
100
AcDbEntity
8
0
100
AcDbBlockEnd
0
BLOCK
5
F3
100
AcDbEntity
8
0
100
AcDbBlockBegin
2
DimnDraft3D2
70
0
10
0
20
0
30
0
3
DimnDraft3D2
0
MTEXT
5
ED
100
AcDbEntity
8
SK2
62
256
6
ByLayer
370
13
48
1
60
0
100
AcDbMText
10
16.438011
20
-36.817985
30
0
210
0
220
0
230
1
1
\W0.7145;143,00
40
3.5
41
0
44
1.084337
50
0
71
7
72
5
7
iso_b_vert
0
LINE
5
EE
100
AcDbEntity
8
SK2
62
256
6
ByLayer
370
13
48
1
60
0
100
AcDbLine
10
-48
20
-10.5875
30
0
11
-48
21
-39.692985
31
0
39
0
210
0
220
0
230
1
0
LINE
5
EF
100
AcDbEntity
8
SK2
62
256
6
ByLayer
370
13
48
1
60
0
100
AcDbLine
10
95
20
-1.5875
30
0
11
95
21
-39.692985
31
0
39
0
210
0
220
0
230
1
0
LINE
5
F0
100
AcDbEntity
8
SK2
62
256
6
ByLayer
370
13
48
1
60
0
100
AcDbLine
10
-48
20
-37.692985
30
0
11
95
21
-37.692985
31
0
39
0
210
0
220
0
230
1
0
SOLID
5
F1
100
AcDbEntity
8
SK2
62
256
6
ByLayer
370
13
48
1
60
0
100
AcDbTrace
10
-48
20
-37.692985
30
0
11
-44.500002
21
-37.232202
31
0
12
-44.499998
22
-38.153769
32
0
13
-48
23
-37.692985
33
0
39
0
210
0
220
0
230
1
0
SOLID
5
F2
100
AcDbEntity
8
SK2
62
256
6
ByLayer
370
13
48
1
60
0
100
AcDbTrace
10
95
20
-37.692985
30
0
11
91.500002
21
-38.153769
31
0
12
91.499998
22
-37.232202
32
0
13
95
23
-37.692985
33
0
39
0
210
0
220
0
230
1
0
ENDBLK
5
F4
100
AcDbEntity
8
0
100
AcDbBlockEnd
0
BLOCK
5
FD
100
AcDbEntity
8
0
100
AcDbBlockBegin
2
DimnDraft3D3
70
0
10
0
20
0
30
0
3
DimnDraft3D3
0
MTEXT
5
F7
100
AcDbEntity
8
SK2
62
256
6
ByLayer
370
13
48
1
60
0
100
AcDbMText
10
47.101316
20
20.884119
30
0
210
0
220
0
230
1
1
\W0.7317;86,90
40
3.5
41
0
44
1.084337
50
0
71
7
72
5
7
iso_b_vert
0
LINE
5
F8
100
AcDbEntity
8
SK2
62
256
6
ByLayer
370
13
48
1
60
0
100
AcDbLine
10
8.1
20
9.9875
30
0
11
8.1
21
22.009119
31
0
39
0
210
0
220
0
230
1
0
LINE
5
F9
100
AcDbEntity
8
SK2
62
256
6
ByLayer
370
13
48
1
60
0
100
AcDbLine
10
95
20
1.5875
30
0
11
95
21
22.009119
31
0
39
0
210
0
220
0
230
1
0
LINE
5
FA
100
AcDbEntity
8
SK2
62
256
6
ByLayer
370
13
48
1
60
0
100
AcDbLine
10
8.1
20
20.009119
30
0
11
95
21
20.009119
31
0
39
0
210
0
220
0
230
1
0
SOLID
5
FB
100
AcDbEntity
8
SK2
62
256
6
ByLayer
370
13
48
1
60
0
100
AcDbTrace
10
8.1
20
20.009119
30
0
11
11.599998
21
20.469903
31
0
12
11.600002
22
19.548335
32
0
13
8.1
23
20.009119
33
0
39
0
210
0
220
0
230
1
0
SOLID
5
FC
100
AcDbEntity
8
SK2
62
256
6
ByLayer
370
13
48
1
60
0
100
AcDbTrace
10
95
20
20.009119
30
0
11
91.500002
21
19.548335
31
0
12
91.499998
22
20.469903
32
0
13
95
23
20.009119
33
0
39
0
210
0
220
0
230
1
0
ENDBLK
5
FE
100
AcDbEntity
8
0
100
AcDbBlockEnd
0
BLOCK
5
107
100
AcDbEntity
8
0
100
AcDbBlockBegin
2
DimnDraft3D4
70
0
10
0
20
0
30
0
3
DimnDraft3D4
0
MTEXT
5
101
100
AcDbEntity
8
SK2
62
256
6
ByLayer
370
13
48
1
60
0
100
AcDbMText
10
101.840636
20
-20.327503
30
0
210
0
220
0
230
1
1
\W0.7150;2,90
40
3.5
41
0
44
1.084337
50
0
71
7
72
5
7
iso_b_vert
0
LINE
5
102
100
AcDbEntity
8
SK2
62
256
6
ByLayer
370
13
48
1
60
0
100
AcDbLine
10
95
20
-1.5875
30
0
11
95
21
-23.202503
31
0
39
0
210
0
220
0
230
1
0
LINE
5
103
100
AcDbEntity
8
SK2
62
256
6
ByLayer
370
13
48
1
60
0
100
AcDbLine
10
92.1
20
-9.9875
30
0
11
92.1
21
-23.202503
31
0
39
0
210
0
220
0
230
1
0
LINE
5
104
100
AcDbEntity
8
SK2
62
256
6
ByLayer
370
13
48
1
60
0
100
AcDbLine
10
83.35
20
-21.202503
30
0
11
108.997215
21
-21.202503
31
0
39
0
210
0
220
0
230
1
0
SOLID
5
105
100
AcDbEntity
8
SK2
62
256
6
ByLayer
370
13
48
1
60
0
100
AcDbTrace
10
95
20
-21.202503
30
0
11
98.499998
21
-20.741719
31
0
12
98.500002
22
-21.663287
32
0
13
95
23
-21.202503
33
0
39
0
210
0
220
0
230
1
0
SOLID
5
106
100
AcDbEntity
8
SK2
62
256
6
ByLayer
370
13
48
1
60
0
100
AcDbTrace
10
92.1
20
-21.202503
30
0
11
88.600002
21
-21.663287
31
0
12
88.599998
22
-20.741719
32
0
13
92.1
23
-21.202503
33
0
39
0
210
0
220
0
230
1
0
ENDBLK
5
108
100
AcDbEntity
8
0
100
AcDbBlockEnd
0
BLOCK
5
111
100
AcDbEntity
8
0
100
AcDbBlockBegin
2
DimnDraft3D5
70
0
10
0
20
0
30
0
3
DimnDraft3D5
0
MTEXT
5
10B
100
AcDbEntity
8
SK2
62
256
6
ByLayer
370
13
48
1
60
0
100
AcDbMText
10
13.794887
20
-26.468428
30
0
210
0
220
0
230
1
1
\W0.6654;140,10
40
3.5
41
0
44
1.084337
50
0
71
7
72
5
7
iso_b_vert
0
LINE
5
10C
100
AcDbEntity
8
SK2
62
256
6
ByLayer
370
13
48
1
60
0
100
AcDbLine
10
-48
20
-10.5875
30
0
11
-48
21
-29.343428
31
0
39
0
210
0
220
0
230
1
0
LINE
5
10D
100
AcDbEntity
8
SK2
62
256
6
ByLayer
370
13
48
1
60
0
100
AcDbLine
10
92.1
20
-9.9875
30
0
11
92.1
21
-29.343428
31
0
39
0
210
0
220
0
230
1
0
LINE
5
10E
100
AcDbEntity
8
SK2
62
256
6
ByLayer
370
13
48
1
60
0
100
AcDbLine
10
-48
20
-27.343428
30
0
11
92.1
21
-27.343428
31
0
39
0
210
0
220
0
230
1
0
SOLID
5
10F
100
AcDbEntity
8
SK2
62
256
6
ByLayer
370
13
48
1
60
0
100
AcDbTrace
10
-48
20
-27.343428
30
0
11
-44.500002
21
-26.882645
31
0
12
-44.499998
22
-27.804212
32
0
13
-48
23
-27.343428
33
0
39
0
210
0
220
0
230
1
0
SOLID
5
110
100
AcDbEntity
8
SK2
62
256
6
ByLayer
370
13
48
1
60
0
100
AcDbTrace
10
92.1
20
-27.343428
30
0
11
88.600002
21
-27.804212
31
0
12
88.599998
22
-26.882645
32
0
13
92.1
23
-27.343428
33
0
39
0
210
0
220
0
230
1
0
ENDBLK
5
112
100
AcDbEntity
8
0
100
AcDbBlockEnd
0
BLOCK
5
11C
100
AcDbEntity
8
0
100
AcDbBlockBegin
2
DimnDraft3D6
70
0
10
0
20
0
30
0
3
DimnDraft3D6
0
MTEXT
5
115
100
AcDbEntity
8
SK2
62
256
6
ByLayer
370
13
48
1
60
0
100
AcDbMText
10
-58.375163
20
28.34918
30
0
210
0
220
0
230
1
1
\W0.6930;18,000
40
3.5
41
0
44
1.084337
50
90
71
7
72
5
7
iso_b_vert
0
MTEXT
5
116
100
AcDbEntity
8
SK2
62
256
6
ByLayer
370
13
48
1
60
0
100
AcDbMText
10
-58.375163
20
23.126524
30
0
210
0
220
0
230
1
1
%%c
40
3.5
41
0
44
1.084337
50
90
71
7
72
5
7
iso_b_vert
0
LINE
5
117
100
AcDbEntity
8
SK2
62
256
6
ByLayer
370
13
48
1
60
0
100
AcDbLine
10
-49.5875
20
-9
30
0
11
-58.625163
21
-9
31
0
39
0
210
0
220
0
230
1
0
LINE
5
118
100
AcDbEntity
8
SK2
62
256
6
ByLayer
370
13
48
1
60
0
100
AcDbLine
10
-49.5875
20
9
30
0
11
-58.625163
21
9
31
0
39
0
210
0
220
0
230
1
0
LINE
5
119
100
AcDbEntity
8
SK2
62
256
6
ByLayer
370
13
48
1
60
0
100
AcDbLine
10
-56.625163
20
-9
30
0
11
-56.625163
21
39.862338
31
0
39
0
210
0
220
0
230
1
0
SOLID
5
11A
100
AcDbEntity
8
SK2
62
256
6
ByLayer
370
13
48
1
60
0
100
AcDbTrace
10
-56.625163
20
-9
30
0
11
-57.085946
21
-5.500002
31
0
12
-56.164379
22
-5.499998
32
0
13
-56.625163
23
-9
33
0
39
0
210
0
220
0
230
1
0
SOLID
5
11B
100
AcDbEntity
8
SK2
62
256
6
ByLayer
370
13
48
1
60
0
100
AcDbTrace
10
-56.625163
20
9
30
0
11
-56.164379
21
5.500002
31
0
12
-57.085946
22
5.499998
32
0
13
-56.625163
23
9
33
0
39
0
210
0
220
0
230
1
0
ENDBLK
5
11D
100
AcDbEntity
8
0
100
AcDbBlockEnd
0
BLOCK
5
127
100
AcDbEntity
8
0
100
AcDbBlockBegin
2
DimnDraft3D7
70
0
10
0
20
0
30
0
3
DimnDraft3D7
0
MTEXT
5
120
100
AcDbEntity
8
2
62
256
6
ByLayer
370
13
48
1
60
0
100
AcDbMText
10
105.333343
20
26.342266
30
0
210
0
220
0
230
1
1
\W0.6930;16,800
40
3.5
41
0
44
1.084337
50
90
71
7
72
5
7
iso_b_vert
0
MTEXT
5
121
100
AcDbEntity
8
2
62
256
6
ByLayer
370
13
48
1
60
0
100
AcDbMText
10
105.333343
20
21.11961
30
0
210
0
220
0
230
1
1
%%c
40
3.5
41
0
44
1.084337
50
90
71
7
72
5
7
iso_b_vert
0
LINE
5
122
100
AcDbEntity
8
2
62
256
6
ByLayer
370
13
48
1
60
0
100
AcDbLine
10
93.6875
20
-8.4
30
0
11
109.083343
21
-8.4
31
0
39
0
210
0
220
0
230
1
0
LINE
5
123
100
AcDbEntity
8
2
62
256
6
ByLayer
370
13
48
1
60
0
100
AcDbLine
10
93.6875
20
8.4
30
0
11
109.083343
21
8.4
31
0
39
0
210
0
220
0
230
1
0
LINE
5
124
100
AcDbEntity
8
2
62
256
6
ByLayer
370
13
48
1
60
0
100
AcDbLine
10
107.083343
20
-8.4
30
0
11
107.083343
21
37.855424
31
0
39
0
210
0
220
0
230
1
0
SOLID
5
125
100
AcDbEntity
8
2
62
256
6
ByLayer
370
13
48
1
60
0
100
AcDbTrace
10
107.083343
20
-8.4
30
0
11
106.622559
21
-4.900002
31
0
12
107.544126
22
-4.899998
32
0
13
107.083343
23
-8.4
33
0
39
0
210
0
220
0
230
1
0
SOLID
5
126
100
AcDbEntity
8
2
62
256
6
ByLayer
370
13
48
1
60
0
100
AcDbTrace
10
107.083343
20
8.4
30
0
11
107.544126
21
4.900002
31
0
12
106.622559
22
4.899998
32
0
13
107.083343
23
8.4
33
0
39
0
210
0
220
0
230
1
0
ENDBLK
5
128
100
AcDbEntity
8
0
100
AcDbBlockEnd
0
ENDSEC
0
SECTION
2
ENTITIES
0
ARC
5
9D
100
AcDbEntity
8
1
62
256
6
ByLayer
370
18
48
1
60
0
100
AcDbCircle
39
0
10
0
20
8.2
30
0
40
0.800000000000004
210
0
220
0
230
1
100
AcDbArc
50
36.223428
51
90
0
ARC
5
9E
100
AcDbEntity
8
1
62
256
6
ByLayer
370
18
48
1
60
0
100
AcDbCircle
39
0
10
0
20
-8.2
30
0
40
0.800000000000004
210
0
220
0
230
1
100
AcDbArc
50
270
51
323.776572
0
ARC
5
9F
100
AcDbEntity
8
1
62
256
6
ByLayer
370
18
48
1
60
0
100
AcDbCircle
39
0
10
-1.29075
20
-9.145497
30
0
40
0.799999999999998
210
0
220
0
230
-1
100
AcDbArc
50
36.223428
51
90.034377
0
ARC
5
A0
100
AcDbEntity
8
1
62
256
6
ByLayer
370
18
48
1
60
0
100
AcDbCircle
39
0
10
-1.29075
20
9.145497
30
0
40
0.799999999999998
210
0
220
0
230
-1
100
AcDbArc
50
269.965623
51
323.776572
0
ELLIPSE
5
A1
100
AcDbEntity
8
1
62
256
6
ByLayer
370
18
48
1
60
0
100
AcDbEllipse
10
4.25
20
8.236723
30
0
11
0.25
21
0
31
0
210
0
220
0
230
1
40
0.999997
41
-3.13938408222983
42
-1.56015782822113
0
ELLIPSE
5
A2
100
AcDbEntity
8
1
62
256
6
ByLayer
370
18
48
1
60
0
100
AcDbEllipse
10
4.25
20
-8.236723
30
0
11
0.25
21
0
31
0
210
0
220
0
230
1
40
0.999997
41
1.57673644364358
42
3.1393840822299
0
ELLIPSE
5
A3
100
AcDbEntity
8
1
62
256
6
ByLayer
370
13
48
1
60
0
100
AcDbEllipse
10
92.804573
20
1.178421
30
0
11
0.133113781883907
21
0.268850741253513
31
0
210
0
220
0
230
1
40
0.40558
41
0.884485917130962
42
2.28074931872635
0
ELLIPSE
5
A4
100
AcDbEntity
8
1
62
256
6
ByLayer
370
18
48
1
60
0
100
AcDbEllipse
10
94.999812
20
-0.091511
30
0
11
0.137829328677664
21
0.402528287367878
31
0
210
0
220
0
230
-1
40
0.052723
41
-2.31022812868756
42
-1.55449942712272
0
ELLIPSE
5
A5
100
AcDbEntity
8
1
62
256
6
ByLayer
370
18
48
1
60
0
100
AcDbEllipse
10
93.498469
20
3.885226
30
0
11
1.2900209821953
21
-3.5269826794069
31
0
210
0
220
0
230
-1
40
0.065672
41
-1.60393452370839
42
-0.761382749776562
0
ELLIPSE
5
A6
100
AcDbEntity
8
1
62
256
6
ByLayer
370
18
48
1
60
0
100
AcDbEllipse
10
93.498469
20
-3.885226
30
0
11
1.29002098218382
21
3.52698267937857
31
0
210
0
220
0
230
-1
40
0.065672
41
0.761382749774795
42
1.60393452371269
0
ELLIPSE
5
A7
100
AcDbEntity
8
1
62
256
6
ByLayer
370
18
48
1
60
0
100
AcDbEllipse
10
94.999812
20
0.091511
30
0
11
0.137829328514227
21
-0.402528286936176
31
0
210
0
220
0
230
-1
40
0.052723
41
1.55449942643341
42
2.31022812876919
0
ELLIPSE
5
A8
100
AcDbEntity
8
1
62
256
6
ByLayer
370
18
48
1
60
0
100
AcDbEllipse
10
94.859296
20
0.161083
30
0
11
0.0868803724514977
21
0.290676908874292
31
0
210
0
220
0
230
-1
40
0.467765
41
1.72000247460223
42
2.36053717392622
0
ELLIPSE
5
A9
100
AcDbEntity
8
1
62
256
6
ByLayer
370
18
48
1
60
0
100
AcDbEllipse
10
95.000696
20
0.001834
30
0
11
3.07210824055795
21
8.39929943328109
31
0
210
0
220
0
230
-1
40
0.065672
41
2.91584367163449
42
3.0035654263111
0
ELLIPSE
5
AA
100
AcDbEntity
8
1
62
256
6
ByLayer
370
13
48
1
60
0
100
AcDbEllipse
10
93.981364
20
3.885226
30
0
11
5.47547444748524
21
-2.47622055346091
31
0
210
0
220
0
230
-1
40
0.458954
41
1.57816586827054
42
1.92100253837312
0
ELLIPSE
5
AB
100
AcDbEntity
8
1
62
256
6
ByLayer
370
13
48
1
60
0
100
AcDbEllipse
10
93.811905
20
3.750934
30
0
11
5.42744382845893
21
-2.79019093179238
31
0
210
0
220
0
230
-1
40
0.482873
41
1.53949524918795
42
1.87943408970654
0
ELLIPSE
5
AC
100
AcDbEntity
8
1
62
256
6
ByLayer
370
18
48
1
60
0
100
AcDbEllipse
10
95.000696
20
-0.001835
30
0
11
3.07210851670164
21
-8.39930021685965
31
0
210
0
220
0
230
-1
40
0.065672
41
-3.00356543272015
42
-2.91584368218463
0
POINT
5
6C
100
AcDbEntity
8
81
62
256
6
ByLayer
370
18
48
1
60
0
100
AcDbPoint
10
95
20
0
30
0
39
0
210
0
220
0
230
1
50
360
0
POINT
5
6E
100
AcDbEntity
8
80
62
256
6
ByLayer
370
18
48
1
60
0
100
AcDbPoint
10
0
20
0
30
0
39
0
210
0
220
0
230
1
50
360
0
POINT
5
70
100
AcDbEntity
8
SK2
62
256
6
ByLayer
370
18
48
1
60
1
100
AcDbPoint
10
-48
20
-9
30
0
39
0
210
0
220
0
230
1
50
360
0
POINT
5
72
100
AcDbEntity
8
SK2
62
256
6
ByLayer
370
18
48
1
60
1
100
AcDbPoint
10
-48
20
9
30
0
39
0
210
0
220
0
230
1
50
360
0
POINT
5
73
100
AcDbEntity
8
2
62
256
6
ByLayer
370
18
48
1
60
1
100
AcDbPoint
10
92.1
20
-8.4
30
0
39
0
210
0
220
0
230
1
50
360
0
POINT
5
75
100
AcDbEntity
8
2
62
256
6
ByLayer
370
18
48
1
60
1
100
AcDbPoint
10
92.1
20
8.4
30
0
39
0
210
0
220
0
230
1
50
360
0
SPLINE
5
AD
100
AcDbEntity
8
1
62
256
6
ByLayer
370
18
48
1
60
0
100
AcDbSpline
70
4
71
1
72
4
73
2
40
0
40
0
40
1
40
1
41
1
10
21.2004683534181
20
0.0052287231714843
30
0
41
1
10
21.2004585544712
20
0.0052320968811159
30
0
0
SPLINE
5
AE
100
AcDbEntity
8
1
62
256
6
ByLayer
370
18
48
1
60
0
100
AcDbSpline
70
4
71
2
72
6
73
3
40
0
40
0
40
0
40
1
40
1
40
1
41
1
10
90.5713233073591
20
-8.03822526276946
30
0
41
1
10
91.322339471961
20
-8.03529476515794
30
0
41
1
10
92.0733933482578
20
-8.04180548534703
30
0
0
SPLINE
5
AF
100
AcDbEntity
8
1
62
256
6
ByLayer
370
18
48
1
60
0
100
AcDbSpline
70
4
71
3
72
42
73
38
40
0
40
0
40
0
40
0
40
0.0336411147297699
40
0.0588047058863982
40
0.0851540897405777
40
0.110237259291944
40
0.131295513345029
40
0.148346803711153
40
0.166656171563753
40
0.193524470307
40
0.216095354187647
40
0.232844493940169
40
0.253557993576507
40
0.28063628480477
40
0.306232108853995
40
0.326975624477238
40
0.358717857003147
40
0.402413671698284
40
0.447105754193778
40
0.484465891760645
40
0.516759605112511
40
0.550306886806877
40
0.59954096052266
40
0.638726945192667
40
0.684311908833713
40
0.731052460975414
40
0.772926891296636
40
0.801960061249015
40
0.832574523611732
40
0.859613038881935
40
0.883075567892512
40
0.895982296956495
40
0.910455781222598
40
0.926580391471365
40
0.947729524522138
40
0.975662229230255
40
1
40
1
40
1
40
1
41
1
10
44.4182231155313
20
-8.00980684692146
30
0
41
1
10
44.6661072360725
20
-8.00834587458655
30
0
41
1
10
45.1082224725185
20
-8.00680923301567
30
0
41
1
10
45.7876592705775
20
-8.00504099761602
30
0
41
1
10
46.3852575466976
20
-8.00937867026312
30
0
41
1
10
46.9393224300706
20
-8.01211994586726
30
0
41
1
10
47.4279687336875
20
-8.01249831644645
30
0
41
1
10
47.8634174198831
20
-8.01152236472751
30
0
41
1
10
48.3574433595859
20
-8.0112055519219
30
0
41
1
10
48.8874380534293
20
-8.01277106077788
30
0
41
1
10
49.405831239769
20
-8.01348679152377
30
0
41
1
10
49.8801862101159
20
-8.01414394747815
30
0
41
1
10
50.3895471045688
20
-8.01435656527408
30
0
41
1
10
50.9688985214102
20
-8.01435821742402
30
0
41
1
10
51.548468574848
20
-8.01434892000637
30
0
41
1
10
52.1648642582478
20
-8.01523076333169
30
0
41
1
10
52.9241304407833
20
-8.01607423142505
30
0
41
1
10
53.8724697236513
20
-8.01543715043192
30
0
41
1
10
54.8651607074458
20
-8.0166217892866
30
0
41
1
10
55.7678322463628
20
-8.0169190200221
30
0
41
1
10
56.5825184069992
20
-8.01689151761343
30
0
41
1
10
57.490950752652
20
-8.01805884781743
30
0
41
1
10
58.4537969256867
20
-8.01829349190669
30
0
41
1
10
59.5116606089514
20
-8.01827815896067
30
0
41
1
10
60.5498460273191
20
-8.02003320976732
30
0
41
1
10
61.6092583497607
20
-8.01935871154194
30
0
41
1
10
62.5380021759584
20
-8.02047253289439
30
0
41
1
10
63.3394447270961
20
-8.02165035940797
30
0
41
1
10
64.0237679615775
20
-8.02119530774823
30
0
41
1
10
64.6641188076087
20
-8.02109791347544
30
0
41
1
10
65.164648655167
20
-8.02164649355481
30
0
41
1
10
65.5660126996813
20
-8.02232797127499
30
0
41
1
10
65.9094529374021
20
-8.0227641653006
30
0
41
1
10
66.3179541148275
20
-8.02283978261346
30
0
41
1
10
66.8327143254942
20
-8.02265018544702
30
0
41
1
10
67.4122897880324
20
-8.02266805426592
30
0
41
1
10
67.8249263514208
20
-8.02356383250117
30
0
41
1
10
68.0170554960374
20
-8.02411892929825
30
0
0
SPLINE
5
B0
100
AcDbEntity
8
1
62
256
6
ByLayer
370
18
48
1
60
0
100
AcDbSpline
70
4
71
3
72
33
73
29
40
0
40
0
40
0
40
0
40
0.0123467185302422
40
0.0729273882327555
40
0.108227695750258
40
0.145497785755679
40
0.194471483714148
40
0.249045731349909
40
0.298988232835311
40
0.332851248035348
40
0.379849116585703
40
0.416967451065434
40
0.448240678191195
40
0.494024418259422
40
0.541782369099218
40
0.584461776960856
40
0.624651048592185
40
0.657335136937978
40
0.691358144284845
40
0.721626521772243
40
0.746944185948395
40
0.770268449804689
40
0.794381405197911
40
0.82082476799588
40
0.851038435309152
40
0.892705104758557
40
0.946825597884359
40
1
40
1
40
1
40
1
41
1
10
22.4633335449841
20
7.99379949275104
30
0
41
1
10
22.3877449981914
20
7.99389630161866
30
0
41
1
10
21.9416960937459
20
7.99448329209989
30
0
41
1
10
21.3001512931707
20
7.99890043351385
30
0
41
1
10
20.4843687604398
20
7.99790430883002
30
0
41
1
10
19.7403866230814
20
7.99690672762219
30
0
41
1
10
18.8779253928537
20
7.99648014029023
30
0
41
1
10
17.9379953737532
20
7.99654481120078
30
0
41
1
10
17.0905871734685
20
7.99524538415795
30
0
41
1
10
16.2895556456625
20
7.99504522104601
30
0
41
1
10
15.5670616239925
20
7.99558369254916
30
0
41
1
10
14.8604272193243
20
7.99519698079592
30
0
41
1
10
14.1612256040978
20
7.99444490585179
30
0
41
1
10
13.3968863422679
20
7.99440688377922
30
0
41
1
10
12.5626177595325
20
7.99452697961505
30
0
41
1
10
11.7628778280853
20
7.9928086717228
30
0
41
1
10
11.054581971271
20
7.99249538892678
30
0
41
1
10
10.4112429522913
20
7.99121606621694
30
0
41
1
10
9.8563936164301
20
7.98371484335649
30
0
41
1
10
9.32382957140069
20
7.97431293041339
30
0
41
1
10
8.82318457798883
20
7.97529018317439
30
0
41
1
10
8.43590804935383
20
7.98671696364195
30
0
41
1
10
8.01334527774293
20
7.98940446247966
30
0
41
1
10
7.51708244455787
20
7.98965495155002
30
0
41
1
10
6.91600321773166
20
7.98932178830566
30
0
41
1
10
6.14398109415569
20
7.98910917602754
30
0
41
1
10
5.23227735376904
20
7.9887015754062
30
0
41
1
10
4.57578586570565
20
7.98741011851288
30
0
41
1
10
4.25053298574977
20
7.98659679026474
30
0
0
SPLINE
5
B1
100
AcDbEntity
8
1
62
256
6
ByLayer
370
18
48
1
60
0
100
AcDbSpline
70
4
71
3
72
37
73
33
40
0
40
0
40
0
40
0
40
0.0293185792570083
40
0.0630922327575877
40
0.0938785972355389
40
0.117300895324837
40
0.137741402930588
40
0.155407291206797
40
0.173786931381003
40
0.19413382704198
40
0.216445754268344
40
0.258734998070586
40
0.296675188663857
40
0.332996071973079
40
0.376748726783365
40
0.420954523969507
40
0.457889885079677
40
0.496794682782469
40
0.543618967903687
40
0.584900545404476
40
0.624715205649857
40
0.671118987834465
40
0.726714454681263
40
0.769437077021231
40
0.80170425921012
40
0.834437226988897
40
0.879129326178512
40
0.908086092949992
40
0.930087444753679
40
0.949022538400529
40
0.974485718375618
40
1
40
1
40
1
40
1
41
1
10
68.0149320548513
20
8.02411451641839
30
0
41
1
10
67.8235107311257
20
8.02356177080532
30
0
41
1
10
67.4115819610592
20
8.02266826816938
30
0
41
1
10
66.7986682036509
20
8.02264622065366
30
0
41
1
10
66.2242257657394
20
8.02289000995268
30
0
41
1
10
65.7368459843967
20
8.02262092403774
30
0
41
1
10
65.3351207979453
20
8.02192213643355
30
0
41
1
10
64.9663422989648
20
8.02140907974947
30
0
41
1
10
64.5981652933437
20
8.02114886771821
30
0
41
1
10
64.1996469047345
20
8.02115578597758
30
0
41
1
10
63.6450207930622
20
8.02145403523022
30
0
41
1
10
62.9755269872531
20
8.02137637528438
30
0
41
1
10
62.214571432248
20
8.019868998877
30
0
41
1
10
61.4440599200662
20
8.01956438104145
30
0
41
1
10
60.6326391652342
20
8.01989041162312
30
0
41
1
10
59.8172070493047
20
8.0187985604928
30
0
41
1
10
59.0334330462463
20
8.01817610411871
30
0
41
1
10
58.232557722684
20
8.01835159528497
30
0
41
1
10
57.4033036858006
20
8.01792727696315
30
0
41
1
10
56.5681110590403
20
8.01687897575889
30
0
41
1
10
55.7356748572239
20
8.0169382739777
30
0
41
1
10
54.8097773638675
20
8.01652247791989
30
0
41
1
10
53.8648836450791
20
8.01554991238689
30
0
41
1
10
53.0122993591265
20
8.01600309849093
30
0
41
1
10
52.3089764174726
20
8.0154526527169
30
0
41
1
10
51.5928138831844
20
8.01430494907478
30
0
41
1
10
50.8982444177215
20
8.01439598922329
30
0
41
1
10
50.2737647442914
20
8.01432042086196
30
0
41
1
10
49.8174841571448
20
8.01407150798971
30
0
41
1
10
49.3837832789377
20
8.01345605640142
30
0
41
1
10
48.9307211808623
20
8.0128012444888
30
0
41
1
10
48.6014833004223
20
8.01195982493925
30
0
41
1
10
48.4353378530632
20
8.01167197063685
30
0
0
SPLINE
5
B2
100
AcDbEntity
8
1
62
256
6
ByLayer
370
18
48
1
60
0
100
AcDbSpline
70
4
71
3
72
29
73
25
40
0
40
0
40
0
40
0
40
0.0417453010649082
40
0.0876171918675756
40
0.123714444421601
40
0.154648762767518
40
0.187424554810451
40
0.222075671859961
40
0.26977495659935
40
0.303895949321722
40
0.338572225635967
40
0.393159552927314
40
0.445526067919983
40
0.493533968735683
40
0.550645551472126
40
0.608546256955995
40
0.653284506466386
40
0.71673209374568
40
0.766083179262387
40
0.821893059793529
40
0.868034975089157
40
0.915755518451519
40
0.970472812251423
40
1
40
1
40
1
40
1
41
1
10
4.25057498320919
20
-7.98665439857479
30
0
41
1
10
4.49860779387959
20
-7.98728824974114
30
0
41
1
10
5.01920598548188
20
-7.98840130439234
30
0
41
1
10
5.75437448849121
20
-7.98926104112985
30
0
41
1
10
6.42525643597833
20
-7.98960652637018
30
0
41
1
10
7.01832512769815
20
-7.9896986700729
30
0
41
1
10
7.60281892735711
20
-7.98972342764128
30
0
41
1
10
8.28692179718396
20
-7.98985941311312
30
0
41
1
10
8.97903683813689
20
-7.99047956405894
30
0
41
1
10
9.67126511886752
20
-7.99157654771119
30
0
41
1
10
10.4044462845456
20
-7.99223267374276
30
0
41
1
10
11.2460520379384
20
-7.9923440293307
30
0
41
1
10
12.1668760788742
20
-7.99371128294004
30
0
41
1
10
13.1026984116682
20
-7.99473092289853
30
0
41
1
10
14.0714115802842
20
-7.99416063055318
30
0
41
1
10
15.0206826354159
20
-7.99551824035396
30
0
41
1
10
16.0076411525958
20
-7.99531537764878
30
0
41
1
10
16.9436423583323
20
-7.9949593284482
30
0
41
1
10
17.9459710116246
20
-7.99660902052517
30
0
41
1
10
18.8427869465002
20
-7.9961756592424
30
0
41
1
10
19.7335331904637
20
-7.99656582887079
30
0
41
1
10
20.6125618384039
20
-7.99846721328154
30
0
41
1
10
21.3949339741176
20
-7.99782955506558
30
0
41
1
10
21.8955363047474
20
-7.99827166211412
30
0
41
1
10
22.0711215510578
20
-7.99843077977764
30
0
0
SPLINE
5
B3
100
AcDbEntity
8
1
62
256
6
ByLayer
370
18
48
1
60
0
100
AcDbSpline
70
4
71
3
72
10
73
6
40
0
40
0
40
0
40
0
40
0.176797032382736
40
0.535203568522276
40
1
40
1
40
1
40
1
41
1
10
69.4623205210314
20
-1.90051664173072
30
0
41
1
10
69.4623264649434
20
-1.90058116661481
30
0
41
1
10
69.4748979315971
20
-1.90717106628105
30
0
41
1
10
69.5706595363154
20
-1.9578165812851
30
0
41
1
10
69.6687010715329
20
-2.01184238144126
30
0
41
1
10
69.7371725411612
20
-2.04977910294554
30
0
0
SPLINE
5
B4
100
AcDbEntity
8
1
62
256
6
ByLayer
370
18
48
1
60
0
100
AcDbSpline
70
4
71
3
72
108
73
104
40
0
40
0
40
0
40
0
40
0.0049631220190885
40
0.0049631220190885
40
0.0243501050226377
40
0.0243501050226377
40
0.0437370880261868
40
0.0437370880261868
40
0.063124071029736
40
0.063124071029736
40
0.0825110540332852
40
0.0825110540332852
40
0.101898037036834
40
0.101898037036834
40
0.121285020040384
40
0.121285020040384
40
0.140672003043933
40
0.140672003043933
40
0.160058986047482
40
0.160058986047482
40
0.179445969051031
40
0.179445969051031
40
0.19883295205458
40
0.19883295205458
40
0.21821993505813
40
0.21821993505813
40
0.237606918061679
40
0.237606918061679
40
0.256993901065228
40
0.256993901065228
40
0.276380884068777
40
0.276380884068777
40
0.295767867072326
40
0.295767867072326
40
0.315154850075876
40
0.315154850075876
40
0.334541833079425
40
0.334541833079425
40
0.373315799086523
40
0.373315799086523
40
0.392702782090071
40
0.392702782090071
40
0.41208976509362
40
0.41208976509362
40
0.431476748097169
40
0.431476748097169
40
0.450863731100718
40
0.450863731100718
40
0.470250714104267
40
0.470250714104267
40
0.489637697107816
40
0.489637697107816
40
0.509024680111365
40
0.509024680111365
40
0.528411663114914
40
0.528411663114914
40
0.547798646118463
40
0.547798646118463
40
0.567185629122012
40
0.567185629122012
40
0.586572612125561
40
0.586572612125561
40
0.60595959512911
40
0.60595959512911
40
0.625346578132658
40
0.625346578132658
40
0.644733561136207
40
0.644733561136207
40
0.664120544139756
40
0.664120544139756
40
0.683507527143305
40
0.683507527143305
40
0.702894510146854
40
0.702894510146854
40
0.722281493150403
40
0.722281493150403
40
0.741668476153952
40
0.741668476153952
40
0.761055459157501
40
0.761055459157501
40
0.799829425164599
40
0.799829425164599
40
0.819216408168147
40
0.819216408168147
40
0.838603391171696
40
0.838603391171696
40
0.857990374175245
40
0.857990374175245
40
0.877377357178793
40
0.877377357178793
40
0.896764340182342
40
0.896764340182342
40
0.91615132318589
40
0.91615132318589
40
0.935538306189439
40
0.935538306189439
40
0.954925289192988
40
0.954925289192988
40
0.974312272196536
40
0.974312272196536
40
0.993699255200085
40
0.993699255200085
40
1
40
1
40
1
40
1
41
1
10
78.2296459577359
20
-6.17086632556573
30
0
41
1
10
78.1372192375817
20
-6.2029741728345
30
0
41
1
10
78.0447669426275
20
-6.23473148301576
30
0
41
1
10
77.591047136594
20
-6.38889902221285
30
0
41
1
10
77.2294286336146
20
-6.50647106716139
30
0
41
1
10
76.5054676455946
20
-6.73069881609558
30
0
41
1
10
76.144334614526
20
-6.8372659871084
30
0
41
1
10
75.4224890646074
20
-7.03734003415423
30
0
41
1
10
75.0616729584734
20
-7.13087726967811
30
0
41
1
10
74.3401053879634
20
-7.30387805780686
30
0
41
1
10
73.9793516515892
20
-7.38335636068771
30
0
41
1
10
73.2578129580084
20
-7.52742040435552
30
0
41
1
10
72.8972506949969
20
-7.59292478888767
30
0
41
1
10
72.1749121710774
20
-7.71166402222036
30
0
41
1
10
71.8128297983203
20
-7.76463351362318
30
0
41
1
10
71.0893764026059
20
-7.85538969916092
30
0
41
1
10
70.7280936835133
20
-7.8929706888832
30
0
41
1
10
70.0063886440473
20
-7.95528265751022
30
0
41
1
10
69.6461235255982
20
-7.97962702789815
30
0
41
1
10
68.9249823154599
20
-8.01333686179746
30
0
41
1
10
68.5642452664003
20
-8.02276488511157
30
0
41
1
10
67.8422568140717
20
-8.0253418120619
30
0
41
1
10
67.4809869983316
20
-8.01936615947568
30
0
41
1
10
66.7582188351579
20
-7.99427893684324
30
0
41
1
10
66.396507797354
20
-7.97474892552196
30
0
41
1
10
65.6739279105488
20
-7.92048182315179
30
0
41
1
10
65.3128874504044
20
-7.88548294313046
30
0
41
1
10
64.5911153075398
20
-7.80241998821106
30
0
41
1
10
64.2303879014183
20
-7.75432215555696
30
0
41
1
10
63.5095003470845
20
-7.64377444608434
30
0
41
1
10
63.1490779323139
20
-7.58121452260991
30
0
41
1
10
62.4270447044197
20
-7.44170144501891
30
0
41
1
10
62.065581448647
20
-7.36531665579423
30
0
41
1
10
61.3417913881669
20
-7.19981851778246
30
0
41
1
10
60.9801198530009
20
-7.11066118398753
30
0
41
1
10
60.2584346370668
20
-6.91863105228614
30
0
41
1
10
59.8978316140233
20
-6.81586611234258
30
0
41
1
10
58.8156485643331
20
-6.49133749086886
30
0
41
1
10
58.0942103068175
20
-6.25258603238123
30
0
41
1
10
57.0114125386626
20
-5.85683440811732
30
0
41
1
10
56.6496200407721
20
-5.7196067626254
30
0
41
1
10
55.9260782525563
20
-5.43597467321248
30
0
41
1
10
55.5646832504599
20
-5.28955366732467
30
0
41
1
10
54.8426564638561
20
-4.98682216297249
30
0
41
1
10
54.4822195254869
20
-4.83001096862489
30
0
41
1
10
53.7613242984003
20
-4.50904601073441
30
0
41
1
10
53.4006897444686
20
-4.34499956702081
30
0
41
1
10
52.6788721580081
20
-4.00895595385492
30
0
41
1
10
52.3176868665181
20
-3.8369847857698
30
0
41
1
10
51.5947007310131
20
-3.48530655677809
30
0
41
1
10
51.2329205153211
20
-3.30545102797655
30
0
41
1
10
50.5103305700357
20
-2.94156171589302
30
0
41
1
10
50.1492455666704
20
-2.75737564301267
30
0
41
1
10
49.4273862866769
20
-2.38421880720961
30
0
41
1
10
49.0665709567591
20
-2.19542059799844
30
0
41
1
10
48.345222039207
20
-1.81401763966895
30
0
41
1
10
47.984909170788
20
-1.62089999659361
30
0
41
1
10
47.2631917283956
20
-1.23268564037843
30
0
41
1
10
46.9018473876675
20
-1.03739216332883
30
0
41
1
10
46.1780689430747
20
-0.644910458748484
30
0
41
1
10
45.8160058388583
20
-0.448037513500196
30
0
41
1
10
45.0936102538219
20
-0.053544440360497
30
0
41
1
10
44.733087962021
20
0.144359980517464
30
0
41
1
10
44.0116385371434
20
0.538070451166078
30
0
41
1
10
43.6508286476614
20
0.734128550632306
30
0
41
1
10
42.9289925618756
20
1.12477603967045
30
0
41
1
10
42.5679574178635
20
1.31932329087667
30
0
41
1
10
41.8458483670298
20
1.7070834276399
30
0
41
1
10
41.4843914836496
20
1.89994736586962
30
0
41
1
10
40.7605859492759
20
2.28102619032424
30
0
41
1
10
40.3989679441464
20
2.46925075243152
30
0
41
1
10
39.6763623193103
20
2.84078989159022
30
0
41
1
10
39.3153760764799
20
3.02406865543057
30
0
41
1
10
38.5941567716223
20
3.38508074884251
30
0
41
1
10
38.2335730652445
20
3.56267994643326
30
0
41
1
10
37.5115740373566
20
3.91102019990387
30
0
41
1
10
37.1502831899028
20
4.08188338472118
30
0
41
1
10
36.4269973384037
20
4.41598727054162
30
0
41
1
10
36.06468016406
20
4.57891442071005
30
0
41
1
10
34.9801775941497
20
5.05628643109475
30
0
41
1
10
34.2578793274737
20
5.35742992556337
30
0
41
1
10
33.1747147021161
20
5.77509740725267
30
0
41
1
10
32.8138443657958
20
5.90943515330198
30
0
41
1
10
32.0918627639834
20
6.16857562829858
30
0
41
1
10
31.7304219253679
20
6.2927289601212
30
0
41
1
10
31.0063630040664
20
6.5289052230687
30
0
41
1
10
30.643937491041
20
6.64034908175969
30
0
41
1
10
29.9206563192163
20
6.85158493783612
30
0
41
1
10
29.5596785103924
20
6.95188157005066
30
0
41
1
10
28.8378518244319
20
7.13932475484208
30
0
41
1
10
28.4768711398384
20
7.22638982947635
30
0
41
1
10
27.754548147616
20
7.38573352626219
30
0
41
1
10
27.3931990950355
20
7.45866434565616
30
0
41
1
10
26.6702415682998
20
7.59252567750727
30
0
41
1
10
26.3087653437374
20
7.65327330659647
30
0
41
1
10
25.5846701489934
20
7.75989742828659
30
0
41
1
10
25.2229974048317
20
7.80499658672667
30
0
41
1
10
24.5000557861839
20
7.88144440824973
30
0
41
1
10
24.1387822226611
20
7.9131502893257
30
0
41
1
10
23.4168201362554
20
7.96198225017605
30
0
41
1
10
23.0562788191632
20
7.97893751972038
30
0
41
1
10
22.5779126811756
20
7.99174163761168
30
0
41
1
10
22.4605396929521
20
7.9941363306541
30
0
41
1
10
22.3431277135688
20
7.995784063694
30
0
0
SPLINE
5
B5
100
AcDbEntity
8
1
62
256
6
ByLayer
370
18
48
1
60
0
100
AcDbSpline
70
4
71
3
72
20
73
16
40
0
40
0
40
0
40
0
40
0.0753611683988491
40
0.0753611683988491
40
0.130209180678302
40
0.130209180678302
40
0.185057192957754
40
0.185057192957754
40
0.404449242075568
40
0.404449242075568
40
0.843233340311197
40
0.843233340311197
40
0.952929364870104
40
0.952929364870104
40
1
40
1
40
1
40
1
41
1
10
21.137361731773
20
0.0400475567547858
30
0
41
1
10
21.451371028033
20
-0.13320691568947
30
0
41
1
10
21.7658527586912
20
-0.306773189508306
30
0
41
1
10
22.3103149781926
20
-0.606678417836036
30
0
41
1
10
22.5399973390416
20
-0.733010526738155
30
0
41
1
10
23.0001461220466
20
-0.985489230418551
30
0
41
1
10
23.2309040508079
20
-1.11179466387054
30
0
41
1
10
24.3825326514215
20
-1.73997770032778
30
0
41
1
10
25.2970998754855
20
-2.23169931206215
30
0
41
1
10
28.0324367046439
20
-3.65482597766706
30
0
41
1
10
29.843959133337
20
-4.53541505598542
30
0
41
1
10
32.1302055533753
20
-5.49105299013456
30
0
41
1
10
32.5885193105245
20
-5.67495414197072
30
0
41
1
10
33.245740014218
20
-5.92628512884022
30
0
41
1
10
33.4434114343773
20
-6.00028721131554
30
0
41
1
10
33.6411597424328
20
-6.07267395868573
30
0
0
SPLINE
5
B6
100
AcDbEntity
8
1
62
256
6
ByLayer
370
13
48
1
60
0
100
AcDbSpline
70
4
71
3
72
20
73
16
40
0
40
0
40
0
40
0
40
0.0618470349556611
40
0.0618470349556611
40
0.278512318034033
40
0.278512318034033
40
0.386844959573219
40
0.386844959573219
40
0.495177601112406
40
0.495177601112406
40
0.71184288419078
40
0.71184288419078
40
0.928508167269155
40
0.928508167269155
40
1
40
1
40
1
40
1
41
1
10
33.6411597423017
20
-6.07267395863775
30
0
41
1
10
33.9042550833521
20
-6.16898131102093
30
0
41
1
10
34.1674865245953
20
-6.26242933924394
30
0
41
1
10
35.3507592277755
20
-6.66875010005595
30
0
41
1
10
36.2689969778109
20
-6.94648891840509
30
0
41
1
10
37.6483071598651
20
-7.30034976930045
30
0
41
1
10
38.10842659317
20
-7.40782208000954
30
0
41
1
10
39.030405496135
20
-7.60090781455364
30
0
41
1
10
39.4905538386036
20
-7.68617966380808
30
0
41
1
10
40.8663361417173
20
-7.90706664296997
30
0
41
1
10
41.7788517877812
20
-8.0080636737724
30
0
41
1
10
43.601931430668
20
-8.11666261453237
30
0
41
1
10
44.5125938602748
20
-8.12434960395336
30
0
41
1
10
45.7272090908624
20
-8.07176861324149
30
0
41
1
10
46.0289012451608
20
-8.05359501493601
30
0
41
1
10
46.331024816941
20
-8.03028639305717
30
0
0
SPLINE
5
B7
100
AcDbEntity
8
1
62
256
6
ByLayer
370
18
48
1
60
0
100
AcDbSpline
70
4
71
3
72
72
73
68
40
0
40
0
40
0
40
0
40
0.124999999999997
40
0.124999999999997
40
0.156249999999995
40
0.156249999999995
40
0.187499999999994
40
0.187499999999994
40
0.249999999999992
40
0.249999999999992
40
0.374999999999987
40
0.374999999999987
40
0.499999999999982
40
0.499999999999982
40
0.56249999999998
40
0.56249999999998
40
0.593749999999978
40
0.593749999999978
40
0.624999999999977
40
0.624999999999977
40
0.687499999999976
40
0.687499999999976
40
0.718749999999974
40
0.718749999999974
40
0.726562499999974
40
0.726562499999974
40
0.730468749999975
40
0.730468749999975
40
0.734374999999975
40
0.734374999999975
40
0.738281249999975
40
0.738281249999975
40
0.742187499999976
40
0.742187499999976
40
0.749999999999976
40
0.749999999999976
40
0.765624999999978
40
0.765624999999978
40
0.781249999999979
40
0.781249999999979
40
0.79687499999998
40
0.79687499999998
40
0.804687499999981
40
0.804687499999981
40
0.812499999999982
40
0.812499999999982
40
0.828124999999983
40
0.828124999999983
40
0.835937499999984
40
0.835937499999984
40
0.843749999999985
40
0.843749999999985
40
0.859374999999987
40
0.859374999999987
40
0.867187499999987
40
0.867187499999987
40
0.874999999999988
40
0.874999999999988
40
0.906249999999991
40
0.906249999999991
40
0.937499999999995
40
0.937499999999995
40
0.953124999999996
40
0.953124999999996
40
0.968749999999997
40
0.968749999999997
40
1
40
1
40
1
40
1
41
1
10
22.9412730822261
20
-1.66263062538155
30
0
41
1
10
21.9380029124679
20
-1.09981621013475
30
0
41
1
10
20.923689364527
20
-0.551249824704399
30
0
41
1
10
19.6347814572453
20
0.101364532378994
30
0
41
1
10
19.3757158552908
20
0.230305838075083
30
0
41
1
10
18.8567720593608
20
0.483588254581605
30
0
41
1
10
18.5968060798089
20
0.607977374320569
30
0
41
1
10
17.8151427189688
20
0.973743629033777
30
0
41
1
10
17.2916770072131
20
1.20770684601641
30
0
41
1
10
15.711989636938
20
1.87507498318038
30
0
41
1
10
14.6463697862328
20
2.27360635272873
30
0
41
1
10
12.4800893349209
20
2.95843424371986
30
0
41
1
10
11.3794415579876
20
3.24484929134025
30
0
41
1
10
9.69706249623687
20
3.58289558741774
30
0
41
1
10
9.13105975925819
20
3.68037982762593
30
0
41
1
10
8.27371686947339
20
3.80307066083648
30
0
41
1
10
7.98641216461056
20
3.84005060486305
30
0
41
1
10
7.41136746937252
20
3.90576809765656
30
0
41
1
10
7.12334385707337
20
3.934551358585
30
0
41
1
10
6.25773243754259
20
4.00861094388253
30
0
41
1
10
5.6786041730642
20
4.04160839865452
30
0
41
1
10
4.80902023119313
20
4.06577937987223
30
0
41
1
10
4.51895919367749
20
4.06961310125175
30
0
41
1
10
4.15639224938883
20
4.06899582966958
30
0
41
1
10
4.0838787451639
20
4.06860171357084
30
0
41
1
10
3.97513267277864
20
4.06760189777728
30
0
41
1
10
3.93888687928094
20
4.06720051474326
30
0
41
1
10
3.8664011062435
20
4.06626103568729
30
0
41
1
10
3.8302349509984
20
4.06398923558018
30
0
41
1
10
3.75832122152212
20
4.04959232507181
30
0
41
1
10
3.72407731054037
20
4.03872739772055
30
0
41
1
10
3.66372237498001
20
4.00117852310228
30
0
41
1
10
3.63399254213775
20
3.98158709914205
30
0
41
1
10
3.54497705748565
20
3.92289491957288
30
0
41
1
10
3.48639068350337
20
3.88274766772736
30
0
41
1
10
3.31309660547657
20
3.75896043837034
30
0
41
1
10
3.20092311457762
20
3.67199530888959
30
0
41
1
10
2.98696028457269
20
3.48961533103727
30
0
41
1
10
2.88484346622636
20
3.39398825845643
30
0
41
1
10
2.69204717345499
20
3.19214846805159
30
0
41
1
10
2.60135520074024
20
3.08594814691253
30
0
41
1
10
2.47572219520592
20
2.91688671437979
30
0
41
1
10
2.43558554528784
20
2.8588993092842
30
0
41
1
10
2.35921205378637
20
2.73924172224224
30
0
41
1
10
2.32281509459966
20
2.67725382593574
30
0
41
1
10
2.22172782248575
20
2.48786461113849
30
0
41
1
10
2.16500835418214
20
2.35712032235313
30
0
41
1
10
2.09756507310101
20
2.15348127467794
30
0
41
1
10
2.07802815115824
20
2.08434563099397
30
0
41
1
10
2.04518271661462
20
1.94339852195614
30
0
41
1
10
2.03186571605593
20
1.87130467360265
30
0
41
1
10
2.00229624197871
20
1.65530637037736
30
0
41
1
10
1.99602337010748
20
1.51047273224705
30
0
41
1
10
2.00558065056478
20
1.29197812044688
30
0
41
1
10
2.01193121134244
20
1.21893910023195
30
0
41
1
10
2.03080264637791
20
1.07244596868105
30
0
41
1
10
2.04335297713766
20
0.999039097820713
30
0
41
1
10
2.11934116740017
20
0.637867128792038
30
0
41
1
10
2.22250221715743
20
0.361383220145427
30
0
41
1
10
2.48735418616067
20
-0.173101369922676
30
0
41
1
10
2.64444850823639
20
-0.422194377519645
30
0
41
1
10
2.90371338914051
20
-0.778360789059036
30
0
41
1
10
2.99418366747034
20
-0.894089542273406
30
0
41
1
10
3.18191440588311
20
-1.12051267810082
30
0
41
1
10
3.27944254345638
20
-1.23148257012923
30
0
41
1
10
3.57865587303942
20
-1.5556475432729
30
0
41
1
10
3.78641245255051
20
-1.75987086074005
30
0
41
1
10
3.99999979756717
20
-1.95554272154504
30
0
0
SPLINE
5
B8
100
AcDbEntity
8
1
62
256
6
ByLayer
370
18
48
1
60
0
100
AcDbSpline
70
4
71
3
72
58
73
54
40
0
40
0
40
0
40
0
40
0.0287414131492018
40
0.0287414131492018
40
0.0574828262984035
40
0.0574828262984035
40
0.114965652596807
40
0.114965652596807
40
0.143707065746009
40
0.143707065746009
40
0.172448478895211
40
0.172448478895211
40
0.229931305193614
40
0.229931305193614
40
0.258672718342816
40
0.258672718342816
40
0.287414131492018
40
0.287414131492018
40
0.316155544641219
40
0.316155544641219
40
0.344896957790421
40
0.344896957790421
40
0.402379784088825
40
0.402379784088825
40
0.431121197238027
40
0.431121197238027
40
0.459862610387229
40
0.459862610387229
40
0.517345436685632
40
0.517345436685632
40
0.546086849834834
40
0.546086849834834
40
0.574828262984036
40
0.574828262984036
40
0.632311089282439
40
0.632311089282439
40
0.689793915580843
40
0.689793915580843
40
0.718535328730044
40
0.718535328730044
40
0.747276741879246
40
0.747276741879246
40
0.804759568177649
40
0.804759568177649
40
0.862242394476051
40
0.862242394476051
40
0.919725220774454
40
0.919725220774454
40
0.948466633923656
40
0.948466633923656
40
0.977208047072858
40
0.977208047072858
40
1
40
1
40
1
40
1
41
1
10
92.0336991002154
20
-8.34534138572133
30
0
41
1
10
91.575644591731
20
-8.37495246670403
30
0
41
1
10
91.1176777498943
20
-8.39230401717387
30
0
41
1
10
90.2010560608349
20
-8.40244427607132
30
0
41
1
10
89.7426177401578
20
-8.39520384450773
30
0
41
1
10
88.3700118480799
20
-8.33689895424754
30
0
41
1
10
87.4568707855427
20
-8.24929034011763
30
0
41
1
10
86.0842906783215
20
-8.04639550067895
30
0
41
1
10
85.6257003824831
20
-7.96674500896697
30
0
41
1
10
84.7094793900593
20
-7.7845941335294
30
0
41
1
10
84.2520569759019
20
-7.68217402387018
30
0
41
1
10
82.8805507175605
20
-7.34197384288223
30
0
41
1
10
81.9670479642821
20
-7.07138394866621
30
0
41
1
10
80.5922473759049
20
-6.60464129648938
30
0
41
1
10
80.1338500618449
20
-6.43907260698774
30
0
41
1
10
79.218851948039
20
-6.09036478402038
30
0
41
1
10
78.7617706940145
20
-5.90709659975096
30
0
41
1
10
77.8475760561891
20
-5.52384760822653
30
0
41
1
10
77.3904198653897
20
-5.32391964856157
30
0
41
1
10
76.4750055773597
20
-4.90872865977798
30
0
41
1
10
76.016180586419
20
-4.69318126325979
30
0
41
1
10
74.6418137618611
20
-4.02806230210356
30
0
41
1
10
73.7282539047416
20
-3.55995590351551
30
0
41
1
10
72.3563706228003
20
-2.82960235155761
30
0
41
1
10
71.8987622172809
20
-2.58154194127963
30
0
41
1
10
70.9818552734078
20
-2.07791762933883
30
0
41
1
10
70.523517550677
20
-1.82289701101678
30
0
41
1
10
69.1508097410293
20
-1.05219108268599
30
0
41
1
10
68.2372980777197
20
-0.530323544169079
30
0
41
1
10
66.8638881841689
20
0.254828381531979
30
0
41
1
10
66.4049742683546
20
0.517149092217466
30
0
41
1
10
65.4888117490439
20
1.03824820289799
30
0
41
1
10
65.0313289787232
20
1.2971954312564
30
0
41
1
10
63.6595450214396
20
2.06729343101864
30
0
41
1
10
62.7455032521738
20
2.57100053670581
30
0
41
1
10
60.911016088001
20
3.54638232019198
30
0
41
1
10
59.9964610117456
20
4.01430300432813
30
0
41
1
10
58.6246420946777
20
4.67747609629214
30
0
41
1
10
58.1672529624542
20
4.89206566495355
30
0
41
1
10
57.2511887683852
20
5.30673900993835
30
0
41
1
10
56.7920947998096
20
5.507045339195
30
0
41
1
10
55.4179807269813
20
6.08175187434219
30
0
41
1
10
54.5042204228105
20
6.43033772820857
30
0
41
1
10
52.673843141637
20
7.04992036450057
30
0
41
1
10
51.7555143168657
20
7.32106807999301
30
0
41
1
10
49.9251467884476
20
7.77301987219207
30
0
41
1
10
49.0113372928555
20
7.95457892115252
30
0
41
1
10
47.6368207056696
20
8.15647194871462
30
0
41
1
10
47.1776820094945
20
8.2120247110422
30
0
41
1
10
46.2615477405054
20
8.29869901578348
30
0
41
1
10
45.8040797115375
20
8.32992003491592
30
0
41
1
10
44.9839771178384
20
8.36406556356576
30
0
41
1
10
44.6212973278788
20
8.37150995826732
30
0
41
1
10
44.2584252795917
20
8.37127754554936
30
0
0
SPLINE
5
B9
100
AcDbEntity
8
1
62
256
6
ByLayer
370
13
48
1
60
0
100
AcDbSpline
70
4
71
3
72
14
73
10
40
0
40
0
40
0
40
0
40
0.023220459697494
40
0.023220459697494
40
0.391787246285689
40
0.391787246285689
40
0.760354032873883
40
0.760354032873883
40
1
40
1
40
1
40
1
41
1
10
4.25036573277836
20
7.63503115885334
30
0
41
1
10
4.25036776336651
20
7.64044072673369
30
0
41
1
10
4.2503697867667
20
7.64578935843747
30
0
41
1
10
4.25040380727742
20
7.73500711198108
30
0
41
1
10
4.25043406823667
20
7.8036738219165
30
0
41
1
10
4.2504917181102
20
7.90942320576778
30
0
41
1
10
4.25051889837593
20
7.946155446776
30
0
41
1
10
4.25056183261319
20
7.98030720338917
30
0
41
1
10
4.25057827761242
20
7.98691112446929
30
0
41
1
10
4.25059424145093
20
7.98671422360283
30
0
0
SPLINE
5
BA
100
AcDbEntity
8
1
62
256
6
ByLayer
370
18
48
1
60
0
100
AcDbSpline
70
4
71
3
72
12
73
8
40
0
40
0
40
0
40
0
40
0.249999999999988
40
0.249999999999988
40
0.499999999999977
40
0.499999999999977
40
1
40
1
40
1
40
1
41
1
10
4.12632745258833
20
7.66656849565331
30
0
41
1
10
4.10707883779486
20
7.67089138908599
30
0
41
1
10
4.08968914928596
20
7.67609406559484
30
0
41
1
10
4.05851951484325
20
7.68814839112869
30
0
41
1
10
4.0448895994067
20
7.69499699911353
30
0
41
1
10
4.01194560437446
20
7.71680518085793
30
0
41
1
10
3.99999979756828
20
7.73337860633183
30
0
41
1
10
3.99999979756828
20
7.74983373794032
30
0
0
SPLINE
5
BB
100
AcDbEntity
8
1
62
256
6
ByLayer
370
18
48
1
60
0
100
AcDbSpline
70
4
71
3
72
8
73
4
40
0
40
0
40
0
40
0
40
1
40
1
40
1
40
1
41
1
10
92.1558871422738
20
-7.99187853046953
30
0
41
1
10
92.1230326184486
20
-8.02319859551773
30
0
41
1
10
92.0957248930617
20
-8.03898012000974
30
0
41
1
10
92.0740599711987
20
-8.03895415981006
30
0
0
SPLINE
5
BC
100
AcDbEntity
8
1
62
256
6
ByLayer
370
18
48
1
60
0
100
AcDbSpline
70
4
71
3
72
22
73
18
40
0
40
0
40
0
40
0
40
0.125
40
0.125
40
0.25
40
0.25
40
0.375
40
0.375
40
0.5
40
0.5
40
0.625
40
0.625
40
0.75
40
0.75
40
0.875
40
0.875
40
1
40
1
40
1
40
1
41
1
10
14.0326440176939
20
-6.86029863303241
30
0
41
1
10
13.599374844413
20
-6.73945493475418
30
0
41
1
10
13.1695118541167
20
-6.6084465153892
30
0
41
1
10
12.3154967753861
20
-6.32430055330593
30
0
41
1
10
11.8913504175765
20
-6.17100305170766
30
0
41
1
10
11.047506779849
20
-5.84419954085774
30
0
41
1
10
10.6278406661606
20
-5.67044276619231
30
0
41
1
10
9.79258493402821
20
-5.30043941287943
30
0
41
1
10
9.3770165565341
20
-5.10392472466987
30
0
41
1
10
8.54986941805217
20
-4.68785099185502
30
0
41
1
10
8.13827205613086
20
-4.46842434651199
30
0
41
1
10
7.31995149891654
20
-4.00226214307148
30
0
41
1
10
6.91216951052456
20
-3.754793325912
30
0
41
1
10
6.11519244616659
20
-3.23215981073349
30
0
41
1
10
5.7248019777935
20
-2.95655766837874
30
0
41
1
10
4.96722424859959
20
-2.36625504692108
30
0
41
1
10
4.59974661049912
20
-2.05199479127143
30
0
41
1
10
4.2512493403556
20
-1.70719139859918
30
0
0
SPLINE
5
BD
100
AcDbEntity
8
1
62
256
6
ByLayer
370
18
48
1
60
0
100
AcDbSpline
70
4
71
3
72
14
73
10
40
0
40
0
40
0
40
0
40
0.25
40
0.25
40
0.5
40
0.5
40
0.75
40
0.75
40
1
40
1
40
1
40
1
41
1
10
90.8796134912562
20
2.10155402883177
30
0
41
1
10
90.8703673298715
20
2.12956089907146
30
0
41
1
10
90.8646918927501
20
2.15859908339198
30
0
41
1
10
90.8646607738532
20
2.21843279947683
30
0
41
1
10
90.8709332042833
20
2.24850446192079
30
0
41
1
10
90.898556962543
20
2.30403454065376
30
0
41
1
10
90.9211132787605
20
2.32720262524876
30
0
41
1
10
90.9742650563769
20
2.35914719134701
30
0
41
1
10
91.0045492406871
20
2.36883788611183
30
0
41
1
10
91.0352859030697
20
2.37434009830622
30
0
0
SPLINE
5
BE
100
AcDbEntity
8
1
62
256
6
ByLayer
370
18
48
1
60
0
100
AcDbSpline
70
4
71
3
72
8
73
4
40
0
40
0
40
0
40
0
40
1
40
1
40
1
40
1
41
1
10
92.0336991002155
20
-8.34534138572133
30
0
41
1
10
92.066611971391
20
-8.25672007231941
30
0
41
1
10
92.0995036092256
20
-8.16803245055777
30
0
41
1
10
92.1323739676081
20
-8.07927837643803
30
0
0
SPLINE
5
BF
100
AcDbEntity
8
1
62
256
6
ByLayer
370
18
48
1
60
0
100
AcDbSpline
70
2053
71
3
72
80
73
76
40
0
40
0
40
0
40
0
40
0.0312499999999981
40
0.0312499999999981
40
0.0468749999999946
40
0.0468749999999946
40
0.0624999999999911
40
0.0624999999999911
40
0.0937499999999886
40
0.0937499999999886
40
0.109374999999987
40
0.109374999999987
40
0.124999999999986
40
0.124999999999986
40
0.156249999999986
40
0.156249999999986
40
0.171874999999985
40
0.171874999999985
40
0.187499999999985
40
0.187499999999985
40
0.218749999999985
40
0.218749999999985
40
0.249999999999985
40
0.249999999999985
40
0.281249999999984
40
0.281249999999984
40
0.312499999999984
40
0.312499999999984
40
0.343749999999984
40
0.343749999999984
40
0.374999999999984
40
0.374999999999984
40
0.406249999999983
40
0.406249999999983
40
0.437499999999983
40
0.437499999999983
40
0.468749999999983
40
0.468749999999983
40
0.499999999999982
40
0.499999999999982
40
0.531249999999982
40
0.531249999999982
40
0.562499999999982
40
0.562499999999982
40
0.578124999999984
40
0.578124999999984
40
0.593749999999986
40
0.593749999999986
40
0.624999999999986
40
0.624999999999986
40
0.640624999999986
40
0.640624999999986
40
0.656249999999986
40
0.656249999999986
40
0.687499999999987
40
0.687499999999987
40
0.718749999999989
40
0.718749999999989
40
0.74999999999999
40
0.74999999999999
40
0.781249999999991
40
0.781249999999991
40
0.812499999999992
40
0.812499999999992
40
0.843749999999994
40
0.843749999999994
40
0.874999999999995
40
0.874999999999995
40
0.906249999999996
40
0.906249999999996
40
0.937499999999997
40
0.937499999999997
40
0.968749999999999
40
0.968749999999999
40
1
40
1
40
1
40
1
41
1
10
92.6181445753141
20
-4.80887275026344
30
0
41
1
10
92.6557973608557
20
-4.75572954961714
30
0
41
1
10
92.6927070847639
20
-4.69868349112463
30
0
41
1
10
92.7468526019304
20
-4.60671129932805
30
0
41
1
10
92.7646965678245
20
-4.57497957101947
30
0
41
1
10
92.7999359021233
20
-4.50915988768168
30
0
41
1
10
92.8173662042857
20
-4.47497876843798
30
0
41
1
10
92.8677082775675
20
-4.37099474017069
30
0
41
1
10
92.8990949406817
20
-4.29907569742596
30
0
41
1
10
92.9423689278479
20
-4.18665321072419
30
0
41
1
10
92.9560560371236
20
-4.14862205892655
30
0
41
1
10
92.9812367152392
20
-4.0733045101608
30
0
41
1
10
92.9928345468471
20
-4.03575357264779
30
0
41
1
10
93.0245579894839
20
-3.92343432417221
30
0
41
1
10
93.041745587678
20
-3.84791563080572
30
0
41
1
10
93.0594173445656
20
-3.74242245818698
30
0
41
1
10
93.0640408340042
20
-3.70833063024705
30
0
41
1
10
93.0707902295136
20
-3.64226111168543
30
0
41
1
10
93.0729098990757
20
-3.6101008729726
30
0
41
1
10
93.0754412233992
20
-3.51923052612148
30
0
41
1
10
93.0721841565382
20
-3.46528365621876
30
0
41
1
10
93.0568837608184
20
-3.36984773099437
30
0
41
1
10
93.0450912259742
20
-3.32975267747713
30
0
41
1
10
93.0145100880055
20
-3.26243704026805
30
0
41
1
10
92.99567736214
20
-3.23547895713958
30
0
41
1
10
92.9532303223286
20
-3.19480500028575
30
0
41
1
10
92.9294609461631
20
-3.18074627924747
30
0
41
1
10
92.8772752079062
20
-3.164088625451
30
0
41
1
10
92.8489273137897
20
-3.16162745226029
30
0
41
1
10
92.7895284103571
20
-3.16757023395215
30
0
41
1
10
92.7582828022738
20
-3.17590621933701
30
0
41
1
10
92.6927754132031
20
-3.20304320195069
30
0
41
1
10
92.6586361351363
20
-3.22186492009104
30
0
41
1
10
92.5892055708991
20
-3.26889578472054
30
0
41
1
10
92.5537007939098
20
-3.29718302617135
30
0
41
1
10
92.4810519627156
20
-3.36366551264288
30
0
41
1
10
92.4436011423241
20
-3.40223720291749
30
0
41
1
10
92.3689367593823
20
-3.48815492659119
30
0
41
1
10
92.3316343482732
20
-3.53549862940832
30
0
41
1
10
92.2570949321365
20
-3.63981638372431
30
0
41
1
10
92.2194803592635
20
-3.69745013324268
30
0
41
1
10
92.1468314666735
20
-3.82016315669841
30
0
41
1
10
92.1116956440382
20
-3.8852460600794
30
0
41
1
10
92.0610796819866
20
-3.98941567926695
30
0
41
1
10
92.0445208816533
20
-4.02535425445731
30
0
41
1
10
92.0130181745237
20
-4.09777054015106
30
0
41
1
10
91.9979682174396
20
-4.1344537087902
30
0
41
1
10
91.9550367901566
20
-4.24600567178118
30
0
41
1
10
91.9291146876679
20
-4.32343223226087
30
0
41
1
10
91.8974442657473
20
-4.43609704934201
30
0
41
1
10
91.8879959965537
20
-4.47327236552289
30
0
41
1
10
91.8713634026932
20
-4.54684770197505
30
0
41
1
10
91.8641342413622
20
-4.58354427284686
30
0
41
1
10
91.8464359130646
20
-4.68989491155691
30
0
41
1
10
91.8398433550747
20
-4.75567099354919
30
0
41
1
10
91.8363860348586
20
-4.87764854478542
30
0
41
1
10
91.8396087268414
20
-4.93182865429514
30
0
41
1
10
91.8545298341431
20
-5.02721098794228
30
0
41
1
10
91.8662999286956
20
-5.06829202483436
30
0
41
1
10
91.8964315434215
20
-5.1362075559623
30
0
41
1
10
91.9150664405937
20
-5.16369541135163
30
0
41
1
10
91.9575107342364
20
-5.20549452182809
30
0
41
1
10
91.9812571998603
20
-5.21993670384109
30
0
41
1
10
92.0332970230427
20
-5.23718981978382
30
0
41
1
10
92.0616604177173
20
-5.23988637872912
30
0
41
1
10
92.1210849521671
20
-5.23419678387657
30
0
41
1
10
92.1523337179841
20
-5.22589553720337
30
0
41
1
10
92.2178117092763
20
-5.19870876676174
30
0
41
1
10
92.2521472485161
20
-5.17968086277858
30
0
41
1
10
92.3218589547828
20
-5.13209500651595
30
0
41
1
10
92.357463170058
20
-5.10347236146853
30
0
41
1
10
92.4302060914341
20
-5.0363239029983
30
0
41
1
10
92.467595893318
20
-4.99750356862785
30
0
41
1
10
92.5427622961955
20
-4.91029461250702
30
0
41
1
10
92.5804917897725
20
-4.86201595090975
30
0
41
1
10
92.6181445753141
20
-4.80887275026344
30
0
0
SPLINE
5
C0
100
AcDbEntity
8
1
62
256
6
ByLayer
370
18
48
1
60
0
100
AcDbSpline
70
4
71
3
72
18
73
14
40
0
40
0
40
0
40
0
40
0.249999999999993
40
0.249999999999993
40
0.374999999999993
40
0.374999999999993
40
0.499999999999993
40
0.499999999999993
40
0.749999999999993
40
0.749999999999993
40
0.874999999999997
40
0.874999999999997
40
1
40
1
40
1
40
1
41
1
10
93.6872246115391
20
4.08675396607538
30
0
41
1
10
93.5578678371172
20
4.43491078022993
30
0
41
1
10
93.4284307381159
20
4.78265453275819
30
0
41
1
10
93.2340459814496
20
5.30309199427182
30
0
41
1
10
93.1692013671053
20
5.47631559388387
30
0
41
1
10
93.0394616216709
20
5.82250301547359
30
0
41
1
10
92.9745822810287
20
5.99554803835119
30
0
41
1
10
92.7798766346243
20
6.51433535444031
30
0
41
1
10
92.6498972983827
20
6.86009933542155
30
0
41
1
10
92.4549197157755
20
7.37514863087546
30
0
41
1
10
92.3899296684948
20
7.54661973638514
30
0
41
1
10
92.2599568018801
20
7.88894415850174
30
0
41
1
10
92.1949747177459
20
8.05973463594836
30
0
41
1
10
92.1300045462756
20
8.22950691118382
30
0
0
SPLINE
5
C1
100
AcDbEntity
8
1
62
256
6
ByLayer
370
18
48
1
60
0
100
AcDbSpline
70
4
71
3
72
42
73
38
40
0
40
0
40
0
40
0
40
0.249999999999989
40
0.249999999999989
40
0.374999999999984
40
0.374999999999984
40
0.437499999999978
40
0.437499999999978
40
0.499999999999972
40
0.499999999999972
40
0.624999999999966
40
0.624999999999966
40
0.749999999999961
40
0.749999999999961
40
0.781249999999962
40
0.781249999999962
40
0.812499999999964
40
0.812499999999964
40
0.843749999999966
40
0.843749999999966
40
0.859374999999969
40
0.859374999999969
40
0.874999999999973
40
0.874999999999973
40
0.890624999999976
40
0.890624999999976
40
0.906249999999979
40
0.906249999999979
40
0.921874999999983
40
0.921874999999983
40
0.937499999999986
40
0.937499999999986
40
0.968749999999993
40
0.968749999999993
40
0.984374999999997
40
0.984374999999997
40
1
40
1
40
1
40
1
41
1
10
83.3684437309452
20
4.0360342465155
30
0
41
1
10
84.0442308129801
20
3.49657034040709
30
0
41
1
10
84.7348089976352
20
3.00622886413831
30
0
41
1
10
85.7974068434735
20
2.35949099786265
30
0
41
1
10
86.1560216672186
20
2.15857607509466
30
0
41
1
10
86.7014296254998
20
1.88206437210931
30
0
41
1
10
86.8844808695641
20
1.79404047561135
30
0
41
1
10
87.2532852219529
20
1.62696578901495
30
0
41
1
10
87.4384056167666
20
1.54822838745491
30
0
41
1
10
87.9919280497748
20
1.32898703431698
30
0
41
1
10
88.3600785172241
20
1.20461147152159
30
0
41
1
10
89.0943886514379
20
1.00602908618524
30
0
41
1
10
89.4616622839506
20
0.931789839319606
30
0
41
1
10
89.9119432199247
20
0.878217444046214
30
0
41
1
10
90.0014733210574
20
0.870344510736686
30
0
41
1
10
90.1764433546855
20
0.867662177230159
30
0
41
1
10
90.2621383411962
20
0.873043481981625
30
0
41
1
10
90.4257318249587
20
0.89940008377036
30
0
41
1
10
90.5035635687195
20
0.919914689817205
30
0
41
1
10
90.6129004777158
20
0.964398384794436
30
0
41
1
10
90.6480849042718
20
0.981559857940965
30
0
41
1
10
90.7153745972039
20
1.02158007268409
30
0
41
1
10
90.7473917180401
20
1.04446618962714
30
0
41
1
10
90.8058763143362
20
1.09562988509282
30
0
41
1
10
90.832586591434
20
1.12402272815058
30
0
41
1
10
90.8801877159708
20
1.18726901994032
30
0
41
1
10
90.9011334129792
20
1.22244741296382
30
0
41
1
10
90.9348986361517
20
1.29745653027374
30
0
41
1
10
90.9478475622429
20
1.33756245936013
30
0
41
1
10
90.9666460105607
20
1.4224691970085
30
0
41
1
10
90.9726270521764
20
1.46757890544234
30
0
41
1
10
90.9806839097999
20
1.60598694608697
30
0
41
1
10
90.9733978325439
20
1.70206798211316
30
0
41
1
10
90.9479633994401
20
1.85055467045521
30
0
41
1
10
90.9369878372973
20
1.90081722120598
30
0
41
1
10
90.9111237490644
20
2.00107412102989
30
0
41
1
10
90.8962106412364
20
2.05128081744314
30
0
41
1
10
90.8796134912568
20
2.10155402883217
30
0
0
SPLINE
5
C2
100
AcDbEntity
8
1
62
256
6
ByLayer
370
18
48
1
60
0
100
AcDbSpline
70
4
71
3
72
28
73
24
40
0
40
0
40
0
40
0
40
0.249999999999996
40
0.249999999999996
40
0.374999999999994
40
0.374999999999994
40
0.499999999999992
40
0.499999999999992
40
0.62499999999999
40
0.62499999999999
40
0.687499999999989
40
0.687499999999989
40
0.749999999999988
40
0.749999999999988
40
0.812499999999987
40
0.812499999999987
40
0.874999999999986
40
0.874999999999986
40
0.906249999999989
40
0.906249999999989
40
0.937499999999993
40
0.937499999999993
40
1
40
1
40
1
40
1
41
1
10
91.0352859030696
20
2.37434009830622
30
0
41
1
10
91.3213627058818
20
2.42555110011793
30
0
41
1
10
91.605581762357
20
2.4844640746478
30
0
41
1
10
92.0270893235955
20
2.5935045418085
30
0
41
1
10
92.1664640581544
20
2.63328380591238
30
0
41
1
10
92.4415517878251
20
2.72239632483658
30
0
41
1
10
92.5773557910639
20
2.7716755811708
30
0
41
1
10
92.8437085959781
20
2.88475670713063
30
0
41
1
10
92.9744628961932
20
2.94858897329345
30
0
41
1
10
93.1597443655773
20
3.06057083239907
30
0
41
1
10
93.2198084594644
20
3.10069358991902
30
0
41
1
10
93.3352659885155
20
3.18870033091426
30
0
41
1
10
93.3902000311943
20
3.23628604679431
30
0
41
1
10
93.4908312088683
20
3.33970790701034
30
0
41
1
10
93.5371141779754
20
3.39619788140649
30
0
41
1
10
93.6157660745634
20
3.51901923260618
30
0
41
1
10
93.6474729046296
20
3.58418586355674
30
0
41
1
10
93.6811967623718
20
3.68880667943273
30
0
41
1
10
93.6900164085962
20
3.72466187522161
30
0
41
1
10
93.7023919585681
20
3.79636388199154
30
0
41
1
10
93.7060436700656
20
3.8324829825392
30
0
41
1
10
93.7097432051141
20
3.94161009257075
30
0
41
1
10
93.7022381381088
20
4.0156357429868
30
0
41
1
10
93.6872246115364
20
4.08675396607421
30
0
0
SPLINE
5
C3
100
AcDbEntity
8
1
62
256
6
ByLayer
370
18
48
1
60
0
100
AcDbSpline
70
4
71
3
72
8
73
4
40
0
40
0
40
0
40
0
40
1
40
1
40
1
40
1
41
1
10
92.0336991002154
20
8.34534138572133
30
0
41
1
10
91.474913082591
20
8.38146428750139
30
0
41
1
10
90.9155855063447
20
8.39929891795057
30
0
41
1
10
90.3566649514343
20
8.39889818901574
30
0
0
SPLINE
5
C4
100
AcDbEntity
8
1
62
256
6
ByLayer
370
18
48
1
60
0
100
AcDbSpline
70
4
71
3
72
58
73
54
40
0
40
0
40
0
40
0
40
0.0080902815171595
40
0.0080902815171595
40
0.0390874602197483
40
0.0390874602197483
40
0.0700846389223371
40
0.0700846389223371
40
0.101081817624926
40
0.101081817624926
40
0.132078996327515
40
0.132078996327515
40
0.194073353732692
40
0.194073353732692
40
0.225070532435281
40
0.225070532435281
40
0.25606771113787
40
0.25606771113787
40
0.318062068543047
40
0.318062068543047
40
0.349059247245635
40
0.349059247245635
40
0.380056425948224
40
0.380056425948224
40
0.442050783353402
40
0.442050783353402
40
0.47304796205599
40
0.47304796205599
40
0.504045140758579
40
0.504045140758579
40
0.535042319461168
40
0.535042319461168
40
0.566039498163757
40
0.566039498163757
40
0.628033855568935
40
0.628033855568935
40
0.659031034271523
40
0.659031034271523
40
0.690028212974112
40
0.690028212974112
40
0.752022570379291
40
0.752022570379291
40
0.783019749081879
40
0.783019749081879
40
0.814016927784468
40
0.814016927784468
40
0.876011285189646
40
0.876011285189646
40
0.907008463892234
40
0.907008463892234
40
0.938005642594823
40
0.938005642594823
40
1
40
1
40
1
40
1
41
1
10
48.453023776747
20
-8.03418221511882
30
0
41
1
10
48.3334587043533
20
-8.05334774464617
30
0
41
1
10
48.213852513334
20
-8.07171939245703
30
0
41
1
10
47.6357453873016
20
-8.1566161666282
30
0
41
1
10
47.1768777844119
20
-8.21211140394263
30
0
41
1
10
46.2611428881369
20
-8.29872669815887
30
0
41
1
10
45.8037772692399
20
-8.32993789150575
30
0
41
1
10
44.889006274219
20
-8.36801447154525
30
0
41
1
10
44.4315743928287
20
-8.37488034571169
30
0
41
1
10
43.515718969899
20
-8.36415819716038
30
0
41
1
10
43.0567656559709
20
-8.34652001508465
30
0
41
1
10
41.6814611758844
20
-8.2570774454409
30
0
41
1
10
40.7673997407638
20
-8.14893406920808
30
0
41
1
10
39.3946105047655
20
-7.91653831860722
30
0
41
1
10
38.9367190004295
20
-7.82738586210274
30
0
41
1
10
38.0194408970507
20
-7.62609298933842
30
0
41
1
10
37.5607163731441
20
-7.51406286717696
30
0
41
1
10
36.1871824984863
20
-7.14626309168847
30
0
41
1
10
35.2731369569438
20
-6.85850764794574
30
0
41
1
10
33.8989622527884
20
-6.36840405847784
30
0
41
1
10
33.4398006533435
20
-6.1950752560177
30
0
41
1
10
32.5229533451371
20
-5.83140327975835
30
0
41
1
10
32.0651990687065
20
-5.64104809417702
30
0
41
1
10
30.6924210599362
20
-5.04652676440543
30
0
41
1
10
29.7780005512664
20
-4.61874466988306
30
0
41
1
10
28.4015797046775
20
-3.93810088512453
30
0
41
1
10
27.9429780754081
20
-3.70526352760362
30
0
41
1
10
27.0272032945049
20
-3.23023490476723
30
0
41
1
10
26.5697200727639
20
-2.98789267395492
30
0
41
1
10
25.6545347637542
20
-2.49525882799594
30
0
41
1
10
25.1968730727367
20
-2.24490086405515
30
0
41
1
10
24.2804805428074
20
-1.73763726478472
30
0
41
1
10
23.8212045434272
20
-1.48046893942651
30
0
41
1
10
22.4459999290508
20
-0.705368940939394
30
0
41
1
10
21.5317206472594
20
-0.183041907844682
30
0
41
1
10
20.1582112507603
20
0.598478938086515
30
0
41
1
10
19.7000183188248
20
0.858643321634929
30
0
41
1
10
18.7820013490828
20
1.37666843697744
30
0
41
1
10
18.3236168507064
20
1.63368942346656
30
0
41
1
10
16.9498826324485
20
2.39546628376343
30
0
41
1
10
16.0355404909986
20
2.89135344621482
30
0
41
1
10
14.660337826762
20
3.60729599836262
30
0
41
1
10
14.2008840442421
20
3.84152569831687
30
0
41
1
10
13.2842285078152
20
4.29696770787257
30
0
41
1
10
12.826577828134
20
4.51839661364741
30
0
41
1
10
11.4541083712229
20
5.16160312486178
30
0
41
1
10
10.53989861287
20
5.56247212742585
30
0
41
1
10
9.16354690217955
20
6.11317174774803
30
0
41
1
10
8.70438196559977
20
6.28820001013892
30
0
41
1
10
7.78840014458208
20
6.61857141025965
30
0
41
1
10
7.3309783102309
20
6.77410767381664
30
0
41
1
10
5.95885190411695
20
7.21025959919834
30
0
41
1
10
5.04424145191797
20
7.46042148496997
30
0
41
1
10
4.12632745258833
20
7.66656849565331
30
0
0
SPLINE
5
C5
100
AcDbEntity
8
1
62
256
6
ByLayer
370
18
48
1
60
0
100
AcDbSpline
70
4
71
3
72
16
73
12
40
0
40
0
40
0
40
0
40
0.1953720935504
40
0.1953720935504
40
0.512279223061978
40
0.512279223061978
40
0.670732787817768
40
0.670732787817768
40
0.829186352573557
40
0.829186352573557
40
1
40
1
40
1
40
1
41
1
10
44.4132069921495
20
-8.01018660669934
30
0
41
1
10
43.8512100888218
20
-8.00870714577445
30
0
41
1
10
43.2896791538173
20
-7.98959650213723
30
0
41
1
10
41.8164522555108
20
-7.89368516571796
30
0
41
1
10
40.9040886369761
20
-7.78830223675746
30
0
41
1
10
39.5286854409119
20
-7.56191439889659
30
0
41
1
10
39.0686562624921
20
-7.47498941649579
30
0
41
1
10
38.1470622433081
20
-7.27902388490725
30
0
41
1
10
37.6871226202586
20
-7.17030792855098
30
0
41
1
10
36.7320759052921
20
-6.92301470483829
30
0
41
1
10
36.2369857843779
20
-6.78280997722575
30
0
41
1
10
35.7417142504466
20
-6.63123281039415
30
0
0
SPLINE
5
C6
100
AcDbEntity
8
1
62
256
6
ByLayer
370
13
48
1
60
0
100
AcDbSpline
70
4
71
3
72
24
73
20
40
0
40
0
40
0
40
0
40
0.0677141370994476
40
0.0677141370994476
40
0.141157156430803
40
0.141157156430803
40
0.214600175762159
40
0.214600175762159
40
0.508372253087585
40
0.508372253087585
40
0.655258291750297
40
0.655258291750297
40
0.691979801415976
40
0.691979801415976
40
0.728701311081654
40
0.728701311081654
40
0.802144330413011
40
0.802144330413011
40
1
40
1
40
1
40
1
41
1
10
35.7417142479365
20
-6.63123280962594
30
0
41
1
10
35.3181184526532
20
-6.50159190327838
30
0
41
1
10
34.89438995307
20
-6.36363201519575
30
0
41
1
10
34.0101029540302
20
-6.05940827514775
30
0
41
1
10
33.5485903019023
20
-5.89146664415458
30
0
41
1
10
32.6291753930975
20
-5.54010529454203
30
0
41
1
10
32.1710107178054
20
-5.35657755909608
30
0
41
1
10
29.885398153863
20
-4.40372483428271
30
0
41
1
10
28.0739613519907
20
-3.52842184773632
30
0
41
1
10
25.3391133854304
20
-2.11744759727489
30
0
41
1
10
24.4247327729666
20
-1.63054868980339
30
0
41
1
10
23.2735123884914
20
-1.00926120681299
30
0
41
1
10
23.0428575386479
20
-0.884389642199636
30
0
41
1
10
22.5828866277821
20
-0.634829846740445
30
0
41
1
10
22.3532848441734
20
-0.509987456761309
30
0
41
1
10
21.6654755111488
20
-0.135552310301563
30
0
41
1
10
21.2082594216705
20
0.113940484594906
30
0
41
1
10
19.5223412124143
20
1.03163439030317
30
0
41
1
10
18.2989816406045
20
1.69355984318562
30
0
41
1
10
17.0730281874888
20
2.33214736985994
30
0
0
SPLINE
5
C7
100
AcDbEntity
8
1
62
256
6
ByLayer
370
18
48
1
60
0
100
AcDbSpline
70
4
71
3
72
12
73
8
40
0
40
0
40
0
40
0
40
0.250000000000001
40
0.250000000000001
40
0.5
40
0.5
40
1
40
1
40
1
40
1
41
1
10
92.132373967608
20
-8.07927837643811
30
0
41
1
10
92.1372331720787
20
-8.06615791730806
30
0
41
1
10
92.141951342291
20
-8.05279278477565
30
0
41
1
10
92.1499354251639
20
-8.02863552149111
30
0
41
1
10
92.1531825506904
20
-8.01788338346176
30
0
41
1
10
92.1594929937848
20
-7.99361458220341
30
0
41
1
10
92.1590400473127
20
-7.98887288073206
30
0
41
1
10
92.1558871422737
20
-7.99187853046953
30
0
0
SPLINE
5
C8
100
AcDbEntity
8
1
62
256
6
ByLayer
370
18
48
1
60
0
100
AcDbSpline
70
4
71
3
72
36
73
32
40
0
40
0
40
0
40
0
40
0.11967447325559
40
0.11967447325559
40
0.179511709883385
40
0.179511709883385
40
0.23934894651118
40
0.23934894651118
40
0.299186183138975
40
0.299186183138975
40
0.359023419766771
40
0.359023419766771
40
0.478697893022361
40
0.478697893022361
40
0.538535129650155
40
0.538535129650155
40
0.598372366277949
40
0.598372366277949
40
0.658209602905743
40
0.658209602905743
40
0.718046839533538
40
0.718046839533538
40
0.777884076161332
40
0.777884076161332
40
0.837721312789126
40
0.837721312789126
40
0.89755854941692
40
0.89755854941692
40
0.957395786044715
40
0.957395786044715
40
1
40
1
40
1
40
1
41
1
10
14.0333057112531
20
-6.86048415274391
30
0
41
1
10
14.7572568748928
20
-7.06345166260314
30
0
41
1
10
15.4798691922891
20
-7.24058673370769
30
0
41
1
10
16.5621839139909
20
-7.46551698527713
30
0
41
1
10
16.9226650195359
20
-7.53411580403707
30
0
41
1
10
17.6440719000538
20
-7.6578368921231
30
0
41
1
10
18.0052272704858
20
-7.71268723099911
30
0
41
1
10
18.7282778061074
20
-7.80779711134736
30
0
41
1
10
19.0905251953289
20
-7.84820000416673
30
0
41
1
10
19.8140317446885
20
-7.9153225832508
30
0
41
1
10
20.1749824643609
20
-7.94205284516426
30
0
41
1
10
21.25787922548
20
-7.9997202669972
30
0
41
1
10
21.979763163874
20
-8.00791824902635
30
0
41
1
10
23.0624107517389
20
-7.97868913549647
30
0
41
1
10
23.4231665654111
20
-7.96164529086747
30
0
41
1
10
24.146315509403
20
-7.91254666562401
30
0
41
1
10
24.5087358316513
20
-7.88063228670543
30
0
41
1
10
25.2320855505227
20
-7.80392717335718
30
0
41
1
10
25.593292977954
20
-7.75872905700251
30
0
41
1
10
26.3148671959087
20
-7.65227135611184
30
0
41
1
10
26.6752528819709
20
-7.59164847063778
30
0
41
1
10
27.3969115301958
20
-7.45792566472346
30
0
41
1
10
27.7579310076496
20
-7.38503203484115
30
0
41
1
10
28.4803163276744
20
-7.22558463562572
30
0
41
1
10
28.8417241507903
20
-7.13837631261023
30
0
41
1
10
29.5651294228851
20
-6.95040822256667
30
0
41
1
10
29.926755450978
20
-6.84986136873601
30
0
41
1
10
30.6495795041842
20
-6.63864267876772
30
0
41
1
10
31.010766306569
20
-6.52750738762194
30
0
41
1
10
31.6287297800083
20
-6.32587160458252
30
0
41
1
10
31.885625507822
20
-6.23889632296533
30
0
41
1
10
32.1424506405281
20
-6.1490276868
30
0
0
SPLINE
5
C9
100
AcDbEntity
8
1
62
256
6
ByLayer
370
18
48
1
60
0
100
AcDbSpline
70
4
71
3
72
34
73
30
40
0
40
0
40
0
40
0
40
0.0126240944258929
40
0.0126240944258929
40
0.083150944824043
40
0.083150944824043
40
0.153677795222194
40
0.153677795222194
40
0.224204645620344
40
0.224204645620344
40
0.294731496018495
40
0.294731496018495
40
0.365258346416646
40
0.365258346416646
40
0.435785196814796
40
0.435785196814796
40
0.506312047212946
40
0.506312047212946
40
0.576838897611097
40
0.576838897611097
40
0.647365748009248
40
0.647365748009248
40
0.717892598407398
40
0.717892598407398
40
0.788419448805549
40
0.788419448805549
40
0.858946299203699
40
0.858946299203699
40
1
40
1
40
1
40
1
41
1
10
68.0126260084002
20
8.02406361459757
30
0
41
1
10
68.0771931019367
20
8.02428642533368
30
0
41
1
10
68.1417637412991
20
8.02428070627147
30
0
41
1
10
68.5670889532084
20
8.02270934552581
30
0
41
1
10
68.9279910761275
20
8.01324444844599
30
0
41
1
10
69.6502085382203
20
7.97938736586678
30
0
41
1
10
70.011724607494
20
7.95489445769186
30
0
41
1
10
70.7345877922532
20
7.89233628444026
30
0
41
1
10
71.0958288963134
20
7.85465798283158
30
0
41
1
10
71.8177090621125
20
7.76394244719842
30
0
41
1
10
72.1783921851573
20
7.71112532926597
30
0
41
1
10
72.899346546143
20
7.5925466526383
30
0
41
1
10
73.2595414900779
20
7.52709887836181
30
0
41
1
10
73.9810952353057
20
7.38298452240974
30
0
41
1
10
74.3422746973006
20
7.30339697816524
30
0
41
1
10
75.0654923973371
20
7.12992218121542
30
0
41
1
10
75.4275174743986
20
7.03600845055411
30
0
41
1
10
76.1496876038277
20
6.83571925684601
30
0
41
1
10
76.5102877608263
20
6.72924317459749
30
0
41
1
10
77.2319548668544
20
6.50565099046349
30
0
41
1
10
77.592788873536
20
6.38831987803042
30
0
41
1
10
78.3143838466476
20
6.14310677343857
30
0
41
1
10
78.6751113129506
20
6.01529873642113
30
0
41
1
10
79.3966775192994
20
5.74722912332092
30
0
41
1
10
79.7578252887569
20
5.60729532712642
30
0
41
1
10
80.4817455179413
20
5.31725618325848
30
0
41
1
10
80.8432618384971
20
5.16746926639254
30
0
41
1
10
81.9266122559205
20
4.70454132729412
30
0
41
1
10
82.6467286019926
20
4.37664156082499
30
0
41
1
10
83.3684437309452
20
4.03603424651547
30
0
0
SPLINE
5
CA
100
AcDbEntity
8
1
62
256
6
ByLayer
370
18
48
1
60
0
100
AcDbSpline
70
4
71
3
72
8
73
4
40
0
40
0
40
0
40
0
40
1
40
1
40
1
40
1
41
1
10
3.99999979756828
20
-1.81134837304094
30
0
41
1
10
3.99999979756828
20
-1.85971434577297
30
0
41
1
10
3.99999979756828
20
-1.90777906770887
30
0
41
1
10
3.99999979756828
20
-1.95554272154598
30
0
0
SPLINE
5
CB
100
AcDbEntity
8
1
62
256
6
ByLayer
370
13
48
1
60
0
100
AcDbSpline
70
4
71
3
72
34
73
30
40
0
40
0
40
0
40
0
40
0.0288637775347973
40
0.0288637775347973
40
0.190719814612331
40
0.190719814612331
40
0.271647833151098
40
0.271647833151098
40
0.352575851689864
40
0.352575851689864
40
0.433503870228631
40
0.433503870228631
40
0.473967879498014
40
0.473967879498014
40
0.514431888767398
40
0.514431888767398
40
0.676287925844932
40
0.676287925844932
40
0.716751935114315
40
0.716751935114315
40
0.757215944383699
40
0.757215944383699
40
0.838143962922466
40
0.838143962922466
40
0.919071981461233
40
0.919071981461233
40
0.959535990730616
40
0.959535990730616
40
1
40
1
40
1
40
1
41
1
10
4.25059373525448
20
-7.98671818721223
30
0
41
1
10
4.25060249747474
20
-7.98668901842916
30
0
41
1
10
4.25061111495066
20
-7.98461341962374
30
0
41
1
10
4.2506670890287
20
-7.95743306313332
30
0
41
1
10
4.25071053719219
20
-7.87152315417848
30
0
41
1
10
4.25077423422221
20
-7.64822055785191
30
0
41
1
10
4.25079527868533
20
-7.55740773186909
30
0
41
1
10
4.2508366827214
20
-7.34635199831047
30
0
41
1
10
4.25085711473267
20
-7.22597681254564
30
0
41
1
10
4.25089783947189
20
-6.95529623662662
30
0
41
1
10
4.25091797767899
20
-6.80599463190543
30
0
41
1
10
4.25094792173761
20
-6.56192116401363
30
0
41
1
10
4.25095786208172
20
-6.47717155143005
30
0
41
1
10
4.25097766648744
20
-6.30083827877752
30
0
41
1
10
4.25098752032963
20
-6.20932463937464
30
0
41
1
10
4.25103612546326
20
-5.73905983509457
30
0
41
1
10
4.25107338958594
20
-5.31951590768665
30
0
41
1
10
4.25111648164872
20
-4.74160336210619
30
0
41
1
10
4.25112491677507
20
-4.62331670275896
30
0
41
1
10
4.251141346156
20
-4.38122910333959
30
0
41
1
10
4.25114935111861
20
-4.2572113430999
30
0
41
1
10
4.25117229402835
20
-3.88136046437833
30
0
41
1
10
4.25118626400266
20
-3.62438985526273
30
0
41
1
10
4.25121092041175
20
-3.09798614064428
30
0
41
1
10
4.25122160808402
20
-2.82855233855153
30
0
41
1
10
4.25123454195025
20
-2.41497235255389
30
0
41
1
10
4.25123833517844
20
-2.27553736638564
30
0
41
1
10
4.25124475485714
20
-1.99346053666443
30
0
41
1
10
4.25124738536007
20
-1.85037812364175
30
0
41
1
10
4.25124934035588
20
-1.70719139882021
30
0
0
SPLINE
5
CC
100
AcDbEntity
8
1
62
256
6
ByLayer
370
18
48
1
60
0
100
AcDbSpline
70
4
71
3
72
28
73
24
40
0
40
0
40
0
40
0
40
0.0625000000000054
40
0.0625000000000054
40
0.0937500000000073
40
0.0937500000000073
40
0.125000000000009
40
0.125000000000009
40
0.250000000000013
40
0.250000000000013
40
0.312500000000014
40
0.312500000000014
40
0.375000000000016
40
0.375000000000016
40
0.437500000000018
40
0.437500000000018
40
0.50000000000002
40
0.50000000000002
40
0.750000000000012
40
0.750000000000012
40
0.875000000000006
40
0.875000000000006
40
1
40
1
40
1
40
1
41
1
10
83.3684437309451
20
4.0360342465155
30
0
41
1
10
83.3857402749461
20
3.81793382907193
30
0
41
1
10
83.4201172055484
20
3.59617889893301
30
0
41
1
10
83.4960438700514
20
3.2583341764248
30
0
41
1
10
83.5254206831633
20
3.14484889732569
30
0
41
1
10
83.5921845812349
20
2.91616446456223
30
0
41
1
10
83.6296023858395
20
2.80100018741274
30
0
41
1
10
83.8325109748957
20
2.23103312245581
30
0
41
1
10
84.0468669775166
20
1.78530548910223
30
0
41
1
10
84.4295392875303
20
1.12875391376232
30
0
41
1
10
84.5658262611401
20
0.914765243764975
30
0
41
1
10
84.8512216311183
20
0.497672484513856
30
0
41
1
10
85.0006341832523
20
0.294060751182627
30
0
41
1
10
85.3109485775816
20
-0.104719423692359
30
0
41
1
10
85.4718662499178
20
-0.299876231923577
30
0
41
1
10
85.8038778505831
20
-0.682711483909202
30
0
41
1
10
85.9754871498324
20
-0.87091539123486
30
0
41
1
10
86.8502098167242
20
-1.78853745324781
30
0
41
1
10
87.5947010786336
20
-2.44083238786749
30
0
41
1
10
88.7562306029832
20
-3.3373266238213
30
0
41
1
10
89.1510223800001
20
-3.62230560393388
30
0
41
1
10
89.9539567537598
20
-4.16751805157364
30
0
41
1
10
90.3592669419644
20
-4.4258577273452
30
0
41
1
10
90.7679754704868
20
-4.67158159028298
30
0
0
SPLINE
5
CD
100
AcDbEntity
8
1
62
256
6
ByLayer
370
18
48
1
60
0
100
AcDbSpline
70
4
71
3
72
20
73
16
40
0
40
0
40
0
40
0
40
0.125000000000001
40
0.125000000000001
40
0.250000000000002
40
0.250000000000002
40
0.375000000000003
40
0.375000000000003
40
0.500000000000004
40
0.500000000000004
40
0.625000000000005
40
0.625000000000005
40
0.750000000000006
40
0.750000000000006
40
1
40
1
40
1
40
1
41
1
10
4.25124934035583
20
-1.70719139859864
30
0
41
1
10
4.2373672615241
20
-1.69345646209095
30
0
41
1
10
4.2229491770195
20
-1.68072420006041
30
0
41
1
10
4.19258589847351
20
-1.65809560455321
30
0
41
1
10
4.1764616772401
20
-1.64812467729351
30
0
41
1
10
4.1436394639592
20
-1.63368772393733
30
0
41
1
10
4.1265836795437
20
-1.62916699344993
30
0
41
1
10
4.09423167892581
20
-1.62838511766702
30
0
41
1
10
4.0790482849487
20
-1.63215298510525
30
0
41
1
10
4.05288577085545
20
-1.64708757078202
30
0
41
1
10
4.04220253410276
20
-1.65790276010094
30
0
41
1
10
4.02507464107276
20
-1.68306513169048
30
0
41
1
10
4.01863003724336
20
-1.69726048721822
30
0
41
1
10
4.0037256870651
20
-1.74315593107116
30
0
41
1
10
3.99999979756822
20
-1.77658015539777
30
0
41
1
10
3.99999979756822
20
-1.81134837304091
30
0
0
SPLINE
5
CE
100
AcDbEntity
8
1
62
256
6
ByLayer
370
18
48
1
60
0
100
AcDbSpline
70
4
71
3
72
18
73
14
40
0
40
0
40
0
40
0
40
0.250000000000005
40
0.250000000000005
40
0.375000000000005
40
0.375000000000005
40
0.500000000000004
40
0.500000000000004
40
0.750000000000002
40
0.750000000000002
40
0.875000000000001
40
0.875000000000001
40
1
40
1
40
1
40
1
41
1
10
93.6872246115397
20
-4.0867539660731
30
0
41
1
10
93.5578678371178
20
-4.43491078022782
30
0
41
1
10
93.4284307381166
20
-4.78265453275628
30
0
41
1
10
93.2340459814503
20
-5.3030919942702
30
0
41
1
10
93.169201367106
20
-5.47631559388236
30
0
41
1
10
93.0394616216715
20
-5.82250301547225
30
0
41
1
10
92.9745822810292
20
-5.99554803834994
30
0
41
1
10
92.7798766346247
20
-6.51433535443931
30
0
41
1
10
92.6498972983829
20
-6.8600993354207
30
0
41
1
10
92.4549197157756
20
-7.37514863087495
30
0
41
1
10
92.3899296684949
20
-7.54661973638474
30
0
41
1
10
92.2599568018803
20
-7.88894415850154
30
0
41
1
10
92.1949747177459
20
-8.05973463594827
30
0
41
1
10
92.1300045462755
20
-8.22950691118382
30
0
0
SPLINE
5
CF
100
AcDbEntity
8
1
62
256
6
ByLayer
370
18
48
1
60
0
100
AcDbSpline
70
4
71
3
72
24
73
20
40
0
40
0
40
0
40
0
40
0.0082229619900851
40
0.0082229619900851
40
0.115014988981151
40
0.115014988981151
40
0.221807015972216
40
0.221807015972216
40
0.435391069954347
40
0.435391069954347
40
0.542183096945413
40
0.542183096945413
40
0.648975123936478
40
0.648975123936478
40
0.862559177918609
40
0.862559177918609
40
0.969351204909677
40
0.969351204909677
40
1
40
1
40
1
40
1
41
1
10
67.279820730204
20
0.0165101613051206
30
0
41
1
10
67.3149408728102
20
-0.002940655892786
30
0
41
1
10
67.3500649089059
20
-0.0223946538368125
30
0
41
1
10
67.8414036871679
20
-0.294538441868411
30
0
41
1
10
68.2984351910657
20
-0.547448067372272
30
0
41
1
10
69.2149039530579
20
-1.0523450701242
30
0
41
1
10
69.674641679152
20
-1.30454961171395
30
0
41
1
10
71.0569559801665
20
-2.0557918565805
30
0
41
1
10
71.9750599462061
20
-2.54579263804959
30
0
41
1
10
73.3526781361802
20
-3.25483478253224
30
0
41
1
10
73.8120545908238
20
-3.48671448677294
30
0
41
1
10
74.7319809358843
20
-3.94008897199265
30
0
41
1
10
75.1931256474649
20
-4.16181938279763
30
0
41
1
10
76.5738987068831
20
-4.80660890933328
30
0
41
1
10
77.4915472659411
20
-5.20964618329367
30
0
41
1
10
78.8695461218967
20
-5.76554997522308
30
0
41
1
10
79.3291825062343
20
-5.94272252588726
30
0
41
1
10
79.9216196206436
20
-6.15957932654962
30
0
41
1
10
80.0538531339601
20
-6.20724161791807
30
0
41
1
10
80.186038807896
20
-6.25412803846118
30
0
0
SPLINE
5
D0
100
AcDbEntity
8
1
62
256
6
ByLayer
370
13
48
1
60
0
100
AcDbSpline
70
4
71
3
72
20
73
16
40
0
40
0
40
0
40
0
40
0.024446771483001
40
0.024446771483001
40
0.0818322555134117
40
0.0818322555134117
40
0.540916127756706
40
0.540916127756706
40
0.77045806387835
40
0.77045806387835
40
0.885229031939173
40
0.885229031939173
40
0.942614515969586
40
0.942614515969586
40
1
40
1
40
1
40
1
41
1
10
80.1860388075579
20
-6.25412803834121
30
0
41
1
10
80.284145646331
20
-6.28892665428822
30
0
41
1
10
80.3822261329979
20
-6.3232978853033
30
0
41
1
10
80.7102163260312
20
-6.43681097086642
30
0
41
1
10
80.939818239744
20
-6.51392572883677
30
0
41
1
10
83.0031367748779
20
-7.18518917820754
30
0
41
1
10
84.8150890538182
20
-7.62019387281808
30
0
41
1
10
87.5435083776596
20
-8.00164601330755
30
0
41
1
10
88.4548498438225
20
-8.08374127418656
30
0
41
1
10
89.8300480007892
20
-8.13597348257795
30
0
41
1
10
90.2904856881356
20
-8.14154070041255
30
0
41
1
10
90.9813294719972
20
-8.13173104141441
30
0
41
1
10
91.2115447614603
20
-8.12544633470264
30
0
41
1
10
91.6719516242612
20
-8.10685389914494
30
0
41
1
10
91.9021521797724
20
-8.09415172786274
30
0
41
1
10
92.1323739676079
20
-8.07927837643811
30
0
0
SPLINE
5
D1
100
AcDbEntity
8
1
62
256
6
ByLayer
370
18
48
1
60
0
100
AcDbSpline
70
4
71
3
72
40
73
36
40
0
40
0
40
0
40
0
40
0.107532201813338
40
0.107532201813338
40
0.161298302720007
40
0.161298302720007
40
0.215064403626676
40
0.215064403626676
40
0.268830504533345
40
0.268830504533345
40
0.322596605440014
40
0.322596605440014
40
0.430128807253352
40
0.430128807253352
40
0.48389490816002
40
0.48389490816002
40
0.537661009066688
40
0.537661009066688
40
0.591427109973356
40
0.591427109973356
40
0.645193210880024
40
0.645193210880024
40
0.698959311786692
40
0.698959311786692
40
0.752725412693361
40
0.752725412693361
40
0.806491513600029
40
0.806491513600029
40
0.860257614506697
40
0.860257614506697
40
0.914023715413365
40
0.914023715413365
40
0.967789816320033
40
0.967789816320033
40
1
40
1
40
1
40
1
41
1
10
22.9413032308486
20
-1.66261336586442
30
0
41
1
10
23.6630365465692
20
-2.06841975496471
30
0
41
1
10
24.3852457429989
20
-2.46229844409371
30
0
41
1
10
25.4664438123894
20
-3.04054581087647
30
0
41
1
10
25.8262802445236
20
-3.23151305058988
30
0
41
1
10
26.5460528712036
20
-3.60778810989768
30
0
41
1
10
26.9067439468581
20
-3.79189294909125
30
0
41
1
10
27.6291524188118
20
-4.15304179923828
30
0
41
1
10
27.9912109120893
20
-4.3302373288108
30
0
41
1
10
28.7134507042967
20
-4.6768451067841
30
0
41
1
10
29.0734407974832
20
-4.84685899802949
30
0
41
1
10
30.1535592555543
20
-5.34179791985034
30
0
41
1
10
30.8750787039411
20
-5.65018678853531
30
0
41
1
10
31.9565922260933
20
-6.08452058341604
30
0
41
1
10
32.3165985923639
20
-6.22495947718571
30
0
41
1
10
33.0387835225051
20
-6.49323360734684
30
0
41
1
10
33.4003647292818
20
-6.62097875916072
30
0
41
1
10
34.1223236810378
20
-6.86399530208061
30
0
41
1
10
34.4829713964731
20
-6.97932825143525
30
0
41
1
10
35.2032157491098
20
-7.19793567869925
30
0
41
1
10
35.5624960725762
20
-7.30143427534523
30
0
41
1
10
36.2828474420114
20
-7.49376382602841
30
0
41
1
10
36.6435926252723
20
-7.58293783469736
30
0
41
1
10
37.3657173811889
20
-7.74776288112307
30
0
41
1
10
37.7274740113866
20
-7.82346584787936
30
0
41
1
10
38.449274821029
20
-7.96091541985439
30
0
41
1
10
38.8091189963517
20
-8.02264183821111
30
0
41
1
10
39.5299451296417
20
-8.13056726093646
30
0
41
1
10
39.890476411105
20
-8.17705283806689
30
0
41
1
10
40.6113389000497
20
-8.25536830328065
30
0
41
1
10
40.9716798166769
20
-8.2871944465484
30
0
41
1
10
41.69177580678
20
-8.33602403479597
30
0
41
1
10
42.0517653792986
20
-8.35291552403703
30
0
41
1
10
42.6293574600638
20
-8.36766758907234
30
0
41
1
10
42.8459745228062
20
-8.37047029542251
30
0
41
1
10
43.062495535061
20
-8.37055955850647
30
0
0
SPLINE
5
D2
100
AcDbEntity
8
1
62
256
6
ByLayer
370
18
48
1
60
0
100
AcDbSpline
70
4
71
3
72
30
73
26
40
0
40
0
40
0
40
0
40
0.0665832735869018
40
0.0665832735869018
40
0.222152727989081
40
0.222152727989081
40
0.299937455190173
40
0.299937455190173
40
0.377722182391264
40
0.377722182391264
40
0.455506909592357
40
0.455506909592357
40
0.533291636793449
40
0.533291636793449
40
0.61107636399454
40
0.61107636399454
40
0.688861091195632
40
0.688861091195632
40
0.766645818396724
40
0.766645818396724
40
0.844430545597817
40
0.844430545597817
40
0.922215272798908
40
0.922215272798908
40
1
40
1
40
1
40
1
41
1
10
78.2542099418168
20
6.17532813203024
30
0
41
1
10
78.5626514691243
20
6.29486918912156
30
0
41
1
10
78.8705208414849
20
6.41063276355467
30
0
41
1
10
79.8972209648402
20
6.78248394700245
30
0
41
1
10
80.6181878562759
20
7.0165703663113
30
0
41
1
10
81.6997229660066
20
7.3314713644092
30
0
41
1
10
82.0602485649641
20
7.43069070845419
30
0
41
1
10
82.7813344153966
20
7.61473276531962
30
0
41
1
10
83.1419903788357
20
7.69932126499347
30
0
41
1
10
83.8628515844256
20
7.8544460278074
30
0
41
1
10
84.223090377545
20
7.92495329237531
30
0
41
1
10
84.9428016612481
20
8.05200023522937
30
0
41
1
10
85.30187102842
20
8.1086838358404
30
0
41
1
10
86.0216499985051
20
8.20673789723256
30
0
41
1
10
86.3822855878262
20
8.24821740854011
30
0
41
1
10
87.1044593836241
20
8.31639043035932
30
0
41
1
10
87.4659644734251
20
8.34304317201619
30
0
41
1
10
88.1859424441921
20
8.38123479158406
30
0
41
1
10
88.5445574263022
20
8.39278786842596
30
0
41
1
10
89.2624670025391
20
8.400619110375
30
0
41
1
10
89.6214373982055
20
8.39699319193116
30
0
41
1
10
90.3389241066589
20
8.37485651223838
30
0
41
1
10
90.697456262595
20
8.35634489719584
30
0
41
1
10
91.4137099735092
20
8.30418923966565
30
0
41
1
10
91.7713060580564
20
8.27043818315943
30
0
41
1
10
92.1300045462668
20
8.2295069111849
30
0
0
SPLINE
5
D3
100
AcDbEntity
8
1
62
256
6
ByLayer
370
18
48
1
60
0
100
AcDbSpline
70
4
71
3
72
12
73
8
40
0
40
0
40
0
40
0
40
0.13795479024765
40
0.13795479024765
40
0.464486801347982
40
0.464486801347982
40
1
40
1
40
1
40
1
41
1
10
90.5609206499965
20
-8.03820621404802
30
0
41
1
10
90.1719929796381
20
-8.03788830958092
30
0
41
1
10
89.7834142040593
20
-8.02907132826527
30
0
41
1
10
88.4798267079599
20
-7.9713474669646
30
0
41
1
10
87.5687415767661
20
-7.8841691333929
30
0
41
1
10
85.1681685508769
20
-7.53701420380855
30
0
41
1
10
83.6814446015408
20
-7.20175867252973
30
0
41
1
10
82.1835235650664
20
-6.7576661914407
30
0
0
SPLINE
5
D4
100
AcDbEntity
8
1
62
256
6
ByLayer
370
13
48
1
60
0
100
AcDbSpline
70
4
71
3
72
30
73
26
40
0
40
0
40
0
40
0
40
0.0506753931662086
40
0.0506753931662086
40
0.0858668481132146
40
0.0858668481132146
40
0.121058303060221
40
0.121058303060221
40
0.191441212954229
40
0.191441212954229
40
0.332207032742246
40
0.332207032742246
40
0.402589942636254
40
0.402589942636254
40
0.472972852530262
40
0.472972852530262
40
0.613738672318276
40
0.613738672318276
40
0.684121582212283
40
0.684121582212283
40
0.754504492106291
40
0.754504492106291
40
0.895270311894305
40
0.895270311894305
40
1
40
1
40
1
40
1
41
1
10
82.1835235650829
20
-6.75766619144568
30
0
41
1
10
81.8547140195953
20
-6.66018318446103
30
0
41
1
10
81.5253649435442
20
-6.55745587955064
30
0
41
1
10
80.9661035830012
20
-6.37469642375396
30
0
41
1
10
80.7365582385396
20
-6.29731689070783
30
0
41
1
10
80.2766707316468
20
-6.13769474203758
30
0
41
1
10
80.0462348945457
20
-6.05541544620382
30
0
41
1
10
79.3560449962777
20
-5.80240965401302
30
0
41
1
10
78.8965800570016
20
-5.62527531510591
30
0
41
1
10
77.5190564902472
20
-5.0701321451007
30
0
41
1
10
76.60170194516
20
-4.66841019073169
30
0
41
1
10
75.2214179670238
20
-4.0268070140294
30
0
41
1
10
74.7604917469896
20
-3.80636324457376
30
0
41
1
10
73.8409398754806
20
-3.35595967255455
30
0
41
1
10
73.3817211419036
20
-3.12577027798466
30
0
41
1
10
72.0045653559509
20
-2.4223410894613
30
0
41
1
10
71.086748006311
20
-1.93680789477455
30
0
41
1
10
69.7049334123986
20
-1.19332894216672
30
0
41
1
10
69.2454553306572
20
-0.943924056942336
30
0
41
1
10
68.3293251374726
20
-0.444832881099217
30
0
41
1
10
67.8724242254313
20
-0.194976827036896
30
0
41
1
10
66.5041362762636
20
0.553590941400103
30
0
41
1
10
65.5946238588353
20
1.05022633114493
30
0
41
1
10
64.0074675959123
20
1.90186674180106
30
0
41
1
10
63.3299144442921
20
2.26026809069071
30
0
41
1
10
62.6505344078178
20
2.61127045501087
30
0
0
SPLINE
5
D5
100
AcDbEntity
8
1
62
256
6
ByLayer
370
18
48
1
60
0
100
AcDbSpline
70
4
71
3
72
108
73
104
40
0
40
0
40
0
40
0
40
0.0096265750343029
40
0.0096265750343029
40
0.0285778247239825
40
0.0285778247239825
40
0.0475290744136621
40
0.0475290744136621
40
0.0664803241033417
40
0.0664803241033417
40
0.0854315737930213
40
0.0854315737930213
40
0.104382823482701
40
0.104382823482701
40
0.123334073172381
40
0.123334073172381
40
0.14228532286206
40
0.14228532286206
40
0.16123657255174
40
0.16123657255174
40
0.180187822241419
40
0.180187822241419
40
0.199139071931099
40
0.199139071931099
40
0.218090321620778
40
0.218090321620778
40
0.237041571310458
40
0.237041571310458
40
0.255992821000138
40
0.255992821000138
40
0.274944070689817
40
0.274944070689817
40
0.293895320379497
40
0.293895320379497
40
0.312846570069177
40
0.312846570069177
40
0.331797819758856
40
0.331797819758856
40
0.350749069448536
40
0.350749069448536
40
0.369700319138215
40
0.369700319138215
40
0.388651568827895
40
0.388651568827895
40
0.407602818517575
40
0.407602818517575
40
0.426554068207254
40
0.426554068207254
40
0.445505317896934
40
0.445505317896934
40
0.483407817276293
40
0.483407817276293
40
0.502359066965973
40
0.502359066965973
40
0.521310316655652
40
0.521310316655652
40
0.540261566345331
40
0.540261566345331
40
0.559212816035011
40
0.559212816035011
40
0.597115315414369
40
0.597115315414369
40
0.616066565104049
40
0.616066565104049
40
0.635017814793728
40
0.635017814793728
40
0.653969064483408
40
0.653969064483408
40
0.672920314173088
40
0.672920314173088
40
0.691871563862767
40
0.691871563862767
40
0.710822813552447
40
0.710822813552447
40
0.729774063242127
40
0.729774063242127
40
0.748725312931806
40
0.748725312931806
40
0.767676562621486
40
0.767676562621486
40
0.786627812311165
40
0.786627812311165
40
0.805579062000845
40
0.805579062000845
40
0.824530311690524
40
0.824530311690524
40
0.862432811069884
40
0.862432811069884
40
0.881384060759563
40
0.881384060759563
40
0.900335310449243
40
0.900335310449243
40
0.919286560138923
40
0.919286560138923
40
0.938237809828602
40
0.938237809828602
40
0.957189059518282
40
0.957189059518282
40
0.976140309207961
40
0.976140309207961
40
0.995091558897641
40
0.995091558897641
40
1
40
1
40
1
40
1
41
1
10
32.1280569442514
20
6.15006477095659
30
0
41
1
10
32.3111265011474
20
6.22119657218431
30
0
41
1
10
32.494268656999
20
6.29095958333073
30
0
41
1
10
33.0387835225046
20
6.49323360734667
30
0
41
1
10
33.4003647292812
20
6.62097875916049
30
0
41
1
10
34.1223236810372
20
6.86399530208041
30
0
41
1
10
34.4829713964725
20
6.97932825143505
30
0
41
1
10
35.2032157491092
20
7.19793567869905
30
0
41
1
10
35.5624960725756
20
7.30143427534506
30
0
41
1
10
36.2828474420108
20
7.49376382602824
30
0
41
1
10
36.6435926252716
20
7.58293783469719
30
0
41
1
10
37.3657173811882
20
7.7477628811229
30
0
41
1
10
37.7274740113858
20
7.82346584787922
30
0
41
1
10
38.4492748210282
20
7.96091541985425
30
0
41
1
10
38.8091189963508
20
8.02264183821097
30
0
41
1
10
39.5299451296408
20
8.13056726093632
30
0
41
1
10
39.8904764111042
20
8.17705283806677
30
0
41
1
10
40.6113389000488
20
8.25536830328056
30
0
41
1
10
40.9716798166759
20
8.28719444654831
30
0
41
1
10
41.6917758067791
20
8.33602403479591
30
0
41
1
10
42.0517653792976
20
8.352915524037
30
0
41
1
10
42.7741709646662
20
8.37136621706441
30
0
41
1
10
43.136008409993
20
8.3730015993944
30
0
41
1
10
43.8579403865818
20
8.36119074757261
30
0
41
1
10
44.2183853378932
20
8.34775551603781
30
0
41
1
10
44.9378709592297
20
8.30556749499067
30
0
41
1
10
45.2975557208813
20
8.27689451832671
30
0
41
1
10
46.0182249208463
20
8.20498286428597
30
0
41
1
10
46.3789030464614
20
8.16168750131126
30
0
41
1
10
47.1005481586795
20
8.06022720267609
30
0
41
1
10
47.4617138071989
20
8.00197051969172
30
0
41
1
10
48.1830327281001
20
7.87037683904217
30
0
41
1
10
48.543571619253
20
7.79762419443909
30
0
41
1
10
49.2648022544819
20
7.63879953212447
30
0
41
1
10
49.6253372553297
20
7.55263447370311
30
0
41
1
10
50.3458541689996
20
7.36651847678522
30
0
41
1
10
50.7056541157657
20
7.26639830005885
30
0
41
1
10
51.4251834100133
20
7.05250577634285
30
0
41
1
10
51.7857549231665
20
6.93952848910411
30
0
41
1
10
52.5081208721174
20
6.70132062125225
30
0
41
1
10
52.8700157147886
20
6.57599635828103
30
0
41
1
10
53.5917031035702
20
6.31354040668666
30
0
41
1
10
53.9515310579025
20
6.17590885448487
30
0
41
1
10
54.671047115446
20
5.88997663995789
30
0
41
1
10
55.0312883915453
20
5.74239132171485
30
0
41
1
10
55.7520190616587
20
5.43726404061732
30
0
41
1
10
56.1125416206947
20
5.27976057113489
30
0
41
1
10
56.8335217278771
20
4.9542548873147
30
0
41
1
10
57.1936613213237
20
4.78560450883137
30
0
41
1
10
58.2766171580903
20
4.26836232034793
30
0
41
1
10
58.9985006648628
20
3.91092391056739
30
0
41
1
10
60.0784374296233
20
3.35186399868721
30
0
41
1
10
60.437587301991
20
3.1610796503893
30
0
41
1
10
61.1576425190119
20
2.77617116171743
30
0
41
1
10
61.5183202084733
20
2.58170630633862
30
0
41
1
10
62.2404352327809
20
2.18788680432098
30
0
41
1
10
62.6021897343728
20
1.98839560815855
30
0
41
1
10
63.3234306119788
20
1.58533611220491
30
0
41
1
10
63.6829544753031
20
1.38126357924594
30
0
41
1
10
64.763353186567
20
0.77032641533637
30
0
41
1
10
65.484355999806
20
0.361826689395002
30
0
41
1
10
66.5645000228834
20
-0.257092619640957
30
0
41
1
10
66.9243945285689
20
-0.464309009541495
30
0
41
1
10
67.6468055004167
20
-0.875374410647197
30
0
41
1
10
68.0081008856806
20
-1.07961080720591
30
0
41
1
10
68.729478057464
20
-1.48568965626748
30
0
41
1
10
69.0897247132726
20
-1.68760866377266
30
0
41
1
10
69.8089166865713
20
-2.08987529212905
30
0
41
1
10
70.1683266336015
20
-2.28941327974204
30
0
41
1
10
70.8887264067243
20
-2.68203296357785
30
0
41
1
10
71.2493413996269
20
-2.87575803687622
30
0
41
1
10
71.9710016769982
20
-3.25869648313824
30
0
41
1
10
72.3323806892155
20
-3.44815061714232
30
0
41
1
10
73.0530398454301
20
-3.82160637025436
30
0
41
1
10
73.4131586378766
20
-4.00436665513456
30
0
41
1
10
74.1338336629063
20
-4.36080929893703
30
0
41
1
10
74.4941630462198
20
-4.53485253398983
30
0
41
1
10
75.2144108895702
20
-4.87518225525486
30
0
41
1
10
75.5742052624428
20
-5.04163947566281
30
0
41
1
10
76.2935688493862
20
-5.36634823853876
30
0
41
1
10
76.6540224889884
20
-5.52338298190256
30
0
41
1
10
77.3764130994467
20
-5.82700593101848
30
0
41
1
10
77.7379196673532
20
-5.97355914357323
30
0
41
1
10
78.4590601577771
20
-6.25579679265405
30
0
41
1
10
78.818752250065
20
-6.39188316808162
30
0
41
1
10
79.8972209648371
20
-6.78248394700154
30
0
41
1
10
80.618187856273
20
-7.01657036631036
30
0
41
1
10
81.6997229660037
20
-7.33147136440834
30
0
41
1
10
82.0602485649611
20
-7.43069070845337
30
0
41
1
10
82.7813344153936
20
-7.61473276531885
30
0
41
1
10
83.1419903788327
20
-7.69932126499276
30
0
41
1
10
83.8628515844225
20
-7.85444602780674
30
0
41
1
10
84.2230903775419
20
-7.92495329237471
30
0
41
1
10
84.9428016612448
20
-8.05200023522886
30
0
41
1
10
85.3018710284167
20
-8.10868383583991
30
0
41
1
10
86.0216499985018
20
-8.20673789723216
30
0
41
1
10
86.382285587823
20
-8.24821740853977
30
0
41
1
10
87.1044593836208
20
-8.31639043035904
30
0
41
1
10
87.4659644734219
20
-8.34304317201597
30
0
41
1
10
88.1859424441888
20
-8.38123479158395
30
0
41
1
10
88.544557426299
20
-8.39278786842587
30
0
41
1
10
88.9964827817804
20
-8.39771764916551
30
0
41
1
10
89.0894543961421
20
-8.39822590102449
30
0
41
1
10
89.1824228415504
20
-8.39822996712272
30
0
0
SPLINE
5
D6
100
AcDbEntity
8
1
62
256
6
ByLayer
370
18
48
1
60
0
100
AcDbSpline
70
4
71
3
72
26
73
22
40
0
40
0
40
0
40
0
40
0.125000000000001
40
0.125000000000001
40
0.187500000000001
40
0.187500000000001
40
0.250000000000001
40
0.250000000000001
40
0.500000000000002
40
0.500000000000002
40
0.562500000000002
40
0.562500000000002
40
0.625000000000002
40
0.625000000000002
40
0.750000000000002
40
0.750000000000002
40
0.875000000000001
40
0.875000000000001
40
0.9375
40
0.9375
40
1
40
1
40
1
40
1
41
1
10
92.0740599711988
20
-8.03895415981006
30
0
41
1
10
91.9569412190217
20
-8.03885027759563
30
0
41
1
10
91.8454778969607
20
-8.02169642971953
30
0
41
1
10
91.6871829889365
20
-7.96913375101846
30
0
41
1
10
91.6359050608027
20
-7.94712973287304
30
0
41
1
10
91.536443651943
20
-7.89379257024413
30
0
41
1
10
91.4881091421625
20
-7.86231960898385
30
0
41
1
10
91.2574092067836
20
-7.68284805995859
30
0
41
1
10
91.1060322466351
20
-7.46932593318979
30
0
41
1
10
90.9603643701143
20
-7.1106192361064
30
0
41
1
10
90.9334372043949
20
-7.03422710787083
30
0
41
1
10
90.8841740614704
20
-6.87176529726062
30
0
41
1
10
90.861799833997
20
-6.78541038008129
30
0
41
1
10
90.8027890782648
20
-6.51566489401662
30
0
41
1
10
90.7738355538002
20
-6.32059548930664
30
0
41
1
10
90.7363956930298
20
-5.90042859177174
30
0
41
1
10
90.7279083812552
20
-5.67533253008907
30
0
41
1
10
90.730978904738
20
-5.31450554772417
30
0
41
1
10
90.734664463199
20
-5.18997685271512
30
0
41
1
10
90.747382499639
20
-4.93481363371038
30
0
41
1
10
90.7563806039339
20
-4.80452796077427
30
0
41
1
10
90.7679754704868
20
-4.67158159028301
30
0
0
SPLINE
5
D7
100
AcDbEntity
8
1
62
256
6
ByLayer
370
18
48
1
60
0
100
AcDbSpline
70
4
71
3
72
86
73
82
40
0
40
0
40
0
40
0
40
0.0472871315034437
40
0.0472871315034437
40
0.115190050693676
40
0.115190050693676
40
0.149141510288793
40
0.149141510288793
40
0.183092969883909
40
0.183092969883909
40
0.250995889074142
40
0.250995889074142
40
0.284947348669258
40
0.284947348669258
40
0.318898808264375
40
0.318898808264375
40
0.386801727454608
40
0.386801727454608
40
0.420753187049724
40
0.420753187049724
40
0.454704646644841
40
0.454704646644841
40
0.45894857909423
40
0.45894857909423
40
0.459081201983274
40
0.459081201983274
40
0.459213824872317
40
0.459213824872317
40
0.459479070650404
40
0.459479070650404
40
0.460009562206578
40
0.460009562206578
40
0.461070545318925
40
0.461070545318925
40
0.463192511543619
40
0.463192511543619
40
0.471680376442398
40
0.471680376442398
40
0.488656106239954
40
0.488656106239954
40
0.522607565835068
40
0.522607565835068
40
0.556559025430181
40
0.556559025430181
40
0.590510485025294
40
0.590510485025294
40
0.658413404215521
40
0.658413404215521
40
0.692364863810634
40
0.692364863810634
40
0.709340593608191
40
0.709340593608191
40
0.71358452605758
40
0.71358452605758
40
0.715706492282275
40
0.715706492282275
40
0.716236983838448
40
0.716236983838448
40
0.716369606727492
40
0.716369606727492
40
0.716502229616535
40
0.716502229616535
40
0.716767475394622
40
0.71782845850697
40
0.726316323405752
40
0.726316323405752
40
0.760267783000879
40
0.760267783000879
40
0.794219242596006
40
0.794219242596006
40
0.862122161786259
40
0.862122161786259
40
0.930025080976513
40
0.930025080976513
40
0.96397654057164
40
0.96397654057164
40
0.980952270369204
40
0.980952270369204
40
0.997928000166767
40
0.997928000166767
40
1
40
1
40
1
40
1
41
1
10
22.9412952985369
20
-1.66260906249065
30
0
41
1
10
22.6283243227454
20
-1.4928186262762
30
0
41
1
10
22.3166510128587
20
-1.33005439551823
30
0
41
1
10
21.5591966152689
20
-0.955937646745411
30
0
41
1
10
21.1142051378556
20
-0.754382807480994
30
0
41
1
10
20.443315439821
20
-0.492414253263377
30
0
41
1
10
20.2185108350766
20
-0.411727795419921
30
0
41
1
10
19.7748234237965
20
-0.268427242517419
30
0
41
1
10
19.554950398506
20
-0.205386407074911
30
0
41
1
10
18.898975090061
20
-0.04292561794108
30
0
41
1
10
18.4664888780555
20
0.0297939619804026
30
0
41
1
10
17.8160060767917
20
0.083408350966522
30
0
41
1
10
17.5988915217169
20
0.0920485525219021
30
0
41
1
10
17.1626633416691
20
0.0905844578264237
30
0
41
1
10
16.9447053292053
20
0.0804348354506033
30
0
41
1
10
16.2948137672247
20
0.023094718115658
30
0
41
1
10
15.8644954892515
20
-0.0508969176062237
30
0
41
1
10
15.2164428518748
20
-0.211333708275106
30
0
41
1
10
15.000015470622
20
-0.27307359090193
30
0
41
1
10
14.5653354765813
20
-0.412604713157663
30
0
41
1
10
14.3467940475796
20
-0.49051150478499
30
0
41
1
10
14.1001217686823
20
-0.58670403514185
30
0
41
1
10
14.072711332747
20
-0.597507103054824
30
0
41
1
10
14.0444418646396
20
-0.608765227611087
30
0
41
1
10
14.0435514118559
20
-0.609225753016915
30
0
41
1
10
14.0435040371241
20
-0.610738374655995
30
0
41
1
10
14.0439329678086
20
-0.611489138586052
30
0
41
1
10
14.0453534848091
20
-0.613601321428234
30
0
41
1
10
14.0466463259711
20
-0.614908876033638
30
0
41
1
10
14.0506245289979
20
-0.618682533433542
30
0
41
1
10
14.0535722708509
20
-0.62104290748681
30
0
41
1
10
14.0626178793279
20
-0.627998357884877
30
0
41
1
10
14.0689459939892
20
-0.632409499548174
30
0
41
1
10
14.0881759308554
20
-0.645458438938419
30
0
41
1
10
14.1013823471646
20
-0.653873417178517
30
0
41
1
10
14.1679237748812
20
-0.695489929915738
30
0
41
1
10
14.2227550010002
20
-0.727386851034311
30
0
41
1
10
14.3877404626171
20
-0.822786806612413
30
0
41
1
10
14.4990274043946
20
-0.885345469133199
30
0
41
1
10
14.8337548527029
20
-1.07268423549354
30
0
41
1
10
15.058440683771
20
-1.1968751272066
30
0
41
1
10
15.5086729986706
20
-1.44584150887789
30
0
41
1
10
15.7343957421766
20
-1.57034190671982
30
0
41
1
10
16.1858211902917
20
-1.82111359812094
30
0
41
1
10
16.4115521749235
20
-1.94736426372444
30
0
41
1
10
17.0889596743769
20
-2.32845782540943
30
0
41
1
10
17.5412648682611
20
-2.58494312779467
30
0
41
1
10
18.2163610620185
20
-2.97968296993187
30
0
41
1
10
18.4410673413188
20
-3.11266607093833
30
0
41
1
10
18.7755618762542
20
-3.31756285504972
30
0
41
1
10
18.886912805099
20
-3.38626374885553
30
0
41
1
10
19.0231471674545
20
-3.47718239514324
30
0
41
1
10
19.0502578120055
20
-3.49557553552458
30
0
41
1
10
19.0898295042274
20
-3.5247935651318
30
0
41
1
10
19.1031054125199
20
-3.5345279950065
30
0
41
1
10
19.1178464499014
20
-3.54890064790104
30
0
41
1
10
19.1209210581621
20
-3.55179087293209
30
0
41
1
10
19.1232750847775
20
-3.55646998660228
30
0
41
1
10
19.1237073479786
20
-3.55753660621849
30
0
41
1
10
19.1232289096983
20
-3.55961457724953
30
0
41
1
10
19.1222010132694
20
-3.56024444217005
30
0
41
1
10
19.1198762072544
20
-3.56244881918863
30
0
41
1
10
19.1121269954349
20
-3.56979625532648
30
0
41
1
10
19.0547882849509
20
-3.62414889608053
30
0
41
1
10
18.9990353820098
20
-3.67690199643479
30
0
41
1
10
18.751398567833
20
-3.91070648351962
30
0
41
1
10
18.5535615276993
20
-4.09588398342135
30
0
41
1
10
18.1595688796479
20
-4.45783752880067
30
0
41
1
10
17.9637458882325
20
-4.63432449092269
30
0
41
1
10
17.3765389781159
20
-5.14707725358048
30
0
41
1
10
16.9857919856355
20
-5.46706305736421
30
0
41
1
10
16.1818885697025
20
-6.03790683128236
30
0
41
1
10
15.7797515477407
20
-6.28013642615539
30
0
41
1
10
15.1571379752284
20
-6.56111468746593
30
0
41
1
10
14.9462855243077
20
-6.64105832919086
30
0
41
1
10
14.6225235501453
20
-6.7385826869446
30
0
41
1
10
14.513004678652
20
-6.76742833753787
30
0
41
1
10
14.2937208854385
20
-6.81691879231235
30
0
41
1
10
14.1837878990109
20
-6.83764283866984
30
0
41
1
10
14.0599810753145
20
-6.85657776898677
30
0
41
1
10
14.046506919275
20
-6.85857977471377
30
0
41
1
10
14.0330261471595
20
-6.86052449058866
30
0
0
SPLINE
5
D8
100
AcDbEntity
8
SK1
62
256
6
ByLayer
370
18
48
1
60
0
100
AcDbSpline
70
4
71
3
72
14
73
10
40
0
40
0
40
0
40
0
40
0.125000000000001
40
0.125000000000001
40
0.250000000000001
40
0.250000000000001
40
0.500000000000001
40
0.500000000000001
40
1
40
1
40
1
40
1
41
1
10
-45.5
20
-6.62185931059426
30
0
41
1
10
-45.5
20
-6.61471730693756
30
0
41
1
10
-45.5017107697461
20
-6.60546554492632
30
0
41
1
10
-45.5068845888983
20
-6.5860619099694
30
0
41
1
10
-45.5102281895671
20
-6.5761477820852
30
0
41
1
10
-45.521528237522
20
-6.54604982605599
30
0
41
1
10
-45.5303630420009
20
-6.52648305109403
30
0
41
1
10
-45.5585252427809
20
-6.46915464624558
30
0
41
1
10
-45.5788396428357
20
-6.43411131677183
30
0
41
1
10
-45.6
20
-6.40191510425058
30
0
0
SPLINE
5
D9
100
AcDbEntity
8
SK1
62
256
6
ByLayer
370
18
48
1
60
0
100
AcDbSpline
70
4
71
3
72
8
73
4
40
0
40
0
40
0
40
0
40
1
40
1
40
1
40
1
41
1
10
-47.9228943939015
20
-2.79903816048017
30
0
41
1
10
-47.9486454839317
20
-2.75759658140765
30
0
41
1
10
-47.9743488715757
20
-2.71613230989186
30
0
41
1
10
-48
20
-2.67464317820708
30
0
0
SPLINE
5
DA
100
AcDbEntity
8
SK1
62
256
6
ByLayer
370
18
48
1
60
0
100
AcDbSpline
70
4
71
3
72
10
73
6
40
0
40
0
40
0
40
0
40
0.5
40
0.5
40
1
40
1
40
1
40
1
41
1
10
-45.6
20
-6.40191510425058
30
0
41
1
10
-45.9143396641838
20
-5.92363647438927
30
0
41
1
10
-46.2277713975027
20
-5.44492227639788
30
0
41
1
10
-46.8511393395701
20
-4.48583450499982
30
0
41
1
10
-47.1611769770348
20
-4.00550744398845
30
0
41
1
10
-47.4674170054607
20
-3.52337382706324
30
0
0
SPLINE
5
DB
100
AcDbEntity
8
SK1
62
256
6
ByLayer
370
18
48
1
60
0
100
AcDbSpline
70
4
71
3
72
12
73
8
40
0
40
0
40
0
40
0
40
0.25
40
0.25
40
0.500000000000001
40
0.500000000000001
40
1
40
1
40
1
40
1
41
1
10
-47.4674170054607
20
-3.52337382706324
30
0
41
1
10
-47.5009495915739
20
-3.45037239708918
30
0
41
1
10
-47.5356863673439
20
-3.37987378925305
30
0
41
1
10
-47.607828306993
20
-3.24393326206905
30
0
41
1
10
-47.64547595222
20
-3.17809797610758
30
0
41
1
10
-47.7615260816414
20
-2.99166085377595
30
0
41
1
10
-47.840775789289
20
-2.88489390822932
30
0
41
1
10
-47.9228943939015
20
-2.79903816048011
30
0
0
SPLINE
5
DC
100
AcDbEntity
8
SK1
62
256
6
ByLayer
370
18
48
1
60
0
100
AcDbSpline
70
4
71
3
72
10
73
6
40
0
40
0
40
0
40
0
40
0.5
40
0.5
40
1
40
1
40
1
40
1
41
1
10
-48
20
-4.45877093019843
30
0
41
1
10
-47.6125327890862
20
-5.08547545061026
30
0
41
1
10
-47.2139909098581
20
-5.70761449075442
30
0
41
1
10
-46.4112087243417
20
-6.94888746053863
30
0
41
1
10
-46.0063190677275
20
-7.56781439467062
30
0
41
1
10
-45.6
20
-8.18604285624193
30
0
0
SPLINE
5
DD
100
AcDbEntity
8
SK1
62
256
6
ByLayer
370
18
48
1
60
0
100
AcDbSpline
70
4
71
3
72
14
73
10
40
0
40
0
40
0
40
0
40
0.499999999999993
40
0.499999999999993
40
0.749999999999994
40
0.749999999999994
40
0.874999999999997
40
0.874999999999997
40
1
40
1
40
1
40
1
41
1
10
-45.6
20
-8.18604285624195
30
0
41
1
10
-45.5789465118595
20
-8.21807646386117
30
0
41
1
10
-45.5585985142981
20
-8.24705233468424
30
0
41
1
10
-45.5303873672755
20
-8.28277644052437
30
0
41
1
10
-45.5214287539013
20
-8.29328263313317
30
0
41
1
10
-45.5102864584886
20
-8.30381333046498
30
0
41
1
10
-45.50688945626
20
-8.30650437336004
30
0
41
1
10
-45.5017228477084
20
-8.30850512413238
30
0
41
1
10
-45.5
20
-8.3077298360744
30
0
41
1
10
-45.5
20
-8.30403690532901
30
0
0
LINE
5
76
100
AcDbEntity
8
81
62
256
6
ByLayer
370
18
48
1
60
0
100
AcDbLine
10
95
20
0
30
0
11
100
21
0
31
0
39
0
210
0
220
0
230
1
0
LINE
5
77
100
AcDbEntity
8
1
62
256
6
ByLayer
370
18
48
1
60
0
100
AcDbLine
10
4
20
8.347122
30
0
11
1.29123
21
8.345497
31
0
39
0
210
0
220
0
230
1
0
LINE
5
79
100
AcDbEntity
8
1
62
256
6
ByLayer
370
18
48
1
60
0
100
AcDbLine
10
44.259746
20
8.371278
30
0
11
43.055902
21
8.370556
31
0
39
0
210
0
220
0
230
1
0
LINE
5
7A
100
AcDbEntity
8
1
62
256
6
ByLayer
370
18
48
1
60
0
100
AcDbLine
10
90.360607
20
8.398939
30
0
11
89.169707
21
8.398224
31
0
39
0
210
0
220
0
230
1
0
LINE
5
7B
100
AcDbEntity
8
1
62
256
6
ByLayer
370
18
48
1
60
0
100
AcDbLine
10
89.169707
20
-8.398224
30
0
11
90.360214
21
-8.398938
31
0
39
0
210
0
220
0
230
1
0
LINE
5
7C
100
AcDbEntity
8
1
62
256
6
ByLayer
370
18
48
1
60
0
100
AcDbLine
10
43.055902
20
-8.370556
30
0
11
44.259437
21
-8.371278
31
0
39
0
210
0
220
0
230
1
0
LINE
5
7D
100
AcDbEntity
8
1
62
256
6
ByLayer
370
18
48
1
60
0
100
AcDbLine
10
1.29123
20
-8.345497
30
0
11
4
21
-8.347122
31
0
39
0
210
0
220
0
230
1
0
LINE
5
7E
100
AcDbEntity
8
SK1
62
256
6
ByLayer
370
18
48
1
60
0
100
AcDbLine
10
0
20
9
30
0
11
-45.401924
21
9
31
0
39
0
210
0
220
0
230
1
0
LINE
5
80
100
AcDbEntity
8
SK1
62
256
6
ByLayer
370
18
48
1
60
0
100
AcDbLine
10
-45.401924
20
-9
30
0
11
0
21
-9
31
0
39
0
210
0
220
0
230
1
0
LINE
5
81
100
AcDbEntity
8
SK1
62
256
6
ByLayer
370
18
48
1
60
0
100
AcDbLine
10
-45.401924
20
9
30
0
11
-48
21
4.5
31
0
39
0
210
0
220
0
230
1
0
LINE
5
82
100
AcDbEntity
8
SK1
62
256
6
ByLayer
370
18
48
1
60
0
100
AcDbLine
10
-48
20
-4.5
30
0
11
-45.401924
21
-9
31
0
39
0
210
0
220
0
230
1
0
LINE
5
83
100
AcDbEntity
8
SK4
62
256
6
ByLayer
370
18
48
0.05
60
0
100
AcDbLine
10
100
20
0
30
0
11
-53
21
0
31
0
39
0
210
0
220
0
230
1
0
LINE
5
85
100
AcDbEntity
8
4
62
256
6
ByLayer
370
18
48
0.05
60
0
100
AcDbLine
10
95
20
0
30
0
11
0
21
0
31
0
39
0
210
0
220
0
230
1
0
LINE
5
87
100
AcDbEntity
8
80
62
256
6
ByLayer
370
18
48
1
60
0
100
AcDbLine
10
0
20
0
30
0
11
-5
21
0
31
0
39
0
210
0
220
0
230
1
0
LINE
5
88
100
AcDbEntity
8
1
62
256
6
ByLayer
370
18
48
1
60
0
100
AcDbLine
10
0
20
-9
30
0
11
0
21
9
31
0
39
0
210
0
220
0
230
1
0
LINE
5
89
100
AcDbEntity
8
1
62
256
6
ByLayer
370
13
48
1
60
0
100
AcDbLine
10
92.635114
20
1.044129
30
0
11
94.893322
21
-0.073958
31
0
39
0
210
0
220
0
230
1
0
LINE
5
8A
100
AcDbEntity
8
1
62
256
6
ByLayer
370
13
48
1
60
0
100
AcDbLine
10
1.29123
20
8.345497
30
0
11
1.29123
21
-8.345497
31
0
39
0
210
0
220
0
230
1
0
LINE
5
8B
100
AcDbEntity
8
1
62
256
6
ByLayer
370
18
48
1
60
0
100
AcDbLine
10
4
20
8.347122
30
0
11
4
21
7.749834
31
0
39
0
210
0
220
0
230
1
0
LINE
5
8C
100
AcDbEntity
8
1
62
256
6
ByLayer
370
18
48
1
60
0
100
AcDbLine
10
95
20
0
30
0
11
92.07406
21
-8.038954
31
0
39
0
210
0
220
0
230
1
0
LINE
5
8D
100
AcDbEntity
8
1
62
256
6
ByLayer
370
18
48
1
60
0
100
AcDbLine
10
95
20
0
30
0
11
94.980838
21
-0.077685
31
0
39
0
210
0
220
0
230
1
0
LINE
5
8E
100
AcDbEntity
8
1
62
256
6
ByLayer
370
13
48
1
60
0
100
AcDbLine
10
92.804573
20
1.390553
30
0
11
94.891253
21
0.357393
31
0
39
0
210
0
220
0
230
1
0
LINE
5
8F
100
AcDbEntity
8
1
62
256
6
ByLayer
370
18
48
1
60
0
100
AcDbLine
10
94.891253
20
0.357393
30
0
11
94.592096
21
1.390553
31
0
39
0
210
0
220
0
230
1
0
LINE
5
90
100
AcDbEntity
8
1
62
256
6
ByLayer
370
13
48
1
60
0
100
AcDbLine
10
0.645375
20
8.672748
30
0
11
0.645375
21
-8.672748
31
0
39
0
210
0
220
0
230
1
0
LINE
5
91
100
AcDbEntity
8
1
62
256
6
ByLayer
370
18
48
1
60
0
100
AcDbLine
10
90.767975
20
-4.671582
30
0
11
94.893322
21
-0.073958
31
0
39
0
210
0
220
0
230
1
0
LINE
5
92
100
AcDbEntity
8
1
62
256
6
ByLayer
370
18
48
1
60
0
100
AcDbLine
10
4
20
-8.347122
30
0
11
4
21
-1.955543
31
0
39
0
210
0
220
0
230
1
0
LINE
5
93
100
AcDbEntity
8
1
62
256
6
ByLayer
370
13
48
1
60
0
100
AcDbLine
10
94.592096
20
1.390553
30
0
11
92.804573
21
1.390553
31
0
39
0
210
0
220
0
230
1
0
LINE
5
94
100
AcDbEntity
8
1
62
256
6
ByLayer
370
18
48
1
60
0
100
AcDbLine
10
94.980838
20
0.077685
30
0
11
95
21
0
31
0
39
0
210
0
220
0
230
1
0
LINE
5
95
100
AcDbEntity
8
1
62
256
6
ByLayer
370
18
48
1
60
0
100
AcDbLine
10
94.891253
20
-0.357393
30
0
11
94.592096
21
-1.390553
31
0
39
0
210
0
220
0
230
1
0
LINE
5
96
100
AcDbEntity
8
SK1
62
256
6
ByLayer
370
18
48
1
60
0
100
AcDbLine
10
-45.401924
20
9
30
0
11
-45.401924
21
-9
31
0
39
0
210
0
220
0
230
1
0
LINE
5
97
100
AcDbEntity
8
SK1
62
256
6
ByLayer
370
18
48
1
60
0
100
AcDbLine
10
-48
20
-2.674637
30
0
11
-48
21
-4.458771
31
0
39
0
210
0
220
0
230
1
0
LINE
5
98
100
AcDbEntity
8
SK1
62
256
6
ByLayer
370
18
48
1
60
0
100
AcDbLine
10
-48
20
4.5
30
0
11
-48
21
-2.674643
31
0
39
0
210
0
220
0
230
1
0
LINE
5
99
100
AcDbEntity
8
SK1
62
256
6
ByLayer
370
18
48
1
60
0
100
AcDbLine
10
-45.5
20
-8.304037
30
0
11
-45.5
21
-6.621859
31
0
39
0
210
0
220
0
230
1
0
LINE
5
9A
100
AcDbEntity
8
SK1
62
256
6
ByLayer
370
18
48
1
60
0
100
AcDbLine
10
0
20
-9
30
0
11
0
21
9
31
0
39
0
210
0
220
0
230
1
0
LINE
5
9B
100
AcDbEntity
8
SK1
62
256
6
ByLayer
370
13
48
1
60
0
100
AcDbLine
10
-45.6
20
-6.401753
30
0
11
-45.6
21
-8.186043
31
0
39
0
210
0
220
0
230
1
0
LINE
5
9C
100
AcDbEntity
8
SK1
62
256
6
ByLayer
370
18
48
1
60
0
100
AcDbLine
10
-48
20
-4.5
30
0
11
-48
21
-4.458771
31
0
39
0
210
0
220
0
230
1
0
MTEXT
5
DE
100
AcDbEntity
8
SK6
62
256
6
ByLayer
370
13
48
1
60
0
100
AcDbMText
10
25.629169
20
40.782694
30
0
210
0
220
0
230
1
1
\W0.7415;R840-1680-50-A1A1220
40
3.5
41
0
44
1.084337
50
0
71
8
72
5
7
iso_b_vert
0
DIMENSION
5
EB
100
AcDbEntity
8
SK2
62
256
6
ByLayer
370
13
48
1
60
0
100
AcDbDimension
2
DimnDraft3D1
10
92.1
20
-18.613398
30
0
11
43.850059
21
-18.613398
31
0
70
32
71
5
72
1
41
1
210
0
220
0
230
1
3
Standard
100
AcDbAlignedDimension
13
0
23
-1.5875
33
0
14
92.1
24
-9.9875
34
0
50
0
100
AcDbRotatedDimension
1001
ACAD
1000
DSTYLE
1002
{
1070
   279
1070
     0
1070
   172
1070
     1
1070
   173
1070
     1
1070
   340
1005
DF
1070
   271
1070
     2
1070
   272
1070
     2
1070
    77
1070
     1
1070
    73
1070
     0
1070
   171
1070
     3
1070
   274
1070
     4
1070
   177
1070
    35
1070
   176
1070
    35
1070
   178
1070
    35
1070
    48
1040
-0.005
1070
    41
1041
3.5
1070
   147
1041
1.75
1070
    42
1041
1.5875
1070
    44
1041
2.0
1070
   140
1041
3.5
1070
   343
1005
0
1070
   344
1005
0
1002
}
0
DIMENSION
5
F5
100
AcDbEntity
8
SK2
62
256
6
ByLayer
370
13
48
1
60
0
100
AcDbDimension
2
DimnDraft3D2
10
95
20
-37.692985
30
0
11
21.9413
21
-37.692985
31
0
70
32
71
5
72
1
41
1
210
0
220
0
230
1
3
Standard
100
AcDbAlignedDimension
13
-48
23
-10.5875
33
0
14
95
24
-1.5875
34
0
50
0
100
AcDbRotatedDimension
1001
ACAD
1000
DSTYLE
1002
{
1070
   279
1070
     0
1070
   172
1070
     1
1070
   173
1070
     1
1070
   340
1005
DF
1070
   271
1070
     2
1070
   272
1070
     2
1070
    77
1070
     1
1070
    73
1070
     0
1070
   171
1070
     3
1070
   274
1070
     4
1070
   177
1070
    35
1070
   176
1070
    35
1070
   178
1070
    35
1070
    48
1040
-0.005
1070
    41
1041
3.5
1070
   147
1041
1.75
1070
    42
1041
1.5875
1070
    44
1041
2.0
1070
   140
1041
3.5
1070
   343
1005
0
1070
   344
1005
0
1002
}
0
DIMENSION
5
FF
100
AcDbEntity
8
SK2
62
256
6
ByLayer
370
13
48
1
60
0
100
AcDbDimension
2
DimnDraft3D3
10
95
20
20.009119
30
0
11
51.55
21
20.009119
31
0
70
32
71
5
72
1
41
1
210
0
220
0
230
1
3
Standard
100
AcDbAlignedDimension
13
8.1
23
9.9875
33
0
14
95
24
1.5875
34
0
50
0
100
AcDbRotatedDimension
1001
ACAD
1000
DSTYLE
1002
{
1070
   279
1070
     0
1070
   172
1070
     1
1070
   173
1070
     1
1070
   340
1005
DF
1070
   271
1070
     2
1070
   272
1070
     2
1070
    77
1070
     1
1070
    73
1070
     0
1070
   171
1070
     3
1070
   274
1070
     4
1070
   177
1070
    35
1070
   176
1070
    35
1070
   178
1070
    35
1070
    48
1040
-0.005
1070
    41
1041
3.5
1070
   147
1041
1.75
1070
    42
1041
1.5875
1070
    44
1041
2.0
1070
   140
1041
3.5
1070
   343
1005
0
1070
   344
1005
0
1002
}
0
DIMENSION
5
109
100
AcDbEntity
8
SK2
62
256
6
ByLayer
370
13
48
1
60
0
100
AcDbDimension
2
DimnDraft3D4
10
92.1
20
-21.202503
30
0
11
104.981425
21
-21.202503
31
0
70
32
71
5
72
1
41
1
210
0
220
0
230
1
3
Standard
100
AcDbAlignedDimension
13
95
23
-1.5875
33
0
14
92.1
24
-9.9875
34
0
50
0
100
AcDbRotatedDimension
1001
ACAD
1000
DSTYLE
1002
{
1070
   279
1070
     0
1070
   172
1070
     1
1070
   173
1070
     1
1070
   340
1005
DF
1070
   271
1070
     2
1070
   272
1070
     2
1070
    77
1070
     1
1070
    73
1070
     0
1070
   171
1070
     3
1070
   274
1070
     4
1070
   177
1070
    35
1070
   176
1070
    35
1070
   178
1070
    35
1070
    48
1040
-0.005
1070
    41
1041
3.5
1070
   147
1041
1.75
1070
    42
1041
1.5875
1070
    44
1041
2.0
1070
   140
1041
3.5
1070
   343
1005
0
1070
   344
1005
0
1002
}
0
DIMENSION
5
113
100
AcDbEntity
8
SK2
62
256
6
ByLayer
370
13
48
1
60
0
100
AcDbDimension
2
DimnDraft3D5
10
92.1
20
-27.343428
30
0
11
18.860676
21
-27.343428
31
0
70
32
71
5
72
1
41
1
210
0
220
0
230
1
3
Standard
100
AcDbAlignedDimension
13
-48
23
-10.5875
33
0
14
92.1
24
-9.9875
34
0
50
0
100
AcDbRotatedDimension
1001
ACAD
1000
DSTYLE
1002
{
1070
   279
1070
     0
1070
   172
1070
     1
1070
   173
1070
     1
1070
   340
1005
DF
1070
   271
1070
     2
1070
   272
1070
     2
1070
    77
1070
     1
1070
    73
1070
     0
1070
   171
1070
     3
1070
   274
1070
     4
1070
   177
1070
    35
1070
   176
1070
    35
1070
   178
1070
    35
1070
    48
1040
-0.005
1070
    41
1041
3.5
1070
   147
1041
1.75
1070
    42
1041
1.5875
1070
    44
1041
2.0
1070
   140
1041
3.5
1070
   343
1005
0
1070
   344
1005
0
1002
}
0
DIMENSION
5
11E
100
AcDbEntity
8
SK2
62
256
6
ByLayer
370
13
48
1
60
0
100
AcDbDimension
2
DimnDraft3D6
10
-58.625163
20
9
30
0
11
-59.250163
21
27.47418
31
0
70
33
71
5
72
1
41
1
210
0
220
0
230
1
3
Standard
100
AcDbAlignedDimension
13
-49.5875
23
-9
33
0
14
-49.5875
24
9
34
0
1001
ACAD
1000
DSTYLE
1002
{
1070
   279
1070
     0
1070
    74
1070
     0
1070
   173
1070
     1
1070
   340
1005
DF
1070
   271
1070
     3
1070
   272
1070
     2
1070
    77
1070
     1
1070
    73
1070
     0
1070
   171
1070
     3
1070
   274
1070
     4
1070
   177
1070
    35
1070
   176
1070
    35
1070
   178
1070
    35
1070
    48
1040
-0.005
1070
    41
1041
3.5
1070
   147
1041
1.75
1070
    42
1041
1.5875
1070
    44
1041
2.0
1070
   140
1041
3.5
1070
   343
1005
0
1070
   344
1005
0
1002
}
0
DIMENSION
5
129
100
AcDbEntity
8
2
62
256
6
ByLayer
370
13
48
1
60
0
100
AcDbDimension
2
DimnDraft3D7
10
109.083343
20
8.4
30
0
11
104.458343
21
25.467266
31
0
70
33
71
5
72
1
41
1
210
0
220
0
230
1
3
Standard
100
AcDbAlignedDimension
13
93.6875
23
-8.4
33
0
14
93.6875
24
8.4
34
0
1001
ACAD
1000
DSTYLE
1002
{
1070
   279
1070
     0
1070
    74
1070
     0
1070
   173
1070
     1
1070
   340
1005
DF
1070
   271
1070
     3
1070
   272
1070
     2
1070
    77
1070
     1
1070
    73
1070
     0
1070
   171
1070
     3
1070
   274
1070
     4
1070
   177
1070
    35
1070
   176
1070
    35
1070
   178
1070
    35
1070
    48
1040
-0.005
1070
    41
1041
3.5
1070
   147
1041
1.75
1070
    42
1041
1.5875
1070
    44
1041
2.0
1070
   140
1041
3.5
1070
   343
1005
0
1070
   344
1005
0
1002
}
0
ENDSEC
0
SECTION
2
OBJECTS
0
DICTIONARY
5
194
330
0
100
AcDbDictionary
280
0
281
1
3
ACAD_GROUP
350
195
3
ACAD_MLINESTYLE
350
196
0
DICTIONARY
5
195
330
0
100
AcDbDictionary
280
0
281
1
0
DICTIONARY
5
196
330
0
100
AcDbDictionary
280
0
281
1
3
Standard
350
18
0
MLINESTYLE
5
18
330
196
100
AcDbMlineStyle
2
Standard
70
0
3

62
256
51
90
52
90
71
2
49
-0.5
62
256
6
ByLayer
49
0.5
62
256
6
ByLayer
0
RASTERVARIABLES
5
182
330

100
AcDbRasterVariables
90
0
70
1
71
1
72
1
0
ENDSEC
0
EOF
