0
SECTION
2
HEADER
9
$ACADVER
1
AC1015
9
$DWGCODEPAGE
3
ANSI_1252
9
$HANDSEED
5
1aa
9
$ANGBASE
50
0
9
$ANGDIR
70
0
9
$ATTMODE
70
1
9
$AUNITS
70
0
9
$AUPREC
70
0
9
$CECOLOR
62
256
9
$CELTSCALE
40
1
9
$CELTYPE
6
ByLayer
9
$CELWEIGHT
370
18
9
$CLAYER
8
0
9
$CMLJUST
70
0
9
$CMLSCALE
40
1
9
$CMLSTYLE
2
Standard
9
$DIMSTYLE
2
Standard
9
$TEXTSIZE
40
0.2
9
$TEXTSTYLE
7
Standard
9
$LUNITS
70
2
9
$LUPREC
70
4
9
$EXTNAMES
290
1
9
$INSUNITS
70
4
9
$LTSCALE
40
1
9
$LWDISPLAY
290
1
9
$PDMODE
70
0
9
$PDSIZE
40
0
9
$PLINEGEN
70
0
0
ENDSEC
0
SECTION
2
CLASSES
0
CLASS
1
RASTERVARIABLES
2
AcDbRasterVariables
3
ISM
90
0
280
0
281
0
0
ENDSEC
0
SECTION
2
TABLES
0
TABLE
2
VPORT
5
1a0
100
AcDbSymbolTable
0
VPORT
5
1
100
AcDbSymbolTableRecord
100
AcDbViewportTableRecord
2
*Active
70
0
10
0
20
0
11
1
21
1
12
-1
22
1
13
0
23
0
14
0.5
24
0.5
15
10
25
10
16
0
26
0
36
1
17
0
27
0
37
0
0
ENDTAB
0
TABLE
2
LTYPE
5
1a1
100
AcDbSymbolTable
0
LTYPE
5
14
100
AcDbSymbolTableRecord
100
AcDbLinetypeTableRecord
70
0
2
ByBlock
3

72
65
73
0
40
0
0
LTYPE
5
15
100
AcDbSymbolTableRecord
100
AcDbLinetypeTableRecord
70
0
2
ByLayer
3

72
65
73
0
40
0
0
LTYPE
5
16
100
AcDbSymbolTableRecord
100
AcDbLinetypeTableRecord
70
0
2
CONTINUOUS
3
Solid line
72
65
73
0
40
0
0
LTYPE
5
6A
100
AcDbSymbolTableRecord
100
AcDbLinetypeTableRecord
70
0
2
CENTER
3
____ _ ____ _ ____ _ ____
72
65
73
4
40
47.5
49
22
74
0
49
-8.5
74
0
49
8.5
74
0
49
-8.5
74
0
0
LTYPE
5
6B
100
AcDbSymbolTableRecord
100
AcDbLinetypeTableRecord
70
0
2
DASHED
3
__ __ __ __ __ __ __ __ __
72
65
73
2
40
25.72
49
12.86
74
0
49
-12.86
74
0
0
ENDTAB
0
TABLE
2
LAYER
5
1a2
100
AcDbSymbolTable
0
LAYER
5
10
100
AcDbSymbolTableRecord
100
AcDbLayerTableRecord
2
0
70
0
62
7
6
CONTINUOUS
290
1
370
-3
390
0
0
LAYER
5
6D
100
AcDbSymbolTableRecord
100
AcDbLayerTableRecord
2
81
70
0
62
-3
6
CONTINUOUS
290
1
370
-3
390
0
0
LAYER
5
6F
100
AcDbSymbolTableRecord
100
AcDbLayerTableRecord
2
80
70
0
62
-6
6
CONTINUOUS
290
1
370
-3
390
0
0
LAYER
5
74
100
AcDbSymbolTableRecord
100
AcDbLayerTableRecord
2
2
70
0
62
7
6
CONTINUOUS
290
1
370
-3
390
0
0
LAYER
5
78
100
AcDbSymbolTableRecord
100
AcDbLayerTableRecord
2
1
70
0
62
4
6
CONTINUOUS
290
1
370
-3
390
0
0
LAYER
5
86
100
AcDbSymbolTableRecord
100
AcDbLayerTableRecord
2
4
70
0
62
-2
6
CENTER
290
1
370
-3
390
0
0
LAYER
5
18c
100
AcDbSymbolTableRecord
100
AcDbLayerTableRecord
2
SK2
70
0
62
7
6
CONTINUOUS
290
1
370
-3
390
0
0
LAYER
5
18d
100
AcDbSymbolTableRecord
100
AcDbLayerTableRecord
2
SK1
70
0
62
4
6
CONTINUOUS
290
1
370
-3
390
0
0
LAYER
5
18e
100
AcDbSymbolTableRecord
100
AcDbLayerTableRecord
2
SK4
70
0
62
2
6
CENTER
290
1
370
-3
390
0
0
LAYER
5
18f
100
AcDbSymbolTableRecord
100
AcDbLayerTableRecord
2
SK6
70
0
62
5
6
CONTINUOUS
290
1
370
-3
390
0
0
ENDTAB
0
TABLE
2
STYLE
5
1a3
100
AcDbSymbolTable
0
STYLE
5
11
100
AcDbSymbolTableRecord
100
AcDbTextStyleTableRecord
2
Standard
3
txt
70
0
71
0
40
0
41
1
42
0
50
0
0
STYLE
5
E8
100
AcDbSymbolTableRecord
100
AcDbTextStyleTableRecord
2
iso_b_vert
3
simplex.shx
70
0
71
0
40
0
41
1
42
0
50
0
0
STYLE
5
E9
100
AcDbSymbolTableRecord
100
AcDbTextStyleTableRecord
2
DWGDirectTextStyle
3
simplex
70
0
71
0
40
0
41
1
42
0
50
0
0
ENDTAB
0
TABLE
2
DIMSTYLE
5
1a4
100
AcDbSymbolTable
100
AcDbDimStyleTable
0
DIMSTYLE
105
27
100
AcDbSymbolTableRecord
100
AcDbDimStyleTableRecord
2
Standard
70
0
3
<>
41
0.18
42
0.0625
44
0.18
140
0.18
147
0.09
73
0
74
0
77
1
271
2
275
0
278
52
280
0
340
11
0
ENDTAB
0
TABLE
2
VIEW
5
1a5
100
AcDbSymbolTable
0
ENDTAB
0
TABLE
2
UCS
5
1a6
100
AcDbSymbolTable
0
ENDTAB
0
TABLE
2
APPID
5
1a7
100
AcDbSymbolTable
0
APPID
5
12
100
AcDbSymbolTableRecord
100
AcDbRegAppTableRecord
2
ACAD
70
0
0
ENDTAB
0
TABLE
2
BLOCK_RECORD
5
1a8
100
AcDbSymbolTable
0
BLOCK_RECORD
5
1F
100
AcDbSymbolTableRecord
100
AcDbBlockTableRecord
2
*Model_Space
340
0
70
0
0
BLOCK_RECORD
5
1B
100
AcDbSymbolTableRecord
100
AcDbBlockTableRecord
2
*Paper_Space
340
0
70
0
0
BLOCK_RECORD
5
23
100
AcDbSymbolTableRecord
100
AcDbBlockTableRecord
2
*Paper_Space0
340
0
70
0
0
BLOCK_RECORD
5
EB
100
AcDbSymbolTableRecord
100
AcDbBlockTableRecord
2
DimnDraft3D1
340
0
70
0
0
BLOCK_RECORD
5
F5
100
AcDbSymbolTableRecord
100
AcDbBlockTableRecord
2
DimnDraft3D2
340
0
70
0
0
BLOCK_RECORD
5
FF
100
AcDbSymbolTableRecord
100
AcDbBlockTableRecord
2
DimnDraft3D3
340
0
70
0
0
BLOCK_RECORD
5
109
100
AcDbSymbolTableRecord
100
AcDbBlockTableRecord
2
DimnDraft3D4
340
0
70
0
0
BLOCK_RECORD
5
113
100
AcDbSymbolTableRecord
100
AcDbBlockTableRecord
2
DimnDraft3D5
340
0
70
0
0
BLOCK_RECORD
5
11D
100
AcDbSymbolTableRecord
100
AcDbBlockTableRecord
2
DimnDraft3D6
340
0
70
0
0
BLOCK_RECORD
5
128
100
AcDbSymbolTableRecord
100
AcDbBlockTableRecord
2
DimnDraft3D7
340
0
70
0
0
ENDTAB
0
ENDSEC
0
SECTION
2
BLOCKS
0
BLOCK
5
20
100
AcDbEntity
8
0
100
AcDbBlockBegin
2
*Model_Space
70
0
10
0
20
0
30
0
3
*Model_Space
0
ENDBLK
5
21
100
AcDbEntity
8
0
100
AcDbBlockEnd
0
BLOCK
5
1C
100
AcDbEntity
8
0
100
AcDbBlockBegin
2
*Paper_Space
70
0
10
0
20
0
30
0
3
*Paper_Space
0
ENDBLK
5
1D
100
AcDbEntity
8
0
100
AcDbBlockEnd
0
BLOCK
5
24
100
AcDbEntity
8
0
100
AcDbBlockBegin
2
*Paper_Space0
70
0
10
0
20
0
30
0
3
*Paper_Space0
0
ENDBLK
5
25
100
AcDbEntity
8
0
100
AcDbBlockEnd
0
BLOCK
5
F2
100
AcDbEntity
8
0
100
AcDbBlockBegin
2
DimnDraft3D1
70
0
10
0
20
0
30
0
3
DimnDraft3D1
0
MTEXT
5
EC
100
AcDbEntity
8
SK2
62
256
6
ByLayer
370
13
48
1
60
0
100
AcDbMText
10
29.868875
20
-17.673398
30
0
210
0
220
0
230
1
1
\W0.6713;72,13
40
3.5
41
0
44
1.084337
50
0
71
7
72
5
7
iso_b_vert
0
LINE
5
ED
100
AcDbEntity
8
SK2
62
256
6
ByLayer
370
13
48
1
60
0
100
AcDbLine
10
0
20
-1.5875
30
0
11
0
21
-20.548398
31
0
39
0
210
0
220
0
230
1
0
LINE
5
EE
100
AcDbEntity
8
SK2
62
256
6
ByLayer
370
13
48
1
60
0
100
AcDbLine
10
72.13
20
-9.9225
30
0
11
72.13
21
-20.548398
31
0
39
0
210
0
220
0
230
1
0
LINE
5
EF
100
AcDbEntity
8
SK2
62
256
6
ByLayer
370
13
48
1
60
0
100
AcDbLine
10
0
20
-18.548398
30
0
11
72.13
21
-18.548398
31
0
39
0
210
0
220
0
230
1
0
SOLID
5
F0
100
AcDbEntity
8
SK2
62
256
6
ByLayer
370
13
48
1
60
0
100
AcDbTrace
10
0
20
-18.548398
30
0
11
3.499998
21
-18.087615
31
0
12
3.500002
22
-19.009182
32
0
13
0
23
-18.548398
33
0
39
0
210
0
220
0
230
1
0
SOLID
5
F1
100
AcDbEntity
8
SK2
62
256
6
ByLayer
370
13
48
1
60
0
100
AcDbTrace
10
72.13
20
-18.548398
30
0
11
68.630002
21
-19.009182
31
0
12
68.629998
22
-18.087615
32
0
13
72.13
23
-18.548398
33
0
39
0
210
0
220
0
230
1
0
ENDBLK
5
F3
100
AcDbEntity
8
0
100
AcDbBlockEnd
0
BLOCK
5
FC
100
AcDbEntity
8
0
100
AcDbBlockBegin
2
DimnDraft3D2
70
0
10
0
20
0
30
0
3
DimnDraft3D2
0
MTEXT
5
F6
100
AcDbEntity
8
SK2
62
256
6
ByLayer
370
13
48
1
60
0
100
AcDbMText
10
6.652221
20
-36.817985
30
0
210
0
220
0
230
1
1
\W0.6930;123,00
40
3.5
41
0
44
1.084337
50
0
71
7
72
5
7
iso_b_vert
0
LINE
5
F7
100
AcDbEntity
8
SK2
62
256
6
ByLayer
370
13
48
1
60
0
100
AcDbLine
10
-48
20
-10.5875
30
0
11
-48
21
-39.692985
31
0
39
0
210
0
220
0
230
1
0
LINE
5
F8
100
AcDbEntity
8
SK2
62
256
6
ByLayer
370
13
48
1
60
0
100
AcDbLine
10
75
20
-1.5875
30
0
11
75
21
-39.692985
31
0
39
0
210
0
220
0
230
1
0
LINE
5
F9
100
AcDbEntity
8
SK2
62
256
6
ByLayer
370
13
48
1
60
0
100
AcDbLine
10
-48
20
-37.692985
30
0
11
75
21
-37.692985
31
0
39
0
210
0
220
0
230
1
0
SOLID
5
FA
100
AcDbEntity
8
SK2
62
256
6
ByLayer
370
13
48
1
60
0
100
AcDbTrace
10
-48
20
-37.692985
30
0
11
-44.500002
21
-37.232202
31
0
12
-44.499998
22
-38.153769
32
0
13
-48
23
-37.692985
33
0
39
0
210
0
220
0
230
1
0
SOLID
5
FB
100
AcDbEntity
8
SK2
62
256
6
ByLayer
370
13
48
1
60
0
100
AcDbTrace
10
75
20
-37.692985
30
0
11
71.500002
21
-38.153769
31
0
12
71.499998
22
-37.232202
32
0
13
75
23
-37.692985
33
0
39
0
210
0
220
0
230
1
0
ENDBLK
5
FD
100
AcDbEntity
8
0
100
AcDbBlockEnd
0
BLOCK
5
106
100
AcDbEntity
8
0
100
AcDbBlockBegin
2
DimnDraft3D3
70
0
10
0
20
0
30
0
3
DimnDraft3D3
0
MTEXT
5
100
100
AcDbEntity
8
SK2
62
256
6
ByLayer
370
13
48
1
60
0
100
AcDbMText
10
44.111316
20
20.819119
30
0
210
0
220
0
230
1
1
\W0.7317;52,88
40
3.5
41
0
44
1.084337
50
0
71
7
72
5
7
iso_b_vert
0
LINE
5
101
100
AcDbEntity
8
SK2
62
256
6
ByLayer
370
13
48
1
60
0
100
AcDbLine
10
22.12
20
9.9225
30
0
11
22.12
21
21.944119
31
0
39
0
210
0
220
0
230
1
0
LINE
5
102
100
AcDbEntity
8
SK2
62
256
6
ByLayer
370
13
48
1
60
0
100
AcDbLine
10
75
20
1.5875
30
0
11
75
21
21.944119
31
0
39
0
210
0
220
0
230
1
0
LINE
5
103
100
AcDbEntity
8
SK2
62
256
6
ByLayer
370
13
48
1
60
0
100
AcDbLine
10
22.12
20
19.944119
30
0
11
75
21
19.944119
31
0
39
0
210
0
220
0
230
1
0
SOLID
5
104
100
AcDbEntity
8
SK2
62
256
6
ByLayer
370
13
48
1
60
0
100
AcDbTrace
10
22.12
20
19.944119
30
0
11
25.619998
21
20.404903
31
0
12
25.620002
22
19.483335
32
0
13
22.12
23
19.944119
33
0
39
0
210
0
220
0
230
1
0
SOLID
5
105
100
AcDbEntity
8
SK2
62
256
6
ByLayer
370
13
48
1
60
0
100
AcDbTrace
10
75
20
19.944119
30
0
11
71.500002
21
19.483335
31
0
12
71.499998
22
20.404903
32
0
13
75
23
19.944119
33
0
39
0
210
0
220
0
230
1
0
ENDBLK
5
107
100
AcDbEntity
8
0
100
AcDbBlockEnd
0
BLOCK
5
110
100
AcDbEntity
8
0
100
AcDbBlockBegin
2
DimnDraft3D4
70
0
10
0
20
0
30
0
3
DimnDraft3D4
0
MTEXT
5
10A
100
AcDbEntity
8
SK2
62
256
6
ByLayer
370
13
48
1
60
0
100
AcDbMText
10
81.840636
20
-20.262503
30
0
210
0
220
0
230
1
1
\W0.7150;2,87
40
3.5
41
0
44
1.084337
50
0
71
7
72
5
7
iso_b_vert
0
LINE
5
10B
100
AcDbEntity
8
SK2
62
256
6
ByLayer
370
13
48
1
60
0
100
AcDbLine
10
75
20
-1.5875
30
0
11
75
21
-23.137503
31
0
39
0
210
0
220
0
230
1
0
LINE
5
10C
100
AcDbEntity
8
SK2
62
256
6
ByLayer
370
13
48
1
60
0
100
AcDbLine
10
72.13
20
-9.9225
30
0
11
72.13
21
-23.137503
31
0
39
0
210
0
220
0
230
1
0
LINE
5
10D
100
AcDbEntity
8
SK2
62
256
6
ByLayer
370
13
48
1
60
0
100
AcDbLine
10
63.38
20
-21.137503
30
0
11
88.997215
21
-21.137503
31
0
39
0
210
0
220
0
230
1
0
SOLID
5
10E
100
AcDbEntity
8
SK2
62
256
6
ByLayer
370
13
48
1
60
0
100
AcDbTrace
10
75
20
-21.137503
30
0
11
78.499998
21
-20.676719
31
0
12
78.500002
22
-21.598287
32
0
13
75
23
-21.137503
33
0
39
0
210
0
220
0
230
1
0
SOLID
5
10F
100
AcDbEntity
8
SK2
62
256
6
ByLayer
370
13
48
1
60
0
100
AcDbTrace
10
72.13
20
-21.137503
30
0
11
68.630002
21
-21.598287
31
0
12
68.629998
22
-20.676719
32
0
13
72.13
23
-21.137503
33
0
39
0
210
0
220
0
230
1
0
ENDBLK
5
111
100
AcDbEntity
8
0
100
AcDbBlockEnd
0
BLOCK
5
11A
100
AcDbEntity
8
0
100
AcDbBlockBegin
2
DimnDraft3D5
70
0
10
0
20
0
30
0
3
DimnDraft3D5
0
MTEXT
5
114
100
AcDbEntity
8
SK2
62
256
6
ByLayer
370
13
48
1
60
0
100
AcDbMText
10
4.009097
20
-26.468428
30
0
210
0
220
0
230
1
1
\W0.6440;120,13
40
3.5
41
0
44
1.084337
50
0
71
7
72
5
7
iso_b_vert
0
LINE
5
115
100
AcDbEntity
8
SK2
62
256
6
ByLayer
370
13
48
1
60
0
100
AcDbLine
10
-48
20
-10.5875
30
0
11
-48
21
-29.343428
31
0
39
0
210
0
220
0
230
1
0
LINE
5
116
100
AcDbEntity
8
SK2
62
256
6
ByLayer
370
13
48
1
60
0
100
AcDbLine
10
72.13
20
-9.9225
30
0
11
72.13
21
-29.343428
31
0
39
0
210
0
220
0
230
1
0
LINE
5
117
100
AcDbEntity
8
SK2
62
256
6
ByLayer
370
13
48
1
60
0
100
AcDbLine
10
-48
20
-27.343428
30
0
11
72.13
21
-27.343428
31
0
39
0
210
0
220
0
230
1
0
SOLID
5
118
100
AcDbEntity
8
SK2
62
256
6
ByLayer
370
13
48
1
60
0
100
AcDbTrace
10
-48
20
-27.343428
30
0
11
-44.500002
21
-26.882645
31
0
12
-44.499998
22
-27.804212
32
0
13
-48
23
-27.343428
33
0
39
0
210
0
220
0
230
1
0
SOLID
5
119
100
AcDbEntity
8
SK2
62
256
6
ByLayer
370
13
48
1
60
0
100
AcDbTrace
10
72.13
20
-27.343428
30
0
11
68.630002
21
-27.804212
31
0
12
68.629998
22
-26.882645
32
0
13
72.13
23
-27.343428
33
0
39
0
210
0
220
0
230
1
0
ENDBLK
5
11B
100
AcDbEntity
8
0
100
AcDbBlockEnd
0
BLOCK
5
125
100
AcDbEntity
8
0
100
AcDbBlockBegin
2
DimnDraft3D6
70
0
10
0
20
0
30
0
3
DimnDraft3D6
0
MTEXT
5
11E
100
AcDbEntity
8
SK2
62
256
6
ByLayer
370
13
48
1
60
0
100
AcDbMText
10
-58.375163
20
28.34918
30
0
210
0
220
0
230
1
1
\W0.6930;18,000
40
3.5
41
0
44
1.084337
50
90
71
7
72
5
7
iso_b_vert
0
MTEXT
5
11F
100
AcDbEntity
8
SK2
62
256
6
ByLayer
370
13
48
1
60
0
100
AcDbMText
10
-58.375163
20
23.126524
30
0
210
0
220
0
230
1
1
%%c
40
3.5
41
0
44
1.084337
50
90
71
7
72
5
7
iso_b_vert
0
LINE
5
120
100
AcDbEntity
8
SK2
62
256
6
ByLayer
370
13
48
1
60
0
100
AcDbLine
10
-49.5875
20
-9
30
0
11
-58.625163
21
-9
31
0
39
0
210
0
220
0
230
1
0
LINE
5
121
100
AcDbEntity
8
SK2
62
256
6
ByLayer
370
13
48
1
60
0
100
AcDbLine
10
-49.5875
20
9
30
0
11
-58.625163
21
9
31
0
39
0
210
0
220
0
230
1
0
LINE
5
122
100
AcDbEntity
8
SK2
62
256
6
ByLayer
370
13
48
1
60
0
100
AcDbLine
10
-56.625163
20
-9
30
0
11
-56.625163
21
39.862338
31
0
39
0
210
0
220
0
230
1
0
SOLID
5
123
100
AcDbEntity
8
SK2
62
256
6
ByLayer
370
13
48
1
60
0
100
AcDbTrace
10
-56.625163
20
-9
30
0
11
-57.085946
21
-5.500002
31
0
12
-56.164379
22
-5.499998
32
0
13
-56.625163
23
-9
33
0
39
0
210
0
220
0
230
1
0
SOLID
5
124
100
AcDbEntity
8
SK2
62
256
6
ByLayer
370
13
48
1
60
0
100
AcDbTrace
10
-56.625163
20
9
30
0
11
-56.164379
21
5.500002
31
0
12
-57.085946
22
5.499998
32
0
13
-56.625163
23
9
33
0
39
0
210
0
220
0
230
1
0
ENDBLK
5
126
100
AcDbEntity
8
0
100
AcDbBlockEnd
0
BLOCK
5
130
100
AcDbEntity
8
0
100
AcDbBlockBegin
2
DimnDraft3D7
70
0
10
0
20
0
30
0
3
DimnDraft3D7
0
MTEXT
5
129
100
AcDbEntity
8
2
62
256
6
ByLayer
370
13
48
1
60
0
100
AcDbMText
10
85.333343
20
26.277266
30
0
210
0
220
0
230
1
1
\W0.6930;16,670
40
3.5
41
0
44
1.084337
50
90
71
7
72
5
7
iso_b_vert
0
MTEXT
5
12A
100
AcDbEntity
8
2
62
256
6
ByLayer
370
13
48
1
60
0
100
AcDbMText
10
85.333343
20
21.05461
30
0
210
0
220
0
230
1
1
%%c
40
3.5
41
0
44
1.084337
50
90
71
7
72
5
7
iso_b_vert
0
LINE
5
12B
100
AcDbEntity
8
2
62
256
6
ByLayer
370
13
48
1
60
0
100
AcDbLine
10
73.7175
20
-8.335
30
0
11
89.083343
21
-8.335
31
0
39
0
210
0
220
0
230
1
0
LINE
5
12C
100
AcDbEntity
8
2
62
256
6
ByLayer
370
13
48
1
60
0
100
AcDbLine
10
73.7175
20
8.335
30
0
11
89.083343
21
8.335
31
0
39
0
210
0
220
0
230
1
0
LINE
5
12D
100
AcDbEntity
8
2
62
256
6
ByLayer
370
13
48
1
60
0
100
AcDbLine
10
87.083343
20
-8.335
30
0
11
87.083343
21
37.790424
31
0
39
0
210
0
220
0
230
1
0
SOLID
5
12E
100
AcDbEntity
8
2
62
256
6
ByLayer
370
13
48
1
60
0
100
AcDbTrace
10
87.083343
20
-8.335
30
0
11
86.622559
21
-4.835002
31
0
12
87.544126
22
-4.834998
32
0
13
87.083343
23
-8.335
33
0
39
0
210
0
220
0
230
1
0
SOLID
5
12F
100
AcDbEntity
8
2
62
256
6
ByLayer
370
13
48
1
60
0
100
AcDbTrace
10
87.083343
20
8.335
30
0
11
87.544126
21
4.835002
31
0
12
86.622559
22
4.834998
32
0
13
87.083343
23
8.335
33
0
39
0
210
0
220
0
230
1
0
ENDBLK
5
131
100
AcDbEntity
8
0
100
AcDbBlockEnd
0
ENDSEC
0
SECTION
2
ENTITIES
0
ARC
5
9D
100
AcDbEntity
8
1
62
256
6
ByLayer
370
18
48
1
60
0
100
AcDbCircle
39
0
10
0
20
8.2
30
0
40
0.8
210
0
220
0
230
1
100
AcDbArc
50
33.904897
51
90
0
ARC
5
9E
100
AcDbEntity
8
1
62
256
6
ByLayer
370
18
48
1
60
0
100
AcDbCircle
39
0
10
0
20
-8.2
30
0
40
0.8
210
0
220
0
230
1
100
AcDbArc
50
270
51
326.095103
0
ARC
5
9F
100
AcDbEntity
8
1
62
256
6
ByLayer
370
18
48
1
60
0
100
AcDbCircle
39
0
10
-1.327943
20
9.092506
30
0
40
0.8
210
0
220
0
230
-1
100
AcDbArc
50
269.965623
51
326.095103
0
ARC
5
A0
100
AcDbEntity
8
1
62
256
6
ByLayer
370
18
48
1
60
0
100
AcDbCircle
39
0
10
-1.327943
20
-9.092506
30
0
40
0.8
210
0
220
0
230
-1
100
AcDbArc
50
33.904897
51
90.034377
0
ELLIPSE
5
A1
100
AcDbEntity
8
1
62
256
6
ByLayer
370
13
48
1
60
0
100
AcDbEllipse
10
73.812254
20
3.726371
30
0
11
5.38873713679451
21
-2.77029223476558
31
0
210
0
220
0
230
-1
40
0.482873
41
1.53949524920543
42
1.87838547193049
0
ELLIPSE
5
A2
100
AcDbEntity
8
1
62
256
6
ByLayer
370
18
48
1
60
0
100
AcDbEllipse
10
75.00069
20
-0.001821
30
0
11
3.04833611319861
21
-8.33430525777398
31
0
210
0
220
0
230
-1
40
0.065672
41
-3.00326445521309
42
-2.91599793996062
0
ELLIPSE
5
A3
100
AcDbEntity
8
1
62
256
6
ByLayer
370
18
48
1
60
0
100
AcDbEllipse
10
75.000127
20
-0.090424
30
0
11
0.137829328588354
21
0.402528287133343
31
0
210
0
220
0
230
-1
40
0.052723
41
-2.3102281286974
42
-1.55569760128913
0
ELLIPSE
5
A4
100
AcDbEntity
8
1
62
256
6
ByLayer
370
18
48
1
60
0
100
AcDbEllipse
10
73.508454
20
3.860663
30
0
11
1.28003867695006
21
-3.49969055146876
31
0
210
0
220
0
230
-1
40
0.065672
41
-1.59704178669274
42
-0.761382749777159
0
ELLIPSE
5
A5
100
AcDbEntity
8
1
62
256
6
ByLayer
370
13
48
1
60
0
100
AcDbEllipse
10
72.813314
20
1.173162
30
0
11
0.133113781883896
21
0.268850741253519
31
0
210
0
220
0
230
1
40
0.40558
41
0.884485917130896
42
2.28074931872648
0
ELLIPSE
5
A6
100
AcDbEntity
8
1
62
256
6
ByLayer
370
18
48
1
60
0
100
AcDbEllipse
10
74.859318
20
0.160142
30
0
11
0.086880372456193
21
0.290676908829702
31
0
210
0
220
0
230
-1
40
0.467765
41
1.7188042999239
42
2.36053717389076
0
ELLIPSE
5
A7
100
AcDbEntity
8
1
62
256
6
ByLayer
370
18
48
1
60
0
100
AcDbEllipse
10
73.508454
20
-3.860663
30
0
11
1.28003867694972
21
3.49969055146747
31
0
210
0
220
0
230
-1
40
0.065672
41
0.761382749775669
42
1.597041786692
0
ELLIPSE
5
A8
100
AcDbEntity
8
1
62
256
6
ByLayer
370
18
48
1
60
0
100
AcDbEllipse
10
75.00069
20
0.00182
30
0
11
3.04833604617789
21
8.33430506738682
31
0
210
0
220
0
230
-1
40
0.065672
41
2.9159979373804
42
3.00326445364246
0
ELLIPSE
5
A9
100
AcDbEntity
8
1
62
256
6
ByLayer
370
13
48
1
60
0
100
AcDbEllipse
10
4.177849
20
-1.496085
30
0
11
-0.039603672784346
21
-0.0918234670549444
31
0
210
0
220
0
230
1
40
0.506604
41
-1.52984485609278
42
-0.201181694917447
0
ELLIPSE
5
AA
100
AcDbEntity
8
1
62
256
6
ByLayer
370
18
48
1
60
0
100
AcDbEllipse
10
75.000127
20
0.090424
30
0
11
0.137829328511548
21
-0.402528286930901
31
0
210
0
220
0
230
-1
40
0.052723
41
1.55569760095633
42
2.31022812872096
0
ELLIPSE
5
AB
100
AcDbEntity
8
1
62
256
6
ByLayer
370
13
48
1
60
0
100
AcDbEllipse
10
73.981713
20
3.860663
30
0
11
5.43672582774065
21
-2.45639449971988
31
0
210
0
220
0
230
-1
40
0.458769
41
1.57843245118957
42
1.92073676870913
0
ELLIPSE
5
AC
100
AcDbEntity
8
1
62
256
6
ByLayer
370
13
48
1
60
0
100
AcDbEllipse
10
4.250127
20
-1.531309
30
0
11
0.047347160594104
21
0.0880809081678665
31
0
210
0
220
0
230
1
40
0.090788
41
1.40172069495474
42
2.96326269707461
0
POINT
5
6C
100
AcDbEntity
8
81
62
256
6
ByLayer
370
18
48
1
60
0
100
AcDbPoint
10
75
20
0
30
0
39
0
210
0
220
0
230
1
50
360
0
POINT
5
6E
100
AcDbEntity
8
80
62
256
6
ByLayer
370
18
48
1
60
0
100
AcDbPoint
10
0
20
0
30
0
39
0
210
0
220
0
230
1
50
360
0
POINT
5
70
100
AcDbEntity
8
SK2
62
256
6
ByLayer
370
18
48
1
60
1
100
AcDbPoint
10
-48
20
-9
30
0
39
0
210
0
220
0
230
1
50
360
0
POINT
5
72
100
AcDbEntity
8
SK2
62
256
6
ByLayer
370
18
48
1
60
1
100
AcDbPoint
10
-48
20
9
30
0
39
0
210
0
220
0
230
1
50
360
0
POINT
5
73
100
AcDbEntity
8
2
62
256
6
ByLayer
370
18
48
1
60
1
100
AcDbPoint
10
72.13
20
-8.335
30
0
39
0
210
0
220
0
230
1
50
360
0
POINT
5
75
100
AcDbEntity
8
2
62
256
6
ByLayer
370
18
48
1
60
1
100
AcDbPoint
10
72.13
20
8.335
30
0
39
0
210
0
220
0
230
1
50
360
0
SPLINE
5
AD
100
AcDbEntity
8
1
62
256
6
ByLayer
370
18
48
1
60
0
100
AcDbSpline
70
4
71
1
72
4
73
2
40
0
40
0
40
1
40
1
41
1
10
4.27744998425146
20
-7.93477513447706
30
0
41
1
10
4.30834519651557
20
-7.93519018044466
30
0
0
SPLINE
5
AE
100
AcDbEntity
8
1
62
256
6
ByLayer
370
18
48
1
60
0
100
AcDbSpline
70
4
71
1
72
4
73
2
40
0
40
0
40
1
40
1
41
1
10
4.30797330964535
20
7.93518518452018
30
0
41
1
10
4.2505322742818
20
7.93441352223482
30
0
0
SPLINE
5
AF
100
AcDbEntity
8
1
62
256
6
ByLayer
370
18
48
1
60
0
100
AcDbSpline
70
4
71
2
72
6
73
3
40
0
40
0
40
0
40
1
40
1
40
1
41
1
10
70.5839907706938
20
-7.97580554764025
30
0
41
1
10
71.3250396311981
20
-7.97427404041781
30
0
41
1
10
72.0639662053267
20
-7.97792080579828
30
0
0
SPLINE
5
B0
100
AcDbEntity
8
1
62
256
6
ByLayer
370
18
48
1
60
0
100
AcDbSpline
70
4
71
3
72
38
73
34
40
0
40
0
40
0
40
0
40
0.0346141849253422
40
0.0659741831068028
40
0.0893937141829765
40
0.107212326620817
40
0.124215089791781
40
0.156459977205115
40
0.192387218075483
40
0.228792748129475
40
0.263150304580986
40
0.293550221679247
40
0.325174477136535
40
0.371214388980411
40
0.419677612487086
40
0.464583417925617
40
0.489105786921584
40
0.517477928322562
40
0.549490916973776
40
0.579234979334999
40
0.595474095123
40
0.60875012378216
40
0.626224713863218
40
0.646672719757669
40
0.671085027196879
40
0.731542445667497
40
0.780499710097642
40
0.826562642491019
40
0.864567750091658
40
0.904258440766469
40
0.948993997895832
40
0.983942608456831
40
1
40
1
40
1
40
1
41
1
10
24.4646389765455
20
-7.94785918705975
30
0
41
1
10
24.7383368201837
20
-7.94791045457762
30
0
41
1
10
25.2613057694238
20
-7.94801354134205
30
0
41
1
10
25.9713952639971
20
-7.94730276233736
30
0
41
1
10
26.5530264392588
20
-7.94796102477349
30
0
41
1
10
27.0062430322616
20
-7.94929601721972
30
0
41
1
10
27.5375292041887
20
-7.9494090381159
30
0
41
1
10
28.2174253139186
20
-7.94945191099993
30
0
41
1
10
29.0501105832982
20
-7.95103018635911
30
0
41
1
10
29.9002960993891
20
-7.95143119404378
30
0
41
1
10
30.7062942202945
20
-7.95129359033081
30
0
41
1
10
31.4741935346105
20
-7.95094440594747
30
0
41
1
10
32.3352155332612
20
-7.95055608534264
30
0
41
1
10
33.3400931240399
20
-7.95418954055594
30
0
41
1
10
34.450898037154
20
-7.95346244063723
30
0
41
1
10
35.3900231602425
20
-7.95306499687126
30
0
41
1
10
36.1696521837392
20
-7.95293804962469
30
0
41
1
10
36.84450206321
20
-7.95377995278963
30
0
41
1
10
37.5695954495902
20
-7.95760879914658
30
0
41
1
10
38.1676021539789
20
-7.95521415961713
30
0
41
1
10
38.624193711313
20
-7.95054986104492
30
0
41
1
10
39.0077585839273
20
-7.95045190973102
30
0
41
1
10
39.3791345798969
20
-7.95507350442949
30
0
41
1
10
39.87310495777
20
-7.95470878677557
30
0
41
1
10
40.7109210542637
20
-7.95455739929241
30
0
41
1
10
41.7780474066841
20
-7.95945092545122
30
0
41
1
10
43.0161803996768
20
-7.95779418324497
30
0
41
1
10
44.0774345603129
20
-7.95805434753265
30
0
41
1
10
45.0591717041028
20
-7.95754879187544
30
0
41
1
10
46.0363187133311
20
-7.95938979801269
30
0
41
1
10
46.9831256505404
20
-7.95979063058204
30
0
41
1
10
47.7333732364981
20
-7.96011435263151
30
0
41
1
10
48.1299025282214
20
-7.95771158214191
30
0
41
1
10
48.2544227826499
20
-7.95673868605172
30
0
0
SPLINE
5
B1
100
AcDbEntity
8
1
62
256
6
ByLayer
370
18
48
1
60
0
100
AcDbSpline
70
4
71
3
72
8
73
4
40
0
40
0
40
0
40
0
40
1
40
1
40
1
40
1
41
1
10
48.4782097750526
20
-7.95476217340294
30
0
41
1
10
48.5515848734272
20
-7.95404187283791
30
0
41
1
10
48.6248509341409
20
-7.95325407491853
30
0
41
1
10
48.6980081261945
20
-7.95240678123275
30
0
0
SPLINE
5
B2
100
AcDbEntity
8
1
62
256
6
ByLayer
370
18
48
1
60
0
100
AcDbSpline
70
4
71
3
72
34
73
30
40
0
40
0
40
0
40
0
40
0.0067917203080789
40
0.0372755241330278
40
0.0673157268744007
40
0.0969583195418199
40
0.125603758941883
40
0.176382527933768
40
0.224298503939393
40
0.295299820888087
40
0.373114887708376
40
0.415388497371299
40
0.451692888120394
40
0.466761993488439
40
0.480570433520463
40
0.496191816079476
40
0.515299747122503
40
0.553214965958005
40
0.593683288997026
40
0.628463214704349
40
0.659653504279272
40
0.693304659479781
40
0.729458772617991
40
0.785466764896755
40
0.837528246128046
40
0.88524839256064
40
0.925414010057119
40
0.968356348064192
40
1
40
1
40
1
40
1
41
1
10
48.6554388192717
20
7.95346506673843
30
0
41
1
10
48.6098518880258
20
7.95377558545889
30
0
41
1
10
48.3600597230313
20
7.95543787310206
30
0
41
1
10
47.9214833916621
20
7.95970139825357
30
0
41
1
10
47.3201854449577
20
7.96004673826533
30
0
41
1
10
46.7292999037358
20
7.95965342781753
30
0
41
1
10
45.994160828434
20
7.9592445113982
30
0
41
1
10
45.1294430182735
20
7.95761888298682
30
0
41
1
10
43.9858095476069
20
7.95796055735295
30
0
41
1
10
42.6517156505174
20
7.95839302104227
30
0
41
1
10
41.3580374488552
20
7.95742497290081
30
0
41
1
10
40.2997362756649
20
7.95431029078381
30
0
41
1
10
39.6640196042663
20
7.95500655859027
30
0
41
1
10
39.2386230899133
20
7.95381036328746
30
0
41
1
10
38.9618071796993
20
7.95029245861642
30
0
41
1
10
38.6238402586741
20
7.95060724948914
30
0
41
1
10
38.1490044452001
20
7.95538568838862
30
0
41
1
10
37.5108113646716
20
7.95764613940162
30
0
41
1
10
36.7376843566166
20
7.95324675745917
30
0
41
1
10
36.0185488255661
20
7.95296766630349
30
0
41
1
10
35.343636536744
20
7.95309595715108
30
0
41
1
10
34.6598580338751
20
7.95336969706631
30
0
41
1
10
33.8079182774153
20
7.95405448078725
30
0
41
1
10
32.8313373398101
20
7.95182071596633
30
0
41
1
10
31.7764516446014
20
7.9505555603501
30
0
41
1
10
30.8288496132071
20
7.95131289576875
30
0
41
1
10
29.9429744847087
20
7.9514077921296
30
0
41
1
10
29.1659226385474
20
7.95115525953926
30
0
41
1
10
28.6609846473677
20
7.95023097856154
30
0
41
1
10
28.4467101450334
20
7.94994154818375
30
0
0
SPLINE
5
B3
100
AcDbEntity
8
1
62
256
6
ByLayer
370
18
48
1
60
0
100
AcDbSpline
70
4
71
3
72
10
73
6
40
0
40
0
40
0
40
0
40
0.0725934640387726
40
0.561352469005076
40
1
40
1
40
1
40
1
41
1
10
49.6121919986367
20
-1.95291707241438
30
0
41
1
10
49.6121632805663
20
-1.95290415711884
30
0
41
1
10
49.6130889453623
20
-1.95341782191932
30
0
41
1
10
49.6361466492357
20
-1.96579464586938
30
0
41
1
10
49.6612595089762
20
-1.97964575575466
30
0
41
1
10
49.6762163772774
20
-1.98790061496126
30
0
0
SPLINE
5
B4
100
AcDbEntity
8
1
62
256
6
ByLayer
370
18
48
1
60
0
100
AcDbSpline
70
4
71
3
72
14
73
10
40
0
40
0
40
0
40
0
40
0.36239942540305
40
0.36239942540305
40
0.839556091138553
40
0.839556091138553
40
0.958845257572429
40
0.958845257572429
40
1
40
1
40
1
40
1
41
1
10
24.4527621373661
20
-7.94790770399916
30
0
41
1
10
23.3760685428235
20
-7.94590928674774
30
0
41
1
10
22.3054903002288
20
-7.87980854855485
30
0
41
1
10
19.8256986324843
20
-7.58324871138271
30
0
41
1
10
18.4168900887045
20
-7.30746033788469
30
0
41
1
10
16.6397836595754
20
-6.83650220371746
30
0
41
1
10
16.2829185886857
20
-6.73580746147857
30
0
41
1
10
15.8037613488289
20
-6.59268162501499
30
0
41
1
10
15.6809729126883
20
-6.55530446126153
30
0
41
1
10
15.5582921247022
20
-6.51727703741659
30
0
0
SPLINE
5
B5
100
AcDbEntity
8
1
62
256
6
ByLayer
370
13
48
1
60
0
100
AcDbSpline
70
4
71
3
72
18
73
14
40
0
40
0
40
0
40
0
40
0.0614735013949071
40
0.0614735013949071
40
0.249178801115925
40
0.249178801115925
40
0.624589400557962
40
0.624589400557962
40
0.812294700278981
40
0.812294700278981
40
0.906147350139491
40
0.906147350139491
40
1
40
1
40
1
40
1
41
1
10
15.5582921247836
20
-6.51727703744183
30
0
41
1
10
15.3253762530851
20
-6.44507999079229
30
0
41
1
10
15.0928483991813
20
-6.37053908151216
30
0
41
1
10
14.1515970193471
20
-6.0592895336402
30
0
41
1
10
13.4454852732414
20
-5.80391762829942
30
0
41
1
10
11.3309434887319
20
-4.98210663112573
30
0
41
1
10
9.92700524184244
20
-4.35936147107788
30
0
41
1
10
7.8089946125078
20
-3.34399810910753
30
0
41
1
10
7.10110568298413
20
-2.99178655678708
30
0
41
1
10
6.03399465999973
20
-2.44673875730626
30
0
41
1
10
5.67701084769681
20
-2.26213622691091
30
0
41
1
10
4.96361751184608
20
-1.88964613615619
30
0
41
1
10
4.60698413496289
20
-1.70164577962555
30
0
41
1
10
4.2502112326259
20
-1.51224987244771
30
0
0
SPLINE
5
B6
100
AcDbEntity
8
1
62
256
6
ByLayer
370
18
48
1
60
0
100
AcDbSpline
70
4
71
3
72
20
73
16
40
0
40
0
40
0
40
0
40
0.125
40
0.125
40
0.250000000000001
40
0.250000000000001
40
0.500000000000001
40
0.500000000000001
40
0.625000000000001
40
0.625000000000001
40
0.750000000000001
40
0.750000000000001
40
0.875000000000001
40
0.875000000000001
40
1
40
1
40
1
40
1
41
1
10
73.7046153844664
20
4.0365371886287
30
0
41
1
10
73.6401186357655
20
4.21017936501801
30
0
41
1
10
73.5755693980489
20
4.38370571352343
30
0
41
1
10
73.4464095952139
20
4.73026155205898
30
0
41
1
10
73.3817970449221
20
4.90334005672102
30
0
41
1
10
73.1879359542414
20
5.42243240376507
30
0
41
1
10
73.0586373830308
20
5.76814066511864
30
0
41
1
10
72.8644455760806
20
6.28521304498824
30
0
41
1
10
72.7996712554116
20
6.45721697530647
30
0
41
1
10
72.670151445393
20
6.80101439288595
30
0
41
1
10
72.605390840273
20
6.97276165736142
30
0
41
1
10
72.4758661851817
20
7.31551101399194
30
0
41
1
10
72.4111021884436
20
7.48652462128288
30
0
41
1
10
72.2815667029122
20
7.82693119345612
30
0
41
1
10
72.2167972710628
20
7.99676910569926
30
0
41
1
10
72.1520254192228
20
8.16608353818299
30
0
0
SPLINE
5
B7
100
AcDbEntity
8
1
62
256
6
ByLayer
370
18
48
1
60
0
100
AcDbSpline
70
4
71
3
72
8
73
4
40
0
40
0
40
0
40
0
40
1
40
1
40
1
40
1
41
1
10
72.1780978158029
20
-7.92971469723906
30
0
41
1
10
72.1454377228125
20
-7.96088066707335
30
0
41
1
10
72.1182988446724
20
-7.97657843464245
30
0
41
1
10
72.0967755021903
20
-7.97654375134013
30
0
0
SPLINE
5
B8
100
AcDbEntity
8
1
62
256
6
ByLayer
370
18
48
1
60
0
100
AcDbSpline
70
4
71
3
72
10
73
6
40
0
40
0
40
0
40
0
40
0.632106265120066
40
0.632106265120066
40
1
40
1
40
1
40
1
41
1
10
72.0569422424043
20
8.28047826280161
30
0
41
1
10
71.7029571733374
20
8.30324083582198
30
0
41
1
10
71.3490064781897
20
8.31874283584003
30
0
41
1
10
70.788786550476
20
8.33175732193422
30
0
41
1
10
70.5825624789816
20
8.33407690216771
30
0
41
1
10
70.3763977114365
20
8.33393178891882
30
0
0
SPLINE
5
B9
100
AcDbEntity
8
1
62
256
6
ByLayer
370
18
48
1
60
0
100
AcDbSpline
70
4
71
3
72
36
73
32
40
0
40
0
40
0
40
0
40
0.0400560294740426
40
0.0400560294740426
40
0.127323663158221
40
0.127323663158221
40
0.2145912968424
40
0.2145912968424
40
0.25822511368449
40
0.25822511368449
40
0.30185893052658
40
0.30185893052658
40
0.389126564210759
40
0.389126564210759
40
0.432760381052848
40
0.432760381052848
40
0.476394197894938
40
0.476394197894938
40
0.563661831579115
40
0.563661831579115
40
0.607295648421204
40
0.607295648421204
40
0.650929465263293
40
0.650929465263293
40
0.738197098947469
40
0.738197098947469
40
0.781830915789558
40
0.781830915789558
40
0.825464732631647
40
0.825464732631647
40
1
40
1
40
1
40
1
41
1
10
28.4618777321952
20
-7.97339678074934
30
0
41
1
10
28.1369290539579
20
-8.02497003951191
30
0
41
1
10
27.8115674333886
20
-8.07074235367651
30
0
41
1
10
26.7773226479044
20
-8.19714210078487
30
0
41
1
10
26.0702379255416
20
-8.25511001591204
30
0
41
1
10
24.6561731956219
20
-8.31336963806049
30
0
41
1
10
23.9493058477175
20
-8.31365927846946
30
0
41
1
10
22.886358673498
20
-8.27049970161551
30
0
41
1
10
22.5316036605416
20
-8.24883613945403
30
0
41
1
10
21.8234794722482
20
-8.19122966004474
30
0
41
1
10
21.4697741758896
20
-8.15527533957263
30
0
41
1
10
20.4089843900117
20
-8.02628690471326
30
0
41
1
10
19.7023007783029
20
-7.91210121570484
30
0
41
1
10
18.6403495590224
20
-7.69974917848668
30
0
41
1
10
18.285753687382
20
-7.62206398225422
30
0
41
1
10
17.5767927280907
20
-7.453535621177
30
0
41
1
10
17.2227716215841
20
-7.36278584013291
30
0
41
1
10
16.1613694440727
20
-7.07177234716286
30
0
41
1
10
15.454727292606
20
-6.85267691723331
30
0
41
1
10
14.3934909839394
20
-6.4890328024691
30
0
41
1
10
14.0395166613155
20
-6.3620030555083
30
0
41
1
10
13.3306521886297
20
-6.09677617695027
30
0
41
1
10
12.9758535789504
20
-5.95860188925153
30
0
41
1
10
11.9134065986748
20
-5.52963940478023
30
0
41
1
10
11.206574578298
20
-5.22370559950355
30
0
41
1
10
10.1455076760652
20
-4.73902017957084
30
0
41
1
10
9.79166899538129
20
-4.57318380138835
30
0
41
1
10
9.08329940113063
20
-4.23351406156161
30
0
41
1
10
8.72843915332467
20
-4.05951229558974
30
0
41
1
10
6.95633345951259
20
-3.17375882547549
30
0
41
1
10
5.54556509204079
20
-2.41402441435724
30
0
41
1
10
4.12699572612695
20
-1.62773377629182
30
0
0
SPLINE
5
BA
100
AcDbEntity
8
1
62
256
6
ByLayer
370
18
48
1
60
0
100
AcDbSpline
70
4
71
3
72
18
73
14
40
0
40
0
40
0
40
0
40
0.235208362575265
40
0.235208362575265
40
0.43223171118667
40
0.43223171118667
40
0.530743385492373
40
0.530743385492373
40
0.629255059798077
40
0.629255059798077
40
0.826278408409484
40
0.826278408409484
40
1
40
1
40
1
40
1
41
1
10
10.4235745647055
20
-6.70125525534184
30
0
41
1
10
9.92647939230949
20
-6.86142255216808
30
0
41
1
10
9.43226734988133
20
-7.01035265944421
30
0
41
1
10
8.52914168729211
20
-7.25885800696284
30
0
41
1
10
8.11954142896553
20
-7.36180417108005
30
0
41
1
10
7.50863079831708
20
-7.50143975233868
30
0
41
1
10
7.3052540997719
20
-7.54559404584305
30
0
41
1
10
6.90162600351647
20
-7.62777896017761
30
0
41
1
10
6.70156606389915
20
-7.66582235837265
30
0
41
1
10
6.10734147266689
20
-7.77021303008354
30
0
41
1
10
5.71894194763604
20
-7.82703157864418
30
0
41
1
10
5.00915070234441
20
-7.90380848784824
30
0
41
1
10
4.68506010276479
20
-7.92750065400875
30
0
41
1
10
4.37468155152212
20
-7.93422559333078
30
0
0
SPLINE
5
BB
100
AcDbEntity
8
1
62
256
6
ByLayer
370
18
48
1
60
0
100
AcDbSpline
70
4
71
3
72
8
73
4
40
0
40
0
40
0
40
0
40
1
40
1
40
1
40
1
41
1
10
4.30703734145132
20
-7.93542380574877
30
0
41
1
10
4.28815110946829
20
-7.93568269181111
30
0
41
1
10
4.26931774250673
20
-7.93587664589847
30
0
41
1
10
4.25053843827897
20
-7.93600459183264
30
0
0
SPLINE
5
BC
100
AcDbEntity
8
1
62
256
6
ByLayer
370
18
48
1
60
0
100
AcDbSpline
70
4
71
3
72
16
73
12
40
0
40
0
40
0
40
0
40
0.250000000000005
40
0.250000000000005
40
0.50000000000001
40
0.50000000000001
40
0.625000000000008
40
0.625000000000008
40
0.750000000000007
40
0.750000000000007
40
1
40
1
40
1
40
1
41
1
10
4.00000000141316
20
8.18532086846145
30
0
41
1
10
4.00000000141316
20
8.16011532922221
30
0
41
1
10
4.00367611870232
20
8.13374087445149
30
0
41
1
10
4.02323641150247
20
8.0768329260035
30
0
41
1
10
4.03954018857249
20
8.04618423587661
30
0
41
1
10
4.07773605198923
20
8.00414027319667
30
0
41
1
10
4.09283684107083
20
7.9908820760167
30
0
41
1
10
4.12537765253958
20
7.96869155860534
30
0
41
1
10
4.14238349149176
20
7.95997469877281
30
0
41
1
10
4.19190485293331
20
7.94059337777176
30
0
41
1
10
4.22264409691707
20
7.93619463974477
30
0
41
1
10
4.25053843827916
20
7.93600459183241
30
0
0
SPLINE
5
BD
100
AcDbEntity
8
1
62
256
6
ByLayer
370
18
48
1
60
0
100
AcDbSpline
70
4
71
3
72
34
73
30
40
0
40
0
40
0
40
0
40
0.0625000000000011
40
0.0625000000000011
40
0.093750000000002
40
0.093750000000002
40
0.125000000000003
40
0.125000000000003
40
0.250000000000004
40
0.250000000000004
40
0.281250000000004
40
0.281250000000004
40
0.312500000000004
40
0.312500000000004
40
0.375000000000003
40
0.375000000000003
40
0.437500000000001
40
0.437500000000001
40
0.5
40
0.5
40
0.624999999999999
40
0.624999999999999
40
0.749999999999999
40
0.749999999999999
40
0.874999999999998
40
0.874999999999998
40
0.937499999999999
40
0.937499999999999
40
1
40
1
40
1
40
1
41
1
10
63.4619348016423
20
3.95405043936984
30
0
41
1
10
63.481767475308
20
3.73791343291759
30
0
41
1
10
63.5183647270587
20
3.51847926711227
30
0
41
1
10
63.5970686413238
20
3.18464559273951
30
0
41
1
10
63.6272791537468
20
3.07258574952721
30
0
41
1
10
63.6955140769703
20
2.84692927118419
30
0
41
1
10
63.7336385412492
20
2.73314974215123
30
0
41
1
10
63.9396689177416
20
2.17022326695815
30
0
41
1
10
64.1551601982682
20
1.7310189890467
30
0
41
1
10
64.472746881679
20
1.19261325104989
30
0
41
1
10
64.5386765322058
20
1.0855670483221
30
0
41
1
10
64.6736666744934
20
0.874756391319835
30
0
41
1
10
64.7429031444644
20
0.770688280308235
30
0
41
1
10
64.9553874530076
20
0.462150584610839
30
0
41
1
10
65.1033918713154
20
0.261333570211377
30
0
41
1
10
65.4102669729195
20
-0.131956270362735
30
0
41
1
10
65.5691347765031
20
-0.324431307864444
30
0
41
1
10
65.8964761387613
20
-0.702005138260461
30
0
41
1
10
66.0650030763143
20
-0.887062941596184
30
0
41
1
10
66.5849750708028
20
-1.43118538514028
30
0
41
1
10
66.9432425106499
20
-1.77263104745197
30
0
41
1
10
67.6760251842075
20
-2.42280997474285
30
0
41
1
10
68.0508995432252
20
-2.73145287466323
30
0
41
1
10
68.8150363627682
20
-3.3208435657011
30
0
41
1
10
69.204461917729
20
-3.60127515547535
30
0
41
1
10
69.7981495656557
20
-4.00340868726229
30
0
41
1
10
69.9977492580222
20
-4.13446578629646
30
0
41
1
10
70.3982395229919
20
-4.38980506148837
30
0
41
1
10
70.5993285640711
20
-4.5142057723254
30
0
41
1
10
70.8012203991209
20
-4.63549681617963
30
0
0
SPLINE
5
BE
100
AcDbEntity
8
1
62
256
6
ByLayer
370
18
48
1
60
0
100
AcDbSpline
70
4
71
3
72
44
73
40
40
0
40
0
40
0
40
0
40
0.124999999999998
40
0.124999999999998
40
0.249999999999997
40
0.249999999999997
40
0.312499999999996
40
0.312499999999996
40
0.374999999999995
40
0.374999999999995
40
0.437499999999994
40
0.437499999999994
40
0.499999999999993
40
0.499999999999993
40
0.624999999999992
40
0.624999999999992
40
0.74999999999999
40
0.74999999999999
40
0.78124999999999
40
0.78124999999999
40
0.812499999999989
40
0.812499999999989
40
0.843749999999989
40
0.843749999999989
40
0.85937499999999
40
0.85937499999999
40
0.874999999999991
40
0.874999999999991
40
0.890624999999992
40
0.890624999999992
40
0.906249999999993
40
0.906249999999993
40
0.921874999999994
40
0.921874999999994
40
0.937499999999995
40
0.937499999999995
40
0.968749999999998
40
0.968749999999998
40
1
40
1
40
1
40
1
41
1
10
63.4619348016421
20
3.95405043936984
30
0
41
1
10
63.7998091370935
20
3.68769594713743
30
0
41
1
10
64.142995612359
20
3.43198780838574
30
0
41
1
10
64.8370038494705
20
2.94847285193435
30
0
41
1
10
65.1882685965338
20
2.72015265302673
30
0
41
1
10
65.7221339763452
20
2.39964902906436
30
0
41
1
10
65.9014615619828
20
2.29637223482874
30
0
41
1
10
66.2608862870329
20
2.09851853886846
30
0
41
1
10
66.4411125171155
20
2.00386266000322
30
0
41
1
10
66.8026386858814
20
1.82347494545039
30
0
41
1
10
66.9839374472553
20
1.73773332464961
30
0
41
1
10
67.3476779529949
20
1.57574989478925
30
0
41
1
10
67.5304371046225
20
1.4993840020928
30
0
41
1
10
68.0779644024786
20
1.28664036381227
30
0
41
1
10
68.4415196460159
20
1.16662491824886
30
0
41
1
10
69.1652864883715
20
0.976450025875494
30
0
41
1
10
69.5267565695438
20
0.906166242947677
30
0
41
1
10
69.9699839563066
20
0.856545724525915
30
0
41
1
10
70.0575595856925
20
0.85148428044738
30
0
41
1
10
70.2290127218641
20
0.852293687833082
30
0
41
1
10
70.3132781247954
20
0.858151907490537
30
0
41
1
10
70.474817679736
20
0.884144996996326
30
0
41
1
10
70.5519509551846
20
0.904077245147022
30
0
41
1
10
70.6595771529149
20
0.949374177665192
30
0
41
1
10
70.6942314573059
20
0.967271952094961
30
0
41
1
10
70.7592464235643
20
1.00903823950045
30
0
41
1
10
70.7893976197823
20
1.03262607620468
30
0
41
1
10
70.8448245939781
20
1.0853980585901
30
0
41
1
10
70.8701018397171
20
1.11458051948358
30
0
41
1
10
70.9152576314142
20
1.17914240541981
30
0
41
1
10
70.9348919802754
20
1.21431934536801
30
0
41
1
10
70.9671303907198
20
1.28878578219908
30
0
41
1
10
70.9799166870745
20
1.32830810836964
30
0
41
1
10
70.998731341847
20
1.41199424619768
30
0
41
1
10
71.0047505466566
20
1.45654918797643
30
0
41
1
10
71.0124934060977
20
1.59322798830257
30
0
41
1
10
71.0041574764776
20
1.68928430713353
30
0
41
1
10
70.9674156297871
20
1.88615198799258
30
0
41
1
10
70.9396694656189
20
1.98562406396587
30
0
41
1
10
70.905833759709
20
2.08515842897052
30
0
0
SPLINE
5
BF
100
AcDbEntity
8
1
62
256
6
ByLayer
370
18
48
1
60
0
100
AcDbSpline
70
4
71
3
72
24
73
20
40
0
40
0
40
0
40
0
40
0.1474198740695
40
0.1474198740695
40
0.351645893469331
40
0.351645893469331
40
0.453758903169246
40
0.453758903169246
40
0.555871912869161
40
0.555871912869161
40
0.760097932268991
40
0.760097932268991
40
0.862210941968907
40
0.862210941968907
40
0.913267446818865
40
0.913267446818865
40
0.964323951668822
40
0.964323951668822
40
1
40
1
40
1
40
1
41
1
10
22.9948006824775
20
8.30536486962396
30
0
41
1
10
22.6672860088111
20
8.18062167876275
30
0
41
1
10
22.3412728979075
20
8.04308824800449
30
0
41
1
10
21.5657163377335
20
7.68208493786332
30
0
41
1
10
21.116995244328
20
7.44582734271396
30
0
41
1
10
20.440854055705
20
7.05359129807289
30
0
41
1
10
20.2140128310136
20
6.91600673398321
30
0
41
1
10
19.7657637841596
20
6.63464341566259
30
0
41
1
10
19.5436651751859
20
6.4905207057289
30
0
41
1
10
18.8811807271415
20
6.05121132092668
30
0
41
1
10
18.4445779604865
20
5.74912430092991
30
0
41
1
10
17.788270906482
20
5.2956330395327
30
0
41
1
10
17.5692734988618
20
5.14440156751934
30
0
41
1
10
17.2393695000026
20
4.91905079189672
30
0
41
1
10
17.1289926996955
20
4.84406639384443
30
0
41
1
10
16.909098547532
20
4.69586085538322
30
0
41
1
10
16.7994491992639
20
4.62254807589176
30
0
41
1
10
16.6135394438293
20
4.49951818650055
30
0
41
1
10
16.5371683206336
20
4.44934883959237
30
0
41
1
10
16.4608721038701
20
4.39964544232899
30
0
0
SPLINE
5
C0
100
AcDbEntity
8
1
62
256
6
ByLayer
370
18
48
1
60
0
100
AcDbSpline
70
4
71
3
72
12
73
8
40
0
40
0
40
0
40
0
40
0.249999999999999
40
0.249999999999999
40
0.499999999999998
40
0.499999999999998
40
1
40
1
40
1
40
1
41
1
10
4.12699572612695
20
-1.62773377629182
30
0
41
1
10
4.1076577691733
20
-1.61701505158416
30
0
41
1
10
4.09018229905223
20
-1.60404827188495
30
0
41
1
10
4.05884880134556
20
-1.57373579620878
30
0
41
1
10
4.04514726382723
20
-1.5563984411537
30
0
41
1
10
4.01201858957589
20
-1.50063369813427
30
0
41
1
10
4.00000000141313
20
-1.4575190583613
30
0
41
1
10
4.00000000141313
20
-1.41374406359222
30
0
0
SPLINE
5
C1
100
AcDbEntity
8
1
62
256
6
ByLayer
370
18
48
1
60
0
100
AcDbSpline
70
4
71
3
72
10
73
6
40
0
40
0
40
0
40
0
40
0.5
40
0.5
40
1
40
1
40
1
40
1
41
1
10
4.00000000141318
20
-1.39249337850006
30
0
41
1
10
4.00000000141318
20
-1.42940916395648
30
0
41
1
10
4.01131615223409
20
-1.46717423857723
30
0
41
1
10
4.05482627837884
20
-1.5328532491373
30
0
41
1
10
4.08755046964134
20
-1.56204682732394
30
0
41
1
10
4.12974873842285
20
-1.5820469049296
30
0
0
SPLINE
5
C2
100
AcDbEntity
8
1
62
256
6
ByLayer
370
18
48
1
60
0
100
AcDbSpline
70
4
71
3
72
18
73
14
40
0
40
0
40
0
40
0
40
0.125000000000002
40
0.125000000000002
40
0.250000000000004
40
0.250000000000004
40
0.375000000000006
40
0.375000000000006
40
0.500000000000008
40
0.500000000000008
40
0.750000000000004
40
0.750000000000004
40
1
40
1
40
1
40
1
41
1
10
4.25053843827925
20
-7.93600459183244
30
0
41
1
10
4.23662169751032
20
-7.93609940846551
30
0
41
1
10
4.22216609316519
20
-7.9372831123539
30
0
41
1
10
4.19171526473627
20
-7.94270373866959
30
0
41
1
10
4.17555450564183
20
-7.94701120191738
30
0
41
1
10
4.14268739001957
20
-7.95983728141155
30
0
41
1
10
4.12564144442479
20
-7.96855799179159
30
0
41
1
10
4.09337205786937
20
-7.99047190941388
30
0
41
1
10
4.07829098267135
20
-8.00358562849195
30
0
41
1
10
4.03941010206063
20
-8.04621714137022
30
0
41
1
10
4.02340916838705
20
-8.07649734695016
30
0
41
1
10
4.00379613268368
20
-8.13322715876132
30
0
41
1
10
4.00000000141318
20
-8.16008712197461
30
0
41
1
10
4.00000000141318
20
-8.18532086846147
30
0
0
SPLINE
5
C3
100
AcDbEntity
8
1
62
256
6
ByLayer
370
18
48
1
60
0
100
AcDbSpline
70
4
71
3
72
18
73
14
40
0
40
0
40
0
40
0
40
0.0522278535685131
40
0.0522278535685131
40
0.262400258147143
40
0.262400258147143
40
0.6827450673044
40
0.6827450673044
40
0.787831269593712
40
0.787831269593712
40
0.892917471883025
40
0.892917471883025
40
1
40
1
40
1
40
1
41
1
10
70.5780587560992
20
-7.97580962515119
30
0
41
1
10
70.4021778368615
20
-7.97564768960015
30
0
41
1
10
70.2264303683565
20
-7.97376245985646
30
0
41
1
10
69.3439947284993
20
-7.95568396503853
30
0
41
1
10
68.6389673276215
20
-7.91349906271751
30
0
41
1
10
66.5244562969553
20
-7.70568913211184
30
0
41
1
10
65.11541846397
20
-7.45862128350652
30
0
41
1
10
63.338159904719
20
-7.02060820656973
30
0
41
1
10
62.9813073159573
20
-6.92638045650116
30
0
41
1
10
62.270093943958
20
-6.72659652636787
30
0
41
1
10
61.9154130782137
20
-6.62099113375103
30
0
41
1
10
61.2008178435749
20
-6.39672914151768
30
0
41
1
10
60.840930461802
20
-6.27786437128205
30
0
41
1
10
60.4815808953971
20
-6.15365567623351
30
0
0
SPLINE
5
C4
100
AcDbEntity
8
1
62
256
6
ByLayer
370
13
48
1
60
0
100
AcDbSpline
70
4
71
3
72
20
73
16
40
0
40
0
40
0
40
0
40
0.0591642714424664
40
0.0591642714424664
40
0.300404199556095
40
0.300404199556095
40
0.421024163612909
40
0.421024163612909
40
0.481334145641316
40
0.481334145641316
40
0.541644127669723
40
0.541644127669723
40
0.782884055783354
40
0.782884055783354
40
1
40
1
40
1
40
1
41
1
10
60.4815808954622
20
-6.15365567625599
30
0
41
1
10
60.1356299447236
20
-6.03407819471983
30
0
41
1
10
59.7901774513468
20
-5.90954786352097
30
0
41
1
10
58.037625853391
20
-5.25361899312324
30
0
41
1
10
56.6352717608836
20
-4.64907979688056
30
0
41
1
10
54.5196206179838
20
-3.65412383351403
30
0
41
1
10
53.8124577131289
20
-3.30764595062723
30
0
41
1
10
52.7461361623005
20
-2.76971097701485
30
0
41
1
10
52.3891875571919
20
-2.5870066704064
30
0
41
1
10
51.6779529438075
20
-2.21884861283667
30
0
41
1
10
51.3232461664863
20
-2.0332001374145
30
0
41
1
10
49.5534690159832
20
-1.09860879949349
30
0
41
1
10
48.149133051766
20
-0.331636474545775
30
0
41
1
10
45.477921859728
20
1.11557818213413
30
0
41
1
10
44.2113596576642
20
1.79685408896197
30
0
41
1
10
42.9338729979759
20
2.45567686975511
30
0
0
SPLINE
5
C5
100
AcDbEntity
8
1
62
256
6
ByLayer
370
18
48
1
60
0
100
AcDbSpline
70
4
71
3
72
26
73
22
40
0
40
0
40
0
40
0
40
0.114148352728478
40
0.114148352728478
40
0.17742347039073
40
0.17742347039073
40
0.240698588052983
40
0.240698588052983
40
0.493799058701988
40
0.493799058701988
40
0.55707417636424
40
0.55707417636424
40
0.620349294026491
40
0.620349294026491
40
0.746899529350994
40
0.746899529350994
40
0.873449764675497
40
0.873449764675497
40
0.936724882337749
40
0.936724882337749
40
1
40
1
40
1
40
1
41
1
10
72.0627808257991
20
-7.97601732344813
30
0
41
1
10
71.9589818256742
20
-7.97290082030707
30
0
41
1
10
71.8597734023676
20
-7.95594350112495
30
0
41
1
10
71.713016087362
20
-7.90714028813053
30
0
41
1
10
71.6621529820597
20
-7.88528691216908
30
0
41
1
10
71.5634963295936
20
-7.83232529071617
30
0
41
1
10
71.5155544760478
20
-7.80107895740261
30
0
41
1
10
71.2867401433897
20
-7.62293565223337
30
0
41
1
10
71.1365841931164
20
-7.41105866324975
30
0
41
1
10
70.992078984306
20
-7.05514406097552
30
0
41
1
10
70.9653660401517
20
-6.97934739372633
30
0
41
1
10
70.9164939162424
20
-6.81815214940968
30
0
41
1
10
70.8943001774081
20
-6.73248223244954
30
0
41
1
10
70.8357672819241
20
-6.46490122497693
30
0
41
1
10
70.8070442964095
20
-6.27139520395195
30
0
41
1
10
70.7698995640289
20
-5.85458127525385
30
0
41
1
10
70.7614768149909
20
-5.63127483875351
30
0
41
1
10
70.7645208069572
20
-5.2732999665692
30
0
41
1
10
70.7681771843485
20
-5.14974682828944
30
0
41
1
10
70.7807928222789
20
-4.89662426126759
30
0
41
1
10
70.7897186258032
20
-4.76738033425281
30
0
41
1
10
70.8012203991209
20
-4.63549681617963
30
0
0
SPLINE
5
C6
100
AcDbEntity
8
1
62
256
6
ByLayer
370
13
48
1
60
0
100
AcDbSpline
70
4
71
3
72
10
73
6
40
0
40
0
40
0
40
0
40
0.5
40
0.5
40
1
40
1
40
1
40
1
41
1
10
4.00000000141318
20
-1.39249337850006
30
0
41
1
10
4.00000000141321
20
-1.40976431563294
30
0
41
1
10
4.01129930345391
20
-1.42727393351927
30
0
41
1
10
4.05481086648626
20
-1.45746690778586
30
0
41
1
10
4.08755616372861
20
-1.47074581740668
30
0
41
1
10
4.12974873842285
20
-1.4797973241179
30
0
0
SPLINE
5
C7
100
AcDbEntity
8
1
62
256
6
ByLayer
370
18
48
1
60
0
100
AcDbSpline
70
4
71
3
72
28
73
24
40
0
40
0
40
0
40
0
40
0.0604439131235981
40
0.0604439131235981
40
0.164839033887639
40
0.164839033887639
40
0.217036594269661
40
0.217036594269661
40
0.269234154651682
40
0.269234154651682
40
0.373629275415728
40
0.373629275415728
40
0.478024396179773
40
0.478024396179773
40
0.582419516943818
40
0.582419516943818
40
0.686814637707864
40
0.686814637707864
40
0.791209758471909
40
0.791209758471909
40
0.895604879235955
40
0.895604879235955
40
1
40
1
40
1
40
1
41
1
10
48.6525893578901
20
7.95364304215644
30
0
41
1
10
48.9511415617828
20
7.94678655904812
30
0
41
1
10
49.2499037688384
20
7.93506244953883
30
0
41
1
10
50.0651808335725
20
7.89054123822106
30
0
41
1
10
50.580869089814
20
7.84636310885577
30
0
41
1
10
51.3538799693706
20
7.76008573995151
30
0
41
1
10
51.6114682885662
20
7.7281816279957
30
0
41
1
10
52.1264454290294
20
7.6565694572439
30
0
41
1
10
52.3838428335139
20
7.61675579823736
30
0
41
1
10
53.1558998418024
20
7.48661159277756
30
0
41
1
10
53.6706788162576
20
7.38634305606121
30
0
41
1
10
54.7026172628999
20
7.15848522975341
30
0
41
1
10
55.2196430851432
20
7.03143453008769
30
0
41
1
10
56.2501489240214
20
6.75265267341371
30
0
41
1
10
56.7650364639247
20
6.5998117399225
30
0
41
1
10
57.7948522078592
20
6.26993259448167
30
0
41
1
10
58.3094579421995
20
6.0926873242
30
0
41
1
10
59.3397507741474
20
5.7168454121977
30
0
41
1
10
59.8567095754033
20
5.51918321469969
30
0
41
1
10
60.8885292319505
20
5.10317081753112
30
0
41
1
10
61.4029890668019
20
4.88460486556852
30
0
41
1
10
62.4322974619536
20
4.43202764720647
30
0
41
1
10
62.9470419588695
20
4.19712324857105
30
0
41
1
10
63.461934801642
20
3.95405043936984
30
0
0
SPLINE
5
C8
100
AcDbEntity
8
1
62
256
6
ByLayer
370
18
48
1
60
0
100
AcDbSpline
70
4
71
3
72
82
73
78
40
0
40
0
40
0
40
0
40
0.0217322178517875
40
0.0217322178517875
40
0.0566703529285086
40
0.0566703529285086
40
0.0741394204668692
40
0.0741394204668692
40
0.0916084880052298
40
0.0916084880052298
40
0.126546623081951
40
0.126546623081951
40
0.144015690620312
40
0.144015690620312
40
0.161484758158672
40
0.161484758158672
40
0.196422893235394
40
0.196422893235394
40
0.231361028312116
40
0.231361028312116
40
0.266299163388838
40
0.266299163388838
40
0.283768230927198
40
0.283768230927198
40
0.301237298465559
40
0.301237298465559
40
0.336175433542279
40
0.336175433542279
40
0.371113568619
40
0.371113568619
40
0.38858263615736
40
0.38858263615736
40
0.406051703695721
40
0.406051703695721
40
0.440989838772442
40
0.440989838772442
40
0.475927973849163
40
0.475927973849163
40
0.493397041387524
40
0.493397041387524
40
0.510866108925885
40
0.510866108925885
40
0.545804244002607
40
0.545804244002607
40
0.563273311540968
40
0.563273311540968
40
0.58074237907933
40
0.58074237907933
40
0.615680514156052
40
0.615680514156052
40
0.650618649232775
40
0.650618649232775
40
0.668087716771136
40
0.668087716771136
40
0.685556784309497
40
0.685556784309497
40
0.720494919386219
40
0.720494919386219
40
0.73796398692458
40
0.73796398692458
40
0.755433054462942
40
0.755433054462942
40
0.772902122001303
40
0.772902122001303
40
0.790371189539664
40
0.790371189539664
40
0.825309324616387
40
0.825309324616387
40
0.860247459693109
40
0.860247459693109
40
0.895185594769832
40
0.895185594769832
40
0.930123729846555
40
0.930123729846555
40
0.965061864923277
40
0.965061864923277
40
1
40
1
40
1
40
1
41
1
10
58.2389138591211
20
-6.11379798856251
30
0
41
1
10
57.9183907397941
20
-6.22560239994755
30
0
41
1
10
57.5979916970706
20
-6.33301615470245
30
0
41
1
10
56.7622965462533
20
-6.60065129660157
30
0
41
1
10
56.2472044758659
20
-6.75350182272652
30
0
41
1
10
55.474176762231
20
-6.96254922498468
30
0
41
1
10
55.2161806870582
20
-7.02892138441698
30
0
41
1
10
54.7004706564905
20
-7.15561730834659
30
0
41
1
10
54.4426728745501
20
-7.21589721656582
30
0
41
1
10
53.6694846414137
20
-7.38657698829439
30
0
41
1
10
53.1546466462228
20
-7.48685713180745
30
0
41
1
10
52.3816871522657
20
-7.61710193956128
30
0
41
1
10
52.1238385603187
20
-7.6569650638763
30
0
41
1
10
51.6076760418624
20
-7.72867546253772
30
0
41
1
10
51.3497433579033
20
-7.76058427162951
30
0
41
1
10
50.576299941112
20
-7.84679848453115
30
0
41
1
10
50.0616340230613
20
-7.89078405640265
30
0
41
1
10
49.0309584577965
20
-7.94696938991325
30
0
41
1
10
48.5145677318488
20
-7.96145805014845
30
0
41
1
10
47.4830444670592
20
-7.96008754163594
30
0
41
1
10
46.9683610412469
20
-7.94373192844722
30
0
41
1
10
46.1953749432757
20
-7.89880066104433
30
0
41
1
10
45.9376415382135
20
-7.88015885696717
30
0
41
1
10
45.4219946052648
20
-7.8350186301862
30
0
41
1
10
45.1640626378263
20
-7.80834056795064
30
0
41
1
10
44.390214690635
20
-7.71873782626628
30
0
41
1
10
43.8749753667608
20
-7.64562056366501
30
0
41
1
10
42.844087173415
20
-7.47106922315604
30
0
41
1
10
42.3287065719602
20
-7.37018969434101
30
0
41
1
10
41.5554601067106
20
-7.19667329743618
30
0
41
1
10
41.2973749719559
20
-7.13486111792793
30
0
41
1
10
40.7814495013273
20
-7.00481066505063
30
0
41
1
10
40.5235150324572
20
-6.93718662965577
30
0
41
1
10
39.7498850519387
20
-6.72566137159504
30
0
41
1
10
39.2347114827031
20
-6.57240718261258
30
0
41
1
10
38.2036873418536
20
-6.24171708848903
30
0
41
1
10
37.6869749450033
20
-6.06479514914886
30
0
41
1
10
36.9132974323122
20
-5.77988416426874
30
0
41
1
10
36.6555383805812
20
-5.68212906700464
30
0
41
1
10
36.140305396287
20
-5.48228244233087
30
0
41
1
10
35.8827261808177
20
-5.38002668324134
30
0
41
1
10
35.1094751378672
20
-5.06656659767239
30
0
41
1
10
34.593002355958
20
-4.8483957040188
30
0
41
1
10
33.819014691871
20
-4.50738216820619
30
0
41
1
10
33.5613434083063
20
-4.39140174048299
30
0
41
1
10
33.0461383649091
20
-4.15463091244223
30
0
41
1
10
32.7885047752257
20
-4.03406012377025
30
0
41
1
10
32.0152929826571
20
-3.66857893631618
30
0
41
1
10
31.4994328119603
20
-3.4191534695139
30
0
41
1
10
30.4674687515417
20
-2.90609369833706
30
0
41
1
10
29.9521605480132
20
-2.64368306788759
30
0
41
1
10
29.1789928224625
20
-2.24430326825367
30
0
41
1
10
28.9212692503285
20
-2.10992263382727
30
0
41
1
10
28.4057657642161
20
-1.83914945775723
30
0
41
1
10
28.1480482784744
20
-1.70282615785837
30
0
41
1
10
27.3747942736708
20
-1.29114511251154
30
0
41
1
10
26.8585265961967
20
-1.01422486422922
30
0
41
1
10
26.0850853388332
20
-0.597749468190472
30
0
41
1
10
25.8273321820728
20
-0.458647110070501
30
0
41
1
10
25.312025243635
20
-0.179731993554583
30
0
41
1
10
25.0545556462501
20
-0.0397677532098157
30
0
41
1
10
24.5392074451178
20
0.239802564137193
30
0
41
1
10
24.2813259503691
20
0.379390954813744
30
0
41
1
10
23.7651379089444
20
0.658065662737727
30
0
41
1
10
23.5070064474669
20
0.797068600915708
30
0
41
1
10
22.7332740590301
20
1.21257814592107
30
0
41
1
10
22.2184289816311
20
1.48850592112103
30
0
41
1
10
21.1876953815495
20
2.03300253756046
30
0
41
1
10
20.6712390032398
20
2.30146525508593
30
0
41
1
10
19.6394822319819
20
2.82951059778009
30
0
41
1
10
19.1252972533409
20
3.08944624860101
30
0
41
1
10
18.0971416244803
20
3.59411540534916
30
0
41
1
10
17.5833364772884
20
3.83958947283833
30
0
41
1
10
16.5565120365951
20
4.31639248637384
30
0
41
1
10
16.0432374995539
20
4.54701318947556
30
0
41
1
10
15.0145913317456
20
4.99186712739629
30
0
41
1
10
14.4993397098306
20
5.205927216113
30
0
41
1
10
13.9831537639929
20
5.41086524107283
30
0
0
SPLINE
5
C9
100
AcDbEntity
8
1
62
256
6
ByLayer
370
18
48
1
60
0
100
AcDbSpline
70
2053
71
3
72
80
73
76
40
0
40
0
40
0
40
0
40
0.0312499999999997
40
0.0312499999999997
40
0.0468749999999997
40
0.0468749999999997
40
0.0624999999999998
40
0.0624999999999998
40
0.0937500000000018
40
0.0937500000000018
40
0.109375000000002
40
0.109375000000002
40
0.125000000000001
40
0.125000000000001
40
0.15625
40
0.15625
40
0.171874999999999
40
0.171874999999999
40
0.187499999999998
40
0.187499999999998
40
0.218749999999997
40
0.218749999999997
40
0.249999999999995
40
0.249999999999995
40
0.281249999999994
40
0.281249999999994
40
0.312499999999992
40
0.312499999999992
40
0.343749999999991
40
0.343749999999991
40
0.374999999999989
40
0.374999999999989
40
0.406249999999988
40
0.406249999999988
40
0.437499999999986
40
0.437499999999986
40
0.468749999999984
40
0.468749999999984
40
0.499999999999983
40
0.499999999999983
40
0.531249999999981
40
0.531249999999981
40
0.562499999999979
40
0.562499999999979
40
0.578124999999979
40
0.578124999999979
40
0.593749999999978
40
0.593749999999978
40
0.624999999999978
40
0.624999999999978
40
0.640624999999979
40
0.640624999999979
40
0.65624999999998
40
0.65624999999998
40
0.687499999999982
40
0.687499999999982
40
0.718749999999984
40
0.718749999999984
40
0.749999999999985
40
0.749999999999985
40
0.781249999999987
40
0.781249999999987
40
0.812499999999989
40
0.812499999999989
40
0.843749999999991
40
0.843749999999991
40
0.874999999999993
40
0.874999999999993
40
0.906249999999995
40
0.906249999999995
40
0.937499999999996
40
0.937499999999996
40
0.968749999999998
40
0.968749999999998
40
1
40
1
40
1
40
1
41
1
10
72.6181648099558
20
-4.80884178800228
30
0
41
1
10
72.6558186853976
20
-4.75569785947596
30
0
41
1
10
72.6927295893493
20
-4.6986512395622
30
0
41
1
10
72.7468769900834
20
-4.6066783470325
30
0
41
1
10
72.7647216037675
20
-4.57494640962562
30
0
41
1
10
72.7999622731625
20
-4.50912633969938
30
0
41
1
10
72.8173933844546
20
-4.47494481456943
30
0
41
1
10
72.8677380010865
20
-4.37095925751069
30
0
41
1
10
72.8991263987028
20
-4.29903907107041
30
0
41
1
10
72.9424029375409
20
-4.18661450978016
30
0
41
1
10
72.9560910362486
20
-4.14858218575122
30
0
41
1
10
72.9812734458785
20
-4.07326250099499
30
0
41
1
10
72.9928720734702
20
-4.03571048101878
30
0
41
1
10
73.0245976489985
20
-3.92338794466284
30
0
41
1
10
73.0417864095937
20
-3.84786663182481
30
0
41
1
10
73.0594589395337
20
-3.74237017094762
30
0
41
1
10
73.0640825291777
20
-3.70827739306006
30
0
41
1
10
73.0708318147136
20
-3.64220626263801
30
0
41
1
10
73.0729512678052
20
-3.6100453579628
30
0
41
1
10
73.0754815007452
20
-3.51917380645432
30
0
41
1
10
73.0722230841956
20
-3.46522659960013
30
0
41
1
10
73.0569193740654
20
-3.36979294205159
30
0
41
1
10
73.0451248801033
20
-3.32969963040574
30
0
41
1
10
73.0145393830954
20
-3.26238837669197
30
0
41
1
10
72.9957045421249
20
-3.23543339808316
30
0
41
1
10
72.9532532404046
20
-3.19476564125838
30
0
41
1
10
72.929481689453
20
-3.18071015257379
30
0
41
1
10
72.8772915363775
20
-3.16405916864596
30
0
41
1
10
72.8489418873438
20
-3.16160147506486
30
0
41
1
10
72.7895393841744
20
-3.1675507711025
30
0
41
1
10
72.7582919979379
20
-3.17588989117948
30
0
41
1
10
72.6927810916767
20
-3.20303291550573
30
0
41
1
10
72.6586407038328
20
-3.22185718760272
30
0
41
1
10
72.5892076059353
20
-3.26889273206388
30
0
41
1
10
72.5537015480302
20
-3.29718208909532
30
0
41
1
10
72.4810501081845
20
-3.36366844713314
30
0
41
1
10
72.4435980749069
20
-3.40224180182071
30
0
41
1
10
72.3689318331815
20
-3.48816164892122
30
0
41
1
10
72.3316283881846
20
-3.53550624922198
30
0
41
1
10
72.2570866762212
20
-3.63982565227425
30
0
41
1
10
72.2194708820121
20
-3.69746008135203
30
0
41
1
10
72.1468194697325
20
-3.82017422207201
30
0
41
1
10
72.1116822075466
20
-3.88525779818863
30
0
41
1
10
72.0610638431396
20
-3.98942885459652
30
0
41
1
10
72.0445042202057
20
-4.02536793741172
30
0
41
1
10
72.012999820244
20
-4.0977854439856
30
0
41
1
10
71.9979489875762
20
-4.1344693322242
30
0
41
1
10
71.9550148975048
20
-4.24602383735842
30
0
41
1
10
71.9290909751801
20
-4.32345259724656
30
0
41
1
10
71.8974183475894
20
-4.43612080883716
30
0
41
1
10
71.8879694094439
20
-4.47329732335334
30
0
41
1
10
71.8713356688399
20
-4.54687517385611
30
0
41
1
10
71.8641060216185
20
-4.58357313019434
30
0
41
1
10
71.8464067975979
20
-4.68992700802849
30
0
41
1
10
71.83981420318
20
-4.75570487362313
30
0
41
1
10
71.836358077893
20
-4.87768507324418
30
0
41
1
10
71.8395819366864
20
-4.93186471571326
30
0
41
1
10
71.8545062651214
20
-5.0272459595935
30
0
41
1
10
71.8662782471
20
-5.06832504665277
30
0
41
1
10
71.8964140563152
20
-5.13623623810855
30
0
41
1
10
71.9150513711872
20
-5.16372144571633
30
0
41
1
10
71.9574998711214
20
-5.20551408172605
30
0
41
1
10
71.9812485299967
20
-5.21995296020773
30
0
41
1
10
72.0332929485411
20
-5.23719923057362
30
0
41
1
10
72.0616581633416
20
-5.2398921485989
30
0
41
1
10
72.1210862695074
20
-5.2341957686678
30
0
41
1
10
72.1523368691387
20
-5.22589126168248
30
0
41
1
10
72.2178186685489
20
-5.19869805855376
30
0
41
1
10
72.252155445548
20
-5.17966735262192
30
0
41
1
10
72.3218695186905
20
-5.13207666441863
30
0
41
1
10
72.3574750224694
20
-5.10345180309236
30
0
41
1
10
72.4302207763783
20
-5.03629906282916
30
0
41
1
10
72.4676122966161
20
-4.99747640888992
30
0
41
1
10
72.5427804145318
20
-4.91026531575284
30
0
41
1
10
72.5805109345141
20
-4.86198571652861
30
0
41
1
10
72.6181648099558
20
-4.80884178800228
30
0
0
SPLINE
5
CA
100
AcDbEntity
8
1
62
256
6
ByLayer
370
13
48
1
60
0
100
AcDbSpline
70
4
71
3
72
40
73
36
40
0
40
0
40
0
40
0
40
0.0625000000000001
40
0.0625000000000001
40
0.125
40
0.125
40
0.1875
40
0.1875
40
0.25
40
0.25
40
0.375000000000001
40
0.375000000000001
40
0.437500000000001
40
0.437500000000001
40
0.500000000000001
40
0.500000000000001
40
0.562500000000001
40
0.562500000000001
40
0.593750000000001
40
0.593750000000001
40
0.625000000000001
40
0.625000000000001
40
0.750000000000001
40
0.750000000000001
40
0.781250000000001
40
0.781250000000001
40
0.812500000000001
40
0.812500000000001
40
0.875
40
0.875
40
0.9375
40
0.9375
40
0.96875
40
0.96875
40
1
40
1
40
1
40
1
41
1
10
4.25021123262604
20
-1.51224987244777
30
0
41
1
10
4.25021709190077
20
-1.22571585680973
30
0
41
1
10
4.25022021516585
20
-0.937795622258193
30
0
41
1
10
4.25022232098817
20
-0.359229011642697
30
0
41
1
10
4.25022129733139
20
-0.0681749724335248
30
0
41
1
10
4.25021639136639
20
0.514978355678892
30
0
41
1
10
4.25021253569543
20
0.804901836168312
30
0
41
1
10
4.25020339975231
20
1.38146416138642
30
0
41
1
10
4.25019810392621
20
1.66875029778379
30
0
41
1
10
4.25018233741437
20
2.51030653799487
30
0
41
1
10
4.25017197051415
20
3.04948326635736
30
0
41
1
10
4.25016331842838
20
3.82540908167215
30
0
41
1
10
4.25016157860529
20
4.07942762777839
30
0
41
1
10
4.25016133413041
20
4.56745205091934
30
0
41
1
10
4.25016280969228
20
4.80234260850565
30
0
41
1
10
4.25016957009382
20
5.25374230296194
30
0
41
1
10
4.25017483582027
20
5.46859661445586
30
0
41
1
10
4.2501857361612
20
5.77369509834207
30
0
41
1
10
4.25018986952517
20
5.87258526275949
30
0
41
1
10
4.25019915325078
20
6.06470657907172
30
0
41
1
10
4.25020430412468
20
6.1578695782687
30
0
41
1
10
4.25023232043125
20
6.6052817528649
30
0
41
1
10
4.25026222852969
20
6.90861450206995
30
0
41
1
10
4.25030674166391
20
7.22047336002859
30
0
41
1
10
4.25031599470074
20
7.27944209679711
30
0
41
1
10
4.25033511916669
20
7.39044274068556
30
0
41
1
10
4.25034501277887
20
7.44255581472964
30
0
41
1
10
4.25037510838976
20
7.5865741391687
30
0
41
1
10
4.25039582307102
20
7.66683225533086
30
0
41
1
10
4.25043750762961
20
7.7967087568683
30
0
41
1
10
4.2504584795501
20
7.84632529564277
30
0
41
1
10
4.25048924891377
20
7.89758614003426
30
0
41
1
10
4.2504993894182
20
7.91080399337051
30
0
41
1
10
4.25051927339507
20
7.92936539878221
30
0
41
1
10
4.25052904600818
20
7.93470383885548
30
0
41
1
10
4.25053843827919
20
7.93600459183241
30
0
0
SPLINE
5
CB
100
AcDbEntity
8
1
62
256
6
ByLayer
370
18
48
1
60
0
100
AcDbSpline
70
4
71
3
72
8
73
4
40
0
40
0
40
0
40
0
40
1
40
1
40
1
40
1
41
1
10
22.9948086613338
20
-8.30536790859352
30
0
41
1
10
23.0229790311385
20
-8.30547715440815
30
0
41
1
10
23.051150653989
20
-8.30554018893034
30
0
41
1
10
23.0793234117933
20
-8.3055570640993
30
0
0
SPLINE
5
CC
100
AcDbEntity
8
1
62
256
6
ByLayer
370
18
48
1
60
0
100
AcDbSpline
70
4
71
3
72
32
73
28
40
0
40
0
40
0
40
0
40
0.0074441807147948
40
0.0074441807147948
40
0.0625861706750841
40
0.0625861706750841
40
0.117728160635373
40
0.117728160635373
40
0.228012140555954
40
0.228012140555954
40
0.338296120476535
40
0.338296120476535
40
0.448580100397116
40
0.448580100397116
40
0.503722090357404
40
0.503722090357404
40
0.558864080317693
40
0.558864080317693
40
0.66914806023827
40
0.66914806023827
40
0.724290050198559
40
0.724290050198559
40
0.779432040158848
40
0.779432040158848
40
0.889716020079424
40
0.889716020079424
40
1
40
1
40
1
40
1
41
1
10
58.2276837660701
20
6.10949863555203
30
0
41
1
10
58.2622562675504
20
6.12280423840593
30
0
41
1
10
58.296829297985
20
6.13606154879898
30
0
41
1
10
58.587500870034
20
6.24711786085712
30
0
41
1
10
58.8436337812896
20
6.34229958929478
30
0
41
1
10
59.3558026021539
20
6.52744754415087
30
0
41
1
10
59.611589815193
20
6.6173372804914
30
0
41
1
10
60.3794469900192
20
6.87638935069316
30
0
41
1
10
60.891624439351
20
7.03593243954151
30
0
41
1
10
61.9152510334528
20
7.33009844603649
30
0
41
1
10
62.4263408962611
20
7.46511850678769
30
0
41
1
10
63.4514769582176
20
7.70574400657284
30
0
41
1
10
63.963808272244
20
7.81174346353092
30
0
41
1
10
64.7311063336075
20
7.94983061355523
30
0
41
1
10
64.986522005398
20
7.99242574308778
30
0
41
1
10
65.4978054829389
20
8.07010468962605
30
0
41
1
10
65.7538098824994
20
8.10514581263041
30
0
41
1
10
66.522448419765
20
8.19918102079495
30
0
41
1
10
67.0355687601419
20
8.24704138770332
30
0
41
1
10
67.8024099694271
20
8.2963561642774
30
0
41
1
10
68.0577179374349
20
8.30902257401843
30
0
41
1
10
68.5690595918355
20
8.32666283656732
30
0
41
1
10
68.8249129799606
20
8.33167909212344
30
0
41
1
10
69.5927332812133
20
8.33540736572007
30
0
41
1
10
70.1052973537409
20
8.32279840992291
30
0
41
1
10
71.128556840774
20
8.26681256644881
30
0
41
1
10
71.6403523596799
20
8.22382502407484
30
0
41
1
10
72.1520254192108
20
8.16608353818441
30
0
0
SPLINE
5
CD
100
AcDbEntity
8
1
62
256
6
ByLayer
370
13
48
1
60
0
100
AcDbSpline
70
4
71
3
72
8
73
4
40
0
40
0
40
0
40
0
40
1
40
1
40
1
40
1
41
1
10
4.12699572612695
20
-1.62773377629182
30
0
41
1
10
4.1279037754833
20
-1.61251432746403
30
0
41
1
10
4.12882142957432
20
-1.5972855164849
30
0
41
1
10
4.12974873842285
20
-1.5820469049296
30
0
0
SPLINE
5
CE
100
AcDbEntity
8
1
62
256
6
ByLayer
370
18
48
1
60
0
100
AcDbSpline
70
4
71
3
72
8
73
4
40
0
40
0
40
0
40
0
40
1
40
1
40
1
40
1
41
1
10
4.00000000141316
20
-8.1853208684615
30
0
41
1
10
4.00000000141316
20
-8.21987868288622
30
0
41
1
10
4.00000000141318
20
-8.25487812798733
30
0
41
1
10
4.00000000141318
20
-8.29032353705998
30
0
0
SPLINE
5
CF
100
AcDbEntity
8
1
62
256
6
ByLayer
370
18
48
1
60
0
100
AcDbSpline
70
4
71
3
72
8
73
4
40
0
40
0
40
0
40
0
40
1
40
1
40
1
40
1
41
1
10
72.0569422424043
20
-8.28047826280161
30
0
41
1
10
72.0895103811752
20
-8.19274908810885
30
0
41
1
10
72.1220572622972
20
-8.10495592593995
30
0
41
1
10
72.1545828377871
20
-8.01709863186002
30
0
0
SPLINE
5
D0
100
AcDbEntity
8
1
62
256
6
ByLayer
370
18
48
1
60
0
100
AcDbSpline
70
4
71
3
72
16
73
12
40
0
40
0
40
0
40
0
40
0.113327260571219
40
0.113327260571219
40
0.226654521142438
40
0.226654521142438
40
0.453309042284874
40
0.453309042284874
40
0.906618084569744
40
0.906618084569744
40
1
40
1
40
1
40
1
41
1
10
4.20211193891356
20
-1.61723017549147
30
0
41
1
10
4.55908907557546
20
-1.80868706540795
30
0
41
1
10
4.91592075925047
20
-1.99864682577811
30
0
41
1
10
5.62970303977704
20
-2.3748562484279
30
0
41
1
10
5.98688003051936
20
-2.56122001203076
30
0
41
1
10
7.05449027157101
20
-3.11120016788638
30
0
41
1
10
7.76262793197881
20
-3.46624126282157
30
0
41
1
10
9.88129996694673
20
-4.48863703817315
30
0
41
1
10
11.2855351646554
20
-5.1142434129894
30
0
41
1
10
12.9861296090852
20
-5.77617252628434
30
0
41
1
10
13.2768345911594
20
-5.88600932575545
30
0
41
1
10
13.567878513083
20
-5.99245312283296
30
0
0
SPLINE
5
D1
100
AcDbEntity
8
1
62
256
6
ByLayer
370
13
48
1
60
0
100
AcDbSpline
70
4
71
3
72
18
73
14
40
0
40
0
40
0
40
0
40
0.0974313786596171
40
0.0974313786596171
40
0.18028133236434
40
0.18028133236434
40
0.263131286069063
40
0.263131286069063
40
0.594531100887956
40
0.594531100887956
40
0.92593091570685
40
0.92593091570685
40
1
40
1
40
1
40
1
41
1
10
13.5678782846838
20
-5.99245303930033
30
0
41
1
10
13.9832498130846
20
-6.14436730417464
30
0
41
1
10
14.3993117068175
20
-6.28937057463236
30
0
41
1
10
15.171078156542
20
-6.54400787563566
30
0
41
1
10
15.5265039280977
20
-6.65567924429291
30
0
41
1
10
16.2393759518499
20
-6.86761602798862
30
0
41
1
10
16.5964165035376
20
-6.9677358266772
30
0
41
1
10
18.3743005991386
20
-7.43519875866065
30
0
41
1
10
19.7834950646089
20
-7.70625878080767
30
0
41
1
10
22.6030769889887
20
-8.03054370554511
30
0
41
1
10
24.0131510721679
20
-8.08370715468592
30
0
41
1
10
25.7557692180096
20
-8.00943649501897
30
0
41
1
10
26.0750732441745
20
-7.99012477856294
30
0
41
1
10
26.3934448145764
20
-7.96524590527528
30
0
0
SPLINE
5
D2
100
AcDbEntity
8
1
62
256
6
ByLayer
370
18
48
1
60
0
100
AcDbSpline
70
4
71
3
72
18
73
14
40
0
40
0
40
0
40
0
40
0.254623010028798
40
0.254623010028798
40
0.318278762535998
40
0.318278762535998
40
0.381934515043198
40
0.381934515043198
40
0.509246020057601
40
0.509246020057601
40
0.763869030086405
40
0.763869030086405
40
1
40
1
40
1
40
1
41
1
10
22.9947800092535
20
8.30536797524806
30
0
41
1
10
21.9807268245828
20
8.3014393282711
30
0
41
1
10
20.9554557297998
20
8.23758676361538
30
0
41
1
10
19.6526235136269
20
8.10397258500674
30
0
41
1
10
19.3907632797516
20
8.07454165023606
30
0
41
1
10
18.866253682172
20
8.01111902956168
30
0
41
1
10
18.6035007975423
20
7.97712116518071
30
0
41
1
10
17.8134629959764
20
7.86932717847796
30
0
41
1
10
17.2843959313437
20
7.78971883895028
30
0
41
1
10
15.6878375149266
20
7.53660597525169
30
0
41
1
10
14.6108785847735
20
7.34883156611699
30
0
41
1
10
12.5012136197266
20
6.99849347924169
30
0
41
1
10
11.4709870487849
20
6.8353340335801
30
0
41
1
10
10.4228940452711
20
6.69580039453174
30
0
0
SPLINE
5
D3
100
AcDbEntity
8
1
62
256
6
ByLayer
370
18
48
1
60
0
100
AcDbSpline
70
4
71
3
72
8
73
4
40
0
40
0
40
0
40
0
40
1
40
1
40
1
40
1
41
1
10
3.74351099747918
20
8.29395440309878
30
0
41
1
10
3.82802513033096
20
8.29396894346851
30
0
41
1
10
3.91356657707468
20
8.29271825715085
30
0
41
1
10
4.0000000013502
20
8.29032353706174
30
0
0
SPLINE
5
D4
100
AcDbEntity
8
1
62
256
6
ByLayer
370
13
48
1
60
0
100
AcDbSpline
70
4
71
3
72
8
73
4
40
0
40
0
40
0
40
0
40
1
40
1
40
1
40
1
41
1
10
4.12974873842285
20
-1.5820469049296
30
0
41
1
10
4.15238360033359
20
-1.59178869090013
30
0
41
1
10
4.17700356306611
20
-1.60376384653955
30
0
41
1
10
4.20211193891356
20
-1.61723017549147
30
0
0
SPLINE
5
D5
100
AcDbEntity
8
1
62
256
6
ByLayer
370
18
48
1
60
0
100
AcDbSpline
70
4
71
3
72
64
73
60
40
0
40
0
40
0
40
0
40
0.0222118488808241
40
0.0222118488808241
40
0.0444236977616481
40
0.0444236977616481
40
0.0888473955232956
40
0.0888473955232956
40
0.133271093284943
40
0.133271093284943
40
0.155482942165767
40
0.155482942165767
40
0.17769479104659
40
0.17769479104659
40
0.222118488808236
40
0.222118488808236
40
0.24433033768906
40
0.24433033768906
40
0.266542186569883
40
0.266542186569883
40
0.310965884331529
40
0.310965884331529
40
0.333177733212353
40
0.333177733212353
40
0.355389582093176
40
0.355389582093176
40
0.399813279854822
40
0.399813279854822
40
0.422025128735645
40
0.422025128735645
40
0.444236977616468
40
0.444236977616468
40
0.533084373139761
40
0.533084373139761
40
0.577508070901408
40
0.577508070901408
40
0.621931768663054
40
0.621931768663054
40
0.644143617543878
40
0.644143617543878
40
0.666355466424701
40
0.666355466424701
40
0.710779164186347
40
0.710779164186347
40
0.755202861947994
40
0.755202861947994
40
0.79962655970964
40
0.79962655970964
40
0.821838408590464
40
0.821838408590464
40
0.844050257471287
40
0.844050257471287
40
0.888473955232934
40
0.888473955232934
40
0.932897652994582
40
0.932897652994582
40
0.977321350756229
40
0.977321350756229
40
1
40
1
40
1
40
1
41
1
10
72.0569422424043
20
-8.28047826280161
30
0
41
1
10
71.7029103280603
20
-8.30324384814972
30
0
41
1
10
71.3489658236924
20
-8.31874352667984
30
0
41
1
10
70.640847091811
20
-8.33519436156823
30
0
41
1
10
70.2864329422375
20
-8.33613870561504
30
0
41
1
10
69.2241056179176
20
-8.31714057278319
30
0
41
1
10
68.5176325704123
20
-8.27542656907701
30
0
41
1
10
67.1047575605578
20
-8.13493470332247
30
0
41
1
10
66.3983141118387
20
-8.03616104213134
30
0
41
1
10
65.3359201164251
20
-7.84605362537528
30
0
41
1
10
64.9815778763044
20
-7.77573615791434
30
0
41
1
10
64.2741372459207
20
-7.62194193651823
30
0
41
1
10
63.920739344781
20
-7.53841321611148
30
0
41
1
10
62.8608513630046
20
-7.26849303067817
30
0
41
1
10
62.1546427047851
20
-7.06278866961884
30
0
41
1
10
61.0932854991037
20
-6.71781820283118
30
0
41
1
10
60.7388371762844
20
-6.59662565740879
30
0
41
1
10
60.0306375599938
20
-6.34318544756499
30
0
41
1
10
59.6769663266196
20
-6.21098328574192
30
0
41
1
10
58.6165457411972
20
-5.79883157187518
30
0
41
1
10
57.9103897104843
20
-5.50334127379352
30
0
41
1
10
56.8497823316852
20
-5.03234998705568
30
0
41
1
10
56.4960188976287
20
-4.87072342394262
30
0
41
1
10
55.7875357712442
20
-4.53887197576475
30
0
41
1
10
55.433173491358
20
-4.36881358327182
30
0
41
1
10
54.3718858050068
20
-3.84850111570779
30
0
41
1
10
53.665640005552
20
-3.4876530598969
30
0
41
1
10
52.6054735806626
20
-2.92980480992588
30
0
41
1
10
52.2519648559268
20
-2.74107109904509
30
0
41
1
10
51.5442047928752
20
-2.35885186400824
30
0
41
1
10
51.1896227292798
20
-2.16517172249925
30
0
41
1
10
49.41891428649
20
-1.1892065856843
30
0
41
1
10
48.0090955735237
20
-0.384999193702157
30
0
41
1
10
45.8831511299193
20
0.818852136694119
30
0
41
1
10
45.175467508187
20
1.21800297291486
30
0
41
1
10
43.7618670241067
20
2.00400332971736
30
0
41
1
10
43.0553834506067
20
2.39111359994479
30
0
41
1
10
41.9935044141278
20
2.95840647190207
30
0
41
1
10
41.6388620506695
20
3.14546059408497
30
0
41
1
10
40.9305341409057
20
3.51319638789303
30
0
41
1
10
40.5767884560491
20
3.693925238459
30
0
41
1
10
39.516120441637
20
4.22565522203828
30
0
41
1
10
38.8097200431853
20
4.56612823328567
30
0
41
1
10
37.3948918129169
20
5.21385417499718
30
0
41
1
10
36.6853496229959
20
5.52166691170564
30
0
41
1
10
35.2700886477418
20
6.09480759834275
30
0
41
1
10
34.5635900317366
20
6.36049472758037
30
0
41
1
10
33.5029676957316
20
6.72480314396131
30
0
41
1
10
33.1492922080367
20
6.84054687650462
30
0
41
1
10
32.4412462427095
20
7.0601543783749
30
0
41
1
10
32.086544400296
20
7.164089261675
30
0
41
1
10
31.0239755541168
20
7.45627410300787
30
0
41
1
10
30.3171473909512
20
7.62512617663842
30
0
41
1
10
28.9031951190345
20
7.90881817965479
30
0
41
1
10
28.1961855399609
20
8.02370994467313
30
0
41
1
10
26.7781792371328
20
8.19706386160291
30
0
41
1
10
26.0705560423335
20
8.25508903769384
30
0
41
1
10
25.0025346185377
20
8.29910352557218
30
0
41
1
10
24.6416718663243
20
8.30646000248325
30
0
41
1
10
24.2806503929411
20
8.30627459577047
30
0
0
SPLINE
5
D6
100
AcDbEntity
8
1
62
256
6
ByLayer
370
18
48
1
60
0
100
AcDbSpline
70
4
71
3
72
20
73
16
40
0
40
0
40
0
40
0
40
0.124999999999999
40
0.124999999999999
40
0.249999999999998
40
0.249999999999998
40
0.499999999999996
40
0.499999999999996
40
0.624999999999997
40
0.624999999999997
40
0.749999999999998
40
0.749999999999998
40
0.874999999999999
40
0.874999999999999
40
1
40
1
40
1
40
1
41
1
10
73.7046153844664
20
-4.03653718862878
30
0
41
1
10
73.6401186357655
20
-4.21017936501809
30
0
41
1
10
73.5755693980489
20
-4.38370571352348
30
0
41
1
10
73.4464095952139
20
-4.73026155205903
30
0
41
1
10
73.3817970449221
20
-4.90334005672108
30
0
41
1
10
73.1879359542414
20
-5.4224324037651
30
0
41
1
10
73.0586373830307
20
-5.76814066511866
30
0
41
1
10
72.8644455760806
20
-6.28521304498827
30
0
41
1
10
72.7996712554116
20
-6.45721697530647
30
0
41
1
10
72.6701514453929
20
-6.80101439288597
30
0
41
1
10
72.6053908402731
20
-6.97276165736144
30
0
41
1
10
72.4758661851818
20
-7.31551101399197
30
0
41
1
10
72.4111021884436
20
-7.48652462128294
30
0
41
1
10
72.2815667029123
20
-7.82693119345612
30
0
41
1
10
72.2167972710628
20
-7.99676910569926
30
0
41
1
10
72.1520254192228
20
-8.16608353818299
30
0
0
SPLINE
5
D7
100
AcDbEntity
8
1
62
256
6
ByLayer
370
18
48
1
60
0
100
AcDbSpline
70
4
71
3
72
69
73
65
40
0
40
0
40
0
40
0
40
0.124999999999982
40
0.124999999999982
40
0.156249999999977
40
0.156249999999977
40
0.187499999999972
40
0.187499999999972
40
0.249999999999965
40
0.249999999999965
40
0.374999999999949
40
0.374999999999949
40
0.499999999999934
40
0.499999999999934
40
0.562499999999926
40
0.562499999999926
40
0.593749999999923
40
0.593749999999923
40
0.624999999999919
40
0.624999999999919
40
0.687499999999912
40
0.687499999999912
40
0.718749999999909
40
0.718749999999909
40
0.722656249999909
40
0.724609374999909
40
0.724609374999909
40
0.726562499999909
40
0.726562499999909
40
0.730468749999909
40
0.730468749999909
40
0.73242187499991
40
0.73242187499991
40
0.73437499999991
40
0.73437499999991
40
0.749999999999915
40
0.749999999999915
40
0.765624999999921
40
0.765624999999921
40
0.781249999999926
40
0.781249999999926
40
0.812499999999936
40
0.812499999999936
40
0.828124999999941
40
0.828124999999941
40
0.843749999999947
40
0.843749999999947
40
0.859374999999952
40
0.859374999999952
40
0.867187499999954
40
0.867187499999954
40
0.874999999999957
40
0.874999999999957
40
0.906249999999967
40
0.906249999999967
40
0.921874999999972
40
0.921874999999972
40
0.937499999999978
40
0.937499999999978
40
0.968749999999989
40
0.968749999999989
40
0.984374999999995
40
0.984374999999995
40
1
40
1
40
1
40
1
41
1
10
22.9947800092535
20
-8.30536797524806
30
0
41
1
10
21.9807268245828
20
-8.3014393282711
30
0
41
1
10
20.9554557297998
20
-8.23758676361538
30
0
41
1
10
19.6526235136269
20
-8.10397258500674
30
0
41
1
10
19.3907632797515
20
-8.07454165023603
30
0
41
1
10
18.866253682172
20
-8.01111902956168
30
0
41
1
10
18.6035007975422
20
-7.97712116518068
30
0
41
1
10
17.8134629959763
20
-7.86932717847793
30
0
41
1
10
17.2843959313436
20
-7.78971883895028
30
0
41
1
10
15.6878375149266
20
-7.53660597525166
30
0
41
1
10
14.6108785847734
20
-7.34883156611699
30
0
41
1
10
12.4217195947002
20
-6.98529243305325
30
0
41
1
10
11.3095346610961
20
-6.80981231221281
30
0
41
1
10
9.6097235028746
20
-6.59028696675875
30
0
41
1
10
9.03788917378347
20
-6.52432965468233
30
0
41
1
10
8.17176630954566
20
-6.43980972834203
30
0
41
1
10
7.88160221685382
20
-6.41403667311539
30
0
41
1
10
7.30110409959786
20
-6.36800511346203
30
0
41
1
10
7.0104411062957
20
-6.34771194937929
30
0
41
1
10
6.13718161367729
20
-6.2955593986494
30
0
41
1
10
5.55294666015863
20
-6.27244175558513
30
0
41
1
10
4.67522220763595
20
-6.25707813251347
30
0
41
1
10
4.38253483625257
20
-6.25516876306119
30
0
41
1
10
4.05323563069618
20
-6.25674718157111
30
0
41
1
10
3.99835352336908
20
-6.25708783520193
30
0
41
1
10
3.94347306249406
20
-6.25754523697248
30
0
41
1
10
3.90688645515505
20
-6.25787615622585
30
0
41
1
10
3.88855149781347
20
-6.25786923184447
30
0
41
1
10
3.83387740495797
20
-6.2592929125943
30
0
41
1
10
3.79796616883874
20
-6.26261475213707
30
0
41
1
10
3.74531284547385
20
-6.27291173941771
30
0
41
1
10
3.7278552875801
20
-6.27731735332051
30
0
41
1
10
3.69556183078348
20
-6.28825715185351
30
0
41
1
10
3.68101252581425
20
-6.29531394996351
30
0
41
1
10
3.54913534665784
20
-6.35773287820814
30
0
41
1
10
3.43456785046305
20
-6.41462859948774
30
0
41
1
10
3.21272596205088
20
-6.53094919246905
30
0
41
1
10
3.10530086659327
20
-6.59044021005755
30
0
41
1
10
2.89884161845654
20
-6.71233432189158
30
0
41
1
10
2.8008445351339
20
-6.77413754327446
30
0
41
1
10
2.52587644074518
20
-6.96149036275489
30
0
41
1
10
2.36700330018891
20
-7.08920394205464
30
0
41
1
10
2.18249400315949
20
-7.28432303567524
30
0
41
1
10
2.13153229890651
20
-7.34857297643902
30
0
41
1
10
2.0536738661155
20
-7.47320908666634
30
0
41
1
10
2.02650049131319
20
-7.53393677309566
30
0
41
1
10
1.99765191975416
20
-7.65103141128526
30
0
41
1
10
1.99636150019432
20
-7.70568745722846
30
0
41
1
10
2.0123018677042
20
-7.78205954272337
30
0
41
1
10
2.02059998402424
20
-7.80658073833132
30
0
41
1
10
2.0429168439502
20
-7.85377908800066
30
0
41
1
10
2.05700612316951
20
-7.87654123555606
30
0
41
1
10
2.14032504736591
20
-7.98471673897419
30
0
41
1
10
2.24615169701465
20
-8.05267635928107
30
0
41
1
10
2.44444355044044
20
-8.13421923585688
30
0
41
1
10
2.51746842176743
20
-8.15794369791158
30
0
41
1
10
2.67181964737199
20
-8.19857202723642
30
0
41
1
10
2.75348207679997
20
-8.2156328298027
30
0
41
1
10
3.00936017812251
20
-8.25860085335484
30
0
41
1
10
3.19433579309813
20
-8.27637428339256
30
0
41
1
10
3.48707901763689
20
-8.290497753452
30
0
41
1
10
3.58747261509529
20
-8.29309045512443
30
0
41
1
10
3.79152384492824
20
-8.29445102455537
30
0
41
1
10
3.89510506815074
20
-8.29322975078506
30
0
41
1
10
4.00000000135105
20
-8.29032353706171
30
0
0
SPLINE
5
D8
100
AcDbEntity
8
1
62
256
6
ByLayer
370
18
48
1
60
0
100
AcDbSpline
70
4
71
3
72
14
73
10
40
0
40
0
40
0
40
0
40
0.25
40
0.25
40
0.5
40
0.5
40
0.75
40
0.75
40
1
40
1
40
1
40
1
41
1
10
70.905833759709
20
2.08515842897049
30
0
41
1
10
70.8962861092477
20
2.11324471534746
30
0
41
1
10
70.8902321769494
20
2.14234476024384
30
0
41
1
10
70.8893335549983
20
2.20250944235517
30
0
41
1
10
70.8949784263507
20
2.2329020128347
30
0
41
1
10
70.9219389104144
20
2.28898593039855
30
0
41
1
10
70.9446783635591
20
2.31228201390422
30
0
41
1
10
70.9980617965203
20
2.34454825523838
30
0
41
1
10
71.0283217746557
20
2.35424901804006
30
0
41
1
10
71.0591580211934
20
2.35978485753864
30
0
0
SPLINE
5
D9
100
AcDbEntity
8
1
62
256
6
ByLayer
370
13
48
1
60
0
100
AcDbSpline
70
4
71
3
72
8
73
4
40
0
40
0
40
0
40
0
40
1
40
1
40
1
40
1
41
1
10
4.25021123262604
20
-1.5122498724478
30
0
41
1
10
4.20814397214278
20
-1.49884823749878
30
0
41
1
10
4.16707199571209
20
-1.48780422382194
30
0
41
1
10
4.12974873842285
20
-1.4797973241179
30
0
0
SPLINE
5
DA
100
AcDbEntity
8
1
62
256
6
ByLayer
370
18
48
1
60
0
100
AcDbSpline
70
4
71
3
72
92
73
88
40
0
40
0
40
0
40
0
40
0.0332540812448569
40
0.0332540812448569
40
0.0498811218672854
40
0.0498811218672854
40
0.0665081624897138
40
0.0665081624897138
40
0.0997622437345714
40
0.0997622437345714
40
0.116389284357
40
0.116389284357
40
0.133016324979428
40
0.133016324979428
40
0.166270406224285
40
0.166270406224285
40
0.199524487469141
40
0.199524487469141
40
0.232778568713997
40
0.232778568713997
40
0.249405609336425
40
0.249405609336425
40
0.266032649958853
40
0.266032649958853
40
0.29928673120371
40
0.29928673120371
40
0.315913771826138
40
0.315913771826138
40
0.332540812448566
40
0.332540812448566
40
0.365794893693422
40
0.365794893693422
40
0.399048974938278
40
0.399048974938278
40
0.415676015560707
40
0.415676015560707
40
0.432303056183135
40
0.432303056183135
40
0.465557137427991
40
0.465557137427991
40
0.48218417805042
40
0.48218417805042
40
0.498811218672848
40
0.498811218672848
40
0.532065299917703
40
0.532065299917703
40
0.548692340540132
40
0.548692340540132
40
0.56531938116256
40
0.56531938116256
40
0.598573462407416
40
0.598573462407416
40
0.615200503029844
40
0.615200503029844
40
0.631827543652272
40
0.631827543652272
40
0.665081624897129
40
0.665081624897129
40
0.698335706141985
40
0.698335706141985
40
0.714962746764413
40
0.714962746764413
40
0.731589787386841
40
0.731589787386841
40
0.764843868631698
40
0.764843868631698
40
0.781470909254127
40
0.781470909254127
40
0.798097949876555
40
0.798097949876555
40
0.831352031121412
40
0.831352031121412
40
0.864606112366269
40
0.864606112366269
40
0.897860193611126
40
0.897860193611126
40
0.914487234233554
40
0.914487234233554
40
0.931114274855983
40
0.931114274855983
40
0.96436835610084
40
0.96436835610084
40
0.980995396723269
40
0.980995396723269
40
0.997622437345697
40
0.997622437345697
40
1
40
1
40
1
40
1
41
1
10
22.9948086613338
20
8.30536790859352
30
0
41
1
10
23.5069982775281
20
8.30735420029853
30
0
41
1
10
24.0196021255247
20
8.29406396760425
30
0
41
1
10
24.7880645452717
20
8.25168210758682
30
0
41
1
10
25.0441520417384
20
8.23379831061598
30
0
41
1
10
25.5560514007565
20
8.19042098263978
30
0
41
1
10
25.8117106756857
20
8.16486410328204
30
0
41
1
10
26.5798020707592
20
8.07713802937593
30
0
41
1
10
27.0935024404385
20
8.0040536553449
30
0
41
1
10
27.8620580433957
20
7.87274266705825
30
0
41
1
10
28.1180617622608
20
7.82533924712405
30
0
41
1
10
28.6295367509658
20
7.72308415929487
30
0
41
1
10
28.885131809202
20
7.66829084761551
30
0
41
1
10
29.6532170617214
20
7.49414567923537
30
0
41
1
10
30.1667847375111
20
7.36447288751424
30
0
41
1
10
31.1918240619256
20
7.07799745298891
30
0
41
1
10
31.7026954740864
20
6.92070038556909
30
0
41
1
10
32.7268914911242
20
6.58361676492649
30
0
41
1
10
33.2394942702236
20
6.40325916050145
30
0
41
1
10
34.0083010202689
20
6.11382724079141
30
0
41
1
10
34.2642050039894
20
6.01407594606437
30
0
41
1
10
34.7761681526438
20
5.81001842659998
30
0
41
1
10
35.0322811400493
20
5.70565519704917
30
0
41
1
10
35.8006039421859
20
5.38513291393903
30
0
41
1
10
36.3128587401277
20
5.16165291446933
30
0
41
1
10
37.0804686706184
20
4.81034279178562
30
0
41
1
10
37.3364946511153
20
4.69076528040594
30
0
41
1
10
37.8492015570457
20
4.44838764405887
30
0
41
1
10
38.1055257567102
20
4.32543271231711
30
0
41
1
10
38.8741755691826
20
3.95096095059847
30
0
41
1
10
39.3859067273507
20
3.69342098323258
30
0
41
1
10
40.4086676203403
20
3.16344420262527
30
0
41
1
10
40.9218667739105
20
2.89352246553236
30
0
41
1
10
41.6909824322749
20
2.48109208504474
30
0
41
1
10
41.9471382409375
20
2.34241718923778
30
0
41
1
10
42.4588579493365
20
2.06238791376316
30
0
41
1
10
42.7143065267048
20
1.92083082097469
30
0
41
1
10
43.481675314702
20
1.49541405093817
30
0
41
1
10
43.9941684214548
20
1.21006706051989
30
0
41
1
10
44.7632359767842
20
0.777632943532097
30
0
41
1
10
45.0195875909754
20
0.632765090385959
30
0
41
1
10
45.531276480268
20
0.342032312965159
30
0
41
1
10
45.7869809935153
20
0.196516418164151
30
0
41
1
10
46.5548393592136
20
-0.238422641453411
30
0
41
1
10
47.067112195063
20
-0.52734688932324
30
0
41
1
10
47.835222850024
20
-0.96067914307028
30
0
41
1
10
48.0910944059575
20
-1.10534435380975
30
0
41
1
10
48.6032606672924
20
-1.39362223311375
30
0
41
1
10
48.8594240125486
20
-1.53658398382135
30
0
41
1
10
49.6278581070823
20
-1.96250997084746
30
0
41
1
10
50.1400545225886
20
-2.24256145362233
30
0
41
1
10
50.907329933997
20
-2.658242919027
30
0
41
1
10
51.1628385991216
20
-2.79619477115997
30
0
41
1
10
51.6748608010788
20
-3.06836286614319
30
0
41
1
10
51.9313676538385
20
-3.20288531050449
30
0
41
1
10
52.700509315353
20
-3.60156818388535
30
0
41
1
10
53.2126507350109
20
-3.86084284304209
30
0
41
1
10
54.2349401262709
20
-4.36737309479113
30
0
41
1
10
54.746805986996
20
-4.61197341477916
30
0
41
1
10
55.5158161697387
20
-4.9658239691976
30
0
41
1
10
55.7723524165521
20
-5.08170146252107
30
0
41
1
10
56.2845203468507
20
-5.30895632694055
30
0
41
1
10
56.5401363374604
20
-5.42057784357579
30
0
41
1
10
57.3070731797456
20
-5.74735903222415
30
0
41
1
10
57.8192061141188
20
-5.95357700454272
30
0
41
1
10
58.5875008700426
20
-6.24711786086033
30
0
41
1
10
58.8436337812983
20
-6.34229958929797
30
0
41
1
10
59.3558026021627
20
-6.52744754415397
30
0
41
1
10
59.6115898152018
20
-6.61733728049444
30
0
41
1
10
60.3794469900282
20
-6.87638935069603
30
0
41
1
10
60.8916244393601
20
-7.0359324395443
30
0
41
1
10
61.9152510334622
20
-7.33009844603902
30
0
41
1
10
62.4263408962706
20
-7.46511850679011
30
0
41
1
10
63.4514769582273
20
-7.70574400657495
30
0
41
1
10
63.9638082722539
20
-7.81174346353288
30
0
41
1
10
64.7311063336176
20
-7.94983061355694
30
0
41
1
10
64.9865220054081
20
-7.9924257430894
30
0
41
1
10
65.4978054829492
20
-8.07010468962753
30
0
41
1
10
65.7538098825096
20
-8.10514581263178
30
0
41
1
10
66.5224484197755
20
-8.19918102079603
30
0
41
1
10
67.0355687601525
20
-8.2470413877042
30
0
41
1
10
67.8024099694379
20
-8.29635616427797
30
0
41
1
10
68.0577179374457
20
-8.30902257401888
30
0
41
1
10
68.5690595918465
20
-8.32666283656758
30
0
41
1
10
68.8249129799717
20
-8.33167909212361
30
0
41
1
10
69.1174509114952
20
-8.33309955657896
30
0
41
1
10
69.154052238418
20
-8.33320010321728
30
0
41
1
10
69.1906564697409
20
-8.33322338410022
30
0
0
SPLINE
5
DB
100
AcDbEntity
8
1
62
256
6
ByLayer
370
18
48
1
60
0
100
AcDbSpline
70
4
71
3
72
28
73
24
40
0
40
0
40
0
40
0
40
0.25
40
0.25
40
0.375
40
0.375
40
0.499999999999999
40
0.499999999999999
40
0.624999999999999
40
0.624999999999999
40
0.687499999999999
40
0.687499999999999
40
0.749999999999999
40
0.749999999999999
40
0.812499999999999
40
0.812499999999999
40
0.874999999999999
40
0.874999999999999
40
0.937499999999999
40
0.937499999999999
40
0.96875
40
0.96875
40
1
40
1
40
1
40
1
41
1
10
71.0591580211934
20
2.35978485753856
30
0
41
1
10
71.3418499972353
20
2.4105347892783
30
0
41
1
10
71.6230747173052
20
2.46870464308583
30
0
41
1
10
72.0384022240243
20
2.57503065702156
30
0
41
1
10
72.1758219451299
20
2.61371282993826
30
0
41
1
10
72.4477892617138
20
2.70031857952392
30
0
41
1
10
72.582357059243
20
2.74817251516913
30
0
41
1
10
72.8471329341385
20
2.85814401047111
30
0
41
1
10
72.9772406987325
20
2.9201409526639
30
0
41
1
10
73.1626097856232
20
3.02931689538335
30
0
41
1
10
73.2230951964889
20
3.06868556988573
30
0
41
1
10
73.3380614460452
20
3.15386563524453
30
0
41
1
10
73.3926806280367
20
3.19969908012851
30
0
41
1
10
73.4940599792483
20
3.30033512413189
30
0
41
1
10
73.5412949255101
20
3.3558696542708
30
0
41
1
10
73.6212589850193
20
3.47537718255373
30
0
41
1
10
73.6543574057096
20
3.53980402601323
30
0
41
1
10
73.7019267387504
20
3.67712562903054
30
0
41
1
10
73.7156648210019
20
3.74765149221162
30
0
41
1
10
73.7218090740897
20
3.85614762096569
30
0
41
1
10
73.7214047715086
20
3.89288747053965
30
0
41
1
10
73.7161516449068
20
3.96519115803514
30
0
41
1
10
73.7113360562208
20
4.00100997258119
30
0
41
1
10
73.7046153844667
20
4.0365371886285
30
0
0
SPLINE
5
DC
100
AcDbEntity
8
1
62
256
6
ByLayer
370
18
48
1
60
0
100
AcDbSpline
70
4
71
3
72
22
73
18
40
0
40
0
40
0
40
0
40
0.119066914839579
40
0.119066914839579
40
0.244914498433925
40
0.244914498433925
40
0.307838290231098
40
0.307838290231098
40
0.370762082028271
40
0.370762082028271
40
0.496609665622616
40
0.496609665622616
40
0.748304832811307
40
0.748304832811307
40
0.874152416405654
40
0.874152416405654
40
1
40
1
40
1
40
1
41
1
10
4.3067618708404
20
7.93542745737921
30
0
41
1
10
4.63680266665608
20
7.93091296214558
30
0
41
1
10
4.98341631398304
20
7.90655142735807
30
0
41
1
10
5.71713822779725
20
7.82726951775319
30
0
41
1
10
6.10569053505446
20
7.77047928858448
30
0
41
1
10
6.70057184077962
20
7.66600884986877
30
0
41
1
10
6.90118750992468
20
7.6278590690799
30
0
41
1
10
7.303631793237
20
7.54593350081282
30
0
41
1
10
7.50570546370059
20
7.50207963326062
30
0
41
1
10
8.11403540201462
20
7.36311940663427
30
0
41
1
10
8.52238185966249
20
7.26060524572569
30
0
41
1
10
9.75510612668739
20
6.92174242196265
30
0
41
1
10
10.5864908560821
20
6.65693275744192
30
0
41
1
10
11.8483789065389
20
6.21835398220168
30
0
41
1
10
12.2714438371984
20
6.06588919087505
30
0
41
1
10
13.1239714888065
20
5.7470597460931
30
0
41
1
10
13.5531653158173
20
5.58074386012552
30
0
41
1
10
13.9831557578568
20
5.41086695345311
30
0
0
SPLINE
5
DD
100
AcDbEntity
8
1
62
256
6
ByLayer
370
18
48
1
60
0
100
AcDbSpline
70
4
71
3
72
16
73
12
40
0
40
0
40
0
40
0
40
0.334056203101811
40
0.334056203101811
40
0.432597840954942
40
0.432597840954942
40
0.531139478808073
40
0.531139478808073
40
0.728222754514335
40
0.728222754514335
40
1
40
1
40
1
40
1
41
1
10
47.3548730849581
20
-0.014474003855014
30
0
41
1
10
48.5465272213714
20
-0.66916380591087
30
0
41
1
10
49.738524511424
20
-1.32404520352284
30
0
41
1
10
51.2931043079609
20
-2.15279131695007
30
0
41
1
10
51.6479879337251
20
-2.34022017282879
30
0
41
1
10
52.3596300200961
20
-2.71173414709247
30
0
41
1
10
52.7167691097976
20
-2.89599412675972
30
0
41
1
10
53.7834974034208
20
-3.43816600301432
30
0
41
1
10
54.4908732611778
20
-3.78697189772424
30
0
41
1
10
56.1690069394684
20
-4.58034677344526
30
0
41
1
10
57.1378761953633
20
-5.01134678060262
30
0
41
1
10
58.1072349993065
20
-5.40726878065502
30
0
0
SPLINE
5
DE
100
AcDbEntity
8
1
62
256
6
ByLayer
370
13
48
1
60
0
100
AcDbSpline
70
4
71
3
72
24
73
20
40
0
40
0
40
0
40
0
40
0.0937928894024338
40
0.0937928894024338
40
0.244827407835365
40
0.244827407835365
40
0.320344667051829
40
0.320344667051829
40
0.395861926268293
40
0.395861926268293
40
0.697930963134147
40
0.697930963134147
40
0.848965481567075
40
0.848965481567075
40
0.924482740783537
40
0.924482740783537
40
0.962241370391769
40
0.962241370391769
40
1
40
1
40
1
40
1
41
1
10
58.1072349993502
20
-5.40726878067284
30
0
41
1
10
58.5437658464884
20
-5.5855641294952
30
0
41
1
10
58.9803959723267
20
-5.75674577628575
30
0
41
1
10
60.1214289484451
20
-6.18353535611107
30
0
41
1
10
60.8265776098094
20
-6.42699540726125
30
0
41
1
10
61.8888857601444
20
-6.75862810492291
30
0
41
1
10
62.2437515539588
20
-6.86358149382494
30
0
41
1
10
62.9553896550714
20
-7.06181403743608
30
0
41
1
10
63.3124257872434
20
-7.15512540877373
30
0
41
1
10
65.0903446948992
20
-7.58791577247629
30
0
41
1
10
66.4995994090219
20
-7.82886281390677
30
0
41
1
10
68.6145242929452
20
-8.02500808356533
30
0
41
1
10
69.3197014106212
20
-8.06290038432925
30
0
41
1
10
70.3801622352511
20
-8.07760494749095
30
0
41
1
10
70.7340934724601
20
-8.07547636972694
30
0
41
1
10
71.2659681990058
20
-8.06161072724714
30
0
41
1
10
71.4434227352581
20
-8.05520973204352
30
0
41
1
10
71.7987095554047
20
-8.03882438611959
30
0
41
1
10
71.9765786035426
20
-8.02854885280348
30
0
41
1
10
72.1545828377872
20
-8.01709863185999
30
0
0
SPLINE
5
DF
100
AcDbEntity
8
1
62
256
6
ByLayer
370
18
48
1
60
0
100
AcDbSpline
70
4
71
3
72
12
73
8
40
0
40
0
40
0
40
0
40
0.249999999999991
40
0.249999999999991
40
0.499999999999982
40
0.499999999999982
40
1
40
1
40
1
40
1
41
1
10
72.1545828377893
20
-8.01709863185988
30
0
41
1
10
72.1594363820099
20
-8.0039883561617
30
0
41
1
10
72.1641471889142
20
-7.99064028262882
30
0
41
1
10
72.1721225288099
20
-7.96650801457221
30
0
41
1
10
72.1753686843841
20
-7.95576278883078
30
0
41
1
10
72.1816884599817
20
-7.93148253054204
30
0
41
1
10
72.1812493936019
20
-7.92670729678113
30
0
41
1
10
72.1780978158029
20
-7.92971469723906
30
0
0
SPLINE
5
E0
100
AcDbEntity
8
SK1
62
256
6
ByLayer
370
18
48
1
60
0
100
AcDbSpline
70
4
71
3
72
10
73
6
40
0
40
0
40
0
40
0
40
0.5
40
0.5
40
1
40
1
40
1
40
1
41
1
10
-45.6
20
7.02298217767964
30
0
41
1
10
-45.9143220389894
20
6.64702130828758
30
0
41
1
10
-46.2277356110739
20
6.27071884198728
30
0
41
1
10
-46.8510739658783
20
5.51680207330966
30
0
41
1
10
-47.1610991777505
20
5.13922553376969
30
0
41
1
10
-47.4673321444798
20
4.76022305432016
30
0
0
SPLINE
5
E1
100
AcDbEntity
8
SK1
62
256
6
ByLayer
370
18
48
1
60
0
100
AcDbSpline
70
4
71
3
72
14
73
10
40
0
40
0
40
0
40
0
40
0.500000000000001
40
0.500000000000001
40
0.75
40
0.75
40
0.875
40
0.875
40
1
40
1
40
1
40
1
41
1
10
-45.6
20
4.44482874095579
30
0
41
1
10
-45.5789465118596
20
4.47001083677853
30
0
41
1
10
-45.5585985142981
20
4.49958430859971
30
0
41
1
10
-45.5303873672755
20
4.55186307490678
30
0
41
1
10
-45.5214287539013
20
4.57058886789738
30
0
41
1
10
-45.5102864584886
20
4.60022376874565
30
0
41
1
10
-45.50688945626
20
4.61055789230522
30
0
41
1
10
-45.5017228477084
20
4.63150143585744
30
0
41
1
10
-45.5
20
4.64208723856132
30
0
41
1
10
-45.5
20
4.65131941440146
30
0
0
SPLINE
5
E2
100
AcDbEntity
8
SK1
62
256
6
ByLayer
370
18
48
1
60
0
100
AcDbSpline
70
4
71
3
72
12
73
8
40
0
40
0
40
0
40
0
40
0.249999999999999
40
0.249999999999999
40
0.499999999999999
40
0.499999999999999
40
1
40
1
40
1
40
1
41
1
10
-47.4673321444798
20
4.76022305432016
30
0
41
1
10
-47.5008867772661
20
4.73144885649612
30
0
41
1
10
-47.5356470517899
20
4.69764558926678
30
0
41
1
10
-47.6078389592281
20
4.62023909881745
30
0
41
1
10
-47.6455116520245
20
4.57633242901912
30
0
41
1
10
-47.7616543447444
20
4.43089518995927
30
0
41
1
10
-47.8409667019118
20
4.31917975050212
30
0
41
1
10
-47.9231504704186
20
4.19038301104052
30
0
0
SPLINE
5
E3
100
AcDbEntity
8
SK1
62
256
6
ByLayer
370
18
48
1
60
0
100
AcDbSpline
70
4
71
3
72
14
73
10
40
0
40
0
40
0
40
0
40
0.125000000000001
40
0.125000000000001
40
0.250000000000001
40
0.250000000000001
40
0.500000000000002
40
0.500000000000002
40
1
40
1
40
1
40
1
41
1
10
-45.5
20
7.08214979759819
30
0
41
1
10
-45.5
20
7.08859796192772
30
0
41
1
10
-45.5017107697461
20
7.09253742152231
30
0
41
1
10
-45.5068845888984
20
7.09670210314664
30
0
41
1
10
-45.5102281895671
20
7.09702165545033
30
0
41
1
10
-45.521528237522
20
7.09502563256419
30
0
41
1
10
-45.5303630420009
20
7.08988686078783
30
0
41
1
10
-45.558525242781
20
7.06899927338512
30
0
41
1
10
-45.5788396428357
20
7.04829209963648
30
0
41
1
10
-45.6
20
7.02298217767964
30
0
0
SPLINE
5
E4
100
AcDbEntity
8
SK1
62
256
6
ByLayer
370
18
48
1
60
0
100
AcDbSpline
70
4
71
3
72
20
73
16
40
0
40
0
40
0
40
0
40
0.25
40
0.25
40
0.375
40
0.375
40
0.5
40
0.5
40
0.625
40
0.625
40
0.75
40
0.75
40
0.875
40
0.875
40
1
40
1
40
1
40
1
41
1
10
-47.9231504704165
20
4.190383011037
30
0
41
1
10
-47.8456377932694
20
4.22062210177143
30
0
41
1
10
-47.7709304221289
20
4.25341198934089
30
0
41
1
10
-47.6658225949446
20
4.3089192239585
30
0
41
1
10
-47.6319614205207
20
4.32848982357155
30
0
41
1
10
-47.5675660821799
20
4.37065619290266
30
0
41
1
10
-47.536717228645
20
4.39350503123413
30
0
41
1
10
-47.4819641260052
20
4.44233346166138
30
0
41
1
10
-47.458007753851
20
4.46822508518906
30
0
41
1
10
-47.4204104515271
20
4.52446427416839
30
0
41
1
10
-47.4074674944055
20
4.55399424226371
30
0
41
1
10
-47.3976338660805
20
4.61542219287415
30
0
41
1
10
-47.4010610644437
20
4.64613636645143
30
0
41
1
10
-47.4239767552423
20
4.70586221163128
30
0
41
1
10
-47.4430292467564
20
4.73401362026794
30
0
41
1
10
-47.4673321444798
20
4.76022305432016
30
0
0
SPLINE
5
E5
100
AcDbEntity
8
SK1
62
256
6
ByLayer
370
18
48
1
60
0
100
AcDbSpline
70
4
71
3
72
8
73
4
40
0
40
0
40
0
40
0
40
1
40
1
40
1
40
1
41
1
10
-47.9231504704186
20
4.1903830110405
30
0
41
1
10
-47.9488170824704
20
4.15791152513467
30
0
41
1
10
-47.9744351284363
20
4.12542377908508
30
0
41
1
10
-48
20
4.09291823000686
30
0
0
SPLINE
5
E6
100
AcDbEntity
8
SK1
62
256
6
ByLayer
370
18
48
1
60
0
100
AcDbSpline
70
4
71
3
72
10
73
6
40
0
40
0
40
0
40
0
40
0.5
40
0.5
40
1
40
1
40
1
40
1
41
1
10
-48
20
1.51476479328304
30
0
41
1
10
-47.6125332900688
20
2.00742590931671
30
0
41
1
10
-47.2139142402274
20
2.49659307170538
30
0
41
1
10
-46.4111695961855
20
3.47232945525329
30
0
41
1
10
-46.0062994004916
20
3.95885366795923
30
0
41
1
10
-45.6
20
4.44482874095581
30
0
0
LINE
5
76
100
AcDbEntity
8
81
62
256
6
ByLayer
370
18
48
1
60
0
100
AcDbLine
10
75
20
0
30
0
11
80
21
0
31
0
39
0
210
0
220
0
230
1
0
LINE
5
77
100
AcDbEntity
8
1
62
256
6
ByLayer
370
18
48
1
60
0
100
AcDbLine
10
3.74386
20
8.293955
30
0
11
1.328423
21
8.292506
31
0
39
0
210
0
220
0
230
1
0
LINE
5
79
100
AcDbEntity
8
1
62
256
6
ByLayer
370
18
48
1
60
0
100
AcDbLine
10
24.278749
20
8.306276
30
0
11
23.079288
21
8.305556
31
0
39
0
210
0
220
0
230
1
0
LINE
5
7A
100
AcDbEntity
8
1
62
256
6
ByLayer
370
18
48
1
60
0
100
AcDbLine
10
70.379296
20
8.333936
30
0
11
69.190781
21
8.333223
31
0
39
0
210
0
220
0
230
1
0
LINE
5
7B
100
AcDbEntity
8
1
62
256
6
ByLayer
370
18
48
1
60
0
100
AcDbLine
10
69.190781
20
-8.333223
30
0
11
70.378894
21
-8.333936
31
0
39
0
210
0
220
0
230
1
0
LINE
5
7C
100
AcDbEntity
8
1
62
256
6
ByLayer
370
18
48
1
60
0
100
AcDbLine
10
23.079288
20
-8.305556
30
0
11
24.278586
21
-8.306276
31
0
39
0
210
0
220
0
230
1
0
LINE
5
7D
100
AcDbEntity
8
1
62
256
6
ByLayer
370
18
48
1
60
0
100
AcDbLine
10
1.328423
20
-8.292506
30
0
11
3.74386
21
-8.293955
31
0
39
0
210
0
220
0
230
1
0
LINE
5
7E
100
AcDbEntity
8
SK1
62
256
6
ByLayer
370
18
48
1
60
0
100
AcDbLine
10
0
20
9
30
0
11
-45.401924
21
9
31
0
39
0
210
0
220
0
230
1
0
LINE
5
80
100
AcDbEntity
8
SK1
62
256
6
ByLayer
370
18
48
1
60
0
100
AcDbLine
10
-45.401924
20
-9
30
0
11
0
21
-9
31
0
39
0
210
0
220
0
230
1
0
LINE
5
81
100
AcDbEntity
8
SK1
62
256
6
ByLayer
370
18
48
1
60
0
100
AcDbLine
10
-45.401924
20
9
30
0
11
-48
21
4.5
31
0
39
0
210
0
220
0
230
1
0
LINE
5
82
100
AcDbEntity
8
SK1
62
256
6
ByLayer
370
18
48
1
60
0
100
AcDbLine
10
-48
20
-4.5
30
0
11
-45.401924
21
-9
31
0
39
0
210
0
220
0
230
1
0
LINE
5
83
100
AcDbEntity
8
SK4
62
256
6
ByLayer
370
18
48
0.05
60
0
100
AcDbLine
10
80
20
0
30
0
11
-53
21
0
31
0
39
0
210
0
220
0
230
1
0
LINE
5
85
100
AcDbEntity
8
4
62
256
6
ByLayer
370
18
48
0.05
60
0
100
AcDbLine
10
75
20
0
30
0
11
0
21
0
31
0
39
0
210
0
220
0
230
1
0
LINE
5
87
100
AcDbEntity
8
80
62
256
6
ByLayer
370
18
48
1
60
0
100
AcDbLine
10
0
20
0
30
0
11
-5
21
0
31
0
39
0
210
0
220
0
230
1
0
LINE
5
88
100
AcDbEntity
8
1
62
256
6
ByLayer
370
18
48
1
60
0
100
AcDbLine
10
75
20
0
30
0
11
74.980988
21
-0.077081
31
0
39
0
210
0
220
0
230
1
0
LINE
5
89
100
AcDbEntity
8
1
62
256
6
ByLayer
370
13
48
1
60
0
100
AcDbLine
10
4.250532
20
-7.934627
30
0
11
4.250538
21
-7.936005
31
0
39
0
210
0
220
0
230
1
0
LINE
5
8A
100
AcDbEntity
8
1
62
256
6
ByLayer
370
18
48
1
60
0
100
AcDbLine
10
0
20
-9
30
0
11
0
21
9
31
0
39
0
210
0
220
0
230
1
0
LINE
5
8B
100
AcDbEntity
8
1
62
256
6
ByLayer
370
13
48
1
60
0
100
AcDbLine
10
74.593618
20
1.385294
30
0
11
72.813314
21
1.385294
31
0
39
0
210
0
220
0
230
1
0
LINE
5
8C
100
AcDbEntity
8
1
62
256
6
ByLayer
370
13
48
1
60
0
100
AcDbLine
10
0.663972
20
8.646253
30
0
11
0.663972
21
-8.646253
31
0
39
0
210
0
220
0
230
1
0
LINE
5
8D
100
AcDbEntity
8
1
62
256
6
ByLayer
370
13
48
1
60
0
100
AcDbLine
10
72.813314
20
1.385294
30
0
11
74.891568
21
0.356306
31
0
39
0
210
0
220
0
230
1
0
LINE
5
8E
100
AcDbEntity
8
1
62
256
6
ByLayer
370
18
48
1
60
0
100
AcDbLine
10
74.980988
20
0.077081
30
0
11
75
21
0
31
0
39
0
210
0
220
0
230
1
0
LINE
5
8F
100
AcDbEntity
8
1
62
256
6
ByLayer
370
18
48
1
60
0
100
AcDbLine
10
75
20
0
30
0
11
72.096776
21
-7.976544
31
0
39
0
210
0
220
0
230
1
0
LINE
5
90
100
AcDbEntity
8
1
62
256
6
ByLayer
370
18
48
1
60
0
100
AcDbLine
10
74.891568
20
0.356306
30
0
11
74.593618
21
1.385294
31
0
39
0
210
0
220
0
230
1
0
LINE
5
91
100
AcDbEntity
8
1
62
256
6
ByLayer
370
13
48
1
60
0
100
AcDbLine
10
1.328423
20
8.292506
30
0
11
1.328423
21
-8.292506
31
0
39
0
210
0
220
0
230
1
0
LINE
5
92
100
AcDbEntity
8
1
62
256
6
ByLayer
370
18
48
1
60
0
100
AcDbLine
10
4
20
-1.413744
30
0
11
4
21
8.290324
31
0
39
0
210
0
220
0
230
1
0
LINE
5
93
100
AcDbEntity
8
1
62
256
6
ByLayer
370
13
48
1
60
0
100
AcDbLine
10
72.643855
20
1.03887
30
0
11
74.893344
21
-0.0749
31
0
39
0
210
0
220
0
230
1
0
LINE
5
94
100
AcDbEntity
8
1
62
256
6
ByLayer
370
18
48
1
60
0
100
AcDbLine
10
74.891568
20
-0.356306
30
0
11
74.593618
21
-1.385294
31
0
39
0
210
0
220
0
230
1
0
LINE
5
95
100
AcDbEntity
8
1
62
256
6
ByLayer
370
18
48
1
60
0
100
AcDbLine
10
70.80122
20
-4.635497
30
0
11
74.893344
21
-0.0749
31
0
39
0
210
0
220
0
230
1
0
LINE
5
96
100
AcDbEntity
8
SK1
62
256
6
ByLayer
370
18
48
1
60
0
100
AcDbLine
10
-45.5
20
4.651319
30
0
11
-45.5
21
7.08215
31
0
39
0
210
0
220
0
230
1
0
LINE
5
97
100
AcDbEntity
8
SK1
62
256
6
ByLayer
370
13
48
1
60
0
100
AcDbLine
10
-45.6
20
7.022982
30
0
11
-45.6
21
4.444696
31
0
39
0
210
0
220
0
230
1
0
LINE
5
98
100
AcDbEntity
8
SK1
62
256
6
ByLayer
370
18
48
1
60
0
100
AcDbLine
10
-48
20
1.514765
30
0
11
-48
21
-4.5
31
0
39
0
210
0
220
0
230
1
0
LINE
5
99
100
AcDbEntity
8
SK1
62
256
6
ByLayer
370
18
48
1
60
0
100
AcDbLine
10
-48
20
4.092918
30
0
11
-48
21
1.514698
31
0
39
0
210
0
220
0
230
1
0
LINE
5
9A
100
AcDbEntity
8
SK1
62
256
6
ByLayer
370
18
48
1
60
0
100
AcDbLine
10
0
20
-9
30
0
11
0
21
9
31
0
39
0
210
0
220
0
230
1
0
LINE
5
9B
100
AcDbEntity
8
SK1
62
256
6
ByLayer
370
18
48
1
60
0
100
AcDbLine
10
-45.401924
20
9
30
0
11
-45.401924
21
-9
31
0
39
0
210
0
220
0
230
1
0
LINE
5
9C
100
AcDbEntity
8
SK1
62
256
6
ByLayer
370
18
48
1
60
0
100
AcDbLine
10
-48
20
4.5
30
0
11
-48
21
4.092918
31
0
39
0
210
0
220
0
230
1
0
MTEXT
5
E7
100
AcDbEntity
8
SK6
62
256
6
ByLayer
370
13
48
1
60
0
100
AcDbMText
10
15.629169
20
40.717694
30
0
210
0
220
0
230
1
1
\W0.7415;R840-1667-30-A1A1220
40
3.5
41
0
44
1.084337
50
0
71
8
72
5
7
iso_b_vert
0
DIMENSION
5
F4
100
AcDbEntity
8
SK2
62
256
6
ByLayer
370
13
48
1
60
0
100
AcDbDimension
2
DimnDraft3D1
10
72.13
20
-18.548398
30
0
11
33.880059
21
-18.548398
31
0
70
32
71
5
72
1
41
1
210
0
220
0
230
1
3
Standard
100
AcDbAlignedDimension
13
0
23
-1.5875
33
0
14
72.13
24
-9.9225
34
0
50
0
100
AcDbRotatedDimension
1001
ACAD
1000
DSTYLE
1002
{
1070
   279
1070
     0
1070
   172
1070
     1
1070
   173
1070
     1
1070
   340
1005
E8
1070
   271
1070
     2
1070
   272
1070
     2
1070
    77
1070
     1
1070
    73
1070
     0
1070
   171
1070
     3
1070
   274
1070
     4
1070
   177
1070
    35
1070
   176
1070
    35
1070
   178
1070
    35
1070
    48
1040
-0.005
1070
    41
1041
3.5
1070
   147
1041
1.75
1070
    42
1041
1.5875
1070
    44
1041
2.0
1070
   140
1041
3.5
1070
   343
1005
0
1070
   344
1005
0
1002
}
0
DIMENSION
5
FE
100
AcDbEntity
8
SK2
62
256
6
ByLayer
370
13
48
1
60
0
100
AcDbDimension
2
DimnDraft3D2
10
75
20
-37.692985
30
0
11
11.9713
21
-37.692985
31
0
70
32
71
5
72
1
41
1
210
0
220
0
230
1
3
Standard
100
AcDbAlignedDimension
13
-48
23
-10.5875
33
0
14
75
24
-1.5875
34
0
50
0
100
AcDbRotatedDimension
1001
ACAD
1000
DSTYLE
1002
{
1070
   279
1070
     0
1070
   172
1070
     1
1070
   173
1070
     1
1070
   340
1005
E8
1070
   271
1070
     2
1070
   272
1070
     2
1070
    77
1070
     1
1070
    73
1070
     0
1070
   171
1070
     3
1070
   274
1070
     4
1070
   177
1070
    35
1070
   176
1070
    35
1070
   178
1070
    35
1070
    48
1040
-0.005
1070
    41
1041
3.5
1070
   147
1041
1.75
1070
    42
1041
1.5875
1070
    44
1041
2.0
1070
   140
1041
3.5
1070
   343
1005
0
1070
   344
1005
0
1002
}
0
DIMENSION
5
108
100
AcDbEntity
8
SK2
62
256
6
ByLayer
370
13
48
1
60
0
100
AcDbDimension
2
DimnDraft3D3
10
75
20
19.944119
30
0
11
48.56
21
19.944119
31
0
70
32
71
5
72
1
41
1
210
0
220
0
230
1
3
Standard
100
AcDbAlignedDimension
13
22.12
23
9.9225
33
0
14
75
24
1.5875
34
0
50
0
100
AcDbRotatedDimension
1001
ACAD
1000
DSTYLE
1002
{
1070
   279
1070
     0
1070
   172
1070
     1
1070
   173
1070
     1
1070
   340
1005
E8
1070
   271
1070
     2
1070
   272
1070
     2
1070
    77
1070
     1
1070
    73
1070
     0
1070
   171
1070
     3
1070
   274
1070
     4
1070
   177
1070
    35
1070
   176
1070
    35
1070
   178
1070
    35
1070
    48
1040
-0.005
1070
    41
1041
3.5
1070
   147
1041
1.75
1070
    42
1041
1.5875
1070
    44
1041
2.0
1070
   140
1041
3.5
1070
   343
1005
0
1070
   344
1005
0
1002
}
0
DIMENSION
5
112
100
AcDbEntity
8
SK2
62
256
6
ByLayer
370
13
48
1
60
0
100
AcDbDimension
2
DimnDraft3D4
10
72.13
20
-21.137503
30
0
11
84.981425
21
-21.137503
31
0
70
32
71
5
72
1
41
1
210
0
220
0
230
1
3
Standard
100
AcDbAlignedDimension
13
75
23
-1.5875
33
0
14
72.13
24
-9.9225
34
0
50
0
100
AcDbRotatedDimension
1001
ACAD
1000
DSTYLE
1002
{
1070
   279
1070
     0
1070
   172
1070
     1
1070
   173
1070
     1
1070
   340
1005
E8
1070
   271
1070
     2
1070
   272
1070
     2
1070
    77
1070
     1
1070
    73
1070
     0
1070
   171
1070
     3
1070
   274
1070
     4
1070
   177
1070
    35
1070
   176
1070
    35
1070
   178
1070
    35
1070
    48
1040
-0.005
1070
    41
1041
3.5
1070
   147
1041
1.75
1070
    42
1041
1.5875
1070
    44
1041
2.0
1070
   140
1041
3.5
1070
   343
1005
0
1070
   344
1005
0
1002
}
0
DIMENSION
5
11C
100
AcDbEntity
8
SK2
62
256
6
ByLayer
370
13
48
1
60
0
100
AcDbDimension
2
DimnDraft3D5
10
72.13
20
-27.343428
30
0
11
8.890676
21
-27.343428
31
0
70
32
71
5
72
1
41
1
210
0
220
0
230
1
3
Standard
100
AcDbAlignedDimension
13
-48
23
-10.5875
33
0
14
72.13
24
-9.9225
34
0
50
0
100
AcDbRotatedDimension
1001
ACAD
1000
DSTYLE
1002
{
1070
   279
1070
     0
1070
   172
1070
     1
1070
   173
1070
     1
1070
   340
1005
E8
1070
   271
1070
     2
1070
   272
1070
     2
1070
    77
1070
     1
1070
    73
1070
     0
1070
   171
1070
     3
1070
   274
1070
     4
1070
   177
1070
    35
1070
   176
1070
    35
1070
   178
1070
    35
1070
    48
1040
-0.005
1070
    41
1041
3.5
1070
   147
1041
1.75
1070
    42
1041
1.5875
1070
    44
1041
2.0
1070
   140
1041
3.5
1070
   343
1005
0
1070
   344
1005
0
1002
}
0
DIMENSION
5
127
100
AcDbEntity
8
SK2
62
256
6
ByLayer
370
13
48
1
60
0
100
AcDbDimension
2
DimnDraft3D6
10
-58.625163
20
9
30
0
11
-59.250163
21
27.47418
31
0
70
33
71
5
72
1
41
1
210
0
220
0
230
1
3
Standard
100
AcDbAlignedDimension
13
-49.5875
23
-9
33
0
14
-49.5875
24
9
34
0
1001
ACAD
1000
DSTYLE
1002
{
1070
   279
1070
     0
1070
    74
1070
     0
1070
   173
1070
     1
1070
   340
1005
E8
1070
   271
1070
     3
1070
   272
1070
     2
1070
    77
1070
     1
1070
    73
1070
     0
1070
   171
1070
     3
1070
   274
1070
     4
1070
   177
1070
    35
1070
   176
1070
    35
1070
   178
1070
    35
1070
    48
1040
-0.005
1070
    41
1041
3.5
1070
   147
1041
1.75
1070
    42
1041
1.5875
1070
    44
1041
2.0
1070
   140
1041
3.5
1070
   343
1005
0
1070
   344
1005
0
1002
}
0
DIMENSION
5
132
100
AcDbEntity
8
2
62
256
6
ByLayer
370
13
48
1
60
0
100
AcDbDimension
2
DimnDraft3D7
10
89.083343
20
8.335
30
0
11
84.458343
21
25.402266
31
0
70
33
71
5
72
1
41
1
210
0
220
0
230
1
3
Standard
100
AcDbAlignedDimension
13
73.7175
23
-8.335
33
0
14
73.7175
24
8.335
34
0
1001
ACAD
1000
DSTYLE
1002
{
1070
   279
1070
     0
1070
    74
1070
     0
1070
   173
1070
     1
1070
   340
1005
E8
1070
   271
1070
     3
1070
   272
1070
     2
1070
    77
1070
     1
1070
    73
1070
     0
1070
   171
1070
     3
1070
   274
1070
     4
1070
   177
1070
    35
1070
   176
1070
    35
1070
   178
1070
    35
1070
    48
1040
-0.005
1070
    41
1041
3.5
1070
   147
1041
1.75
1070
    42
1041
1.5875
1070
    44
1041
2.0
1070
   140
1041
3.5
1070
   343
1005
0
1070
   344
1005
0
1002
}
0
ENDSEC
0
SECTION
2
OBJECTS
0
DICTIONARY
5
19d
330
0
100
AcDbDictionary
280
0
281
1
3
ACAD_GROUP
350
19e
3
ACAD_MLINESTYLE
350
19f
0
DICTIONARY
5
19e
330
0
100
AcDbDictionary
280
0
281
1
0
DICTIONARY
5
19f
330
0
100
AcDbDictionary
280
0
281
1
3
Standard
350
18
0
MLINESTYLE
5
18
330
19f
100
AcDbMlineStyle
2
Standard
70
0
3

62
256
51
90
52
90
71
2
49
-0.5
62
256
6
ByLayer
49
0.5
62
256
6
ByLayer
0
RASTERVARIABLES
5
18b
330

100
AcDbRasterVariables
90
0
70
1
71
1
72
1
0
ENDSEC
0
EOF
