0
SECTION
2
HEADER
9
$ACADVER
1
AC1015
9
$DWGCODEPAGE
3
ANSI_1252
9
$HANDSEED
5
1a1
9
$ANGBASE
50
0
9
$ANGDIR
70
0
9
$ATTMODE
70
1
9
$AUNITS
70
0
9
$AUPREC
70
0
9
$CECOLOR
62
256
9
$CELTSCALE
40
1
9
$CELTYPE
6
ByLayer
9
$CELWEIGHT
370
18
9
$CLAYER
8
0
9
$CMLJUST
70
0
9
$CMLSCALE
40
1
9
$CMLSTYLE
2
Standard
9
$DIMSTYLE
2
Standard
9
$TEXTSIZE
40
0.2
9
$TEXTSTYLE
7
Standard
9
$LUNITS
70
2
9
$LUPREC
70
4
9
$EXTNAMES
290
1
9
$INSUNITS
70
4
9
$LTSCALE
40
1
9
$LWDISPLAY
290
1
9
$PDMODE
70
0
9
$PDSIZE
40
0
9
$PLINEGEN
70
0
0
ENDSEC
0
SECTION
2
CLASSES
0
CLASS
1
RASTERVARIABLES
2
AcDbRasterVariables
3
ISM
90
0
280
0
281
0
0
ENDSEC
0
SECTION
2
TABLES
0
TABLE
2
VPORT
5
197
100
AcDbSymbolTable
0
VPORT
5
1
100
AcDbSymbolTableRecord
100
AcDbViewportTableRecord
2
*Active
70
0
10
0
20
0
11
1
21
1
12
-1
22
1
13
0
23
0
14
0.5
24
0.5
15
10
25
10
16
0
26
0
36
1
17
0
27
0
37
0
0
ENDTAB
0
TABLE
2
LTYPE
5
198
100
AcDbSymbolTable
0
LTYPE
5
14
100
AcDbSymbolTableRecord
100
AcDbLinetypeTableRecord
70
0
2
ByBlock
3

72
65
73
0
40
0
0
LTYPE
5
15
100
AcDbSymbolTableRecord
100
AcDbLinetypeTableRecord
70
0
2
ByLayer
3

72
65
73
0
40
0
0
LTYPE
5
16
100
AcDbSymbolTableRecord
100
AcDbLinetypeTableRecord
70
0
2
CONTINUOUS
3
Solid line
72
65
73
0
40
0
0
LTYPE
5
6A
100
AcDbSymbolTableRecord
100
AcDbLinetypeTableRecord
70
0
2
CENTER
3
____ _ ____ _ ____ _ ____
72
65
73
4
40
47.5
49
22
74
0
49
-8.5
74
0
49
8.5
74
0
49
-8.5
74
0
0
LTYPE
5
6B
100
AcDbSymbolTableRecord
100
AcDbLinetypeTableRecord
70
0
2
DASHED
3
__ __ __ __ __ __ __ __ __
72
65
73
2
40
25.72
49
12.86
74
0
49
-12.86
74
0
0
ENDTAB
0
TABLE
2
LAYER
5
199
100
AcDbSymbolTable
0
LAYER
5
10
100
AcDbSymbolTableRecord
100
AcDbLayerTableRecord
2
0
70
0
62
7
6
CONTINUOUS
290
1
370
-3
390
0
0
LAYER
5
6D
100
AcDbSymbolTableRecord
100
AcDbLayerTableRecord
2
81
70
0
62
-3
6
CONTINUOUS
290
1
370
-3
390
0
0
LAYER
5
6F
100
AcDbSymbolTableRecord
100
AcDbLayerTableRecord
2
80
70
0
62
-6
6
CONTINUOUS
290
1
370
-3
390
0
0
LAYER
5
74
100
AcDbSymbolTableRecord
100
AcDbLayerTableRecord
2
2
70
0
62
7
6
CONTINUOUS
290
1
370
-3
390
0
0
LAYER
5
78
100
AcDbSymbolTableRecord
100
AcDbLayerTableRecord
2
1
70
0
62
4
6
CONTINUOUS
290
1
370
-3
390
0
0
LAYER
5
86
100
AcDbSymbolTableRecord
100
AcDbLayerTableRecord
2
4
70
0
62
-2
6
CENTER
290
1
370
-3
390
0
0
LAYER
5
183
100
AcDbSymbolTableRecord
100
AcDbLayerTableRecord
2
SK2
70
0
62
7
6
CONTINUOUS
290
1
370
-3
390
0
0
LAYER
5
184
100
AcDbSymbolTableRecord
100
AcDbLayerTableRecord
2
SK1
70
0
62
4
6
CONTINUOUS
290
1
370
-3
390
0
0
LAYER
5
185
100
AcDbSymbolTableRecord
100
AcDbLayerTableRecord
2
SK4
70
0
62
2
6
CENTER
290
1
370
-3
390
0
0
LAYER
5
186
100
AcDbSymbolTableRecord
100
AcDbLayerTableRecord
2
SK6
70
0
62
5
6
CONTINUOUS
290
1
370
-3
390
0
0
ENDTAB
0
TABLE
2
STYLE
5
19a
100
AcDbSymbolTable
0
STYLE
5
11
100
AcDbSymbolTableRecord
100
AcDbTextStyleTableRecord
2
Standard
3
txt
70
0
71
0
40
0
41
1
42
0
50
0
0
STYLE
5
DF
100
AcDbSymbolTableRecord
100
AcDbTextStyleTableRecord
2
iso_b_vert
3
simplex.shx
70
0
71
0
40
0
41
1
42
0
50
0
0
STYLE
5
E0
100
AcDbSymbolTableRecord
100
AcDbTextStyleTableRecord
2
DWGDirectTextStyle
3
simplex
70
0
71
0
40
0
41
1
42
0
50
0
0
ENDTAB
0
TABLE
2
DIMSTYLE
5
19b
100
AcDbSymbolTable
100
AcDbDimStyleTable
0
DIMSTYLE
105
27
100
AcDbSymbolTableRecord
100
AcDbDimStyleTableRecord
2
Standard
70
0
3
<>
41
0.18
42
0.0625
44
0.18
140
0.18
147
0.09
73
0
74
0
77
1
271
2
275
0
278
52
280
0
340
11
0
ENDTAB
0
TABLE
2
VIEW
5
19c
100
AcDbSymbolTable
0
ENDTAB
0
TABLE
2
UCS
5
19d
100
AcDbSymbolTable
0
ENDTAB
0
TABLE
2
APPID
5
19e
100
AcDbSymbolTable
0
APPID
5
12
100
AcDbSymbolTableRecord
100
AcDbRegAppTableRecord
2
ACAD
70
0
0
ENDTAB
0
TABLE
2
BLOCK_RECORD
5
19f
100
AcDbSymbolTable
0
BLOCK_RECORD
5
1F
100
AcDbSymbolTableRecord
100
AcDbBlockTableRecord
2
*Model_Space
340
0
70
0
0
BLOCK_RECORD
5
1B
100
AcDbSymbolTableRecord
100
AcDbBlockTableRecord
2
*Paper_Space
340
0
70
0
0
BLOCK_RECORD
5
23
100
AcDbSymbolTableRecord
100
AcDbBlockTableRecord
2
*Paper_Space0
340
0
70
0
0
BLOCK_RECORD
5
E2
100
AcDbSymbolTableRecord
100
AcDbBlockTableRecord
2
DimnDraft3D1
340
0
70
0
0
BLOCK_RECORD
5
EC
100
AcDbSymbolTableRecord
100
AcDbBlockTableRecord
2
DimnDraft3D2
340
0
70
0
0
BLOCK_RECORD
5
F6
100
AcDbSymbolTableRecord
100
AcDbBlockTableRecord
2
DimnDraft3D3
340
0
70
0
0
BLOCK_RECORD
5
100
100
AcDbSymbolTableRecord
100
AcDbBlockTableRecord
2
DimnDraft3D4
340
0
70
0
0
BLOCK_RECORD
5
10A
100
AcDbSymbolTableRecord
100
AcDbBlockTableRecord
2
DimnDraft3D5
340
0
70
0
0
BLOCK_RECORD
5
114
100
AcDbSymbolTableRecord
100
AcDbBlockTableRecord
2
DimnDraft3D6
340
0
70
0
0
BLOCK_RECORD
5
11F
100
AcDbSymbolTableRecord
100
AcDbBlockTableRecord
2
DimnDraft3D7
340
0
70
0
0
ENDTAB
0
ENDSEC
0
SECTION
2
BLOCKS
0
BLOCK
5
20
100
AcDbEntity
8
0
100
AcDbBlockBegin
2
*Model_Space
70
0
10
0
20
0
30
0
3
*Model_Space
0
ENDBLK
5
21
100
AcDbEntity
8
0
100
AcDbBlockEnd
0
BLOCK
5
1C
100
AcDbEntity
8
0
100
AcDbBlockBegin
2
*Paper_Space
70
0
10
0
20
0
30
0
3
*Paper_Space
0
ENDBLK
5
1D
100
AcDbEntity
8
0
100
AcDbBlockEnd
0
BLOCK
5
24
100
AcDbEntity
8
0
100
AcDbBlockBegin
2
*Paper_Space0
70
0
10
0
20
0
30
0
3
*Paper_Space0
0
ENDBLK
5
25
100
AcDbEntity
8
0
100
AcDbBlockEnd
0
BLOCK
5
E9
100
AcDbEntity
8
0
100
AcDbBlockBegin
2
DimnDraft3D1
70
0
10
0
20
0
30
0
3
DimnDraft3D1
0
MTEXT
5
E3
100
AcDbEntity
8
SK2
62
256
6
ByLayer
370
13
48
1
60
0
100
AcDbMText
10
39.898875
20
-17.588398
30
0
210
0
220
0
230
1
1
\W0.6713;92,16
40
3.5
41
0
44
1.084337
50
0
71
7
72
5
7
iso_b_vert
0
LINE
5
E4
100
AcDbEntity
8
SK2
62
256
6
ByLayer
370
13
48
1
60
0
100
AcDbLine
10
0
20
-1.5875
30
0
11
0
21
-20.463398
31
0
39
0
210
0
220
0
230
1
0
LINE
5
E5
100
AcDbEntity
8
SK2
62
256
6
ByLayer
370
13
48
1
60
0
100
AcDbLine
10
92.16
20
-9.8375
30
0
11
92.16
21
-20.463398
31
0
39
0
210
0
220
0
230
1
0
LINE
5
E6
100
AcDbEntity
8
SK2
62
256
6
ByLayer
370
13
48
1
60
0
100
AcDbLine
10
0
20
-18.463398
30
0
11
92.16
21
-18.463398
31
0
39
0
210
0
220
0
230
1
0
SOLID
5
E7
100
AcDbEntity
8
SK2
62
256
6
ByLayer
370
13
48
1
60
0
100
AcDbTrace
10
0
20
-18.463398
30
0
11
3.499998
21
-18.002615
31
0
12
3.500002
22
-18.924182
32
0
13
0
23
-18.463398
33
0
39
0
210
0
220
0
230
1
0
SOLID
5
E8
100
AcDbEntity
8
SK2
62
256
6
ByLayer
370
13
48
1
60
0
100
AcDbTrace
10
92.16
20
-18.463398
30
0
11
88.660002
21
-18.924182
31
0
12
88.659998
22
-18.002615
32
0
13
92.16
23
-18.463398
33
0
39
0
210
0
220
0
230
1
0
ENDBLK
5
EA
100
AcDbEntity
8
0
100
AcDbBlockEnd
0
BLOCK
5
F3
100
AcDbEntity
8
0
100
AcDbBlockBegin
2
DimnDraft3D2
70
0
10
0
20
0
30
0
3
DimnDraft3D2
0
MTEXT
5
ED
100
AcDbEntity
8
SK2
62
256
6
ByLayer
370
13
48
1
60
0
100
AcDbMText
10
16.498011
20
-36.817985
30
0
210
0
220
0
230
1
1
\W0.7145;143,00
40
3.5
41
0
44
1.084337
50
0
71
7
72
5
7
iso_b_vert
0
LINE
5
EE
100
AcDbEntity
8
SK2
62
256
6
ByLayer
370
13
48
1
60
0
100
AcDbLine
10
-48
20
-10.5875
30
0
11
-48
21
-39.692985
31
0
39
0
210
0
220
0
230
1
0
LINE
5
EF
100
AcDbEntity
8
SK2
62
256
6
ByLayer
370
13
48
1
60
0
100
AcDbLine
10
95
20
-1.5875
30
0
11
95
21
-39.692985
31
0
39
0
210
0
220
0
230
1
0
LINE
5
F0
100
AcDbEntity
8
SK2
62
256
6
ByLayer
370
13
48
1
60
0
100
AcDbLine
10
-48
20
-37.692985
30
0
11
95
21
-37.692985
31
0
39
0
210
0
220
0
230
1
0
SOLID
5
F1
100
AcDbEntity
8
SK2
62
256
6
ByLayer
370
13
48
1
60
0
100
AcDbTrace
10
-48
20
-37.692985
30
0
11
-44.500002
21
-37.232202
31
0
12
-44.499998
22
-38.153769
32
0
13
-48
23
-37.692985
33
0
39
0
210
0
220
0
230
1
0
SOLID
5
F2
100
AcDbEntity
8
SK2
62
256
6
ByLayer
370
13
48
1
60
0
100
AcDbTrace
10
95
20
-37.692985
30
0
11
91.500002
21
-38.153769
31
0
12
91.499998
22
-37.232202
32
0
13
95
23
-37.692985
33
0
39
0
210
0
220
0
230
1
0
ENDBLK
5
F4
100
AcDbEntity
8
0
100
AcDbBlockEnd
0
BLOCK
5
FD
100
AcDbEntity
8
0
100
AcDbBlockBegin
2
DimnDraft3D3
70
0
10
0
20
0
30
0
3
DimnDraft3D3
0
MTEXT
5
F7
100
AcDbEntity
8
SK2
62
256
6
ByLayer
370
13
48
1
60
0
100
AcDbMText
10
47.697105
20
20.734119
30
0
210
0
220
0
230
1
1
\W0.7495;85,34
40
3.5
41
0
44
1.084337
50
0
71
7
72
5
7
iso_b_vert
0
LINE
5
F8
100
AcDbEntity
8
SK2
62
256
6
ByLayer
370
13
48
1
60
0
100
AcDbLine
10
9.66
20
9.8375
30
0
11
9.66
21
21.859119
31
0
39
0
210
0
220
0
230
1
0
LINE
5
F9
100
AcDbEntity
8
SK2
62
256
6
ByLayer
370
13
48
1
60
0
100
AcDbLine
10
95
20
1.5875
30
0
11
95
21
21.859119
31
0
39
0
210
0
220
0
230
1
0
LINE
5
FA
100
AcDbEntity
8
SK2
62
256
6
ByLayer
370
13
48
1
60
0
100
AcDbLine
10
9.66
20
19.859119
30
0
11
95
21
19.859119
31
0
39
0
210
0
220
0
230
1
0
SOLID
5
FB
100
AcDbEntity
8
SK2
62
256
6
ByLayer
370
13
48
1
60
0
100
AcDbTrace
10
9.66
20
19.859119
30
0
11
13.159998
21
20.319903
31
0
12
13.160002
22
19.398335
32
0
13
9.66
23
19.859119
33
0
39
0
210
0
220
0
230
1
0
SOLID
5
FC
100
AcDbEntity
8
SK2
62
256
6
ByLayer
370
13
48
1
60
0
100
AcDbTrace
10
95
20
19.859119
30
0
11
91.500002
21
19.398335
31
0
12
91.499998
22
20.319903
32
0
13
95
23
19.859119
33
0
39
0
210
0
220
0
230
1
0
ENDBLK
5
FE
100
AcDbEntity
8
0
100
AcDbBlockEnd
0
BLOCK
5
107
100
AcDbEntity
8
0
100
AcDbBlockBegin
2
DimnDraft3D4
70
0
10
0
20
0
30
0
3
DimnDraft3D4
0
MTEXT
5
101
100
AcDbEntity
8
SK2
62
256
6
ByLayer
370
13
48
1
60
0
100
AcDbMText
10
101.656425
20
-20.177503
30
0
210
0
220
0
230
1
1
\W0.7383;2,84
40
3.5
41
0
44
1.084337
50
0
71
7
72
5
7
iso_b_vert
0
LINE
5
102
100
AcDbEntity
8
SK2
62
256
6
ByLayer
370
13
48
1
60
0
100
AcDbLine
10
95
20
-1.5875
30
0
11
95
21
-23.052503
31
0
39
0
210
0
220
0
230
1
0
LINE
5
103
100
AcDbEntity
8
SK2
62
256
6
ByLayer
370
13
48
1
60
0
100
AcDbLine
10
92.16
20
-9.8375
30
0
11
92.16
21
-23.052503
31
0
39
0
210
0
220
0
230
1
0
LINE
5
104
100
AcDbEntity
8
SK2
62
256
6
ByLayer
370
13
48
1
60
0
100
AcDbLine
10
83.41
20
-21.052503
30
0
11
109.181425
21
-21.052503
31
0
39
0
210
0
220
0
230
1
0
SOLID
5
105
100
AcDbEntity
8
SK2
62
256
6
ByLayer
370
13
48
1
60
0
100
AcDbTrace
10
95
20
-21.052503
30
0
11
98.499998
21
-20.591719
31
0
12
98.500002
22
-21.513287
32
0
13
95
23
-21.052503
33
0
39
0
210
0
220
0
230
1
0
SOLID
5
106
100
AcDbEntity
8
SK2
62
256
6
ByLayer
370
13
48
1
60
0
100
AcDbTrace
10
92.16
20
-21.052503
30
0
11
88.660002
21
-21.513287
31
0
12
88.659998
22
-20.591719
32
0
13
92.16
23
-21.052503
33
0
39
0
210
0
220
0
230
1
0
ENDBLK
5
108
100
AcDbEntity
8
0
100
AcDbBlockEnd
0
BLOCK
5
111
100
AcDbEntity
8
0
100
AcDbBlockBegin
2
DimnDraft3D5
70
0
10
0
20
0
30
0
3
DimnDraft3D5
0
MTEXT
5
10B
100
AcDbEntity
8
SK2
62
256
6
ByLayer
370
13
48
1
60
0
100
AcDbMText
10
13.854887
20
-26.468428
30
0
210
0
220
0
230
1
1
\W0.6654;140,16
40
3.5
41
0
44
1.084337
50
0
71
7
72
5
7
iso_b_vert
0
LINE
5
10C
100
AcDbEntity
8
SK2
62
256
6
ByLayer
370
13
48
1
60
0
100
AcDbLine
10
-48
20
-10.5875
30
0
11
-48
21
-29.343428
31
0
39
0
210
0
220
0
230
1
0
LINE
5
10D
100
AcDbEntity
8
SK2
62
256
6
ByLayer
370
13
48
1
60
0
100
AcDbLine
10
92.16
20
-9.8375
30
0
11
92.16
21
-29.343428
31
0
39
0
210
0
220
0
230
1
0
LINE
5
10E
100
AcDbEntity
8
SK2
62
256
6
ByLayer
370
13
48
1
60
0
100
AcDbLine
10
-48
20
-27.343428
30
0
11
92.16
21
-27.343428
31
0
39
0
210
0
220
0
230
1
0
SOLID
5
10F
100
AcDbEntity
8
SK2
62
256
6
ByLayer
370
13
48
1
60
0
100
AcDbTrace
10
-48
20
-27.343428
30
0
11
-44.500002
21
-26.882645
31
0
12
-44.499998
22
-27.804212
32
0
13
-48
23
-27.343428
33
0
39
0
210
0
220
0
230
1
0
SOLID
5
110
100
AcDbEntity
8
SK2
62
256
6
ByLayer
370
13
48
1
60
0
100
AcDbTrace
10
92.16
20
-27.343428
30
0
11
88.660002
21
-27.804212
31
0
12
88.659998
22
-26.882645
32
0
13
92.16
23
-27.343428
33
0
39
0
210
0
220
0
230
1
0
ENDBLK
5
112
100
AcDbEntity
8
0
100
AcDbBlockEnd
0
BLOCK
5
11C
100
AcDbEntity
8
0
100
AcDbBlockBegin
2
DimnDraft3D6
70
0
10
0
20
0
30
0
3
DimnDraft3D6
0
MTEXT
5
115
100
AcDbEntity
8
SK2
62
256
6
ByLayer
370
13
48
1
60
0
100
AcDbMText
10
-58.375163
20
28.34918
30
0
210
0
220
0
230
1
1
\W0.6930;18,000
40
3.5
41
0
44
1.084337
50
90
71
7
72
5
7
iso_b_vert
0
MTEXT
5
116
100
AcDbEntity
8
SK2
62
256
6
ByLayer
370
13
48
1
60
0
100
AcDbMText
10
-58.375163
20
23.126524
30
0
210
0
220
0
230
1
1
%%c
40
3.5
41
0
44
1.084337
50
90
71
7
72
5
7
iso_b_vert
0
LINE
5
117
100
AcDbEntity
8
SK2
62
256
6
ByLayer
370
13
48
1
60
0
100
AcDbLine
10
-49.5875
20
-9
30
0
11
-58.625163
21
-9
31
0
39
0
210
0
220
0
230
1
0
LINE
5
118
100
AcDbEntity
8
SK2
62
256
6
ByLayer
370
13
48
1
60
0
100
AcDbLine
10
-49.5875
20
9
30
0
11
-58.625163
21
9
31
0
39
0
210
0
220
0
230
1
0
LINE
5
119
100
AcDbEntity
8
SK2
62
256
6
ByLayer
370
13
48
1
60
0
100
AcDbLine
10
-56.625163
20
-9
30
0
11
-56.625163
21
39.862338
31
0
39
0
210
0
220
0
230
1
0
SOLID
5
11A
100
AcDbEntity
8
SK2
62
256
6
ByLayer
370
13
48
1
60
0
100
AcDbTrace
10
-56.625163
20
-9
30
0
11
-57.085946
21
-5.500002
31
0
12
-56.164379
22
-5.499998
32
0
13
-56.625163
23
-9
33
0
39
0
210
0
220
0
230
1
0
SOLID
5
11B
100
AcDbEntity
8
SK2
62
256
6
ByLayer
370
13
48
1
60
0
100
AcDbTrace
10
-56.625163
20
9
30
0
11
-56.164379
21
5.500002
31
0
12
-57.085946
22
5.499998
32
0
13
-56.625163
23
9
33
0
39
0
210
0
220
0
230
1
0
ENDBLK
5
11D
100
AcDbEntity
8
0
100
AcDbBlockEnd
0
BLOCK
5
127
100
AcDbEntity
8
0
100
AcDbBlockBegin
2
DimnDraft3D7
70
0
10
0
20
0
30
0
3
DimnDraft3D7
0
MTEXT
5
120
100
AcDbEntity
8
2
62
256
6
ByLayer
370
13
48
1
60
0
100
AcDbMText
10
105.333343
20
26.192266
30
0
210
0
220
0
230
1
1
\W0.6930;16,500
40
3.5
41
0
44
1.084337
50
90
71
7
72
5
7
iso_b_vert
0
MTEXT
5
121
100
AcDbEntity
8
2
62
256
6
ByLayer
370
13
48
1
60
0
100
AcDbMText
10
105.333343
20
20.96961
30
0
210
0
220
0
230
1
1
%%c
40
3.5
41
0
44
1.084337
50
90
71
7
72
5
7
iso_b_vert
0
LINE
5
122
100
AcDbEntity
8
2
62
256
6
ByLayer
370
13
48
1
60
0
100
AcDbLine
10
93.7475
20
-8.25
30
0
11
109.083343
21
-8.25
31
0
39
0
210
0
220
0
230
1
0
LINE
5
123
100
AcDbEntity
8
2
62
256
6
ByLayer
370
13
48
1
60
0
100
AcDbLine
10
93.7475
20
8.25
30
0
11
109.083343
21
8.25
31
0
39
0
210
0
220
0
230
1
0
LINE
5
124
100
AcDbEntity
8
2
62
256
6
ByLayer
370
13
48
1
60
0
100
AcDbLine
10
107.083343
20
-8.25
30
0
11
107.083343
21
37.705424
31
0
39
0
210
0
220
0
230
1
0
SOLID
5
125
100
AcDbEntity
8
2
62
256
6
ByLayer
370
13
48
1
60
0
100
AcDbTrace
10
107.083343
20
-8.25
30
0
11
106.622559
21
-4.750002
31
0
12
107.544126
22
-4.749998
32
0
13
107.083343
23
-8.25
33
0
39
0
210
0
220
0
230
1
0
SOLID
5
126
100
AcDbEntity
8
2
62
256
6
ByLayer
370
13
48
1
60
0
100
AcDbTrace
10
107.083343
20
8.25
30
0
11
107.544126
21
4.750002
31
0
12
106.622559
22
4.749998
32
0
13
107.083343
23
8.25
33
0
39
0
210
0
220
0
230
1
0
ENDBLK
5
128
100
AcDbEntity
8
0
100
AcDbBlockEnd
0
ENDSEC
0
SECTION
2
ENTITIES
0
ARC
5
9D
100
AcDbEntity
8
1
62
256
6
ByLayer
370
18
48
1
60
0
100
AcDbCircle
39
0
10
0
20
8.2
30
0
40
0.800000000000002
210
0
220
0
230
1
100
AcDbArc
50
29.815094
51
90
0
ARC
5
9E
100
AcDbEntity
8
1
62
256
6
ByLayer
370
18
48
1
60
0
100
AcDbCircle
39
0
10
0
20
-8.2
30
0
40
0.800000000000002
210
0
220
0
230
1
100
AcDbArc
50
270
51
330.184906
0
ARC
5
9F
100
AcDbEntity
8
1
62
256
6
ByLayer
370
18
48
1
60
0
100
AcDbCircle
39
0
10
-1.388215
20
-8.995524
30
0
40
0.800000000000002
210
0
220
0
230
-1
100
AcDbArc
50
29.815094
51
90.034377
0
ARC
5
A0
100
AcDbEntity
8
1
62
256
6
ByLayer
370
18
48
1
60
0
100
AcDbCircle
39
0
10
-1.388215
20
8.995524
30
0
40
0.800000000000002
210
0
220
0
230
-1
100
AcDbArc
50
269.965623
51
330.184906
0
ELLIPSE
5
A1
100
AcDbEntity
8
1
62
256
6
ByLayer
370
18
48
1
60
0
100
AcDbEllipse
10
4.25
20
8.092706
30
0
11
0.25
21
0
31
0
210
0
220
0
230
1
40
0.999998
41
-3.13982699311912
42
-1.5618855028304
0
ELLIPSE
5
A2
100
AcDbEntity
8
1
62
256
6
ByLayer
370
18
48
1
60
0
100
AcDbEllipse
10
4.25
20
-8.092706
30
0
11
0.25
21
0
31
0
210
0
220
0
230
1
40
0.999998
41
1.57493130869942
42
3.13982699311912
0
ELLIPSE
5
A3
100
AcDbEntity
8
1
62
256
6
ByLayer
370
13
48
1
60
0
100
AcDbEllipse
10
93.816343
20
3.692451
30
0
11
5.33812069345191
21
-2.74427086162175
31
0
210
0
220
0
230
-1
40
0.482873
41
1.53949524919723
42
1.8777112070356
0
ELLIPSE
5
A4
100
AcDbEntity
8
1
62
256
6
ByLayer
370
13
48
1
60
0
100
AcDbEllipse
10
93.985802
20
3.826743
30
0
11
5.38605367445073
21
-2.4304697404663
31
0
210
0
220
0
230
-1
40
0.458522
41
1.5787866339233
42
1.92083571465541
0
ELLIPSE
5
A5
100
AcDbEntity
8
1
62
256
6
ByLayer
370
18
48
1
60
0
100
AcDbEllipse
10
95.000683
20
0.001802
30
0
11
3.01724910573591
21
8.24931179698947
31
0
210
0
220
0
230
-1
40
0.065672
41
2.9151081000174
42
3.00287060164065
0
ELLIPSE
5
A6
100
AcDbEntity
8
1
62
256
6
ByLayer
370
18
48
1
60
0
100
AcDbEllipse
10
95.000683
20
-0.001802
30
0
11
3.01724917502338
21
-8.24931199439921
31
0
210
0
220
0
230
-1
40
0.065672
41
-3.00287060328465
42
-2.91510810272737
0
ELLIPSE
5
A7
100
AcDbEntity
8
1
62
256
6
ByLayer
370
18
48
1
60
0
100
AcDbEllipse
10
95.000538
20
-0.089003
30
0
11
0.137829328427089
21
0.402528286707614
31
0
210
0
220
0
230
-1
40
0.052723
41
-2.31022812876586
42
-1.55726662689592
0
ELLIPSE
5
A8
100
AcDbEntity
8
1
62
256
6
ByLayer
370
18
48
1
60
0
100
AcDbEllipse
10
93.522033
20
3.826743
30
0
11
1.26698489320778
21
-3.46400084579849
31
0
210
0
220
0
230
-1
40
0.065672
41
-1.59528240366423
42
-0.761382749775624
0
ELLIPSE
5
A9
100
AcDbEntity
8
1
62
256
6
ByLayer
370
18
48
1
60
0
100
AcDbEllipse
10
93.522033
20
-3.826743
30
0
11
1.26698489323656
21
3.46400084586825
31
0
210
0
220
0
230
-1
40
0.065672
41
0.761382749779532
42
1.5952824036516
0
ELLIPSE
5
AA
100
AcDbEntity
8
1
62
256
6
ByLayer
370
18
48
1
60
0
100
AcDbEllipse
10
95.000538
20
0.089003
30
0
11
0.137829328514408
21
-0.402528286937562
31
0
210
0
220
0
230
-1
40
0.052723
41
1.55726662727869
42
2.31022812874655
0
ELLIPSE
5
AB
100
AcDbEntity
8
1
62
256
6
ByLayer
370
13
48
1
60
0
100
AcDbEllipse
10
92.828378
20
1.164486
30
0
11
0.1331137818839
21
0.268850741253517
31
0
210
0
220
0
230
1
40
0.40558
41
0.8844859171309
42
2.28074931872635
0
ELLIPSE
5
AC
100
AcDbEntity
8
1
62
256
6
ByLayer
370
18
48
1
60
0
100
AcDbEllipse
10
94.859347
20
0.15891
30
0
11
0.0868803724552926
21
0.290676908832574
31
0
210
0
220
0
230
-1
40
0.467765
41
1.71723527364622
42
2.36053717390295
0
POINT
5
6C
100
AcDbEntity
8
81
62
256
6
ByLayer
370
18
48
1
60
0
100
AcDbPoint
10
95
20
0
30
0
39
0
210
0
220
0
230
1
50
360
0
POINT
5
6E
100
AcDbEntity
8
80
62
256
6
ByLayer
370
18
48
1
60
0
100
AcDbPoint
10
0
20
0
30
0
39
0
210
0
220
0
230
1
50
360
0
POINT
5
70
100
AcDbEntity
8
SK2
62
256
6
ByLayer
370
18
48
1
60
1
100
AcDbPoint
10
-48
20
-9
30
0
39
0
210
0
220
0
230
1
50
360
0
POINT
5
72
100
AcDbEntity
8
SK2
62
256
6
ByLayer
370
18
48
1
60
1
100
AcDbPoint
10
-48
20
9
30
0
39
0
210
0
220
0
230
1
50
360
0
POINT
5
73
100
AcDbEntity
8
2
62
256
6
ByLayer
370
18
48
1
60
1
100
AcDbPoint
10
92.16
20
-8.25
30
0
39
0
210
0
220
0
230
1
50
360
0
POINT
5
75
100
AcDbEntity
8
2
62
256
6
ByLayer
370
18
48
1
60
1
100
AcDbPoint
10
92.16
20
8.25
30
0
39
0
210
0
220
0
230
1
50
360
0
SPLINE
5
AD
100
AcDbEntity
8
1
62
256
6
ByLayer
370
18
48
1
60
0
100
AcDbSpline
70
4
71
1
72
4
73
2
40
0
40
0
40
1
40
1
41
1
10
21.2438914505882
20
0.0051341877054369
30
0
41
1
10
21.2438817850768
20
0.0051378723046014
30
0
0
SPLINE
5
AE
100
AcDbEntity
8
1
62
256
6
ByLayer
370
18
48
1
60
0
100
AcDbSpline
70
4
71
3
72
39
73
35
40
0
40
0
40
0
40
0
40
0.0163698006507241
40
0.0358906887277157
40
0.0672783022917207
40
0.0998392991520589
40
0.126931970220934
40
0.147830011592736
40
0.17465550076579
40
0.207701422007484
40
0.225896179664186
40
0.247752819222427
40
0.276596100332523
40
0.302929096013732
40
0.323757860003983
40
0.341975154019021
40
0.378559381696146
40
0.420802110888107
40
0.457474287931117
40
0.488431446183546
40
0.518312260048243
40
0.549124214793433
40
0.579610978034643
40
0.634065416406565
40
0.697645524801437
40
0.754640888333508
40
0.818462302534005
40
0.844770750560392
40
0.867308173198044
40
0.894547087257346
40
0.926420681865945
40
0.960772043089659
40
0.997564924566094
40
1
40
1
40
1
40
1
41
1
10
44.4581613721242
20
-7.86588477807615
30
0
41
1
10
44.579268601097
20
-7.86558742186719
30
0
41
1
10
44.8500799311297
20
-7.86484107284505
30
0
41
1
10
45.3852207548424
20
-7.86112833001025
30
0
41
1
10
46.0686764873969
20
-7.86207004844024
30
0
41
1
10
46.7812068258331
20
-7.8678090251166
30
0
41
1
10
47.4183159820172
20
-7.86860589731791
30
0
41
1
10
48.0111909173859
20
-7.86706223416135
30
0
41
1
10
48.6693703845241
20
-7.86794336998028
30
0
41
1
10
49.2908615495925
20
-7.86926753758797
30
0
41
1
10
49.8823668335066
20
-7.87002956042662
30
0
41
1
10
50.4388788520629
20
-7.87029992732562
30
0
41
1
10
51.0614183721982
20
-7.87024224133495
30
0
41
1
10
51.675603420136
20
-7.87036544027416
30
0
41
1
10
52.203926231989
20
-7.87117076906995
30
0
41
1
10
52.8150746527449
20
-7.87177519381436
30
0
41
1
10
53.5992963157633
20
-7.87178775015406
30
0
41
1
10
54.532636577097
20
-7.87175360846706
30
0
41
1
10
55.4205120746679
20
-7.87295174186528
30
0
41
1
10
56.2084789454109
20
-7.8727493189109
30
0
41
1
10
56.9490951273566
20
-7.87312395078672
30
0
41
1
10
57.6859155876085
20
-7.87415318077379
30
0
41
1
10
58.6213167404755
20
-7.87414926159471
30
0
41
1
10
59.8215056007985
20
-7.87467944494136
30
0
41
1
10
61.235923541465
20
-7.87552443897727
30
0
41
1
10
62.72602350422
20
-7.87666088138826
30
0
41
1
10
63.9149602573696
20
-7.87721413692654
30
0
41
1
10
64.8253886871751
20
-7.87705847591158
30
0
41
1
10
65.4400722146413
20
-7.87792770876419
30
0
41
1
10
66.099990633953
20
-7.87894666177877
30
0
41
1
10
66.8548710123341
20
-7.87843582958658
30
0
41
1
10
67.6840707560246
20
-7.87887260434985
30
0
41
1
10
68.2557493657155
20
-7.87549798967936
30
0
41
1
10
68.5720032976285
20
-7.87465253550903
30
0
41
1
10
68.5916462914957
20
-7.87459992913082
30
0
0
SPLINE
5
AF
100
AcDbEntity
8
1
62
256
6
ByLayer
370
18
48
1
60
0
100
AcDbSpline
70
4
71
2
72
6
73
3
40
0
40
0
40
0
40
1
40
1
40
1
41
1
10
90.6184466378502
20
-7.89421884069182
30
0
41
1
10
91.3721381168458
20
-7.8913441646811
30
0
41
1
10
92.1258656472807
20
-7.89775585137886
30
0
0
SPLINE
5
B0
100
AcDbEntity
8
1
62
256
6
ByLayer
370
18
48
1
60
0
100
AcDbSpline
70
4
71
3
72
10
73
6
40
0
40
0
40
0
40
0
40
0.14634012834628
40
0.508837207530521
40
1
40
1
40
1
40
1
41
1
10
69.6148003100166
20
-1.9276866374922
30
0
41
1
10
69.6151035537394
20
-1.92790167620669
30
0
41
1
10
69.6238764276403
20
-1.93254460851517
30
0
41
1
10
69.7123870626517
20
-1.97821628122347
30
0
41
1
10
69.8120031878005
20
-2.03218561430322
30
0
41
1
10
69.8849802236823
20
-2.07188327700913
30
0
0
SPLINE
5
B1
100
AcDbEntity
8
1
62
256
6
ByLayer
370
18
48
1
60
0
100
AcDbSpline
70
4
71
3
72
35
73
31
40
0
40
0
40
0
40
0
40
0.0273312452018167
40
0.0610517345770716
40
0.0929477448731932
40
0.123042887105209
40
0.149715307749523
40
0.17610794141499
40
0.202443106143753
40
0.235457967166474
40
0.272301012844084
40
0.311852964588583
40
0.348737341107383
40
0.389969623517756
40
0.43264308722555
40
0.469348207068388
40
0.505388542236949
40
0.557630617580465
40
0.609141960167983
40
0.662600610353995
40
0.729606039172952
40
0.794308203439185
40
0.846736728741072
40
0.873450882809266
40
0.901952879521924
40
0.924816662614544
40
0.942121340104343
40
0.962577988085296
40
0.989027866492574
40
1
40
1
40
1
40
1
41
1
10
68.5712289755768
20
7.87467196198611
30
0
41
1
10
68.3914148587347
20
7.87581526156032
30
0
41
1
10
67.9890633789891
20
7.87785485114927
30
0
41
1
10
67.3773763742962
20
7.87835167213731
30
0
41
1
10
66.7384796522389
20
7.87864964065321
30
0
41
1
10
66.143792970149
20
7.87882476834122
30
0
41
1
10
65.5860684642024
20
7.87822930645223
30
0
41
1
10
65.053514993271
20
7.87730904134025
30
0
41
1
10
64.4785699458033
20
7.87698010907238
30
0
41
1
10
63.8333551253116
20
7.8773044768337
30
0
41
1
10
63.0995334414297
20
7.87743151659754
30
0
41
1
10
62.3397473413277
20
7.87588787199212
30
0
41
1
10
61.550525508506
20
7.87547811201
30
0
41
1
10
60.7403640180962
20
7.87581012094932
30
0
41
1
10
59.9314061696091
20
7.87485803972322
30
0
41
1
10
59.1572763161218
20
7.87411879709248
30
0
41
1
10
58.3189662216118
20
7.87428067618816
30
0
41
1
10
57.3813428299694
20
7.87379485351011
30
0
41
1
10
56.3268975319269
20
7.87261179164037
30
0
41
1
10
55.1734447889263
20
7.87299301124227
30
0
41
1
10
53.9314978732217
20
7.87120037690482
30
0
41
1
10
52.6964626626487
20
7.87211535188325
30
0
41
1
10
51.7316896248164
20
7.870275578894
30
0
41
1
10
51.009702318727
20
7.87027854845843
30
0
41
1
10
50.4860107762924
20
7.8702809702159
30
0
41
1
10
50.0255176852368
20
7.87012827163116
30
0
41
1
10
49.6186638158316
20
7.86968104068367
30
0
41
1
10
49.1891052814022
20
7.8690937836638
30
0
41
1
10
48.8052489211711
20
7.86835104232384
30
0
41
1
10
48.5553720052374
20
7.86781294584387
30
0
41
1
10
48.481993867437
20
7.86768221673114
30
0
0
SPLINE
5
B2
100
AcDbEntity
8
1
62
256
6
ByLayer
370
18
48
1
60
0
100
AcDbSpline
70
4
71
3
72
29
73
25
40
0
40
0
40
0
40
0
40
0.0422345766139947
40
0.0883011678803782
40
0.124269700211589
40
0.154880034828016
40
0.187524549973556
40
0.222256717212406
40
0.270213849839401
40
0.304278250723045
40
0.3387900419417
40
0.393441582241874
40
0.446089235554429
40
0.494365227251093
40
0.551793169094278
40
0.609952895845142
40
0.654708139122058
40
0.717601689303563
40
0.767753021899258
40
0.823879667564823
40
0.87016026279336
40
0.91803597085561
40
0.972711634866
40
1
40
1
40
1
40
1
41
1
10
4.25058912182934
20
-7.84263119841657
30
0
41
1
10
4.50099854178998
20
-7.84328173948956
30
0
41
1
10
5.02455073734924
20
-7.84441805663545
30
0
41
1
10
5.76145174769041
20
-7.84529080543027
30
0
41
1
10
6.42938079596834
20
-7.84563710193203
30
0
41
1
10
7.01772979559559
20
-7.84572791977621
30
0
41
1
10
7.59876487248783
20
-7.84574793619035
30
0
41
1
10
8.28264809053434
20
-7.84587167185151
30
0
41
1
10
8.97496907002221
20
-7.84646823849883
30
0
41
1
10
9.66594784463771
20
-7.84758066308063
30
0
41
1
10
10.3966438644245
20
-7.84825627229793
30
0
41
1
10
11.2375371748264
20
-7.8483583984077
30
0
41
1
10
12.1600458179402
20
-7.84967794213355
30
0
41
1
10
13.0990159450326
20
-7.85074196165496
30
0
41
1
10
14.0706766884167
20
-7.85015618418134
30
0
41
1
10
15.0214448218431
20
-7.85152706457373
30
0
41
1
10
16.0046687491819
20
-7.85135137767043
30
0
41
1
10
16.9402129992999
20
-7.85099117058431
30
0
41
1
10
17.9438703298851
20
-7.85267690042468
30
0
41
1
10
18.845597755911
20
-7.85211451412408
30
0
41
1
10
19.7383483491757
20
-7.85249517719024
30
0
41
1
10
20.6164998826368
20
-7.8545438942615
30
0
41
1
10
21.3842085818638
20
-7.85384247927632
30
0
41
1
10
21.870245533932
20
-7.85425971285019
30
0
41
1
10
22.0321918886327
20
-7.85440011280119
30
0
0
SPLINE
5
B3
100
AcDbEntity
8
1
62
256
6
ByLayer
370
18
48
1
60
0
100
AcDbSpline
70
4
71
3
72
34
73
30
40
0
40
0
40
0
40
0
40
0.0105128880044281
40
0.0714454913780456
40
0.107185152197427
40
0.144914597594512
40
0.193842208217746
40
0.247904819328083
40
0.297620062089285
40
0.331614739287627
40
0.379055382323945
40
0.416313524058394
40
0.447096558859381
40
0.482533486179367
40
0.521960191887358
40
0.558201933275422
40
0.591191115192332
40
0.623367527177527
40
0.656032305548332
40
0.690107825227213
40
0.720668893192058
40
0.746215673369347
40
0.769637419182554
40
0.793833526307264
40
0.820385212375985
40
0.850717194498146
40
0.892505944004399
40
0.946743993814202
40
1
40
1
40
1
40
1
41
1
10
22.4328223346464
20
7.84963934546695
30
0
41
1
10
22.3686036224093
20
7.84972893283143
30
0
41
1
10
21.9325234559751
20
7.85035120932343
30
0
41
1
10
21.2981612213763
20
7.85490409644265
30
0
41
1
10
20.4763483602486
20
7.85391792543118
30
0
41
1
10
19.7285992233012
20
7.85292089468785
30
0
41
1
10
18.868361443411
20
7.85252725518018
30
0
41
1
10
17.9349988871749
20
7.85258414729074
30
0
41
1
10
17.0928972698217
20
7.85129442588501
30
0
41
1
10
16.2912527088107
20
7.85107816753231
30
0
41
1
10
15.565754111104
20
7.8516120554909
30
0
41
1
10
14.8598856701838
20
7.85119531027692
30
0
41
1
10
14.2273881475121
20
7.85052985136761
30
0
41
1
10
13.5816412962205
20
7.85033516259639
30
0
41
1
10
12.9025046192522
20
7.85061896612982
30
0
41
1
10
12.2384128608136
20
7.84980020383412
30
0
41
1
10
11.6183596035574
20
7.84873829765496
30
0
41
1
10
11.0211574080887
20
7.84844638547318
30
0
41
1
10
10.4262055721369
20
7.84732474350591
30
0
41
1
10
9.86859911141059
20
7.840170993447
30
0
41
1
10
9.33458172087435
20
7.83063906439031
30
0
41
1
10
8.83115740372006
20
7.83130066381881
30
0
41
1
10
8.43930202887319
20
7.84264668137746
30
0
41
1
10
8.01634870859317
20
7.84544147123211
30
0
41
1
10
7.51899670705998
20
7.8456780150126
30
0
41
1
10
6.91692420138131
20
7.8453661073834
30
0
41
1
10
6.14416718950642
20
7.84515102174052
30
0
41
1
10
5.23220176798282
20
7.84471951703864
30
0
41
1
10
4.57570665729696
20
7.84340317416525
30
0
41
1
10
4.25055325211414
20
7.84257518835568
30
0
0
SPLINE
5
B4
100
AcDbEntity
8
1
62
256
6
ByLayer
370
18
48
1
60
0
100
AcDbSpline
70
4
71
3
72
104
73
100
40
0
40
0
40
0
40
0
40
0.0097405183251797
40
0.0097405183251797
40
0.028692126911388
40
0.028692126911388
40
0.0476437354975963
40
0.0476437354975963
40
0.0665953440838046
40
0.0665953440838046
40
0.104498561256221
40
0.104498561256221
40
0.123450169842429
40
0.123450169842429
40
0.142401778428636
40
0.142401778428636
40
0.161353387014844
40
0.161353387014844
40
0.180304995601052
40
0.180304995601052
40
0.19925660418726
40
0.19925660418726
40
0.218208212773467
40
0.218208212773467
40
0.237159821359675
40
0.237159821359675
40
0.256111429945883
40
0.256111429945883
40
0.275063038532091
40
0.275063038532091
40
0.294014647118299
40
0.294014647118299
40
0.312966255704506
40
0.312966255704506
40
0.331917864290714
40
0.331917864290714
40
0.350869472876922
40
0.350869472876922
40
0.36982108146313
40
0.36982108146313
40
0.388772690049338
40
0.388772690049338
40
0.407724298635545
40
0.407724298635545
40
0.426675907221753
40
0.426675907221753
40
0.445627515807961
40
0.445627515807961
40
0.464579124394169
40
0.464579124394169
40
0.483530732980376
40
0.483530732980376
40
0.502482341566584
40
0.502482341566584
40
0.521433950152792
40
0.521433950152792
40
0.540385558739
40
0.540385558739
40
0.559337167325207
40
0.559337167325207
40
0.597240384497623
40
0.597240384497623
40
0.616191993083831
40
0.616191993083831
40
0.635143601670039
40
0.635143601670039
40
0.654095210256246
40
0.654095210256246
40
0.673046818842454
40
0.673046818842454
40
0.71095003601487
40
0.71095003601487
40
0.729901644601078
40
0.729901644601078
40
0.748853253187286
40
0.748853253187286
40
0.767804861773494
40
0.767804861773494
40
0.786756470359702
40
0.786756470359702
40
0.80570807894591
40
0.80570807894591
40
0.824659687532118
40
0.824659687532118
40
0.862562904704535
40
0.862562904704535
40
0.881514513290744
40
0.881514513290744
40
0.900466121876954
40
0.900466121876954
40
0.919417730463163
40
0.919417730463163
40
0.938369339049372
40
0.938369339049372
40
0.976272556221789
40
0.976272556221789
40
0.995224164807998
40
0.995224164807998
40
1
40
1
40
1
40
1
41
1
10
32.1292305245519
20
6.02487863492348
30
0
41
1
10
32.3145287452829
20
6.09579536804017
30
0
41
1
10
32.49989460719
20
6.16533427779177
30
0
41
1
10
33.0467511212414
20
6.3653135171447
30
0
41
1
10
33.408764480601
20
6.49125559947666
30
0
41
1
10
34.1313222811085
20
6.7308081014082
30
0
41
1
10
34.4922353838119
20
6.84451866164727
30
0
41
1
10
35.2129411730744
20
7.06010956371571
30
0
41
1
10
35.5724508073816
20
7.16218819623484
30
0
41
1
10
36.6535627950017
20
7.44670598266211
30
0
41
1
10
37.3767020242962
20
7.60924680560126
30
0
41
1
10
38.4605384275325
20
7.81315684767497
30
0
41
1
10
38.8207827793978
20
7.87421220309699
30
0
41
1
10
39.5422792929943
20
7.9810372801748
30
0
41
1
10
39.903080674455
20
8.02709709149644
30
0
41
1
10
40.6243666143472
20
8.1048104185507
30
0
41
1
10
40.9848597499145
20
8.13646077001277
30
0
41
1
10
41.7051366609472
20
8.18519604617717
30
0
41
1
10
42.0652571793234
20
8.20215110723146
30
0
41
1
10
42.7876925542997
20
8.22101849111766
30
0
41
1
10
43.1498906553715
20
8.22300753706276
30
0
41
1
10
43.872619776738
20
8.21212675815281
30
0
41
1
10
44.2333822677323
20
8.19927122761439
30
0
41
1
10
44.9534299972787
20
8.15848948831629
30
0
41
1
10
45.3134393844825
20
8.13066735803881
30
0
41
1
10
46.0344810078588
20
8.06069612596781
30
0
41
1
10
46.3952585252254
20
8.01849829618601
30
0
41
1
10
47.1169314205994
20
7.91949233678889
30
0
41
1
10
47.4777220830997
20
7.86262293572034
30
0
41
1
10
48.1995257460225
20
7.73392964923056
30
0
41
1
10
48.5608655907584
20
7.66269954732616
30
0
41
1
10
49.2829279969692
20
7.50716454432654
30
0
41
1
10
49.6437862240358
20
7.42275202416877
30
0
41
1
10
50.3647679261712
20
7.24035626206688
30
0
41
1
10
50.7246619426717
20
7.14215555101597
30
0
41
1
10
51.4444616050177
20
6.9325834393469
30
0
41
1
10
51.8051142818704
20
6.82194123957237
30
0
41
1
10
52.5273465772065
20
6.58857368757214
30
0
41
1
10
52.8892609605252
20
6.46572891621295
30
0
41
1
10
53.611961746013
20
6.20797861286655
30
0
41
1
10
53.9721509279239
20
6.07271034869717
30
0
41
1
10
54.6925522730543
20
5.79215507613358
30
0
41
1
10
55.0531013206223
20
5.64733252151436
30
0
41
1
10
55.7742130877553
20
5.34790273928735
30
0
41
1
10
56.1348088422359
20
5.19333502186683
30
0
41
1
10
56.8556994839174
20
4.87387244960499
30
0
41
1
10
57.2156005533385
20
4.70836617535105
30
0
41
1
10
57.9374599772743
20
4.37030809781848
30
0
41
1
10
58.2994424122347
20
4.19763870130782
30
0
41
1
10
59.0218723502758
20
3.84569412063129
30
0
41
1
10
59.3826972162164
20
3.66629212299526
30
0
41
1
10
60.1031787604038
20
3.29997028082192
30
0
41
1
10
60.4625395499193
20
3.11253740000862
30
0
41
1
10
61.1829157051872
20
2.7347786811373
30
0
41
1
10
61.5435913857555
20
2.543915621732
30
0
41
1
10
62.2654263482102
20
2.15742117473039
30
0
41
1
10
62.6266008666235
20
1.96181548165325
30
0
41
1
10
63.3490822029161
20
1.56509945510291
30
0
41
1
10
63.7092652669737
20
1.36445162335599
30
0
41
1
10
64.791220144231
20
0.764054557384014
30
0
41
1
10
65.5126362189352
20
0.362623577866629
30
0
41
1
10
66.5925090000979
20
-0.245614426316791
30
0
41
1
10
66.9523878229382
20
-0.448849581198886
30
0
41
1
10
67.6743219459829
20
-0.852101025541856
30
0
41
1
10
68.0363154512195
20
-1.05305923272607
30
0
41
1
10
68.7589299837024
20
-1.45268771189609
30
0
41
1
10
69.1196204818336
20
-1.65142786724323
30
0
41
1
10
69.8394594353554
20
-2.04724650374621
30
0
41
1
10
70.1993031674172
20
-2.24310008222889
30
0
41
1
10
71.2803611223307
20
-2.82158183412326
30
0
41
1
10
72.001798107286
20
-3.19744895982595
30
0
41
1
10
73.0837201275906
20
-3.74844057123511
30
0
41
1
10
73.4450710882271
20
-3.92825369344956
30
0
41
1
10
74.1669581582816
20
-4.2788866685938
30
0
41
1
10
74.5277105506298
20
-4.45007736289784
30
0
41
1
10
75.2484447585131
20
-4.78481435191685
30
0
41
1
10
75.6082134695833
20
-4.94865788118869
30
0
41
1
10
76.3276321400042
20
-5.26759040539628
30
0
41
1
10
76.688060972723
20
-5.42160521003626
30
0
41
1
10
77.409831822745
20
-5.71959125920387
30
0
41
1
10
77.7714029030537
20
-5.86365816988393
30
0
41
1
10
78.494013131764
20
-6.14172284567263
30
0
41
1
10
78.8541547764527
20
-6.27589865947334
30
0
41
1
10
79.9343799924399
20
-6.65985898772865
30
0
41
1
10
80.6556915675103
20
-6.88986905622434
30
0
41
1
10
81.7364758868946
20
-7.19931412898947
30
0
41
1
10
82.0961737340836
20
-7.29675170843728
30
0
41
1
10
82.8175071934968
20
-7.47744480893934
30
0
41
1
10
83.1793665639608
20
-7.56082974687155
30
0
41
1
10
83.9016422060506
20
-7.71355644642429
30
0
41
1
10
84.2623746288077
20
-7.7829586770992
30
0
41
1
10
84.9826422294327
20
-7.90799597934921
30
0
41
1
10
85.3418567923433
20
-7.96372680848881
30
0
41
1
10
86.4218631482023
20
-8.10808947826177
30
0
41
1
10
87.1437032008326
20
-8.17499884362491
30
0
41
1
10
88.2267132201091
20
-8.23154678156098
30
0
41
1
10
88.5868780280251
20
-8.24292172533464
30
0
41
1
10
89.0379092712339
20
-8.24771133307419
30
0
41
1
10
89.1286834475028
20
-8.2482026996687
30
0
41
1
10
89.2194453241003
20
-8.24822279313537
30
0
0
SPLINE
5
B5
100
AcDbEntity
8
1
62
256
6
ByLayer
370
18
48
1
60
0
100
AcDbSpline
70
4
71
3
72
24
73
20
40
0
40
0
40
0
40
0
40
0.0076295042762614
40
0.0076295042762614
40
0.113594349871765
40
0.113594349871765
40
0.219559195467268
40
0.219559195467268
40
0.431488886658274
40
0.431488886658274
40
0.537453732253778
40
0.537453732253778
40
0.643418577849281
40
0.643418577849281
40
0.85534826904029
40
0.85534826904029
40
0.961313114635794
40
0.961313114635794
40
1
40
1
40
1
40
1
41
1
10
67.3134522304946
20
0.0215462376270921
30
0
41
1
10
67.3463364478525
20
0.0036566922848351
30
0
41
1
10
67.3792240147894
20
-0.0142356073249346
30
0
41
1
10
67.8689333344471
20
-0.280667804725056
30
0
41
1
10
68.3265537183954
20
-0.52943271256251
30
0
41
1
10
69.2441551876204
20
-1.02603644828923
30
0
41
1
10
69.7044806281521
20
-1.27411934356076
30
0
41
1
10
71.088112904759
20
-2.01288776452151
30
0
41
1
10
72.0071140364819
20
-2.4949020617567
30
0
41
1
10
73.3861886773512
20
-3.19217943001612
30
0
41
1
10
73.8460041974819
20
-3.42026229843157
30
0
41
1
10
74.7667892165862
20
-3.86617845248827
30
0
41
1
10
75.2283539337983
20
-4.08425008446247
30
0
41
1
10
76.6106757042289
20
-4.71853944912806
30
0
41
1
10
77.5293203096915
20
-5.115003824832
30
0
41
1
10
78.9086196252356
20
-5.6617469279571
30
0
41
1
10
79.3686548525374
20
-5.83598405674539
30
0
41
1
10
79.9975248933002
20
-6.06216832076876
30
0
41
1
10
80.1658213038712
20
-6.1215158852248
30
0
41
1
10
80.3340757517451
20
-6.17963446618541
30
0
0
SPLINE
5
B6
100
AcDbEntity
8
1
62
256
6
ByLayer
370
13
48
1
60
0
100
AcDbSpline
70
4
71
3
72
18
73
14
40
0
40
0
40
0
40
0
40
0.0735280153214423
40
0.0735280153214423
40
0.536764007660724
40
0.536764007660724
40
0.768382003830362
40
0.768382003830362
40
0.884191001915181
40
0.884191001915181
40
0.942095500957591
40
0.942095500957591
40
1
40
1
40
1
40
1
41
1
10
80.3340766955348
20
-6.17963479218997
30
0
41
1
10
80.6266772438837
20
-6.28070509103998
30
0
41
1
10
80.9191508858621
20
-6.37805864057026
30
0
41
1
10
83.0476361455697
20
-7.05839776116605
30
0
41
1
10
84.8620591093668
20
-7.48608251611313
30
0
41
1
10
87.5925725459013
20
-7.86061268912437
30
0
41
1
10
88.5043383922593
20
-7.94108404861146
30
0
41
1
10
89.879602629086
20
-7.99210112217136
30
0
41
1
10
90.3395802378539
20
-7.99747921029643
30
0
41
1
10
91.0312721689138
20
-7.98768000865905
30
0
41
1
10
91.2617616617758
20
-7.98144484265524
30
0
41
1
10
91.7226976891643
20
-7.96304449770304
30
0
41
1
10
91.953151503816
20
-7.95050231838198
30
0
41
1
10
92.1836195280889
20
-7.93579715310455
30
0
0
SPLINE
5
B7
100
AcDbEntity
8
1
62
256
6
ByLayer
370
18
48
1
60
0
100
AcDbSpline
70
4
71
3
72
16
73
12
40
0
40
0
40
0
40
0
40
0.25
40
0.25
40
0.5
40
0.5
40
0.75
40
0.75
40
0.875
40
0.875
40
1
40
1
40
1
40
1
41
1
10
93.7184321892667
20
-3.99473488847414
30
0
41
1
10
93.5907601679047
20
-4.33846775858123
30
0
41
1
10
93.4629833861464
20
-4.68187142967295
30
0
41
1
10
93.2071932540184
20
-5.36701204828915
30
0
41
1
10
93.0791233516502
20
-5.70853557462326
30
0
41
1
10
92.8229035712667
20
-6.39110379570064
30
0
41
1
10
92.6947468289061
20
-6.73201893842676
30
0
41
1
10
92.5025260834906
20
-7.2396277724587
30
0
41
1
10
92.4384510534768
20
-7.40847560870142
30
0
41
1
10
92.3102990991265
20
-7.74570678327524
30
0
41
1
10
92.2462217133213
20
-7.91397696701611
30
0
41
1
10
92.1821405973619
20
-8.08133249718432
30
0
0
SPLINE
5
B8
100
AcDbEntity
8
1
62
256
6
ByLayer
370
18
48
1
60
0
100
AcDbSpline
70
4
71
3
72
8
73
4
40
0
40
0
40
0
40
0
40
1
40
1
40
1
40
1
41
1
10
92.0873309588901
20
8.19566261231461
30
0
41
1
10
91.5254767772921
20
8.23154788273334
30
0
41
1
10
90.9630912683367
20
8.24927525413867
30
0
41
1
10
90.4011100987803
20
8.24889504465875
30
0
0
SPLINE
5
B9
100
AcDbEntity
8
1
62
256
6
ByLayer
370
18
48
1
60
0
100
AcDbSpline
70
4
71
3
72
54
73
50
40
0
40
0
40
0
40
0
40
0.0085205567287713
40
0.0085205567287713
40
0.0395042893309969
40
0.0395042893309969
40
0.0704880219332222
40
0.0704880219332222
40
0.101471754535448
40
0.101471754535448
40
0.132455487137673
40
0.132455487137673
40
0.194422952342124
40
0.194422952342124
40
0.22540668494435
40
0.22540668494435
40
0.256390417546576
40
0.256390417546576
40
0.318357882751027
40
0.318357882751027
40
0.349341615353253
40
0.349341615353253
40
0.380325347955479
40
0.380325347955479
40
0.442292813159931
40
0.442292813159931
40
0.504260278364383
40
0.504260278364383
40
0.535244010966609
40
0.535244010966609
40
0.566227743568835
40
0.566227743568835
40
0.628195208773286
40
0.628195208773286
40
0.690162673977738
40
0.690162673977738
40
0.75213013918219
40
0.75213013918219
40
0.783113871784416
40
0.783113871784416
40
0.814097604386642
40
0.814097604386642
40
0.876065069591095
40
0.876065069591095
40
0.907048802193321
40
0.907048802193321
40
0.938032534795548
40
0.938032534795548
40
1
40
1
40
1
40
1
41
1
10
48.4998914171096
20
-7.8897189579686
30
0
41
1
10
48.3738371928806
20
-7.90957736396931
30
0
41
1
10
48.247738215129
20
-7.92856906994823
30
0
41
1
10
47.6628456583644
20
-8.01257114173788
30
0
41
1
10
47.2037858003434
20
-8.06680788614165
30
0
41
1
10
46.2875486944488
20
-8.15132946222565
30
0
41
1
10
45.8299055024467
20
-8.18169726321847
30
0
41
1
10
44.9145717560251
20
-8.21849303443997
30
0
41
1
10
44.456856659025
20
-8.22491996679369
30
0
41
1
10
43.540409871166
20
-8.21372560449714
30
0
41
1
10
43.0811576760831
20
-8.19605588227176
30
0
41
1
10
41.705172461219
20
-8.10715513604563
30
0
41
1
10
40.7905475135014
20
-8.00019195928559
30
0
41
1
10
39.4168747657669
20
-7.77075579489394
30
0
41
1
10
38.9586830669815
20
-7.68278897403638
30
0
41
1
10
38.0408169282533
20
-7.48426665614534
30
0
41
1
10
37.5819250204588
20
-7.37384858844581
30
0
41
1
10
36.2076417340312
20
-7.01139131875922
30
0
41
1
10
35.2929977527356
20
-6.72792488593774
30
0
41
1
10
33.9179239214676
20
-6.24529458424828
30
0
41
1
10
33.4584887287055
20
-6.07464401410849
30
0
41
1
10
32.541200924968
20
-5.716689662997
30
0
41
1
10
32.0831945507573
20
-5.52933978174619
30
0
41
1
10
30.7096029223102
20
-4.94425248935673
30
0
41
1
10
29.7945594607008
20
-4.52331834384984
30
0
41
1
10
27.9581320901337
20
-3.6305232226573
30
0
41
1
10
27.0423525426067
20
-3.16149309569198
30
0
41
1
10
25.6687091741978
20
-2.43484672116261
30
0
41
1
10
25.2107435737339
20
-2.18867461583591
30
0
41
1
10
24.2937396811028
20
-1.68993412749464
30
0
41
1
10
23.8342088293679
20
-1.4371373760726
30
0
41
1
10
22.4583505342747
20
-0.675353564188413
30
0
41
1
10
21.5435014737614
20
-0.162024104057707
30
0
41
1
10
19.7109479283314
20
0.861875314536917
30
0
41
1
10
18.7916266804807
20
1.37341002249136
30
0
41
1
10
16.9589891871599
20
2.37087168206321
30
0
41
1
10
16.0440398046146
20
2.85779384682726
30
0
41
1
10
14.6679077710831
20
3.56059374736736
30
0
41
1
10
14.2082261696
20
3.79044358385485
30
0
41
1
10
13.2911572527172
20
4.23728174716715
30
0
41
1
10
12.833269163417
20
4.45450727448858
30
0
41
1
10
11.4600319680817
20
5.08540737285142
30
0
41
1
10
10.5452335520782
20
5.47847447687175
30
0
41
1
10
9.16804011983606
20
6.01815379423888
30
0
41
1
10
8.70868054351448
20
6.1895941444792
30
0
41
1
10
7.79220807998456
20
6.51313055872976
30
0
41
1
10
7.3345228396829
20
6.66540019694239
30
0
41
1
10
5.96159028130771
20
7.09221411241685
30
0
41
1
10
5.04642235550318
20
7.33676443558272
30
0
41
1
10
4.1280175303807
20
7.53796383898634
30
0
0
SPLINE
5
BA
100
AcDbEntity
8
1
62
256
6
ByLayer
370
18
48
1
60
0
100
AcDbSpline
70
4
71
3
72
38
73
34
40
0
40
0
40
0
40
0
40
0.107399742388166
40
0.107399742388166
40
0.161099613582249
40
0.161099613582249
40
0.214799484776333
40
0.214799484776333
40
0.268499355970416
40
0.268499355970416
40
0.3221992271645
40
0.3221992271645
40
0.429598969552667
40
0.429598969552667
40
0.483298840746751
40
0.483298840746751
40
0.536998711940835
40
0.536998711940835
40
0.59069858313492
40
0.59069858313492
40
0.644398454329004
40
0.644398454329004
40
0.751798196717172
40
0.751798196717172
40
0.805498067911258
40
0.805498067911258
40
0.859197939105343
40
0.859197939105343
40
0.912897810299428
40
0.912897810299428
40
0.966597681493513
40
0.966597681493513
40
1
40
1
40
1
40
1
41
1
10
22.9436703981529
20
-1.61202670176101
30
0
41
1
10
23.6658511653316
20
-2.01102172972878
30
0
41
1
10
24.3884888209225
20
-2.39829798909406
30
0
41
1
10
25.4703213800389
20
-2.9670090152114
30
0
41
1
10
25.8303656280731
20
-3.15486909295535
30
0
41
1
10
26.5505622840717
20
-3.52500947478987
30
0
41
1
10
26.9114456008426
20
-3.70610298493725
30
0
41
1
10
27.6341878156309
20
-4.06137864465373
30
0
41
1
10
27.9964106523312
20
-4.23571465461907
30
0
41
1
10
28.7191765223516
20
-4.57688414222332
30
0
41
1
10
29.079419071686
20
-4.74428071155896
30
0
41
1
10
30.1603311165573
20
-5.23147412092428
30
0
41
1
10
30.8822476833486
20
-5.53507132939956
30
0
41
1
10
31.9642007003823
20
-5.96280211526488
30
0
41
1
10
32.3243361786943
20
-6.10113454698404
30
0
41
1
10
33.0467511212413
20
-6.3653135171447
30
0
41
1
10
33.4087644806009
20
-6.49125559947666
30
0
41
1
10
34.1313222811085
20
-6.7308081014082
30
0
41
1
10
34.4922353838119
20
-6.84451866164724
30
0
41
1
10
35.2129411730744
20
-7.06010956371571
30
0
41
1
10
35.5724508073815
20
-7.16218819623484
30
0
41
1
10
36.6535627950016
20
-7.44670598266214
30
0
41
1
10
37.3767020242962
20
-7.60924680560123
30
0
41
1
10
38.4605384275324
20
-7.81315684767497
30
0
41
1
10
38.8207827793977
20
-7.87421220309699
30
0
41
1
10
39.5422792929943
20
-7.9810372801748
30
0
41
1
10
39.903080674455
20
-8.02709709149644
30
0
41
1
10
40.6243666143471
20
-8.10481041855067
30
0
41
1
10
40.9848597499144
20
-8.13646077001277
30
0
41
1
10
41.705136660947
20
-8.18519604617717
30
0
41
1
10
42.0652571793232
20
-8.20215110723146
30
0
41
1
10
42.6511589857742
20
-8.21745273099577
30
0
41
1
10
42.876222433747
20
-8.22044027616835
30
0
41
1
10
43.1012286583403
20
-8.22055109532701
30
0
0
SPLINE
5
BB
100
AcDbEntity
8
1
62
256
6
ByLayer
370
18
48
1
60
0
100
AcDbSpline
70
4
71
3
72
28
73
24
40
0
40
0
40
0
40
0
40
0.0692620549520084
40
0.0692620549520084
40
0.224385045793336
40
0.224385045793336
40
0.301946541214001
40
0.301946541214001
40
0.379508036634667
40
0.379508036634667
40
0.457069532055332
40
0.457069532055332
40
0.534631027475997
40
0.534631027475997
40
0.689754018317329
40
0.689754018317329
40
0.767315513737997
40
0.767315513737997
40
0.844877009158665
40
0.844877009158665
40
0.922438504579332
40
0.922438504579332
40
1
40
1
40
1
40
1
41
1
10
78.2486533752525
20
6.04715337253288
30
0
41
1
10
78.5710860289085
20
6.17036685251276
30
0
41
1
10
78.8926844825657
20
6.289593839319
30
0
41
1
10
79.9343799924395
20
6.65985898772854
30
0
41
1
10
80.65569156751
20
6.88986905622423
30
0
41
1
10
81.7364758868943
20
7.19931412898939
30
0
41
1
10
82.0961737340832
20
7.2967517084372
30
0
41
1
10
82.8175071934965
20
7.47744480893928
30
0
41
1
10
83.1793665639606
20
7.56082974687149
30
0
41
1
10
83.9016422060504
20
7.71355644642421
30
0
41
1
10
84.2623746288074
20
7.78295867709914
30
0
41
1
10
84.9826422294323
20
7.90799597934912
30
0
41
1
10
85.341856792343
20
7.96372680848876
30
0
41
1
10
86.4218631482021
20
8.10808947826177
30
0
41
1
10
87.1437032008322
20
8.17499884362491
30
0
41
1
10
88.2267132201087
20
8.23154678156095
30
0
41
1
10
88.5868780280247
20
8.24292172533464
30
0
41
1
10
89.3073743158965
20
8.2505728462906
30
0
41
1
10
89.6674819506906
20
8.24695517858331
30
0
41
1
10
90.3869942058148
20
8.22500929283547
30
0
41
1
10
90.7464080613908
20
8.20668119405525
30
0
41
1
10
91.4641466421921
20
8.15504405815329
30
0
41
1
10
91.8226781504353
20
8.12171876988759
30
0
41
1
10
92.1821405973501
20
8.08133249718409
30
0
0
SPLINE
5
BC
100
AcDbEntity
8
1
62
256
6
ByLayer
370
18
48
1
60
0
100
AcDbSpline
70
4
71
3
72
28
73
24
40
0
40
0
40
0
40
0
40
0.249999999999995
40
0.249999999999995
40
0.374999999999981
40
0.374999999999981
40
0.499999999999967
40
0.499999999999967
40
0.562499999999971
40
0.562499999999971
40
0.624999999999975
40
0.624999999999975
40
0.687499999999979
40
0.687499999999979
40
0.749999999999983
40
0.749999999999983
40
0.812499999999988
40
0.812499999999988
40
0.874999999999992
40
0.874999999999992
40
0.937499999999996
40
0.937499999999996
40
1
40
1
40
1
40
1
41
1
10
91.0918923500696
20
2.3403719008179
30
0
41
1
10
91.3708474063069
20
2.3902496647087
30
0
41
1
10
91.6478901161725
20
2.44757373130707
30
0
41
1
10
92.0566343435243
20
2.55253128906736
30
0
41
1
10
92.1917972485413
20
2.59074278595764
30
0
41
1
10
92.4591474194783
20
2.67615670989173
30
0
41
1
10
92.5913548257239
20
2.7232945299611
30
0
41
1
10
92.7863573696949
20
2.80416828153119
30
0
41
1
10
92.8508007310233
20
2.83284017928619
30
0
41
1
10
92.9782452438805
20
2.89465814050615
30
0
41
1
10
93.0414837189864
20
2.92793306025229
30
0
41
1
10
93.1648187606152
20
2.99990836068454
30
0
41
1
10
93.224734133923
20
3.03846630223487
30
0
41
1
10
93.3398543502049
20
3.12254620080893
30
0
41
1
10
93.3953548409267
20
3.16836896609135
30
0
41
1
10
93.4972460407533
20
3.26748307660606
30
0
41
1
10
93.5438758032194
20
3.32084858714603
30
0
41
1
10
93.6253347201119
20
3.43807273648352
30
0
41
1
10
93.6599127780594
20
3.5022468412279
30
0
41
1
10
93.7097108935877
20
3.63631276857748
30
0
41
1
10
93.7254412270409
20
3.70810509317707
30
0
41
1
10
93.7360521504646
20
3.85114741113574
30
0
41
1
10
93.7313157767493
20
3.92375834579974
30
0
41
1
10
93.7184321892657
20
3.99473488847377
30
0
0
SPLINE
5
BD
100
AcDbEntity
8
1
62
256
6
ByLayer
370
13
48
1
60
0
100
AcDbSpline
70
4
71
3
72
34
73
30
40
0
40
0
40
0
40
0
40
0.0302472964806874
40
0.0302472964806874
40
0.19187274706724
40
0.19187274706724
40
0.272685472360516
40
0.272685472360516
40
0.353498197653792
40
0.353498197653792
40
0.434310922947068
40
0.434310922947068
40
0.474717285593706
40
0.474717285593706
40
0.515123648240344
40
0.515123648240344
40
0.676749098826896
40
0.676749098826896
40
0.717155461473534
40
0.717155461473534
40
0.757561824120172
40
0.757561824120172
40
0.838374549413448
40
0.838374549413448
40
0.919187274706724
40
0.919187274706724
40
0.959593637353362
40
0.959593637353362
40
1
40
1
40
1
40
1
41
1
10
4.25060395081277
20
-7.84269609390537
30
0
41
1
10
4.25061355079438
20
-7.84267395584277
30
0
41
1
10
4.25062298880266
20
-7.84045184884914
30
0
41
1
10
4.2506818023877
20
-7.81245776560962
30
0
41
1
10
4.25072712741914
20
-7.72753719858659
30
0
41
1
10
4.25079316486043
20
-7.50819712109609
30
0
41
1
10
4.25081492105502
20
-7.41910702311398
30
0
41
1
10
4.25085756490628
20
-7.21212778311815
30
0
41
1
10
4.25087851426463
20
-7.09417265745458
30
0
41
1
10
4.25092005130134
20
-6.82914172663106
30
0
41
1
10
4.25094050643438
20
-6.68286995523408
30
0
41
1
10
4.25097073798767
20
-6.44397762808586
30
0
41
1
10
4.25098074562501
20
-6.3610454020118
30
0
41
1
10
4.25100062785233
20
-6.18853316326039
30
0
41
1
10
4.25101050143343
20
-6.09893757064452
30
0
41
1
10
4.25105906442559
20
-5.63862577331443
30
0
41
1
10
4.25109585641363
20
-5.22817955034117
30
0
41
1
10
4.25113794974013
20
-4.66316802395048
30
0
41
1
10
4.25114616487119
20
-4.54753901712468
30
0
41
1
10
4.25116211818303
20
-4.31092881700067
30
0
41
1
10
4.25116987347619
20
-4.1896326715644
30
0
41
1
10
4.25119204322485
20
-3.82182559627785
30
0
41
1
10
4.25120544382833
20
-3.57040617543828
30
0
41
1
10
4.25122890613295
20
-3.05548971928113
30
0
41
1
10
4.25123896892288
20
-2.79199189944447
30
0
41
1
10
4.25125096641719
20
-2.38762212623396
30
0
41
1
10
4.25125444772755
20
-2.2513083827173
30
0
41
1
10
4.25126025191506
20
-1.97558115830736
30
0
41
1
10
4.25126257900735
20
-1.83572519481334
30
0
41
1
10
4.25126424351581
20
-1.69552633710026
30
0
0
SPLINE
5
BE
100
AcDbEntity
8
1
62
256
6
ByLayer
370
18
48
1
60
0
100
AcDbSpline
70
4
71
3
72
18
73
14
40
0
40
0
40
0
40
0
40
0.125
40
0.125
40
0.25
40
0.25
40
0.375
40
0.375
40
0.5
40
0.5
40
0.75
40
0.75
40
1
40
1
40
1
40
1
41
1
10
4.25126424351853
20
-1.69552633695199
30
0
41
1
10
4.23728272537801
20
-1.6818916226531
30
0
41
1
10
4.22275422455877
20
-1.66928808918553
30
0
41
1
10
4.19213126256273
20
-1.64701236286788
30
0
41
1
10
4.17587954978998
20
-1.63728737273684
30
0
41
1
10
4.14282898342293
20
-1.62350477471298
30
0
41
1
10
4.12570598320326
20
-1.61941709081162
30
0
41
1
10
4.09331556671043
20
-1.61958791967737
30
0
41
1
10
4.07820911387535
20
-1.62387316231963
30
0
41
1
10
4.03939840434529
20
-1.64743384643967
30
0
41
1
10
4.0234117507982
20
-1.67522228888461
30
0
41
1
10
4.00380257306043
20
-1.73646155619363
30
0
41
1
10
4.0000004602413
20
-1.77033657254953
30
0
41
1
10
4.00000046024209
20
-1.80519342230721
30
0
0
SPLINE
5
BF
100
AcDbEntity
8
1
62
256
6
ByLayer
370
18
48
1
60
0
100
AcDbSpline
70
4
71
3
72
8
73
4
40
0
40
0
40
0
40
0
40
1
40
1
40
1
40
1
41
1
10
4.00000046024203
20
-1.80519342229667
30
0
41
1
10
4.00000046024203
20
-1.8511502676933
30
0
41
1
10
4.00000046024209
20
-1.89684241975385
30
0
41
1
10
4.00000046024209
20
-1.94226995912723
30
0
0
SPLINE
5
C0
100
AcDbEntity
8
1
62
256
6
ByLayer
370
18
48
1
60
0
100
AcDbSpline
70
4
71
3
72
24
73
20
40
0
40
0
40
0
40
0
40
0.125000000000001
40
0.125000000000001
40
0.250000000000002
40
0.250000000000002
40
0.375000000000003
40
0.375000000000003
40
0.500000000000004
40
0.500000000000004
40
0.625000000000005
40
0.625000000000005
40
0.687500000000005
40
0.687500000000005
40
0.750000000000004
40
0.750000000000004
40
0.875000000000002
40
0.875000000000002
40
1
40
1
40
1
40
1
41
1
10
13.9198187073614
20
-6.71772917273844
30
0
41
1
10
13.4922257396617
20
-6.5997758380299
30
0
41
1
10
13.0677970704558
20
-6.47200175829127
30
0
41
1
10
12.2242853291465
20
-6.19490327144109
30
0
41
1
10
11.8051872324315
20
-6.04560558846026
30
0
41
1
10
10.9711802524557
20
-5.7274478527367
30
0
41
1
10
10.5563058119881
20
-5.55828265643356
30
0
41
1
10
9.73043872123569
20
-5.19792664174301
30
0
41
1
10
9.31946471594208
20
-5.00648638291159
30
0
41
1
10
8.50131861606084
20
-4.60118017507247
30
0
41
1
10
8.09413682324399
20
-4.38735759494594
30
0
41
1
10
7.48686496349282
20
-4.04644146946808
30
0
41
1
10
7.28468703996518
20
-3.9292044634179
30
0
41
1
10
6.88377078571574
20
-3.68830246665866
30
0
41
1
10
6.68505129997448
20
-3.56466868848585
30
0
41
1
10
6.094859249324
20
-3.18303337650005
30
0
41
1
10
5.70920076423761
20
-2.91452772659108
30
0
41
1
10
4.9602177718784
20
-2.33894728722314
30
0
41
1
10
4.59661292216074
20
-2.03230883218859
30
0
41
1
10
4.25126424351546
20
-1.69552633693556
30
0
0
SPLINE
5
C1
100
AcDbEntity
8
1
62
256
6
ByLayer
370
18
48
1
60
0
100
AcDbSpline
70
4
71
3
72
87
73
83
40
0
40
0
40
0
40
0
40
0.0478018909820704
40
0.0478018909820704
40
0.115823259792829
40
0.115823259792829
40
0.132828601995519
40
0.132828601995519
40
0.149833944198209
40
0.149833944198209
40
0.183844628603588
40
0.183844628603588
40
0.251865997414347
40
0.251865997414347
40
0.319887366225106
40
0.319887366225106
40
0.353898050630485
40
0.353898050630485
40
0.387908735035865
40
0.387908735035865
40
0.421919419441244
40
0.421919419441244
40
0.438924761643934
40
0.438924761643934
40
0.447427432745279
40
0.447427432745279
40
0.449553100520615
40
0.449818808992532
40
0.449818808992532
40
0.450084517464449
40
0.450084517464449
40
0.450615934408283
40
0.450615934408283
40
0.451678768295951
40
0.451678768295951
40
0.455930103846624
40
0.455930103846624
40
0.464432774947969
40
0.464432774947969
40
0.472935446049314
40
0.472935446049314
40
0.489940788252005
40
0.489940788252005
40
0.523951472657386
40
0.523951472657386
40
0.557962157062767
40
0.557962157062767
40
0.591972841468147
40
0.591972841468147
40
0.659994210278909
40
0.659994210278909
40
0.69400489468429
40
0.69400489468429
40
0.702507565785635
40
0.702507565785635
40
0.706758901336308
40
0.706758901336308
40
0.708884569111644
40
0.708884569111644
40
0.709415986055479
40
0.709415986055479
40
0.709681694527396
40
0.709681694527396
40
0.709947402999313
40
0.711010236886981
40
0.728015579089672
40
0.728015579089672
40
0.762026263495055
40
0.762026263495055
40
0.796036947900437
40
0.796036947900437
40
0.83004763230582
40
0.83004763230582
40
0.847052974508511
40
0.847052974508511
40
0.864058316711203
40
0.864058316711203
40
0.932079685521968
40
0.932079685521968
40
0.966090369927351
40
0.966090369927351
40
1
40
1
40
1
40
1
41
1
10
22.9436602150946
20
-1.61202132269597
30
0
41
1
10
22.6194305079343
20
-1.44075136538001
30
0
41
1
10
22.2967001453565
20
-1.27708608776541
30
0
41
1
10
21.5169658876171
20
-0.904466603483172
30
0
41
1
10
21.0609219827351
20
-0.705688268409176
30
0
41
1
10
20.4885123377964
20
-0.49221842810897
30
0
41
1
10
20.3739021831349
20
-0.451279111521075
30
0
41
1
10
20.1442670206583
20
-0.373172438801589
30
0
41
1
10
20.0294791107919
20
-0.336096904378564
30
0
41
1
10
19.6876338139623
20
-0.231846188826665
30
0
41
1
10
19.4620592121678
20
-0.171295099429301
30
0
41
1
10
18.7899872987796
20
-0.0170866465851702
30
0
41
1
10
18.3481041678024
20
0.0490850522442372
30
0
41
1
10
17.4646416618479
20
0.106775376819428
30
0
41
1
10
17.0230624082677
20
0.0983621482839681
30
0
41
1
10
16.3527121959601
20
0.0291786105785263
30
0
41
1
10
16.128503592222
20
-0.0033110969866641
30
0
41
1
10
15.6815510572096
20
-0.0859471149884428
30
0
41
1
10
15.4581948367028
20
-0.1361484665847
30
0
41
1
10
15.0105655669738
20
-0.25366576817126
30
0
41
1
10
14.7860447671836
20
-0.321079776417633
30
0
41
1
10
14.4494194430856
20
-0.434069282364902
30
0
41
1
10
14.3371889724677
20
-0.473720086331468
30
0
41
1
10
14.1687173664381
20
-0.536106002555442
30
0
41
1
10
14.112532670142
20
-0.557388901129741
30
0
41
1
10
14.0422883565919
20
-0.584583273257266
30
0
41
1
10
14.0264828465215
20
-0.590735145294929
30
0
41
1
10
14.0106767341016
20
-0.596924111804668
30
0
41
1
10
14.0071642512598
20
-0.598300352464292
30
0
41
1
10
14.0078055093615
20
-0.600176800791417
30
0
41
1
10
14.0109098093886
20
-0.604293391524152
30
0
41
1
10
14.0138259129955
20
-0.606655195745958
30
0
41
1
10
14.0225367021098
20
-0.613665997304082
30
0
41
1
10
14.028788019508
20
-0.618024764600534
30
0
41
1
10
14.0604569510292
20
-0.639529404326339
30
0
41
1
10
14.0872442849304
20
-0.655586992912419
30
0
41
1
10
14.1677164435493
20
-0.703531720164079
30
0
41
1
10
14.2223587818769
20
-0.734659964182242
30
0
41
1
10
14.3320001611341
20
-0.796591079191586
30
0
41
1
10
14.3871063748255
20
-0.827323410721675
30
0
41
1
10
14.5528522399196
20
-0.919245471078
30
0
41
1
10
14.6639281720374
20
-0.980162055910029
30
0
41
1
10
14.9978523609607
20
-1.1627234884555
30
0
41
1
10
15.2214250963898
20
-1.28415361369949
30
0
41
1
10
15.669346999253
20
-1.52766506683938
30
0
41
1
10
15.8937639951165
20
-1.64964863715264
30
0
41
1
10
16.3424773043018
20
-1.89566655212619
30
0
41
1
10
16.5669055249959
20
-2.01951407514284
30
0
41
1
10
17.2404917326383
20
-2.39329753508397
30
0
41
1
10
17.6898151927971
20
-2.64510313926451
30
0
41
1
10
18.359742324575
20
-3.03363621693879
30
0
41
1
10
18.5827704498807
20
-3.16429222718324
30
0
41
1
10
18.8581378182181
20
-3.33456949894801
30
0
41
1
10
18.9130346588716
20
-3.36896696059708
30
0
41
1
10
18.9943102025505
20
-3.4222619040049
30
0
41
1
10
19.0212727479322
20
-3.44023712258934
30
0
41
1
10
19.0607235513723
20
-3.46876326890981
30
0
41
1
10
19.0739462004033
20
-3.47833540066691
30
0
41
1
10
19.0889018035664
20
-3.49221870180546
30
0
41
1
10
19.0918975100389
20
-3.49505595065597
30
0
41
1
10
19.0953925907143
20
-3.50015903425296
30
0
41
1
10
19.0968236519425
20
-3.50268185985502
30
0
41
1
10
19.0937509355403
20
-3.50552229414797
30
0
41
1
10
19.0860692404117
20
-3.51262286522589
30
0
41
1
10
18.980068876141
20
-3.61057452810297
30
0
41
1
10
18.8756977968242
20
-3.70661110439718
30
0
41
1
10
18.5813192197185
20
-3.97579586087414
30
0
41
1
10
18.3850437389926
20
-4.15302714010858
30
0
41
1
10
17.9945533422114
20
-4.49761752879536
30
0
41
1
10
17.8000426385894
20
-4.66526484085387
30
0
41
1
10
17.4103703394979
20
-4.98907479924199
30
0
41
1
10
17.2152147812187
20
-5.14524245346738
30
0
41
1
10
16.9200762851226
20
-5.3688166388838
30
0
41
1
10
16.8212918542695
20
-5.44155685908893
30
0
41
1
10
16.6225353389447
20
-5.5830574775166
30
0
41
1
10
16.5223741599044
20
-5.65193438209908
30
0
41
1
10
16.0217994459173
20
-5.98249523048358
30
0
41
1
10
15.619734661066
20
-6.20453191038945
30
0
41
1
10
14.9964537648245
20
-6.45914733084055
30
0
41
1
10
14.785310442228
20
-6.53094548451435
30
0
41
1
10
14.3540733848369
20
-6.64633654581843
30
0
41
1
10
14.1376533288178
20
-6.68900074450176
30
0
41
1
10
13.9198187493046
20
-6.71772918463685
30
0
0
SPLINE
5
C2
100
AcDbEntity
8
1
62
256
6
ByLayer
370
18
48
1
60
0
100
AcDbSpline
70
4
71
3
72
18
73
14
40
0
40
0
40
0
40
0
40
0.178440827835915
40
0.178440827835915
40
0.321770868600765
40
0.321770868600765
40
0.465100909365615
40
0.465100909365615
40
0.751760990895314
40
0.751760990895314
40
0.895091031660165
40
0.895091031660165
40
1
40
1
40
1
40
1
41
1
10
44.42350677644
20
-7.86598924501791
30
0
41
1
10
43.8538984444457
20
-7.86379710158988
30
0
41
1
10
43.2844447446085
20
-7.84383977176753
30
0
41
1
10
42.2563894927767
20
-7.77586281065049
30
0
41
1
10
41.7979762054565
20
-7.73413782205944
30
0
41
1
10
40.8793726112308
20
-7.6279749439303
30
0
41
1
10
40.4189028290391
20
-7.56346073328626
30
0
41
1
10
39.0350578706071
20
-7.33610781602283
30
0
41
1
10
38.1157027273931
20
-7.14075149372982
30
0
41
1
10
36.7362661158938
20
-6.78653403939026
30
0
41
1
10
36.2763197259782
20
-6.65830814145625
30
0
41
1
10
35.4787667130284
20
-6.4192945026532
30
0
41
1
10
35.1409715878297
20
-6.31286295038404
30
0
41
1
10
34.8035667817625
20
-6.20164416844597
30
0
0
SPLINE
5
C3
100
AcDbEntity
8
1
62
256
6
ByLayer
370
13
48
1
60
0
100
AcDbSpline
70
4
71
3
72
20
73
16
40
0
40
0
40
0
40
0
40
0.020635785368489
40
0.020635785368489
40
0.174599627024388
40
0.174599627024388
40
0.482527310336186
40
0.482527310336186
40
0.559509231164137
40
0.559509231164137
40
0.636491151992087
40
0.636491151992087
40
0.790454993647989
40
0.790454993647989
40
1
40
1
40
1
40
1
41
1
10
34.8035667820799
20
-6.20164416855056
30
0
41
1
10
34.6799981805894
20
-6.16091223736271
30
0
41
1
10
34.5564819311343
20
-6.11953821308299
30
0
41
1
10
33.5123218056331
20
-5.76430288907565
30
0
41
1
10
32.5978022534584
20
-5.4174809969312
30
0
41
1
10
29.8623365044544
20
-4.29283950714947
30
0
41
1
10
28.0497314022261
20
-3.43075606151749
30
0
41
1
10
25.7626450204308
20
-2.26999872679013
30
0
41
1
10
25.3041634264258
20
-2.03370312507374
30
0
41
1
10
24.3843037190351
20
-1.55412895635143
30
0
41
1
10
23.922095233831
20
-1.31044984967494
30
0
41
1
10
22.5425550657293
20
-0.57876055050167
30
0
41
1
10
21.6287549723263
20
-0.0879880812802014
30
0
41
1
10
19.4768103285499
20
1.06194740368875
30
0
41
1
10
18.2407514829339
20
1.71808419014326
30
0
41
1
10
17.0003220011859
20
2.3509545711907
30
0
0
SPLINE
5
C4
100
AcDbEntity
8
1
62
256
6
ByLayer
370
18
48
1
60
0
100
AcDbSpline
70
4
71
3
72
8
73
4
40
0
40
0
40
0
40
0
40
1
40
1
40
1
40
1
41
1
10
92.2071366720872
20
-7.84843162478296
30
0
41
1
10
92.1747348719611
20
-7.87938487344823
30
0
41
1
10
92.1478153490888
20
-7.89497977685335
30
0
41
1
10
92.1264718899111
20
-7.894953596638
30
0
0
SPLINE
5
C5
100
AcDbEntity
8
1
62
256
6
ByLayer
370
18
48
1
60
0
100
AcDbSpline
70
4
71
3
72
36
73
32
40
0
40
0
40
0
40
0
40
0.119445734889613
40
0.119445734889613
40
0.179168602334419
40
0.179168602334419
40
0.238891469779225
40
0.238891469779225
40
0.298614337224032
40
0.298614337224032
40
0.358337204668838
40
0.358337204668838
40
0.477782939558453
40
0.477782939558453
40
0.537505807003259
40
0.537505807003259
40
0.597228674448065
40
0.597228674448065
40
0.656951541892872
40
0.656951541892872
40
0.716674409337678
40
0.716674409337678
40
0.776397276782484
40
0.776397276782484
40
0.836120144227291
40
0.836120144227291
40
0.895843011672097
40
0.895843011672097
40
0.955565879116903
40
0.955565879116903
40
1
40
1
40
1
40
1
41
1
10
13.9198187493037
20
-6.71772918463697
30
0
41
1
10
14.6470450174885
20
-6.91942194272116
30
0
41
1
10
15.3729638592383
20
-7.0958911003145
30
0
41
1
10
16.4602134167541
20
-7.31993255978477
30
0
41
1
10
16.8223293660231
20
-7.38823736301038
30
0
41
1
10
17.5470223657559
20
-7.51162187295213
30
0
41
1
10
17.9098047422204
20
-7.56644694589329
30
0
41
1
10
18.6360778438994
20
-7.66160553717936
30
0
41
1
10
18.9998990486481
20
-7.70205886459979
30
0
41
1
10
19.7267718323274
20
-7.7693608426213
30
0
41
1
10
20.0894011626135
20
-7.79628186353389
30
0
41
1
10
21.1773816748409
20
-7.85483671009797
30
0
41
1
10
21.9025445412653
20
-7.86380649145605
30
0
41
1
10
22.9899865291055
20
-7.83613436286231
30
0
41
1
10
23.352344967591
20
-7.81973966711635
30
0
41
1
10
24.0786812196373
20
-7.77202312583299
30
0
41
1
10
24.4427485499077
20
-7.74080473233741
30
0
41
1
10
25.169533065265
20
-7.66547690458327
30
0
41
1
10
25.5324363685152
20
-7.62124886245459
30
0
41
1
10
26.257335372897
20
-7.51670022524513
30
0
41
1
10
26.6194227100834
20
-7.45705089565348
30
0
41
1
10
27.3443925210451
20
-7.32534885216015
30
0
41
1
10
27.7070215903095
20
-7.25343085811113
30
0
41
1
10
28.432536131556
20
-7.09636668851607
30
0
41
1
10
28.7954572830841
20
-7.01045887205905
30
0
41
1
10
29.5218270597226
20
-6.82506054890044
30
0
41
1
10
29.8854140937908
20
-6.72583570197179
30
0
41
1
10
30.6117592293527
20
-6.51724730055619
30
0
41
1
10
30.9746611774198
20
-6.40758470879084
30
0
41
1
10
31.6070722866007
20
-6.20479104309493
30
0
41
1
10
31.8767038698523
20
-6.1148619727968
30
0
41
1
10
32.1462517775317
20
-6.02181913739915
30
0
0
SPLINE
5
C6
100
AcDbEntity
8
1
62
256
6
ByLayer
370
18
48
1
60
0
100
AcDbSpline
70
4
71
3
72
32
73
28
40
0
40
0
40
0
40
0
40
0.130433823773971
40
0.130433823773971
40
0.202897671792809
40
0.202897671792809
40
0.275361519811646
40
0.275361519811646
40
0.347825367830485
40
0.347825367830485
40
0.420289215849322
40
0.420289215849322
40
0.49275306386816
40
0.49275306386816
40
0.565216911886998
40
0.565216911886998
40
0.637680759905831
40
0.637680759905831
40
0.710144607924665
40
0.710144607924665
40
0.782608455943499
40
0.782608455943499
40
0.855072303962332
40
0.855072303962332
40
0.927536151981166
40
0.927536151981166
40
1
40
1
40
1
40
1
41
1
10
68.5669035435068
20
7.87511158063964
30
0
41
1
10
69.2191888543829
20
7.86231206961779
30
0
41
1
10
69.8711395098566
20
7.82388338075978
30
0
41
1
10
70.8888324880491
20
7.73074908332404
30
0
41
1
10
71.2524954077726
20
7.69106968041592
30
0
41
1
10
71.9783449162186
20
7.59601176485558
30
0
41
1
10
72.3408217532124
20
7.54125290955767
30
0
41
1
10
73.065111044077
20
7.41885176061021
30
0
41
1
10
73.427275591669
20
7.35194920281705
30
0
41
1
10
74.1521386116925
20
7.20442259065743
30
0
41
1
10
74.5147465710725
20
7.12326723475462
30
0
41
1
10
75.2404530156703
20
6.94680788291777
30
0
41
1
10
75.6036951927454
20
6.85146934647338
30
0
41
1
10
76.3301307878146
20
6.64828631550253
30
0
41
1
10
76.6931733532411
20
6.54094665719862
30
0
41
1
10
77.4189196286832
20
6.31545333047094
30
0
41
1
10
77.781597763552
20
6.19727285846497
30
0
41
1
10
78.5065123904273
20
5.95054709905159
30
0
41
1
10
78.8685930692103
20
5.82171451226085
30
0
41
1
10
79.5932394973651
20
5.55258879093768
30
0
41
1
10
79.9560660064585
20
5.41264409926882
30
0
41
1
10
80.6825551233734
20
5.122504679934
30
0
41
1
10
81.0465384028257
20
4.97224497146175
30
0
41
1
10
81.7729161844033
20
4.66293356855505
30
0
41
1
10
82.135347387268
20
4.50350966889451
30
0
41
1
10
82.8603592299667
20
4.17773856865256
30
0
41
1
10
83.222948738359
20
4.01144705382734
30
0
41
1
10
83.5855113906755
20
3.84180031934966
30
0
0
SPLINE
5
C7
100
AcDbEntity
8
1
62
256
6
ByLayer
370
18
48
1
60
0
100
AcDbSpline
70
4
71
3
72
16
73
12
40
0
40
0
40
0
40
0
40
0.25
40
0.25
40
0.5
40
0.5
40
0.75
40
0.75
40
0.875
40
0.875
40
1
40
1
40
1
40
1
41
1
10
93.7184321892667
20
3.99473488847414
30
0
41
1
10
93.5907601679047
20
4.3384677585812
30
0
41
1
10
93.4629833861462
20
4.68187142967295
30
0
41
1
10
93.2071932540183
20
5.36701204828918
30
0
41
1
10
93.0791233516502
20
5.70853557462328
30
0
41
1
10
92.8229035712668
20
6.3911037957007
30
0
41
1
10
92.694746828906
20
6.73201893842679
30
0
41
1
10
92.5025260834905
20
7.23962777245873
30
0
41
1
10
92.4384510534766
20
7.40847560870145
30
0
41
1
10
92.3102990991264
20
7.74570678327524
30
0
41
1
10
92.2462217133213
20
7.91397696701617
30
0
41
1
10
92.1821405973619
20
8.08133249718435
30
0
0
SPLINE
5
C8
100
AcDbEntity
8
1
62
256
6
ByLayer
370
18
48
1
60
0
100
AcDbSpline
70
4
71
3
72
12
73
8
40
0
40
0
40
0
40
0
40
0.249999999999981
40
0.249999999999981
40
0.499999999999962
40
0.499999999999962
40
1
40
1
40
1
40
1
41
1
10
92.1836195281051
20
-7.93579715310352
30
0
41
1
10
92.1884626517465
20
-7.92270861011571
30
0
41
1
10
92.1931610420535
20
-7.90939130996873
30
0
41
1
10
92.20112174377
20
-7.88530356568236
30
0
41
1
10
92.2043673520383
20
-7.87456641169993
30
0
41
1
10
92.2106997028596
20
-7.85028149502287
30
0
41
1
10
92.2102862619514
20
-7.84542284015021
30
0
41
1
10
92.2071366720873
20
-7.84843162478293
30
0
0
SPLINE
5
C9
100
AcDbEntity
8
1
62
256
6
ByLayer
370
18
48
1
60
0
100
AcDbSpline
70
4
71
3
72
60
73
56
40
0
40
0
40
0
40
0
40
0.0287521572710673
40
0.0287521572710673
40
0.0575043145421346
40
0.0575043145421346
40
0.115008629084268
40
0.115008629084268
40
0.143760786355335
40
0.143760786355335
40
0.172512943626402
40
0.172512943626402
40
0.230017258168537
40
0.230017258168537
40
0.258769415439604
40
0.258769415439604
40
0.28752157271067
40
0.28752157271067
40
0.316273729981737
40
0.316273729981737
40
0.345025887252803
40
0.345025887252803
40
0.402530201794937
40
0.402530201794937
40
0.431282359066003
40
0.431282359066003
40
0.46003451633707
40
0.46003451633707
40
0.517538830879203
40
0.517538830879203
40
0.546290988150269
40
0.546290988150269
40
0.575043145421335
40
0.575043145421335
40
0.632547459963467
40
0.632547459963467
40
0.6900517745056
40
0.6900517745056
40
0.718803931776666
40
0.718803931776666
40
0.747556089047732
40
0.747556089047732
40
0.805060403589863
40
0.805060403589863
40
0.833812560860929
40
0.833812560860929
40
0.862564718131995
40
0.862564718131995
40
0.920069032674127
40
0.920069032674127
40
0.948821189945193
40
0.948821189945193
40
0.977573347216259
40
0.977573347216259
40
1
40
1
40
1
40
1
41
1
10
92.0873309588901
20
-8.19566261231461
30
0
41
1
10
91.629016612885
20
-8.22493485906807
30
0
41
1
10
91.1707890354207
20
-8.24215342354685
30
0
41
1
10
90.2536640075373
20
-8.25243893986229
30
0
41
1
10
89.7949758953894
20
-8.24547791607367
30
0
41
1
10
88.4215493078181
20
-8.18861728246551
30
0
41
1
10
87.5078048384769
20
-8.10277724144225
30
0
41
1
10
86.1343912094602
20
-7.90372674258427
30
0
41
1
10
85.6755504754759
20
-7.82556078903883
30
0
41
1
10
84.7588167402626
20
-7.64675728428978
30
0
41
1
10
84.3011188938349
20
-7.54619517087787
30
0
41
1
10
82.92876152696
20
-7.21210595377926
30
0
41
1
10
82.0146613646134
20
-6.94630428958411
30
0
41
1
10
80.6390753991094
20
-6.48778006827189
30
0
41
1
10
80.1804411080637
20
-6.32512324460399
30
0
41
1
10
79.2648996591886
20
-5.98251041415298
30
0
41
1
10
78.8075319018351
20
-5.80243360681527
30
0
41
1
10
77.892758081912
20
-5.42584317189576
30
0
41
1
10
77.4353113042902
20
-5.22938063332441
30
0
41
1
10
76.5193387789077
20
-4.82138430284232
30
0
41
1
10
76.0602619202884
20
-4.60957907168142
30
0
41
1
10
74.6851401029511
20
-3.95600008639639
30
0
41
1
10
73.7710245866212
20
-3.49590512032395
30
0
41
1
10
72.398217297089
20
-2.7782271543264
30
0
41
1
10
71.9403226683185
20
-2.53444319204954
30
0
41
1
10
71.0228938304845
20
-2.0394918697427
30
0
41
1
10
70.5643511616616
20
-1.7888704680777
30
0
41
1
10
69.1908413684921
20
-1.03147223843854
30
0
41
1
10
68.276730393132
20
-0.518590338084664
30
0
41
1
10
66.9024696443276
20
0.252993171858861
30
0
41
1
10
66.4433064945866
20
0.51075766588184
30
0
41
1
10
65.5266486652327
20
1.02279118786436
30
0
41
1
10
65.0688963417769
20
1.27724004032439
30
0
41
1
10
63.6962672750447
20
2.03395999330883
30
0
41
1
10
62.7816243017735
20
2.52891022704449
30
0
41
1
10
60.9460428791658
20
3.48719718870891
30
0
41
1
10
60.0310329745387
20
3.94683291176142
30
0
41
1
10
58.6583455376117
20
4.59827514998514
30
0
41
1
10
58.2006623380217
20
4.80905778837715
30
0
41
1
10
57.2840261138448
20
5.21633515374396
30
0
41
1
10
56.8246932928404
20
5.41303219011257
30
0
41
1
10
55.4498442988708
20
5.97734407953496
30
0
41
1
10
54.5355000060745
20
6.31959377443297
30
0
41
1
10
53.1618397374321
20
6.77569973560026
30
0
41
1
10
52.7034623126944
20
6.91821403857136
30
0
41
1
10
51.7854858535701
20
7.18282980573952
30
0
41
1
10
51.3272998786827
20
7.30454227614013
30
0
41
1
10
49.9537292652313
20
7.63693639751602
30
0
41
1
10
49.0393144005285
20
7.81485597679492
30
0
41
1
10
47.6639243448865
20
8.01242979744467
30
0
41
1
10
47.2045613148973
20
8.06672622837601
30
0
41
1
10
46.2879447204816
20
8.15130303410723
30
0
41
1
10
45.8302064040285
20
8.18167993533294
30
0
41
1
10
45.0155580850948
20
8.21443753300537
30
0
41
1
10
44.658605541759
20
8.22150653493236
30
0
41
1
10
44.301462803474
20
8.22127190256489
30
0
0
SPLINE
5
CA
100
AcDbEntity
8
1
62
256
6
ByLayer
370
18
48
1
60
0
100
AcDbSpline
70
4
71
3
72
74
73
70
40
0
40
0
40
0
40
0
40
0.125000000000002
40
0.125000000000002
40
0.156250000000002
40
0.156250000000002
40
0.187500000000003
40
0.187500000000003
40
0.250000000000006
40
0.250000000000006
40
0.375000000000011
40
0.375000000000011
40
0.500000000000015
40
0.500000000000015
40
0.562500000000018
40
0.562500000000018
40
0.593750000000019
40
0.593750000000019
40
0.62500000000002
40
0.62500000000002
40
0.687500000000023
40
0.687500000000023
40
0.718750000000025
40
0.718750000000025
40
0.722656250000025
40
0.722656250000025
40
0.726562500000025
40
0.726562500000025
40
0.730468750000026
40
0.730468750000026
40
0.732421875000026
40
0.732421875000026
40
0.734375000000026
40
0.734375000000026
40
0.750000000000025
40
0.750000000000025
40
0.765625000000023
40
0.765625000000023
40
0.781250000000022
40
0.781250000000022
40
0.812500000000019
40
0.812500000000019
40
0.820312500000018
40
0.820312500000018
40
0.828125000000017
40
0.828125000000017
40
0.843750000000016
40
0.843750000000016
40
0.851562500000015
40
0.851562500000015
40
0.859375000000015
40
0.859375000000015
40
0.875000000000013
40
0.875000000000013
40
0.882812500000012
40
0.882812500000012
40
0.890625000000012
40
0.890625000000012
40
0.90625000000001
40
0.90625000000001
40
0.921875000000009
40
0.921875000000009
40
0.937500000000007
40
0.937500000000007
40
0.968750000000004
40
0.968750000000004
40
0.984375000000002
40
0.984375000000002
40
1
40
1
40
1
40
1
41
1
10
22.9436361636507
20
-1.61204066324245
30
0
41
1
10
21.9282873867535
20
-1.05232012845767
30
0
41
1
10
20.9015830867114
20
-0.507929931027462
30
0
41
1
10
19.597028385199
20
0.138248104025735
30
0
41
1
10
19.3348501459301
20
0.265826062042009
30
0
41
1
10
18.8097941923444
20
0.516224226389568
30
0
41
1
10
18.5467717924141
20
0.639118919641618
30
0
41
1
10
17.7559468286448
20
1.0002539518548
30
0
41
1
10
17.2263835200539
20
1.2309320395205
30
0
41
1
10
15.6285068755713
20
1.88793545397715
30
0
41
1
10
14.5508998702084
20
2.27887467203863
30
0
41
1
10
12.3613181816656
20
2.94771986879462
30
0
41
1
10
11.2493595157341
20
3.22575803801993
30
0
41
1
10
9.55076556513043
20
3.55102363214226
30
0
41
1
10
8.97948222934178
20
3.64420985627726
30
0
41
1
10
8.11442472449929
20
3.7604070341489
30
0
41
1
10
7.82453973066214
20
3.79521771080292
30
0
41
1
10
7.24460010085281
20
3.85657708635421
30
0
41
1
10
6.95424796734594
20
3.88317175121824
30
0
41
1
10
6.08201832200669
20
3.95064508382254
30
0
41
1
10
5.49868530829312
20
3.97926155826721
30
0
41
1
10
4.62216422226606
20
3.99677813540578
30
0
41
1
10
4.32991011619288
20
3.9983726124126
30
0
41
1
10
4.00110963626631
20
3.99526332076911
30
0
41
1
10
3.96457757930756
20
3.99484969219142
30
0
41
1
10
3.89151613454973
20
3.9938855952467
30
0
41
1
10
3.85478620953975
20
3.99436174309758
30
0
41
1
10
3.78230294837366
20
3.98697546101133
30
0
41
1
10
3.74646770790818
20
3.97982319561717
30
0
41
1
10
3.69635979555665
20
3.96065300505879
30
0
41
1
10
3.68092899198697
20
3.9526338259283
30
0
41
1
10
3.65191774349273
20
3.93420847961701
30
0
41
1
10
3.63745148414151
20
3.92493581393646
30
0
41
1
10
3.50761665642298
20
3.84092975312854
30
0
41
1
10
3.39486171098471
20
3.76238663814922
30
0
41
1
10
3.17704485578079
20
3.59718207418746
30
0
41
1
10
3.07178637918528
20
3.51040862270631
30
0
41
1
10
2.86995819106798
20
3.32678345905131
30
0
41
1
10
2.77297948556622
20
3.22948078359539
30
0
41
1
10
2.50098289310344
20
2.92206399308751
30
0
41
1
10
2.34626838508242
20
2.69915283114796
30
0
41
1
10
2.19901297965936
20
2.38853547674481
30
0
41
1
10
2.17179584622315
20
2.32447815981692
30
0
41
1
10
2.12311794610736
20
2.19430217926561
30
0
41
1
10
2.10171827167977
20
2.1284310746415
30
0
41
1
10
2.04648320861767
20
1.92840803619151
30
0
41
1
10
2.02159988678599
20
1.79184977084242
30
0
41
1
10
2.00297077291478
20
1.58190044429003
30
0
41
1
10
1.9999023402149
20
1.51076064669832
30
0
41
1
10
2.00007986100613
20
1.36941836631851
30
0
41
1
10
2.00327647894292
20
1.29897256983907
30
0
41
1
10
2.02163459140004
20
1.08825952506336
30
0
41
1
10
2.04554519650498
20
0.948614913781739
30
0
41
1
10
2.0971119383899
20
0.740224871814348
30
0
41
1
10
2.11691783649499
20
0.671054428404517
30
0
41
1
10
2.16071545036127
20
0.535172932573204
30
0
41
1
10
2.18477339739687
20
0.468177499817244
30
0
41
1
10
2.2627475115429
20
0.269728976056513
30
0
41
1
10
2.32243600068293
20
0.140801353416492
30
0
41
1
10
2.45448978712054
20
-0.111515224587635
30
0
41
1
10
2.52714826864684
20
-0.235327692285153
30
0
41
1
10
2.68188242520577
20
-0.476247758049482
30
0
41
1
10
2.76350233632999
20
-0.592752027651869
30
0
41
1
10
3.01858507495496
20
-0.932715688231838
30
0
41
1
10
3.20214145748335
20
-1.14674448659065
30
0
41
1
10
3.49161281499539
20
-1.45445634607825
30
0
41
1
10
3.59050054308358
20
-1.55476741710834
30
0
41
1
10
3.79241328465952
20
-1.75147056794449
30
0
41
1
10
3.8956368171049
20
-1.84803285370361
30
0
41
1
10
4.00000046024033
20
-1.94226995912564
30
0
0
SPLINE
5
CB
100
AcDbEntity
8
1
62
256
6
ByLayer
370
18
48
1
60
0
100
AcDbSpline
70
2053
71
3
72
76
73
72
40
0
40
0
40
0
40
0
40
0.031250000000001
40
0.031250000000001
40
0.0468750000000015
40
0.0468750000000015
40
0.0625000000000019
40
0.0625000000000019
40
0.0937500000000028
40
0.0937500000000028
40
0.109375000000003
40
0.109375000000003
40
0.125000000000004
40
0.125000000000004
40
0.156250000000002
40
0.156250000000002
40
0.171875000000001
40
0.171875000000001
40
0.1875
40
0.1875
40
0.218749999999999
40
0.218749999999999
40
0.249999999999997
40
0.249999999999997
40
0.281249999999996
40
0.281249999999996
40
0.312499999999994
40
0.312499999999994
40
0.343749999999993
40
0.343749999999993
40
0.374999999999991
40
0.374999999999991
40
0.437499999999984
40
0.437499999999984
40
0.468749999999983
40
0.468749999999983
40
0.499999999999982
40
0.499999999999982
40
0.531249999999981
40
0.531249999999981
40
0.562499999999979
40
0.562499999999979
40
0.593749999999978
40
0.593749999999978
40
0.624999999999977
40
0.624999999999977
40
0.640624999999978
40
0.640624999999978
40
0.656249999999979
40
0.656249999999979
40
0.687499999999981
40
0.687499999999981
40
0.718749999999983
40
0.718749999999983
40
0.749999999999985
40
0.749999999999985
40
0.781249999999986
40
0.781249999999986
40
0.812499999999988
40
0.812499999999988
40
0.84374999999999
40
0.84374999999999
40
0.874999999999992
40
0.874999999999992
40
0.906249999999994
40
0.906249999999994
40
0.937499999999996
40
0.937499999999996
40
0.968749999999998
40
0.968749999999998
40
1
40
1
40
1
40
1
41
1
10
92.3020911838632
20
-3.57689430827571
30
0
41
1
10
92.2644010490327
20
-3.62895664887338
30
0
41
1
10
92.2273882763693
20
-3.6849998429125
30
0
41
1
10
92.1729861516519
20
-3.77562943778955
30
0
41
1
10
92.1550395164194
20
-3.80694068869573
30
0
41
1
10
92.1195580370673
20
-3.87198328443839
30
0
41
1
10
92.1019877344991
20
-3.90580747773478
30
0
41
1
10
92.0511794134332
20
-4.00884845795886
30
0
41
1
10
92.0194183671232
20
-4.08029980177042
30
0
41
1
10
91.9754714052391
20
-4.19230227587963
30
0
41
1
10
91.9615482924744
20
-4.2302256503084
30
0
41
1
10
91.9358644792158
20
-4.30543957155174
30
0
41
1
10
91.9239996706132
20
-4.34298956276092
30
0
41
1
10
91.8914227596993
20
-4.45546360107241
30
0
41
1
10
91.8735927821757
20
-4.53127259588049
30
0
41
1
10
91.8548720599815
20
-4.63752797953222
30
0
41
1
10
91.8498826631308
20
-4.67193397845932
30
0
41
1
10
91.8423689139853
20
-4.7387507116004
30
0
41
1
10
91.8398488330435
20
-4.77133945285757
30
0
41
1
10
91.8360985679238
20
-4.86363062184387
30
0
41
1
10
91.8385098106318
20
-4.91873830112249
30
0
41
1
10
91.852114407787
20
-5.01683232241589
30
0
41
1
10
91.8630820836437
20
-5.05837058407263
30
0
41
1
10
91.8920979325042
20
-5.12868339542558
30
0
41
1
10
91.9102011461668
20
-5.15722749291174
30
0
41
1
10
91.9515163617134
20
-5.20102473375064
30
0
41
1
10
91.9749679348966
20
-5.21664556793846
30
0
41
1
10
92.0264110319362
20
-5.23596624654482
30
0
41
1
10
92.0540397735
20
-5.23958849726182
30
0
41
1
10
92.1127542363134
20
-5.23588835434182
30
0
41
1
10
92.1440312602678
20
-5.22847634582047
30
0
41
1
10
92.241711641623
20
-5.19036532269487
30
0
41
1
10
92.3108041300207
20
-5.14492067926389
30
0
41
1
10
92.4205512153139
20
-5.04594111394144
30
0
41
1
10
92.4575432025754
20
-5.00823170000453
30
0
41
1
10
92.5315503053622
20
-4.92403823821309
30
0
41
1
10
92.5686924101909
20
-4.87744965520889
30
0
41
1
10
92.6432849803528
20
-4.77427555351889
30
0
41
1
10
92.6810383938715
20
-4.7171231861324
30
0
41
1
10
92.7538652655157
20
-4.5957864786462
30
0
41
1
10
92.7892411414578
20
-4.5312829686678
30
0
41
1
10
92.8575462674312
20
-4.39323242958309
30
0
41
1
10
92.8898094865429
20
-4.32090251489927
30
0
41
1
10
92.9483337032905
20
-4.17275160990889
30
0
41
1
10
92.9750703605752
20
-4.09543021217289
30
0
41
1
10
93.0081152423063
20
-3.98253374925304
30
0
41
1
10
93.0180561540092
20
-3.9451894382085
30
0
41
1
10
93.0357190654418
20
-3.87109548073417
30
0
41
1
10
93.0434923960059
20
-3.83403623279094
30
0
41
1
10
93.0628072442983
20
-3.72638624592079
30
0
41
1
10
93.0704346266757
20
-3.65957112054212
30
0
41
1
10
93.0757607352312
20
-3.53530652969493
30
0
41
1
10
93.0733316740562
20
-3.47989508960109
30
0
41
1
10
93.0597191885294
20
-3.38231959591892
30
0
41
1
10
93.0484708664441
20
-3.34024855567134
30
0
41
1
10
93.0191741313689
20
-3.2705561696979
30
0
41
1
10
93.0008330789215
20
-3.24225075572946
30
0
41
1
10
92.9590664285876
20
-3.19910105559498
30
0
41
1
10
92.9356616671971
20
-3.18404024745166
30
0
41
1
10
92.8843983962502
20
-3.1654247331046
30
0
41
1
10
92.8562987394126
20
-3.16193068688403
30
0
41
1
10
92.7971411579999
20
-3.16605209139635
30
0
41
1
10
92.766095419027
20
-3.17355663098715
30
0
41
1
10
92.701223417517
20
-3.19888421855401
30
0
41
1
10
92.6671418668484
20
-3.21689303779175
30
0
41
1
10
92.5975074293437
20
-3.2626642406311
30
0
41
1
10
92.5620234042377
20
-3.29030328324976
30
0
41
1
10
92.4897127165389
20
-3.3551525855338
30
0
41
1
10
92.4528872619353
20
-3.39235423384577
30
0
41
1
10
92.3777486092022
20
-3.47736316032052
30
0
41
1
10
92.3397813186936
20
-3.52483196767804
30
0
41
1
10
92.3020911838632
20
-3.57689430827571
30
0
0
SPLINE
5
CC
100
AcDbEntity
8
1
62
256
6
ByLayer
370
18
48
1
60
0
100
AcDbSpline
70
4
71
3
72
16
73
12
40
0
40
0
40
0
40
0
40
0.200273595777133
40
0.200273595777133
40
0.324667186564496
40
0.324667186564496
40
0.449060777351858
40
0.449060777351858
40
0.94663514050131
40
0.94663514050131
40
1
40
1
40
1
40
1
41
1
10
21.2079579268167
20
0.0246235250349969
30
0
41
1
10
21.9426634834232
20
-0.373510425919648
30
0
41
1
10
22.6793807095656
20
-0.772911302931163
30
0
41
1
10
23.8800142064777
20
-1.41671894282936
30
0
41
1
10
24.3424272695123
20
-1.6630485544637
30
0
41
1
10
25.2625629845979
20
-2.14751935259105
30
0
41
1
10
25.7211512801432
20
-2.38607566388751
30
0
41
1
10
28.0087222284852
20
-3.55711451106021
30
0
41
1
10
29.8213635635442
20
-4.42450438812878
30
0
41
1
10
31.8409693250917
20
-5.25714097427715
30
0
41
1
10
32.0367175606084
20
-5.33646709555327
30
0
41
1
10
32.2326278589318
20
-5.41441363132506
30
0
0
SPLINE
5
CD
100
AcDbEntity
8
1
62
256
6
ByLayer
370
13
48
1
60
0
100
AcDbSpline
70
4
71
3
72
22
73
18
40
0
40
0
40
0
40
0
40
0.152126340187891
40
0.152126340187891
40
0.200543361678504
40
0.200543361678504
40
0.248960383169116
40
0.248960383169116
40
0.345794426150338
40
0.345794426150338
40
0.539462512112785
40
0.539462512112785
40
0.733130598075232
40
0.733130598075232
40
0.926798684037679
40
0.926798684037679
40
1
40
1
40
1
40
1
41
1
10
32.23262692927
20
-5.41441326144192
30
0
41
1
10
32.9500515081695
20
-5.69985391647006
30
0
41
1
10
33.669649394559
20
-5.96679393933786
30
0
41
1
10
34.6234740655797
20
-6.29073102417829
30
0
41
1
10
34.8543745518724
20
-6.36684933704933
30
0
41
1
10
35.3156838572689
20
-6.51414256003386
30
0
41
1
10
35.546145135778
20
-6.58534042110125
30
0
41
1
10
36.2371235851279
20
-6.79141185665304
30
0
41
1
10
36.6972146622381
20
-6.91880682072664
30
0
41
1
10
38.0771213908728
20
-7.26992196733511
30
0
41
1
10
38.9967654520028
20
-7.46243652061023
30
0
41
1
10
40.8426859446993
20
-7.7583231821296
30
0
41
1
10
41.761127561942
20
-7.86027878376891
30
0
41
1
10
43.5933278331271
20
-7.97132799802353
30
0
41
1
10
44.507643165084
20
-7.98050557686821
30
0
41
1
10
45.7698586609807
20
-7.92896511084786
30
0
41
1
10
46.1163798307949
20
-7.90818770079025
30
0
41
1
10
46.4633500052558
20
-7.88077112159351
30
0
0
SPLINE
5
CE
100
AcDbEntity
8
1
62
256
6
ByLayer
370
18
48
1
60
0
100
AcDbSpline
70
4
71
3
72
26
73
22
40
0
40
0
40
0
40
0
40
0.124999999999996
40
0.124999999999996
40
0.187499999999995
40
0.187499999999995
40
0.249999999999993
40
0.249999999999993
40
0.499999999999992
40
0.499999999999992
40
0.562499999999992
40
0.562499999999992
40
0.624999999999993
40
0.624999999999993
40
0.749999999999995
40
0.749999999999995
40
0.874999999999998
40
0.874999999999998
40
0.937499999999999
40
0.937499999999999
40
1
40
1
40
1
40
1
41
1
10
92.126471889911
20
-7.89495359663798
30
0
41
1
10
92.0114816646056
20
-7.89484981042401
30
0
41
1
10
91.9020423186023
20
-7.87800922428136
30
0
41
1
10
91.7466186162307
20
-7.82640995094076
30
0
41
1
10
91.6962702301925
20
-7.80480951984805
30
0
41
1
10
91.5986106025354
20
-7.75245117544586
30
0
41
1
10
91.5511516563644
20
-7.72155630688104
30
0
41
1
10
91.3246312315308
20
-7.54538673010063
30
0
41
1
10
91.1759794459531
20
-7.3357935382214
30
0
41
1
10
91.0329118723476
20
-6.98367600821919
30
0
41
1
10
91.0064639160863
20
-6.90868674355426
30
0
41
1
10
90.9580742755016
20
-6.7492074085302
30
0
41
1
10
90.9360961264456
20
-6.66444125943693
30
0
41
1
10
90.8781247386648
20
-6.39966472998927
30
0
41
1
10
90.8496711407994
20
-6.20818544869192
30
0
41
1
10
90.8128525808815
20
-5.79574305145431
30
0
41
1
10
90.8044866460122
20
-5.57478136330434
30
0
41
1
10
90.8074479423041
20
-5.22057471036297
30
0
41
1
10
90.8110480517025
20
-5.09832855984155
30
0
41
1
10
90.8234964488047
20
-4.84784912086582
30
0
41
1
10
90.8323111798169
20
-4.71995402895482
30
0
41
1
10
90.8436749411334
20
-4.58944610555938
30
0
0
SPLINE
5
CF
100
AcDbEntity
8
1
62
256
6
ByLayer
370
18
48
1
60
0
100
AcDbSpline
70
4
71
3
72
14
73
10
40
0
40
0
40
0
40
0
40
0.25
40
0.25
40
0.5
40
0.5
40
0.75
40
0.75
40
1
40
1
40
1
40
1
41
1
10
90.940383339105
20
2.06436508231514
30
0
41
1
10
90.9306861038164
20
2.09252414929148
30
0
41
1
10
90.924459943592
20
2.12166654070518
30
0
41
1
10
90.9230708470639
20
2.18210001611868
30
0
41
1
10
90.9281048319946
20
2.21275436185394
30
0
41
1
10
90.954632310115
20
2.26915967640235
30
0
41
1
10
90.9771414963194
20
2.29258366296989
30
0
41
1
10
91.030870597763
20
2.32524315858905
30
0
41
1
10
91.060986316442
20
2.33484583554821
30
0
41
1
10
91.0918923500697
20
2.34037190081793
30
0
0
SPLINE
5
D0
100
AcDbEntity
8
1
62
256
6
ByLayer
370
18
48
1
60
0
100
AcDbSpline
70
4
71
3
72
108
73
104
40
0
40
0
40
0
40
0
40
0.0012294308493606
40
0.0012294308493606
40
0.0207439112167431
40
0.0207439112167431
40
0.0402583915841256
40
0.0402583915841256
40
0.0597728719515081
40
0.0597728719515081
40
0.0792873523188906
40
0.0792873523188906
40
0.0988018326862731
40
0.0988018326862731
40
0.118316313053656
40
0.118316313053656
40
0.137830793421038
40
0.137830793421038
40
0.176859754155803
40
0.176859754155803
40
0.196374234523185
40
0.196374234523185
40
0.215888714890568
40
0.215888714890568
40
0.23540319525795
40
0.23540319525795
40
0.254917675625332
40
0.254917675625332
40
0.274432155992714
40
0.274432155992714
40
0.293946636360096
40
0.293946636360096
40
0.313461116727479
40
0.313461116727479
40
0.332975597094861
40
0.332975597094861
40
0.372004557829625
40
0.372004557829625
40
0.391519038197007
40
0.391519038197007
40
0.411033518564389
40
0.411033518564389
40
0.430547998931771
40
0.430547998931771
40
0.450062479299153
40
0.450062479299153
40
0.469576959666535
40
0.469576959666535
40
0.489091440033917
40
0.489091440033917
40
0.508605920401299
40
0.508605920401299
40
0.52812040076868
40
0.52812040076868
40
0.547634881136062
40
0.547634881136062
40
0.567149361503444
40
0.567149361503444
40
0.586663841870826
40
0.586663841870826
40
0.606178322238208
40
0.606178322238208
40
0.62569280260559
40
0.62569280260559
40
0.645207282972972
40
0.645207282972972
40
0.664721763340354
40
0.664721763340354
40
0.684236243707736
40
0.684236243707736
40
0.703750724075117
40
0.703750724075117
40
0.723265204442499
40
0.723265204442499
40
0.742779684809881
40
0.742779684809881
40
0.762294165177263
40
0.762294165177263
40
0.781808645544645
40
0.781808645544645
40
0.801323125912027
40
0.801323125912027
40
0.820837606279409
40
0.820837606279409
40
0.840352086646791
40
0.840352086646791
40
0.859866567014172
40
0.859866567014172
40
0.879381047381554
40
0.879381047381554
40
0.898895527748936
40
0.898895527748936
40
0.918410008116318
40
0.918410008116318
40
0.9379244884837
40
0.9379244884837
40
0.957438968851082
40
0.957438968851082
40
0.976953449218464
40
0.976953449218464
40
0.996467929585846
40
0.996467929585846
40
1
40
1
40
1
40
1
41
1
10
78.2112620809073
20
-6.05097167758206
30
0
41
1
10
78.1884113177295
20
-6.05879264844015
30
0
41
1
10
78.1655585229689
20
-6.0665920524107
30
0
41
1
10
77.7799317017886
20
-6.19782674444531
30
0
41
1
10
77.4167698702959
20
-6.31614965784132
30
0
41
1
10
76.6896961232509
20
-6.5419984452802
30
0
41
1
10
76.3258397903666
20
-6.64952949748803
30
0
41
1
10
75.6001651037289
20
-6.85241324576867
30
0
41
1
10
75.2376044676417
20
-6.9475333951668
30
0
41
1
10
74.5124565224537
20
-7.12379096563529
30
0
41
1
10
74.1499373377847
20
-7.2049021145379
30
0
41
1
10
73.4248569241591
20
-7.35240974386349
30
0
41
1
10
73.0624008871541
20
-7.41934746474385
30
0
41
1
10
72.3372191119188
20
-7.5418237061368
30
0
41
1
10
71.9741305457435
20
-7.5966317387898
30
0
41
1
10
71.2466875269144
20
-7.69176128568438
30
0
41
1
10
70.8832948069017
20
-7.73131483813006
30
0
41
1
10
69.7944860880467
20
-7.83077915207886
30
0
41
1
10
69.0707828456127
20
-7.87073919611751
30
0
41
1
10
67.9829205438255
20
-7.88232813835782
30
0
41
1
10
67.6200600302644
20
-7.87863213868937
30
0
41
1
10
66.8939947823388
20
-7.85858597051862
30
0
41
1
10
66.53068808156
20
-7.8417401332531
30
0
41
1
10
65.8040989398221
20
-7.79288909555405
30
0
41
1
10
65.4411099166361
20
-7.7606217028958
30
0
41
1
10
64.7154735038712
20
-7.68288908064557
30
0
41
1
10
64.3528272833106
20
-7.63751485117007
30
0
41
1
10
63.6280581081142
20
-7.53281069900356
30
0
41
1
10
63.2660755379124
20
-7.47318774660704
30
0
41
1
10
62.5410253838753
20
-7.33948210606755
30
0
41
1
10
62.1780893047601
20
-7.26594269030522
30
0
41
1
10
61.4514126259923
20
-7.1064661994759
30
0
41
1
10
61.0873832134263
20
-7.02029562473498
30
0
41
1
10
60.3613069042899
20
-6.8344182257683
30
0
41
1
10
59.9989368905387
20
-6.73444669897208
30
0
41
1
10
58.9113000379005
20
-6.4185115602242
30
0
41
1
10
58.18616497288
20
-6.18617235853082
30
0
41
1
10
57.0986532284175
20
-5.80004781232182
30
0
41
1
10
56.7359101468734
20
-5.66581439292759
30
0
41
1
10
56.008980160195
20
-5.38814860749227
30
0
41
1
10
55.6451870093833
20
-5.24451952377663
30
0
41
1
10
54.919062902657
20
-4.94780455191756
30
0
41
1
10
54.5564791337818
20
-4.79431102722597
30
0
41
1
10
53.8320292114781
20
-4.47910726331458
30
0
41
1
10
53.4697710773303
20
-4.31790647233672
30
0
41
1
10
52.7447607070094
20
-3.98785730310072
30
0
41
1
10
52.3820487987674
20
-3.81898550853734
30
0
41
1
10
51.6561129851607
20
-3.47371334867927
30
0
41
1
10
51.2929580964105
20
-3.29739903246534
30
0
41
1
10
50.5662773248304
20
-2.93874351798161
30
0
41
1
10
50.2032353194209
20
-2.7572078374636
30
0
41
1
10
49.4776021309387
20
-2.38957453203935
30
0
41
1
10
49.1149876820544
20
-2.20357214236978
30
0
41
1
10
48.39007436432
20
-1.82808051016684
30
0
41
1
10
48.0280370690346
20
-1.63801078360422
30
0
41
1
10
47.3034373511828
20
-1.25533362100387
30
0
41
1
10
46.9407577959434
20
-1.06286965542262
30
0
41
1
10
46.2144501976546
20
-0.676249956885584
30
0
41
1
10
45.8505327904548
20
-0.482028744557255
30
0
41
1
10
45.1239135771114
20
-0.0928237804408525
30
0
41
1
10
44.761457591096
20
0.102553655301506
30
0
41
1
10
44.0365124951202
20
0.491423264664007
30
0
41
1
10
43.6740446525507
20
0.685016802226897
30
0
41
1
10
42.9490326844666
20
1.07053196268828
30
0
41
1
10
42.5864899412244
20
1.26246654247584
30
0
41
1
10
41.8614614779392
20
1.64467967913615
30
0
41
1
10
41.4990276636094
20
1.8349456245584
30
0
41
1
10
40.7726260056375
20
2.21115788010428
30
0
41
1
10
40.4086953322234
20
2.3974488029381
30
0
41
1
10
39.6822605027118
20
2.76466168202577
30
0
41
1
10
39.3194270809139
20
2.94566392704877
30
0
41
1
10
38.594743837356
20
3.30209444565202
30
0
41
1
10
38.2327169818712
20
3.47771137911536
30
0
41
1
10
37.5079191323405
20
3.82179698830683
30
0
41
1
10
37.1453187742284
20
3.99047891810602
30
0
41
1
10
36.4196304016795
20
4.32010705705628
30
0
41
1
10
36.0564821722699
20
4.48055891351055
30
0
41
1
10
35.3298579065698
20
4.79512332138967
30
0
41
1
10
34.9665812372693
20
4.94847602891565
30
0
41
1
10
34.2406229646401
20
5.24479368306061
30
0
41
1
10
33.8778573632969
20
5.38798965761239
30
0
41
1
10
33.1526971440412
20
5.66292070740835
30
0
41
1
10
32.7903275822341
20
5.7954753320538
30
0
41
1
10
32.0658428275406
20
6.0513327559124
30
0
41
1
10
31.7033181811975
20
6.17389302289178
30
0
41
1
10
30.9772905615356
20
6.40677635318647
30
0
41
1
10
30.6135610088148
20
6.51671699400606
30
0
41
1
10
29.8862075892476
20
6.7256206637239
30
0
41
1
10
29.5232385003191
20
6.82467638649277
30
0
41
1
10
28.7979474742514
20
7.00984705531559
30
0
41
1
10
28.4353680011634
20
7.09571556269535
30
0
41
1
10
27.7101124037437
20
7.25279949293636
30
0
41
1
10
27.3474228112456
20
7.32476569697297
30
0
41
1
10
26.6219809233503
20
7.45661856164372
30
0
41
1
10
26.2594741162719
20
7.51637062137752
30
0
41
1
10
25.5333326304879
20
7.62114065415753
30
0
41
1
10
25.1692714112013
20
7.66550873611854
30
0
41
1
10
24.4422187907641
20
7.74085492196048
30
0
41
1
10
24.0790533870884
20
7.77198756969059
30
0
41
1
10
23.3536369416378
20
7.81966587230477
30
0
41
1
10
22.9915780593103
20
7.83607108233156
30
0
41
1
10
22.5636655236037
20
7.84698700929059
30
0
41
1
10
22.4980780599087
20
7.8484357425738
30
0
41
1
10
22.4324841786684
20
7.84965818345404
30
0
0
SPLINE
5
D1
100
AcDbEntity
8
1
62
256
6
ByLayer
370
13
48
1
60
0
100
AcDbSpline
70
4
71
3
72
14
73
10
40
0
40
0
40
0
40
0
40
0.018012178004174
40
0.018012178004174
40
0.391313654018779
40
0.391313654018779
40
0.764615130033383
40
0.764615130033383
40
1
40
1
40
1
40
1
41
1
10
4.25037056089406
20
7.50747980199267
30
0
41
1
10
4.25037215733264
20
7.51147612424853
30
0
41
1
10
4.25037374971387
20
7.51543754539318
30
0
41
1
10
4.25040825704568
20
7.60074162800001
30
0
41
1
10
4.25043948273199
20
7.6671914122023
30
0
41
1
10
4.25049917962389
20
7.76934909571796
30
0
41
1
10
4.25052740630358
20
7.80466006307776
30
0
41
1
10
4.25057153183781
20
7.83671698345748
30
0
41
1
10
4.25058815733704
20
7.8428272325024
30
0
41
1
10
4.25060432297803
20
7.84269413291128
30
0
0
SPLINE
5
D2
100
AcDbEntity
8
1
62
256
6
ByLayer
370
18
48
1
60
0
100
AcDbSpline
70
4
71
3
72
12
73
8
40
0
40
0
40
0
40
0
40
0.145233521168783
40
0.145233521168783
40
0.471978875270359
40
0.471978875270359
40
1
40
1
40
1
40
1
41
1
10
90.6711920844353
20
-7.8941767997926
30
0
41
1
10
90.2616597197923
20
-7.89481048725594
30
0
41
1
10
89.8531329595577
20
-7.88618872202892
30
0
41
1
10
88.5292670871881
20
-7.82875778693563
30
0
41
1
10
87.6177276831287
20
-7.74320774617487
30
0
41
1
10
85.2370906603138
20
-7.40524926238982
30
0
41
1
10
83.7702062328441
20
-7.08211690686758
30
0
41
1
10
82.2923509806265
20
-6.65467155318873
30
0
0
SPLINE
5
D3
100
AcDbEntity
8
1
62
256
6
ByLayer
370
13
48
1
60
0
100
AcDbSpline
70
4
71
3
72
28
73
24
40
0
40
0
40
0
40
0
40
0.0537925129474422
40
0.0537925129474422
40
0.123835264471492
40
0.123835264471492
40
0.193878015995542
40
0.193878015995542
40
0.333963519043638
40
0.333963519043638
40
0.404006270567685
40
0.404006270567685
40
0.474049022091732
40
0.474049022091732
40
0.614134525139825
40
0.614134525139825
40
0.684177276663872
40
0.684177276663872
40
0.75422002818792
40
0.75422002818792
40
0.894305531236014
40
0.894305531236014
40
1
40
1
40
1
40
1
41
1
10
82.2923500199801
20
-6.65467127533759
30
0
41
1
10
81.941179004728
20
-6.55310081775556
30
0
41
1
10
81.5893885299607
20
-6.44564040562099
30
0
41
1
10
80.7776548810934
20
-6.18500795028686
30
0
41
1
10
80.3163283314501
20
-6.02749523271365
30
0
41
1
10
79.3953506074511
20
-5.69576804309639
30
0
41
1
10
78.9354792513334
20
-5.52156955819274
30
0
41
1
10
77.5566362339003
20
-4.97558814493257
30
0
41
1
10
76.638276644953
20
-4.58044142183059
30
0
41
1
10
75.2564347657999
20
-3.9493452423761
30
0
41
1
10
74.7950876219443
20
-3.73256301009758
30
0
41
1
10
73.874664554267
20
-3.2896208207373
30
0
41
1
10
73.4149998349443
20
-3.06323217252103
30
0
41
1
10
72.036380696683
20
-2.37155590912135
30
0
41
1
10
71.1176520980116
20
-1.89402627988898
30
0
41
1
10
69.7345084144211
20
-1.16302966525785
30
0
41
1
10
69.274434128589
20
-0.917746043610094
30
0
41
1
10
68.3571623221502
20
-0.426954130055549
30
0
41
1
10
67.8996681964687
20
-0.181246853007565
30
0
41
1
10
66.5295460548915
20
0.554860591047174
30
0
41
1
10
65.6187576178741
20
1.04319020064148
30
0
41
1
10
64.019855309913
20
1.88546224266201
30
0
41
1
10
63.3318081020422
20
2.24263977384661
30
0
41
1
10
62.6419156187117
20
2.59221687153396
30
0
0
SPLINE
5
D4
100
AcDbEntity
8
1
62
256
6
ByLayer
370
18
48
1
60
0
100
AcDbSpline
70
4
71
3
72
12
73
8
40
0
40
0
40
0
40
0
40
0.250000000000011
40
0.250000000000011
40
0.500000000000022
40
0.500000000000022
40
1
40
1
40
1
40
1
41
1
10
4.1280175303807
20
7.53796383898634
30
0
41
1
10
4.10854323415006
20
7.54223016759889
30
0
41
1
10
4.09093672998554
20
7.54738884902523
30
0
41
1
10
4.05935268494707
20
7.55937827424961
30
0
41
1
10
4.04554170165997
20
7.56620007547468
30
0
41
1
10
4.01213032934893
20
7.58795818805061
30
0
41
1
10
4.00000046024203
20
7.60452756606333
30
0
41
1
10
4.00000046024201
20
7.62096041696861
30
0
0
SPLINE
5
D5
100
AcDbEntity
8
1
62
256
6
ByLayer
370
18
48
1
60
0
100
AcDbSpline
70
4
71
3
72
40
73
36
40
0
40
0
40
0
40
0
40
0.250000000000003
40
0.250000000000003
40
0.375000000000004
40
0.375000000000004
40
0.437500000000005
40
0.437500000000005
40
0.500000000000005
40
0.500000000000005
40
0.625000000000007
40
0.625000000000007
40
0.750000000000008
40
0.750000000000008
40
0.781250000000004
40
0.781250000000004
40
0.8125
40
0.8125
40
0.843749999999996
40
0.843749999999996
40
0.859374999999996
40
0.859374999999996
40
0.874999999999996
40
0.874999999999996
40
0.890624999999997
40
0.890624999999997
40
0.906249999999997
40
0.906249999999997
40
0.921874999999997
40
0.921874999999997
40
0.937499999999998
40
0.937499999999998
40
0.968749999999999
40
0.968749999999999
40
1
40
1
40
1
40
1
41
1
10
83.5855113906753
20
3.84180031934929
30
0
41
1
10
84.254424851503
20
3.32331171569132
30
0
41
1
10
84.9370217667448
20
2.8518740127052
30
0
41
1
10
85.98605011828
20
2.23113783478911
30
0
41
1
10
86.339887799893
20
2.03853541900921
30
0
41
1
10
86.8777142391375
20
1.77394188139152
30
0
41
1
10
87.0585939119094
20
1.68962492149208
30
0
41
1
10
87.4208210496712
20
1.53072322728281
30
0
41
1
10
87.6017685281371
20
1.45628886705626
30
0
41
1
10
88.1440869067485
20
1.24881405672628
30
0
41
1
10
88.5049382852486
20
1.13146490053356
30
0
41
1
10
89.2250270960823
20
0.945513168534688
30
0
41
1
10
89.5847947535013
20
0.877000414308185
30
0
41
1
10
90.0251556039687
20
0.829416452912994
30
0
41
1
10
90.112435933459
20
0.823239850457838
30
0
41
1
10
90.2825880417708
20
0.82449613204065
30
0
41
1
10
90.3659599412347
20
0.831958592725698
30
0
41
1
10
90.5243425740687
20
0.860952004390384
30
0
41
1
10
90.5998008064184
20
0.882368875611235
30
0
41
1
10
90.7055003608311
20
0.92837460214912
30
0
41
1
10
90.7394692395575
20
0.946053538443522
30
0
41
1
10
90.8042913233023
20
0.987187058451411
30
0
41
1
10
90.83506821243
20
1.01068527636048
30
0
41
1
10
90.8909081548955
20
1.06296403147726
30
0
41
1
10
90.9162414775019
20
1.0918715593335
30
0
41
1
10
90.9608305653288
20
1.1561906264985
30
0
41
1
10
90.9801145356434
20
1.19195252546442
30
0
41
1
10
91.010424357199
20
1.26795725203314
30
0
41
1
10
91.02184553538
20
1.30831870002348
30
0
41
1
10
91.0381767612165
20
1.39315552437077
30
0
41
1
10
91.0430106086959
20
1.43805005026769
30
0
41
1
10
91.0480064153083
20
1.57536719424422
30
0
41
1
10
91.0391078682659
20
1.67034776534965
30
0
41
1
10
91.0023608355348
20
1.86563296578399
30
0
41
1
10
90.9744950396295
20
1.96531069916836
30
0
41
1
10
90.940383339105
20
2.06436508231514
30
0
0
SPLINE
5
D6
100
AcDbEntity
8
1
62
256
6
ByLayer
370
18
48
1
60
0
100
AcDbSpline
70
4
71
3
72
8
73
4
40
0
40
0
40
0
40
0
40
1
40
1
40
1
40
1
41
1
10
92.0873309588902
20
-8.19566261231464
30
0
41
1
10
92.1194482795178
20
-8.10910175297468
30
0
41
1
10
92.1515444827363
20
-8.02247997213132
30
0
41
1
10
92.1836195281026
20
-7.93579715311031
30
0
0
SPLINE
5
D7
100
AcDbEntity
8
1
62
256
6
ByLayer
370
18
48
1
60
0
100
AcDbSpline
70
4
71
3
72
32
73
28
40
0
40
0
40
0
40
0
40
0.0624999999999976
40
0.0624999999999976
40
0.0937499999999971
40
0.0937499999999971
40
0.124999999999997
40
0.124999999999997
40
0.249999999999997
40
0.249999999999997
40
0.281249999999997
40
0.281249999999997
40
0.312499999999998
40
0.312499999999998
40
0.374999999999998
40
0.374999999999998
40
0.499999999999998
40
0.499999999999998
40
0.562499999999998
40
0.562499999999998
40
0.624999999999999
40
0.624999999999999
40
0.749999999999999
40
0.749999999999999
40
0.875
40
0.875
40
1
40
1
40
1
40
1
41
1
10
83.5855113906755
20
3.8418003193496
30
0
41
1
10
83.60858877733
20
3.62824666547107
30
0
41
1
10
83.647862757852
20
3.41185345985343
30
0
41
1
10
83.729598772773
20
3.08326201415008
30
0
41
1
10
83.760656180458
20
2.97306320850629
30
0
41
1
10
83.8302391696484
20
2.7513562931679
30
0
41
1
10
83.8689161082328
20
2.63950445176471
30
0
41
1
10
84.0771721915532
20
2.08586502950428
30
0
41
1
10
84.2921485421292
20
1.65476641612156
30
0
41
1
10
84.6075771741438
20
1.12729987746195
30
0
41
1
10
84.6731492243315
20
1.02222280777309
30
0
41
1
10
84.8073591315726
20
0.815304541972409
30
0
41
1
10
84.8761444322066
20
0.713202029117099
30
0
41
1
10
85.0870980258894
20
0.410606414802686
30
0
41
1
10
85.233839951055
20
0.213805813141477
30
0
41
1
10
85.6897672695078
20
-0.36391942697756
30
0
41
1
10
86.0145244959667
20
-0.732272221139141
30
0
41
1
10
86.5263595759212
20
-1.26486060005439
30
0
41
1
10
86.7005096799246
20
-1.43840104122569
30
0
41
1
10
87.0525502600013
20
-1.77525265120175
30
0
41
1
10
87.2309077606558
20
-1.93895202077781
30
0
41
1
10
87.7722988457805
20
-2.41727234431022
30
0
41
1
10
88.1413941239931
20
-2.71963500893534
30
0
41
1
10
88.8928548258404
20
-3.29752472276667
30
0
41
1
10
89.2753144822709
20
-3.57286120924812
30
0
41
1
10
90.0521310438983
20
-4.09947491365875
30
0
41
1
10
90.4467614365176
20
-4.35086292075235
30
0
41
1
10
90.843674941131
20
-4.58944610555761
30
0
0
SPLINE
5
D8
100
AcDbEntity
8
SK1
62
256
6
ByLayer
370
18
48
1
60
0
100
AcDbSpline
70
4
71
3
72
12
73
8
40
0
40
0
40
0
40
0
40
0.25
40
0.25
40
0.500000000000001
40
0.500000000000001
40
1
40
1
40
1
40
1
41
1
10
-47.467417005469
20
-3.52337382703888
30
0
41
1
10
-47.5009495915807
20
-3.45037239706934
30
0
41
1
10
-47.5356863673491
20
-3.37987378923754
30
0
41
1
10
-47.6078283069947
20
-3.2439332620616
30
0
41
1
10
-47.6454759522198
20
-3.17809797610391
30
0
41
1
10
-47.761526081635
20
-2.99166085378283
30
0
41
1
10
-47.8407757892783
20
-2.88489390824139
30
0
41
1
10
-47.9228943938861
20
-2.79903816049472
30
0
0
SPLINE
5
D9
100
AcDbEntity
8
SK1
62
256
6
ByLayer
370
18
48
1
60
0
100
AcDbSpline
70
4
71
3
72
8
73
4
40
0
40
0
40
0
40
0
40
1
40
1
40
1
40
1
41
1
10
-47.9228943938861
20
-2.79903816049477
30
0
41
1
10
-47.9486454839214
20
-2.75759658141411
30
0
41
1
10
-47.9743488715706
20
-2.7161323098901
30
0
41
1
10
-48
20
-2.6746431781971
30
0
0
SPLINE
5
DA
100
AcDbEntity
8
SK1
62
256
6
ByLayer
370
18
48
1
60
0
100
AcDbSpline
70
4
71
3
72
10
73
6
40
0
40
0
40
0
40
0
40
0.5
40
0.5
40
1
40
1
40
1
40
1
41
1
10
-45.6
20
-6.40191510423452
30
0
41
1
10
-45.9143396641853
20
-5.92363647437185
30
0
41
1
10
-46.2277713975055
20
-5.44492227637906
30
0
41
1
10
-46.8511393395757
20
-4.48583450497827
30
0
41
1
10
-47.1611769770418
20
-4.00550744396549
30
0
41
1
10
-47.467417005469
20
-3.52337382703888
30
0
0
SPLINE
5
DB
100
AcDbEntity
8
SK1
62
256
6
ByLayer
370
18
48
1
60
0
100
AcDbSpline
70
4
71
3
72
14
73
10
40
0
40
0
40
0
40
0
40
0.124999999999996
40
0.124999999999996
40
0.249999999999993
40
0.249999999999993
40
0.499999999999995
40
0.499999999999995
40
1
40
1
40
1
40
1
41
1
10
-45.5
20
-6.62185931057817
30
0
41
1
10
-45.5
20
-6.61471730692142
30
0
41
1
10
-45.5017107697461
20
-6.60546554491017
30
0
41
1
10
-45.5068845888984
20
-6.58606190995323
30
0
41
1
10
-45.5102281895671
20
-6.576147782069
30
0
41
1
10
-45.521528237522
20
-6.54604982603982
30
0
41
1
10
-45.5303630420009
20
-6.52648305107783
30
0
41
1
10
-45.558525242781
20
-6.46915464622944
30
0
41
1
10
-45.5788396428357
20
-6.43411131675569
30
0
41
1
10
-45.6
20
-6.40191510423452
30
0
0
SPLINE
5
DC
100
AcDbEntity
8
SK1
62
256
6
ByLayer
370
18
48
1
60
0
100
AcDbSpline
70
4
71
3
72
14
73
10
40
0
40
0
40
0
40
0
40
0.499999999999998
40
0.499999999999998
40
0.749999999999995
40
0.749999999999995
40
0.874999999999997
40
0.874999999999997
40
1
40
1
40
1
40
1
41
1
10
-45.6
20
-8.18604285623417
30
0
41
1
10
-45.5789465118596
20
-8.21807646385335
30
0
41
1
10
-45.5585985142981
20
-8.24705233467637
30
0
41
1
10
-45.5303873672755
20
-8.28277644051636
30
0
41
1
10
-45.5214287539013
20
-8.2932826331251
30
0
41
1
10
-45.5102864584886
20
-8.30381333045682
30
0
41
1
10
-45.50688945626
20
-8.30650437335188
30
0
41
1
10
-45.5017228477084
20
-8.30850512412417
30
0
41
1
10
-45.5
20
-8.30772983606613
30
0
41
1
10
-45.5
20
-8.30403690532074
30
0
0
SPLINE
5
DD
100
AcDbEntity
8
SK1
62
256
6
ByLayer
370
18
48
1
60
0
100
AcDbSpline
70
4
71
3
72
10
73
6
40
0
40
0
40
0
40
0
40
0.5
40
0.5
40
1
40
1
40
1
40
1
41
1
10
-48
20
-4.45877093019675
30
0
41
1
10
-47.6125327890862
20
-5.08547545060756
30
0
41
1
10
-47.2139909098581
20
-5.7076144907507
30
0
41
1
10
-46.4112087243417
20
-6.94888746053289
30
0
41
1
10
-46.0063190677275
20
-7.56781439466386
30
0
41
1
10
-45.6
20
-8.18604285623417
30
0
0
LINE
5
76
100
AcDbEntity
8
81
62
256
6
ByLayer
370
18
48
1
60
0
100
AcDbLine
10
95
20
0
30
0
11
100
21
0
31
0
39
0
210
0
220
0
230
1
0
LINE
5
77
100
AcDbEntity
8
1
62
256
6
ByLayer
370
18
48
1
60
0
100
AcDbLine
10
4
20
8.197091
30
0
11
1.388695
21
8.195524
31
0
39
0
210
0
220
0
230
1
0
LINE
5
79
100
AcDbEntity
8
1
62
256
6
ByLayer
370
18
48
1
60
0
100
AcDbLine
10
44.303177
20
8.221273
30
0
11
43.097665
21
8.22055
31
0
39
0
210
0
220
0
230
1
0
LINE
5
7A
100
AcDbEntity
8
1
62
256
6
ByLayer
370
18
48
1
60
0
100
AcDbLine
10
90.404064
20
8.248933
30
0
11
89.212286
21
8.248218
31
0
39
0
210
0
220
0
230
1
0
LINE
5
7B
100
AcDbEntity
8
1
62
256
6
ByLayer
370
18
48
1
60
0
100
AcDbLine
10
89.212286
20
-8.248218
30
0
11
90.403679
21
-8.248933
31
0
39
0
210
0
220
0
230
1
0
LINE
5
7C
100
AcDbEntity
8
1
62
256
6
ByLayer
370
18
48
1
60
0
100
AcDbLine
10
43.097665
20
-8.22055
30
0
11
44.302863
21
-8.221273
31
0
39
0
210
0
220
0
230
1
0
LINE
5
7D
100
AcDbEntity
8
1
62
256
6
ByLayer
370
18
48
1
60
0
100
AcDbLine
10
1.388695
20
-8.195524
30
0
11
4
21
-8.197091
31
0
39
0
210
0
220
0
230
1
0
LINE
5
7E
100
AcDbEntity
8
SK1
62
256
6
ByLayer
370
18
48
1
60
0
100
AcDbLine
10
0
20
9
30
0
11
-45.401924
21
9
31
0
39
0
210
0
220
0
230
1
0
LINE
5
80
100
AcDbEntity
8
SK1
62
256
6
ByLayer
370
18
48
1
60
0
100
AcDbLine
10
-45.401924
20
-9
30
0
11
0
21
-9
31
0
39
0
210
0
220
0
230
1
0
LINE
5
81
100
AcDbEntity
8
SK1
62
256
6
ByLayer
370
18
48
1
60
0
100
AcDbLine
10
-45.401924
20
9
30
0
11
-48
21
4.5
31
0
39
0
210
0
220
0
230
1
0
LINE
5
82
100
AcDbEntity
8
SK1
62
256
6
ByLayer
370
18
48
1
60
0
100
AcDbLine
10
-48
20
-4.5
30
0
11
-45.401924
21
-9
31
0
39
0
210
0
220
0
230
1
0
LINE
5
83
100
AcDbEntity
8
SK4
62
256
6
ByLayer
370
18
48
0.05
60
0
100
AcDbLine
10
100
20
0
30
0
11
-53
21
0
31
0
39
0
210
0
220
0
230
1
0
LINE
5
85
100
AcDbEntity
8
4
62
256
6
ByLayer
370
18
48
0.05
60
0
100
AcDbLine
10
95
20
0
30
0
11
0
21
0
31
0
39
0
210
0
220
0
230
1
0
LINE
5
87
100
AcDbEntity
8
80
62
256
6
ByLayer
370
18
48
1
60
0
100
AcDbLine
10
0
20
0
30
0
11
-5
21
0
31
0
39
0
210
0
220
0
230
1
0
LINE
5
88
100
AcDbEntity
8
1
62
256
6
ByLayer
370
18
48
1
60
0
100
AcDbLine
10
95
20
0
30
0
11
94.981182
21
-0.076291
31
0
39
0
210
0
220
0
230
1
0
LINE
5
89
100
AcDbEntity
8
1
62
256
6
ByLayer
370
18
48
1
60
0
100
AcDbLine
10
90.843675
20
-4.589446
30
0
11
94.893372
21
-0.076132
31
0
39
0
210
0
220
0
230
1
0
LINE
5
8A
100
AcDbEntity
8
1
62
256
6
ByLayer
370
18
48
1
60
0
100
AcDbLine
10
0
20
-9
30
0
11
0
21
9
31
0
39
0
210
0
220
0
230
1
0
LINE
5
8B
100
AcDbEntity
8
1
62
256
6
ByLayer
370
18
48
1
60
0
100
AcDbLine
10
4
20
-8.197091
30
0
11
4
21
-1.94227
31
0
39
0
210
0
220
0
230
1
0
LINE
5
8C
100
AcDbEntity
8
1
62
256
6
ByLayer
370
13
48
1
60
0
100
AcDbLine
10
94.596131
20
1.376618
30
0
11
92.828378
21
1.376618
31
0
39
0
210
0
220
0
230
1
0
LINE
5
8D
100
AcDbEntity
8
1
62
256
6
ByLayer
370
13
48
1
60
0
100
AcDbLine
10
0.694108
20
8.597762
30
0
11
0.694108
21
-8.597762
31
0
39
0
210
0
220
0
230
1
0
LINE
5
8E
100
AcDbEntity
8
1
62
256
6
ByLayer
370
18
48
1
60
0
100
AcDbLine
10
94.891979
20
-0.354885
30
0
11
94.596131
21
-1.376618
31
0
39
0
210
0
220
0
230
1
0
LINE
5
8F
100
AcDbEntity
8
1
62
256
6
ByLayer
370
13
48
1
60
0
100
AcDbLine
10
92.828378
20
1.376618
30
0
11
94.891979
21
0.354885
31
0
39
0
210
0
220
0
230
1
0
LINE
5
90
100
AcDbEntity
8
1
62
256
6
ByLayer
370
18
48
1
60
0
100
AcDbLine
10
95
20
0
30
0
11
92.126472
21
-7.894954
31
0
39
0
210
0
220
0
230
1
0
LINE
5
91
100
AcDbEntity
8
1
62
256
6
ByLayer
370
18
48
1
60
0
100
AcDbLine
10
4
20
8.197091
30
0
11
4
21
7.62096
31
0
39
0
210
0
220
0
230
1
0
LINE
5
92
100
AcDbEntity
8
1
62
256
6
ByLayer
370
13
48
1
60
0
100
AcDbLine
10
92.658919
20
1.030194
30
0
11
94.893372
21
-0.076132
31
0
39
0
210
0
220
0
230
1
0
LINE
5
93
100
AcDbEntity
8
1
62
256
6
ByLayer
370
13
48
1
60
0
100
AcDbLine
10
1.388695
20
8.195524
30
0
11
1.388695
21
-8.195524
31
0
39
0
210
0
220
0
230
1
0
LINE
5
94
100
AcDbEntity
8
1
62
256
6
ByLayer
370
18
48
1
60
0
100
AcDbLine
10
94.891979
20
0.354885
30
0
11
94.596131
21
1.376618
31
0
39
0
210
0
220
0
230
1
0
LINE
5
95
100
AcDbEntity
8
1
62
256
6
ByLayer
370
18
48
1
60
0
100
AcDbLine
10
94.981182
20
0.076291
30
0
11
95
21
0
31
0
39
0
210
0
220
0
230
1
0
LINE
5
96
100
AcDbEntity
8
SK1
62
256
6
ByLayer
370
18
48
1
60
0
100
AcDbLine
10
0
20
-9
30
0
11
0
21
9
31
0
39
0
210
0
220
0
230
1
0
LINE
5
97
100
AcDbEntity
8
SK1
62
256
6
ByLayer
370
18
48
1
60
0
100
AcDbLine
10
-48
20
4.5
30
0
11
-48
21
-2.674643
31
0
39
0
210
0
220
0
230
1
0
LINE
5
98
100
AcDbEntity
8
SK1
62
256
6
ByLayer
370
18
48
1
60
0
100
AcDbLine
10
-48
20
-4.5
30
0
11
-48
21
-4.458771
31
0
39
0
210
0
220
0
230
1
0
LINE
5
99
100
AcDbEntity
8
SK1
62
256
6
ByLayer
370
18
48
1
60
0
100
AcDbLine
10
-45.5
20
-8.304037
30
0
11
-45.5
21
-6.621859
31
0
39
0
210
0
220
0
230
1
0
LINE
5
9A
100
AcDbEntity
8
SK1
62
256
6
ByLayer
370
18
48
1
60
0
100
AcDbLine
10
-48
20
-2.674637
30
0
11
-48
21
-4.458771
31
0
39
0
210
0
220
0
230
1
0
LINE
5
9B
100
AcDbEntity
8
SK1
62
256
6
ByLayer
370
18
48
1
60
0
100
AcDbLine
10
-45.401924
20
9
30
0
11
-45.401924
21
-9
31
0
39
0
210
0
220
0
230
1
0
LINE
5
9C
100
AcDbEntity
8
SK1
62
256
6
ByLayer
370
13
48
1
60
0
100
AcDbLine
10
-45.6
20
-6.401753
30
0
11
-45.6
21
-8.186043
31
0
39
0
210
0
220
0
230
1
0
MTEXT
5
DE
100
AcDbEntity
8
SK6
62
256
6
ByLayer
370
13
48
1
60
0
100
AcDbMText
10
25.629169
20
40.632694
30
0
210
0
220
0
230
1
1
\W0.7415;R840-1650-50-A1A1220
40
3.5
41
0
44
1.084337
50
0
71
8
72
5
7
iso_b_vert
0
DIMENSION
5
EB
100
AcDbEntity
8
SK2
62
256
6
ByLayer
370
13
48
1
60
0
100
AcDbDimension
2
DimnDraft3D1
10
92.16
20
-18.463398
30
0
11
43.910059
21
-18.463398
31
0
70
32
71
5
72
1
41
1
210
0
220
0
230
1
3
Standard
100
AcDbAlignedDimension
13
0
23
-1.5875
33
0
14
92.16
24
-9.8375
34
0
50
0
100
AcDbRotatedDimension
1001
ACAD
1000
DSTYLE
1002
{
1070
   279
1070
     0
1070
   172
1070
     1
1070
   173
1070
     1
1070
   340
1005
DF
1070
   271
1070
     2
1070
   272
1070
     2
1070
    77
1070
     1
1070
    73
1070
     0
1070
   171
1070
     3
1070
   274
1070
     4
1070
   177
1070
    35
1070
   176
1070
    35
1070
   178
1070
    35
1070
    48
1040
-0.005
1070
    41
1041
3.5
1070
   147
1041
1.75
1070
    42
1041
1.5875
1070
    44
1041
2.0
1070
   140
1041
3.5
1070
   343
1005
0
1070
   344
1005
0
1002
}
0
DIMENSION
5
F5
100
AcDbEntity
8
SK2
62
256
6
ByLayer
370
13
48
1
60
0
100
AcDbDimension
2
DimnDraft3D2
10
95
20
-37.692985
30
0
11
22.0013
21
-37.692985
31
0
70
32
71
5
72
1
41
1
210
0
220
0
230
1
3
Standard
100
AcDbAlignedDimension
13
-48
23
-10.5875
33
0
14
95
24
-1.5875
34
0
50
0
100
AcDbRotatedDimension
1001
ACAD
1000
DSTYLE
1002
{
1070
   279
1070
     0
1070
   172
1070
     1
1070
   173
1070
     1
1070
   340
1005
DF
1070
   271
1070
     2
1070
   272
1070
     2
1070
    77
1070
     1
1070
    73
1070
     0
1070
   171
1070
     3
1070
   274
1070
     4
1070
   177
1070
    35
1070
   176
1070
    35
1070
   178
1070
    35
1070
    48
1040
-0.005
1070
    41
1041
3.5
1070
   147
1041
1.75
1070
    42
1041
1.5875
1070
    44
1041
2.0
1070
   140
1041
3.5
1070
   343
1005
0
1070
   344
1005
0
1002
}
0
DIMENSION
5
FF
100
AcDbEntity
8
SK2
62
256
6
ByLayer
370
13
48
1
60
0
100
AcDbDimension
2
DimnDraft3D3
10
95
20
19.859119
30
0
11
52.33
21
19.859119
31
0
70
32
71
5
72
1
41
1
210
0
220
0
230
1
3
Standard
100
AcDbAlignedDimension
13
9.66
23
9.8375
33
0
14
95
24
1.5875
34
0
50
0
100
AcDbRotatedDimension
1001
ACAD
1000
DSTYLE
1002
{
1070
   279
1070
     0
1070
   172
1070
     1
1070
   173
1070
     1
1070
   340
1005
DF
1070
   271
1070
     2
1070
   272
1070
     2
1070
    77
1070
     1
1070
    73
1070
     0
1070
   171
1070
     3
1070
   274
1070
     4
1070
   177
1070
    35
1070
   176
1070
    35
1070
   178
1070
    35
1070
    48
1040
-0.005
1070
    41
1041
3.5
1070
   147
1041
1.75
1070
    42
1041
1.5875
1070
    44
1041
2.0
1070
   140
1041
3.5
1070
   343
1005
0
1070
   344
1005
0
1002
}
0
DIMENSION
5
109
100
AcDbEntity
8
SK2
62
256
6
ByLayer
370
13
48
1
60
0
100
AcDbDimension
2
DimnDraft3D4
10
92.16
20
-21.052503
30
0
11
104.981425
21
-21.052503
31
0
70
32
71
5
72
1
41
1
210
0
220
0
230
1
3
Standard
100
AcDbAlignedDimension
13
95
23
-1.5875
33
0
14
92.16
24
-9.8375
34
0
50
0
100
AcDbRotatedDimension
1001
ACAD
1000
DSTYLE
1002
{
1070
   279
1070
     0
1070
   172
1070
     1
1070
   173
1070
     1
1070
   340
1005
DF
1070
   271
1070
     2
1070
   272
1070
     2
1070
    77
1070
     1
1070
    73
1070
     0
1070
   171
1070
     3
1070
   274
1070
     4
1070
   177
1070
    35
1070
   176
1070
    35
1070
   178
1070
    35
1070
    48
1040
-0.005
1070
    41
1041
3.5
1070
   147
1041
1.75
1070
    42
1041
1.5875
1070
    44
1041
2.0
1070
   140
1041
3.5
1070
   343
1005
0
1070
   344
1005
0
1002
}
0
DIMENSION
5
113
100
AcDbEntity
8
SK2
62
256
6
ByLayer
370
13
48
1
60
0
100
AcDbDimension
2
DimnDraft3D5
10
92.16
20
-27.343428
30
0
11
18.920676
21
-27.343428
31
0
70
32
71
5
72
1
41
1
210
0
220
0
230
1
3
Standard
100
AcDbAlignedDimension
13
-48
23
-10.5875
33
0
14
92.16
24
-9.8375
34
0
50
0
100
AcDbRotatedDimension
1001
ACAD
1000
DSTYLE
1002
{
1070
   279
1070
     0
1070
   172
1070
     1
1070
   173
1070
     1
1070
   340
1005
DF
1070
   271
1070
     2
1070
   272
1070
     2
1070
    77
1070
     1
1070
    73
1070
     0
1070
   171
1070
     3
1070
   274
1070
     4
1070
   177
1070
    35
1070
   176
1070
    35
1070
   178
1070
    35
1070
    48
1040
-0.005
1070
    41
1041
3.5
1070
   147
1041
1.75
1070
    42
1041
1.5875
1070
    44
1041
2.0
1070
   140
1041
3.5
1070
   343
1005
0
1070
   344
1005
0
1002
}
0
DIMENSION
5
11E
100
AcDbEntity
8
SK2
62
256
6
ByLayer
370
13
48
1
60
0
100
AcDbDimension
2
DimnDraft3D6
10
-58.625163
20
9
30
0
11
-59.250163
21
27.47418
31
0
70
33
71
5
72
1
41
1
210
0
220
0
230
1
3
Standard
100
AcDbAlignedDimension
13
-49.5875
23
-9
33
0
14
-49.5875
24
9
34
0
1001
ACAD
1000
DSTYLE
1002
{
1070
   279
1070
     0
1070
    74
1070
     0
1070
   173
1070
     1
1070
   340
1005
DF
1070
   271
1070
     3
1070
   272
1070
     2
1070
    77
1070
     1
1070
    73
1070
     0
1070
   171
1070
     3
1070
   274
1070
     4
1070
   177
1070
    35
1070
   176
1070
    35
1070
   178
1070
    35
1070
    48
1040
-0.005
1070
    41
1041
3.5
1070
   147
1041
1.75
1070
    42
1041
1.5875
1070
    44
1041
2.0
1070
   140
1041
3.5
1070
   343
1005
0
1070
   344
1005
0
1002
}
0
DIMENSION
5
129
100
AcDbEntity
8
2
62
256
6
ByLayer
370
13
48
1
60
0
100
AcDbDimension
2
DimnDraft3D7
10
109.083343
20
8.25
30
0
11
104.458343
21
25.317266
31
0
70
33
71
5
72
1
41
1
210
0
220
0
230
1
3
Standard
100
AcDbAlignedDimension
13
93.7475
23
-8.25
33
0
14
93.7475
24
8.25
34
0
1001
ACAD
1000
DSTYLE
1002
{
1070
   279
1070
     0
1070
    74
1070
     0
1070
   173
1070
     1
1070
   340
1005
DF
1070
   271
1070
     3
1070
   272
1070
     2
1070
    77
1070
     1
1070
    73
1070
     0
1070
   171
1070
     3
1070
   274
1070
     4
1070
   177
1070
    35
1070
   176
1070
    35
1070
   178
1070
    35
1070
    48
1040
-0.005
1070
    41
1041
3.5
1070
   147
1041
1.75
1070
    42
1041
1.5875
1070
    44
1041
2.0
1070
   140
1041
3.5
1070
   343
1005
0
1070
   344
1005
0
1002
}
0
ENDSEC
0
SECTION
2
OBJECTS
0
DICTIONARY
5
194
330
0
100
AcDbDictionary
280
0
281
1
3
ACAD_GROUP
350
195
3
ACAD_MLINESTYLE
350
196
0
DICTIONARY
5
195
330
0
100
AcDbDictionary
280
0
281
1
0
DICTIONARY
5
196
330
0
100
AcDbDictionary
280
0
281
1
3
Standard
350
18
0
MLINESTYLE
5
18
330
196
100
AcDbMlineStyle
2
Standard
70
0
3

62
256
51
90
52
90
71
2
49
-0.5
62
256
6
ByLayer
49
0.5
62
256
6
ByLayer
0
RASTERVARIABLES
5
182
330

100
AcDbRasterVariables
90
0
70
1
71
1
72
1
0
ENDSEC
0
EOF
