0
SECTION
2
HEADER
9
$ACADVER
1
AC1015
9
$DWGCODEPAGE
3
ANSI_1252
9
$HANDSEED
5
1a9
9
$ANGBASE
50
0
9
$ANGDIR
70
0
9
$ATTMODE
70
1
9
$AUNITS
70
0
9
$AUPREC
70
0
9
$CECOLOR
62
256
9
$CELTSCALE
40
1
9
$CELTYPE
6
ByLayer
9
$CELWEIGHT
370
18
9
$CLAYER
8
0
9
$CMLJUST
70
0
9
$CMLSCALE
40
1
9
$CMLSTYLE
2
Standard
9
$DIMSTYLE
2
Standard
9
$TEXTSIZE
40
0.2
9
$TEXTSTYLE
7
Standard
9
$LUNITS
70
2
9
$LUPREC
70
4
9
$EXTNAMES
290
1
9
$INSUNITS
70
4
9
$LTSCALE
40
1
9
$LWDISPLAY
290
1
9
$PDMODE
70
0
9
$PDSIZE
40
0
9
$PLINEGEN
70
0
0
ENDSEC
0
SECTION
2
CLASSES
0
CLASS
1
RASTERVARIABLES
2
AcDbRasterVariables
3
ISM
90
0
280
0
281
0
0
ENDSEC
0
SECTION
2
TABLES
0
TABLE
2
VPORT
5
19f
100
AcDbSymbolTable
0
VPORT
5
1
100
AcDbSymbolTableRecord
100
AcDbViewportTableRecord
2
*Active
70
0
10
0
20
0
11
1
21
1
12
-1
22
1
13
0
23
0
14
0.5
24
0.5
15
10
25
10
16
0
26
0
36
1
17
0
27
0
37
0
0
ENDTAB
0
TABLE
2
LTYPE
5
1a0
100
AcDbSymbolTable
0
LTYPE
5
14
100
AcDbSymbolTableRecord
100
AcDbLinetypeTableRecord
70
0
2
ByBlock
3

72
65
73
0
40
0
0
LTYPE
5
15
100
AcDbSymbolTableRecord
100
AcDbLinetypeTableRecord
70
0
2
ByLayer
3

72
65
73
0
40
0
0
LTYPE
5
16
100
AcDbSymbolTableRecord
100
AcDbLinetypeTableRecord
70
0
2
CONTINUOUS
3
Solid line
72
65
73
0
40
0
0
LTYPE
5
6A
100
AcDbSymbolTableRecord
100
AcDbLinetypeTableRecord
70
0
2
CENTER
3
____ _ ____ _ ____ _ ____
72
65
73
4
40
47.5
49
22
74
0
49
-8.5
74
0
49
8.5
74
0
49
-8.5
74
0
0
LTYPE
5
6B
100
AcDbSymbolTableRecord
100
AcDbLinetypeTableRecord
70
0
2
DASHED
3
__ __ __ __ __ __ __ __ __
72
65
73
2
40
25.72
49
12.86
74
0
49
-12.86
74
0
0
ENDTAB
0
TABLE
2
LAYER
5
1a1
100
AcDbSymbolTable
0
LAYER
5
10
100
AcDbSymbolTableRecord
100
AcDbLayerTableRecord
2
0
70
0
62
7
6
CONTINUOUS
290
1
370
-3
390
0
0
LAYER
5
6D
100
AcDbSymbolTableRecord
100
AcDbLayerTableRecord
2
81
70
0
62
-3
6
CONTINUOUS
290
1
370
-3
390
0
0
LAYER
5
6F
100
AcDbSymbolTableRecord
100
AcDbLayerTableRecord
2
80
70
0
62
-6
6
CONTINUOUS
290
1
370
-3
390
0
0
LAYER
5
74
100
AcDbSymbolTableRecord
100
AcDbLayerTableRecord
2
2
70
0
62
7
6
CONTINUOUS
290
1
370
-3
390
0
0
LAYER
5
78
100
AcDbSymbolTableRecord
100
AcDbLayerTableRecord
2
1
70
0
62
4
6
CONTINUOUS
290
1
370
-3
390
0
0
LAYER
5
86
100
AcDbSymbolTableRecord
100
AcDbLayerTableRecord
2
4
70
0
62
-2
6
CENTER
290
1
370
-3
390
0
0
LAYER
5
18b
100
AcDbSymbolTableRecord
100
AcDbLayerTableRecord
2
SK2
70
0
62
7
6
CONTINUOUS
290
1
370
-3
390
0
0
LAYER
5
18c
100
AcDbSymbolTableRecord
100
AcDbLayerTableRecord
2
SK1
70
0
62
4
6
CONTINUOUS
290
1
370
-3
390
0
0
LAYER
5
18d
100
AcDbSymbolTableRecord
100
AcDbLayerTableRecord
2
SK4
70
0
62
2
6
CENTER
290
1
370
-3
390
0
0
LAYER
5
18e
100
AcDbSymbolTableRecord
100
AcDbLayerTableRecord
2
SK6
70
0
62
5
6
CONTINUOUS
290
1
370
-3
390
0
0
ENDTAB
0
TABLE
2
STYLE
5
1a2
100
AcDbSymbolTable
0
STYLE
5
11
100
AcDbSymbolTableRecord
100
AcDbTextStyleTableRecord
2
Standard
3
txt
70
0
71
0
40
0
41
1
42
0
50
0
0
STYLE
5
E7
100
AcDbSymbolTableRecord
100
AcDbTextStyleTableRecord
2
iso_b_vert
3
simplex.shx
70
0
71
0
40
0
41
1
42
0
50
0
0
STYLE
5
E8
100
AcDbSymbolTableRecord
100
AcDbTextStyleTableRecord
2
DWGDirectTextStyle
3
simplex
70
0
71
0
40
0
41
1
42
0
50
0
0
ENDTAB
0
TABLE
2
DIMSTYLE
5
1a3
100
AcDbSymbolTable
100
AcDbDimStyleTable
0
DIMSTYLE
105
27
100
AcDbSymbolTableRecord
100
AcDbDimStyleTableRecord
2
Standard
70
0
3
<>
41
0.18
42
0.0625
44
0.18
140
0.18
147
0.09
73
0
74
0
77
1
271
2
275
0
278
52
280
0
340
11
0
ENDTAB
0
TABLE
2
VIEW
5
1a4
100
AcDbSymbolTable
0
ENDTAB
0
TABLE
2
UCS
5
1a5
100
AcDbSymbolTable
0
ENDTAB
0
TABLE
2
APPID
5
1a6
100
AcDbSymbolTable
0
APPID
5
12
100
AcDbSymbolTableRecord
100
AcDbRegAppTableRecord
2
ACAD
70
0
0
ENDTAB
0
TABLE
2
BLOCK_RECORD
5
1a7
100
AcDbSymbolTable
0
BLOCK_RECORD
5
1F
100
AcDbSymbolTableRecord
100
AcDbBlockTableRecord
2
*Model_Space
340
0
70
0
0
BLOCK_RECORD
5
1B
100
AcDbSymbolTableRecord
100
AcDbBlockTableRecord
2
*Paper_Space
340
0
70
0
0
BLOCK_RECORD
5
23
100
AcDbSymbolTableRecord
100
AcDbBlockTableRecord
2
*Paper_Space0
340
0
70
0
0
BLOCK_RECORD
5
EA
100
AcDbSymbolTableRecord
100
AcDbBlockTableRecord
2
DimnDraft3D1
340
0
70
0
0
BLOCK_RECORD
5
F4
100
AcDbSymbolTableRecord
100
AcDbBlockTableRecord
2
DimnDraft3D2
340
0
70
0
0
BLOCK_RECORD
5
FE
100
AcDbSymbolTableRecord
100
AcDbBlockTableRecord
2
DimnDraft3D3
340
0
70
0
0
BLOCK_RECORD
5
108
100
AcDbSymbolTableRecord
100
AcDbBlockTableRecord
2
DimnDraft3D4
340
0
70
0
0
BLOCK_RECORD
5
112
100
AcDbSymbolTableRecord
100
AcDbBlockTableRecord
2
DimnDraft3D5
340
0
70
0
0
BLOCK_RECORD
5
11C
100
AcDbSymbolTableRecord
100
AcDbBlockTableRecord
2
DimnDraft3D6
340
0
70
0
0
BLOCK_RECORD
5
127
100
AcDbSymbolTableRecord
100
AcDbBlockTableRecord
2
DimnDraft3D7
340
0
70
0
0
ENDTAB
0
ENDSEC
0
SECTION
2
BLOCKS
0
BLOCK
5
20
100
AcDbEntity
8
0
100
AcDbBlockBegin
2
*Model_Space
70
0
10
0
20
0
30
0
3
*Model_Space
0
ENDBLK
5
21
100
AcDbEntity
8
0
100
AcDbBlockEnd
0
BLOCK
5
1C
100
AcDbEntity
8
0
100
AcDbBlockBegin
2
*Paper_Space
70
0
10
0
20
0
30
0
3
*Paper_Space
0
ENDBLK
5
1D
100
AcDbEntity
8
0
100
AcDbBlockEnd
0
BLOCK
5
24
100
AcDbEntity
8
0
100
AcDbBlockBegin
2
*Paper_Space0
70
0
10
0
20
0
30
0
3
*Paper_Space0
0
ENDBLK
5
25
100
AcDbEntity
8
0
100
AcDbBlockEnd
0
BLOCK
5
F1
100
AcDbEntity
8
0
100
AcDbBlockBegin
2
DimnDraft3D1
70
0
10
0
20
0
30
0
3
DimnDraft3D1
0
MTEXT
5
EB
100
AcDbEntity
8
SK2
62
256
6
ByLayer
370
13
48
1
60
0
100
AcDbMText
10
29.898875
20
-17.588398
30
0
210
0
220
0
230
1
1
\W0.6713;72,16
40
3.5
41
0
44
1.084337
50
0
71
7
72
5
7
iso_b_vert
0
LINE
5
EC
100
AcDbEntity
8
SK2
62
256
6
ByLayer
370
13
48
1
60
0
100
AcDbLine
10
0
20
-1.5875
30
0
11
0
21
-20.463398
31
0
39
0
210
0
220
0
230
1
0
LINE
5
ED
100
AcDbEntity
8
SK2
62
256
6
ByLayer
370
13
48
1
60
0
100
AcDbLine
10
72.16
20
-9.8375
30
0
11
72.16
21
-20.463398
31
0
39
0
210
0
220
0
230
1
0
LINE
5
EE
100
AcDbEntity
8
SK2
62
256
6
ByLayer
370
13
48
1
60
0
100
AcDbLine
10
0
20
-18.463398
30
0
11
72.16
21
-18.463398
31
0
39
0
210
0
220
0
230
1
0
SOLID
5
EF
100
AcDbEntity
8
SK2
62
256
6
ByLayer
370
13
48
1
60
0
100
AcDbTrace
10
0
20
-18.463398
30
0
11
3.499998
21
-18.002615
31
0
12
3.500002
22
-18.924182
32
0
13
0
23
-18.463398
33
0
39
0
210
0
220
0
230
1
0
SOLID
5
F0
100
AcDbEntity
8
SK2
62
256
6
ByLayer
370
13
48
1
60
0
100
AcDbTrace
10
72.16
20
-18.463398
30
0
11
68.660002
21
-18.924182
31
0
12
68.659998
22
-18.002615
32
0
13
72.16
23
-18.463398
33
0
39
0
210
0
220
0
230
1
0
ENDBLK
5
F2
100
AcDbEntity
8
0
100
AcDbBlockEnd
0
BLOCK
5
FB
100
AcDbEntity
8
0
100
AcDbBlockBegin
2
DimnDraft3D2
70
0
10
0
20
0
30
0
3
DimnDraft3D2
0
MTEXT
5
F5
100
AcDbEntity
8
SK2
62
256
6
ByLayer
370
13
48
1
60
0
100
AcDbMText
10
6.682221
20
-36.817985
30
0
210
0
220
0
230
1
1
\W0.6930;123,00
40
3.5
41
0
44
1.084337
50
0
71
7
72
5
7
iso_b_vert
0
LINE
5
F6
100
AcDbEntity
8
SK2
62
256
6
ByLayer
370
13
48
1
60
0
100
AcDbLine
10
-48
20
-10.5875
30
0
11
-48
21
-39.692985
31
0
39
0
210
0
220
0
230
1
0
LINE
5
F7
100
AcDbEntity
8
SK2
62
256
6
ByLayer
370
13
48
1
60
0
100
AcDbLine
10
75
20
-1.5875
30
0
11
75
21
-39.692985
31
0
39
0
210
0
220
0
230
1
0
LINE
5
F8
100
AcDbEntity
8
SK2
62
256
6
ByLayer
370
13
48
1
60
0
100
AcDbLine
10
-48
20
-37.692985
30
0
11
75
21
-37.692985
31
0
39
0
210
0
220
0
230
1
0
SOLID
5
F9
100
AcDbEntity
8
SK2
62
256
6
ByLayer
370
13
48
1
60
0
100
AcDbTrace
10
-48
20
-37.692985
30
0
11
-44.500002
21
-37.232202
31
0
12
-44.499998
22
-38.153769
32
0
13
-48
23
-37.692985
33
0
39
0
210
0
220
0
230
1
0
SOLID
5
FA
100
AcDbEntity
8
SK2
62
256
6
ByLayer
370
13
48
1
60
0
100
AcDbTrace
10
75
20
-37.692985
30
0
11
71.500002
21
-38.153769
31
0
12
71.499998
22
-37.232202
32
0
13
75
23
-37.692985
33
0
39
0
210
0
220
0
230
1
0
ENDBLK
5
FC
100
AcDbEntity
8
0
100
AcDbBlockEnd
0
BLOCK
5
105
100
AcDbEntity
8
0
100
AcDbBlockBegin
2
DimnDraft3D3
70
0
10
0
20
0
30
0
3
DimnDraft3D3
0
MTEXT
5
FF
100
AcDbEntity
8
SK2
62
256
6
ByLayer
370
13
48
1
60
0
100
AcDbMText
10
44.197105
20
20.734119
30
0
210
0
220
0
230
1
1
\W0.7495;52,34
40
3.5
41
0
44
1.084337
50
0
71
7
72
5
7
iso_b_vert
0
LINE
5
100
100
AcDbEntity
8
SK2
62
256
6
ByLayer
370
13
48
1
60
0
100
AcDbLine
10
22.66
20
9.8375
30
0
11
22.66
21
21.859119
31
0
39
0
210
0
220
0
230
1
0
LINE
5
101
100
AcDbEntity
8
SK2
62
256
6
ByLayer
370
13
48
1
60
0
100
AcDbLine
10
75
20
1.5875
30
0
11
75
21
21.859119
31
0
39
0
210
0
220
0
230
1
0
LINE
5
102
100
AcDbEntity
8
SK2
62
256
6
ByLayer
370
13
48
1
60
0
100
AcDbLine
10
22.66
20
19.859119
30
0
11
75
21
19.859119
31
0
39
0
210
0
220
0
230
1
0
SOLID
5
103
100
AcDbEntity
8
SK2
62
256
6
ByLayer
370
13
48
1
60
0
100
AcDbTrace
10
22.66
20
19.859119
30
0
11
26.159998
21
20.319903
31
0
12
26.160002
22
19.398335
32
0
13
22.66
23
19.859119
33
0
39
0
210
0
220
0
230
1
0
SOLID
5
104
100
AcDbEntity
8
SK2
62
256
6
ByLayer
370
13
48
1
60
0
100
AcDbTrace
10
75
20
19.859119
30
0
11
71.500002
21
19.398335
31
0
12
71.499998
22
20.319903
32
0
13
75
23
19.859119
33
0
39
0
210
0
220
0
230
1
0
ENDBLK
5
106
100
AcDbEntity
8
0
100
AcDbBlockEnd
0
BLOCK
5
10F
100
AcDbEntity
8
0
100
AcDbBlockBegin
2
DimnDraft3D4
70
0
10
0
20
0
30
0
3
DimnDraft3D4
0
MTEXT
5
109
100
AcDbEntity
8
SK2
62
256
6
ByLayer
370
13
48
1
60
0
100
AcDbMText
10
81.656425
20
-20.177503
30
0
210
0
220
0
230
1
1
\W0.7383;2,84
40
3.5
41
0
44
1.084337
50
0
71
7
72
5
7
iso_b_vert
0
LINE
5
10A
100
AcDbEntity
8
SK2
62
256
6
ByLayer
370
13
48
1
60
0
100
AcDbLine
10
75
20
-1.5875
30
0
11
75
21
-23.052503
31
0
39
0
210
0
220
0
230
1
0
LINE
5
10B
100
AcDbEntity
8
SK2
62
256
6
ByLayer
370
13
48
1
60
0
100
AcDbLine
10
72.16
20
-9.8375
30
0
11
72.16
21
-23.052503
31
0
39
0
210
0
220
0
230
1
0
LINE
5
10C
100
AcDbEntity
8
SK2
62
256
6
ByLayer
370
13
48
1
60
0
100
AcDbLine
10
63.41
20
-21.052503
30
0
11
89.181425
21
-21.052503
31
0
39
0
210
0
220
0
230
1
0
SOLID
5
10D
100
AcDbEntity
8
SK2
62
256
6
ByLayer
370
13
48
1
60
0
100
AcDbTrace
10
75
20
-21.052503
30
0
11
78.499998
21
-20.591719
31
0
12
78.500002
22
-21.513287
32
0
13
75
23
-21.052503
33
0
39
0
210
0
220
0
230
1
0
SOLID
5
10E
100
AcDbEntity
8
SK2
62
256
6
ByLayer
370
13
48
1
60
0
100
AcDbTrace
10
72.16
20
-21.052503
30
0
11
68.660002
21
-21.513287
31
0
12
68.659998
22
-20.591719
32
0
13
72.16
23
-21.052503
33
0
39
0
210
0
220
0
230
1
0
ENDBLK
5
110
100
AcDbEntity
8
0
100
AcDbBlockEnd
0
BLOCK
5
119
100
AcDbEntity
8
0
100
AcDbBlockBegin
2
DimnDraft3D5
70
0
10
0
20
0
30
0
3
DimnDraft3D5
0
MTEXT
5
113
100
AcDbEntity
8
SK2
62
256
6
ByLayer
370
13
48
1
60
0
100
AcDbMText
10
4.039097
20
-26.468428
30
0
210
0
220
0
230
1
1
\W0.6440;120,16
40
3.5
41
0
44
1.084337
50
0
71
7
72
5
7
iso_b_vert
0
LINE
5
114
100
AcDbEntity
8
SK2
62
256
6
ByLayer
370
13
48
1
60
0
100
AcDbLine
10
-48
20
-10.5875
30
0
11
-48
21
-29.343428
31
0
39
0
210
0
220
0
230
1
0
LINE
5
115
100
AcDbEntity
8
SK2
62
256
6
ByLayer
370
13
48
1
60
0
100
AcDbLine
10
72.16
20
-9.8375
30
0
11
72.16
21
-29.343428
31
0
39
0
210
0
220
0
230
1
0
LINE
5
116
100
AcDbEntity
8
SK2
62
256
6
ByLayer
370
13
48
1
60
0
100
AcDbLine
10
-48
20
-27.343428
30
0
11
72.16
21
-27.343428
31
0
39
0
210
0
220
0
230
1
0
SOLID
5
117
100
AcDbEntity
8
SK2
62
256
6
ByLayer
370
13
48
1
60
0
100
AcDbTrace
10
-48
20
-27.343428
30
0
11
-44.500002
21
-26.882645
31
0
12
-44.499998
22
-27.804212
32
0
13
-48
23
-27.343428
33
0
39
0
210
0
220
0
230
1
0
SOLID
5
118
100
AcDbEntity
8
SK2
62
256
6
ByLayer
370
13
48
1
60
0
100
AcDbTrace
10
72.16
20
-27.343428
30
0
11
68.660002
21
-27.804212
31
0
12
68.659998
22
-26.882645
32
0
13
72.16
23
-27.343428
33
0
39
0
210
0
220
0
230
1
0
ENDBLK
5
11A
100
AcDbEntity
8
0
100
AcDbBlockEnd
0
BLOCK
5
124
100
AcDbEntity
8
0
100
AcDbBlockBegin
2
DimnDraft3D6
70
0
10
0
20
0
30
0
3
DimnDraft3D6
0
MTEXT
5
11D
100
AcDbEntity
8
SK2
62
256
6
ByLayer
370
13
48
1
60
0
100
AcDbMText
10
-58.375163
20
28.34918
30
0
210
0
220
0
230
1
1
\W0.6930;18,000
40
3.5
41
0
44
1.084337
50
90
71
7
72
5
7
iso_b_vert
0
MTEXT
5
11E
100
AcDbEntity
8
SK2
62
256
6
ByLayer
370
13
48
1
60
0
100
AcDbMText
10
-58.375163
20
23.126524
30
0
210
0
220
0
230
1
1
%%c
40
3.5
41
0
44
1.084337
50
90
71
7
72
5
7
iso_b_vert
0
LINE
5
11F
100
AcDbEntity
8
SK2
62
256
6
ByLayer
370
13
48
1
60
0
100
AcDbLine
10
-49.5875
20
-9
30
0
11
-58.625163
21
-9
31
0
39
0
210
0
220
0
230
1
0
LINE
5
120
100
AcDbEntity
8
SK2
62
256
6
ByLayer
370
13
48
1
60
0
100
AcDbLine
10
-49.5875
20
9
30
0
11
-58.625163
21
9
31
0
39
0
210
0
220
0
230
1
0
LINE
5
121
100
AcDbEntity
8
SK2
62
256
6
ByLayer
370
13
48
1
60
0
100
AcDbLine
10
-56.625163
20
-9
30
0
11
-56.625163
21
39.862338
31
0
39
0
210
0
220
0
230
1
0
SOLID
5
122
100
AcDbEntity
8
SK2
62
256
6
ByLayer
370
13
48
1
60
0
100
AcDbTrace
10
-56.625163
20
-9
30
0
11
-57.085946
21
-5.500002
31
0
12
-56.164379
22
-5.499998
32
0
13
-56.625163
23
-9
33
0
39
0
210
0
220
0
230
1
0
SOLID
5
123
100
AcDbEntity
8
SK2
62
256
6
ByLayer
370
13
48
1
60
0
100
AcDbTrace
10
-56.625163
20
9
30
0
11
-56.164379
21
5.500002
31
0
12
-57.085946
22
5.499998
32
0
13
-56.625163
23
9
33
0
39
0
210
0
220
0
230
1
0
ENDBLK
5
125
100
AcDbEntity
8
0
100
AcDbBlockEnd
0
BLOCK
5
12F
100
AcDbEntity
8
0
100
AcDbBlockBegin
2
DimnDraft3D7
70
0
10
0
20
0
30
0
3
DimnDraft3D7
0
MTEXT
5
128
100
AcDbEntity
8
2
62
256
6
ByLayer
370
13
48
1
60
0
100
AcDbMText
10
85.333343
20
26.192266
30
0
210
0
220
0
230
1
1
\W0.6930;16,500
40
3.5
41
0
44
1.084337
50
90
71
7
72
5
7
iso_b_vert
0
MTEXT
5
129
100
AcDbEntity
8
2
62
256
6
ByLayer
370
13
48
1
60
0
100
AcDbMText
10
85.333343
20
20.96961
30
0
210
0
220
0
230
1
1
%%c
40
3.5
41
0
44
1.084337
50
90
71
7
72
5
7
iso_b_vert
0
LINE
5
12A
100
AcDbEntity
8
2
62
256
6
ByLayer
370
13
48
1
60
0
100
AcDbLine
10
73.7475
20
-8.25
30
0
11
89.083343
21
-8.25
31
0
39
0
210
0
220
0
230
1
0
LINE
5
12B
100
AcDbEntity
8
2
62
256
6
ByLayer
370
13
48
1
60
0
100
AcDbLine
10
73.7475
20
8.25
30
0
11
89.083343
21
8.25
31
0
39
0
210
0
220
0
230
1
0
LINE
5
12C
100
AcDbEntity
8
2
62
256
6
ByLayer
370
13
48
1
60
0
100
AcDbLine
10
87.083343
20
-8.25
30
0
11
87.083343
21
37.705424
31
0
39
0
210
0
220
0
230
1
0
SOLID
5
12D
100
AcDbEntity
8
2
62
256
6
ByLayer
370
13
48
1
60
0
100
AcDbTrace
10
87.083343
20
-8.25
30
0
11
86.622559
21
-4.750002
31
0
12
87.544126
22
-4.749998
32
0
13
87.083343
23
-8.25
33
0
39
0
210
0
220
0
230
1
0
SOLID
5
12E
100
AcDbEntity
8
2
62
256
6
ByLayer
370
13
48
1
60
0
100
AcDbTrace
10
87.083343
20
8.25
30
0
11
87.544126
21
4.750002
31
0
12
86.622559
22
4.749998
32
0
13
87.083343
23
8.25
33
0
39
0
210
0
220
0
230
1
0
ENDBLK
5
130
100
AcDbEntity
8
0
100
AcDbBlockEnd
0
ENDSEC
0
SECTION
2
ENTITIES
0
ARC
5
9D
100
AcDbEntity
8
1
62
256
6
ByLayer
370
18
48
1
60
0
100
AcDbCircle
39
0
10
0
20
8.2
30
0
40
0.799999999999995
210
0
220
0
230
1
100
AcDbArc
50
30.311436
51
90
0
ARC
5
9E
100
AcDbEntity
8
1
62
256
6
ByLayer
370
18
48
1
60
0
100
AcDbCircle
39
0
10
-1.381272
20
-9.00752
30
0
40
0.800000000000001
210
0
220
0
230
-1
100
AcDbArc
50
30.311436
51
90.034377
0
ARC
5
9F
100
AcDbEntity
8
1
62
256
6
ByLayer
370
18
48
1
60
0
100
AcDbCircle
39
0
10
-1.381272
20
9.00752
30
0
40
0.800000000000001
210
0
220
0
230
-1
100
AcDbArc
50
269.965623
51
329.688564
0
ARC
5
A0
100
AcDbEntity
8
1
62
256
6
ByLayer
370
18
48
1
60
0
100
AcDbCircle
39
0
10
0
20
-8.2
30
0
40
0.799999999999995
210
0
220
0
230
1
100
AcDbArc
50
270
51
329.688564
0
ELLIPSE
5
A1
100
AcDbEntity
8
1
62
256
6
ByLayer
370
18
48
1
60
0
100
AcDbEllipse
10
73.52196
20
3.826996
30
0
11
1.26698489320218
21
-3.46400084578532
31
0
210
0
220
0
230
-1
40
0.065672
41
-1.59585666440501
42
-0.761382749776684
0
ELLIPSE
5
A2
100
AcDbEntity
8
1
62
256
6
ByLayer
370
18
48
1
60
0
100
AcDbEllipse
10
75.000538
20
-0.089003
30
0
11
0.137829328512526
21
0.402528286933242
31
0
210
0
220
0
230
-1
40
0.052723
41
-2.31022812872719
42
-1.55726662727183
0
ELLIPSE
5
A3
100
AcDbEntity
8
1
62
256
6
ByLayer
370
13
48
1
60
0
100
AcDbEllipse
10
73.815833
20
3.692703
30
0
11
5.33812069394238
21
-2.7442708617753
31
0
210
0
220
0
230
-1
40
0.482873
41
1.53949524923018
42
1.87773168688201
0
ELLIPSE
5
A4
100
AcDbEntity
8
1
62
256
6
ByLayer
370
18
48
1
60
0
100
AcDbEllipse
10
74.859347
20
0.15891
30
0
11
0.0868803724542847
21
0.290676908847288
31
0
210
0
220
0
230
-1
40
0.467765
41
1.71723527366128
42
2.36053717390614
0
ELLIPSE
5
A5
100
AcDbEntity
8
1
62
256
6
ByLayer
370
18
48
1
60
0
100
AcDbEllipse
10
75.000538
20
0.089003
30
0
11
0.137829328590744
21
-0.402528287138805
31
0
210
0
220
0
230
-1
40
0.052723
41
1.55726662762016
42
2.31022812871709
0
ELLIPSE
5
A6
100
AcDbEntity
8
1
62
256
6
ByLayer
370
13
48
1
60
0
100
AcDbEllipse
10
4.250127
20
-1.501789
30
0
11
0.0469856666275095
21
0.0882742721950657
31
0
210
0
220
0
230
1
40
0.089234
41
1.4029211239095
42
2.96431718404586
0
ELLIPSE
5
A7
100
AcDbEntity
8
1
62
256
6
ByLayer
370
18
48
1
60
0
100
AcDbEllipse
10
75.000683
20
-0.001802
30
0
11
3.01724912608371
21
-8.24931185509593
31
0
210
0
220
0
230
-1
40
0.065672
41
-3.00286975000737
42
-2.91556219967598
0
ELLIPSE
5
A8
100
AcDbEntity
8
1
62
256
6
ByLayer
370
13
48
1
60
0
100
AcDbEllipse
10
73.985292
20
3.826996
30
0
11
5.38605367381734
21
-2.43046974031606
31
0
210
0
220
0
230
-1
40
0.458522
41
1.57878663387825
42
1.9209548562515
0
ELLIPSE
5
A9
100
AcDbEntity
8
1
62
256
6
ByLayer
370
18
48
1
60
0
100
AcDbEllipse
10
73.52196
20
-3.826996
30
0
11
1.26698489321956
21
3.46400084582639
31
0
210
0
220
0
230
-1
40
0.065672
41
0.761382749775086
42
1.59585666438858
0
ELLIPSE
5
AA
100
AcDbEntity
8
1
62
256
6
ByLayer
370
18
48
1
60
0
100
AcDbEllipse
10
75.000683
20
0.001802
30
0
11
3.01724914446491
21
8.24931190731183
31
0
210
0
220
0
230
-1
40
0.065672
41
2.91556220039223
42
3.00286975044369
0
ELLIPSE
5
AB
100
AcDbEntity
8
1
62
256
6
ByLayer
370
13
48
1
60
0
100
AcDbEllipse
10
4.178416
20
-1.467159
30
0
11
-0.0393437789428406
21
-0.0919351241827458
31
0
210
0
220
0
230
1
40
0.502765
41
-1.53172647797786
42
-0.19949072756137
0
ELLIPSE
5
AC
100
AcDbEntity
8
1
62
256
6
ByLayer
370
13
48
1
60
0
100
AcDbEllipse
10
72.827868
20
1.164739
30
0
11
0.133113781883896
21
0.268850741253519
31
0
210
0
220
0
230
1
40
0.40558
41
0.884485917130962
42
2.28074931872635
0
POINT
5
6C
100
AcDbEntity
8
81
62
256
6
ByLayer
370
18
48
1
60
0
100
AcDbPoint
10
75
20
0
30
0
39
0
210
0
220
0
230
1
50
360
0
POINT
5
6E
100
AcDbEntity
8
80
62
256
6
ByLayer
370
18
48
1
60
0
100
AcDbPoint
10
0
20
0
30
0
39
0
210
0
220
0
230
1
50
360
0
POINT
5
70
100
AcDbEntity
8
SK2
62
256
6
ByLayer
370
18
48
1
60
1
100
AcDbPoint
10
-48
20
-9
30
0
39
0
210
0
220
0
230
1
50
360
0
POINT
5
72
100
AcDbEntity
8
SK2
62
256
6
ByLayer
370
18
48
1
60
1
100
AcDbPoint
10
-48
20
9
30
0
39
0
210
0
220
0
230
1
50
360
0
POINT
5
73
100
AcDbEntity
8
2
62
256
6
ByLayer
370
18
48
1
60
1
100
AcDbPoint
10
72.16
20
-8.25
30
0
39
0
210
0
220
0
230
1
50
360
0
POINT
5
75
100
AcDbEntity
8
2
62
256
6
ByLayer
370
18
48
1
60
1
100
AcDbPoint
10
72.16
20
8.25
30
0
39
0
210
0
220
0
230
1
50
360
0
SPLINE
5
AD
100
AcDbEntity
8
1
62
256
6
ByLayer
370
18
48
1
60
0
100
AcDbSpline
70
4
71
1
72
4
73
2
40
0
40
0
40
1
40
1
41
1
10
4.27508988982532
20
-7.85311771659764
30
0
41
1
10
4.30162322027672
20
-7.85349410888827
30
0
0
SPLINE
5
AE
100
AcDbEntity
8
1
62
256
6
ByLayer
370
18
48
1
60
0
100
AcDbSpline
70
4
71
3
72
13
73
9
40
0
40
0
40
0
40
0
40
0.0881697523986392
40
0.440123520949366
40
0.531004735373949
40
0.63154133554371
40
0.820074910290918
40
1
40
1
40
1
40
1
41
1
10
49.6597684260345
20
-1.94911560343743
30
0
41
1
10
49.6597651802259
20
-1.94914065548323
30
0
41
1
10
49.6642667452492
20
-1.95143026969725
30
0
41
1
10
49.6974404325118
20
-1.96781366372903
30
0
41
1
10
49.7272201819466
20
-1.9828675673937
30
0
41
1
10
49.747293324846
20
-1.99324299332062
30
0
41
1
10
49.7661562269484
20
-2.00355328147705
30
0
41
1
10
49.7838390360441
20
-2.01331689885666
30
0
41
1
10
49.7924475163582
20
-2.01814525788657
30
0
0
SPLINE
5
AF
100
AcDbEntity
8
1
62
256
6
ByLayer
370
18
48
1
60
0
100
AcDbSpline
70
4
71
3
72
34
73
30
40
0
40
0
40
0
40
0
40
0.0049106485221509
40
0.0354988736275036
40
0.0656524412982632
40
0.095412342326082
40
0.124161816639486
40
0.175111053318034
40
0.223231159050759
40
0.303427852019025
40
0.392852196697226
40
0.417705424685334
40
0.439775263902868
40
0.458906527533046
40
0.47552633532641
40
0.493226092277875
40
0.515476560724429
40
0.553482510763133
40
0.593640103235318
40
0.628318084247801
40
0.659638551058138
40
0.693428012781867
40
0.729710387450769
40
0.78584815501929
40
0.837982921296244
40
0.88574883173979
40
0.92599012827859
40
0.969054689345744
40
1
40
1
40
1
40
1
41
1
10
48.6353944378131
20
7.87181019960059
30
0
41
1
10
48.602538139188
20
7.87204118020114
30
0
41
1
10
48.36531099668
20
7.87368136514283
30
0
41
1
10
47.9389163845024
20
7.87798275295734
30
0
41
1
10
47.3370924690652
20
7.87842691757774
30
0
41
1
10
46.7459513687957
20
7.87808655808109
30
0
41
1
10
46.010422927863
20
7.87760148980345
30
0
41
1
10
45.1443521248193
20
7.87601411240729
30
0
41
1
10
43.9395589906457
20
7.87632034700977
30
0
41
1
10
42.4660427994827
20
7.87756987633958
30
0
41
1
10
41.1538891278967
20
7.87388354047329
30
0
41
1
10
40.2319033908756
20
7.87317904458402
30
0
41
1
10
39.7879049493441
20
7.87317304192203
30
0
41
1
10
39.4000021237989
20
7.87319348066455
30
0
41
1
10
39.0704193257104
20
7.86989575552906
30
0
41
1
10
38.680989620959
20
7.86863549724561
30
0
41
1
10
38.1678833300928
20
7.87386949841414
30
0
41
1
10
37.5123641763793
20
7.87595286739295
30
0
41
1
10
36.7433080014385
20
7.87163862742676
30
0
41
1
10
36.0278627555911
20
7.87138824369933
30
0
41
1
10
35.3534840940789
20
7.87151714267998
30
0
41
1
10
34.6687171026385
20
7.87178472977917
30
0
41
1
10
33.816201202691
20
7.87245324525796
30
0
41
1
10
32.8397951812755
20
7.87020552268521
30
0
41
1
10
31.7858331781873
20
7.86897756675484
30
0
41
1
10
30.8392547829731
20
7.86971816722468
30
0
41
1
10
29.9539216906557
20
7.86980291788848
30
0
41
1
10
29.1821718291107
20
7.86954405619753
30
0
41
1
10
28.6823677032235
20
7.86864359330593
30
0
41
1
10
28.4733387712446
20
7.8683589025581
30
0
0
SPLINE
5
B0
100
AcDbEntity
8
1
62
256
6
ByLayer
370
18
48
1
60
0
100
AcDbSpline
70
4
71
2
72
6
73
3
40
0
40
0
40
0
40
1
40
1
40
1
41
1
10
70.6103844110002
20
-7.89420196448617
30
0
41
1
10
71.353441561465
20
-7.89269194307658
30
0
41
1
10
72.0944474002223
20
-7.89632593753021
30
0
0
SPLINE
5
B1
100
AcDbEntity
8
1
62
256
6
ByLayer
370
18
48
1
60
0
100
AcDbSpline
70
4
71
3
72
39
73
35
40
0
40
0
40
0
40
0
40
0.0336726994837818
40
0.0642686490704033
40
0.087206167320432
40
0.10473647454016
40
0.121471441630006
40
0.153216677312825
40
0.188578481919059
40
0.224392927650118
40
0.258160176575923
40
0.288010376146724
40
0.319064355640328
40
0.364309265106849
40
0.411987513681881
40
0.456218082844255
40
0.480349823717261
40
0.508058559046346
40
0.539228319237185
40
0.568487606727907
40
0.588503912719308
40
0.604179312434304
40
0.619712196862131
40
0.637934843668211
40
0.659159651422592
40
0.681956641994079
40
0.703903918891698
40
0.759999753718002
40
0.812060502354463
40
0.849500439438939
40
0.888566961404423
40
0.932611242839089
40
0.967024803579534
40
1
40
1
40
1
40
1
41
1
10
24.4903387426317
20
-7.86625303356763
30
0
41
1
10
24.7610280866116
20
-7.86629906674455
30
0
41
1
10
25.2789942061521
20
-7.86639280510377
30
0
41
1
10
25.9834176092348
20
-7.86565892599668
30
0
41
1
10
26.5623736577963
20
-7.86632065987413
30
0
41
1
10
27.0151428120449
20
-7.86768263758196
30
0
41
1
10
27.5468826859167
20
-7.86781146975852
30
0
41
1
10
28.2274431010337
20
-7.8678501560247
30
0
41
1
10
29.0608363613851
20
-7.86941703857408
30
0
41
1
10
29.9112483130554
20
-7.86982536164601
30
0
41
1
10
30.7168634927986
20
-7.86969823225158
30
0
41
1
10
31.4839043280225
20
-7.86935837790537
30
0
41
1
10
32.3439834275336
20
-7.86896991049645
30
0
41
1
10
33.3484460118858
20
-7.87256299921361
30
0
41
1
10
34.4597860287238
20
-7.87187908087887
30
0
41
1
10
35.3997989884508
20
-7.87148591780476
30
0
41
1
10
36.1786357379593
20
-7.87135771293737
30
0
41
1
10
36.8494820858243
20
-7.87215243003004
30
0
41
1
10
37.5709342179775
20
-7.87592447032156
30
0
41
1
10
38.1969164195833
20
-7.87366684368845
30
0
41
1
10
38.7142463685336
20
-7.86819178270636
30
0
41
1
10
39.1306416826159
20
-7.87077916926265
30
0
41
1
10
39.5016400139036
20
-7.87339283346174
30
0
41
1
10
39.9471284022086
20
-7.87317201335208
30
0
41
1
10
40.4502033386732
20
-7.87314812338167
30
0
41
1
10
40.9850708644047
20
-7.87409558154403
30
0
41
1
10
41.8020308093186
20
-7.87773266161108
30
0
41
1
10
42.8557787419568
20
-7.876130567301
30
0
41
1
10
44.0371360286061
20
-7.87651817823647
30
0
41
1
10
45.0740671408329
20
-7.87593143343105
30
0
41
1
10
46.0526893664926
20
-7.87774388395499
30
0
41
1
10
46.9999015979338
20
-7.87822956156757
30
0
41
1
10
47.887354994663
20
-7.87849266486859
30
0
41
1
10
48.4184841357718
20
-7.87383281325495
30
0
41
1
10
48.6770515305635
20
-7.87078051237154
30
0
0
SPLINE
5
B2
100
AcDbEntity
8
1
62
256
6
ByLayer
370
18
48
1
60
0
100
AcDbSpline
70
4
71
1
72
4
73
2
40
0
40
0
40
1
40
1
41
1
10
4.30124924714116
20
7.85348880383975
30
0
41
1
10
4.25053725837446
20
7.85276942179121
30
0
0
SPLINE
5
B3
100
AcDbEntity
8
1
62
256
6
ByLayer
370
18
48
1
60
0
100
AcDbSpline
70
4
71
3
72
16
73
12
40
0
40
0
40
0
40
0
40
0.0634696186018251
40
0.0634696186018251
40
0.319912757600953
40
0.319912757600953
40
0.832799035599213
40
0.832799035599213
40
0.961020605098779
40
0.961020605098779
40
1
40
1
40
1
40
1
41
1
10
70.6042754717525
20
-7.89420522659597
30
0
41
1
10
70.4290316869395
20
-7.89404437717499
30
0
41
1
10
70.2539221645691
20
-7.89219024263403
30
0
41
1
10
69.3718529902677
20
-7.87436058254931
30
0
41
1
10
68.6665907363395
20
-7.83262578651161
30
0
41
1
10
66.5515596720512
20
-7.6269716747502
30
0
41
1
10
65.1424118782256
20
-7.38241167354258
30
0
41
1
10
63.3656121660747
20
-6.94904977966416
30
0
41
1
10
63.0088574166912
20
-6.85583104704236
30
0
41
1
10
62.5445303803004
20
-6.7267446353105
30
0
41
1
10
62.4363704840658
20
-6.69612756541872
30
0
41
1
10
62.3282937981924
20
-6.66499406503613
30
0
0
SPLINE
5
B4
100
AcDbEntity
8
1
62
256
6
ByLayer
370
13
48
1
60
0
100
AcDbSpline
70
4
71
3
72
22
73
18
40
0
40
0
40
0
40
0
40
0.0381244366336881
40
0.0381244366336881
40
0.147677461822544
40
0.147677461822544
40
0.366783512200255
40
0.366783512200255
40
0.476336537389109
40
0.476336537389109
40
0.531113049983537
40
0.531113049983537
40
0.585889562577964
40
0.585889562577964
40
0.804995612955674
40
0.804995612955674
40
1
40
1
40
1
40
1
41
1
10
62.3282937982862
20
-6.66499406506313
30
0
41
1
10
62.0808554145868
20
-6.59371483447561
30
0
41
1
10
61.8338531925711
20
-6.51972864301464
30
0
41
1
10
60.8785314948472
20
-6.2229713090168
30
0
41
1
10
60.1729357491141
20
-5.9811585200149
30
0
41
1
10
58.0601927595038
20
-5.19836742445835
30
0
41
1
10
56.6573147755391
20
-4.5996147177178
30
0
41
1
10
54.5420431307672
20
-3.61487310656898
30
0
41
1
10
53.835202950503
20
-3.27205344911795
30
0
41
1
10
52.769711660639
20
-2.73999765023189
30
0
41
1
10
52.4131074601657
20
-2.55933108151351
30
0
41
1
10
51.7005842898472
20
-2.19425919923168
30
0
41
1
10
51.3452814919556
20
-2.01018973227471
30
0
41
1
10
49.572771572146
20
-1.08367658787452
30
0
41
1
10
48.1670508826418
20
-0.323753642073683
30
0
41
1
10
45.509086648848
20
1.10147327237033
30
0
41
1
10
44.2569848744862
20
1.76802033615871
30
0
41
1
10
42.9952475478283
20
2.41255357093834
30
0
0
SPLINE
5
B5
100
AcDbEntity
8
1
62
256
6
ByLayer
370
13
48
1
60
0
100
AcDbSpline
70
4
71
3
72
8
73
4
40
0
40
0
40
0
40
0
40
1
40
1
40
1
40
1
41
1
10
4.25021139249407
20
-1.48290582372795
30
0
41
1
10
4.20849792798521
20
-1.46974894991041
30
0
41
1
10
4.1677742875633
20
-1.45889339378093
30
0
41
1
10
4.13069226381523
20
-1.4509839188083
30
0
0
SPLINE
5
B6
100
AcDbEntity
8
1
62
256
6
ByLayer
370
18
48
1
60
0
100
AcDbSpline
70
4
71
3
72
10
73
6
40
0
40
0
40
0
40
0
40
0.630114275018699
40
0.630114275018699
40
1
40
1
40
1
40
1
41
1
10
72.087331771607
20
8.19566180753131
30
0
41
1
10
71.7331974865508
20
8.21827772330704
30
0
41
1
10
71.3790971967919
20
8.23370131575228
30
0
41
1
10
70.8168728329016
20
8.24674084257563
30
0
41
1
10
70.6087911228172
20
8.24907663485527
30
0
41
1
10
70.4007704258936
20
8.24892871533385
30
0
0
SPLINE
5
B7
100
AcDbEntity
8
1
62
256
6
ByLayer
370
18
48
1
60
0
100
AcDbSpline
70
4
71
3
72
36
73
32
40
0
40
0
40
0
40
0
40
0.0406838438506552
40
0.0406838438506552
40
0.127894403500595
40
0.127894403500595
40
0.215104963150534
40
0.215104963150534
40
0.258710242975504
40
0.258710242975504
40
0.302315522800473
40
0.302315522800473
40
0.389526082450414
40
0.389526082450414
40
0.433131362275385
40
0.433131362275385
40
0.476736642100355
40
0.476736642100355
40
0.563947201750296
40
0.563947201750296
40
0.607552481575266
40
0.607552481575266
40
0.651157761400237
40
0.651157761400237
40
0.738368321050178
40
0.738368321050178
40
0.781973600875148
40
0.781973600875148
40
0.825578880700118
40
0.825578880700118
40
1
40
1
40
1
40
1
41
1
10
28.4891638098413
20
-7.89140151720494
30
0
41
1
10
28.1587629070067
20
-7.94333411145217
30
0
41
1
10
27.8279177354645
20
-7.98933309505981
30
0
41
1
10
26.7879893196288
20
-8.1145904392333
30
0
41
1
10
26.0806081122492
20
-8.17160950505058
30
0
41
1
10
24.6659087261604
20
-8.22850668225345
30
0
41
1
10
23.9587017827559
20
-8.2283826217691
30
0
41
1
10
22.8952535602377
20
-8.18500903649866
30
0
41
1
10
22.5403820297431
20
-8.16334522278549
30
0
41
1
10
21.8319883175123
20
-8.10587558543864
30
0
41
1
10
21.4781377721902
20
-8.07005787486634
30
0
41
1
10
20.4168908638986
20
-7.94168047933223
30
0
41
1
10
19.7098731041813
20
-7.82816990052353
30
0
41
1
10
18.6474159050303
20
-7.61722699723904
30
0
41
1
10
18.2926347679459
20
-7.54007432489328
30
0
41
1
10
17.5834305788007
20
-7.37277256596451
30
0
41
1
10
17.2292752317704
20
-7.2826989819186
30
0
41
1
10
16.1674424079384
20
-6.99389758577743
30
0
41
1
10
15.4604754554397
20
-6.77652077193301
30
0
41
1
10
14.3987354645751
20
-6.41580559800994
30
0
41
1
10
14.0445903746314
20
-6.28981112058526
30
0
41
1
10
13.3353851774544
20
-6.02677188067435
30
0
41
1
10
12.9804803795311
20
-5.8897744003047
30
0
41
1
10
11.9176450958206
20
-5.46447718820315
30
0
41
1
10
11.2105135144319
20
-5.16119043715022
30
0
41
1
10
10.1489840215895
20
-4.68075605345081
30
0
41
1
10
9.79498837869082
20
-4.51638449828855
30
0
41
1
10
9.08630564471696
20
-4.17973743885963
30
0
41
1
10
8.7312947828039
20
-4.00729752550069
30
0
41
1
10
6.95851975370829
20
-3.12959359278724
30
0
41
1
10
5.54709126941992
20
-2.37687658505934
30
0
41
1
10
4.12795488965156
20
-1.59808041528709
30
0
0
SPLINE
5
B8
100
AcDbEntity
8
1
62
256
6
ByLayer
370
18
48
1
60
0
100
AcDbSpline
70
4
71
3
72
12
73
8
40
0
40
0
40
0
40
0
40
0.249999999999999
40
0.249999999999999
40
0.499999999999998
40
0.499999999999998
40
1
40
1
40
1
40
1
41
1
10
4.12795488965156
20
-1.59808041528706
30
0
41
1
10
4.10848895454598
20
-1.58739786502804
30
0
41
1
10
4.09089048909439
20
-1.57444021974288
30
0
41
1
10
4.05932181955791
20
-1.54409194896144
30
0
41
1
10
4.04551754716351
20
-1.52671813609334
30
0
41
1
10
4.01212352057669
20
-1.47077499874996
30
0
41
1
10
4.00000046024189
20
-1.42745998182753
30
0
41
1
10
4.00000046024186
20
-1.38348941643514
30
0
0
SPLINE
5
B9
100
AcDbEntity
8
1
62
256
6
ByLayer
370
18
48
1
60
0
100
AcDbSpline
70
4
71
3
72
18
73
14
40
0
40
0
40
0
40
0
40
0.124999999999998
40
0.124999999999998
40
0.249999999999996
40
0.249999999999996
40
0.374999999999994
40
0.374999999999994
40
0.499999999999992
40
0.499999999999992
40
0.749999999999996
40
0.749999999999996
40
1
40
1
40
1
40
1
41
1
10
4.25054249987818
20
-7.85428482586534
30
0
41
1
10
4.23656996662135
20
-7.85439900386143
30
0
41
1
10
4.22205245518307
20
-7.85560934695695
30
0
41
1
10
4.19145611511388
20
-7.86111259188226
30
0
41
1
10
4.17522511273347
20
-7.86547464588779
30
0
41
1
10
4.14223132861878
20
-7.87843831304312
30
0
41
1
10
4.12515077478633
20
-7.88723477746592
30
0
41
1
10
4.09286348679575
20
-7.90928275139129
30
0
41
1
10
4.0778225790109
20
-7.92244144348351
30
0
41
1
10
4.0392082513643
20
-7.96495001544645
30
0
41
1
10
4.02330195729968
20
-7.99508949533603
30
0
41
1
10
4.00378808195572
20
-8.05157361829859
30
0
41
1
10
4.00000046024243
20
-8.07832132080969
30
0
41
1
10
4.00000046024186
20
-8.10346658755299
30
0
0
SPLINE
5
BA
100
AcDbEntity
8
1
62
256
6
ByLayer
370
18
48
1
60
0
100
AcDbSpline
70
4
71
3
72
84
73
80
40
0
40
0
40
0
40
0
40
0.0190935773900485
40
0.0190935773900485
40
0.0541259496261183
40
0.0541259496261183
40
0.0716421357441529
40
0.0716421357441529
40
0.0891583218621874
40
0.0891583218621874
40
0.124190694098257
40
0.124190694098257
40
0.141706880216291
40
0.141706880216291
40
0.159223066334326
40
0.159223066334326
40
0.194255438570396
40
0.194255438570396
40
0.229287810806465
40
0.229287810806465
40
0.264320183042535
40
0.264320183042535
40
0.28183636916057
40
0.28183636916057
40
0.299352555278604
40
0.299352555278604
40
0.334384927514674
40
0.334384927514674
40
0.369417299750743
40
0.369417299750743
40
0.386933485868777
40
0.386933485868777
40
0.404449671986812
40
0.404449671986812
40
0.439482044222882
40
0.439482044222882
40
0.474514416458951
40
0.474514416458951
40
0.492030602576987
40
0.492030602576987
40
0.509546788695022
40
0.509546788695022
40
0.544579160931093
40
0.544579160931093
40
0.562095347049128
40
0.562095347049128
40
0.579611533167163
40
0.579611533167163
40
0.614643905403234
40
0.614643905403234
40
0.649676277639305
40
0.649676277639305
40
0.667192463757339
40
0.667192463757339
40
0.684708649875374
40
0.684708649875374
40
0.719741022111444
40
0.719741022111444
40
0.737257208229479
40
0.737257208229479
40
0.754773394347514
40
0.754773394347514
40
0.772289580465549
40
0.772289580465549
40
0.789805766583584
40
0.789805766583584
40
0.824838138819654
40
0.824838138819654
40
0.842354324937689
40
0.842354324937689
40
0.859870511055724
40
0.859870511055724
40
0.894902883291793
40
0.894902883291793
40
0.929935255527862
40
0.929935255527862
40
0.964967627763931
40
0.964967627763931
40
1
40
1
40
1
40
1
41
1
10
58.2242619886165
20
-6.04727828774824
30
0
41
1
10
57.9425423129724
20
-6.14468109317468
30
0
41
1
10
57.6606744895076
20
-6.23885091242991
30
0
41
1
10
56.8605761627219
20
-6.49552930932856
30
0
41
1
10
56.3415150458063
20
-6.64983697615045
30
0
41
1
10
55.5659002444567
20
-6.86038916866625
30
0
41
1
10
55.3075223563823
20
-6.92720502277967
30
0
41
1
10
54.7906572550322
20
-7.05479688574263
30
0
41
1
10
54.5322182662845
20
-7.11558131925284
30
0
41
1
10
53.7568888724763
20
-7.28793484473584
30
0
41
1
10
53.2401981898879
20
-7.38934304745143
30
0
41
1
10
52.4645936448418
20
-7.52174977119725
30
0
41
1
10
52.2058181404418
20
-7.56238851451437
30
0
41
1
10
51.6876305863229
20
-7.63574581601281
30
0
41
1
10
51.4281915601991
20
-7.66844057002672
30
0
41
1
10
50.6510393365481
20
-7.75690726752566
30
0
41
1
10
50.1342338647577
20
-7.80251205975958
30
0
41
1
10
49.1006160142682
20
-7.86199363396074
30
0
41
1
10
48.5836145202014
20
-7.87801527089223
30
0
41
1
10
47.5491843241111
20
-7.88025571452218
30
0
41
1
10
47.0319523717604
20
-7.86569778448072
30
0
41
1
10
46.2541099474337
20
-7.82337094219881
30
0
41
1
10
45.9950275757411
20
-7.80561488310079
30
0
41
1
10
45.4772510683018
20
-7.76233568644383
30
0
41
1
10
45.2185531024451
20
-7.73661266149566
30
0
41
1
10
44.4430440136452
20
-7.64990139638064
30
0
41
1
10
43.9266809685892
20
-7.57877248662902
30
0
41
1
10
42.8925564759023
20
-7.40815462336937
30
0
41
1
10
42.3750948661386
20
-7.30926488181265
30
0
41
1
10
41.5983285760933
20
-7.13867141288114
30
0
41
1
10
41.3390068739402
20
-7.07778215505698
30
0
41
1
10
40.8208522641991
20
-6.94952467005126
30
0
41
1
10
40.5618625477904
20
-6.88279094836221
30
0
41
1
10
39.7852415871555
20
-6.67412750027452
30
0
41
1
10
39.2682318321209
20
-6.52302549132662
30
0
41
1
10
38.2345718257886
20
-6.19651831520025
30
0
41
1
10
37.7173500207364
20
-6.02205509789221
30
0
41
1
10
36.9402791731742
20
-5.74001360286641
30
0
41
1
10
36.6810600677119
20
-5.64310059558082
30
0
41
1
10
36.1624854196948
20
-5.44475248829249
30
0
41
1
10
35.9033964588413
20
-5.34319271442064
30
0
41
1
10
35.126450925546
20
-5.0322069000288
30
0
41
1
10
34.6088674331356
20
-4.81625064027938
30
0
41
1
10
33.8330275176117
20
-4.4787041267073
30
0
41
1
10
33.5745837591641
20
-4.3638857279357
30
0
41
1
10
33.0576618966064
20
-4.12908875781574
30
0
41
1
10
32.7990412879986
20
-4.00940528768584
30
0
41
1
10
32.0225389979121
20
-3.646532231838
30
0
41
1
10
31.5034819293477
20
-3.3983930648979
30
0
41
1
10
30.4667103737314
20
-2.88891263343544
30
0
41
1
10
29.9495658090255
20
-2.62824920287784
30
0
41
1
10
29.1736366335287
20
-2.23167637960265
30
0
41
1
10
28.9150408033875
20
-2.09825471037166
30
0
41
1
10
28.3978637749262
20
-1.82951047345554
30
0
41
1
10
28.139317874541
20
-1.69427673791662
30
0
41
1
10
27.3637879831103
20
-1.28575270386781
30
0
41
1
10
26.8461623157511
20
-1.01084835646429
30
0
41
1
10
26.0680062270589
20
-0.596160718067296
30
0
41
1
10
25.8085545365084
20
-0.457592737574203
30
0
41
1
10
25.2905219585512
20
-0.18015668056367
30
0
41
1
10
25.031892432254
20
-0.0410400993145572
30
0
41
1
10
24.5147740565211
20
0.236670054099989
30
0
41
1
10
24.2562347924494
20
0.375203152129075
30
0
41
1
10
23.7390793684875
20
0.65156215213571
30
0
41
1
10
23.4804794527549
20
0.789391639432438
30
0
41
1
10
22.7046209400092
20
1.20173268805931
30
0
41
1
10
22.1876995296168
20
1.47587238299766
30
0
41
1
10
21.4106935334458
20
1.88211895016997
30
0
41
1
10
21.1511910589041
20
2.01675954018108
30
0
41
1
10
20.6326225340447
20
2.28353292671338
30
0
41
1
10
20.3736627679172
20
2.41563314715296
30
0
41
1
10
19.5976959941478
20
2.80854176279894
30
0
41
1
10
19.0819465602047
20
3.0664775214041
30
0
41
1
10
18.0503728725562
20
3.56733105624974
30
0
41
1
10
17.5347106776758
20
3.81098245103416
30
0
41
1
10
16.5038433198067
20
4.28414742940345
30
0
41
1
10
15.9884121563609
20
4.51310932672334
30
0
41
1
10
14.9552006049708
20
4.95472213895675
30
0
41
1
10
14.4375354436042
20
5.16716378726815
30
0
41
1
10
13.918789734306
20
5.37049479399019
30
0
0
SPLINE
5
BB
100
AcDbEntity
8
1
62
256
6
ByLayer
370
18
48
1
60
0
100
AcDbSpline
70
4
71
3
72
32
73
28
40
0
40
0
40
0
40
0
40
0.0625000000000007
40
0.0625000000000007
40
0.0937500000000009
40
0.0937500000000009
40
0.125000000000001
40
0.125000000000001
40
0.250000000000001
40
0.250000000000001
40
0.281250000000001
40
0.281250000000001
40
0.312500000000001
40
0.312500000000001
40
0.375000000000001
40
0.375000000000001
40
0.500000000000001
40
0.500000000000001
40
0.562500000000001
40
0.562500000000001
40
0.625000000000001
40
0.625000000000001
40
0.75
40
0.75
40
0.875
40
0.875
40
1
40
1
40
1
40
1
41
1
10
63.585607223174
20
3.84350307257378
30
0
41
1
10
63.6087279156904
20
3.62999953131575
30
0
41
1
10
63.6481048775502
20
3.41366378689614
30
0
41
1
10
63.7300946853811
20
3.08516623674029
30
0
41
1
10
63.7612531673528
20
2.97500003560722
30
0
41
1
10
63.83106767616
20
2.75336139450985
30
0
41
1
10
63.8698816805472
20
2.64152721396692
30
0
41
1
10
64.0788746679984
20
2.08795760595859
30
0
41
1
10
64.2945329087181
20
1.65707573143158
30
0
41
1
10
64.6098825773108
20
1.12978333565863
30
0
41
1
10
64.6754084325351
20
1.02472082662339
30
0
41
1
10
64.8094941045812
20
0.817760517105796
30
0
41
1
10
64.8781900349126
20
0.715619606363134
30
0
41
1
10
65.0888068804022
20
0.41286605931171
30
0
41
1
10
65.2352393098256
20
0.215908398071889
30
0
41
1
10
65.6899717060877
20
-0.362459929432873
30
0
41
1
10
66.0131706345575
20
-0.731800295104108
30
0
41
1
10
66.5247476510576
20
-1.26411630900543
30
0
41
1
10
66.699396403393
20
-1.43761107397776
30
0
41
1
10
67.051987838279
20
-1.77436410080077
30
0
41
1
10
67.2305159370496
20
-1.93814683575999
30
0
41
1
10
67.7721305447404
20
-2.41708590868018
30
0
41
1
10
68.141126542093
20
-2.72008174328545
30
0
41
1
10
68.8925680484154
20
-3.29839710294408
30
0
41
1
10
69.2751525891077
20
-3.57343052950549
30
0
41
1
10
70.0521190061856
20
-4.09922090896612
30
0
41
1
10
70.4469277083255
20
-4.35042635483663
30
0
41
1
10
70.8440787538029
20
-4.58899606368209
30
0
0
SPLINE
5
BC
100
AcDbEntity
8
1
62
256
6
ByLayer
370
13
48
1
60
0
100
AcDbSpline
70
4
71
3
72
8
73
4
40
0
40
0
40
0
40
0
40
1
40
1
40
1
40
1
41
1
10
4.12795488965156
20
-1.59808041528706
30
0
41
1
10
4.12885795425933
20
-1.58317983500223
30
0
41
1
10
4.12977039778553
20
-1.56826997901902
30
0
41
1
10
4.13069226381523
20
-1.55335042193346
30
0
0
SPLINE
5
BD
100
AcDbEntity
8
1
62
256
6
ByLayer
370
18
48
1
60
0
100
AcDbSpline
70
4
71
3
72
12
73
8
40
0
40
0
40
0
40
0
40
0.25
40
0.25
40
0.499999999999999
40
0.499999999999999
40
1
40
1
40
1
40
1
41
1
10
72.1836207227964
20
-7.93579388190275
30
0
41
1
10
72.1884636567971
20
-7.92270574631368
30
0
41
1
10
72.1931618439847
20
-7.90938898990106
30
0
41
1
10
72.2011223661876
20
-7.88530190606667
30
0
41
1
10
72.2043680282324
20
-7.87456475530098
30
0
41
1
10
72.2107006238257
20
-7.85027972997156
30
0
41
1
10
72.2102874701766
20
-7.84542036592831
30
0
41
1
10
72.2071378437745
20
-7.84842945157146
30
0
0
SPLINE
5
BE
100
AcDbEntity
8
1
62
256
6
ByLayer
370
18
48
1
60
0
100
AcDbSpline
70
4
71
3
72
24
73
20
40
0
40
0
40
0
40
0
40
0.25
40
0.25
40
0.375
40
0.375
40
0.5
40
0.5
40
0.625
40
0.625
40
0.75
40
0.75
40
0.8125
40
0.8125
40
0.875
40
0.875
40
0.9375
40
0.9375
40
1
40
1
40
1
40
1
41
1
10
71.0908252649772
20
2.34099726219847
30
0
41
1
10
71.3705403915151
20
2.39114828085474
30
0
41
1
10
71.6490014894123
20
2.44859008933622
30
0
41
1
10
72.0625409690976
20
2.55423335462817
30
0
41
1
10
72.1993396775931
20
2.5926670370695
30
0
41
1
10
72.46999979756
20
2.6787008621516
30
0
41
1
10
72.604227619443
20
2.72639639689808
30
0
41
1
10
72.8657444752145
20
2.83478218924961
30
0
41
1
10
72.9932234548389
20
2.89532427311741
30
0
41
1
10
73.2371333078735
20
3.0381489327882
30
0
41
1
10
73.3546836534632
20
3.12106101693556
30
0
41
1
10
73.5065610767636
20
3.27068345195087
30
0
41
1
10
73.5535144645856
20
3.32552492502359
30
0
41
1
10
73.6327440509639
20
3.44273013589748
30
0
41
1
10
73.6654756481518
20
3.50542004352766
30
0
41
1
10
73.7134767579545
20
3.64125206838469
30
0
41
1
10
73.7275336853771
20
3.71161441335318
30
0
41
1
10
73.7362519965561
20
3.85381569248153
30
0
41
1
10
73.7307558038216
20
3.92680995861528
30
0
41
1
10
73.7176285022736
20
3.99697477128581
30
0
0
SPLINE
5
BF
100
AcDbEntity
8
1
62
256
6
ByLayer
370
18
48
1
60
0
100
AcDbSpline
70
4
71
3
72
72
73
68
40
0
40
0
40
0
40
0
40
0.124999999999995
40
0.124999999999995
40
0.156249999999994
40
0.156249999999994
40
0.187499999999994
40
0.187499999999994
40
0.249999999999993
40
0.249999999999993
40
0.374999999999991
40
0.374999999999991
40
0.499999999999989
40
0.499999999999989
40
0.562499999999988
40
0.562499999999988
40
0.593749999999987
40
0.593749999999987
40
0.624999999999986
40
0.624999999999986
40
0.687499999999985
40
0.687499999999985
40
0.718749999999983
40
0.718749999999983
40
0.726562499999983
40
0.726562499999983
40
0.728515624999983
40
0.728515624999983
40
0.730468749999984
40
0.730468749999984
40
0.734374999999984
40
0.734374999999984
40
0.736328124999984
40
0.736328124999984
40
0.738281249999984
40
0.742187499999984
40
0.749999999999984
40
0.749999999999984
40
0.765624999999985
40
0.765624999999985
40
0.781249999999986
40
0.781249999999986
40
0.796874999999987
40
0.796874999999987
40
0.804687499999988
40
0.804687499999988
40
0.812499999999988
40
0.812499999999988
40
0.828124999999989
40
0.828124999999989
40
0.84374999999999
40
0.84374999999999
40
0.859374999999991
40
0.859374999999991
40
0.874999999999992
40
0.874999999999992
40
0.890624999999993
40
0.890624999999993
40
0.906249999999994
40
0.906249999999994
40
0.937499999999996
40
0.937499999999996
40
0.953124999999997
40
0.953124999999997
40
0.968749999999998
40
0.968749999999998
40
1
40
1
40
1
40
1
41
1
10
22.9959055949962
20
-8.22027439555475
30
0
41
1
10
21.9816135381975
20
-8.2155445674544
30
0
41
1
10
20.9560691178595
20
-8.15152937236797
30
0
41
1
10
19.6531367105347
20
-8.01857143535997
30
0
41
1
10
19.3912727226694
20
-7.98931437582351
30
0
41
1
10
18.866780465465
20
-7.92631841462392
30
0
41
1
10
18.6040455338417
20
-7.89257288388683
30
0
41
1
10
17.8140999343891
20
-7.78564325641631
30
0
41
1
10
17.2851455753112
20
-7.70675490674012
30
0
41
1
10
15.689161153435
20
-7.45613168152607
30
0
41
1
10
14.612903453537
20
-7.27046089477059
30
0
41
1
10
12.4261539831151
20
-6.91129939751599
30
0
41
1
10
11.3156763851293
20
-6.73808731660608
30
0
41
1
10
9.61937224628753
20
-6.52149881717384
30
0
41
1
10
9.04886373858187
20
-6.45644308649963
30
0
41
1
10
8.18498603910058
20
-6.37308952690583
30
0
41
1
10
7.89542562122179
20
-6.34765662010722
30
0
41
1
10
7.31603722282304
20
-6.30222700679664
30
0
41
1
10
7.02596019897641
20
-6.28220180787665
30
0
41
1
10
6.15455444080533
20
-6.23074287326457
30
0
41
1
10
5.57183029088236
20
-6.20794190613256
30
0
41
1
10
4.69599232327076
20
-6.19278242782704
30
0
41
1
10
4.40398298820125
20
-6.19089928283489
30
0
41
1
10
4.03890496130086
20
-6.19263065768115
30
0
41
1
10
3.96589418250448
20
-6.19318108465541
30
0
41
1
10
3.8746367865588
20
-6.19412588617811
30
0
41
1
10
3.85636066126091
20
-6.19422429566262
30
0
41
1
10
3.81994338609724
20
-6.19610207333588
30
0
41
1
10
3.80192991879468
20
-6.19768772315075
30
0
41
1
10
3.74857740259742
20
-6.20471744015072
30
0
41
1
10
3.71321731221681
20
-6.21239932274523
30
0
41
1
10
3.66756878921069
20
-6.23124372135572
30
0
41
1
10
3.65328934472052
20
-6.23855501784482
30
0
41
1
10
3.62408426410306
20
-6.25242257671914
30
0
41
1
10
3.58041156267359
20
-6.27328579480204
30
0
41
1
10
3.47947113967291
20
-6.32240366304404
30
0
41
1
10
3.39466459330487
20
-6.36526756912107
30
0
41
1
10
3.22753533908809
20
-6.45205634921362
30
0
41
1
10
3.11954874547035
20
-6.51128200118239
30
0
41
1
10
2.91396559558007
20
-6.63132043700392
30
0
41
1
10
2.81605599671721
20
-6.69228786501068
30
0
41
1
10
2.63175915337945
20
-6.81614524811397
30
0
41
1
10
2.54535865941048
20
-6.87903476339991
30
0
41
1
10
2.42628805820067
20
-6.97485611990621
30
0
41
1
10
2.38836005314062
20
-7.00704472846539
30
0
41
1
10
2.31646230865238
20
-7.07193053630181
30
0
41
1
10
2.28256580547719
20
-7.10458752334605
30
0
41
1
10
2.18924228796016
20
-7.20145057240467
30
0
41
1
10
2.13749182971253
20
-7.26513687110412
30
0
41
1
10
2.05718869211356
20
-7.39008594307063
30
0
41
1
10
2.02863527588744
20
-7.45190643650778
30
0
41
1
10
1.99832062720731
20
-7.56791261401008
30
0
41
1
10
1.99607600308104
20
-7.62249474666294
30
0
41
1
10
2.01601324296672
20
-7.72476355355101
30
0
41
1
10
2.03858525555972
20
-7.77268864050862
30
0
41
1
10
2.10411427884608
20
-7.85866659251096
30
0
41
1
10
2.14699475191767
20
-7.89718945003713
30
0
41
1
10
2.24956074932729
20
-7.96649527613701
30
0
41
1
10
2.30959200852357
20
-7.99740050919539
30
0
41
1
10
2.50885806748835
20
-8.07885721751023
30
0
41
1
10
2.66493475302988
20
-8.11793191044072
30
0
41
1
10
2.92161166268136
20
-8.16052751237288
30
0
41
1
10
3.01103052873043
20
-8.1720013114313
30
0
41
1
10
3.19637153298791
20
-8.19017227323653
30
0
41
1
10
3.29253489441021
20
-8.1968707444552
30
0
41
1
10
3.58655295722875
20
-8.2104557495025
30
0
41
1
10
3.79046941903485
20
-8.21100797872998
30
0
41
1
10
4.00000046024178
20
-8.20493811201325
30
0
0
SPLINE
5
C0
100
AcDbEntity
8
1
62
256
6
ByLayer
370
18
48
1
60
0
100
AcDbSpline
70
4
71
3
72
8
73
4
40
0
40
0
40
0
40
0
40
1
40
1
40
1
40
1
41
1
10
72.2071378437733
20
-7.8484294515726
30
0
41
1
10
72.1747350017264
20
-7.87938643324421
30
0
41
1
10
72.1478164527732
20
-7.8949783074552
30
0
41
1
10
72.1264753702651
20
-7.89494403444382
30
0
0
SPLINE
5
C1
100
AcDbEntity
8
1
62
256
6
ByLayer
370
18
48
1
60
0
100
AcDbSpline
70
4
71
3
72
8
73
4
40
0
40
0
40
0
40
0
40
1
40
1
40
1
40
1
41
1
10
4.00000046024189
20
-8.10346658755856
30
0
41
1
10
4.00000046024189
20
-8.13687404855676
30
0
41
1
10
4.00000046024189
20
-8.17069658338056
30
0
41
1
10
4.00000046024189
20
-8.20493811201331
30
0
0
SPLINE
5
C2
100
AcDbEntity
8
1
62
256
6
ByLayer
370
18
48
1
60
0
100
AcDbSpline
70
4
71
3
72
22
73
18
40
0
40
0
40
0
40
0
40
0.148452965209614
40
0.148452965209614
40
0.353000781594659
40
0.353000781594659
40
0.404137735690921
40
0.404137735690921
40
0.455274689787182
40
0.455274689787182
40
0.557548597979705
40
0.557548597979705
40
0.762096414364751
40
0.762096414364751
40
0.966644230749796
40
0.966644230749796
40
1
40
1
40
1
40
1
41
1
10
22.995927347512
20
8.22027082927531
30
0
41
1
10
22.660975189635
20
8.09293335749882
30
0
41
1
10
22.3276423369825
20
7.9526671260254
30
0
41
1
10
21.5373635600756
20
7.58608778597321
30
0
41
1
10
21.0813161856008
20
7.34719703647511
30
0
41
1
10
20.5089020784038
20
7.01754876004821
30
0
41
1
10
20.3942910247184
20
6.95009076602992
30
0
41
1
10
20.1646540464187
20
6.81226369698933
30
0
41
1
10
20.0498653901641
20
6.74203136194649
30
0
41
1
10
19.708017742187
20
6.52942195448122
30
0
41
1
10
19.4824415792611
20
6.38451423609064
30
0
41
1
10
18.810364946662
20
5.9437874048879
30
0
41
1
10
18.3684786199923
20
5.6420227660814
30
0
41
1
10
17.4850093726278
20
5.04072415802059
30
0
41
1
10
17.0434265750145
20
4.7411875512783
30
0
41
1
10
16.5236456338151
20
4.40368512008843
30
0
41
1
10
16.4506880172943
20
4.35665453668415
30
0
41
1
10
16.3777014585289
20
4.30998842852966
30
0
0
SPLINE
5
C3
100
AcDbEntity
8
1
62
256
6
ByLayer
370
18
48
1
60
0
100
AcDbSpline
70
4
71
3
72
20
73
16
40
0
40
0
40
0
40
0
40
0.125000000000001
40
0.125000000000001
40
0.250000000000003
40
0.250000000000003
40
0.500000000000002
40
0.500000000000002
40
0.625000000000002
40
0.625000000000002
40
0.750000000000001
40
0.750000000000001
40
0.875000000000001
40
0.875000000000001
40
1
40
1
40
1
40
1
41
1
10
73.7176285022814
20
-3.99697477126423
30
0
41
1
10
73.6538050184692
20
-4.16884397759833
30
0
41
1
10
73.5899473268023
20
-4.340553004572
30
0
41
1
10
73.4621436690974
20
-4.68355771098408
30
0
41
1
10
73.3981973987481
20
-4.85485196547646
30
0
41
1
10
73.2063326931053
20
-5.36861347669276
30
0
41
1
10
73.0783044654116
20
-5.71093368573705
30
0
41
1
10
72.8862233783752
20
-6.22240114291535
30
0
41
1
10
72.822186640183
20
-6.39243203136326
30
0
41
1
10
72.6941090910414
20
-6.73230157804059
30
0
41
1
10
72.6300673907153
20
-6.90209825854234
30
0
41
1
10
72.5019688644609
20
-7.24097770570782
30
0
41
1
10
72.4379127350482
20
-7.41009334722472
30
0
41
1
10
72.3097668116046
20
-7.74673569270766
30
0
41
1
10
72.2456849742904
20
-7.91463794604374
30
0
41
1
10
72.181593496109
20
-8.08208515972547
30
0
0
SPLINE
5
C4
100
AcDbEntity
8
1
62
256
6
ByLayer
370
18
48
1
60
0
100
AcDbSpline
70
4
71
3
72
30
73
26
40
0
40
0
40
0
40
0
40
0.0659049424067334
40
0.0659049424067334
40
0.117799112273026
40
0.117799112273026
40
0.169693282139318
40
0.169693282139318
40
0.221587452005611
40
0.221587452005611
40
0.273481621871903
40
0.273481621871903
40
0.377269961604489
40
0.377269961604489
40
0.481058301337074
40
0.481058301337074
40
0.584846641069659
40
0.584846641069659
40
0.688634980802245
40
0.688634980802245
40
0.79242332053483
40
0.79242332053483
40
0.896211660267415
40
0.896211660267415
40
1
40
1
40
1
40
1
41
1
10
48.6335755121007
20
7.87199025711175
30
0
41
1
10
48.9621322222723
20
7.8644561948833
30
0
41
1
10
49.2908922197637
20
7.85107368740952
30
0
41
1
10
49.8788697938696
20
7.81718376894199
30
0
41
1
10
50.1380756916233
20
7.79827363557567
30
0
41
1
10
50.6558762983892
20
7.75311220914605
30
0
41
1
10
50.9147103226151
20
7.72692887242792
30
0
41
1
10
51.4321400395344
20
7.66795404128487
30
0
41
1
10
51.6907375581988
20
7.63533134202035
30
0
41
1
10
52.2076761872332
20
7.56209987005744
30
0
41
1
10
52.4660261451871
20
7.52151596875018
30
0
41
1
10
53.2408835436871
20
7.38920448232639
30
0
41
1
10
53.7577580915641
20
7.28777213293407
30
0
41
1
10
54.7933432708021
20
7.05750335332257
30
0
41
1
10
55.3121848227918
20
6.92934868385095
30
0
41
1
10
56.346839384499
20
6.64830608622285
30
0
41
1
10
56.8638829531731
20
6.49450342522306
30
0
41
1
10
57.8974868683302
20
6.16284435729409
30
0
41
1
10
58.4137437958466
20
5.98463228018713
30
0
41
1
10
59.4478987003221
20
5.60811731624332
30
0
41
1
10
59.9664503968899
20
5.4101712244096
30
0
41
1
10
61.0024035245345
20
4.99297547079513
30
0
41
1
10
61.518890312473
20
4.77410304035231
30
0
41
1
10
62.5523646614702
20
4.32150099141916
30
0
41
1
10
63.0689718613473
20
4.08646980522383
30
0
41
1
10
63.585607223174
20
3.84350307257381
30
0
0
SPLINE
5
C5
100
AcDbEntity
8
1
62
256
6
ByLayer
370
18
48
1
60
0
100
AcDbSpline
70
4
71
3
72
18
73
14
40
0
40
0
40
0
40
0
40
0.237997401073348
40
0.237997401073348
40
0.434011813064421
40
0.434011813064421
40
0.532019019059958
40
0.532019019059958
40
0.630026225055494
40
0.630026225055494
40
0.82604063704657
40
0.82604063704657
40
1
40
1
40
1
40
1
41
1
10
10.4090218583129
20
-6.62828459802782
30
0
41
1
10
9.90663101889646
20
-6.78874043000198
30
0
41
1
10
9.40713793715094
20
-6.93792475451193
30
0
41
1
10
8.50133940274884
20
-7.18474447694717
30
0
41
1
10
8.09426983293326
20
-7.28611946565829
30
0
41
1
10
7.48705731221031
20
-7.42385867111179
30
0
41
1
10
7.28490174665791
20
-7.46742288182117
30
0
41
1
10
6.88428455861222
20
-7.54844174849035
30
0
41
1
10
6.68569277430026
20
-7.58597698890821
30
0
41
1
10
6.09574628668511
20
-7.68906652200542
30
0
41
1
10
5.71003538222135
20
-7.74531026724074
30
0
41
1
10
5.00269542273713
20
-7.82183556260298
30
0
41
1
10
4.67853346502463
20
-7.84562249401353
30
0
41
1
10
4.36798992151682
20
-7.85249579605124
30
0
0
SPLINE
5
C6
100
AcDbEntity
8
1
62
256
6
ByLayer
370
18
48
1
60
0
100
AcDbSpline
70
4
71
3
72
8
73
4
40
0
40
0
40
0
40
0
40
1
40
1
40
1
40
1
41
1
10
4.30035429674658
20
-7.85372663288135
30
0
41
1
10
4.28370935568623
20
-7.85396317114282
30
0
41
1
10
4.26710515157333
20
-7.85414948244963
30
0
41
1
10
4.25054249987787
20
-7.85428482586556
30
0
0
SPLINE
5
C7
100
AcDbEntity
8
1
62
256
6
ByLayer
370
18
48
1
60
0
100
AcDbSpline
70
4
71
3
72
26
73
22
40
0
40
0
40
0
40
0
40
0.1142886576703
40
0.1142886576703
40
0.177553753550992
40
0.177553753550992
40
0.240818849431684
40
0.240818849431684
40
0.493879232954455
40
0.493879232954455
40
0.557144328835148
40
0.557144328835148
40
0.620409424715841
40
0.620409424715841
40
0.746939616477228
40
0.746939616477228
40
0.873469808238614
40
0.873469808238614
40
0.936734904119307
40
0.936734904119307
40
1
40
1
40
1
40
1
41
1
10
72.0932609108544
20
-7.89443601871113
30
0
41
1
10
71.990383025334
20
-7.89138648450376
30
0
41
1
10
71.8920593299831
20
-7.87460491151282
30
0
41
1
10
71.7466906660448
20
-7.82627328492103
30
0
41
1
10
71.696353419357
20
-7.80465028506208
30
0
41
1
10
71.5987159970531
20
-7.75224674554156
30
0
41
1
10
71.551269327385
20
-7.72132971792843
30
0
41
1
10
71.3248178503878
20
-7.54506513229254
30
0
41
1
10
71.1762027056661
20
-7.33541947757996
30
0
41
1
10
71.0331673474002
20
-6.98324466471752
30
0
41
1
10
71.0067252523706
20
-6.90824413933063
30
0
41
1
10
70.9583467322531
20
-6.74874140668436
30
0
41
1
10
70.9363765908403
20
-6.66397248668986
30
0
41
1
10
70.8784300119922
20
-6.39920762308253
30
0
41
1
10
70.8499888360514
20
-6.20773622486615
30
0
41
1
10
70.8131934225654
20
-5.79530038138068
30
0
41
1
10
70.804838185836
20
-5.57433740318356
30
0
41
1
10
70.8078183189959
20
-5.22011568215711
30
0
41
1
10
70.8114255782372
20
-5.09785705989035
30
0
41
1
10
70.8238871798063
20
-4.84738794696503
30
0
41
1
10
70.8327084858159
20
-4.71949827391626
30
0
41
1
10
70.8440787538042
20
-4.58899606368314
30
0
0
SPLINE
5
C8
100
AcDbEntity
8
1
62
256
6
ByLayer
370
13
48
1
60
0
100
AcDbSpline
70
4
71
3
72
40
73
36
40
0
40
0
40
0
40
0
40
0.0624999999999999
40
0.0624999999999999
40
0.125
40
0.125
40
0.1875
40
0.1875
40
0.25
40
0.25
40
0.375
40
0.375
40
0.4375
40
0.4375
40
0.5
40
0.5
40
0.5625
40
0.5625
40
0.59375
40
0.59375
40
0.625
40
0.625
40
0.75
40
0.75
40
0.78125
40
0.78125
40
0.8125
40
0.8125
40
0.875
40
0.875
40
0.9375
40
0.9375
40
0.96875
40
0.96875
40
1
40
1
40
1
40
1
41
1
10
4.25021139249409
20
-1.48290582372795
30
0
41
1
10
4.25021766777704
20
-1.19974219330317
30
0
41
1
10
4.25022127612181
20
-0.915248186396582
30
0
41
1
10
4.25022445148323
20
-0.343644307258387
30
0
41
1
10
4.25022401368545
20
-0.0561943269918572
30
0
41
1
10
4.250220335481
20
0.519941719933883
30
0
41
1
10
4.25021711721945
20
0.806334351280725
30
0
41
1
10
4.25020926366071
20
1.37579252580883
30
0
41
1
10
4.2502046128628
20
1.65958077379361
30
0
41
1
10
4.25019069811651
20
2.4909107878633
30
0
41
1
10
4.25018146883374
20
3.02339566855898
30
0
41
1
10
4.25017418564252
20
3.78951641331071
30
0
41
1
10
4.25017284597342
20
4.04035462026863
30
0
41
1
10
4.25017325159922
20
4.52240447538068
30
0
41
1
10
4.25017497927496
20
4.75439899017184
30
0
41
1
10
4.25018208117007
20
5.20020459762389
30
0
41
1
10
4.25018743843165
20
5.41253119441708
30
0
41
1
10
4.25019834891972
20
5.7139462464431
30
0
41
1
10
4.25020246477317
20
5.81164212475286
30
0
41
1
10
4.25021167147111
20
6.0014444329706
30
0
41
1
10
4.25021676529678
20
6.09353202231611
30
0
41
1
10
4.2502443996774
20
6.53577618997548
30
0
41
1
10
4.25027368902579
20
6.83563438518942
30
0
41
1
10
4.25031712510989
20
7.14405685342115
30
0
41
1
10
4.25032614768577
20
7.20238426617092
30
0
41
1
10
4.2503447839627
20
7.31219897780153
30
0
41
1
10
4.25035442336576
20
7.36379093041202
30
0
41
1
10
4.25038374438327
20
7.50646043540564
30
0
41
1
10
4.25040390738923
20
7.58601600750399
30
0
41
1
10
4.25044445380564
20
7.71489531194351
30
0
41
1
10
4.25046483916856
20
7.76421706586956
30
0
41
1
10
4.25049473188523
20
7.8153656321569
30
0
41
1
10
4.2505045807404
20
7.82860119107656
30
0
41
1
10
4.25052388802678
20
7.8473144025925
30
0
41
1
10
4.25053337461674
20
7.85279045025518
30
0
41
1
10
4.25054249987824
20
7.85428482586536
30
0
0
SPLINE
5
C9
100
AcDbEntity
8
1
62
256
6
ByLayer
370
18
48
1
60
0
100
AcDbSpline
70
4
71
3
72
16
73
12
40
0
40
0
40
0
40
0
40
0.249999999999996
40
0.249999999999996
40
0.499999999999992
40
0.499999999999992
40
0.625000000000004
40
0.625000000000004
40
0.750000000000016
40
0.750000000000016
40
1
40
1
40
1
40
1
41
1
10
4.00000046024442
20
8.10346658756134
30
0
41
1
10
4.00000046024411
20
8.07834787324799
30
0
41
1
10
4.00367214543493
20
8.05206970850062
30
0
41
1
10
4.02313538106452
20
7.9954134629769
30
0
41
1
10
4.03933058535443
20
7.96491794853262
30
0
41
1
10
4.07730282835763
20
7.92296323149247
30
0
41
1
10
4.09236204701295
20
7.90967186399959
30
0
41
1
10
4.12485468191076
20
7.88739140633086
30
0
41
1
10
4.14191944435788
20
7.87857966604611
30
0
41
1
10
4.19165853460348
20
7.85898051800618
30
0
41
1
10
4.22253729116977
20
7.85451367331569
30
0
41
1
10
4.25054249987812
20
7.85428482586536
30
0
0
SPLINE
5
CA
100
AcDbEntity
8
1
62
256
6
ByLayer
370
18
48
1
60
0
100
AcDbSpline
70
4
71
3
72
18
73
14
40
0
40
0
40
0
40
0
40
0.28029487814408
40
0.28029487814408
40
0.363124320437408
40
0.363124320437408
40
0.445953762730735
40
0.445953762730735
40
0.611612647317394
40
0.611612647317394
40
0.94293041649071
40
0.94293041649071
40
1
40
1
40
1
40
1
41
1
10
47.3790888290428
20
-0.0141212251930369
30
0
41
1
10
48.5692432658731
20
-0.661370663750489
30
0
41
1
10
49.7604329143995
20
-1.30919567119781
30
0
41
1
10
51.3153163003512
20
-2.12975420143948
30
0
41
1
10
51.6708045719018
20
-2.31561100210382
30
0
41
1
10
52.3837548861291
20
-2.68405303704245
30
0
41
1
10
52.7404863727141
20
-2.86624070472837
30
0
41
1
10
53.8063618688123
20
-3.40251874879201
30
0
41
1
10
54.5134033899857
20
-3.74766073600074
30
0
41
1
10
56.629184415076
20
-4.73791274713724
30
0
41
1
10
58.032355246353
20
-5.33835940539714
30
0
41
1
10
59.68396648959
20
-5.9499192903022
30
0
41
1
10
59.926819110428
20
-6.03745566748245
30
0
41
1
10
60.1699101922384
20
-6.12256111299303
30
0
0
SPLINE
5
CB
100
AcDbEntity
8
1
62
256
6
ByLayer
370
13
48
1
60
0
100
AcDbSpline
70
4
71
3
72
22
73
18
40
0
40
0
40
0
40
0
40
0.115904779060797
40
0.115904779060797
40
0.204314301154716
40
0.204314301154716
40
0.292723823248634
40
0.292723823248634
40
0.646361911624315
40
0.646361911624315
40
0.823180955812155
40
0.823180955812155
40
0.911590477906077
40
0.911590477906077
40
0.955795238953038
40
0.955795238953038
40
1
40
1
40
1
40
1
41
1
10
60.1699101928202
20
-6.12256111319675
30
0
41
1
10
60.6324523919693
20
-6.28449572482873
30
0
41
1
10
61.0958579313513
20
-6.43762922703459
30
0
41
1
10
61.9151514473866
20
-6.69078262466249
30
0
41
1
10
62.2704660944261
20
-6.79478661718539
30
0
41
1
10
62.9830606150817
20
-6.99122218825212
30
0
41
1
10
63.3399538978273
20
-7.08351359892558
30
0
41
1
10
65.1173861182324
20
-7.51165351212265
30
0
41
1
10
66.5267345450754
20
-7.75009806040273
30
0
41
1
10
68.6421612193786
20
-7.94409820765367
30
0
41
1
10
69.3475680663383
20
-7.9815442958263
30
0
41
1
10
70.4084324589812
20
-7.99597277577362
30
0
41
1
10
70.7625081790295
20
-7.99381790563521
30
0
41
1
10
71.2946099221776
20
-7.98001146718246
30
0
41
1
10
71.4721418481465
20
-7.9736466588769
30
0
41
1
10
71.8275861278286
20
-7.95736673908496
30
0
41
1
10
72.0055348032658
20
-7.94716768558879
30
0
41
1
10
72.1836207227778
20
-7.93579388190392
30
0
0
SPLINE
5
CC
100
AcDbEntity
8
1
62
256
6
ByLayer
370
18
48
1
60
0
100
AcDbSpline
70
4
71
3
72
8
73
4
40
0
40
0
40
0
40
0
40
1
40
1
40
1
40
1
41
1
10
22.9959365312778
20
-8.22027432062876
30
0
41
1
10
23.0316038446742
20
-8.22044079445948
30
0
41
1
10
23.0672661000443
20
-8.22053391408164
30
0
41
1
10
23.1029230908457
20
-8.22055386521433
30
0
0
SPLINE
5
CD
100
AcDbEntity
8
1
62
256
6
ByLayer
370
18
48
1
60
0
100
AcDbSpline
70
4
71
3
72
32
73
28
40
0
40
0
40
0
40
0
40
0.0085375717361241
40
0.0085375717361241
40
0.0636188177507825
40
0.0636188177507825
40
0.118700063765441
40
0.118700063765441
40
0.228862555794761
40
0.228862555794761
40
0.33902504782408
40
0.33902504782408
40
0.449187539853399
40
0.449187539853399
40
0.50426878586806
40
0.50426878586806
40
0.559350031882721
40
0.559350031882721
40
0.669512523912042
40
0.669512523912042
40
0.724593769926702
40
0.724593769926702
40
0.779675015941362
40
0.779675015941362
40
0.889837507970681
40
0.889837507970681
40
1
40
1
40
1
40
1
41
1
10
58.2463261798805
20
6.0454699843425
30
0
41
1
10
58.2858775158004
20
6.060542282906
30
0
41
1
10
58.3254258640941
20
6.07555102002053
30
0
41
1
10
58.6201005838171
20
6.18692103774254
30
0
41
1
10
58.8751114916844
20
6.28068491573356
30
0
41
1
10
59.3847231131012
20
6.46302697767769
30
0
41
1
10
59.6393867696009
20
6.55151564313093
30
0
41
1
10
60.4048153926121
20
6.80689135602736
30
0
41
1
10
60.9162826457242
20
6.96459429701798
30
0
41
1
10
61.9404096801429
20
7.25592255757209
30
0
41
1
10
62.4525843686651
20
7.38983285664398
30
0
41
1
10
63.4828033484306
20
7.6289058479305
30
0
41
1
10
64.0015599608184
20
7.73496619984866
30
0
41
1
10
64.77443578999
20
7.87220105569895
30
0
41
1
10
65.0312269408523
20
7.91441431521491
30
0
41
1
10
65.5444957451896
20
7.99109529007407
30
0
41
1
10
65.8009728638853
20
8.02559116898067
30
0
41
1
10
66.569538298513
20
8.11795294615445
30
0
41
1
10
67.0808333402659
20
8.16471279503452
30
0
41
1
10
67.845313121761
20
8.21280185312082
30
0
41
1
10
68.0998832676094
20
8.22509263851904
30
0
41
1
10
68.6095275817424
20
8.24212949882377
30
0
41
1
10
68.8644311448232
20
8.24691217771664
30
0
41
1
10
69.6291473609141
20
8.25014498863686
30
0
41
1
10
70.1387504850995
20
8.23749112499496
30
0
41
1
10
71.1579240690662
20
8.18196773426959
30
0
41
1
10
71.6691834936962
20
8.13944528722237
30
0
41
1
10
72.181593496109
20
8.08208515972552
30
0
0
SPLINE
5
CE
100
AcDbEntity
8
1
62
256
6
ByLayer
370
18
48
1
60
0
100
AcDbSpline
70
4
71
3
72
20
73
16
40
0
40
0
40
0
40
0
40
0.125000000000001
40
0.125000000000001
40
0.250000000000003
40
0.250000000000003
40
0.500000000000002
40
0.500000000000002
40
0.625000000000002
40
0.625000000000002
40
0.750000000000001
40
0.750000000000001
40
0.875000000000001
40
0.875000000000001
40
1
40
1
40
1
40
1
41
1
10
73.7176285022734
20
3.99697477128578
30
0
41
1
10
73.6538050184614
20
4.16884397761896
30
0
41
1
10
73.589947326795
20
4.34055300459173
30
0
41
1
10
73.4621436690907
20
4.68355771100195
30
0
41
1
10
73.3981973987419
20
4.85485196549348
30
0
41
1
10
73.2063326931
20
5.36861347670705
30
0
41
1
10
73.0783044654069
20
5.71093368574955
30
0
41
1
10
72.8862233783714
20
6.22240114292509
30
0
41
1
10
72.8221866401797
20
6.39243203137212
30
0
41
1
10
72.6941090910387
20
6.7323015780477
30
0
41
1
10
72.6300673907129
20
6.90209825854853
30
0
41
1
10
72.5019688644593
20
7.24097770571225
30
0
41
1
10
72.4379127350469
20
7.41009334722821
30
0
41
1
10
72.3097668116039
20
7.74673569270942
30
0
41
1
10
72.2456849742901
20
7.91463794604459
30
0
41
1
10
72.181593496109
20
8.08208515972547
30
0
0
SPLINE
5
CF
100
AcDbEntity
8
1
62
256
6
ByLayer
370
18
48
1
60
0
100
AcDbSpline
70
4
71
3
72
64
73
60
40
0
40
0
40
0
40
0
40
0.0222187582419752
40
0.0222187582419752
40
0.0444375164839503
40
0.0444375164839503
40
0.0888750329679013
40
0.0888750329679013
40
0.133312549451852
40
0.133312549451852
40
0.155531307693828
40
0.155531307693828
40
0.177750065935803
40
0.177750065935803
40
0.222187582419755
40
0.222187582419755
40
0.244406340661731
40
0.244406340661731
40
0.266625098903707
40
0.266625098903707
40
0.311062615387659
40
0.311062615387659
40
0.333281373629635
40
0.333281373629635
40
0.355500131871612
40
0.355500131871612
40
0.399937648355566
40
0.399937648355566
40
0.422156406597542
40
0.422156406597542
40
0.444375164839519
40
0.444375164839519
40
0.533250197807427
40
0.533250197807427
40
0.577687714291381
40
0.577687714291381
40
0.622125230775335
40
0.622125230775335
40
0.644343989017312
40
0.644343989017312
40
0.66656274725929
40
0.66656274725929
40
0.711000263743244
40
0.711000263743244
40
0.755437780227198
40
0.755437780227198
40
0.799875296711152
40
0.799875296711152
40
0.822094054953129
40
0.822094054953129
40
0.844312813195106
40
0.844312813195106
40
0.88875032967906
40
0.88875032967906
40
0.933187846163014
40
0.933187846163014
40
0.977625362646968
40
0.977625362646968
40
1
40
1
40
1
40
1
41
1
10
72.0873317716071
20
-8.19566180753128
30
0
41
1
10
71.7331512856874
20
-8.21828067381165
30
0
41
1
10
71.379057091537
20
-8.23370199866389
30
0
41
1
10
70.6706425465692
20
-8.25013257167947
30
0
41
1
10
70.3160858411457
20
-8.25113521423336
30
0
41
1
10
69.2533170726798
20
-8.23251641992101
30
0
41
1
10
68.5465242578748
20
-8.19132588327452
30
0
41
1
10
67.1330079568162
20
-8.05240652986421
30
0
41
1
10
66.4262418813178
20
-7.95468236863354
30
0
41
1
10
65.3633995816255
20
-7.76654701458619
30
0
41
1
10
65.0089165925002
20
-7.6969534070239
30
0
41
1
10
64.3011722124088
20
-7.54472426975366
30
0
41
1
10
63.9476172340913
20
-7.46203832590243
30
0
41
1
10
62.8872520206235
20
-7.19482279664169
30
0
41
1
10
62.1807161568919
20
-6.9911572044868
30
0
41
1
10
61.1188922536773
20
-6.64959100671098
30
0
41
1
10
60.7642966035592
20
-6.52959316235678
30
0
41
1
10
60.0558095720933
20
-6.27864938044797
30
0
41
1
10
59.7019868545692
20
-6.14774445954544
30
0
41
1
10
58.6410993973585
20
-5.7396248577345
30
0
41
1
10
57.9346156534614
20
-5.4470093422949
30
0
41
1
10
56.8735300034497
20
-4.98059337953157
30
0
41
1
10
56.5196093513377
20
-4.82053583885065
30
0
41
1
10
55.8108218235651
20
-4.49191080596938
30
0
41
1
10
55.4563271667392
20
-4.32351537798107
30
0
41
1
10
54.3945923805709
20
-3.80826463477115
30
0
41
1
10
53.6880235540363
20
-3.45091131218175
30
0
41
1
10
52.6273734689327
20
-2.89846617941674
30
0
41
1
10
52.2737034480797
20
-2.71156054602949
30
0
41
1
10
51.5656273994362
20
-2.33304928824347
30
0
41
1
10
51.2108954264332
20
-2.1412541388006
30
0
41
1
10
49.4394862679934
20
-1.17482028887227
30
0
41
1
10
48.028975723162
20
-0.37840549208363
30
0
41
1
10
45.9020932217867
20
0.81364659045127
30
0
41
1
10
45.194155919884
20
1.20884300174976
30
0
41
1
10
43.7799245891455
20
1.98708915565683
30
0
41
1
10
43.0731102130933
20
2.37037461932144
30
0
41
1
10
42.0107480969817
20
2.9320254113741
30
0
41
1
10
41.6559550384134
20
3.11720838298359
30
0
41
1
10
40.9473545596106
20
3.48124128962456
30
0
41
1
10
40.5934628604933
20
3.6601492796498
30
0
41
1
10
39.5323384782479
20
4.18651307920101
30
0
41
1
10
38.825610975165
20
4.52353854222034
30
0
41
1
10
37.4101293140878
20
5.16464522053457
30
0
41
1
10
36.7003000565587
20
5.46926461842986
30
0
41
1
10
35.2844629166435
20
6.03639214742878
30
0
41
1
10
34.5776451784569
20
6.29926902376269
30
0
41
1
10
33.5165324522342
20
6.65966253103247
30
0
41
1
10
33.1626913554894
20
6.77415141080508
30
0
41
1
10
32.4543165289464
20
6.9913527286441
30
0
41
1
10
32.0994650098742
20
7.09413103767386
30
0
41
1
10
31.0364969781489
20
7.3830109077557
30
0
41
1
10
30.3293627699799
20
7.54990548307075
30
0
41
1
10
28.9147664967374
20
7.8301727419568
30
0
41
1
10
28.2074177067072
20
7.94359719127456
30
0
41
1
10
26.788754878412
20
8.11452406797326
30
0
41
1
10
26.0809230541452
20
8.17158899056321
30
0
41
1
10
25.0173817308851
20
8.2143748919556
30
0
41
1
10
24.6613022334069
20
8.22145707043839
30
0
41
1
10
24.3050689198198
20
8.22127138692935
30
0
0
SPLINE
5
D0
100
AcDbEntity
8
1
62
256
6
ByLayer
370
18
48
1
60
0
100
AcDbSpline
70
4
71
3
72
10
73
6
40
0
40
0
40
0
40
0
40
0.5
40
0.5
40
1
40
1
40
1
40
1
41
1
10
4.00000046024192
20
-1.36307202865044
30
0
41
1
10
4.00000046024192
20
-1.40017426933804
30
0
41
1
10
4.01140317441573
20
-1.43814761254478
30
0
41
1
10
4.05524250587999
20
-1.50411191485844
30
0
41
1
10
4.08820947202997
20
-1.53339093288494
30
0
41
1
10
4.13069226381521
20
-1.55335042193346
30
0
0
SPLINE
5
D1
100
AcDbEntity
8
1
62
256
6
ByLayer
370
18
48
1
60
0
100
AcDbSpline
70
4
71
3
72
14
73
10
40
0
40
0
40
0
40
0
40
0.365397677710635
40
0.365397677710635
40
0.843981648115123
40
0.843981648115123
40
0.963627640716243
40
0.963627640716243
40
1
40
1
40
1
40
1
41
1
10
24.479576082186
20
-7.86630550063398
30
0
41
1
10
23.3965861191068
20
-7.86432967790736
30
0
41
1
10
22.3196941306718
20
-7.79816563475293
30
0
41
1
10
19.8326489852399
20
-7.50215185244727
30
0
41
1
10
18.4228748312234
20
-7.22803268614075
30
0
41
1
10
16.6447370283328
20
-6.76044169444393
30
0
41
1
10
16.2876666167608
20
-6.66048381451407
30
0
41
1
10
15.822946527234
20
-6.52278859485043
30
0
41
1
10
15.7146975591208
20
-6.49017700603139
30
0
41
1
10
15.6065322264179
20
-6.45706429967638
30
0
0
SPLINE
5
D2
100
AcDbEntity
8
1
62
256
6
ByLayer
370
13
48
1
60
0
100
AcDbSpline
70
4
71
3
72
18
73
14
40
0
40
0
40
0
40
0
40
0.065071070988692
40
0.065071070988692
40
0.252056856790954
40
0.252056856790954
40
0.626028428395477
40
0.626028428395477
40
0.813014214197739
40
0.813014214197739
40
0.90650710709887
40
0.90650710709887
40
1
40
1
40
1
40
1
41
1
10
15.6065322261156
20
-6.45706429958386
30
0
41
1
10
15.3588903236698
20
-6.38125356251851
30
0
41
1
10
15.1116868128751
20
-6.30281611814087
30
0
41
1
10
14.1555014116413
20
-5.98926278438782
30
0
41
1
10
13.4490650023012
20
-5.73596267716297
30
0
41
1
10
11.3335383423523
20
-4.92097850709374
30
0
41
1
10
9.92891838956095
20
-4.3035927321321
30
0
41
1
10
7.81016143996843
20
-3.2974208016467
30
0
41
1
10
7.10206532592801
20
-2.94847005652392
30
0
41
1
10
6.03475219185108
20
-2.40859621458236
30
0
41
1
10
5.67769068768428
20
-2.2257532898789
30
0
41
1
10
4.96394843755377
20
-1.85673697143284
30
0
41
1
10
4.60714571937268
20
-1.67050425585737
30
0
41
1
10
4.25021139249398
20
-1.48290582372789
30
0
0
SPLINE
5
D3
100
AcDbEntity
8
1
62
256
6
ByLayer
370
18
48
1
60
0
100
AcDbSpline
70
4
71
3
72
16
73
12
40
0
40
0
40
0
40
0
40
0.113147745336762
40
0.113147745336762
40
0.226295490673524
40
0.226295490673524
40
0.452590981347048
40
0.452590981347048
40
0.905181962694097
40
0.905181962694097
40
1
40
1
40
1
40
1
41
1
10
4.20248860808317
20
-1.58794060977223
30
0
41
1
10
4.55962514787845
20
-1.77760243106619
30
0
41
1
10
4.91662442973472
20
-1.96579692379333
30
0
41
1
10
5.63075267261519
20
-2.33853724575351
30
0
41
1
10
5.98800436094376
20
-2.52314229025174
30
0
41
1
10
7.05580757360971
20
-3.06795096685178
30
0
41
1
10
7.76414696985555
20
-3.4197336031888
30
0
41
1
10
9.8835491085149
20
-4.43294697887296
30
0
41
1
10
11.2884570929649
20
-5.05319899753803
30
0
41
1
10
12.9947702591653
20
-5.71155022175609
30
0
41
1
10
13.2905532392045
20
-5.82228053022138
30
0
41
1
10
13.5866863843727
20
-5.92953520305818
30
0
0
SPLINE
5
D4
100
AcDbEntity
8
1
62
256
6
ByLayer
370
13
48
1
60
0
100
AcDbSpline
70
4
71
3
72
18
73
14
40
0
40
0
40
0
40
0
40
0.0962077222481155
40
0.0962077222481155
40
0.17900283509083
40
0.17900283509083
40
0.261797947933545
40
0.261797947933545
40
0.592978399304404
40
0.592978399304404
40
0.924158850675264
40
0.924158850675264
40
1
40
1
40
1
40
1
41
1
10
13.5866868066467
20
-5.92953535599909
30
0
41
1
10
13.9973135142658
20
-6.07825775501485
30
0
41
1
10
14.4086134981634
20
-6.22029741353072
30
0
41
1
10
15.1757298106979
20
-6.47129079246719
30
0
41
1
10
15.5312942132063
20
-6.5820882744971
30
0
41
1
10
16.2444218067746
20
-6.79238856949405
30
0
41
1
10
16.6016689848358
20
-6.89177279544404
30
0
41
1
10
18.3805837611144
20
-7.35587225173259
30
0
41
1
10
19.7907421004297
20
-7.6252627922004
30
0
41
1
10
22.6121506604324
20
-7.94815839983974
30
0
41
1
10
24.0230945049557
20
-8.00160414708824
30
0
41
1
10
25.7743129149796
20
-7.92864029938607
30
0
41
1
10
26.1016405157571
20
-7.909070748434
30
0
41
1
10
26.4279636698078
20
-7.88371150218643
30
0
0
SPLINE
5
D5
100
AcDbEntity
8
1
62
256
6
ByLayer
370
13
48
1
60
0
100
AcDbSpline
70
4
71
3
72
10
73
6
40
0
40
0
40
0
40
0
40
0.5
40
0.5
40
1
40
1
40
1
40
1
41
1
10
4.00000046024192
20
-1.36307202865044
30
0
41
1
10
4.00000046024192
20
-1.38048639326521
30
0
41
1
10
4.01138608256431
20
-1.3981482655359
30
0
41
1
10
4.05522711502692
20
-1.42856624723058
30
0
41
1
10
4.08821569348538
20
-1.44192380460751
30
0
41
1
10
4.13069226381523
20
-1.45098391880828
30
0
0
SPLINE
5
D6
100
AcDbEntity
8
1
62
256
6
ByLayer
370
13
48
1
60
0
100
AcDbSpline
70
4
71
3
72
8
73
4
40
0
40
0
40
0
40
0
40
1
40
1
40
1
40
1
41
1
10
4.13069226381521
20
-1.55335042193346
30
0
41
1
10
4.15317365210441
20
-1.56295084739901
30
0
41
1
10
4.17758688255617
20
-1.57471623732488
30
0
41
1
10
4.20248860808317
20
-1.58794060977223
30
0
0
SPLINE
5
D7
100
AcDbEntity
8
1
62
256
6
ByLayer
370
18
48
1
60
0
100
AcDbSpline
70
4
71
3
72
96
73
92
40
0
40
0
40
0
40
0
40
0.0332568405995967
40
0.0332568405995967
40
0.0498852608993947
40
0.0498852608993947
40
0.0665136811991927
40
0.0665136811991927
40
0.099770521798788
40
0.099770521798788
40
0.116398942098586
40
0.116398942098586
40
0.133027362398383
40
0.133027362398383
40
0.166284202997979
40
0.166284202997979
40
0.199541043597574
40
0.199541043597574
40
0.216169463897371
40
0.216169463897371
40
0.232797884197169
40
0.232797884197169
40
0.249426304496966
40
0.249426304496966
40
0.266054724796763
40
0.266054724796763
40
0.299311565396357
40
0.299311565396357
40
0.315939985696154
40
0.315939985696154
40
0.332568405995951
40
0.332568405995951
40
0.365825246595545
40
0.365825246595545
40
0.399082087195138
40
0.399082087195138
40
0.415710507494935
40
0.415710507494935
40
0.432338927794732
40
0.432338927794732
40
0.448967348094529
40
0.448967348094529
40
0.465595768394326
40
0.465595768394326
40
0.49885260899392
40
0.49885260899392
40
0.532109449593514
40
0.532109449593514
40
0.548737869893312
40
0.548737869893312
40
0.565366290193109
40
0.565366290193109
40
0.598623130792704
40
0.598623130792704
40
0.615251551092502
40
0.615251551092502
40
0.631879971392299
40
0.631879971392299
40
0.648508391692097
40
0.648508391692097
40
0.665136811991895
40
0.665136811991895
40
0.69839365259149
40
0.69839365259149
40
0.715022072891288
40
0.715022072891288
40
0.731650493191085
40
0.731650493191085
40
0.764907333790681
40
0.764907333790681
40
0.781535754090478
40
0.781535754090478
40
0.798164174390276
40
0.798164174390276
40
0.831421014989872
40
0.831421014989872
40
0.864677855589468
40
0.864677855589468
40
0.897934696189064
40
0.897934696189064
40
0.914563116488862
40
0.914563116488862
40
0.93119153678866
40
0.93119153678866
40
0.964448377388256
40
0.964448377388256
40
0.981076797688054
40
0.981076797688054
40
0.997705217987852
40
0.997705217987852
40
1
40
1
40
1
40
1
41
1
10
22.9959365312778
20
8.22027432062876
30
0
41
1
10
23.5128531528511
20
8.22268698034327
30
0
41
1
10
24.0287073909895
20
8.20969238632833
30
0
41
1
10
24.7999520887268
20
8.167937619073
30
0
41
1
10
25.0566168345752
20
8.1502925911457
30
0
41
1
10
25.5689736464604
20
8.10751066867545
30
0
41
1
10
25.8245186384943
20
8.08231024220396
30
0
41
1
10
26.5912320937102
20
7.99594968313536
30
0
41
1
10
27.1024777498619
20
7.92418469202971
30
0
41
1
10
27.868406222503
20
7.79509204665339
30
0
41
1
10
28.123574522544
20
7.74847965071413
30
0
41
1
10
28.6334687938455
20
7.64790558931043
30
0
41
1
10
28.8883256169421
20
7.59400911116933
30
0
41
1
10
29.6542581014236
20
7.42268248296256
30
0
41
1
10
30.1659763434244
20
7.29521798296179
30
0
41
1
10
31.1904680671292
20
7.01263410661227
30
0
41
1
10
31.702833236415
20
6.8569348187313
30
0
41
1
10
32.4757220897474
20
6.60564559551727
30
0
41
1
10
32.733898416649
20
6.51876933125897
30
0
41
1
10
33.2512174726088
20
6.33857361769603
30
0
41
1
10
33.510096000225
20
6.24534053998005
30
0
41
1
10
34.0257971608772
20
6.0532426701337
30
0
41
1
10
34.2828270456885
20
5.95408917214786
30
0
41
1
10
34.7966865632173
20
5.75147826666347
30
0
41
1
10
35.0534490654424
20
5.64794695647447
30
0
41
1
10
35.8228736101418
20
5.33030098977193
30
0
41
1
10
36.334714965461
20
5.10921590377038
30
0
41
1
10
37.1000687247014
20
4.76248948315035
30
0
41
1
10
37.3550088014208
20
4.64471209662602
30
0
41
1
10
37.8653501271151
20
4.4060276804945
30
0
41
1
10
38.1205954031608
20
4.28489110759406
30
0
41
1
10
38.8863330360393
20
3.91578900999366
30
0
41
1
10
39.396526621116
20
3.66165546128966
30
0
41
1
10
40.4172324812136
20
3.13841655559901
30
0
41
1
10
40.9293391727359
20
2.87200675301551
30
0
41
1
10
41.6991443438811
20
2.46355316616376
30
0
41
1
10
41.9560292002856
20
2.32593655354356
30
0
41
1
10
42.4702204270892
20
2.04743516116582
30
0
41
1
10
42.7274385758591
20
1.90637557899024
30
0
41
1
10
43.2435742068793
20
1.62328464600677
30
0
41
1
10
43.5026746925702
20
1.48087216403542
30
0
41
1
10
44.0193910205651
20
1.19572430933994
30
0
41
1
10
44.2772680876808
20
1.05287553055294
30
0
41
1
10
45.0492657797275
20
0.62313157150399
30
0
41
1
10
45.5610996687083
20
0.333839749485009
30
0
41
1
10
46.5847575344339
20
-0.239895407209701
30
0
41
1
10
47.0960658819779
20
-0.525324413572378
30
0
41
1
10
47.8614322735406
20
-0.952820340854885
30
0
41
1
10
48.1161507706518
20
-1.09545562082892
30
0
41
1
10
48.6257392995685
20
-1.37925960228725
30
0
41
1
10
48.880802836473
20
-1.52008335680841
30
0
41
1
10
49.6464050233358
20
-1.94005251952004
30
0
41
1
10
50.1573920682334
20
-2.21663819900257
30
0
41
1
10
50.9238989337868
20
-2.62786793073065
30
0
41
1
10
51.1793718548871
20
-2.76438919445133
30
0
41
1
10
51.6916660363457
20
-3.03386208510847
30
0
41
1
10
51.9483279511726
20
-3.16709477634333
30
0
41
1
10
52.4624779925728
20
-3.43090459982057
30
0
41
1
10
52.7199756331863
20
-3.56146519377856
30
0
41
1
10
53.2356927404344
20
-3.82009159028567
30
0
41
1
10
53.4941337323633
20
-3.94837586053757
30
0
41
1
10
54.2687999606871
20
-4.32825937025541
30
0
41
1
10
54.7838905092254
20
-4.57146286560297
30
0
41
1
10
55.5543422479343
20
-4.92211839440154
30
0
41
1
10
55.810759187458
20
-5.03669343493038
30
0
41
1
10
56.3226514233633
20
-5.26142850924808
30
0
41
1
10
56.5779787396871
20
-5.37178547183908
30
0
41
1
10
57.3438956207157
20
-5.69430886367056
30
0
41
1
10
57.8547114440059
20
-5.89764816715095
30
0
41
1
10
58.620100583817
20
-6.18692103774251
30
0
41
1
10
58.8751114916843
20
-6.28068491573353
30
0
41
1
10
59.3847231131012
20
-6.46302697767766
30
0
41
1
10
59.6393867696009
20
-6.5515156431309
30
0
41
1
10
60.404815392612
20
-6.80689135602731
30
0
41
1
10
60.9162826457241
20
-6.96459429701795
30
0
41
1
10
61.9404096801428
20
-7.25592255757206
30
0
41
1
10
62.452584368665
20
-7.38983285664398
30
0
41
1
10
63.4828033484305
20
-7.62890584793047
30
0
41
1
10
64.0015599608184
20
-7.7349661998486
30
0
41
1
10
64.7744357899899
20
-7.87220105569892
30
0
41
1
10
65.0312269408523
20
-7.91441431521488
30
0
41
1
10
65.5444957451895
20
-7.99109529007404
30
0
41
1
10
65.8009728638852
20
-8.02559116898067
30
0
41
1
10
66.5695382985129
20
-8.11795294615442
30
0
41
1
10
67.0808333402659
20
-8.16471279503452
30
0
41
1
10
67.8453131217611
20
-8.21280185312082
30
0
41
1
10
68.0998832676094
20
-8.22509263851904
30
0
41
1
10
68.6095275817424
20
-8.24212949882377
30
0
41
1
10
68.8644311448232
20
-8.24691217771664
30
0
41
1
10
69.1545144160623
20
-8.24813849454804
30
0
41
1
10
69.1896912930904
20
-8.24821669806497
30
0
41
1
10
69.2248672441378
20
-8.24822429375416
30
0
0
SPLINE
5
D8
100
AcDbEntity
8
1
62
256
6
ByLayer
370
18
48
1
60
0
100
AcDbSpline
70
4
71
3
72
16
73
12
40
0
40
0
40
0
40
0
40
0.250000000000002
40
0.250000000000002
40
0.375000000000003
40
0.375000000000003
40
0.500000000000004
40
0.500000000000004
40
0.750000000000002
40
0.750000000000002
40
1
40
1
40
1
40
1
41
1
10
70.939777474757
20
2.06468704442506
30
0
41
1
10
70.9299969210524
20
2.09283051187069
30
0
41
1
10
70.9236616622595
20
2.121954701155
30
0
41
1
10
70.922435395042
20
2.16727844985178
30
0
41
1
10
70.9234546700989
20
2.18230687357374
30
0
41
1
10
70.9290477421185
20
2.21215904671377
30
0
41
1
10
70.9335569825598
20
2.22715997088437
30
0
41
1
10
70.953138563215
20
2.2690557382987
30
0
41
1
10
70.9758215575252
20
2.2929268582665
30
0
41
1
10
71.029411163867
20
2.32566620933187
30
0
41
1
10
71.059812382188
20
2.33543686336483
30
0
41
1
10
71.0908252649773
20
2.34099726219847
30
0
0
SPLINE
5
D9
100
AcDbEntity
8
1
62
256
6
ByLayer
370
18
48
1
60
0
100
AcDbSpline
70
4
71
3
72
40
73
36
40
0
40
0
40
0
40
0
40
0.250000000000003
40
0.250000000000003
40
0.375000000000003
40
0.375000000000003
40
0.437500000000001
40
0.437500000000001
40
0.5
40
0.5
40
0.625
40
0.625
40
0.75
40
0.75
40
0.781250000000001
40
0.781250000000001
40
0.812500000000003
40
0.812500000000003
40
0.843750000000005
40
0.843750000000005
40
0.859375000000004
40
0.859375000000004
40
0.875000000000004
40
0.875000000000004
40
0.890625000000003
40
0.890625000000003
40
0.906250000000003
40
0.906250000000003
40
0.921875000000002
40
0.921875000000002
40
0.937500000000002
40
0.937500000000002
40
0.968750000000001
40
0.968750000000001
40
1
40
1
40
1
40
1
41
1
10
63.5856072231738
20
3.84350307257353
30
0
41
1
10
64.2543352193694
20
3.32517562404854
30
0
41
1
10
64.936685202831
20
2.85359088216293
30
0
41
1
10
65.9853086446765
20
2.23233705229902
30
0
41
1
10
66.339001806297
20
2.03949973126115
30
0
41
1
10
66.8766246873338
20
1.77454894566964
30
0
41
1
10
67.0574411615069
20
1.69011247338682
30
0
41
1
10
67.4195503419131
20
1.5310074722031
30
0
41
1
10
67.6004343697464
20
1.45649437710557
30
0
41
1
10
68.1425468670388
20
1.24889761011153
30
0
41
1
10
68.5032397468924
20
1.13163837360821
30
0
41
1
10
69.2229688623153
20
0.946066818509962
30
0
41
1
10
69.5826243824857
20
0.877817533288805
30
0
41
1
10
70.0227936112105
20
0.830481933330759
30
0
41
1
10
70.1097227481984
20
0.825823252481626
30
0
41
1
10
70.2798146887532
20
0.827265722921197
30
0
41
1
10
70.3636196361949
20
0.833404005792403
30
0
41
1
10
70.5235189766941
20
0.86003327763612
30
0
41
1
10
70.599764770834
20
0.880174103847907
30
0
41
1
10
70.705671399712
20
0.925980802088077
30
0
41
1
10
70.7395118360243
20
0.943943728651647
30
0
41
1
10
70.803799882806
20
0.986122510909809
30
0
41
1
10
70.8340463091794
20
1.01020166541659
30
0
41
1
10
70.8889788433572
20
1.06347598740805
30
0
41
1
10
70.9139132256833
20
1.09279909000895
30
0
41
1
10
70.9582090424972
20
1.1573573385549
30
0
41
1
10
70.9776364119587
20
1.19293618477616
30
0
41
1
10
71.0092177593675
20
1.26812571668123
30
0
41
1
10
71.0215433135133
20
1.3078950737692
30
0
41
1
10
71.0393133829594
20
1.39175209379957
30
0
41
1
10
71.0447739178215
20
1.4361012458339
30
0
41
1
10
71.0508866283656
20
1.57372606049171
30
0
41
1
10
71.0413095843032
20
1.66941704285114
30
0
41
1
10
71.0026395692244
20
1.86643285581559
30
0
41
1
10
70.9742789301978
20
1.96540937392163
30
0
41
1
10
70.939777474757
20
2.06468704442506
30
0
0
SPLINE
5
DA
100
AcDbEntity
8
1
62
256
6
ByLayer
370
18
48
1
60
0
100
AcDbSpline
70
4
71
3
72
18
73
14
40
0
40
0
40
0
40
0
40
0.254412480726239
40
0.254412480726239
40
0.3180156009078
40
0.3180156009078
40
0.381618721089361
40
0.381618721089361
40
0.508824961452483
40
0.508824961452483
40
0.76323744217873
40
0.76323744217873
40
1
40
1
40
1
40
1
41
1
10
22.9959055949962
20
8.22027439555475
30
0
41
1
10
21.9816135381975
20
8.2155445674544
30
0
41
1
10
20.9560691178595
20
8.15152937236795
30
0
41
1
10
19.6531367105347
20
8.01857143535992
30
0
41
1
10
19.3912727226692
20
7.98931437582348
30
0
41
1
10
18.8667804654649
20
7.92631841462389
30
0
41
1
10
18.6040455338415
20
7.89257288388683
30
0
41
1
10
17.814099934389
20
7.78564325641628
30
0
41
1
10
17.285145575311
20
7.70675490674009
30
0
41
1
10
15.6891611534348
20
7.45613168152605
30
0
41
1
10
14.6129034535368
20
7.27046089477054
30
0
41
1
10
12.5020071005706
20
6.92375785222472
30
0
41
1
10
11.4696733351813
20
6.76215122242078
30
0
41
1
10
10.4198765846874
20
6.62415536030619
30
0
0
SPLINE
5
DB
100
AcDbEntity
8
1
62
256
6
ByLayer
370
18
48
1
60
0
100
AcDbSpline
70
4
71
3
72
8
73
4
40
0
40
0
40
0
40
0
40
1
40
1
40
1
40
1
41
1
10
3.73761876833748
20
8.20894343397094
30
0
41
1
10
3.82396214011962
20
8.20888485581628
30
0
41
1
10
3.91148025683756
20
8.20750243772514
30
0
41
1
10
4.00000046024181
20
8.20493811201328
30
0
0
SPLINE
5
DC
100
AcDbEntity
8
1
62
256
6
ByLayer
370
18
48
1
60
0
100
AcDbSpline
70
2053
71
3
72
80
73
76
40
0
40
0
40
0
40
0
40
0.0312500000000013
40
0.0312500000000013
40
0.0468750000000007
40
0.0468750000000007
40
0.0625000000000001
40
0.0625000000000001
40
0.093749999999999
40
0.093749999999999
40
0.109374999999998
40
0.109374999999998
40
0.124999999999998
40
0.124999999999998
40
0.156249999999997
40
0.156249999999997
40
0.171874999999997
40
0.171874999999997
40
0.187499999999997
40
0.187499999999997
40
0.218749999999997
40
0.218749999999997
40
0.249999999999997
40
0.249999999999997
40
0.281249999999998
40
0.281249999999998
40
0.312499999999998
40
0.312499999999998
40
0.343749999999998
40
0.343749999999998
40
0.374999999999998
40
0.374999999999998
40
0.406249999999998
40
0.406249999999998
40
0.437499999999998
40
0.437499999999998
40
0.468749999999998
40
0.468749999999998
40
0.499999999999998
40
0.499999999999998
40
0.531249999999999
40
0.531249999999999
40
0.562499999999999
40
0.562499999999999
40
0.578124999999999
40
0.578124999999999
40
0.593749999999999
40
0.593749999999999
40
0.624999999999999
40
0.624999999999999
40
0.640624999999999
40
0.640624999999999
40
0.65625
40
0.65625
40
0.6875
40
0.6875
40
0.71875
40
0.71875
40
0.75
40
0.75
40
0.78125
40
0.78125
40
0.8125
40
0.8125
40
0.84375
40
0.84375
40
0.875
40
0.875
40
0.90625
40
0.90625
40
0.9375
40
0.9375
40
0.96875
40
0.96875
40
1
40
1
40
1
40
1
41
1
10
72.6181648099553
20
-4.80884178800321
30
0
41
1
10
72.6558186853971
20
-4.7556978594769
30
0
41
1
10
72.6927295893489
20
-4.69865123956316
30
0
41
1
10
72.746876990083
20
-4.60667834703349
30
0
41
1
10
72.764721603767
20
-4.57494640962659
30
0
41
1
10
72.7999622731621
20
-4.50912633970034
30
0
41
1
10
72.8173933844542
20
-4.47494481457045
30
0
41
1
10
72.8677380010862
20
-4.37095925751171
30
0
41
1
10
72.8991263987025
20
-4.29903907107141
30
0
41
1
10
72.9424029375405
20
-4.18661450978115
30
0
41
1
10
72.956091036248
20
-4.14858218575219
30
0
41
1
10
72.9812734458781
20
-4.07326250099595
30
0
41
1
10
72.9928720734699
20
-4.03571048101975
30
0
41
1
10
73.0245976489981
20
-3.9233879446638
30
0
41
1
10
73.0417864095935
20
-3.84786663182572
30
0
41
1
10
73.0594589395333
20
-3.7423701709485
30
0
41
1
10
73.0640825291773
20
-3.70827739306094
30
0
41
1
10
73.0708318147132
20
-3.64220626263884
30
0
41
1
10
73.0729512678049
20
-3.61004535796366
30
0
41
1
10
73.075481500745
20
-3.51917380645512
30
0
41
1
10
73.0722230841953
20
-3.4652265996009
30
0
41
1
10
73.0569193740652
20
-3.36979294205227
30
0
41
1
10
73.0451248801031
20
-3.32969963040639
30
0
41
1
10
73.0145393830954
20
-3.26238837669254
30
0
41
1
10
72.9957045421248
20
-3.23543339808367
30
0
41
1
10
72.9532532404045
20
-3.19476564125878
30
0
41
1
10
72.929481689453
20
-3.18071015257419
30
0
41
1
10
72.8772915363776
20
-3.16405916864628
30
0
41
1
10
72.8489418873437
20
-3.16160147506508
30
0
41
1
10
72.7895393841742
20
-3.16755077110264
30
0
41
1
10
72.7582919979378
20
-3.17588989117959
30
0
41
1
10
72.6927810916766
20
-3.20303291550576
30
0
41
1
10
72.6586407038326
20
-3.22185718760272
30
0
41
1
10
72.5892076059351
20
-3.26889273206379
30
0
41
1
10
72.5537015480302
20
-3.29718208909523
30
0
41
1
10
72.4810501081844
20
-3.36366844713299
30
0
41
1
10
72.4435980749069
20
-3.40224180182057
30
0
41
1
10
72.3689318331815
20
-3.48816164892105
30
0
41
1
10
72.3316283881848
20
-3.53550624922181
30
0
41
1
10
72.2570866762212
20
-3.63982565227403
30
0
41
1
10
72.219470882012
20
-3.69746008135178
30
0
41
1
10
72.1468194697324
20
-3.82017422207173
30
0
41
1
10
72.1116822075465
20
-3.88525779818835
30
0
41
1
10
72.0610638431395
20
-3.98942885459624
30
0
41
1
10
72.0445042202056
20
-4.02536793741143
30
0
41
1
10
72.0129998202439
20
-4.09778544398529
30
0
41
1
10
71.997948987576
20
-4.13446933222392
30
0
41
1
10
71.9550148975046
20
-4.24602383735814
30
0
41
1
10
71.92909097518
20
-4.32345259724627
30
0
41
1
10
71.8974183475893
20
-4.4361208088369
30
0
41
1
10
71.8879694094438
20
-4.47329732335308
30
0
41
1
10
71.8713356688398
20
-4.54687517385585
30
0
41
1
10
71.8641060216182
20
-4.58357313019411
30
0
41
1
10
71.8464067975976
20
-4.68992700802826
30
0
41
1
10
71.8398142031799
20
-4.75570487362296
30
0
41
1
10
71.8363580778927
20
-4.87768507324404
30
0
41
1
10
71.839581936686
20
-4.93186471571318
30
0
41
1
10
71.854506265121
20
-5.02724595959347
30
0
41
1
10
71.8662782470996
20
-5.06832504665277
30
0
41
1
10
71.8964140563149
20
-5.13623623810864
30
0
41
1
10
71.9150513711868
20
-5.16372144571648
30
0
41
1
10
71.957499871121
20
-5.20551408172625
30
0
41
1
10
71.9812485299963
20
-5.21995296020799
30
0
41
1
10
72.0332929485406
20
-5.23719923057394
30
0
41
1
10
72.0616581633411
20
-5.23989214859924
30
0
41
1
10
72.1210862695069
20
-5.23419576866823
30
0
41
1
10
72.1523368691381
20
-5.22589126168293
30
0
41
1
10
72.2178186685485
20
-5.1986980585543
30
0
41
1
10
72.2521554455475
20
-5.17966735262252
30
0
41
1
10
72.32186951869
20
-5.13207666441929
30
0
41
1
10
72.3574750224689
20
-5.10345180309307
30
0
41
1
10
72.4302207763777
20
-5.03629906282993
30
0
41
1
10
72.4676122966155
20
-4.99747640889072
30
0
41
1
10
72.5427804145313
20
-4.91026531575372
30
0
41
1
10
72.5805109345135
20
-4.86198571652952
30
0
41
1
10
72.6181648099553
20
-4.80884178800321
30
0
0
SPLINE
5
DD
100
AcDbEntity
8
1
62
256
6
ByLayer
370
18
48
1
60
0
100
AcDbSpline
70
4
71
3
72
22
73
18
40
0
40
0
40
0
40
0
40
0.119731686202692
40
0.119731686202692
40
0.245484302459452
40
0.245484302459452
40
0.308360610587831
40
0.308360610587831
40
0.371236918716212
40
0.371236918716212
40
0.49698953497297
40
0.49698953497297
40
0.748494767486485
40
0.748494767486485
40
0.874247383743243
40
0.874247383743243
40
1
40
1
40
1
40
1
41
1
10
4.30037228021328
20
7.8537262852218
30
0
41
1
10
4.63151713405273
20
7.84901858345432
30
0
41
1
10
4.97928288006415
20
7.82441496553236
30
0
41
1
10
5.71301068009757
20
7.74493933196419
30
0
41
1
10
6.10027400391323
20
7.68839879860883
30
0
41
1
10
6.69309384428746
20
7.58462044111067
30
0
41
1
10
6.89303677886249
20
7.54674776702012
30
0
41
1
10
7.29390638902495
20
7.46552235725409
30
0
41
1
10
7.49508296170069
20
7.4220921271212
30
0
41
1
10
8.10044409032682
20
7.28460791086906
30
0
41
1
10
8.50643500491807
20
7.18341674604704
30
0
41
1
10
9.73096580616789
20
6.84956290680853
30
0
41
1
10
10.5554929422998
20
6.58945314920513
30
0
41
1
10
11.8051499744749
20
6.15994823238285
30
0
41
1
10
12.223834433014
20
6.0107875654499
30
0
41
1
10
13.0667463608474
20
5.69959335311603
30
0
41
1
10
13.4910225139778
20
5.53733056482034
30
0
41
1
10
13.918642457093
20
5.37055252147664
30
0
0
SPLINE
5
DE
100
AcDbEntity
8
1
62
256
6
ByLayer
370
18
48
1
60
0
100
AcDbSpline
70
4
71
3
72
8
73
4
40
0
40
0
40
0
40
0
40
1
40
1
40
1
40
1
41
1
10
72.0873317716071
20
-8.19566180753128
30
0
41
1
10
72.1194492841163
20
-8.10910016192122
30
0
41
1
10
72.1515456160632
20
-8.02247756288432
30
0
41
1
10
72.1836207227917
20
-7.93579388190975
30
0
0
SPLINE
5
DF
100
AcDbEntity
8
SK1
62
256
6
ByLayer
370
18
48
1
60
0
100
AcDbSpline
70
4
71
3
72
12
73
8
40
0
40
0
40
0
40
0
40
0.25
40
0.25
40
0.5
40
0.5
40
1
40
1
40
1
40
1
41
1
10
-47.4673321444896
20
4.76022305431266
30
0
41
1
10
-47.5008867772746
20
4.73144885648875
30
0
41
1
10
-47.5356470517969
20
4.69764558926011
30
0
41
1
10
-47.6078389592321
20
4.62023909881316
30
0
41
1
10
-47.6455116520268
20
4.5763324290165
30
0
41
1
10
-47.7616543447413
20
4.43089518996325
30
0
41
1
10
-47.8409667019048
20
4.31917975051192
30
0
41
1
10
-47.9231504704073
20
4.19038301105826
30
0
0
SPLINE
5
E0
100
AcDbEntity
8
SK1
62
256
6
ByLayer
370
18
48
1
60
0
100
AcDbSpline
70
4
71
3
72
8
73
4
40
0
40
0
40
0
40
0
40
1
40
1
40
1
40
1
41
1
10
-47.9231504704073
20
4.1903830110582
30
0
41
1
10
-47.9488170824629
20
4.15791152514757
30
0
41
1
10
-47.9744351284325
20
4.12542377909321
30
0
41
1
10
-48
20
4.09291823001016
30
0
0
SPLINE
5
E1
100
AcDbEntity
8
SK1
62
256
6
ByLayer
370
18
48
1
60
0
100
AcDbSpline
70
4
71
3
72
14
73
10
40
0
40
0
40
0
40
0
40
0.124999999999994
40
0.124999999999994
40
0.249999999999989
40
0.249999999999989
40
0.499999999999989
40
0.499999999999989
40
1
40
1
40
1
40
1
41
1
10
-45.5
20
7.08214979760751
30
0
41
1
10
-45.5
20
7.08859796193701
30
0
41
1
10
-45.5017107697461
20
7.09253742153157
30
0
41
1
10
-45.5068845888984
20
7.09670210315588
30
0
41
1
10
-45.5102281895671
20
7.09702165545954
30
0
41
1
10
-45.521528237522
20
7.09502563257334
30
0
41
1
10
-45.5303630420009
20
7.08988686079695
30
0
41
1
10
-45.558525242781
20
7.06899927339413
30
0
41
1
10
-45.5788396428357
20
7.04829209964544
30
0
41
1
10
-45.6
20
7.02298217768856
30
0
0
SPLINE
5
E2
100
AcDbEntity
8
SK1
62
256
6
ByLayer
370
18
48
1
60
0
100
AcDbSpline
70
4
71
3
72
14
73
10
40
0
40
0
40
0
40
0
40
0.500000000000004
40
0.500000000000004
40
0.750000000000002
40
0.750000000000002
40
0.875000000000001
40
0.875000000000001
40
1
40
1
40
1
40
1
41
1
10
-45.6
20
4.44482874096889
30
0
41
1
10
-45.5789465118596
20
4.47001083679166
30
0
41
1
10
-45.5585985142981
20
4.4995843086129
30
0
41
1
10
-45.5303873672755
20
4.55186307491999
30
0
41
1
10
-45.5214287539013
20
4.57058886791063
30
0
41
1
10
-45.5102864584886
20
4.60022376875889
30
0
41
1
10
-45.50688945626
20
4.61055789231847
30
0
41
1
10
-45.5017228477084
20
4.63150143587069
30
0
41
1
10
-45.5
20
4.64208723857456
30
0
41
1
10
-45.5
20
4.6513194144147
30
0
0
SPLINE
5
E3
100
AcDbEntity
8
SK1
62
256
6
ByLayer
370
18
48
1
60
0
100
AcDbSpline
70
4
71
3
72
10
73
6
40
0
40
0
40
0
40
0
40
0.5
40
0.5
40
1
40
1
40
1
40
1
41
1
10
-48
20
1.51476479329051
30
0
41
1
10
-47.6125332900688
20
2.00742590932512
30
0
41
1
10
-47.2139142402274
20
2.49659307171473
30
0
41
1
10
-46.4111695961855
20
3.47232945526451
30
0
41
1
10
-46.0062994004916
20
3.9588536679714
30
0
41
1
10
-45.6
20
4.44482874096889
30
0
0
SPLINE
5
E4
100
AcDbEntity
8
SK1
62
256
6
ByLayer
370
18
48
1
60
0
100
AcDbSpline
70
4
71
3
72
20
73
16
40
0
40
0
40
0
40
0
40
0.250000000000001
40
0.250000000000001
40
0.375000000000001
40
0.375000000000001
40
0.500000000000001
40
0.500000000000001
40
0.625
40
0.625
40
0.75
40
0.75
40
0.875
40
0.875
40
1
40
1
40
1
40
1
41
1
10
-47.9231504704053
20
4.19038301105473
30
0
41
1
10
-47.8456377932634
20
4.22062210178828
30
0
41
1
10
-47.770930422128
20
4.25341198935669
30
0
41
1
10
-47.6658225949511
20
4.30891922397225
30
0
41
1
10
-47.6319614205296
20
4.32848982358453
30
0
41
1
10
-47.5675660821935
20
4.37065619291383
30
0
41
1
10
-47.5367172286609
20
4.39350503124425
30
0
41
1
10
-47.4819641260247
20
4.44233346166934
30
0
41
1
10
-47.458007753872
20
4.46822508519574
30
0
41
1
10
-47.4204104515503
20
4.52446427417175
30
0
41
1
10
-47.4074674944289
20
4.55399424226573
30
0
41
1
10
-47.3976338661027
20
4.61542219287222
30
0
41
1
10
-47.4010610644642
20
4.64613636644853
30
0
41
1
10
-47.4239767552578
20
4.70586221162517
30
0
41
1
10
-47.4430292467694
20
4.73401362026138
30
0
41
1
10
-47.4673321444896
20
4.76022305431266
30
0
0
SPLINE
5
E5
100
AcDbEntity
8
SK1
62
256
6
ByLayer
370
18
48
1
60
0
100
AcDbSpline
70
4
71
3
72
10
73
6
40
0
40
0
40
0
40
0
40
0.5
40
0.5
40
1
40
1
40
1
40
1
41
1
10
-45.6
20
7.02298217768856
30
0
41
1
10
-45.9143220389911
20
6.64702130829377
30
0
41
1
10
-46.2277356110773
20
6.27071884199074
30
0
41
1
10
-46.851073965885
20
5.5168020733077
30
0
41
1
10
-47.1610991777587
20
5.13922553376497
30
0
41
1
10
-47.4673321444896
20
4.76022305431266
30
0
0
LINE
5
76
100
AcDbEntity
8
81
62
256
6
ByLayer
370
18
48
1
60
0
100
AcDbLine
10
75
20
0
30
0
11
80
21
0
31
0
39
0
210
0
220
0
230
1
0
LINE
5
77
100
AcDbEntity
8
1
62
256
6
ByLayer
370
18
48
1
60
0
100
AcDbLine
10
3.743
20
8.208937
30
0
11
1.381752
21
8.20752
31
0
39
0
210
0
220
0
230
1
0
LINE
5
79
100
AcDbEntity
8
1
62
256
6
ByLayer
370
18
48
1
60
0
100
AcDbLine
10
24.303342
20
8.221273
30
0
11
23.101709
21
8.220552
31
0
39
0
210
0
220
0
230
1
0
LINE
5
7A
100
AcDbEntity
8
1
62
256
6
ByLayer
370
18
48
1
60
0
100
AcDbLine
10
70.403896
20
8.248933
30
0
11
69.214997
21
8.24822
31
0
39
0
210
0
220
0
230
1
0
LINE
5
7B
100
AcDbEntity
8
1
62
256
6
ByLayer
370
18
48
1
60
0
100
AcDbLine
10
69.214997
20
-8.24822
30
0
11
70.403493
21
-8.248933
31
0
39
0
210
0
220
0
230
1
0
LINE
5
7C
100
AcDbEntity
8
1
62
256
6
ByLayer
370
18
48
1
60
0
100
AcDbLine
10
23.101709
20
-8.220552
30
0
11
24.303176
21
-8.221273
31
0
39
0
210
0
220
0
230
1
0
LINE
5
7D
100
AcDbEntity
8
1
62
256
6
ByLayer
370
18
48
1
60
0
100
AcDbLine
10
1.381752
20
-8.20752
30
0
11
3.743
21
-8.208937
31
0
39
0
210
0
220
0
230
1
0
LINE
5
7E
100
AcDbEntity
8
SK1
62
256
6
ByLayer
370
18
48
1
60
0
100
AcDbLine
10
0
20
9
30
0
11
-45.401924
21
9
31
0
39
0
210
0
220
0
230
1
0
LINE
5
80
100
AcDbEntity
8
SK1
62
256
6
ByLayer
370
18
48
1
60
0
100
AcDbLine
10
-45.401924
20
-9
30
0
11
0
21
-9
31
0
39
0
210
0
220
0
230
1
0
LINE
5
81
100
AcDbEntity
8
SK1
62
256
6
ByLayer
370
18
48
1
60
0
100
AcDbLine
10
-45.401924
20
9
30
0
11
-48
21
4.5
31
0
39
0
210
0
220
0
230
1
0
LINE
5
82
100
AcDbEntity
8
SK1
62
256
6
ByLayer
370
18
48
1
60
0
100
AcDbLine
10
-48
20
-4.5
30
0
11
-45.401924
21
-9
31
0
39
0
210
0
220
0
230
1
0
LINE
5
83
100
AcDbEntity
8
SK4
62
256
6
ByLayer
370
18
48
0.05
60
0
100
AcDbLine
10
80
20
0
30
0
11
-53
21
0
31
0
39
0
210
0
220
0
230
1
0
LINE
5
85
100
AcDbEntity
8
4
62
256
6
ByLayer
370
18
48
0.05
60
0
100
AcDbLine
10
75
20
0
30
0
11
0
21
0
31
0
39
0
210
0
220
0
230
1
0
LINE
5
87
100
AcDbEntity
8
80
62
256
6
ByLayer
370
18
48
1
60
0
100
AcDbLine
10
0
20
0
30
0
11
-5
21
0
31
0
39
0
210
0
220
0
230
1
0
LINE
5
88
100
AcDbEntity
8
1
62
256
6
ByLayer
370
13
48
1
60
0
100
AcDbLine
10
1.381752
20
8.20752
30
0
11
1.381752
21
-8.20752
31
0
39
0
210
0
220
0
230
1
0
LINE
5
89
100
AcDbEntity
8
1
62
256
6
ByLayer
370
13
48
1
60
0
100
AcDbLine
10
0.690636
20
8.60376
30
0
11
0.690636
21
-8.60376
31
0
39
0
210
0
220
0
230
1
0
LINE
5
8A
100
AcDbEntity
8
1
62
256
6
ByLayer
370
18
48
1
60
0
100
AcDbLine
10
70.844079
20
-4.588996
30
0
11
74.893372
21
-0.076132
31
0
39
0
210
0
220
0
230
1
0
LINE
5
8B
100
AcDbEntity
8
1
62
256
6
ByLayer
370
18
48
1
60
0
100
AcDbLine
10
0
20
-9
30
0
11
0
21
9
31
0
39
0
210
0
220
0
230
1
0
LINE
5
8C
100
AcDbEntity
8
1
62
256
6
ByLayer
370
13
48
1
60
0
100
AcDbLine
10
72.827868
20
1.376871
30
0
11
74.891979
21
0.354885
31
0
39
0
210
0
220
0
230
1
0
LINE
5
8D
100
AcDbEntity
8
1
62
256
6
ByLayer
370
18
48
1
60
0
100
AcDbLine
10
75
20
0
30
0
11
72.126475
21
-7.894944
31
0
39
0
210
0
220
0
230
1
0
LINE
5
8E
100
AcDbEntity
8
1
62
256
6
ByLayer
370
18
48
1
60
0
100
AcDbLine
10
74.891979
20
-0.354885
30
0
11
74.596057
21
-1.376871
31
0
39
0
210
0
220
0
230
1
0
LINE
5
8F
100
AcDbEntity
8
1
62
256
6
ByLayer
370
18
48
1
60
0
100
AcDbLine
10
75
20
0
30
0
11
74.981182
21
-0.076291
31
0
39
0
210
0
220
0
230
1
0
LINE
5
90
100
AcDbEntity
8
1
62
256
6
ByLayer
370
18
48
1
60
0
100
AcDbLine
10
74.981182
20
0.076291
30
0
11
75
21
0
31
0
39
0
210
0
220
0
230
1
0
LINE
5
91
100
AcDbEntity
8
1
62
256
6
ByLayer
370
13
48
1
60
0
100
AcDbLine
10
4.250537
20
-7.852995
30
0
11
4.250542
21
-7.854285
31
0
39
0
210
0
220
0
230
1
0
LINE
5
92
100
AcDbEntity
8
1
62
256
6
ByLayer
370
13
48
1
60
0
100
AcDbLine
10
72.658409
20
1.030446
30
0
11
74.893372
21
-0.076132
31
0
39
0
210
0
220
0
230
1
0
LINE
5
93
100
AcDbEntity
8
1
62
256
6
ByLayer
370
13
48
1
60
0
100
AcDbLine
10
74.596057
20
1.376871
30
0
11
72.827868
21
1.376871
31
0
39
0
210
0
220
0
230
1
0
LINE
5
94
100
AcDbEntity
8
1
62
256
6
ByLayer
370
18
48
1
60
0
100
AcDbLine
10
4
20
-1.383489
30
0
11
4
21
8.204938
31
0
39
0
210
0
220
0
230
1
0
LINE
5
95
100
AcDbEntity
8
1
62
256
6
ByLayer
370
18
48
1
60
0
100
AcDbLine
10
74.891979
20
0.354885
30
0
11
74.596057
21
1.376871
31
0
39
0
210
0
220
0
230
1
0
LINE
5
96
100
AcDbEntity
8
SK1
62
256
6
ByLayer
370
18
48
1
60
0
100
AcDbLine
10
-45.401924
20
9
30
0
11
-45.401924
21
-9
31
0
39
0
210
0
220
0
230
1
0
LINE
5
97
100
AcDbEntity
8
SK1
62
256
6
ByLayer
370
18
48
1
60
0
100
AcDbLine
10
0
20
-9
30
0
11
0
21
9
31
0
39
0
210
0
220
0
230
1
0
LINE
5
98
100
AcDbEntity
8
SK1
62
256
6
ByLayer
370
18
48
1
60
0
100
AcDbLine
10
-45.5
20
4.651319
30
0
11
-45.5
21
7.08215
31
0
39
0
210
0
220
0
230
1
0
LINE
5
99
100
AcDbEntity
8
SK1
62
256
6
ByLayer
370
13
48
1
60
0
100
AcDbLine
10
-45.6
20
7.022982
30
0
11
-45.6
21
4.444696
31
0
39
0
210
0
220
0
230
1
0
LINE
5
9A
100
AcDbEntity
8
SK1
62
256
6
ByLayer
370
18
48
1
60
0
100
AcDbLine
10
-48
20
4.092918
30
0
11
-48
21
1.514698
31
0
39
0
210
0
220
0
230
1
0
LINE
5
9B
100
AcDbEntity
8
SK1
62
256
6
ByLayer
370
18
48
1
60
0
100
AcDbLine
10
-48
20
4.5
30
0
11
-48
21
4.092918
31
0
39
0
210
0
220
0
230
1
0
LINE
5
9C
100
AcDbEntity
8
SK1
62
256
6
ByLayer
370
18
48
1
60
0
100
AcDbLine
10
-48
20
1.514765
30
0
11
-48
21
-4.5
31
0
39
0
210
0
220
0
230
1
0
MTEXT
5
E6
100
AcDbEntity
8
SK6
62
256
6
ByLayer
370
13
48
1
60
0
100
AcDbMText
10
15.629169
20
40.632694
30
0
210
0
220
0
230
1
1
\W0.7415;R840-1650-30-A1A1220
40
3.5
41
0
44
1.084337
50
0
71
8
72
5
7
iso_b_vert
0
DIMENSION
5
F3
100
AcDbEntity
8
SK2
62
256
6
ByLayer
370
13
48
1
60
0
100
AcDbDimension
2
DimnDraft3D1
10
72.16
20
-18.463398
30
0
11
33.910059
21
-18.463398
31
0
70
32
71
5
72
1
41
1
210
0
220
0
230
1
3
Standard
100
AcDbAlignedDimension
13
0
23
-1.5875
33
0
14
72.16
24
-9.8375
34
0
50
0
100
AcDbRotatedDimension
1001
ACAD
1000
DSTYLE
1002
{
1070
   279
1070
     0
1070
   172
1070
     1
1070
   173
1070
     1
1070
   340
1005
E7
1070
   271
1070
     2
1070
   272
1070
     2
1070
    77
1070
     1
1070
    73
1070
     0
1070
   171
1070
     3
1070
   274
1070
     4
1070
   177
1070
    35
1070
   176
1070
    35
1070
   178
1070
    35
1070
    48
1040
-0.005
1070
    41
1041
3.5
1070
   147
1041
1.75
1070
    42
1041
1.5875
1070
    44
1041
2.0
1070
   140
1041
3.5
1070
   343
1005
0
1070
   344
1005
0
1002
}
0
DIMENSION
5
FD
100
AcDbEntity
8
SK2
62
256
6
ByLayer
370
13
48
1
60
0
100
AcDbDimension
2
DimnDraft3D2
10
75
20
-37.692985
30
0
11
12.0013
21
-37.692985
31
0
70
32
71
5
72
1
41
1
210
0
220
0
230
1
3
Standard
100
AcDbAlignedDimension
13
-48
23
-10.5875
33
0
14
75
24
-1.5875
34
0
50
0
100
AcDbRotatedDimension
1001
ACAD
1000
DSTYLE
1002
{
1070
   279
1070
     0
1070
   172
1070
     1
1070
   173
1070
     1
1070
   340
1005
E7
1070
   271
1070
     2
1070
   272
1070
     2
1070
    77
1070
     1
1070
    73
1070
     0
1070
   171
1070
     3
1070
   274
1070
     4
1070
   177
1070
    35
1070
   176
1070
    35
1070
   178
1070
    35
1070
    48
1040
-0.005
1070
    41
1041
3.5
1070
   147
1041
1.75
1070
    42
1041
1.5875
1070
    44
1041
2.0
1070
   140
1041
3.5
1070
   343
1005
0
1070
   344
1005
0
1002
}
0
DIMENSION
5
107
100
AcDbEntity
8
SK2
62
256
6
ByLayer
370
13
48
1
60
0
100
AcDbDimension
2
DimnDraft3D3
10
75
20
19.859119
30
0
11
48.83
21
19.859119
31
0
70
32
71
5
72
1
41
1
210
0
220
0
230
1
3
Standard
100
AcDbAlignedDimension
13
22.66
23
9.8375
33
0
14
75
24
1.5875
34
0
50
0
100
AcDbRotatedDimension
1001
ACAD
1000
DSTYLE
1002
{
1070
   279
1070
     0
1070
   172
1070
     1
1070
   173
1070
     1
1070
   340
1005
E7
1070
   271
1070
     2
1070
   272
1070
     2
1070
    77
1070
     1
1070
    73
1070
     0
1070
   171
1070
     3
1070
   274
1070
     4
1070
   177
1070
    35
1070
   176
1070
    35
1070
   178
1070
    35
1070
    48
1040
-0.005
1070
    41
1041
3.5
1070
   147
1041
1.75
1070
    42
1041
1.5875
1070
    44
1041
2.0
1070
   140
1041
3.5
1070
   343
1005
0
1070
   344
1005
0
1002
}
0
DIMENSION
5
111
100
AcDbEntity
8
SK2
62
256
6
ByLayer
370
13
48
1
60
0
100
AcDbDimension
2
DimnDraft3D4
10
72.16
20
-21.052503
30
0
11
84.981425
21
-21.052503
31
0
70
32
71
5
72
1
41
1
210
0
220
0
230
1
3
Standard
100
AcDbAlignedDimension
13
75
23
-1.5875
33
0
14
72.16
24
-9.8375
34
0
50
0
100
AcDbRotatedDimension
1001
ACAD
1000
DSTYLE
1002
{
1070
   279
1070
     0
1070
   172
1070
     1
1070
   173
1070
     1
1070
   340
1005
E7
1070
   271
1070
     2
1070
   272
1070
     2
1070
    77
1070
     1
1070
    73
1070
     0
1070
   171
1070
     3
1070
   274
1070
     4
1070
   177
1070
    35
1070
   176
1070
    35
1070
   178
1070
    35
1070
    48
1040
-0.005
1070
    41
1041
3.5
1070
   147
1041
1.75
1070
    42
1041
1.5875
1070
    44
1041
2.0
1070
   140
1041
3.5
1070
   343
1005
0
1070
   344
1005
0
1002
}
0
DIMENSION
5
11B
100
AcDbEntity
8
SK2
62
256
6
ByLayer
370
13
48
1
60
0
100
AcDbDimension
2
DimnDraft3D5
10
72.16
20
-27.343428
30
0
11
8.920676
21
-27.343428
31
0
70
32
71
5
72
1
41
1
210
0
220
0
230
1
3
Standard
100
AcDbAlignedDimension
13
-48
23
-10.5875
33
0
14
72.16
24
-9.8375
34
0
50
0
100
AcDbRotatedDimension
1001
ACAD
1000
DSTYLE
1002
{
1070
   279
1070
     0
1070
   172
1070
     1
1070
   173
1070
     1
1070
   340
1005
E7
1070
   271
1070
     2
1070
   272
1070
     2
1070
    77
1070
     1
1070
    73
1070
     0
1070
   171
1070
     3
1070
   274
1070
     4
1070
   177
1070
    35
1070
   176
1070
    35
1070
   178
1070
    35
1070
    48
1040
-0.005
1070
    41
1041
3.5
1070
   147
1041
1.75
1070
    42
1041
1.5875
1070
    44
1041
2.0
1070
   140
1041
3.5
1070
   343
1005
0
1070
   344
1005
0
1002
}
0
DIMENSION
5
126
100
AcDbEntity
8
SK2
62
256
6
ByLayer
370
13
48
1
60
0
100
AcDbDimension
2
DimnDraft3D6
10
-58.625163
20
9
30
0
11
-59.250163
21
27.47418
31
0
70
33
71
5
72
1
41
1
210
0
220
0
230
1
3
Standard
100
AcDbAlignedDimension
13
-49.5875
23
-9
33
0
14
-49.5875
24
9
34
0
1001
ACAD
1000
DSTYLE
1002
{
1070
   279
1070
     0
1070
    74
1070
     0
1070
   173
1070
     1
1070
   340
1005
E7
1070
   271
1070
     3
1070
   272
1070
     2
1070
    77
1070
     1
1070
    73
1070
     0
1070
   171
1070
     3
1070
   274
1070
     4
1070
   177
1070
    35
1070
   176
1070
    35
1070
   178
1070
    35
1070
    48
1040
-0.005
1070
    41
1041
3.5
1070
   147
1041
1.75
1070
    42
1041
1.5875
1070
    44
1041
2.0
1070
   140
1041
3.5
1070
   343
1005
0
1070
   344
1005
0
1002
}
0
DIMENSION
5
131
100
AcDbEntity
8
2
62
256
6
ByLayer
370
13
48
1
60
0
100
AcDbDimension
2
DimnDraft3D7
10
89.083343
20
8.25
30
0
11
84.458343
21
25.317266
31
0
70
33
71
5
72
1
41
1
210
0
220
0
230
1
3
Standard
100
AcDbAlignedDimension
13
73.7475
23
-8.25
33
0
14
73.7475
24
8.25
34
0
1001
ACAD
1000
DSTYLE
1002
{
1070
   279
1070
     0
1070
    74
1070
     0
1070
   173
1070
     1
1070
   340
1005
E7
1070
   271
1070
     3
1070
   272
1070
     2
1070
    77
1070
     1
1070
    73
1070
     0
1070
   171
1070
     3
1070
   274
1070
     4
1070
   177
1070
    35
1070
   176
1070
    35
1070
   178
1070
    35
1070
    48
1040
-0.005
1070
    41
1041
3.5
1070
   147
1041
1.75
1070
    42
1041
1.5875
1070
    44
1041
2.0
1070
   140
1041
3.5
1070
   343
1005
0
1070
   344
1005
0
1002
}
0
ENDSEC
0
SECTION
2
OBJECTS
0
DICTIONARY
5
19c
330
0
100
AcDbDictionary
280
0
281
1
3
ACAD_GROUP
350
19d
3
ACAD_MLINESTYLE
350
19e
0
DICTIONARY
5
19d
330
0
100
AcDbDictionary
280
0
281
1
0
DICTIONARY
5
19e
330
0
100
AcDbDictionary
280
0
281
1
3
Standard
350
18
0
MLINESTYLE
5
18
330
19e
100
AcDbMlineStyle
2
Standard
70
0
3

62
256
51
90
52
90
71
2
49
-0.5
62
256
6
ByLayer
49
0.5
62
256
6
ByLayer
0
RASTERVARIABLES
5
18a
330

100
AcDbRasterVariables
90
0
70
1
71
1
72
1
0
ENDSEC
0
EOF
