0
SECTION
2
HEADER
9
$ACADVER
1
AC1015
9
$DWGCODEPAGE
3
ANSI_1252
9
$HANDSEED
5
193
9
$ANGBASE
50
0
9
$ANGDIR
70
0
9
$ATTMODE
70
1
9
$AUNITS
70
0
9
$AUPREC
70
0
9
$CECOLOR
62
256
9
$CELTSCALE
40
1
9
$CELTYPE
6
ByLayer
9
$CELWEIGHT
370
18
9
$CLAYER
8
0
9
$CMLJUST
70
0
9
$CMLSCALE
40
1
9
$CMLSTYLE
2
Standard
9
$DIMSTYLE
2
Standard
9
$TEXTSIZE
40
0.2
9
$TEXTSTYLE
7
Standard
9
$LUNITS
70
2
9
$LUPREC
70
4
9
$EXTNAMES
290
1
9
$INSUNITS
70
4
9
$LTSCALE
40
1
9
$LWDISPLAY
290
1
9
$PDMODE
70
0
9
$PDSIZE
40
0
9
$PLINEGEN
70
0
0
ENDSEC
0
SECTION
2
CLASSES
0
CLASS
1
RASTERVARIABLES
2
AcDbRasterVariables
3
ISM
90
0
280
0
281
0
0
ENDSEC
0
SECTION
2
TABLES
0
TABLE
2
VPORT
5
189
100
AcDbSymbolTable
0
VPORT
5
1
100
AcDbSymbolTableRecord
100
AcDbViewportTableRecord
2
*Active
70
0
10
0
20
0
11
1
21
1
12
-1
22
1
13
0
23
0
14
0.5
24
0.5
15
10
25
10
16
0
26
0
36
1
17
0
27
0
37
0
0
ENDTAB
0
TABLE
2
LTYPE
5
18a
100
AcDbSymbolTable
0
LTYPE
5
14
100
AcDbSymbolTableRecord
100
AcDbLinetypeTableRecord
70
0
2
ByBlock
3

72
65
73
0
40
0
0
LTYPE
5
15
100
AcDbSymbolTableRecord
100
AcDbLinetypeTableRecord
70
0
2
ByLayer
3

72
65
73
0
40
0
0
LTYPE
5
16
100
AcDbSymbolTableRecord
100
AcDbLinetypeTableRecord
70
0
2
CONTINUOUS
3
Solid line
72
65
73
0
40
0
0
LTYPE
5
6A
100
AcDbSymbolTableRecord
100
AcDbLinetypeTableRecord
70
0
2
CENTER
3
____ _ ____ _ ____ _ ____
72
65
73
4
40
47.5
49
22
74
0
49
-8.5
74
0
49
8.5
74
0
49
-8.5
74
0
0
LTYPE
5
6B
100
AcDbSymbolTableRecord
100
AcDbLinetypeTableRecord
70
0
2
DASHED
3
__ __ __ __ __ __ __ __ __
72
65
73
2
40
25.72
49
12.86
74
0
49
-12.86
74
0
0
ENDTAB
0
TABLE
2
LAYER
5
18b
100
AcDbSymbolTable
0
LAYER
5
10
100
AcDbSymbolTableRecord
100
AcDbLayerTableRecord
2
0
70
0
62
7
6
CONTINUOUS
290
1
370
-3
390
0
0
LAYER
5
6D
100
AcDbSymbolTableRecord
100
AcDbLayerTableRecord
2
81
70
0
62
-3
6
CONTINUOUS
290
1
370
-3
390
0
0
LAYER
5
6F
100
AcDbSymbolTableRecord
100
AcDbLayerTableRecord
2
80
70
0
62
-6
6
CONTINUOUS
290
1
370
-3
390
0
0
LAYER
5
74
100
AcDbSymbolTableRecord
100
AcDbLayerTableRecord
2
2
70
0
62
7
6
CONTINUOUS
290
1
370
-3
390
0
0
LAYER
5
78
100
AcDbSymbolTableRecord
100
AcDbLayerTableRecord
2
1
70
0
62
4
6
CONTINUOUS
290
1
370
-3
390
0
0
LAYER
5
88
100
AcDbSymbolTableRecord
100
AcDbLayerTableRecord
2
4
70
0
62
-2
6
CENTER
290
1
370
-3
390
0
0
LAYER
5
175
100
AcDbSymbolTableRecord
100
AcDbLayerTableRecord
2
SK2
70
0
62
7
6
CONTINUOUS
290
1
370
-3
390
0
0
LAYER
5
176
100
AcDbSymbolTableRecord
100
AcDbLayerTableRecord
2
SK1
70
0
62
4
6
CONTINUOUS
290
1
370
-3
390
0
0
LAYER
5
177
100
AcDbSymbolTableRecord
100
AcDbLayerTableRecord
2
SK4
70
0
62
2
6
CENTER
290
1
370
-3
390
0
0
LAYER
5
178
100
AcDbSymbolTableRecord
100
AcDbLayerTableRecord
2
SK6
70
0
62
5
6
CONTINUOUS
290
1
370
-3
390
0
0
ENDTAB
0
TABLE
2
STYLE
5
18c
100
AcDbSymbolTable
0
STYLE
5
11
100
AcDbSymbolTableRecord
100
AcDbTextStyleTableRecord
2
Standard
3
txt
70
0
71
0
40
0
41
1
42
0
50
0
0
STYLE
5
D1
100
AcDbSymbolTableRecord
100
AcDbTextStyleTableRecord
2
iso_b_vert
3
simplex.shx
70
0
71
0
40
0
41
1
42
0
50
0
0
STYLE
5
D2
100
AcDbSymbolTableRecord
100
AcDbTextStyleTableRecord
2
DWGDirectTextStyle
3
simplex
70
0
71
0
40
0
41
1
42
0
50
0
0
ENDTAB
0
TABLE
2
DIMSTYLE
5
18d
100
AcDbSymbolTable
100
AcDbDimStyleTable
0
DIMSTYLE
105
27
100
AcDbSymbolTableRecord
100
AcDbDimStyleTableRecord
2
Standard
70
0
3
<>
41
0.18
42
0.0625
44
0.18
140
0.18
147
0.09
73
0
74
0
77
1
271
2
275
0
278
52
280
0
340
11
0
ENDTAB
0
TABLE
2
VIEW
5
18e
100
AcDbSymbolTable
0
ENDTAB
0
TABLE
2
UCS
5
18f
100
AcDbSymbolTable
0
ENDTAB
0
TABLE
2
APPID
5
190
100
AcDbSymbolTable
0
APPID
5
12
100
AcDbSymbolTableRecord
100
AcDbRegAppTableRecord
2
ACAD
70
0
0
ENDTAB
0
TABLE
2
BLOCK_RECORD
5
191
100
AcDbSymbolTable
0
BLOCK_RECORD
5
1F
100
AcDbSymbolTableRecord
100
AcDbBlockTableRecord
2
*Model_Space
340
0
70
0
0
BLOCK_RECORD
5
1B
100
AcDbSymbolTableRecord
100
AcDbBlockTableRecord
2
*Paper_Space
340
0
70
0
0
BLOCK_RECORD
5
23
100
AcDbSymbolTableRecord
100
AcDbBlockTableRecord
2
*Paper_Space0
340
0
70
0
0
BLOCK_RECORD
5
D4
100
AcDbSymbolTableRecord
100
AcDbBlockTableRecord
2
DimnDraft3D1
340
0
70
0
0
BLOCK_RECORD
5
DE
100
AcDbSymbolTableRecord
100
AcDbBlockTableRecord
2
DimnDraft3D2
340
0
70
0
0
BLOCK_RECORD
5
E8
100
AcDbSymbolTableRecord
100
AcDbBlockTableRecord
2
DimnDraft3D3
340
0
70
0
0
BLOCK_RECORD
5
F2
100
AcDbSymbolTableRecord
100
AcDbBlockTableRecord
2
DimnDraft3D4
340
0
70
0
0
BLOCK_RECORD
5
FC
100
AcDbSymbolTableRecord
100
AcDbBlockTableRecord
2
DimnDraft3D5
340
0
70
0
0
BLOCK_RECORD
5
106
100
AcDbSymbolTableRecord
100
AcDbBlockTableRecord
2
DimnDraft3D6
340
0
70
0
0
BLOCK_RECORD
5
111
100
AcDbSymbolTableRecord
100
AcDbBlockTableRecord
2
DimnDraft3D7
340
0
70
0
0
ENDTAB
0
ENDSEC
0
SECTION
2
BLOCKS
0
BLOCK
5
20
100
AcDbEntity
8
0
100
AcDbBlockBegin
2
*Model_Space
70
0
10
0
20
0
30
0
3
*Model_Space
0
ENDBLK
5
21
100
AcDbEntity
8
0
100
AcDbBlockEnd
0
BLOCK
5
1C
100
AcDbEntity
8
0
100
AcDbBlockBegin
2
*Paper_Space
70
0
10
0
20
0
30
0
3
*Paper_Space
0
ENDBLK
5
1D
100
AcDbEntity
8
0
100
AcDbBlockEnd
0
BLOCK
5
24
100
AcDbEntity
8
0
100
AcDbBlockBegin
2
*Paper_Space0
70
0
10
0
20
0
30
0
3
*Paper_Space0
0
ENDBLK
5
25
100
AcDbEntity
8
0
100
AcDbBlockEnd
0
BLOCK
5
DB
100
AcDbEntity
8
0
100
AcDbBlockBegin
2
DimnDraft3D1
70
0
10
0
20
0
30
0
3
DimnDraft3D1
0
MTEXT
5
D5
100
AcDbEntity
8
SK2
62
256
6
ByLayer
370
13
48
1
60
0
100
AcDbMText
10
34.357164
20
-17.338398
30
0
210
0
220
0
230
1
1
\W0.7495;82,24
40
3.5
41
0
44
1.084337
50
0
71
7
72
5
7
iso_b_vert
0
LINE
5
D6
100
AcDbEntity
8
SK2
62
256
6
ByLayer
370
13
48
1
60
0
100
AcDbLine
10
0
20
-1.5875
30
0
11
0
21
-20.213398
31
0
39
0
210
0
220
0
230
1
0
LINE
5
D7
100
AcDbEntity
8
SK2
62
256
6
ByLayer
370
13
48
1
60
0
100
AcDbLine
10
82.24
20
-9.5875
30
0
11
82.24
21
-20.213398
31
0
39
0
210
0
220
0
230
1
0
LINE
5
D8
100
AcDbEntity
8
SK2
62
256
6
ByLayer
370
13
48
1
60
0
100
AcDbLine
10
0
20
-18.213398
30
0
11
82.24
21
-18.213398
31
0
39
0
210
0
220
0
230
1
0
SOLID
5
D9
100
AcDbEntity
8
SK2
62
256
6
ByLayer
370
13
48
1
60
0
100
AcDbTrace
10
0
20
-18.213398
30
0
11
3.499998
21
-17.752615
31
0
12
3.500002
22
-18.674182
32
0
13
0
23
-18.213398
33
0
39
0
210
0
220
0
230
1
0
SOLID
5
DA
100
AcDbEntity
8
SK2
62
256
6
ByLayer
370
13
48
1
60
0
100
AcDbTrace
10
82.24
20
-18.213398
30
0
11
78.740002
21
-18.674182
31
0
12
78.739998
22
-17.752615
32
0
13
82.24
23
-18.213398
33
0
39
0
210
0
220
0
230
1
0
ENDBLK
5
DC
100
AcDbEntity
8
0
100
AcDbBlockEnd
0
BLOCK
5
E5
100
AcDbEntity
8
0
100
AcDbBlockBegin
2
DimnDraft3D2
70
0
10
0
20
0
30
0
3
DimnDraft3D2
0
MTEXT
5
DF
100
AcDbEntity
8
SK2
62
256
6
ByLayer
370
13
48
1
60
0
100
AcDbMText
10
11.762221
20
-35.817985
30
0
210
0
220
0
230
1
1
\W0.6930;133,00
40
3.5
41
0
44
1.084337
50
0
71
7
72
5
7
iso_b_vert
0
LINE
5
E0
100
AcDbEntity
8
SK2
62
256
6
ByLayer
370
13
48
1
60
0
100
AcDbLine
10
-48
20
-9.5875
30
0
11
-48
21
-38.692985
31
0
39
0
210
0
220
0
230
1
0
LINE
5
E1
100
AcDbEntity
8
SK2
62
256
6
ByLayer
370
13
48
1
60
0
100
AcDbLine
10
85
20
-1.5875
30
0
11
85
21
-38.692985
31
0
39
0
210
0
220
0
230
1
0
LINE
5
E2
100
AcDbEntity
8
SK2
62
256
6
ByLayer
370
13
48
1
60
0
100
AcDbLine
10
-48
20
-36.692985
30
0
11
85
21
-36.692985
31
0
39
0
210
0
220
0
230
1
0
SOLID
5
E3
100
AcDbEntity
8
SK2
62
256
6
ByLayer
370
13
48
1
60
0
100
AcDbTrace
10
-48
20
-36.692985
30
0
11
-44.500002
21
-36.232202
31
0
12
-44.499998
22
-37.153769
32
0
13
-48
23
-36.692985
33
0
39
0
210
0
220
0
230
1
0
SOLID
5
E4
100
AcDbEntity
8
SK2
62
256
6
ByLayer
370
13
48
1
60
0
100
AcDbTrace
10
85
20
-36.692985
30
0
11
81.500002
21
-37.153769
31
0
12
81.499998
22
-36.232202
32
0
13
85
23
-36.692985
33
0
39
0
210
0
220
0
230
1
0
ENDBLK
5
E6
100
AcDbEntity
8
0
100
AcDbBlockEnd
0
BLOCK
5
EF
100
AcDbEntity
8
0
100
AcDbBlockBegin
2
DimnDraft3D3
70
0
10
0
20
0
30
0
3
DimnDraft3D3
0
MTEXT
5
E9
100
AcDbEntity
8
SK2
62
256
6
ByLayer
370
13
48
1
60
0
100
AcDbMText
10
39.171316
20
20.484119
30
0
210
0
220
0
230
1
1
\W0.7317;82,76
40
3.5
41
0
44
1.084337
50
0
71
7
72
5
7
iso_b_vert
0
LINE
5
EA
100
AcDbEntity
8
SK2
62
256
6
ByLayer
370
13
48
1
60
0
100
AcDbLine
10
2.24
20
9.5875
30
0
11
2.24
21
21.609119
31
0
39
0
210
0
220
0
230
1
0
LINE
5
EB
100
AcDbEntity
8
SK2
62
256
6
ByLayer
370
13
48
1
60
0
100
AcDbLine
10
85
20
1.5875
30
0
11
85
21
21.609119
31
0
39
0
210
0
220
0
230
1
0
LINE
5
EC
100
AcDbEntity
8
SK2
62
256
6
ByLayer
370
13
48
1
60
0
100
AcDbLine
10
2.24
20
19.609119
30
0
11
85
21
19.609119
31
0
39
0
210
0
220
0
230
1
0
SOLID
5
ED
100
AcDbEntity
8
SK2
62
256
6
ByLayer
370
13
48
1
60
0
100
AcDbTrace
10
2.24
20
19.609119
30
0
11
5.739998
21
20.069903
31
0
12
5.740002
22
19.148335
32
0
13
2.24
23
19.609119
33
0
39
0
210
0
220
0
230
1
0
SOLID
5
EE
100
AcDbEntity
8
SK2
62
256
6
ByLayer
370
13
48
1
60
0
100
AcDbTrace
10
85
20
19.609119
30
0
11
81.500002
21
19.148335
31
0
12
81.499998
22
20.069903
32
0
13
85
23
19.609119
33
0
39
0
210
0
220
0
230
1
0
ENDBLK
5
F0
100
AcDbEntity
8
0
100
AcDbBlockEnd
0
BLOCK
5
F9
100
AcDbEntity
8
0
100
AcDbBlockBegin
2
DimnDraft3D4
70
0
10
0
20
0
30
0
3
DimnDraft3D4
0
MTEXT
5
F3
100
AcDbEntity
8
SK2
62
256
6
ByLayer
370
13
48
1
60
0
100
AcDbMText
10
91.840636
20
-19.927503
30
0
210
0
220
0
230
1
1
\W0.7150;2,76
40
3.5
41
0
44
1.084337
50
0
71
7
72
5
7
iso_b_vert
0
LINE
5
F4
100
AcDbEntity
8
SK2
62
256
6
ByLayer
370
13
48
1
60
0
100
AcDbLine
10
85
20
-1.5875
30
0
11
85
21
-22.802503
31
0
39
0
210
0
220
0
230
1
0
LINE
5
F5
100
AcDbEntity
8
SK2
62
256
6
ByLayer
370
13
48
1
60
0
100
AcDbLine
10
82.24
20
-9.5875
30
0
11
82.24
21
-22.802503
31
0
39
0
210
0
220
0
230
1
0
LINE
5
F6
100
AcDbEntity
8
SK2
62
256
6
ByLayer
370
13
48
1
60
0
100
AcDbLine
10
73.49
20
-20.802503
30
0
11
98.997215
21
-20.802503
31
0
39
0
210
0
220
0
230
1
0
SOLID
5
F7
100
AcDbEntity
8
SK2
62
256
6
ByLayer
370
13
48
1
60
0
100
AcDbTrace
10
85
20
-20.802503
30
0
11
88.499998
21
-20.341719
31
0
12
88.500002
22
-21.263287
32
0
13
85
23
-20.802503
33
0
39
0
210
0
220
0
230
1
0
SOLID
5
F8
100
AcDbEntity
8
SK2
62
256
6
ByLayer
370
13
48
1
60
0
100
AcDbTrace
10
82.24
20
-20.802503
30
0
11
78.740002
21
-21.263287
31
0
12
78.739998
22
-20.341719
32
0
13
82.24
23
-20.802503
33
0
39
0
210
0
220
0
230
1
0
ENDBLK
5
FA
100
AcDbEntity
8
0
100
AcDbBlockEnd
0
BLOCK
5
103
100
AcDbEntity
8
0
100
AcDbBlockBegin
2
DimnDraft3D5
70
0
10
0
20
0
30
0
3
DimnDraft3D5
0
MTEXT
5
FD
100
AcDbEntity
8
SK2
62
256
6
ByLayer
370
13
48
1
60
0
100
AcDbMText
10
8.497387
20
-25.468428
30
0
210
0
220
0
230
1
1
\W0.7079;130,24
40
3.5
41
0
44
1.084337
50
0
71
7
72
5
7
iso_b_vert
0
LINE
5
FE
100
AcDbEntity
8
SK2
62
256
6
ByLayer
370
13
48
1
60
0
100
AcDbLine
10
-48
20
-9.5875
30
0
11
-48
21
-28.343428
31
0
39
0
210
0
220
0
230
1
0
LINE
5
FF
100
AcDbEntity
8
SK2
62
256
6
ByLayer
370
13
48
1
60
0
100
AcDbLine
10
82.24
20
-9.5875
30
0
11
82.24
21
-28.343428
31
0
39
0
210
0
220
0
230
1
0
LINE
5
100
100
AcDbEntity
8
SK2
62
256
6
ByLayer
370
13
48
1
60
0
100
AcDbLine
10
-48
20
-26.343428
30
0
11
82.24
21
-26.343428
31
0
39
0
210
0
220
0
230
1
0
SOLID
5
101
100
AcDbEntity
8
SK2
62
256
6
ByLayer
370
13
48
1
60
0
100
AcDbTrace
10
-48
20
-26.343428
30
0
11
-44.500002
21
-25.882645
31
0
12
-44.499998
22
-26.804212
32
0
13
-48
23
-26.343428
33
0
39
0
210
0
220
0
230
1
0
SOLID
5
102
100
AcDbEntity
8
SK2
62
256
6
ByLayer
370
13
48
1
60
0
100
AcDbTrace
10
82.24
20
-26.343428
30
0
11
78.740002
21
-26.804212
31
0
12
78.739998
22
-25.882645
32
0
13
82.24
23
-26.343428
33
0
39
0
210
0
220
0
230
1
0
ENDBLK
5
104
100
AcDbEntity
8
0
100
AcDbBlockEnd
0
BLOCK
5
10E
100
AcDbEntity
8
0
100
AcDbBlockBegin
2
DimnDraft3D6
70
0
10
0
20
0
30
0
3
DimnDraft3D6
0
MTEXT
5
107
100
AcDbEntity
8
SK2
62
256
6
ByLayer
370
13
48
1
60
0
100
AcDbMText
10
-58.375163
20
27.34918
30
0
210
0
220
0
230
1
1
\W0.6930;16,000
40
3.5
41
0
44
1.084337
50
90
71
7
72
5
7
iso_b_vert
0
MTEXT
5
108
100
AcDbEntity
8
SK2
62
256
6
ByLayer
370
13
48
1
60
0
100
AcDbMText
10
-58.375163
20
22.126524
30
0
210
0
220
0
230
1
1
%%c
40
3.5
41
0
44
1.084337
50
90
71
7
72
5
7
iso_b_vert
0
LINE
5
109
100
AcDbEntity
8
SK2
62
256
6
ByLayer
370
13
48
1
60
0
100
AcDbLine
10
-49.5875
20
-8
30
0
11
-58.625163
21
-8
31
0
39
0
210
0
220
0
230
1
0
LINE
5
10A
100
AcDbEntity
8
SK2
62
256
6
ByLayer
370
13
48
1
60
0
100
AcDbLine
10
-49.5875
20
8
30
0
11
-58.625163
21
8
31
0
39
0
210
0
220
0
230
1
0
LINE
5
10B
100
AcDbEntity
8
SK2
62
256
6
ByLayer
370
13
48
1
60
0
100
AcDbLine
10
-56.625163
20
-8
30
0
11
-56.625163
21
38.862338
31
0
39
0
210
0
220
0
230
1
0
SOLID
5
10C
100
AcDbEntity
8
SK2
62
256
6
ByLayer
370
13
48
1
60
0
100
AcDbTrace
10
-56.625163
20
-8
30
0
11
-57.085946
21
-4.500002
31
0
12
-56.164379
22
-4.499998
32
0
13
-56.625163
23
-8
33
0
39
0
210
0
220
0
230
1
0
SOLID
5
10D
100
AcDbEntity
8
SK2
62
256
6
ByLayer
370
13
48
1
60
0
100
AcDbTrace
10
-56.625163
20
8
30
0
11
-56.164379
21
4.500002
31
0
12
-57.085946
22
4.499998
32
0
13
-56.625163
23
8
33
0
39
0
210
0
220
0
230
1
0
ENDBLK
5
10F
100
AcDbEntity
8
0
100
AcDbBlockEnd
0
BLOCK
5
119
100
AcDbEntity
8
0
100
AcDbBlockBegin
2
DimnDraft3D7
70
0
10
0
20
0
30
0
3
DimnDraft3D7
0
MTEXT
5
112
100
AcDbEntity
8
2
62
256
6
ByLayer
370
13
48
1
60
0
100
AcDbMText
10
95.333343
20
25.942266
30
0
210
0
220
0
230
1
1
\W0.6930;16,000
40
3.5
41
0
44
1.084337
50
90
71
7
72
5
7
iso_b_vert
0
MTEXT
5
113
100
AcDbEntity
8
2
62
256
6
ByLayer
370
13
48
1
60
0
100
AcDbMText
10
95.333343
20
20.71961
30
0
210
0
220
0
230
1
1
%%c
40
3.5
41
0
44
1.084337
50
90
71
7
72
5
7
iso_b_vert
0
LINE
5
114
100
AcDbEntity
8
2
62
256
6
ByLayer
370
13
48
1
60
0
100
AcDbLine
10
83.8275
20
-8
30
0
11
99.083343
21
-8
31
0
39
0
210
0
220
0
230
1
0
LINE
5
115
100
AcDbEntity
8
2
62
256
6
ByLayer
370
13
48
1
60
0
100
AcDbLine
10
83.8275
20
8
30
0
11
99.083343
21
8
31
0
39
0
210
0
220
0
230
1
0
LINE
5
116
100
AcDbEntity
8
2
62
256
6
ByLayer
370
13
48
1
60
0
100
AcDbLine
10
97.083343
20
-8
30
0
11
97.083343
21
37.455424
31
0
39
0
210
0
220
0
230
1
0
SOLID
5
117
100
AcDbEntity
8
2
62
256
6
ByLayer
370
13
48
1
60
0
100
AcDbTrace
10
97.083343
20
-8
30
0
11
96.622559
21
-4.500002
31
0
12
97.544126
22
-4.499998
32
0
13
97.083343
23
-8
33
0
39
0
210
0
220
0
230
1
0
SOLID
5
118
100
AcDbEntity
8
2
62
256
6
ByLayer
370
13
48
1
60
0
100
AcDbTrace
10
97.083343
20
8
30
0
11
97.544126
21
4.500002
31
0
12
96.622559
22
4.499998
32
0
13
97.083343
23
8
33
0
39
0
210
0
220
0
230
1
0
ENDBLK
5
11A
100
AcDbEntity
8
0
100
AcDbBlockEnd
0
ENDSEC
0
SECTION
2
ENTITIES
0
ELLIPSE
5
9A
100
AcDbEntity
8
1
62
256
6
ByLayer
370
18
48
1
60
0
100
AcDbEllipse
10
4.25
20
-7.858508
30
0
11
0.25
21
0
31
0
210
0
220
0
230
1
40
0.999989
41
1.58690355008751
42
3.13251678504745
0
ELLIPSE
5
9B
100
AcDbEntity
8
1
62
256
6
ByLayer
370
18
48
1
60
0
100
AcDbEllipse
10
4.25
20
7.858508
30
0
11
0.25
21
0
31
0
210
0
220
0
230
1
40
0.999989
41
-3.13251678504735
42
-1.55056402003118
0
ELLIPSE
5
9C
100
AcDbEntity
8
1
62
256
6
ByLayer
370
13
48
1
60
0
100
AcDbEllipse
10
84.113693
20
3.669607
30
0
11
5.23701188465079
21
-2.35423157501062
31
0
210
0
220
0
230
-1
40
0.457767
41
1.5798665603012
42
1.92909709310705
0
ELLIPSE
5
9D
100
AcDbEntity
8
1
62
256
6
ByLayer
370
18
48
1
60
0
100
AcDbEllipse
10
84.859431
20
0.155281
30
0
11
0.0868803724495896
21
0.29067690889043
31
0
210
0
220
0
230
-1
40
0.467765
41
1.71260601055399
42
2.36053717394477
0
ELLIPSE
5
9E
100
AcDbEntity
8
1
62
256
6
ByLayer
370
18
48
1
60
0
100
AcDbEllipse
10
85.000663
20
-0.001748
30
0
11
2.9258171321884
21
-7.99933217059949
31
0
210
0
220
0
230
-1
40
0.065672
41
-3.0024262454804
42
-2.9142820778861
0
ELLIPSE
5
9F
100
AcDbEntity
8
1
62
256
6
ByLayer
370
13
48
1
60
0
100
AcDbEllipse
10
82.988547
20
1.081596
30
0
11
0.133113781883907
21
0.268850741253513
31
0
210
0
220
0
230
1
40
0.40558
41
0.884485917130779
42
2.28074931872654
0
ELLIPSE
5
A0
100
AcDbEntity
8
1
62
256
6
ByLayer
370
18
48
1
60
0
100
AcDbEllipse
10
85.001751
20
0.084816
30
0
11
0.137829328603346
21
-0.402528287172583
31
0
210
0
220
0
230
-1
40
0.052723
41
1.56189589087954
42
2.31022812869778
0
ELLIPSE
5
A1
100
AcDbEntity
8
1
62
256
6
ByLayer
370
18
48
1
60
0
100
AcDbEllipse
10
85.001751
20
-0.084816
30
0
11
0.137829328517738
21
0.402528286948517
31
0
210
0
220
0
230
-1
40
0.052723
41
-2.31022812868246
42
-1.56189589048376
0
ELLIPSE
5
A2
100
AcDbEntity
8
1
62
256
6
ByLayer
370
18
48
1
60
0
100
AcDbEllipse
10
83.578583
20
3.669607
30
0
11
1.22859141161117
21
-3.35903112323651
31
0
210
0
220
0
230
-1
40
0.065672
41
-1.60185962092852
42
-0.761382749776776
0
ELLIPSE
5
A3
100
AcDbEntity
8
1
62
256
6
ByLayer
370
13
48
1
60
0
100
AcDbEllipse
10
83.944234
20
3.535315
30
0
11
5.18924880195195
21
-2.66773741139567
31
0
210
0
220
0
230
-1
40
0.482873
41
1.53949524922494
42
1.88835611657487
0
ELLIPSE
5
A4
100
AcDbEntity
8
1
62
256
6
ByLayer
370
18
48
1
60
0
100
AcDbEllipse
10
83.578583
20
-3.669607
30
0
11
1.22859141162156
21
3.35903112326139
31
0
210
0
220
0
230
-1
40
0.065672
41
0.761382749776929
42
1.60185962092293
0
ELLIPSE
5
A5
100
AcDbEntity
8
1
62
256
6
ByLayer
370
18
48
1
60
0
100
AcDbEllipse
10
85.000663
20
0.001748
30
0
11
2.92581709916711
21
7.99933207696804
31
0
210
0
220
0
230
-1
40
0.065672
41
2.91428207655277
42
3.00242624466891
0
POINT
5
6C
100
AcDbEntity
8
81
62
256
6
ByLayer
370
18
48
1
60
0
100
AcDbPoint
10
85
20
0
30
0
39
0
210
0
220
0
230
1
50
360
0
POINT
5
6E
100
AcDbEntity
8
80
62
256
6
ByLayer
370
18
48
1
60
0
100
AcDbPoint
10
0
20
0
30
0
39
0
210
0
220
0
230
1
50
360
0
POINT
5
70
100
AcDbEntity
8
SK2
62
256
6
ByLayer
370
18
48
1
60
1
100
AcDbPoint
10
-48
20
-8
30
0
39
0
210
0
220
0
230
1
50
360
0
POINT
5
72
100
AcDbEntity
8
SK2
62
256
6
ByLayer
370
18
48
1
60
1
100
AcDbPoint
10
-48
20
8
30
0
39
0
210
0
220
0
230
1
50
360
0
POINT
5
73
100
AcDbEntity
8
2
62
256
6
ByLayer
370
18
48
1
60
1
100
AcDbPoint
10
82.24
20
-8
30
0
39
0
210
0
220
0
230
1
50
360
0
POINT
5
75
100
AcDbEntity
8
2
62
256
6
ByLayer
370
18
48
1
60
1
100
AcDbPoint
10
82.24
20
8
30
0
39
0
210
0
220
0
230
1
50
360
0
SPLINE
5
A6
100
AcDbEntity
8
1
62
256
6
ByLayer
370
18
48
1
60
0
100
AcDbSpline
70
4
71
2
72
6
73
3
40
0
40
0
40
0
40
1
40
1
40
1
41
1
10
59.8495409844566
20
0.0005540315223129
30
0
41
1
10
59.8495277590066
20
0.0005618476299958
30
0
41
1
10
59.8495145335122
20
0.0005699149612042
30
0
0
SPLINE
5
A7
100
AcDbEntity
8
1
62
256
6
ByLayer
370
18
48
1
60
0
100
AcDbSpline
70
4
71
3
72
33
73
29
40
0
40
0
40
0
40
0
40
0.031269267579373
40
0.0611545795531121
40
0.0861727303201079
40
0.108209669008512
40
0.129202029559969
40
0.148064668575383
40
0.165752590916999
40
0.184824168801343
40
0.207249974493974
40
0.235287070189416
40
0.269577816942143
40
0.297524712923012
40
0.347485130167936
40
0.399972441137056
40
0.444102139767347
40
0.496767994678271
40
0.566249721797555
40
0.650549522763723
40
0.72797004576029
40
0.819349886278308
40
0.866252971932587
40
0.904563997400352
40
0.94160348394948
40
0.960144682882079
40
0.981337378071759
40
1
40
1
40
1
40
1
41
1
10
39.2172186238472
20
-7.62881090418884
30
0
41
1
10
39.4400812690779
20
-7.62853032695875
30
0
41
1
10
39.8791965134324
20
-7.6282123581114
30
0
41
1
10
40.510154825672
20
-7.62633807633662
30
0
41
1
10
41.0753938416495
20
-7.62855701238939
30
0
41
1
10
41.5556712229794
20
-7.63069234145132
30
0
41
1
10
41.9974449045095
20
-7.63082682111457
30
0
41
1
10
42.4013399800719
20
-7.6292132047204
30
0
41
1
10
42.8070236276286
20
-7.62680524956039
30
0
41
1
10
43.2395627736119
20
-7.62983433706938
30
0
41
1
10
43.7239466990484
20
-7.6320198043862
30
0
41
1
10
44.3515624348512
20
-7.63216931010436
30
0
41
1
10
45.011207821541
20
-7.63320418113463
30
0
41
1
10
45.8342168987472
20
-7.6328342200232
30
0
41
1
10
46.7897983355454
20
-7.63389642766714
30
0
41
1
10
47.8643250599255
20
-7.63441410363848
30
0
41
1
10
48.9585919004066
20
-7.63450715773567
30
0
41
1
10
50.1774437250333
20
-7.63614818196868
30
0
41
1
10
51.6907630047735
20
-7.63612487850699
30
0
41
1
10
53.3855120135597
20
-7.6369313285102
30
0
41
1
10
55.2408771797678
20
-7.63754122721605
30
0
41
1
10
56.8217512591911
20
-7.63964365241401
30
0
41
1
10
58.1168349385552
20
-7.63899315327865
30
0
41
1
10
59.0113202890084
20
-7.64074950666728
30
0
41
1
10
59.7026412702666
20
-7.64070208087063
30
0
41
1
10
60.2524032784401
20
-7.63994436828315
30
0
41
1
10
60.6772807476882
20
-7.63916692712041
30
0
41
1
10
60.969291226648
20
-7.63979382142963
30
0
41
1
10
61.1066685946112
20
-7.64024258526433
30
0
0
SPLINE
5
A8
100
AcDbEntity
8
1
62
256
6
ByLayer
370
18
48
1
60
0
100
AcDbSpline
70
4
71
3
72
33
73
29
40
0
40
0
40
0
40
0
40
0.01804508018234
40
0.058859655163236
40
0.0972011916258336
40
0.133186362616822
40
0.16918122251354
40
0.204060995964382
40
0.239787431697036
40
0.277988804115669
40
0.321687039215791
40
0.357863442617454
40
0.385595091665658
40
0.419872905500856
40
0.455890306838082
40
0.495829425378799
40
0.536870150774473
40
0.580053092526621
40
0.625852566122057
40
0.674472889178674
40
0.721169417155583
40
0.758440969886339
40
0.784251664258888
40
0.810993637633366
40
0.844917115758634
40
0.887545685436785
40
0.944312773979567
40
1
40
1
40
1
40
1
41
1
10
19.8708471052894
20
7.60943599590848
30
0
41
1
10
19.7768282899284
20
7.60998445775616
30
0
41
1
10
19.4714524108002
20
7.61176617022915
30
0
41
1
10
18.9864583680965
20
7.61733185984161
30
0
41
1
10
18.3947535969653
20
7.61774571240014
30
0
41
1
10
17.8245267860687
20
7.61715267956887
30
0
41
1
10
17.2672156441737
20
7.61658882916944
30
0
41
1
10
16.7098079382983
20
7.61661321726965
30
0
41
1
10
16.1431874575558
20
7.61636229845712
30
0
41
1
10
15.5287258891783
20
7.61544244384473
30
0
41
1
10
14.9120298990248
20
7.61521759366033
30
0
41
1
10
14.3499701236649
20
7.61530853888161
30
0
41
1
10
13.8371289875529
20
7.61495281408077
30
0
41
1
10
13.3250952012097
20
7.6142061150565
30
0
41
1
10
12.7493831310111
20
7.61373236556031
30
0
41
1
10
12.1379950993676
20
7.614270120182
30
0
41
1
10
11.4908739213653
20
7.61449722818031
30
0
41
1
10
10.8150273472765
20
7.61289334492892
30
0
41
1
10
10.0955254598259
20
7.61220798016302
30
0
41
1
10
9.35891299496782
20
7.61261207454254
30
0
41
1
10
8.66837017226823
20
7.61162766149937
30
0
41
1
10
8.09551748591934
20
7.61121158825523
30
0
41
1
10
7.62627393925729
20
7.6111202257496
30
0
41
1
10
7.17462716852199
20
7.61097721638001
30
0
41
1
10
6.63508224883404
20
7.6108438613789
30
0
41
1
10
5.93874882516408
20
7.61067921519512
30
0
41
1
10
5.12870501283334
20
7.61017726896793
30
0
41
1
10
4.54133616021161
20
7.60912625603189
30
0
41
1
10
4.25047155801551
20
7.6084728866461
30
0
0
SPLINE
5
A9
100
AcDbEntity
8
1
62
256
6
ByLayer
370
18
48
1
60
0
100
AcDbSpline
70
4
71
2
72
6
73
3
40
0
40
0
40
0
40
1
40
1
40
1
41
1
10
80.8527113277437
20
-7.65429994753538
30
0
41
1
10
81.5329772371776
20
-7.65155753221219
30
0
41
1
10
82.2132620912611
20
-7.65758926313276
30
0
0
SPLINE
5
AA
100
AcDbEntity
8
1
62
256
6
ByLayer
370
18
48
1
60
0
100
AcDbSpline
70
4
71
3
72
30
73
26
40
0
40
0
40
0
40
0
40
0.0279201478946001
40
0.066910209619243
40
0.103301911215918
40
0.136504877373021
40
0.164337092582938
40
0.187842664321499
40
0.216147644944031
40
0.250372245570263
40
0.283837421541994
40
0.336958953912513
40
0.395403023108331
40
0.454165270396913
40
0.51273764652187
40
0.589694248036398
40
0.64807361867136
40
0.699984891847482
40
0.772747720320257
40
0.850802491599654
40
0.890923542947376
40
0.924374622096735
40
0.948011413553919
40
0.97481191686403
40
1
40
1
40
1
40
1
41
1
10
61.4018072383861
20
7.634873766678
30
0
41
1
10
61.2301688761144
20
7.63591036070466
30
0
41
1
10
60.8195822102159
20
7.6380472774816
30
0
41
1
10
60.1977296072091
20
7.64030370610055
30
0
41
1
10
59.528423387614
20
7.64066194516909
30
0
41
1
10
58.9249126436296
20
7.64054572388329
30
0
41
1
10
58.3993901501041
20
7.63945713348258
30
0
41
1
10
57.9063776399591
20
7.63911546576509
30
0
41
1
10
57.3722984429294
20
7.63909547576478
30
0
41
1
10
56.7763295447008
20
7.63956093458467
30
0
41
1
10
56.0262810414636
20
7.63865934125531
30
0
41
1
10
55.1258726017914
20
7.63742011141076
30
0
41
1
10
54.068421222298
20
7.63803476434794
30
0
41
1
10
52.977054624059
20
7.63613083363188
30
0
41
1
10
51.7711362459729
20
7.63683787957328
30
0
41
1
10
50.5659190807039
20
7.63541495401742
30
0
41
1
10
49.4073975819431
20
7.63554712676921
30
0
41
1
10
48.2697937021696
20
7.6325309663759
30
0
41
1
10
47.0167163902221
20
7.63497109623398
30
0
41
1
10
45.8296894007159
20
7.63269997766866
30
0
41
1
10
44.8885833346777
20
7.63317584118045
30
0
41
1
10
44.2850221782205
20
7.63219830830616
30
0
41
1
10
43.7642670218036
20
7.63171719215848
30
0
41
1
10
43.2947300528227
20
7.63161890792651
30
0
41
1
10
42.9720245375014
20
7.63153139755553
30
0
41
1
10
42.8157255219918
20
7.63146564112552
30
0
0
SPLINE
5
AB
100
AcDbEntity
8
1
62
256
6
ByLayer
370
18
48
1
60
0
100
AcDbSpline
70
4
71
3
72
28
73
24
40
0
40
0
40
0
40
0
40
0.0600306468435171
40
0.119035883414291
40
0.162561658186772
40
0.196934423146283
40
0.224852714747577
40
0.257779372510522
40
0.300763000505422
40
0.367892566941491
40
0.430576418519114
40
0.488556929894623
40
0.543603696275453
40
0.59071881766565
40
0.630221920745192
40
0.673399604129079
40
0.72929079050384
40
0.775958351174264
40
0.815991629999497
40
0.878509293784054
40
0.947287017630477
40
0.984745876532
40
1
40
1
40
1
40
1
41
1
10
4.25047259966706
20
-7.60846384106617
30
0
41
1
10
4.56430652168402
20
-7.60916557260575
30
0
41
1
10
5.18661267131091
20
-7.61026162620027
30
0
41
1
10
6.03648585801474
20
-7.61071173481122
30
0
41
1
10
6.7521857297111
20
-7.61087153633952
30
0
41
1
10
7.30539747174387
20
-7.61101048690946
30
0
41
1
10
7.80317902596195
20
-7.61118300343043
30
0
41
1
10
8.34591885522812
20
-7.6112253845078
30
0
41
1
10
9.09224348260662
20
-7.61251613120669
30
0
41
1
10
9.99388500865044
20
-7.61208302883495
30
0
41
1
10
10.9771788557964
20
-7.61327109786797
30
0
41
1
10
11.8903211988589
20
-7.61479344772098
30
0
41
1
10
12.728527187881
20
-7.6135504323415
30
0
41
1
10
13.4689233341857
20
-7.61441985640371
30
0
41
1
10
14.1475465850739
20
-7.61531873874472
30
0
41
1
10
14.8719269382011
20
-7.61519684293566
30
0
41
1
10
15.6340487744686
20
-7.61552756907651
30
0
41
1
10
16.3787038841653
20
-7.61666844462238
30
0
41
1
10
17.158127392717
20
-7.61649403933217
30
0
41
1
10
18.0533149688203
20
-7.61727415859417
30
0
41
1
10
18.9252255264609
20
-7.61874946294205
30
0
41
1
10
19.5308133092425
20
-7.6109521701448
30
0
41
1
10
19.8050238946319
20
-7.60952963080405
30
0
41
1
10
19.8847702467015
20
-7.60914760272945
30
0
0
SPLINE
5
AC
100
AcDbEntity
8
1
62
256
6
ByLayer
370
18
48
1
60
0
100
AcDbSpline
70
4
71
3
72
9
73
5
40
0
40
0
40
0
40
0
40
0.256918652973664
40
1
40
1
40
1
40
1
41
1
10
61.2547607556967
20
-1.49067212469856
30
0
41
1
10
61.2551720798144
20
-1.49098946911576
30
0
41
1
10
61.2635825731678
20
-1.49610525256983
30
0
41
1
10
61.2828486117735
20
-1.50780365015669
30
0
41
1
10
61.308944939665
20
-1.52328202630591
30
0
0
SPLINE
5
AD
100
AcDbEntity
8
1
62
256
6
ByLayer
370
18
48
1
60
0
100
AcDbSpline
70
4
71
3
72
16
73
12
40
0
40
0
40
0
40
0
40
0.105436909376656
40
0.105436909376656
40
0.741570662762112
40
0.741570662762112
40
0.900604101108477
40
0.900604101108477
40
0.980120820281656
40
0.980120820281656
40
1
40
1
40
1
40
1
41
1
10
39.1808150130357
20
-7.62888985235855
30
0
41
1
10
38.9113839413241
20
-7.62792116824099
30
0
41
1
10
38.6423725705219
20
-7.62221916103437
30
0
41
1
10
36.7524358028984
20
-7.54919734869435
30
0
41
1
10
35.1417282167892
20
-7.31585507413251
30
0
41
1
10
33.1082605811348
20
-6.82326182799841
30
0
41
1
10
32.7004989382507
20
-6.71471290073052
30
0
41
1
10
32.0867170265812
20
-6.53714545568113
30
0
41
1
10
31.8815886256958
20
-6.47542406295565
30
0
41
1
10
31.6258868879213
20
-6.39561368910796
30
0
41
1
10
31.5747693068268
20
-6.37951528710761
30
0
41
1
10
31.5236735170892
20
-6.36328170084354
30
0
0
SPLINE
5
AE
100
AcDbEntity
8
1
62
256
6
ByLayer
370
13
48
1
60
0
100
AcDbSpline
70
4
71
3
72
28
73
24
40
0
40
0
40
0
40
0
40
0.0260579534450627
40
0.0260579534450627
40
0.165033704848563
40
0.165033704848563
40
0.442985207655562
40
0.442985207655562
40
0.512473083357313
40
0.512473083357313
40
0.581960959059064
40
0.581960959059064
40
0.720936710462564
40
0.720936710462564
40
0.859912461866065
40
0.859912461866065
40
0.929400337567816
40
0.929400337567816
40
0.96414427541869
40
0.96414427541869
40
0.998888213269564
40
0.998888213269564
40
1
40
1
40
1
40
1
41
1
10
31.5236735175156
20
-6.36328170097894
30
0
41
1
10
31.3703861473899
20
-6.31458094189898
30
0
41
1
10
31.2172948994792
20
-6.26466352443092
30
0
41
1
10
30.2487923888764
20
-5.94100983354264
30
0
41
1
10
29.4379826365592
20
-5.63487253888709
30
0
41
1
10
27.0100000035689
20
-4.62922277761575
30
0
41
1
10
25.3973562552078
20
-3.84255881897275
30
0
41
1
10
23.3551694201297
20
-2.76034974781396
30
0
41
1
10
22.9445003416053
20
-2.5385147423595
30
0
41
1
10
22.1272898529673
20
-2.09029596787107
30
0
41
1
10
21.7200634141725
20
-1.86360789952528
30
0
41
1
10
20.501052650492
20
-1.17840517755229
30
0
41
1
10
19.6920386714215
20
-0.714572984346319
30
0
41
1
10
18.0746520287329
20
0.215317006624531
30
0
41
1
10
17.2663061353533
20
0.681422658539731
30
0
41
1
10
16.0492431061819
20
1.37334686737878
30
0
41
1
10
15.642778124819
20
1.60274741745863
30
0
41
1
10
15.0313484940445
20
1.94398320942426
30
0
41
1
10
14.8272484268256
20
2.05724831783979
30
0
41
1
10
14.418344895727
20
2.28260023873884
30
0
41
1
10
14.2133000600284
20
2.39481748420729
30
0
41
1
10
14.0019037717897
20
2.50955843818457
30
0
41
1
10
13.9953493431901
20
2.51311509736163
30
0
41
1
10
13.9887952977527
20
2.51667061400499
30
0
0
SPLINE
5
AF
100
AcDbEntity
8
1
62
256
6
ByLayer
370
18
48
1
60
0
100
AcDbSpline
70
4
71
3
72
104
73
100
40
0
40
0
40
0
40
0
40
0.0082983898955978
40
0.0082983898955978
40
0.026946398937355
40
0.026946398937355
40
0.0455944079791123
40
0.0455944079791123
40
0.0642424170208696
40
0.0642424170208696
40
0.0828904260626269
40
0.0828904260626269
40
0.101538435104384
40
0.101538435104384
40
0.120186444146141
40
0.120186444146141
40
0.138834453187899
40
0.138834453187899
40
0.157482462229656
40
0.157482462229656
40
0.176130471271413
40
0.176130471271413
40
0.194778480313171
40
0.194778480313171
40
0.232074498396685
40
0.232074498396685
40
0.250722507438443
40
0.250722507438443
40
0.2693705164802
40
0.2693705164802
40
0.288018525521958
40
0.288018525521958
40
0.306666534563716
40
0.306666534563716
40
0.343962552647231
40
0.343962552647231
40
0.362610561688988
40
0.362610561688988
40
0.381258570730746
40
0.381258570730746
40
0.399906579772503
40
0.399906579772503
40
0.418554588814261
40
0.418554588814261
40
0.437202597856019
40
0.437202597856019
40
0.455850606897776
40
0.455850606897776
40
0.474498615939534
40
0.474498615939534
40
0.493146624981291
40
0.493146624981291
40
0.511794634023048
40
0.511794634023048
40
0.530442643064806
40
0.530442643064806
40
0.567738661148321
40
0.567738661148321
40
0.586386670190078
40
0.586386670190078
40
0.605034679231835
40
0.605034679231835
40
0.623682688273592
40
0.623682688273592
40
0.642330697315349
40
0.642330697315349
40
0.679626715398862
40
0.679626715398862
40
0.698274724440619
40
0.698274724440619
40
0.716922733482376
40
0.716922733482376
40
0.735570742524133
40
0.735570742524133
40
0.75421875156589
40
0.75421875156589
40
0.772866760607647
40
0.772866760607647
40
0.791514769649404
40
0.791514769649404
40
0.828810787732918
40
0.828810787732918
40
0.847458796774675
40
0.847458796774675
40
0.866106805816432
40
0.866106805816432
40
0.884754814858189
40
0.884754814858189
40
0.903402823899946
40
0.903402823899946
40
0.940698841983461
40
0.940698841983461
40
0.959346851025219
40
0.959346851025219
40
0.977994860066977
40
0.977994860066977
40
0.996642869108735
40
0.996642869108735
40
1
40
1
40
1
40
1
41
1
10
28.2703217440399
20
5.92639340964467
30
0
41
1
10
28.4123170314157
20
5.98336421689731
30
0
41
1
10
28.554326970459
20
6.03935894234453
30
0
41
1
10
29.0154482090253
20
6.21809052710842
30
0
41
1
10
29.3343731277783
20
6.33721350711804
30
0
41
1
10
29.973075580772
20
6.56410924273425
30
0
41
1
10
30.2925196011124
20
6.67115871372525
30
0
41
1
10
30.9309826508544
20
6.87332526466568
30
0
41
1
10
31.25003048238
20
6.96841099047174
30
0
41
1
10
31.8874406971461
20
7.14681349453301
30
0
41
1
10
32.2054628564696
20
7.23034709917732
30
0
41
1
10
32.8424468682327
20
7.38428642184547
30
0
41
1
10
33.1616591038922
20
7.45457705298781
30
0
41
1
10
33.8009295674645
20
7.58228095612378
30
0
41
1
10
34.1211689301144
20
7.6396842336911
30
0
41
1
10
34.759656742957
20
7.74115590980799
30
0
41
1
10
35.0778467697701
20
7.78539224592006
30
0
41
1
10
35.7148415663357
20
7.85981044295693
30
0
41
1
10
36.0336870811471
20
7.89004437070702
30
0
41
1
10
36.671534319233
20
7.93688842199145
30
0
41
1
10
36.9905606006611
20
7.95348919876216
30
0
41
1
10
37.6285048510203
20
7.97292963220065
30
0
41
1
10
37.9472545260259
20
7.97572864771533
30
0
41
1
10
38.9055888443931
20
7.96306105928133
30
0
41
1
10
39.5442929043702
20
7.92704359717115
30
0
41
1
10
40.4998450509432
20
7.83175590980574
30
0
41
1
10
40.8176546623437
20
7.79291745919275
30
0
41
1
10
41.4549824912933
20
7.70211597365395
30
0
41
1
10
41.7742466924141
20
7.65012285006674
30
0
41
1
10
42.4135258225002
20
7.53280092136305
30
0
41
1
10
42.7336059753265
20
7.46745016649069
30
0
41
1
10
43.3716028613031
20
7.32362222345088
30
0
41
1
10
43.6896197411467
20
7.24488595335467
30
0
41
1
10
44.6454280737493
20
6.9915450284833
30
0
41
1
10
45.283535336108
20
6.79916229145218
30
0
41
1
10
46.239957522096
20
6.47332475610642
30
0
41
1
10
46.5587910728958
20
6.35820287873082
30
0
41
1
10
47.197787070668
20
6.11854005396836
30
0
41
1
10
47.5171611985494
20
5.99379163152156
30
0
41
1
10
48.1552893482584
20
5.73417802177894
30
0
41
1
10
48.474052942774
20
5.59932294566298
30
0
41
1
10
49.1106429942814
20
5.31901406678881
30
0
41
1
10
49.428498728866
20
5.17355394417538
30
0
41
1
10
50.066059113796
20
4.87550874501139
30
0
41
1
10
50.3853469978771
20
4.72242441985267
30
0
41
1
10
51.0245826730835
20
4.40764977309251
30
0
41
1
10
51.3444573675693
20
4.2459979817539
30
0
41
1
10
51.9819186878267
20
3.91484027366082
30
0
41
1
10
52.3000361096503
20
3.74545144281282
30
0
41
1
10
52.9373683096733
20
3.40254200419108
30
0
41
1
10
53.2561885967261
20
3.22845564187264
30
0
41
1
10
53.8937936158445
20
2.87452135202781
30
0
41
1
10
54.2125851311574
20
2.69468401543006
30
0
41
1
10
54.8498040521041
20
2.32861684492752
30
0
41
1
10
55.1689443616175
20
2.1428418327711
30
0
41
1
10
56.1274385189541
20
1.58362570439408
30
0
41
1
10
56.7656331007173
20
1.20659882037415
30
0
41
1
10
57.7198302447849
20
0.631592556514988
30
0
41
1
10
58.0379779694087
20
0.43932941446721
30
0
41
1
10
58.6756944348918
20
0.0557253337595682
30
0
41
1
10
58.9949915816693
20
-0.136066088714813
30
0
41
1
10
59.6341329477289
20
-0.52018966644016
30
0
41
1
10
59.9537033009437
20
-0.712436777027875
30
0
41
1
10
60.5906543012034
20
-1.09618839161158
30
0
41
1
10
60.9090479939918
20
-1.2866765817993
30
0
41
1
10
61.8651043020185
20
-1.85222304243678
30
0
41
1
10
62.5026693284773
20
-2.22300424362939
30
0
41
1
10
63.458160556725
20
-2.77145279132321
30
0
41
1
10
63.7777020257366
20
-2.9517889047315
30
0
41
1
10
64.416636790734
20
-3.3056975983541
30
0
41
1
10
64.7358462663131
20
-3.47945500801279
30
0
41
1
10
65.3734255594763
20
-3.82110001823847
30
0
41
1
10
65.6916677550801
20
-3.989168326461
30
0
41
1
10
66.3275814089647
20
-4.31892733226857
30
0
41
1
10
66.6460390559013
20
-4.47950581915157
30
0
41
1
10
67.2838457882852
20
-4.79232613278745
30
0
41
1
10
67.6031287288335
20
-4.94466026438838
30
0
41
1
10
68.2421354884303
20
-5.24153543999262
30
0
41
1
10
68.5612420123967
20
-5.38609334034848
30
0
41
1
10
69.5164073162879
20
-5.80509857123766
30
0
41
1
10
70.1541435109368
20
-6.06210072002426
30
0
41
1
10
71.1098910367835
20
-6.41721043627254
30
0
41
1
10
71.4280982472121
20
-6.53068739527453
30
0
41
1
10
72.0652004495302
20
-6.74625482867839
30
0
41
1
10
72.3850188539748
20
-6.84790884596922
30
0
41
1
10
73.0238279428089
20
-7.03876475596968
30
0
41
1
10
73.3429178310765
20
-7.12798868018754
30
0
41
1
10
73.9801511850601
20
-7.29428300852615
30
0
41
1
10
74.2979884805879
20
-7.3715314950538
30
0
41
1
10
75.2520958598369
20
-7.58344965776371
30
0
41
1
10
75.8903831328634
20
-7.69779849096975
30
0
41
1
10
76.8486175937643
20
-7.83017895814544
30
0
41
1
10
77.1672117007178
20
-7.86770440474416
30
0
41
1
10
77.8043082597951
20
-7.9286114114731
30
0
41
1
10
78.1231371052675
20
-7.95202787808225
30
0
41
1
10
78.7607819720088
20
-7.98513254357587
30
0
41
1
10
79.0796262202748
20
-7.99481148197387
30
0
41
1
10
79.455710364504
20
-7.99806378968438
30
0
41
1
10
79.5130700412141
20
-7.99833382103174
30
0
41
1
10
79.5704217754387
20
-7.99837757257126
30
0
0
SPLINE
5
B0
100
AcDbEntity
8
1
62
256
6
ByLayer
370
18
48
1
60
0
100
AcDbSpline
70
4
71
3
72
36
73
32
40
0
40
0
40
0
40
0
40
0.0625000000000018
40
0.0625000000000018
40
0.0937500000000026
40
0.0937500000000026
40
0.125000000000003
40
0.125000000000003
40
0.187500000000006
40
0.187500000000006
40
0.218750000000008
40
0.218750000000008
40
0.25000000000001
40
0.25000000000001
40
0.375000000000019
40
0.375000000000019
40
0.40625000000002
40
0.40625000000002
40
0.437500000000021
40
0.437500000000021
40
0.500000000000022
40
0.500000000000022
40
0.625000000000023
40
0.625000000000023
40
0.687500000000021
40
0.687500000000021
40
0.750000000000019
40
0.750000000000019
40
0.87500000000001
40
0.87500000000001
40
1
40
1
40
1
40
1
41
1
10
73.9045782426979
20
4.21285936573423
30
0
41
1
10
73.9010434993681
20
4.00436398645022
30
0
41
1
10
73.9153427727913
20
3.78982747440455
30
0
41
1
10
73.9634054315594
20
3.45900750852576
30
0
41
1
10
73.9839796164974
20
3.34675188724012
30
0
41
1
10
74.0335604472716
20
3.12150893020896
30
0
41
1
10
74.0623977764921
20
3.00909804740059
30
0
41
1
10
74.1601807353027
20
2.67245192447154
30
0
41
1
10
74.240356908019
20
2.44880110602898
30
0
41
1
10
74.3805507135696
20
2.11436198394963
30
0
41
1
10
74.4306147440439
20
2.00305570883742
30
0
41
1
10
74.5370954412266
20
1.78077374087309
30
0
41
1
10
74.5933999911518
20
1.67007788863961
30
0
41
1
10
74.8859005575891
20
1.12464487386046
30
0
41
1
10
75.1571251554467
20
0.707839284757
30
0
41
1
10
75.5304915916994
20
0.20485682561997
30
0
41
1
10
75.6069174614172
20
0.105180352333264
30
0
41
1
10
75.7630898890331
20
-0.0924293982700988
30
0
41
1
10
75.8429450378723
20
-0.190481526564326
30
0
41
1
10
76.0852238278914
20
-0.479770798751815
30
0
41
1
10
76.2509362883852
20
-0.666940138915635
30
0
41
1
10
76.7587824561073
20
-1.21391656349073
30
0
41
1
10
77.1114037030423
20
-1.55949227884204
30
0
41
1
10
77.6573311862905
20
-2.05479316552169
30
0
41
1
10
77.8422845174687
20
-2.21585305204795
30
0
41
1
10
78.2177859315824
20
-2.53038086556686
30
0
41
1
10
78.4085755423464
20
-2.68417095133975
30
0
41
1
10
78.9860411036467
20
-3.13391218757056
30
0
41
1
10
79.376431020093
20
-3.41712995399664
30
0
41
1
10
80.1664132812483
20
-3.95532729903761
30
0
41
1
10
80.5660121190729
20
-4.21028695314865
30
0
41
1
10
80.9696911726823
20
-4.45272622716615
30
0
0
SPLINE
5
B1
100
AcDbEntity
8
1
62
256
6
ByLayer
370
18
48
1
60
0
100
AcDbSpline
70
4
71
3
72
68
73
64
40
0
40
0
40
0
40
0
40
0.125000000000009
40
0.125000000000009
40
0.15625000000001
40
0.15625000000001
40
0.187500000000012
40
0.187500000000012
40
0.250000000000015
40
0.250000000000015
40
0.37500000000002
40
0.37500000000002
40
0.500000000000026
40
0.500000000000026
40
0.531250000000028
40
0.531250000000028
40
0.562500000000029
40
0.562500000000029
40
0.625000000000032
40
0.625000000000032
40
0.687500000000034
40
0.687500000000034
40
0.703125000000035
40
0.703125000000035
40
0.710937500000036
40
0.710937500000036
40
0.714843750000036
40
0.714843750000036
40
0.716796875000036
40
0.716796875000036
40
0.718750000000036
40
0.718750000000036
40
0.750000000000033
40
0.750000000000033
40
0.781250000000029
40
0.781250000000029
40
0.796875000000027
40
0.796875000000027
40
0.812500000000025
40
0.812500000000025
40
0.820312500000024
40
0.820312500000024
40
0.828125000000023
40
0.828125000000023
40
0.843750000000021
40
0.843750000000021
40
0.85156250000002
40
0.85156250000002
40
0.859375000000019
40
0.859375000000019
40
0.875000000000017
40
0.875000000000017
40
0.890625000000015
40
0.890625000000015
40
0.906250000000013
40
0.906250000000013
40
0.921875000000011
40
0.921875000000011
40
0.937500000000008
40
0.937500000000008
40
0.968750000000004
40
0.968750000000004
40
1
40
1
40
1
40
1
41
1
10
21.0394883597791
20
-2.2988835228571
30
0
41
1
10
20.1125883191268
20
-1.76289722364268
30
0
41
1
10
19.1764015398784
20
-1.23081430068706
30
0
41
1
10
17.9854437518237
20
-0.589527550928295
30
0
41
1
10
17.7462057501813
20
-0.462503544513396
30
0
41
1
10
17.2671543500848
20
-0.212414450896858
30
0
41
1
10
17.0271197543683
20
-0.0892297685284973
30
0
41
1
10
16.3051388877147
20
0.273927430452204
30
0
41
1
10
15.8213115922976
20
0.507489028317963
30
0
41
1
10
14.3595734041002
20
1.17631174565577
30
0
41
1
10
13.3712665374445
20
1.57930997916481
30
0
41
1
10
11.354784970871
20
2.27364508867302
30
0
41
1
10
10.3266346935795
20
2.565106356802
30
0
41
1
10
9.01142924803108
20
2.85039265880863
30
0
41
1
10
8.74689487787816
20
2.90351596235914
30
0
41
1
10
8.21473293195814
20
3.00170525238659
30
0
41
1
10
7.94726477720181
20
3.04673080755035
30
0
41
1
10
7.14378741842495
20
3.1689571974147
30
0
41
1
10
6.60533738612813
20
3.23357159233655
30
0
41
1
10
5.52387775255443
20
3.32834623791635
30
0
41
1
10
4.98211290936598
20
3.3584354720258
30
0
41
1
10
4.30355016998757
20
3.37377280974493
30
0
41
1
10
4.16776043704428
20
3.375722928177
30
0
41
1
10
3.96400148053047
20
3.37694705296897
30
0
41
1
10
3.89608394036489
20
3.37707147485267
30
0
41
1
10
3.79421082041625
20
3.3768297133245
30
0
41
1
10
3.75997893350848
20
3.37406407685364
30
0
41
1
10
3.71068858696768
20
3.36333508518979
30
0
41
1
10
3.69454911061308
20
3.35871782001445
30
0
41
1
10
3.66309114160353
20
3.34653638939719
30
0
41
1
10
3.64848996654493
20
3.33877535886481
30
0
41
1
10
3.41470664605293
20
3.19046746611895
30
0
41
1
10
3.20368730661133
20
3.03649172843143
30
0
41
1
10
2.81597117402797
20
2.69601890693124
30
0
41
1
10
2.63815632959935
20
2.50931090801291
30
0
41
1
10
2.40689950042756
20
2.19192105560114
30
0
41
1
10
2.33705492136724
20
2.08135537982648
30
0
41
1
10
2.21511993760154
20
1.85134876062867
30
0
41
1
10
2.16280581498577
20
1.73162260809875
30
0
41
1
10
2.09930113799126
20
1.54377464875199
30
0
41
1
10
2.08067579222674
20
1.47977495299281
30
0
41
1
10
2.04935928602208
20
1.35154487349854
30
0
41
1
10
2.03655028953946
20
1.28699491874903
30
0
41
1
10
2.00659577658306
20
1.09203912729055
30
0
41
1
10
1.99791510900445
20
0.96032847720636
30
0
41
1
10
2.00167141807009
20
0.760127264841742
30
0
41
1
10
2.0057659107859
20
0.692677708598666
30
0
41
1
10
2.01924868077435
20
0.559204945973335
30
0
41
1
10
2.02861673160172
20
0.49298057797742
30
0
41
1
10
2.06398701831321
20
0.295720564283613
30
0
41
1
10
2.09723299834863
20
0.166093535843686
30
0
41
1
10
2.18044873459255
20
-0.0899236796981597
30
0
41
1
10
2.23013342904199
20
-0.215223981270412
30
0
41
1
10
2.34099336586098
20
-0.457634967489838
30
0
41
1
10
2.40239931823129
20
-0.575421099232358
30
0
41
1
10
2.53496683460637
20
-0.805392673991264
30
0
41
1
10
2.60613816841729
20
-0.917572618071375
30
0
41
1
10
2.75668320222388
20
-1.13720712622376
30
0
41
1
10
2.83610715800606
20
-1.24465877549901
30
0
41
1
10
3.08141302707438
20
-1.5567605006149
30
0
41
1
10
3.25534148509965
20
-1.7529847302998
30
0
41
1
10
3.61764588412095
20
-2.12863367702661
30
0
41
1
10
3.80608963223494
20
-2.30798456473403
30
0
41
1
10
4.00000012715788
20
-2.48083856720484
30
0
0
SPLINE
5
B2
100
AcDbEntity
8
1
62
256
6
ByLayer
370
18
48
1
60
0
100
AcDbSpline
70
4
71
3
72
16
73
12
40
0
40
0
40
0
40
0
40
0.0633496571797229
40
0.0633496571797229
40
0.319826047879049
40
0.319826047879049
40
0.448064243228711
40
0.448064243228711
40
0.576302438578374
40
0.576302438578374
40
1
40
1
40
1
40
1
41
1
10
18.2516575063161
20
-0.0006157656968924
30
0
41
1
10
18.4516470847945
20
-0.117154465750048
30
0
41
1
10
18.6516079182801
20
-0.233680085018307
30
0
41
1
10
19.6612449030637
20
-0.821443281053604
30
0
41
1
10
20.4712514818
20
-1.29112904665163
30
0
41
1
10
21.6919183494152
20
-1.98420545492155
30
0
41
1
10
22.0997247487059
20
-2.21336619090678
30
0
41
1
10
22.9181671568551
20
-2.66622194059775
30
0
41
1
10
23.3294295195622
20
-2.89017515276646
30
0
41
1
10
25.0895419582339
20
-3.8297082094339
30
0
41
1
10
26.4260573266629
20
-4.49469966150235
30
0
41
1
10
27.7636078053473
20
-5.08245849078244
30
0
0
SPLINE
5
B3
100
AcDbEntity
8
1
62
256
6
ByLayer
370
13
48
1
60
0
100
AcDbSpline
70
4
71
3
72
22
73
18
40
0
40
0
40
0
40
0
40
0.0637897845068973
40
0.0637897845068973
40
0.247090813794329
40
0.247090813794329
40
0.292916071116186
40
0.292916071116186
40
0.338741328438044
40
0.338741328438044
40
0.43039184308176
40
0.43039184308176
40
0.796993901656627
40
0.796993901656627
40
0.980294930944061
40
0.980294930944061
40
1
40
1
40
1
40
1
41
1
10
27.7636078052051
20
-5.08245849071997
30
0
41
1
10
28.0453733216855
20
-5.20627450569566
30
0
41
1
10
28.3271847729767
20
-5.32666318923702
30
0
41
1
10
29.4195320421015
20
-5.77895510418762
30
0
41
1
10
30.2314092346518
20
-6.08458298500702
30
0
41
1
10
31.2524518879913
20
-6.42350368218044
30
0
41
1
10
31.4569716817641
20
-6.48912698753213
30
0
41
1
10
31.8667605932143
20
-6.61590261571899
30
0
41
1
10
32.0721861074953
20
-6.67709389787845
30
0
41
1
10
32.6867014762508
20
-6.85286475230455
30
0
41
1
10
33.0949296597767
20
-6.95999175217426
30
0
41
1
10
35.130743833432
20
-7.44438027891582
30
0
41
1
10
36.7431340974337
20
-7.66785335844153
30
0
41
1
10
39.1782729730523
20
-7.74264676252494
30
0
41
1
10
39.992817978854
20
-7.72425677368102
30
0
41
1
10
40.9018479060195
20
-7.65432285323553
30
0
41
1
10
40.990069319553
20
-7.6470261824204
30
0
41
1
10
41.0782789774355
20
-7.63922273478522
30
0
0
SPLINE
5
B4
100
AcDbEntity
8
1
62
256
6
ByLayer
370
18
48
1
60
0
100
AcDbSpline
70
4
71
3
72
20
73
16
40
0
40
0
40
0
40
0
40
0.125000000000002
40
0.125000000000002
40
0.250000000000005
40
0.250000000000005
40
0.500000000000003
40
0.500000000000003
40
0.750000000000001
40
0.750000000000001
40
0.875
40
0.875
40
0.9375
40
0.9375
40
1
40
1
40
1
40
1
41
1
10
83.7609124704311
20
3.85457791019854
30
0
41
1
10
83.6988777593156
20
4.02137113501922
30
0
41
1
10
83.6368187287475
20
4.18803787458242
30
0
41
1
10
83.512636155279
20
4.52103582564223
30
0
41
1
10
83.4505112759629
20
4.68736008645226
30
0
41
1
10
83.2641484891629
20
5.1863945065997
30
0
41
1
10
83.1398926582808
20
5.51901144650159
30
0
41
1
10
82.8911897544679
20
6.18325067810818
30
0
41
1
10
82.7666698127073
20
6.51457302404103
30
0
41
1
10
82.5799116063322
20
7.01139575152445
30
0
41
1
10
82.5176554571766
20
7.17690549655077
30
0
41
1
10
82.4242462193344
20
7.42445325195567
30
0
41
1
10
82.3931052254212
20
7.5068378781215
30
0
41
1
10
82.330806590745
20
7.67113005984268
30
0
41
1
10
82.2996521671697
20
7.7531298145669
30
0
41
1
10
82.2684970927311
20
7.83511091664548
30
0
0
SPLINE
5
B5
100
AcDbEntity
8
1
62
256
6
ByLayer
370
18
48
1
60
0
100
AcDbSpline
70
4
71
3
72
22
73
18
40
0
40
0
40
0
40
0
40
0.125
40
0.125
40
0.25
40
0.25
40
0.5
40
0.5
40
0.625
40
0.625
40
0.687500000000001
40
0.687500000000001
40
0.750000000000001
40
0.750000000000001
40
0.875
40
0.875
40
1
40
1
40
1
40
1
41
1
10
13.628859980036
20
-6.94497252511417
30
0
41
1
10
13.2151220205073
20
-6.84732565243073
30
0
41
1
10
12.8027558602611
20
-6.73778417628839
30
0
41
1
10
11.9853909635376
20
-6.49696171593351
30
0
41
1
10
11.5798994175249
20
-6.36506334986663
30
0
41
1
10
10.3708647500724
20
-5.93440944227692
30
0
41
1
10
9.57414429977379
20
-5.6037606251418
30
0
41
1
10
8.38991571826355
20
-5.03449977780167
30
0
41
1
10
7.99696815049563
20
-4.833405221764
30
0
41
1
10
7.41078141634793
20
-4.51181613814671
30
0
41
1
10
7.21593360260252
20
-4.40126449890096
30
0
41
1
10
6.82753250176631
20
-4.17272274283192
30
0
41
1
10
6.63364133486564
20
-4.05452035852159
30
0
41
1
10
6.05702089941371
20
-3.68893208128873
30
0
41
1
10
5.67994635879063
20
-3.43130013954112
30
0
41
1
10
4.94674835479381
20
-2.87886748822851
30
0
41
1
10
4.59038668655782
20
-2.58442724188507
30
0
41
1
10
4.25103796867037
20
-2.26173702226825
30
0
0
SPLINE
5
B6
100
AcDbEntity
8
1
62
256
6
ByLayer
370
18
48
1
60
0
100
AcDbSpline
70
4
71
3
72
83
73
79
40
0
40
0
40
0
40
0
40
0.0119310925181615
40
0.0119310925181615
40
0.0876489253208692
40
0.0876489253208692
40
0.125507841722223
40
0.125507841722223
40
0.1444372999229
40
0.1444372999229
40
0.163366758123577
40
0.163366758123577
40
0.239084590926284
40
0.239084590926284
40
0.276943507327638
40
0.276943507327638
40
0.314802423728992
40
0.314802423728992
40
0.390520256531699
40
0.390520256531699
40
0.391703347669242
40
0.392294893238013
40
0.392294893238013
40
0.392590666022399
40
0.392590666022399
40
0.392886438806784
40
0.392886438806784
40
0.394069529944326
40
0.394069529944326
40
0.395252621081868
40
0.395252621081868
40
0.399984985632038
40
0.399984985632038
40
0.409449714732377
40
0.409449714732377
40
0.428379172933054
40
0.428379172933054
40
0.466238089334408
40
0.466238089334408
40
0.504097005735762
40
0.504097005735762
40
0.541955922137116
40
0.541955922137116
40
0.617673754939825
40
0.617673754939825
40
0.655532671341179
40
0.655532671341179
40
0.674462129541856
40
0.674462129541856
40
0.683926858642195
40
0.683926858642195
40
0.68629304091728
40
0.68629304091728
40
0.686884586486051
40
0.686884586486051
40
0.687032472878243
40
0.687032472878243
40
0.687180359270436
40
0.687180359270436
40
0.687476132054822
40
0.688659223192364
40
0.693391587742533
40
0.693391587742533
40
0.76910942054523
40
0.76910942054523
40
0.844827253347928
40
0.844827253347928
40
0.863756711548602
40
0.863756711548602
40
0.882686169749276
40
0.882686169749276
40
0.920545086150625
40
0.920545086150625
40
0.958404002551974
40
0.958404002551974
40
0.996262918953322
40
0.996262918953322
40
1
40
1
40
1
40
1
41
1
10
19.2181125191
20
-1.26262133979989
30
0
41
1
10
19.1542591835354
20
-1.23034517389368
30
0
41
1
10
19.0905234426641
20
-1.19869838382249
30
0
41
1
10
18.6249801478008
20
-0.972036717340444
30
0
41
1
10
18.2328709344934
20
-0.805844597061082
30
0
41
1
10
17.6490401655755
20
-0.607844865146177
30
0
41
1
10
17.4551368972813
20
-0.550364904862647
30
0
41
1
10
17.163958542322
20
-0.477595436202279
30
0
41
1
10
17.0668454136462
20
-0.455579765231363
30
0
41
1
10
16.8722852312893
20
-0.416134414080148
30
0
41
1
10
16.774715912376
20
-0.398694943257851
30
0
41
1
10
16.2895292086922
20
-0.323753769239005
30
0
41
1
10
15.906737026667
20
-0.302227147261107
30
0
41
1
10
15.3306888303586
20
-0.324335969449038
30
0
41
1
10
15.1383991268116
20
-0.340790150745818
30
0
41
1
10
14.7519452291324
20
-0.391585186984429
30
0
41
1
10
14.5573007166417
20
-0.426038588628302
30
0
41
1
10
13.9723024147743
20
-0.555280627517078
30
0
41
1
10
13.5827320472786
20
-0.675218203906894
30
0
41
1
10
13.1835809345356
20
-0.828800619183085
30
0
41
1
10
13.1743693748063
20
-0.832356007013146
30
0
41
1
10
13.1651572139229
20
-0.835928138982467
30
0
41
1
10
13.160551030724
20
-0.837716993739235
30
0
41
1
10
13.1586696421023
20
-0.838042968617145
30
0
41
1
10
13.1564308427763
20
-0.839889460445477
30
0
41
1
10
13.157634969318
20
-0.841389080810956
30
0
41
1
10
13.162373845287
20
-0.847140116809612
30
0
41
1
10
13.1680578841076
20
-0.851035235561142
30
0
41
1
10
13.1789085968681
20
-0.858842870986393
30
0
41
1
10
13.1845306750528
20
-0.862633495507424
30
0
41
1
10
13.2129420242247
20
-0.881331218003254
30
0
41
1
10
13.236662204546
20
-0.895616322846791
30
0
41
1
10
13.3081889135619
20
-0.938208234822781
30
0
41
1
10
13.356705072453
20
-0.965979540881108
30
0
41
1
10
13.5028617328494
20
-1.04894198103122
30
0
41
1
10
13.601303364114
20
-1.10363493243094
30
0
41
1
10
13.8974240991462
20
-1.26749570282871
30
0
41
1
10
14.0961117135035
20
-1.37633479352158
30
0
41
1
10
14.4943322118478
20
-1.59469492880174
30
0
41
1
10
14.6940427870038
20
-1.7040128339996
30
0
41
1
10
15.0934581925446
20
-1.92437785362804
30
0
41
1
10
15.293175348898
20
-2.03537688991008
30
0
41
1
10
15.8924966433749
20
-2.37061297270921
30
0
41
1
10
16.2926779228343
20
-2.59646978418712
30
0
41
1
10
16.8899331076045
20
-2.94396853979359
30
0
41
1
10
17.0886575435383
20
-3.06107115377407
30
0
41
1
10
17.3848260190128
20
-3.24101307020578
30
0
41
1
10
17.4833186718989
20
-3.30156546417342
30
0
41
1
10
17.6291198947362
20
-3.39561203257151
30
0
41
1
10
17.6777981191785
20
-3.42701371109598
30
0
41
1
10
17.7357756331025
20
-3.47031584189168
30
0
41
1
10
17.7474758582219
20
-3.47896623668103
30
0
41
1
10
17.7602454445606
20
-3.49185994856262
30
0
41
1
10
17.7629904033726
20
-3.49445969412335
30
0
41
1
10
17.7647115645373
20
-3.49874853263279
30
0
41
1
10
17.7649594535027
20
-3.49977205493536
30
0
41
1
10
17.7640623918506
20
-3.50146157057387
30
0
41
1
10
17.763266629565
20
-3.50204333010177
30
0
41
1
10
17.7613257400404
20
-3.50411638414855
30
0
41
1
10
17.7548563643697
20
-3.51102656699396
30
0
41
1
10
17.7276903713391
20
-3.54004932048153
30
0
41
1
10
17.7018389027451
20
-3.56768862452279
30
0
41
1
10
17.3504901800019
20
-3.94352155598679
30
0
41
1
10
17.0229569666109
20
-4.29708780183975
30
0
41
1
10
16.3786989233438
20
-4.97358027358374
30
0
41
1
10
16.060725205846
20
-5.29833667658227
30
0
41
1
10
15.6558661307125
20
-5.67500045804434
30
0
41
1
10
15.5744961608143
20
-5.74883688154856
30
0
41
1
10
15.41050500931
20
-5.89305458617181
30
0
41
1
10
15.3277368319175
20
-5.9635443126804
30
0
41
1
10
15.0794048741952
20
-6.16691534333313
30
0
41
1
10
14.9130927360428
20
-6.29239484390476
30
0
41
1
10
14.5751060054672
20
-6.51958868519466
30
0
41
1
10
14.403424425535
20
-6.62128793349152
30
0
41
1
10
14.0503800513233
20
-6.79701846006697
30
0
41
1
10
13.867666682872
20
-6.87125247266229
30
0
41
1
10
13.6652968422642
20
-6.93415100793558
30
0
41
1
10
13.6470929446069
20
-6.93964271968147
30
0
41
1
10
13.6288656627257
20
-6.94497638871209
30
0
0
SPLINE
5
B7
100
AcDbEntity
8
1
62
256
6
ByLayer
370
18
48
1
60
0
100
AcDbSpline
70
4
71
3
72
26
73
22
40
0
40
0
40
0
40
0
40
0.125
40
0.125
40
0.1875
40
0.1875
40
0.25
40
0.25
40
0.5
40
0.5
40
0.562499999999999
40
0.562499999999999
40
0.624999999999999
40
0.624999999999999
40
0.749999999999999
40
0.749999999999999
40
0.874999999999999
40
0.874999999999999
40
0.9375
40
0.9375
40
1
40
1
40
1
40
1
41
1
10
82.2138240577764
20
-7.65495548788749
30
0
41
1
10
82.1023743320598
20
-7.65485852482328
30
0
41
1
10
81.9963038049416
20
-7.63854991467994
30
0
41
1
10
81.8456628513736
20
-7.5885759592442
30
0
41
1
10
81.7968635076509
20
-7.56765558201767
30
0
41
1
10
81.7022076538144
20
-7.516945815014
30
0
41
1
10
81.656204745575
20
-7.48702245125295
30
0
41
1
10
81.4365950633675
20
-7.31635767304488
30
0
41
1
10
81.2924837140612
20
-7.1133117825527
30
0
41
1
10
81.1537566053435
20
-6.77227199040166
30
0
41
1
10
81.1281090715745
20
-6.69964493799941
30
0
41
1
10
81.0811783232834
20
-6.54519761739607
30
0
41
1
10
81.0598514005526
20
-6.46308206431843
30
0
41
1
10
81.0035765656363
20
-6.2065172364737
30
0
41
1
10
80.9759445861078
20
-6.02098752703293
30
0
41
1
10
80.9401475386038
20
-5.62139808260966
30
0
41
1
10
80.9319816543572
20
-5.40733954392593
30
0
41
1
10
80.9347531385816
20
-5.06423849339205
30
0
41
1
10
80.9382055775222
20
-4.94585631517219
30
0
41
1
10
80.950202333818
20
-4.70312833517454
30
0
41
1
10
80.9587116342227
20
-4.57919241158481
30
0
41
1
10
80.9696911726824
20
-4.45272622716618
30
0
0
SPLINE
5
B8
100
AcDbEntity
8
1
62
256
6
ByLayer
370
18
48
1
60
0
100
AcDbSpline
70
4
71
3
72
32
73
28
40
0
40
0
40
0
40
0
40
0.128866037233768
40
0.128866037233768
40
0.193299055850652
40
0.193299055850652
40
0.257732074467535
40
0.257732074467535
40
0.322165093084418
40
0.322165093084418
40
0.386598111701301
40
0.386598111701301
40
0.515464148935068
40
0.515464148935068
40
0.57989716755195
40
0.57989716755195
40
0.644330186168832
40
0.644330186168832
40
0.773196223402598
40
0.773196223402598
40
0.837629242019481
40
0.837629242019481
40
0.902062260636364
40
0.902062260636364
40
0.966495279253248
40
0.966495279253248
40
1
40
1
40
1
40
1
41
1
10
13.6288696453345
20
-6.9449752233181
30
0
41
1
10
14.2584925871027
20
-7.09428387846518
30
0
41
1
10
14.8868316359609
20
-7.21802438013805
30
0
41
1
10
15.8280281323587
20
-7.36866894436915
30
0
41
1
10
16.1415461942889
20
-7.41297655097461
30
0
41
1
10
16.7687945319912
20
-7.48857793479536
30
0
41
1
10
17.0828347263644
20
-7.51972576610879
30
0
41
1
10
17.711631043748
20
-7.5695440209623
30
0
41
1
10
18.0266786204318
20
-7.5883493077433
30
0
41
1
10
18.6558344876251
20
-7.61323579145895
30
0
41
1
10
18.9697568512296
20
-7.61918801376046
30
0
41
1
10
19.9109448340943
20
-7.61697204043392
30
0
41
1
10
20.5386464610204
20
-7.59021027990153
30
0
41
1
10
21.48029737495
20
-7.51203928357924
30
0
41
1
10
21.7941228419262
20
-7.47927059155256
30
0
41
1
10
22.4226377074668
20
-7.40143525732904
30
0
41
1
10
22.7376869998347
20
-7.35684594625536
30
0
41
1
10
23.6808688144108
20
-7.20389198253736
30
0
41
1
10
24.3078522440197
20
-7.07460204439008
30
0
41
1
10
25.2483493341799
20
-6.84922985119366
30
0
41
1
10
25.562169440338
20
-6.76887593814962
30
0
41
1
10
26.1903220623206
20
-6.59525749743389
30
0
41
1
10
26.5046784227311
20
-6.50244699454362
30
0
41
1
10
27.1339888039751
20
-6.30589574118417
30
0
41
1
10
27.4481826798562
20
-6.20242554258837
30
0
41
1
10
27.9253272345615
20
-6.0378377250882
30
0
41
1
10
28.088549461377
20
-5.98010035531513
30
0
41
1
10
28.2517564134793
20
-5.92099321377782
30
0
0
SPLINE
5
B9
100
AcDbEntity
8
1
62
256
6
ByLayer
370
18
48
1
60
0
100
AcDbSpline
70
4
71
3
72
34
73
30
40
0
40
0
40
0
40
0
40
0.0212328649856946
40
0.0212328649856946
40
0.0965226446021798
40
0.0965226446021798
40
0.171812424218664
40
0.171812424218664
40
0.24710220383515
40
0.24710220383515
40
0.322391983451635
40
0.322391983451635
40
0.397681763068119
40
0.397681763068119
40
0.472971542684605
40
0.472971542684605
40
0.54826132230109
40
0.54826132230109
40
0.623551101917575
40
0.623551101917575
40
0.69884088153406
40
0.69884088153406
40
0.774130661150545
40
0.774130661150545
40
0.84942044076703
40
0.84942044076703
40
0.924710220383515
40
0.924710220383515
40
1
40
1
40
1
40
1
41
1
10
61.4007369768128
20
7.63520436914561
30
0
41
1
10
61.4892581231288
20
7.63309331945848
30
0
41
1
10
61.5778211377372
20
7.63043307676506
30
0
41
1
10
61.9806977636262
20
7.61575722736058
30
0
41
1
10
62.2955439854936
20
7.59745883596997
30
0
41
1
10
62.9238948596338
20
7.54866625085037
30
0
41
1
10
63.2377329167343
20
7.51833429542694
30
0
41
1
10
63.8647582250764
20
7.44505927127744
30
0
41
1
10
64.1778768423052
20
7.40154282143934
30
0
41
1
10
64.8049746534577
20
7.30247078837778
30
0
41
1
10
65.1187719628708
20
7.2469966095905
30
0
41
1
10
65.7467187313343
20
7.12527424264562
30
0
41
1
10
66.0608595283443
20
7.05888111761377
30
0
41
1
10
66.6897416309784
20
6.91169177049366
30
0
41
1
10
67.0034303519424
20
6.83144877670904
30
0
41
1
10
67.6310166003173
20
6.6600728755281
30
0
41
1
10
67.9447203247337
20
6.5688648908951
30
0
41
1
10
68.5719305586653
20
6.37582026604443
30
0
41
1
10
68.8854422056861
20
6.27398575270303
30
0
41
1
10
69.5123517653749
20
6.06013711734676
30
0
41
1
10
69.825717302442
20
5.94818939863868
30
0
41
1
10
70.4537303037605
20
5.71546689152214
30
0
41
1
10
70.768515296767
20
5.59403680953909
30
0
41
1
10
71.3970479181318
20
5.3412427765692
30
0
41
1
10
71.7108233092201
20
5.20999316279847
30
0
41
1
10
72.337619796439
20
4.93856799504192
30
0
41
1
10
72.6506363302037
20
4.79838254543185
30
0
41
1
10
73.2773853081244
20
4.51116511208028
30
0
41
1
10
73.5909106405201
20
4.36384806930781
30
0
41
1
10
73.9045782426979
20
4.21285936573426
30
0
0
SPLINE
5
BA
100
AcDbEntity
8
1
62
256
6
ByLayer
370
18
48
1
60
0
100
AcDbSpline
70
4
71
3
72
44
73
40
40
0
40
0
40
0
40
0
40
0.250000000000008
40
0.250000000000008
40
0.375000000000014
40
0.375000000000014
40
0.437500000000015
40
0.437500000000015
40
0.500000000000016
40
0.500000000000016
40
0.562500000000024
40
0.562500000000024
40
0.625000000000032
40
0.625000000000032
40
0.750000000000041
40
0.750000000000041
40
0.765625000000042
40
0.765625000000042
40
0.781250000000042
40
0.781250000000042
40
0.812500000000036
40
0.812500000000036
40
0.84375000000003
40
0.84375000000003
40
0.859375000000024
40
0.859375000000024
40
0.875000000000019
40
0.875000000000019
40
0.906250000000012
40
0.906250000000012
40
0.92187500000001
40
0.92187500000001
40
0.937500000000008
40
0.937500000000008
40
0.953125000000006
40
0.953125000000006
40
0.968750000000004
40
0.968750000000004
40
1
40
1
40
1
40
1
41
1
10
73.904578242698
20
4.21285936573423
30
0
41
1
10
74.5271877482705
20
3.6621324858389
30
0
41
1
10
75.1703067659331
20
3.16142860678932
30
0
41
1
10
76.1693372799695
20
2.49415778974463
30
0
41
1
10
76.508074125829
20
2.28570162720851
30
0
41
1
10
77.0257918433782
20
1.99646228693615
30
0
41
1
10
77.2000719028274
20
1.90395624192567
30
0
41
1
10
77.5485615062355
20
1.7291799701751
30
0
41
1
10
77.7231871256871
20
1.64666642752681
30
0
41
1
10
78.0732481415131
20
1.49200475489235
30
0
41
1
10
78.2486830570602
20
1.41985047015837
30
0
41
1
10
78.6004400369108
20
1.28689769843547
30
0
41
1
10
78.7767394141429
20
1.22615940305161
30
0
41
1
10
79.3036296779551
20
1.0632718995744
30
0
41
1
10
79.6540385870605
20
0.979717145004543
30
0
41
1
10
80.0416021062607
20
0.920715373100478
30
0
41
1
10
80.084559183508
20
0.914742739017612
30
0
41
1
10
80.1697836436787
20
0.905785885087852
30
0
41
1
10
80.2120997181719
20
0.902430755559209
30
0
41
1
10
80.3380761199803
20
0.896051418562934
30
0
41
1
10
80.4205348230686
20
0.896778986306913
30
0
41
1
10
80.5796798402062
20
0.911141360683558
30
0
41
1
10
80.6566347392094
20
0.924653568981682
30
0
41
1
10
80.7662335045217
20
0.959031143108064
30
0
41
1
10
80.8018128372049
20
0.972942933161733
30
0
41
1
10
80.8685035876955
20
1.00626484620412
30
0
41
1
10
80.8998592627211
20
1.02568932065324
30
0
41
1
10
80.9881430903767
20
1.09199509460103
30
0
41
1
10
81.039328810082
20
1.14792794098312
30
0
41
1
10
81.0970356905318
20
1.24596069233431
30
0
41
1
10
81.1133125934813
20
1.28114304920919
30
0
41
1
10
81.1396232201742
20
1.35679306431942
30
0
41
1
10
81.1495975268416
20
1.39742009994927
30
0
41
1
10
81.1626984055506
20
1.4809587813356
30
0
41
1
10
81.1659805565181
20
1.52420449075055
30
0
41
1
10
81.1666294012394
20
1.61336807157221
30
0
41
1
10
81.1639537856782
20
1.65959676941455
30
0
41
1
10
81.1480666768885
20
1.79895608934925
30
0
41
1
10
81.1272313986414
20
1.89304276099369
30
0
41
1
10
81.1001245509188
20
1.98785214044864
30
0
0
SPLINE
5
BB
100
AcDbEntity
8
1
62
256
6
ByLayer
370
18
48
1
60
0
100
AcDbSpline
70
4
71
3
72
14
73
10
40
0
40
0
40
0
40
0
40
0.25
40
0.25
40
0.5
40
0.5
40
0.75
40
0.75
40
1
40
1
40
1
40
1
41
1
10
4.12122908541596
20
6.96498274133077
30
0
41
1
10
4.10265689292297
20
6.97036084177381
30
0
41
1
10
4.0859159588928
20
6.97674894605632
30
0
41
1
10
4.05598452869461
20
6.99142707772288
30
0
41
1
10
4.04289903014208
20
6.99973388877316
30
0
41
1
10
4.0218708340829
20
7.01730087111611
30
0
41
1
10
4.01363694360717
20
7.02681616255569
30
0
41
1
10
4.0027682714456
20
7.04609850387396
30
0
41
1
10
4.00000012718371
20
7.05589253336993
30
0
41
1
10
4.00000012718371
20
7.06583758344931
30
0
0
SPLINE
5
BC
100
AcDbEntity
8
1
62
256
6
ByLayer
370
18
48
1
60
0
100
AcDbSpline
70
4
71
3
72
18
73
14
40
0
40
0
40
0
40
0
40
0.2765686769149
40
0.2765686769149
40
0.334452379663824
40
0.334452379663824
40
0.392336082412748
40
0.392336082412748
40
0.508103487910595
40
0.508103487910595
40
0.73963829890629
40
0.73963829890629
40
1
40
1
40
1
40
1
41
1
10
59.8836026916535
20
-0.0195695573318915
30
0
41
1
10
60.8508937302095
20
-0.585072509668066
30
0
41
1
10
61.8206908015175
20
-1.1518977941345
30
0
41
1
10
63.0036118577409
20
-1.82659325712984
30
0
41
1
10
63.2089447309027
20
-1.94308067617911
30
0
41
1
10
63.6184220775211
20
-2.17391739695003
30
0
41
1
10
63.8227473455406
20
-2.28838612979717
30
0
41
1
10
64.4346302986436
20
-2.6287358470633
30
0
41
1
10
64.8411121061576
20
-2.85153314830163
30
0
41
1
10
66.0577458999083
20
-3.50532896452165
30
0
41
1
10
66.8651996563683
20
-3.92158837839472
30
0
41
1
10
68.5796730469761
20
-4.75486556327155
30
0
41
1
10
69.4864557381799
20
-5.16559753270411
30
0
41
1
10
70.3975920421691
20
-5.53880835985794
30
0
0
SPLINE
5
BD
100
AcDbEntity
8
1
62
256
6
ByLayer
370
13
48
1
60
0
100
AcDbSpline
70
4
71
3
72
24
73
20
40
0
40
0
40
0
40
0
40
0.179570740144692
40
0.179570740144692
40
0.230847568885648
40
0.230847568885648
40
0.282124397626603
40
0.282124397626603
40
0.384678055108515
40
0.384678055108515
40
0.58978537007234
40
0.58978537007234
40
0.79489268503617
40
0.79489268503617
40
0.897446342518085
40
0.897446342518085
40
0.948723171259043
40
0.948723171259043
40
1
40
1
40
1
40
1
41
1
10
70.3975920420392
20
-5.53880835980473
30
0
41
1
10
71.1069688246896
20
-5.8293764061664
30
0
41
1
10
71.8189845930447
20
-6.09720063883145
30
0
41
1
10
72.7407712422115
20
-6.40789732322395
30
0
41
1
10
72.946042874372
20
-6.47480068949102
30
0
41
1
10
73.3552238059384
20
-6.6034826698795
30
0
41
1
10
73.5594098974293
20
-6.66535849554978
30
0
41
1
10
74.1709242541721
20
-6.84352583751681
30
0
41
1
10
74.5772152423641
20
-6.952352879535
30
0
41
1
10
75.7932697178553
20
-7.24841166990907
30
0
41
1
10
76.6001377987949
20
-7.40529768868055
30
0
41
1
10
78.213157436341
20
-7.63520269175316
30
0
41
1
10
79.0194339256515
20
-7.70833278693871
30
0
41
1
10
80.2333711830811
20
-7.75322232193994
30
0
41
1
10
80.6387891857181
20
-7.7573765970788
30
0
41
1
10
81.2486585446054
20
-7.74707910484128
30
0
41
1
10
81.4522388543551
20
-7.74089218509371
30
0
41
1
10
81.8600824035822
20
-7.72296049478499
30
0
41
1
10
82.0644059701692
20
-7.71081246495461
30
0
41
1
10
82.2689922012729
20
-7.69672310947047
30
0
0
SPLINE
5
BE
100
AcDbEntity
8
1
62
256
6
ByLayer
370
18
48
1
60
0
100
AcDbSpline
70
4
71
3
72
10
73
6
40
0
40
0
40
0
40
0
40
0.798647342855869
40
0.798647342855869
40
1
40
1
40
1
40
1
41
1
10
82.17600524252
20
7.94690051290507
30
0
41
1
10
81.7674529037007
20
7.97506738477796
30
0
41
1
10
81.3589159005451
20
7.99183432874594
30
0
41
1
10
80.8468871830009
20
7.99851301842517
30
0
41
1
10
80.7438084694245
20
7.99912819624848
30
0
41
1
10
80.6407736627405
20
7.99901750776252
30
0
0
SPLINE
5
BF
100
AcDbEntity
8
1
62
256
6
ByLayer
370
18
48
1
60
0
100
AcDbSpline
70
4
71
3
72
50
73
46
40
0
40
0
40
0
40
0
40
0.117526581304073
40
0.117526581304073
40
0.133285035209357
40
0.133285035209357
40
0.149043489114641
40
0.149043489114641
40
0.180560396925209
40
0.180560396925209
40
0.243594212546347
40
0.243594212546347
40
0.259352666451631
40
0.259352666451631
40
0.275111120356915
40
0.275111120356915
40
0.306628028167483
40
0.306628028167483
40
0.36966184378862
40
0.36966184378862
40
0.432695659409757
40
0.432695659409757
40
0.464212567220326
40
0.464212567220326
40
0.495729475030894
40
0.495729475030894
40
0.558763290652033
40
0.558763290652033
40
0.590280198462601
40
0.590280198462601
40
0.62179710627317
40
0.62179710627317
40
0.684830921894309
40
0.684830921894309
40
0.716347829704878
40
0.716347829704878
40
0.747864737515447
40
0.747864737515447
40
0.873932368757723
40
0.873932368757723
40
0.905449276568293
40
0.905449276568293
40
0.936966184378862
40
0.936966184378862
40
1
40
1
40
1
40
1
41
1
10
42.8501480855695
20
-7.65016937904883
30
0
41
1
10
41.3438668043029
20
-7.90613591445214
30
0
41
1
10
39.8429667497099
20
-8.01267025612549
30
0
41
1
10
38.1207189818361
20
-7.95481854932842
30
0
41
1
10
37.9167692071855
20
-7.94514434616477
30
0
41
1
10
37.5081119537338
20
-7.92008284858292
30
0
41
1
10
37.3032603065211
20
-7.90467798318713
30
0
41
1
10
36.6897060049659
20
-7.85006407644352
30
0
41
1
10
36.2813543911951
20
-7.80243302091336
30
0
41
1
10
35.056965826421
20
-7.62655816190144
30
0
41
1
10
34.2416159127504
20
-7.46532950886831
30
0
41
1
10
33.2189339977905
20
-7.21098602486089
30
0
41
1
10
33.0140581565973
20
-7.15743222742478
30
0
41
1
10
32.6053392362477
20
-7.04553538763298
30
0
41
1
10
32.4013516062059
20
-6.98716005617425
30
0
41
1
10
31.7903712089513
20
-6.80492808365699
30
0
41
1
10
31.3843554688047
20
-6.67396731919285
30
0
41
1
10
30.1686828438743
20
-6.25446290849007
30
0
41
1
10
29.3614026870569
20
-5.93931169147825
30
0
41
1
10
27.7461568299159
20
-5.24648832503109
30
0
41
1
10
26.938261824532
20
-4.86872049894509
30
0
41
1
10
25.7205074131273
20
-4.26153893492133
30
0
41
1
10
25.313584030931
20
-4.05242140544397
30
0
41
1
10
24.4969166822525
20
-3.62164975108166
30
0
41
1
10
24.0869152034893
20
-3.39983944066282
30
0
41
1
10
22.860726924096
20
-2.72316898211972
30
0
41
1
10
22.0454622319229
20
-2.25501834054904
30
0
41
1
10
20.8200755397454
20
-1.53645066226073
30
0
41
1
10
20.4109224324518
20
-1.2940597435427
30
0
41
1
10
19.5920822512643
20
-0.805896171141256
30
0
41
1
10
19.1834361798273
20
-0.56076623437545
30
0
41
1
10
17.9583317013556
20
0.175282591371058
30
0
41
1
10
17.1428076988118
20
0.667028968003962
30
0
41
1
10
15.9156996933663
20
1.39679900827522
30
0
41
1
10
15.5057413076673
20
1.63889260073267
30
0
41
1
10
14.6900983134403
20
2.11525768363677
30
0
41
1
10
14.2836195396556
20
2.34998146632734
30
0
41
1
10
12.2554912251969
20
3.50269240626864
30
0
41
1
10
10.6470127169511
20
4.35859188838108
30
0
41
1
10
8.61794770973214
20
5.29253476398333
30
0
41
1
10
8.21122536969412
20
5.47254526411916
30
0
41
1
10
7.39510155038417
20
5.8177090862396
30
0
41
1
10
6.98505572577707
20
5.98305253996054
30
0
41
1
10
5.757389396321
20
6.45146099453547
30
0
41
1
10
4.94029107130339
20
6.72780031761673
30
0
41
1
10
4.12122908541599
20
6.96498274133077
30
0
0
SPLINE
5
C0
100
AcDbEntity
8
1
62
256
6
ByLayer
370
18
48
1
60
0
100
AcDbSpline
70
4
71
3
72
8
73
4
40
0
40
0
40
0
40
0
40
1
40
1
40
1
40
1
41
1
10
4.00000012718382
20
-2.36133454132991
30
0
41
1
10
4.00000012718382
20
-2.40138333391337
30
0
41
1
10
4.00000012718368
20
-2.44121799162204
30
0
41
1
10
4.00000012718368
20
-2.48083856722789
30
0
0
SPLINE
5
C1
100
AcDbEntity
8
1
62
256
6
ByLayer
370
18
48
1
60
0
100
AcDbSpline
70
4
71
3
72
106
73
102
40
0
40
0
40
0
40
0
40
0.0133623451663679
40
0.0133623451663679
40
0.0321561695737846
40
0.0321561695737846
40
0.0509499939812014
40
0.0509499939812014
40
0.0697438183886181
40
0.0697438183886181
40
0.0885376427960349
40
0.0885376427960349
40
0.107331467203452
40
0.107331467203452
40
0.126125291610868
40
0.126125291610868
40
0.144919116018285
40
0.144919116018285
40
0.163712940425702
40
0.163712940425702
40
0.182506764833119
40
0.182506764833119
40
0.220094413647951
40
0.220094413647951
40
0.238888238055368
40
0.238888238055368
40
0.257682062462785
40
0.257682062462785
40
0.276475886870202
40
0.276475886870202
40
0.295269711277618
40
0.295269711277618
40
0.314063535685035
40
0.314063535685035
40
0.332857360092452
40
0.332857360092452
40
0.351651184499869
40
0.351651184499869
40
0.370445008907285
40
0.370445008907285
40
0.389238833314702
40
0.389238833314702
40
0.408032657722119
40
0.408032657722119
40
0.426826482129536
40
0.426826482129536
40
0.445620306536952
40
0.445620306536952
40
0.464414130944369
40
0.464414130944369
40
0.483207955351786
40
0.483207955351786
40
0.502001779759203
40
0.502001779759203
40
0.520795604166619
40
0.520795604166619
40
0.558383252981453
40
0.558383252981453
40
0.577177077388869
40
0.577177077388869
40
0.595970901796286
40
0.595970901796286
40
0.614764726203702
40
0.614764726203702
40
0.633558550611119
40
0.633558550611119
40
0.652352375018535
40
0.652352375018535
40
0.671146199425952
40
0.671146199425952
40
0.689940023833368
40
0.689940023833368
40
0.708733848240785
40
0.708733848240785
40
0.727527672648201
40
0.727527672648201
40
0.746321497055618
40
0.746321497055618
40
0.78390914587045
40
0.78390914587045
40
0.802702970277866
40
0.802702970277866
40
0.821496794685282
40
0.821496794685282
40
0.840290619092698
40
0.840290619092698
40
0.859084443500114
40
0.859084443500114
40
0.87787826790753
40
0.87787826790753
40
0.896672092314946
40
0.896672092314946
40
0.934259741129779
40
0.934259741129779
40
0.953053565537196
40
0.953053565537196
40
0.971847389944612
40
0.971847389944612
40
0.990641214352028
40
0.990641214352028
40
1
40
1
40
1
40
1
41
1
10
69.8644580528159
20
-5.93273915675783
30
0
41
1
10
69.6415792797411
20
-6.01354280016523
30
0
41
1
10
69.4187929536124
20
-6.09207489168438
30
0
41
1
10
68.8822582327667
20
-6.27503855024781
30
0
41
1
10
68.5683750665144
20
-6.37696181922729
30
0
41
1
10
67.9399089773464
20
-6.57029787536948
30
0
41
1
10
67.6250109599528
20
-6.66178921668393
30
0
41
1
10
66.9963561319778
20
-6.83330256677181
30
0
41
1
10
66.6828029091764
20
-6.91340108610024
30
0
41
1
10
66.0556413291494
20
-7.06001544973142
30
0
41
1
10
65.7420563672876
20
-7.12622758946654
30
0
41
1
10
65.1147311535979
20
-7.24772960934163
30
0
41
1
10
64.8010104821285
20
-7.30314922688481
30
0
41
1
10
64.1735484038882
20
-7.40217379683065
30
0
41
1
10
63.8599797918421
20
-7.44569445946252
30
0
41
1
10
63.2314688216811
20
-7.51898819088365
30
0
41
1
10
62.9166943762641
20
-7.54931880590382
30
0
41
1
10
62.2882801278031
20
-7.59792728798573
30
0
41
1
10
61.9743441383874
20
-7.61607056872376
30
0
41
1
10
61.3470827836069
20
-7.63875492916137
30
0
41
1
10
61.0339121640733
20
-7.64298717110799
30
0
41
1
10
60.093327185907
20
-7.63681753211651
30
0
41
1
10
59.4649372642609
20
-7.60937755890291
30
0
41
1
10
58.5212644642989
20
-7.5266385360481
30
0
41
1
10
58.2074871962838
20
-7.4923007514127
30
0
41
1
10
57.5798286635283
20
-7.41235325095079
30
0
41
1
10
57.266058475264
20
-7.36658925901438
30
0
41
1
10
56.6385658243321
20
-7.26243009166626
30
0
41
1
10
56.32481623652
20
-7.20379095863234
30
0
41
1
10
55.697366037204
20
-7.07400304152273
30
0
41
1
10
55.3838205441803
20
-7.00316207338878
30
0
41
1
10
54.7555027693638
20
-6.85033045563782
30
0
41
1
10
54.440557965676
20
-6.76812951889539
30
0
41
1
10
53.8117456825983
20
-6.59213968322675
30
0
41
1
10
53.4976659813724
20
-6.49831773593561
30
0
41
1
10
52.8702261522018
20
-6.30045645959444
30
0
41
1
10
52.5569903035258
20
-6.19615206919903
30
0
41
1
10
51.9298932340812
20
-5.97761891528182
30
0
41
1
10
51.6161351700943
20
-5.86311540226941
30
0
41
1
10
50.9880699461297
20
-5.62404890300363
30
0
41
1
10
50.6737975713445
20
-5.50014600064034
30
0
41
1
10
50.0448739056112
20
-5.24243315110982
30
0
41
1
10
49.7306820126122
20
-5.10854787600815
30
0
41
1
10
49.1027746081949
20
-4.83312544602649
30
0
41
1
10
48.7889374453177
20
-4.69120991874107
30
0
41
1
10
48.1613901671547
20
-4.40093634038405
30
0
41
1
10
47.8476846264013
20
-4.25234776716351
30
0
41
1
10
47.2205245820286
20
-3.94708544171454
30
0
41
1
10
46.9071205726189
20
-3.79033696750179
30
0
41
1
10
46.2790497777689
20
-3.47112318375139
30
0
41
1
10
45.9643007886816
20
-3.30866001878025
30
0
41
1
10
45.335125431272
20
-2.97888233687633
30
0
41
1
10
45.0209301452185
20
-2.81163560825064
30
0
41
1
10
44.3934759120216
20
-2.4717546533335
30
0
41
1
10
44.0802222154265
20
-2.29911876348319
30
0
41
1
10
43.1395989953089
20
-1.77805263510859
30
0
41
1
10
42.5119251514246
20
-1.42514060068581
30
0
41
1
10
41.5692020619306
20
-0.886373285243252
30
0
41
1
10
41.2547196933797
20
-0.705267394052612
30
0
41
1
10
40.6263825260929
20
-0.343904892250549
30
0
41
1
10
40.3123966838104
20
-0.163248251642301
30
0
41
1
10
39.6847161725613
20
0.197810822049092
30
0
41
1
10
39.3709781089688
20
0.378131202674893
30
0
41
1
10
38.7439145891343
20
0.738854764030577
30
0
41
1
10
38.4305602840825
20
0.919196186042029
30
0
41
1
10
37.8027783518828
20
1.27729662918856
30
0
41
1
10
37.4884347398242
20
1.45516409556279
30
0
41
1
10
36.8588068398441
20
1.80855921917481
30
0
41
1
10
36.544252321498
20
1.98379110550712
30
0
41
1
10
35.9163629493341
20
2.33128217196122
30
0
41
1
10
35.6028842162769
20
2.50349142408422
30
0
41
1
10
34.9754800886096
20
2.84175718422134
30
0
41
1
10
34.6616619114964
20
3.00805539133387
30
0
41
1
10
34.0338138104223
20
3.33620859760364
30
0
41
1
10
33.7197665635852
20
3.49786706437973
30
0
41
1
10
33.0915970535859
20
3.81615356129382
30
0
41
1
10
32.7770071033897
20
3.97249291055431
30
0
41
1
10
31.8334708448123
20
4.42813228239604
30
0
41
1
10
31.2051532662833
20
4.7181454086344
30
0
41
1
10
30.2642432694251
20
5.1283933170057
30
0
41
1
10
29.9507016010712
20
5.26031860874596
30
0
41
1
10
29.3226803610061
20
5.51560532991306
30
0
41
1
10
29.0083426132988
20
5.63897461432944
30
0
41
1
10
28.3789207985002
20
5.87631793532384
30
0
41
1
10
28.0638984485599
20
5.9901674337284
30
0
41
1
10
27.4356942465323
20
6.20659927304092
30
0
41
1
10
27.1219854930617
20
6.30977009623248
30
0
41
1
10
26.4942760775862
20
6.50556599729777
30
0
41
1
10
26.1804076673426
20
6.59811971062646
30
0
41
1
10
25.5525474845686
20
6.77140962806789
30
0
41
1
10
25.2385092020805
20
6.85169743873868
30
0
41
1
10
24.2964567747117
20
7.07710806542067
30
0
41
1
10
23.6663809656782
20
7.20663875785499
30
0
41
1
10
22.7239386381166
20
7.358870119502
30
0
41
1
10
22.4100339914275
20
7.40314410022043
30
0
41
1
10
21.7828827188211
20
7.48050883803401
30
0
41
1
10
21.4693958240961
20
7.51309333938326
30
0
41
1
10
20.8416144012976
20
7.56490510781802
30
0
41
1
10
20.5274220919677
20
7.58430581329691
30
0
41
1
10
20.0563078539369
20
7.60415067058662
30
0
41
1
10
19.8995425795757
20
7.60923222948196
30
0
41
1
10
19.7428310796337
20
7.61273848055941
30
0
0
SPLINE
5
C2
100
AcDbEntity
8
1
62
256
6
ByLayer
370
13
48
1
60
0
100
AcDbSpline
70
4
71
3
72
16
73
12
40
0
40
0
40
0
40
0
40
0.34557038416462
40
0.34557038416462
40
0.476270244532282
40
0.476270244532282
40
0.606970104899944
40
0.606970104899944
40
0.868369825635268
40
0.868369825635268
40
1
40
1
40
1
40
1
41
1
10
4.25031310074755
20
6.9370042563587
30
0
41
1
10
4.2503448181622
20
7.08951875896284
30
0
41
1
10
4.25037285044331
20
7.21665369044266
30
0
41
1
10
4.2504081010386
20
7.35706589468677
30
0
41
1
10
4.25041742702703
20
7.39194996979981
30
0
41
1
10
4.25043531122705
20
7.45367443018037
30
0
41
1
10
4.25044389582101
20
7.48062585195686
30
0
41
1
10
4.25046879743741
20
7.54995594679875
30
0
41
1
10
4.25048426640871
20
7.58084456600409
30
0
41
1
10
4.25050661238248
20
7.60442577755902
30
0
41
1
10
4.25051394193133
20
7.60846830028262
30
0
41
1
10
4.25052117708825
20
7.60860018434897
30
0
0
SPLINE
5
C3
100
AcDbEntity
8
1
62
256
6
ByLayer
370
18
48
1
60
0
100
AcDbSpline
70
4
71
3
72
20
73
16
40
0
40
0
40
0
40
0
40
0.125000000000003
40
0.125000000000003
40
0.250000000000005
40
0.250000000000005
40
0.500000000000003
40
0.500000000000003
40
0.750000000000001
40
0.750000000000001
40
0.875000000000001
40
0.875000000000001
40
0.9375
40
0.9375
40
1
40
1
40
1
40
1
41
1
10
83.7609124704311
20
-3.85457791019857
30
0
41
1
10
83.6988777593156
20
-4.02137113501925
30
0
41
1
10
83.6368187287475
20
-4.18803787458242
30
0
41
1
10
83.512636155279
20
-4.52103582564223
30
0
41
1
10
83.450511275963
20
-4.68736008645229
30
0
41
1
10
83.2641484891631
20
-5.18639450659973
30
0
41
1
10
83.1398926582808
20
-5.51901144650159
30
0
41
1
10
82.8911897544679
20
-6.18325067810821
30
0
41
1
10
82.7666698127072
20
-6.51457302404108
30
0
41
1
10
82.5799116063322
20
-7.01139575152442
30
0
41
1
10
82.5176554571766
20
-7.1769054965508
30
0
41
1
10
82.4242462193345
20
-7.42445325195567
30
0
41
1
10
82.3931052254211
20
-7.5068378781215
30
0
41
1
10
82.330806590745
20
-7.67113005984268
30
0
41
1
10
82.2996521671697
20
-7.7531298145669
30
0
41
1
10
82.2684970927311
20
-7.83511091664545
30
0
0
SPLINE
5
C4
100
AcDbEntity
8
1
62
256
6
ByLayer
370
18
48
1
60
0
100
AcDbSpline
70
4
71
3
72
14
73
10
40
0
40
0
40
0
40
0
40
0.25
40
0.25
40
0.5
40
0.5
40
0.75
40
0.75
40
1
40
1
40
1
40
1
41
1
10
81.1001245509188
20
1.98785214044864
30
0
41
1
10
81.0922358475453
20
2.0154438058166
30
0
41
1
10
81.088160758689
20
2.04410841124656
30
0
41
1
10
81.0918400223751
20
2.1022860675923
30
0
41
1
10
81.0998691303494
20
2.13149166436887
30
0
41
1
10
81.131550373506
20
2.18348052192968
30
0
41
1
10
81.1545863436166
20
2.20523107590586
30
0
41
1
10
81.2081342446465
20
2.23554284702305
30
0
41
1
10
81.2376463692781
20
2.24470633476682
30
0
41
1
10
81.2679098211575
20
2.25011115829011
30
0
0
SPLINE
5
C5
100
AcDbEntity
8
1
62
256
6
ByLayer
370
18
48
1
60
0
100
AcDbSpline
70
4
71
3
72
24
73
20
40
0
40
0
40
0
40
0
40
0.25
40
0.25
40
0.375
40
0.375
40
0.5
40
0.5
40
0.624999999999999
40
0.624999999999999
40
0.749999999999999
40
0.749999999999999
40
0.812499999999999
40
0.812499999999999
40
0.875
40
0.875
40
0.9375
40
0.9375
40
1
40
1
40
1
40
1
41
1
10
81.2679098211575
20
2.25011115829008
30
0
41
1
10
81.5363871551198
20
2.29805917875549
30
0
41
1
10
81.8035838164875
20
2.35317597289824
30
0
41
1
10
82.1982409008332
20
2.45452585775479
30
0
41
1
10
82.3288185103513
20
2.49147903738128
30
0
41
1
10
82.5872195713891
20
2.57448458075302
30
0
41
1
10
82.715300551719
20
2.6205672269447
30
0
41
1
10
82.9661985298729
20
2.72643048903279
30
0
41
1
10
83.0884691419735
20
2.78578770393341
30
0
41
1
10
83.3218026226436
20
2.92653923471562
30
0
41
1
10
83.4309357169055
20
3.0063219098017
30
0
41
1
10
83.5733779567037
20
3.15298811560498
30
0
41
1
10
83.6168137472305
20
3.2063189754889
30
0
41
1
10
83.689991463342
20
3.32097934286432
30
0
41
1
10
83.720339820892
20
3.38376002445614
30
0
41
1
10
83.7621716131175
20
3.51335893337387
30
0
41
1
10
83.7741499510927
20
3.58079705375423
30
0
41
1
10
83.7800175792211
20
3.7188973141165
30
0
41
1
10
83.7739651388301
20
3.78708015333424
30
0
41
1
10
83.7609124704311
20
3.85457791019854
30
0
0
SPLINE
5
C6
100
AcDbEntity
8
1
62
256
6
ByLayer
370
18
48
1
60
0
100
AcDbSpline
70
4
71
3
72
20
73
16
40
0
40
0
40
0
40
0
40
0.121059467401104
40
0.121059467401104
40
0.269054009661426
40
0.269054009661426
40
0.417048551921747
40
0.417048551921747
40
0.713037636442383
40
0.713037636442383
40
0.861032178702701
40
0.861032178702701
40
0.935029449832858
40
0.935029449832858
40
1
40
1
40
1
40
1
41
1
10
80.8424446953709
20
-7.65428395467401
30
0
41
1
10
80.5080951580482
20
-7.65399380342265
30
0
41
1
10
80.1737212710899
20
-7.64636371587869
30
0
41
1
10
79.4300506090666
20
-7.61314068079864
30
0
41
1
10
79.0202032378201
20
-7.58386529837085
30
0
41
1
10
78.2031560890373
20
-7.50397864278057
30
0
41
1
10
77.7955310665668
20
-7.45337111696324
30
0
41
1
10
76.5742148289022
20
-7.27038565898937
30
0
41
1
10
75.7618875022411
20
-7.10671938300126
30
0
41
1
10
74.5409939732012
20
-6.80207030258845
30
0
41
1
10
74.1336526298962
20
-6.69064506325805
30
0
41
1
10
73.5214109062403
20
-6.50911843486398
30
0
41
1
10
73.3171236773217
20
-6.44621194231658
30
0
41
1
10
72.9329809653586
20
-6.32363120358531
30
0
41
1
10
72.7530779609217
20
-6.264458330103
30
0
41
1
10
72.5735444788084
20
-6.20369545378264
30
0
0
SPLINE
5
C7
100
AcDbEntity
8
1
62
256
6
ByLayer
370
13
48
1
60
0
100
AcDbSpline
70
4
71
3
72
22
73
18
40
0
40
0
40
0
40
0
40
0.0043808377540699
40
0.0043808377540699
40
0.291675359618958
40
0.291675359618958
40
0.435322620551402
40
0.435322620551402
40
0.507146251017624
40
0.507146251017624
40
0.543058066250735
40
0.543058066250735
40
0.578969881483846
40
0.578969881483846
40
0.866264403348733
40
0.866264403348733
40
1
40
1
40
1
40
1
41
1
10
72.5735454261058
20
-6.20369577439425
30
0
41
1
10
72.5486015219892
20
-6.19525354293717
30
0
41
1
10
72.5236647509548
20
-6.18678061871799
30
0
41
1
10
70.863975046566
20
-5.62066025203404
30
0
41
1
10
69.2542528072633
20
-4.93066924919103
30
0
41
1
10
66.8359185255457
20
-3.757126668431
30
0
41
1
10
66.0292489740692
20
-3.34281592600104
30
0
41
1
10
64.8137337660188
20
-2.69336843886029
30
0
41
1
10
64.4076223478457
20
-2.47225021341649
30
0
41
1
10
63.7962906168702
20
-2.13478457691019
30
0
41
1
10
63.5921474588166
20
-2.0213384932421
30
0
41
1
10
63.1830444765561
20
-1.79265536583239
30
0
41
1
10
62.9780611493443
20
-1.6773882113819
30
0
41
1
10
61.1389144969147
20
-0.638059321323311
30
0
41
1
10
59.5266724479489
20
0.307845141440765
30
0
41
1
10
57.1575525171716
20
1.65714743894156
30
0
41
1
10
56.4039534372073
20
2.08003589511043
30
0
41
1
10
55.6467882189877
20
2.49286278151141
30
0
0
SPLINE
5
C8
100
AcDbEntity
8
1
62
256
6
ByLayer
370
18
48
1
60
0
100
AcDbSpline
70
4
71
3
72
38
73
34
40
0
40
0
40
0
40
0
40
0.113103285161578
40
0.113103285161578
40
0.169654927742366
40
0.169654927742366
40
0.226206570323154
40
0.226206570323154
40
0.282758212903942
40
0.282758212903942
40
0.339309855484731
40
0.339309855484731
40
0.452413140646307
40
0.452413140646307
40
0.508964783227094
40
0.508964783227094
40
0.565516425807881
40
0.565516425807881
40
0.622068068388669
40
0.622068068388669
40
0.678619710969456
40
0.678619710969456
40
0.735171353550243
40
0.735171353550243
40
0.79172299613103
40
0.79172299613103
40
0.848274638711818
40
0.848274638711818
40
0.904826281292605
40
0.904826281292605
40
0.961377923873392
40
0.961377923873392
40
1
40
1
40
1
40
1
41
1
10
21.0394938866963
20
-2.29883081954702
30
0
41
1
10
21.6779647964527
20
-2.66904492564814
30
0
41
1
10
22.316862056727
20
-3.02618996114302
30
0
41
1
10
23.2734360328394
20
-3.54661582559305
30
0
41
1
10
23.5918607005879
20
-3.7177183578722
30
0
41
1
10
24.2285861973207
20
-4.05397031596021
30
0
41
1
10
24.5476420771722
20
-4.21802629469187
30
0
41
1
10
25.1868539760039
20
-4.53848670357027
30
0
41
1
10
25.5072045270628
20
-4.69504733567936
30
0
41
1
10
26.1461162005715
20
-4.9998045819932
30
0
41
1
10
26.4647158902349
20
-5.14841437575765
30
0
41
1
10
27.4198050741507
20
-5.58039881661861
30
0
41
1
10
28.0581039962287
20
-5.8470218492707
30
0
41
1
10
29.0154482090255
20
-6.21809052710847
30
0
41
1
10
29.3343731277785
20
-6.33721350711809
30
0
41
1
10
29.9730755807722
20
-6.5641092427343
30
0
41
1
10
30.2925196011126
20
-6.67115871372533
30
0
41
1
10
30.9309826508545
20
-6.87332526466574
30
0
41
1
10
31.2500304823802
20
-6.9684109904718
30
0
41
1
10
31.8874406971463
20
-7.14681349453306
30
0
41
1
10
32.2054628564698
20
-7.23034709917738
30
0
41
1
10
32.842446868233
20
-7.3842864218455
30
0
41
1
10
33.1616591038924
20
-7.45457705298787
30
0
41
1
10
33.8009295674647
20
-7.58228095612384
30
0
41
1
10
34.1211689301147
20
-7.63968423369116
30
0
41
1
10
34.7596567429573
20
-7.74115590980804
30
0
41
1
10
35.0778467697703
20
-7.78539224592009
30
0
41
1
10
35.7148415663359
20
-7.85981044295696
30
0
41
1
10
36.0336870811473
20
-7.89004437070705
30
0
41
1
10
36.6715343192333
20
-7.93688842199148
30
0
41
1
10
36.9905606006614
20
-7.95348919876218
30
0
41
1
10
37.5273754822799
20
-7.96984786014835
30
0
41
1
10
37.7451144826443
20
-7.97325809125007
30
0
41
1
10
37.9630420075055
20
-7.97340814474646
30
0
0
SPLINE
5
C9
100
AcDbEntity
8
1
62
256
6
ByLayer
370
18
48
1
60
0
100
AcDbSpline
70
4
71
3
72
28
73
24
40
0
40
0
40
0
40
0
40
0.0764263888662517
40
0.0764263888662517
40
0.15339085646073
40
0.15339085646073
40
0.23035532405521
40
0.23035532405521
40
0.307319791649688
40
0.307319791649688
40
0.384284259244168
40
0.384284259244168
40
0.538213194433126
40
0.538213194433126
40
0.615177662027605
40
0.615177662027605
40
0.692142129622084
40
0.692142129622084
40
0.769106597216563
40
0.769106597216563
40
0.846071064811042
40
0.846071064811042
40
1
40
1
40
1
40
1
41
1
10
69.8420077974739
20
5.93097482570599
30
0
41
1
10
70.1584572935584
20
6.05876082754739
30
0
41
1
10
70.4749533132179
20
6.18129818041717
30
0
41
1
10
71.1098910367844
20
6.41721043627288
30
0
41
1
10
71.4280982472131
20
6.53068739527484
30
0
41
1
10
72.0652004495311
20
6.74625482867873
30
0
41
1
10
72.3850188539757
20
6.84790884596953
30
0
41
1
10
73.0238279428099
20
7.03876475596996
30
0
41
1
10
73.3429178310775
20
7.12798868018783
30
0
41
1
10
73.980151185061
20
7.29428300852641
30
0
41
1
10
74.2979884805888
20
7.37153149505406
30
0
41
1
10
75.2520958598379
20
7.58344965776391
30
0
41
1
10
75.8903831328643
20
7.69779849096992
30
0
41
1
10
76.8486175937653
20
7.83017895814558
30
0
41
1
10
77.167211700719
20
7.86770440474427
30
0
41
1
10
77.8043082597963
20
7.92861141147318
30
0
41
1
10
78.1231371052686
20
7.95202787808233
30
0
41
1
10
78.7607819720098
20
7.98513254357593
30
0
41
1
10
79.0796262202759
20
7.9948114819739
30
0
41
1
10
79.7170428005288
20
8.00032374536113
30
0
41
1
10
80.0352519339383
20
7.99610213760175
30
0
41
1
10
80.9926160755387
20
7.96243461074266
30
0
41
1
10
81.6316201587032
20
7.91248415823765
30
0
41
1
10
82.2684970927209
20
7.83511091664656
30
0
0
SPLINE
5
CA
100
AcDbEntity
8
1
62
256
6
ByLayer
370
18
48
1
60
0
100
AcDbSpline
70
4
71
3
72
12
73
8
40
0
40
0
40
0
40
0
40
0.250000000000016
40
0.250000000000016
40
0.500000000000032
40
0.500000000000032
40
1
40
1
40
1
40
1
41
1
10
82.2689922012774
20
-7.69672310947018
30
0
41
1
10
82.2738875506151
20
-7.68353322868234
30
0
41
1
10
82.2786508179362
20
-7.67005817869926
30
0
41
1
10
82.286675699194
20
-7.64576511832726
30
0
41
1
10
82.2899223110511
20
-7.63496660191024
30
0
41
1
10
82.2960908709723
20
-7.6110054663248
30
0
41
1
10
82.2955327777456
20
-7.60650094039943
30
0
41
1
10
82.29235378711
20
-7.60954425457248
30
0
0
SPLINE
5
CB
100
AcDbEntity
8
1
62
256
6
ByLayer
370
18
48
1
60
0
100
AcDbSpline
70
4
71
3
72
20
73
16
40
0
40
0
40
0
40
0
40
0.125000000000001
40
0.125000000000001
40
0.250000000000003
40
0.250000000000003
40
0.375000000000004
40
0.375000000000004
40
0.500000000000005
40
0.500000000000005
40
0.625000000000007
40
0.625000000000007
40
0.750000000000008
40
0.750000000000008
40
1
40
1
40
1
40
1
41
1
10
4.25103795870237
20
-2.2617370127891
30
0
41
1
10
4.23734062978363
20
-2.24871208045181
30
0
41
1
10
4.22318337671743
20
-2.23668880888661
30
0
41
1
10
4.19361202687915
20
-2.21535362560431
30
0
41
1
10
4.17798636893403
20
-2.20593829503363
30
0
41
1
10
4.14627839560472
20
-2.19200244818384
30
0
41
1
10
4.12982570301548
20
-2.18739038660536
30
0
41
1
10
4.09832731791792
20
-2.18542786239206
30
0
41
1
10
4.0830424237985
20
-2.18817871970171
30
0
41
1
10
4.05663821849905
20
-2.20078902208812
30
0
41
1
10
4.04528678852571
20
-2.21062147183579
30
0
41
1
10
4.02700526825814
20
-2.23448530289963
30
0
41
1
10
4.02003482641291
20
-2.24835929860694
30
0
41
1
10
4.00413222224665
20
-2.29293251601555
30
0
41
1
10
4.00000012718314
20
-2.32665600929428
30
0
41
1
10
4.00000012718377
20
-2.36133454133739
30
0
0
SPLINE
5
CC
100
AcDbEntity
8
1
62
256
6
ByLayer
370
18
48
1
60
0
100
AcDbSpline
70
4
71
3
72
53
73
49
40
0
40
0
40
0
40
0
40
0.028270936197168
40
0.028270936197168
40
0.0565418723943359
40
0.0565418723943359
40
0.113083744788672
40
0.113083744788672
40
0.226167489577345
40
0.226167489577345
40
0.254438425774513
40
0.254438425774513
40
0.282709361971681
40
0.282709361971681
40
0.339251234366017
40
0.339251234366017
40
0.395793106760353
40
0.395793106760353
40
0.42406404295752
40
0.42406404295752
40
0.452334979154688
40
0.452334979154688
40
0.508876851549023
40
0.508876851549023
40
0.537147787746191
40
0.537147787746191
40
0.565418723943358
40
0.565418723943358
40
0.678502468732028
40
0.678502468732028
40
0.735044341126363
40
0.735044341126363
40
0.749179809224946
40
0.749179809224946
40
0.76331527732353
40
0.791586213520698
40
0.791586213520698
40
0.819857149717866
40
0.819857149717866
40
0.848128085915034
40
0.848128085915034
40
0.904669958309369
40
0.904669958309369
40
0.932940894506537
40
0.932940894506537
40
0.961211830703704
40
0.961211830703704
40
1
40
1
40
1
40
1
41
1
10
82.17600524252
20
-7.9469005129051
30
0
41
1
10
81.7673846888851
20
-7.97507208771998
30
0
41
1
10
81.3588809479548
20
-7.99183292334041
30
0
41
1
10
80.5412897136788
20
-8.0025009655993
30
0
41
1
10
80.1319229546351
20
-7.9963557398732
30
0
41
1
10
78.9098574417747
20
-7.9440548394185
30
0
41
1
10
78.1004990340289
20
-7.86416319997616
30
0
41
1
10
75.6778365021089
20
-7.49563528619427
30
0
41
1
10
74.0694247159078
20
-7.0784460558784
30
0
41
1
10
72.0317026344471
20
-6.36259018881893
30
0
41
1
10
71.6218947661618
20
-6.20928127869325
30
0
41
1
10
70.8064545124789
20
-5.88700793122246
30
0
41
1
10
70.4001084898075
20
-5.71786817163471
30
0
41
1
10
69.1839693199304
20
-5.18822884364099
30
0
41
1
10
68.3768794261337
20
-4.80574793860282
30
0
41
1
10
66.762837776859
20
-3.99233840712688
30
0
41
1
10
65.9559791143363
20
-3.56128758273803
30
0
41
1
10
64.7407891555714
20
-2.88538748718128
30
0
41
1
10
64.3348759577064
20
-2.65524753173577
30
0
41
1
10
63.5203270895043
20
-2.18675710609304
30
0
41
1
10
63.1108678281758
20
-1.94793862600056
30
0
41
1
10
61.8846717445283
20
-1.22524608645168
30
0
41
1
10
61.0697360472409
20
-0.735454241108869
30
0
41
1
10
59.8459549431232
20
0.0026506431969722
30
0
41
1
10
59.4377526505682
20
0.249179958197118
30
0
41
1
10
58.619748572909
20
0.741483827338925
30
0
41
1
10
58.2109664254746
20
0.986662248253481
30
0
41
1
10
56.1766305935994
20
2.19885193883232
30
0
41
1
10
54.5684190989001
20
3.1280995586072
30
0
41
1
10
52.1427535648358
20
4.39588448337528
30
0
41
1
10
51.3318239732975
20
4.79723514245293
30
0
41
1
10
50.3108118518434
20
5.26551816731507
30
0
41
1
10
50.1060484806891
20
5.35758604575128
30
0
41
1
10
49.6970440256927
20
5.53756933071281
30
0
41
1
10
49.0840672438226
20
5.8014381436646
30
0
41
1
10
48.4721530163506
20
6.04645570534345
30
0
41
1
10
47.6563326904301
20
6.35548220858019
30
0
41
1
10
47.2484495224933
20
6.50115584643328
30
0
41
1
10
46.4317647695073
20
6.77381336043169
30
0
41
1
10
46.0225274176684
20
6.90093462357493
30
0
41
1
10
44.7953244872757
20
7.25193073540078
30
0
41
1
10
43.9800477677638
20
7.44488491619526
30
0
41
1
10
42.7558700948868
20
7.6696143630719
30
0
41
1
10
42.3475870017944
20
7.7337324085951
30
0
41
1
10
41.5296572494856
20
7.83985675276125
30
0
41
1
10
41.1201738930153
20
7.88182047517498
30
0
41
1
10
40.1512463595975
20
7.95427935517679
30
0
41
1
10
39.5916754514271
20
7.97485761159663
30
0
41
1
10
39.0318146907977
20
7.97405278960525
30
0
0
SPLINE
5
CD
100
AcDbEntity
8
1
62
256
6
ByLayer
370
18
48
1
60
0
100
AcDbSpline
70
4
71
3
72
8
73
4
40
0
40
0
40
0
40
0
40
1
40
1
40
1
40
1
41
1
10
82.29235378711
20
-7.60954425457248
30
0
41
1
10
82.260797327319
20
-7.63975391302651
30
0
41
1
10
82.2345889986133
20
-7.65497994970039
30
0
41
1
10
82.2138240577762
20
-7.65495548788746
30
0
0
SPLINE
5
CE
100
AcDbEntity
8
1
62
256
6
ByLayer
370
18
48
1
60
0
100
AcDbSpline
70
4
71
3
72
8
73
4
40
0
40
0
40
0
40
0
40
1
40
1
40
1
40
1
41
1
10
82.17600524252
20
-7.94690051290507
30
0
41
1
10
82.2070196020757
20
-7.86357883401743
30
0
41
1
10
82.2380152685523
20
-7.78018641751478
30
0
41
1
10
82.2689922012732
20
-7.69672310947047
30
0
0
SPLINE
5
CF
100
AcDbEntity
8
1
62
256
6
ByLayer
370
13
48
1
60
0
100
AcDbSpline
70
4
71
3
72
34
73
30
40
0
40
0
40
0
40
0
40
0.0410991524929229
40
0.0410991524929229
40
0.0846855546523357
40
0.0846855546523357
40
0.128271956811748
40
0.128271956811748
40
0.302617565449399
40
0.302617565449399
40
0.346203967608812
40
0.346203967608812
40
0.389790369768225
40
0.389790369768225
40
0.47696317408705
40
0.47696317408705
40
0.6513087827247
40
0.6513087827247
40
0.694895184884113
40
0.694895184884113
40
0.738481587043526
40
0.738481587043526
40
0.82565439136235
40
0.82565439136235
40
0.912827195681175
40
0.912827195681175
40
0.956413597840588
40
0.956413597840588
40
1
40
1
40
1
40
1
41
1
10
4.25052225285722
20
-7.60859094424839
30
0
41
1
10
4.25052901829613
20
-7.60835112793708
30
0
41
1
10
4.2505357035983
20
-7.60468081867825
30
0
41
1
10
4.25054941509629
20
-7.58995554980507
30
0
41
1
10
4.25055645411209
20
-7.57840216366648
30
0
41
1
10
4.25057040792873
20
-7.54766681950994
30
0
41
1
10
4.25057733895463
20
-7.52848698074658
30
0
41
1
10
4.25061201454756
20
-7.41388555844176
30
0
41
1
10
4.25063992995453
20
-7.26303311562009
30
0
41
1
10
4.25067782700719
20
-6.99933359976745
30
0
41
1
10
4.25068556773968
20
-6.9426536294817
30
0
41
1
10
4.25070126593025
20
-6.82238454276566
30
0
41
1
10
4.25070922637184
20
-6.75878942932201
30
0
41
1
10
4.25073347140949
20
-6.55766200375823
30
0
41
1
10
4.25075020096892
20
-6.40907501411763
30
0
41
1
10
4.25080108296297
20
-5.92881862894438
30
0
41
1
10
4.25083612862511
20
-5.56262859124109
30
0
41
1
10
4.25087948853351
20
-5.04789889465891
30
0
41
1
10
4.25088812976469
20
-4.94207091012424
30
0
41
1
10
4.25090526826892
20
-4.72453062790933
30
0
41
1
10
4.25091376085877
20
-4.61284226405357
30
0
41
1
10
4.25093856519669
20
-4.27313667726193
30
0
41
1
10
4.25095431827188
20
-4.03913961410126
30
0
41
1
10
4.25098345729108
20
-3.55646350714704
30
0
41
1
10
4.25099684488697
20
-3.30778385741138
30
0
41
1
10
4.25101440194507
20
-2.92362508688103
30
0
41
1
10
4.25101983186792
20
-2.79371148255984
30
0
41
1
10
4.25102969755019
20
-2.53008943792949
30
0
41
1
10
4.2510341353462
20
-2.39620230484607
30
0
41
1
10
4.25103795870237
20
-2.26173701278916
30
0
0
LINE
5
76
100
AcDbEntity
8
81
62
256
6
ByLayer
370
18
48
1
60
0
100
AcDbLine
10
85
20
0
30
0
11
90
21
0
31
0
39
0
210
0
220
0
230
1
0
LINE
5
77
100
AcDbEntity
8
1
62
256
6
ByLayer
370
18
48
1
60
0
100
AcDbLine
10
4
20
7.953039
30
0
11
0.8
21
7.951119
31
0
39
0
210
0
220
0
230
1
0
LINE
5
79
100
AcDbEntity
8
1
62
256
6
ByLayer
370
18
48
1
60
0
100
AcDbLine
10
39.050495
20
7.974069
30
0
11
37.963821
21
7.973417
31
0
39
0
210
0
220
0
230
1
0
LINE
5
7A
100
AcDbEntity
8
1
62
256
6
ByLayer
370
18
48
1
60
0
100
AcDbLine
10
80.650956
20
7.999029
30
0
11
79.571998
21
7.998382
31
0
39
0
210
0
220
0
230
1
0
LINE
5
7B
100
AcDbEntity
8
1
62
256
6
ByLayer
370
18
48
1
60
0
100
AcDbLine
10
79.571998
20
-7.998382
30
0
11
80.65052
21
-7.999029
31
0
39
0
210
0
220
0
230
1
0
LINE
5
7C
100
AcDbEntity
8
1
62
256
6
ByLayer
370
18
48
1
60
0
100
AcDbLine
10
37.963821
20
-7.973417
30
0
11
39.050527
21
-7.974069
31
0
39
0
210
0
220
0
230
1
0
LINE
5
7D
100
AcDbEntity
8
1
62
256
6
ByLayer
370
18
48
1
60
0
100
AcDbLine
10
0.8
20
-7.951119
30
0
11
4
21
-7.953039
31
0
39
0
210
0
220
0
230
1
0
LINE
5
7E
100
AcDbEntity
8
1
62
256
6
ByLayer
370
18
48
1
60
0
100
AcDbLine
10
0
20
-8
30
0
11
0.8
21
-7.951119
31
0
39
0
210
0
220
0
230
1
0
LINE
5
7F
100
AcDbEntity
8
1
62
256
6
ByLayer
370
18
48
1
60
0
100
AcDbLine
10
0.8
20
7.951119
30
0
11
0
21
8
31
0
39
0
210
0
220
0
230
1
0
LINE
5
80
100
AcDbEntity
8
SK1
62
256
6
ByLayer
370
18
48
1
60
0
100
AcDbLine
10
-45.979274
20
8
30
0
11
-48
21
4.5
31
0
39
0
210
0
220
0
230
1
0
LINE
5
82
100
AcDbEntity
8
SK1
62
256
6
ByLayer
370
18
48
1
60
0
100
AcDbLine
10
-48
20
-4.5
30
0
11
-45.979274
21
-8
31
0
39
0
210
0
220
0
230
1
0
LINE
5
83
100
AcDbEntity
8
SK1
62
256
6
ByLayer
370
18
48
1
60
0
100
AcDbLine
10
0
20
8
30
0
11
-45.979274
21
8
31
0
39
0
210
0
220
0
230
1
0
LINE
5
84
100
AcDbEntity
8
SK1
62
256
6
ByLayer
370
18
48
1
60
0
100
AcDbLine
10
-45.979274
20
-8
30
0
11
0
21
-8
31
0
39
0
210
0
220
0
230
1
0
LINE
5
85
100
AcDbEntity
8
SK4
62
256
6
ByLayer
370
18
48
0.05
60
0
100
AcDbLine
10
90
20
0
30
0
11
-53
21
0
31
0
39
0
210
0
220
0
230
1
0
LINE
5
87
100
AcDbEntity
8
4
62
256
6
ByLayer
370
18
48
0.05
60
0
100
AcDbLine
10
85
20
0
30
0
11
0
21
0
31
0
39
0
210
0
220
0
230
1
0
LINE
5
89
100
AcDbEntity
8
80
62
256
6
ByLayer
370
18
48
1
60
0
100
AcDbLine
10
0
20
0
30
0
11
-5
21
0
31
0
39
0
210
0
220
0
230
1
0
LINE
5
8A
100
AcDbEntity
8
1
62
256
6
ByLayer
370
18
48
1
60
0
100
AcDbLine
10
84.981756
20
0.073967
30
0
11
85
21
0
31
0
39
0
210
0
220
0
230
1
0
LINE
5
8B
100
AcDbEntity
8
1
62
256
6
ByLayer
370
18
48
1
60
0
100
AcDbLine
10
80.969691
20
-4.452726
30
0
11
84.893457
21
-0.07976
31
0
39
0
210
0
220
0
230
1
0
LINE
5
8C
100
AcDbEntity
8
1
62
256
6
ByLayer
370
18
48
1
60
0
100
AcDbLine
10
0.8
20
7.951119
30
0
11
0.8
21
-7.951119
31
0
39
0
210
0
220
0
230
1
0
LINE
5
8D
100
AcDbEntity
8
1
62
256
6
ByLayer
370
18
48
1
60
0
100
AcDbLine
10
85
20
0
30
0
11
84.981756
21
-0.073967
31
0
39
0
210
0
220
0
230
1
0
LINE
5
8E
100
AcDbEntity
8
1
62
256
6
ByLayer
370
18
48
1
60
0
100
AcDbLine
10
0
20
-8
30
0
11
0
21
8
31
0
39
0
210
0
220
0
230
1
0
LINE
5
8F
100
AcDbEntity
8
1
62
256
6
ByLayer
370
18
48
1
60
0
100
AcDbLine
10
4
20
-7.953039
30
0
11
4
21
-2.480839
31
0
39
0
210
0
220
0
230
1
0
LINE
5
90
100
AcDbEntity
8
1
62
256
6
ByLayer
370
18
48
1
60
0
100
AcDbLine
10
85
20
0
30
0
11
82.213824
21
-7.654955
31
0
39
0
210
0
220
0
230
1
0
LINE
5
91
100
AcDbEntity
8
1
62
256
6
ByLayer
370
18
48
1
60
0
100
AcDbLine
10
84.893191
20
0.350698
30
0
11
84.620132
21
1.293728
31
0
39
0
210
0
220
0
230
1
0
LINE
5
92
100
AcDbEntity
8
1
62
256
6
ByLayer
370
13
48
1
60
0
100
AcDbLine
10
82.819089
20
0.947304
30
0
11
84.893457
21
-0.07976
31
0
39
0
210
0
220
0
230
1
0
LINE
5
93
100
AcDbEntity
8
1
62
256
6
ByLayer
370
18
48
1
60
0
100
AcDbLine
10
4
20
7.953039
30
0
11
4
21
7.065838
31
0
39
0
210
0
220
0
230
1
0
LINE
5
94
100
AcDbEntity
8
1
62
256
6
ByLayer
370
13
48
1
60
0
100
AcDbLine
10
84.620132
20
1.293728
30
0
11
82.988547
21
1.293728
31
0
39
0
210
0
220
0
230
1
0
LINE
5
95
100
AcDbEntity
8
1
62
256
6
ByLayer
370
18
48
1
60
0
100
AcDbLine
10
84.893191
20
-0.350698
30
0
11
84.620132
21
-1.293728
31
0
39
0
210
0
220
0
230
1
0
LINE
5
96
100
AcDbEntity
8
1
62
256
6
ByLayer
370
13
48
1
60
0
100
AcDbLine
10
82.988547
20
1.293728
30
0
11
84.893191
21
0.350698
31
0
39
0
210
0
220
0
230
1
0
LINE
5
97
100
AcDbEntity
8
SK1
62
256
6
ByLayer
370
18
48
1
60
0
100
AcDbLine
10
0
20
-8
30
0
11
0
21
8
31
0
39
0
210
0
220
0
230
1
0
LINE
5
98
100
AcDbEntity
8
SK1
62
256
6
ByLayer
370
18
48
1
60
0
100
AcDbLine
10
-48
20
4.5
30
0
11
-48
21
-4.5
31
0
39
0
210
0
220
0
230
1
0
LINE
5
99
100
AcDbEntity
8
SK1
62
256
6
ByLayer
370
18
48
1
60
0
100
AcDbLine
10
-45.979274
20
8
30
0
11
-45.979274
21
-8
31
0
39
0
210
0
220
0
230
1
0
MTEXT
5
D0
100
AcDbEntity
8
SK6
62
256
6
ByLayer
370
13
48
1
60
0
100
AcDbMText
10
20.629169
20
40.382694
30
0
210
0
220
0
230
1
1
\W0.7542;R840-1600-50-A0A1220
40
3.5
41
0
44
1.084337
50
0
71
8
72
5
7
iso_b_vert
0
DIMENSION
5
DD
100
AcDbEntity
8
SK2
62
256
6
ByLayer
370
13
48
1
60
0
100
AcDbDimension
2
DimnDraft3D1
10
82.24
20
-18.213398
30
0
11
38.990059
21
-18.213398
31
0
70
32
71
5
72
1
41
1
210
0
220
0
230
1
3
Standard
100
AcDbAlignedDimension
13
0
23
-1.5875
33
0
14
82.24
24
-9.5875
34
0
50
0
100
AcDbRotatedDimension
1001
ACAD
1000
DSTYLE
1002
{
1070
   279
1070
     0
1070
   172
1070
     1
1070
   173
1070
     1
1070
   340
1005
D1
1070
   271
1070
     2
1070
   272
1070
     2
1070
    77
1070
     1
1070
    73
1070
     0
1070
   171
1070
     3
1070
   274
1070
     4
1070
   177
1070
    35
1070
   176
1070
    35
1070
   178
1070
    35
1070
    48
1040
-0.005
1070
    41
1041
3.5
1070
   147
1041
1.75
1070
    42
1041
1.5875
1070
    44
1041
2.0
1070
   140
1041
3.5
1070
   343
1005
0
1070
   344
1005
0
1002
}
0
DIMENSION
5
E7
100
AcDbEntity
8
SK2
62
256
6
ByLayer
370
13
48
1
60
0
100
AcDbDimension
2
DimnDraft3D2
10
85
20
-36.692985
30
0
11
17.0813
21
-36.692985
31
0
70
32
71
5
72
1
41
1
210
0
220
0
230
1
3
Standard
100
AcDbAlignedDimension
13
-48
23
-9.5875
33
0
14
85
24
-1.5875
34
0
50
0
100
AcDbRotatedDimension
1001
ACAD
1000
DSTYLE
1002
{
1070
   279
1070
     0
1070
   172
1070
     1
1070
   173
1070
     1
1070
   340
1005
D1
1070
   271
1070
     2
1070
   272
1070
     2
1070
    77
1070
     1
1070
    73
1070
     0
1070
   171
1070
     3
1070
   274
1070
     4
1070
   177
1070
    35
1070
   176
1070
    35
1070
   178
1070
    35
1070
    48
1040
-0.005
1070
    41
1041
3.5
1070
   147
1041
1.75
1070
    42
1041
1.5875
1070
    44
1041
2.0
1070
   140
1041
3.5
1070
   343
1005
0
1070
   344
1005
0
1002
}
0
DIMENSION
5
F1
100
AcDbEntity
8
SK2
62
256
6
ByLayer
370
13
48
1
60
0
100
AcDbDimension
2
DimnDraft3D3
10
85
20
19.609119
30
0
11
43.62
21
19.609119
31
0
70
32
71
5
72
1
41
1
210
0
220
0
230
1
3
Standard
100
AcDbAlignedDimension
13
2.24
23
9.5875
33
0
14
85
24
1.5875
34
0
50
0
100
AcDbRotatedDimension
1001
ACAD
1000
DSTYLE
1002
{
1070
   279
1070
     0
1070
   172
1070
     1
1070
   173
1070
     1
1070
   340
1005
D1
1070
   271
1070
     2
1070
   272
1070
     2
1070
    77
1070
     1
1070
    73
1070
     0
1070
   171
1070
     3
1070
   274
1070
     4
1070
   177
1070
    35
1070
   176
1070
    35
1070
   178
1070
    35
1070
    48
1040
-0.005
1070
    41
1041
3.5
1070
   147
1041
1.75
1070
    42
1041
1.5875
1070
    44
1041
2.0
1070
   140
1041
3.5
1070
   343
1005
0
1070
   344
1005
0
1002
}
0
DIMENSION
5
FB
100
AcDbEntity
8
SK2
62
256
6
ByLayer
370
13
48
1
60
0
100
AcDbDimension
2
DimnDraft3D4
10
82.24
20
-20.802503
30
0
11
94.981425
21
-20.802503
31
0
70
32
71
5
72
1
41
1
210
0
220
0
230
1
3
Standard
100
AcDbAlignedDimension
13
85
23
-1.5875
33
0
14
82.24
24
-9.5875
34
0
50
0
100
AcDbRotatedDimension
1001
ACAD
1000
DSTYLE
1002
{
1070
   279
1070
     0
1070
   172
1070
     1
1070
   173
1070
     1
1070
   340
1005
D1
1070
   271
1070
     2
1070
   272
1070
     2
1070
    77
1070
     1
1070
    73
1070
     0
1070
   171
1070
     3
1070
   274
1070
     4
1070
   177
1070
    35
1070
   176
1070
    35
1070
   178
1070
    35
1070
    48
1040
-0.005
1070
    41
1041
3.5
1070
   147
1041
1.75
1070
    42
1041
1.5875
1070
    44
1041
2.0
1070
   140
1041
3.5
1070
   343
1005
0
1070
   344
1005
0
1002
}
0
DIMENSION
5
105
100
AcDbEntity
8
SK2
62
256
6
ByLayer
370
13
48
1
60
0
100
AcDbDimension
2
DimnDraft3D5
10
82.24
20
-26.343428
30
0
11
14.000676
21
-26.343428
31
0
70
32
71
5
72
1
41
1
210
0
220
0
230
1
3
Standard
100
AcDbAlignedDimension
13
-48
23
-9.5875
33
0
14
82.24
24
-9.5875
34
0
50
0
100
AcDbRotatedDimension
1001
ACAD
1000
DSTYLE
1002
{
1070
   279
1070
     0
1070
   172
1070
     1
1070
   173
1070
     1
1070
   340
1005
D1
1070
   271
1070
     2
1070
   272
1070
     2
1070
    77
1070
     1
1070
    73
1070
     0
1070
   171
1070
     3
1070
   274
1070
     4
1070
   177
1070
    35
1070
   176
1070
    35
1070
   178
1070
    35
1070
    48
1040
-0.005
1070
    41
1041
3.5
1070
   147
1041
1.75
1070
    42
1041
1.5875
1070
    44
1041
2.0
1070
   140
1041
3.5
1070
   343
1005
0
1070
   344
1005
0
1002
}
0
DIMENSION
5
110
100
AcDbEntity
8
SK2
62
256
6
ByLayer
370
13
48
1
60
0
100
AcDbDimension
2
DimnDraft3D6
10
-58.625163
20
8
30
0
11
-59.250163
21
26.47418
31
0
70
33
71
5
72
1
41
1
210
0
220
0
230
1
3
Standard
100
AcDbAlignedDimension
13
-49.5875
23
-8
33
0
14
-49.5875
24
8
34
0
1001
ACAD
1000
DSTYLE
1002
{
1070
   279
1070
     0
1070
    74
1070
     0
1070
   173
1070
     1
1070
   340
1005
D1
1070
   271
1070
     3
1070
   272
1070
     2
1070
    77
1070
     1
1070
    73
1070
     0
1070
   171
1070
     3
1070
   274
1070
     4
1070
   177
1070
    35
1070
   176
1070
    35
1070
   178
1070
    35
1070
    48
1040
-0.005
1070
    41
1041
3.5
1070
   147
1041
1.75
1070
    42
1041
1.5875
1070
    44
1041
2.0
1070
   140
1041
3.5
1070
   343
1005
0
1070
   344
1005
0
1002
}
0
DIMENSION
5
11B
100
AcDbEntity
8
2
62
256
6
ByLayer
370
13
48
1
60
0
100
AcDbDimension
2
DimnDraft3D7
10
99.083343
20
8
30
0
11
94.458343
21
25.067266
31
0
70
33
71
5
72
1
41
1
210
0
220
0
230
1
3
Standard
100
AcDbAlignedDimension
13
83.8275
23
-8
33
0
14
83.8275
24
8
34
0
1001
ACAD
1000
DSTYLE
1002
{
1070
   279
1070
     0
1070
    74
1070
     0
1070
   173
1070
     1
1070
   340
1005
D1
1070
   271
1070
     3
1070
   272
1070
     2
1070
    77
1070
     1
1070
    73
1070
     0
1070
   171
1070
     3
1070
   274
1070
     4
1070
   177
1070
    35
1070
   176
1070
    35
1070
   178
1070
    35
1070
    48
1040
-0.005
1070
    41
1041
3.5
1070
   147
1041
1.75
1070
    42
1041
1.5875
1070
    44
1041
2.0
1070
   140
1041
3.5
1070
   343
1005
0
1070
   344
1005
0
1002
}
0
ENDSEC
0
SECTION
2
OBJECTS
0
DICTIONARY
5
186
330
0
100
AcDbDictionary
280
0
281
1
3
ACAD_GROUP
350
187
3
ACAD_MLINESTYLE
350
188
0
DICTIONARY
5
187
330
0
100
AcDbDictionary
280
0
281
1
0
DICTIONARY
5
188
330
0
100
AcDbDictionary
280
0
281
1
3
Standard
350
18
0
MLINESTYLE
5
18
330
188
100
AcDbMlineStyle
2
Standard
70
0
3

62
256
51
90
52
90
71
2
49
-0.5
62
256
6
ByLayer
49
0.5
62
256
6
ByLayer
0
RASTERVARIABLES
5
174
330

100
AcDbRasterVariables
90
0
70
1
71
1
72
1
0
ENDSEC
0
EOF
