0
SECTION
2
HEADER
9
$ACADVER
1
AC1015
9
$DWGCODEPAGE
3
ANSI_1252
9
$HANDSEED
5
1a0
9
$ANGBASE
50
0
9
$ANGDIR
70
0
9
$ATTMODE
70
1
9
$AUNITS
70
0
9
$AUPREC
70
0
9
$CECOLOR
62
256
9
$CELTSCALE
40
1
9
$CELTYPE
6
ByLayer
9
$CELWEIGHT
370
18
9
$CLAYER
8
0
9
$CMLJUST
70
0
9
$CMLSCALE
40
1
9
$CMLSTYLE
2
Standard
9
$DIMSTYLE
2
Standard
9
$TEXTSIZE
40
0.2
9
$TEXTSTYLE
7
Standard
9
$LUNITS
70
2
9
$LUPREC
70
4
9
$EXTNAMES
290
1
9
$INSUNITS
70
4
9
$LTSCALE
40
1
9
$LWDISPLAY
290
1
9
$PDMODE
70
0
9
$PDSIZE
40
0
9
$PLINEGEN
70
0
0
ENDSEC
0
SECTION
2
CLASSES
0
CLASS
1
RASTERVARIABLES
2
AcDbRasterVariables
3
ISM
90
0
280
0
281
0
0
ENDSEC
0
SECTION
2
TABLES
0
TABLE
2
VPORT
5
196
100
AcDbSymbolTable
0
VPORT
5
1
100
AcDbSymbolTableRecord
100
AcDbViewportTableRecord
2
*Active
70
0
10
0
20
0
11
1
21
1
12
-1
22
1
13
0
23
0
14
0.5
24
0.5
15
10
25
10
16
0
26
0
36
1
17
0
27
0
37
0
0
ENDTAB
0
TABLE
2
LTYPE
5
197
100
AcDbSymbolTable
0
LTYPE
5
14
100
AcDbSymbolTableRecord
100
AcDbLinetypeTableRecord
70
0
2
ByBlock
3

72
65
73
0
40
0
0
LTYPE
5
15
100
AcDbSymbolTableRecord
100
AcDbLinetypeTableRecord
70
0
2
ByLayer
3

72
65
73
0
40
0
0
LTYPE
5
16
100
AcDbSymbolTableRecord
100
AcDbLinetypeTableRecord
70
0
2
CONTINUOUS
3
Solid line
72
65
73
0
40
0
0
LTYPE
5
6A
100
AcDbSymbolTableRecord
100
AcDbLinetypeTableRecord
70
0
2
CENTER
3
____ _ ____ _ ____ _ ____
72
65
73
4
40
47.5
49
22
74
0
49
-8.5
74
0
49
8.5
74
0
49
-8.5
74
0
0
LTYPE
5
6B
100
AcDbSymbolTableRecord
100
AcDbLinetypeTableRecord
70
0
2
DASHED
3
__ __ __ __ __ __ __ __ __
72
65
73
2
40
25.72
49
12.86
74
0
49
-12.86
74
0
0
ENDTAB
0
TABLE
2
LAYER
5
198
100
AcDbSymbolTable
0
LAYER
5
10
100
AcDbSymbolTableRecord
100
AcDbLayerTableRecord
2
0
70
0
62
7
6
CONTINUOUS
290
1
370
-3
390
0
0
LAYER
5
6D
100
AcDbSymbolTableRecord
100
AcDbLayerTableRecord
2
81
70
0
62
-3
6
CONTINUOUS
290
1
370
-3
390
0
0
LAYER
5
6F
100
AcDbSymbolTableRecord
100
AcDbLayerTableRecord
2
80
70
0
62
-6
6
CONTINUOUS
290
1
370
-3
390
0
0
LAYER
5
74
100
AcDbSymbolTableRecord
100
AcDbLayerTableRecord
2
2
70
0
62
7
6
CONTINUOUS
290
1
370
-3
390
0
0
LAYER
5
78
100
AcDbSymbolTableRecord
100
AcDbLayerTableRecord
2
1
70
0
62
4
6
CONTINUOUS
290
1
370
-3
390
0
0
LAYER
5
86
100
AcDbSymbolTableRecord
100
AcDbLayerTableRecord
2
4
70
0
62
-2
6
CENTER
290
1
370
-3
390
0
0
LAYER
5
182
100
AcDbSymbolTableRecord
100
AcDbLayerTableRecord
2
SK2
70
0
62
7
6
CONTINUOUS
290
1
370
-3
390
0
0
LAYER
5
183
100
AcDbSymbolTableRecord
100
AcDbLayerTableRecord
2
SK1
70
0
62
4
6
CONTINUOUS
290
1
370
-3
390
0
0
LAYER
5
184
100
AcDbSymbolTableRecord
100
AcDbLayerTableRecord
2
SK4
70
0
62
2
6
CENTER
290
1
370
-3
390
0
0
LAYER
5
185
100
AcDbSymbolTableRecord
100
AcDbLayerTableRecord
2
SK6
70
0
62
5
6
CONTINUOUS
290
1
370
-3
390
0
0
ENDTAB
0
TABLE
2
STYLE
5
199
100
AcDbSymbolTable
0
STYLE
5
11
100
AcDbSymbolTableRecord
100
AcDbTextStyleTableRecord
2
Standard
3
txt
70
0
71
0
40
0
41
1
42
0
50
0
0
STYLE
5
DE
100
AcDbSymbolTableRecord
100
AcDbTextStyleTableRecord
2
iso_b_vert
3
simplex.shx
70
0
71
0
40
0
41
1
42
0
50
0
0
STYLE
5
DF
100
AcDbSymbolTableRecord
100
AcDbTextStyleTableRecord
2
DWGDirectTextStyle
3
simplex
70
0
71
0
40
0
41
1
42
0
50
0
0
ENDTAB
0
TABLE
2
DIMSTYLE
5
19a
100
AcDbSymbolTable
100
AcDbDimStyleTable
0
DIMSTYLE
105
27
100
AcDbSymbolTableRecord
100
AcDbDimStyleTableRecord
2
Standard
70
0
3
<>
41
0.18
42
0.0625
44
0.18
140
0.18
147
0.09
73
0
74
0
77
1
271
2
275
0
278
52
280
0
340
11
0
ENDTAB
0
TABLE
2
VIEW
5
19b
100
AcDbSymbolTable
0
ENDTAB
0
TABLE
2
UCS
5
19c
100
AcDbSymbolTable
0
ENDTAB
0
TABLE
2
APPID
5
19d
100
AcDbSymbolTable
0
APPID
5
12
100
AcDbSymbolTableRecord
100
AcDbRegAppTableRecord
2
ACAD
70
0
0
ENDTAB
0
TABLE
2
BLOCK_RECORD
5
19e
100
AcDbSymbolTable
0
BLOCK_RECORD
5
1F
100
AcDbSymbolTableRecord
100
AcDbBlockTableRecord
2
*Model_Space
340
0
70
0
0
BLOCK_RECORD
5
1B
100
AcDbSymbolTableRecord
100
AcDbBlockTableRecord
2
*Paper_Space
340
0
70
0
0
BLOCK_RECORD
5
23
100
AcDbSymbolTableRecord
100
AcDbBlockTableRecord
2
*Paper_Space0
340
0
70
0
0
BLOCK_RECORD
5
E1
100
AcDbSymbolTableRecord
100
AcDbBlockTableRecord
2
DimnDraft3D1
340
0
70
0
0
BLOCK_RECORD
5
EB
100
AcDbSymbolTableRecord
100
AcDbBlockTableRecord
2
DimnDraft3D2
340
0
70
0
0
BLOCK_RECORD
5
F5
100
AcDbSymbolTableRecord
100
AcDbBlockTableRecord
2
DimnDraft3D3
340
0
70
0
0
BLOCK_RECORD
5
FF
100
AcDbSymbolTableRecord
100
AcDbBlockTableRecord
2
DimnDraft3D4
340
0
70
0
0
BLOCK_RECORD
5
109
100
AcDbSymbolTableRecord
100
AcDbBlockTableRecord
2
DimnDraft3D5
340
0
70
0
0
BLOCK_RECORD
5
113
100
AcDbSymbolTableRecord
100
AcDbBlockTableRecord
2
DimnDraft3D6
340
0
70
0
0
BLOCK_RECORD
5
11E
100
AcDbSymbolTableRecord
100
AcDbBlockTableRecord
2
DimnDraft3D7
340
0
70
0
0
ENDTAB
0
ENDSEC
0
SECTION
2
BLOCKS
0
BLOCK
5
20
100
AcDbEntity
8
0
100
AcDbBlockBegin
2
*Model_Space
70
0
10
0
20
0
30
0
3
*Model_Space
0
ENDBLK
5
21
100
AcDbEntity
8
0
100
AcDbBlockEnd
0
BLOCK
5
1C
100
AcDbEntity
8
0
100
AcDbBlockBegin
2
*Paper_Space
70
0
10
0
20
0
30
0
3
*Paper_Space
0
ENDBLK
5
1D
100
AcDbEntity
8
0
100
AcDbBlockEnd
0
BLOCK
5
24
100
AcDbEntity
8
0
100
AcDbBlockBegin
2
*Paper_Space0
70
0
10
0
20
0
30
0
3
*Paper_Space0
0
ENDBLK
5
25
100
AcDbEntity
8
0
100
AcDbBlockEnd
0
BLOCK
5
E8
100
AcDbEntity
8
0
100
AcDbBlockBegin
2
DimnDraft3D1
70
0
10
0
20
0
30
0
3
DimnDraft3D1
0
MTEXT
5
E2
100
AcDbEntity
8
SK2
62
256
6
ByLayer
370
13
48
1
60
0
100
AcDbMText
10
34.457164
20
-17.088398
30
0
210
0
220
0
230
1
1
\W0.7495;82,34
40
3.5
41
0
44
1.084337
50
0
71
7
72
5
7
iso_b_vert
0
LINE
5
E3
100
AcDbEntity
8
SK2
62
256
6
ByLayer
370
13
48
1
60
0
100
AcDbLine
10
0
20
-1.5875
30
0
11
0
21
-19.963398
31
0
39
0
210
0
220
0
230
1
0
LINE
5
E4
100
AcDbEntity
8
SK2
62
256
6
ByLayer
370
13
48
1
60
0
100
AcDbLine
10
82.34
20
-9.3375
30
0
11
82.34
21
-19.963398
31
0
39
0
210
0
220
0
230
1
0
LINE
5
E5
100
AcDbEntity
8
SK2
62
256
6
ByLayer
370
13
48
1
60
0
100
AcDbLine
10
0
20
-17.963398
30
0
11
82.34
21
-17.963398
31
0
39
0
210
0
220
0
230
1
0
SOLID
5
E6
100
AcDbEntity
8
SK2
62
256
6
ByLayer
370
13
48
1
60
0
100
AcDbTrace
10
0
20
-17.963398
30
0
11
3.499998
21
-17.502615
31
0
12
3.500002
22
-18.424182
32
0
13
0
23
-17.963398
33
0
39
0
210
0
220
0
230
1
0
SOLID
5
E7
100
AcDbEntity
8
SK2
62
256
6
ByLayer
370
13
48
1
60
0
100
AcDbTrace
10
82.34
20
-17.963398
30
0
11
78.840002
21
-18.424182
31
0
12
78.839998
22
-17.502615
32
0
13
82.34
23
-17.963398
33
0
39
0
210
0
220
0
230
1
0
ENDBLK
5
E9
100
AcDbEntity
8
0
100
AcDbBlockEnd
0
BLOCK
5
F2
100
AcDbEntity
8
0
100
AcDbBlockBegin
2
DimnDraft3D2
70
0
10
0
20
0
30
0
3
DimnDraft3D2
0
MTEXT
5
EC
100
AcDbEntity
8
SK2
62
256
6
ByLayer
370
13
48
1
60
0
100
AcDbMText
10
11.862221
20
-35.817985
30
0
210
0
220
0
230
1
1
\W0.6930;133,00
40
3.5
41
0
44
1.084337
50
0
71
7
72
5
7
iso_b_vert
0
LINE
5
ED
100
AcDbEntity
8
SK2
62
256
6
ByLayer
370
13
48
1
60
0
100
AcDbLine
10
-48
20
-9.5875
30
0
11
-48
21
-38.692985
31
0
39
0
210
0
220
0
230
1
0
LINE
5
EE
100
AcDbEntity
8
SK2
62
256
6
ByLayer
370
13
48
1
60
0
100
AcDbLine
10
85
20
-1.5875
30
0
11
85
21
-38.692985
31
0
39
0
210
0
220
0
230
1
0
LINE
5
EF
100
AcDbEntity
8
SK2
62
256
6
ByLayer
370
13
48
1
60
0
100
AcDbLine
10
-48
20
-36.692985
30
0
11
85
21
-36.692985
31
0
39
0
210
0
220
0
230
1
0
SOLID
5
F0
100
AcDbEntity
8
SK2
62
256
6
ByLayer
370
13
48
1
60
0
100
AcDbTrace
10
-48
20
-36.692985
30
0
11
-44.500002
21
-36.232202
31
0
12
-44.499998
22
-37.153769
32
0
13
-48
23
-36.692985
33
0
39
0
210
0
220
0
230
1
0
SOLID
5
F1
100
AcDbEntity
8
SK2
62
256
6
ByLayer
370
13
48
1
60
0
100
AcDbTrace
10
85
20
-36.692985
30
0
11
81.500002
21
-37.153769
31
0
12
81.499998
22
-36.232202
32
0
13
85
23
-36.692985
33
0
39
0
210
0
220
0
230
1
0
ENDBLK
5
F3
100
AcDbEntity
8
0
100
AcDbBlockEnd
0
BLOCK
5
FC
100
AcDbEntity
8
0
100
AcDbBlockBegin
2
DimnDraft3D3
70
0
10
0
20
0
30
0
3
DimnDraft3D3
0
MTEXT
5
F6
100
AcDbEntity
8
SK2
62
256
6
ByLayer
370
13
48
1
60
0
100
AcDbMText
10
40.908816
20
20.234119
30
0
210
0
220
0
230
1
1
\W0.6713;80,16
40
3.5
41
0
44
1.084337
50
0
71
7
72
5
7
iso_b_vert
0
LINE
5
F7
100
AcDbEntity
8
SK2
62
256
6
ByLayer
370
13
48
1
60
0
100
AcDbLine
10
4.84
20
9.3375
30
0
11
4.84
21
21.359119
31
0
39
0
210
0
220
0
230
1
0
LINE
5
F8
100
AcDbEntity
8
SK2
62
256
6
ByLayer
370
13
48
1
60
0
100
AcDbLine
10
85
20
1.5875
30
0
11
85
21
21.359119
31
0
39
0
210
0
220
0
230
1
0
LINE
5
F9
100
AcDbEntity
8
SK2
62
256
6
ByLayer
370
13
48
1
60
0
100
AcDbLine
10
4.84
20
19.359119
30
0
11
85
21
19.359119
31
0
39
0
210
0
220
0
230
1
0
SOLID
5
FA
100
AcDbEntity
8
SK2
62
256
6
ByLayer
370
13
48
1
60
0
100
AcDbTrace
10
4.84
20
19.359119
30
0
11
8.339998
21
19.819903
31
0
12
8.340002
22
18.898335
32
0
13
4.84
23
19.359119
33
0
39
0
210
0
220
0
230
1
0
SOLID
5
FB
100
AcDbEntity
8
SK2
62
256
6
ByLayer
370
13
48
1
60
0
100
AcDbTrace
10
85
20
19.359119
30
0
11
81.500002
21
18.898335
31
0
12
81.499998
22
19.819903
32
0
13
85
23
19.359119
33
0
39
0
210
0
220
0
230
1
0
ENDBLK
5
FD
100
AcDbEntity
8
0
100
AcDbBlockEnd
0
BLOCK
5
106
100
AcDbEntity
8
0
100
AcDbBlockBegin
2
DimnDraft3D4
70
0
10
0
20
0
30
0
3
DimnDraft3D4
0
MTEXT
5
100
100
AcDbEntity
8
SK2
62
256
6
ByLayer
370
13
48
1
60
0
100
AcDbMText
10
91.840636
20
-19.677503
30
0
210
0
220
0
230
1
1
\W0.7150;2,66
40
3.5
41
0
44
1.084337
50
0
71
7
72
5
7
iso_b_vert
0
LINE
5
101
100
AcDbEntity
8
SK2
62
256
6
ByLayer
370
13
48
1
60
0
100
AcDbLine
10
85
20
-1.5875
30
0
11
85
21
-22.552503
31
0
39
0
210
0
220
0
230
1
0
LINE
5
102
100
AcDbEntity
8
SK2
62
256
6
ByLayer
370
13
48
1
60
0
100
AcDbLine
10
82.34
20
-9.3375
30
0
11
82.34
21
-22.552503
31
0
39
0
210
0
220
0
230
1
0
LINE
5
103
100
AcDbEntity
8
SK2
62
256
6
ByLayer
370
13
48
1
60
0
100
AcDbLine
10
73.59
20
-20.552503
30
0
11
98.997215
21
-20.552503
31
0
39
0
210
0
220
0
230
1
0
SOLID
5
104
100
AcDbEntity
8
SK2
62
256
6
ByLayer
370
13
48
1
60
0
100
AcDbTrace
10
85
20
-20.552503
30
0
11
88.499998
21
-20.091719
31
0
12
88.500002
22
-21.013287
32
0
13
85
23
-20.552503
33
0
39
0
210
0
220
0
230
1
0
SOLID
5
105
100
AcDbEntity
8
SK2
62
256
6
ByLayer
370
13
48
1
60
0
100
AcDbTrace
10
82.34
20
-20.552503
30
0
11
78.840002
21
-21.013287
31
0
12
78.839998
22
-20.091719
32
0
13
82.34
23
-20.552503
33
0
39
0
210
0
220
0
230
1
0
ENDBLK
5
107
100
AcDbEntity
8
0
100
AcDbBlockEnd
0
BLOCK
5
110
100
AcDbEntity
8
0
100
AcDbBlockBegin
2
DimnDraft3D5
70
0
10
0
20
0
30
0
3
DimnDraft3D5
0
MTEXT
5
10A
100
AcDbEntity
8
SK2
62
256
6
ByLayer
370
13
48
1
60
0
100
AcDbMText
10
8.597387
20
-25.468428
30
0
210
0
220
0
230
1
1
\W0.7079;130,34
40
3.5
41
0
44
1.084337
50
0
71
7
72
5
7
iso_b_vert
0
LINE
5
10B
100
AcDbEntity
8
SK2
62
256
6
ByLayer
370
13
48
1
60
0
100
AcDbLine
10
-48
20
-9.5875
30
0
11
-48
21
-28.343428
31
0
39
0
210
0
220
0
230
1
0
LINE
5
10C
100
AcDbEntity
8
SK2
62
256
6
ByLayer
370
13
48
1
60
0
100
AcDbLine
10
82.34
20
-9.3375
30
0
11
82.34
21
-28.343428
31
0
39
0
210
0
220
0
230
1
0
LINE
5
10D
100
AcDbEntity
8
SK2
62
256
6
ByLayer
370
13
48
1
60
0
100
AcDbLine
10
-48
20
-26.343428
30
0
11
82.34
21
-26.343428
31
0
39
0
210
0
220
0
230
1
0
SOLID
5
10E
100
AcDbEntity
8
SK2
62
256
6
ByLayer
370
13
48
1
60
0
100
AcDbTrace
10
-48
20
-26.343428
30
0
11
-44.500002
21
-25.882645
31
0
12
-44.499998
22
-26.804212
32
0
13
-48
23
-26.343428
33
0
39
0
210
0
220
0
230
1
0
SOLID
5
10F
100
AcDbEntity
8
SK2
62
256
6
ByLayer
370
13
48
1
60
0
100
AcDbTrace
10
82.34
20
-26.343428
30
0
11
78.840002
21
-26.804212
31
0
12
78.839998
22
-25.882645
32
0
13
82.34
23
-26.343428
33
0
39
0
210
0
220
0
230
1
0
ENDBLK
5
111
100
AcDbEntity
8
0
100
AcDbBlockEnd
0
BLOCK
5
11B
100
AcDbEntity
8
0
100
AcDbBlockBegin
2
DimnDraft3D6
70
0
10
0
20
0
30
0
3
DimnDraft3D6
0
MTEXT
5
114
100
AcDbEntity
8
SK2
62
256
6
ByLayer
370
13
48
1
60
0
100
AcDbMText
10
-58.375163
20
27.34918
30
0
210
0
220
0
230
1
1
\W0.6930;16,000
40
3.5
41
0
44
1.084337
50
90
71
7
72
5
7
iso_b_vert
0
MTEXT
5
115
100
AcDbEntity
8
SK2
62
256
6
ByLayer
370
13
48
1
60
0
100
AcDbMText
10
-58.375163
20
22.126524
30
0
210
0
220
0
230
1
1
%%c
40
3.5
41
0
44
1.084337
50
90
71
7
72
5
7
iso_b_vert
0
LINE
5
116
100
AcDbEntity
8
SK2
62
256
6
ByLayer
370
13
48
1
60
0
100
AcDbLine
10
-49.5875
20
-8
30
0
11
-58.625163
21
-8
31
0
39
0
210
0
220
0
230
1
0
LINE
5
117
100
AcDbEntity
8
SK2
62
256
6
ByLayer
370
13
48
1
60
0
100
AcDbLine
10
-49.5875
20
8
30
0
11
-58.625163
21
8
31
0
39
0
210
0
220
0
230
1
0
LINE
5
118
100
AcDbEntity
8
SK2
62
256
6
ByLayer
370
13
48
1
60
0
100
AcDbLine
10
-56.625163
20
-8
30
0
11
-56.625163
21
38.862338
31
0
39
0
210
0
220
0
230
1
0
SOLID
5
119
100
AcDbEntity
8
SK2
62
256
6
ByLayer
370
13
48
1
60
0
100
AcDbTrace
10
-56.625163
20
-8
30
0
11
-57.085946
21
-4.500002
31
0
12
-56.164379
22
-4.499998
32
0
13
-56.625163
23
-8
33
0
39
0
210
0
220
0
230
1
0
SOLID
5
11A
100
AcDbEntity
8
SK2
62
256
6
ByLayer
370
13
48
1
60
0
100
AcDbTrace
10
-56.625163
20
8
30
0
11
-56.164379
21
4.500002
31
0
12
-57.085946
22
4.499998
32
0
13
-56.625163
23
8
33
0
39
0
210
0
220
0
230
1
0
ENDBLK
5
11C
100
AcDbEntity
8
0
100
AcDbBlockEnd
0
BLOCK
5
126
100
AcDbEntity
8
0
100
AcDbBlockBegin
2
DimnDraft3D7
70
0
10
0
20
0
30
0
3
DimnDraft3D7
0
MTEXT
5
11F
100
AcDbEntity
8
2
62
256
6
ByLayer
370
13
48
1
60
0
100
AcDbMText
10
95.333343
20
25.692266
30
0
210
0
220
0
230
1
1
\W0.6930;15,500
40
3.5
41
0
44
1.084337
50
90
71
7
72
5
7
iso_b_vert
0
MTEXT
5
120
100
AcDbEntity
8
2
62
256
6
ByLayer
370
13
48
1
60
0
100
AcDbMText
10
95.333343
20
20.46961
30
0
210
0
220
0
230
1
1
%%c
40
3.5
41
0
44
1.084337
50
90
71
7
72
5
7
iso_b_vert
0
LINE
5
121
100
AcDbEntity
8
2
62
256
6
ByLayer
370
13
48
1
60
0
100
AcDbLine
10
83.9275
20
-7.75
30
0
11
99.083343
21
-7.75
31
0
39
0
210
0
220
0
230
1
0
LINE
5
122
100
AcDbEntity
8
2
62
256
6
ByLayer
370
13
48
1
60
0
100
AcDbLine
10
83.9275
20
7.75
30
0
11
99.083343
21
7.75
31
0
39
0
210
0
220
0
230
1
0
LINE
5
123
100
AcDbEntity
8
2
62
256
6
ByLayer
370
13
48
1
60
0
100
AcDbLine
10
97.083343
20
-7.75
30
0
11
97.083343
21
37.205424
31
0
39
0
210
0
220
0
230
1
0
SOLID
5
124
100
AcDbEntity
8
2
62
256
6
ByLayer
370
13
48
1
60
0
100
AcDbTrace
10
97.083343
20
-7.75
30
0
11
96.622559
21
-4.250002
31
0
12
97.544126
22
-4.249998
32
0
13
97.083343
23
-7.75
33
0
39
0
210
0
220
0
230
1
0
SOLID
5
125
100
AcDbEntity
8
2
62
256
6
ByLayer
370
13
48
1
60
0
100
AcDbTrace
10
97.083343
20
7.75
30
0
11
97.544126
21
4.250002
31
0
12
96.622559
22
4.249998
32
0
13
97.083343
23
7.75
33
0
39
0
210
0
220
0
230
1
0
ENDBLK
5
127
100
AcDbEntity
8
0
100
AcDbBlockEnd
0
ENDSEC
0
SECTION
2
ENTITIES
0
ARC
5
9D
100
AcDbEntity
8
1
62
256
6
ByLayer
370
18
48
1
60
0
100
AcDbCircle
39
0
10
0
20
7.2
30
0
40
0.800000000000002
210
0
220
0
230
1
100
AcDbArc
50
54.41025
51
90
0
ARC
5
9E
100
AcDbEntity
8
1
62
256
6
ByLayer
370
18
48
1
60
0
100
AcDbCircle
39
0
10
-0.931164
20
8.501128
30
0
40
0.800000000000001
210
0
220
0
230
-1
100
AcDbArc
50
269.965623
51
305.58975
0
ARC
5
9F
100
AcDbEntity
8
1
62
256
6
ByLayer
370
18
48
1
60
0
100
AcDbCircle
39
0
10
0
20
-7.2
30
0
40
0.800000000000002
210
0
220
0
230
1
100
AcDbArc
50
270
51
305.58975
0
ARC
5
A0
100
AcDbEntity
8
1
62
256
6
ByLayer
370
18
48
1
60
0
100
AcDbCircle
39
0
10
-0.931164
20
-8.501128
30
0
40
0.800000000000001
210
0
220
0
230
-1
100
AcDbArc
50
54.41025
51
90.034377
0
ELLIPSE
5
A1
100
AcDbEntity
8
1
62
256
6
ByLayer
370
18
48
1
60
0
100
AcDbEllipse
10
4.25
20
7.61855
30
0
11
0.25
21
0
31
0
210
0
220
0
230
1
40
0.99999
41
-3.13456369410354
42
-1.55094217055453
0
ELLIPSE
5
A2
100
AcDbEntity
8
1
62
256
6
ByLayer
370
18
48
1
60
0
100
AcDbEllipse
10
4.25
20
-7.61855
30
0
11
0.25
21
0
31
0
210
0
220
0
230
1
40
0.99999
41
1.58580141808667
42
3.13456369410351
0
ELLIPSE
5
A3
100
AcDbEntity
8
1
62
256
6
ByLayer
370
13
48
1
60
0
100
AcDbEllipse
10
83.940545
20
3.441526
30
0
11
5.04037690936944
21
-2.5912039608566
31
0
210
0
220
0
230
-1
40
0.482873
41
1.53949524916882
42
1.88309824997007
0
ELLIPSE
5
A4
100
AcDbEntity
8
1
62
256
6
ByLayer
370
18
48
1
60
0
100
AcDbEllipse
10
84.859559
20
0.149831
30
0
11
0.0868803724547215
21
0.290676908839159
31
0
210
0
220
0
230
-1
40
0.467765
41
1.69559195545344
42
2.36053717390342
0
ELLIPSE
5
A5
100
AcDbEntity
8
1
62
256
6
ByLayer
370
18
48
1
60
0
100
AcDbEllipse
10
85.000656
20
-0.001693
30
0
11
2.84179329991298
21
-7.74805402653355
31
0
210
0
220
0
230
-1
40
0.082138
41
-2.99615879132153
42
-2.90670645515906
0
ELLIPSE
5
A6
100
AcDbEntity
8
1
62
256
6
ByLayer
370
13
48
1
60
0
100
AcDbEllipse
10
84.110004
20
3.575818
30
0
11
5.08796048230495
21
-2.27801117974748
31
0
210
0
220
0
230
-1
40
0.456964
41
1.58100725930604
42
1.92574215430602
0
ELLIPSE
5
A7
100
AcDbEntity
8
1
62
256
6
ByLayer
370
18
48
1
60
0
100
AcDbEllipse
10
85.012897
20
0.073909
30
0
11
0.135658545995053
21
-0.401200806129603
31
0
210
0
220
0
230
-1
40
0.065863
41
1.59160957938217
42
2.32292776274631
0
ELLIPSE
5
A8
100
AcDbEntity
8
1
62
256
6
ByLayer
370
18
48
1
60
0
100
AcDbEllipse
10
83.596266
20
3.575818
30
0
11
1.19331155148964
21
-3.25352389339462
31
0
210
0
220
0
230
-1
40
0.082138
41
-1.5915458685562
42
-0.755280950346826
0
ELLIPSE
5
A9
100
AcDbEntity
8
1
62
256
6
ByLayer
370
18
48
1
60
0
100
AcDbEllipse
10
83.596266
20
-3.575818
30
0
11
1.19331155151898
21
3.25352389346194
31
0
210
0
220
0
230
-1
40
0.082138
41
0.755280950346281
42
1.59154586853988
0
ELLIPSE
5
AA
100
AcDbEntity
8
1
62
256
6
ByLayer
370
13
48
1
60
0
100
AcDbEllipse
10
83.017137
20
1.062053
30
0
11
0.133113781883907
21
0.268850741253513
31
0
210
0
220
0
230
1
40
0.40558
41
0.884485917130958
42
2.28074931872641
0
ELLIPSE
5
AB
100
AcDbEntity
8
1
62
256
6
ByLayer
370
18
48
1
60
0
100
AcDbEllipse
10
85.000656
20
0.001693
30
0
11
2.84179332180958
21
7.74805408933504
31
0
210
0
220
0
230
-1
40
0.082138
41
2.90670645611414
42
2.99615879190906
0
ELLIPSE
5
AC
100
AcDbEntity
8
1
62
256
6
ByLayer
370
18
48
1
60
0
100
AcDbEllipse
10
85.012897
20
-0.073909
30
0
11
0.13565854601161
21
0.401200806174566
31
0
210
0
220
0
230
-1
40
0.065863
41
-2.3229277627052
42
-1.59160957942761
0
POINT
5
6C
100
AcDbEntity
8
81
62
256
6
ByLayer
370
18
48
1
60
0
100
AcDbPoint
10
85
20
0
30
0
39
0
210
0
220
0
230
1
50
360
0
POINT
5
6E
100
AcDbEntity
8
80
62
256
6
ByLayer
370
18
48
1
60
0
100
AcDbPoint
10
0
20
0
30
0
39
0
210
0
220
0
230
1
50
360
0
POINT
5
70
100
AcDbEntity
8
SK2
62
256
6
ByLayer
370
18
48
1
60
1
100
AcDbPoint
10
-48
20
-8
30
0
39
0
210
0
220
0
230
1
50
360
0
POINT
5
72
100
AcDbEntity
8
SK2
62
256
6
ByLayer
370
18
48
1
60
1
100
AcDbPoint
10
-48
20
8
30
0
39
0
210
0
220
0
230
1
50
360
0
POINT
5
73
100
AcDbEntity
8
2
62
256
6
ByLayer
370
18
48
1
60
1
100
AcDbPoint
10
82.34
20
-7.75
30
0
39
0
210
0
220
0
230
1
50
360
0
POINT
5
75
100
AcDbEntity
8
2
62
256
6
ByLayer
370
18
48
1
60
1
100
AcDbPoint
10
82.34
20
7.75
30
0
39
0
210
0
220
0
230
1
50
360
0
SPLINE
5
AD
100
AcDbEntity
8
1
62
256
6
ByLayer
370
18
48
1
60
0
100
AcDbSpline
70
4
71
2
72
6
73
3
40
0
40
0
40
0
40
1
40
1
40
1
41
1
10
59.9523983502383
20
0.0004592851764755
30
0
41
1
10
59.9523865191979
20
0.0004661341618828
30
0
41
1
10
59.9523746881221
20
0.0004731906520306
30
0
0
SPLINE
5
AE
100
AcDbEntity
8
1
62
256
6
ByLayer
370
18
48
1
60
0
100
AcDbSpline
70
4
71
3
72
8
73
4
40
0
40
0
40
0
40
0
40
1
40
1
40
1
40
1
41
1
10
61.605296622342
20
-1.58906624586916
30
0
41
1
10
61.6001139598097
20
-1.58661203725322
30
0
41
1
10
61.6164780179971
20
-1.59598269686228
30
0
41
1
10
61.6446709447331
20
-1.61190452936688
30
0
0
SPLINE
5
AF
100
AcDbEntity
8
1
62
256
6
ByLayer
370
18
48
1
60
0
100
AcDbSpline
70
4
71
3
72
28
73
24
40
0
40
0
40
0
40
0
40
0.060119497472804
40
0.119331372178983
40
0.163096060688191
40
0.197645455903395
40
0.225763120072158
40
0.259154712589389
40
0.302634208024047
40
0.391615522392822
40
0.471870805874442
40
0.545579738914046
40
0.585848779595361
40
0.6217808656786
40
0.653371340485838
40
0.698649176287151
40
0.74516021880984
40
0.783469051197107
40
0.817891563306622
40
0.880677199300342
40
0.949715335119823
40
0.987281157913127
40
1
40
1
40
1
40
1
41
1
10
4.25055939699919
20
-7.36846882071032
30
0
41
1
10
4.56403445980899
20
-7.36929711732694
30
0
41
1
10
5.18625028859495
20
-7.37058028732065
30
0
41
1
10
6.03669350042543
20
-7.37106740638785
30
0
41
1
10
6.75374989846796
20
-7.37118734359882
30
0
41
1
10
7.30873584021663
20
-7.37127951586171
30
0
41
1
10
7.80955896172017
20
-7.37140489112369
30
0
41
1
10
8.35702509395333
20
-7.37138665951704
30
0
41
1
10
9.22173573117416
20
-7.37336643647294
30
0
41
1
10
10.3309606558987
20
-7.37332532549379
30
0
41
1
10
11.5975015122246
20
-7.37535047412012
30
0
41
1
10
12.6102789532177
20
-7.37398009432835
30
0
41
1
10
13.3919512855415
20
-7.37461308664891
30
0
41
1
10
13.9540020671827
20
-7.37540112664783
30
0
41
1
10
14.5421819856564
20
-7.37568615972285
30
0
41
1
10
15.1854512932606
20
-7.37563273013299
30
0
41
1
10
15.8640469400507
20
-7.37639505290895
30
0
41
1
10
16.4846662523099
20
-7.37703896039415
30
0
41
1
10
17.1910639920234
20
-7.37683532529283
30
0
41
1
10
18.0570377267461
20
-7.37758634406785
30
0
41
1
10
18.929923003507
20
-7.37896986708603
30
0
41
1
10
19.5240675387962
20
-7.37117839350938
30
0
41
1
10
19.7848807946639
20
-7.36975769590706
30
0
41
1
10
19.8511192420234
20
-7.36941889236783
30
0
0
SPLINE
5
B0
100
AcDbEntity
8
1
62
256
6
ByLayer
370
18
48
1
60
0
100
AcDbSpline
70
4
71
2
72
6
73
3
40
0
40
0
40
0
40
1
40
1
40
1
41
1
10
80.9610827375428
20
-7.41428891418053
30
0
41
1
10
81.6307795908047
20
-7.41180826967238
30
0
41
1
10
82.3005041845027
20
-7.41724631446024
30
0
0
SPLINE
5
B1
100
AcDbEntity
8
1
62
256
6
ByLayer
370
18
48
1
60
0
100
AcDbSpline
70
4
71
3
72
31
73
27
40
0
40
0
40
0
40
0
40
0.022755098726576
40
0.0621933813652895
40
0.0988774280190856
40
0.133012656728176
40
0.164886422371044
40
0.194709796040803
40
0.227001026717085
40
0.262413480892816
40
0.294696259975938
40
0.330401305562591
40
0.371156958395477
40
0.420528230559961
40
0.467105769227018
40
0.515373340739427
40
0.593593464663542
40
0.652221625532664
40
0.705726406249428
40
0.779268966418893
40
0.857962418970526
40
0.898470790678932
40
0.931880819587567
40
0.955718320349004
40
0.982963690868897
40
1
40
1
40
1
40
1
41
1
10
61.3791403385834
20
7.39427651758248
30
0
41
1
10
61.2409455419742
20
7.39519114860326
30
0
41
1
10
60.8639312688889
20
7.39741665450299
30
0
41
1
10
60.276460775057
20
7.40014138954612
30
0
41
1
10
59.6063329205367
20
7.40073796896408
30
0
41
1
10
58.9784649997845
20
7.40051258606491
30
0
41
1
10
58.389601706192
20
7.39923778572174
30
0
41
1
10
57.8143944598181
20
7.39908289530464
30
0
41
1
10
57.2162282036141
20
7.39934653743157
30
0
41
1
10
56.6026474703317
20
7.39953471727475
30
0
41
1
10
55.9681889092511
20
7.39834103913651
30
0
41
1
10
55.3009294798733
20
7.39770711136271
30
0
41
1
10
54.5288107191446
20
7.39804895446727
30
0
41
1
10
53.6899798219907
20
7.39714743984058
30
0
41
1
10
52.8050653647035
20
7.39640206563075
30
0
41
1
10
51.7431308170156
20
7.39683971589287
30
0
41
1
10
50.6072211089682
20
7.39543649948286
30
0
41
1
10
49.439245935511
20
7.39583422521264
30
0
41
1
10
48.299903731611
20
7.39370078747515
30
0
41
1
10
47.0375545081536
20
7.39457373972081
30
0
41
1
10
45.8547265928899
20
7.39284688020993
30
0
41
1
10
44.918543388412
20
7.39313752371012
30
0
41
1
10
44.318167288026
20
7.39221263327013
30
0
41
1
10
43.8016140224149
20
7.39150361153131
30
0
41
1
10
43.3831599091604
20
7.39153508255569
30
0
41
1
10
43.1118471108813
20
7.39151512671711
30
0
41
1
10
43.0075047856268
20
7.39149470587756
30
0
0
SPLINE
5
B2
100
AcDbEntity
8
1
62
256
6
ByLayer
370
18
48
1
60
0
100
AcDbSpline
70
4
71
3
72
38
73
34
40
0
40
0
40
0
40
0
40
0.0301955221814751
40
0.0593400935199034
40
0.0841976520529028
40
0.106425017670639
40
0.127661364165375
40
0.146810357597983
40
0.164906504801346
40
0.185886477109148
40
0.210807307471501
40
0.241913506292687
40
0.272099104376263
40
0.297218424554559
40
0.34789060890975
40
0.400610866328861
40
0.444352424873476
40
0.497872520427782
40
0.532364001717801
40
0.566612655156684
40
0.606361847756762
40
0.652440414363164
40
0.694762690974353
40
0.731037254802116
40
0.769403205184579
40
0.813373435848337
40
0.855036978111033
40
0.889234130720687
40
0.916707643658296
40
0.944861371018619
40
0.968392347348447
40
0.99665095777556
40
1
40
1
40
1
40
1
41
1
10
39.3230090224064
20
-7.38879180802533
30
0
41
1
10
39.5362792503378
20
-7.38846736538207
30
0
41
1
10
39.9589269715177
20
-7.38807822189838
30
0
41
1
10
40.5725812158541
20
-7.38603166095115
30
0
41
1
10
41.1293667843259
20
-7.38841869648405
30
0
41
1
10
41.6098073000013
20
-7.39064845116425
30
0
41
1
10
42.0553137019993
20
-7.39088713455732
30
0
41
1
10
42.465554653205
20
-7.38945666030611
30
0
41
1
10
42.8892122006073
20
-7.38730647956362
30
0
41
1
10
43.3527220746999
20
-7.39046457153111
30
0
41
1
10
43.8948235702593
20
-7.39199534110034
30
0
41
1
10
44.5292827975128
20
-7.3924779347077
30
0
41
1
10
45.1580103936482
20
-7.39317293679997
30
0
41
1
10
45.9313667405852
20
-7.39291466537068
30
0
41
1
10
46.8684835628338
20
-7.39397703916512
30
0
41
1
10
47.9416697685146
20
-7.39448652955178
30
0
41
1
10
49.0355495924448
20
-7.39447515167728
30
0
41
1
10
49.9965012784066
20
-7.39629735440315
30
0
41
1
10
50.8882100593856
20
-7.39516603690134
30
0
41
1
10
51.6794844732368
20
-7.39659848701749
30
0
41
1
10
52.5552690284676
20
-7.39659974920417
30
0
41
1
10
53.4899365282408
20
-7.3967389799156
30
0
41
1
10
54.399262549544
20
-7.39811947862032
30
0
41
1
10
55.2523370559617
20
-7.3976156656091
30
0
41
1
10
56.1174311240185
20
-7.39864591515013
30
0
41
1
10
57.0218255304001
20
-7.39973934053191
30
0
41
1
10
57.8958232262326
20
-7.39882433347753
30
0
41
1
10
58.6493650368323
20
-7.40012694845311
30
0
41
1
10
59.3045785917354
20
-7.40068460395005
30
0
41
1
10
59.8816975982749
20
-7.40073297320635
30
0
41
1
10
60.4481572451338
20
-7.39912305637719
30
0
41
1
10
60.8525921217912
20
-7.39881969572909
30
0
41
1
10
61.0825314386937
20
-7.39942926744024
30
0
41
1
10
61.1069092578549
20
-7.39949999585562
30
0
0
SPLINE
5
B3
100
AcDbEntity
8
1
62
256
6
ByLayer
370
18
48
1
60
0
100
AcDbSpline
70
4
71
3
72
33
73
29
40
0
40
0
40
0
40
0
40
0.0155986479359577
40
0.0565313653753158
40
0.095010737176861
40
0.131140354065706
40
0.167286948059496
40
0.202324976281903
40
0.238290142984847
40
0.276843265596105
40
0.320917568130838
40
0.356983791047087
40
0.384114956897967
40
0.417933764541236
40
0.453961073394457
40
0.493795855487061
40
0.534684197586844
40
0.577774408567835
40
0.623671154938989
40
0.672425165399016
40
0.71955881724068
40
0.757299171904152
40
0.783478896051679
40
0.810332444038235
40
0.844435392615781
40
0.887286959875607
40
0.944238717607793
40
1
40
1
40
1
40
1
41
1
10
19.83850676375
20
7.36972243858193
30
0
41
1
10
19.7575117074701
20
7.37021544130195
30
0
41
1
10
19.4650231214525
20
7.37199278535451
30
0
41
1
10
18.9914589523457
20
7.37752372483348
30
0
41
1
10
18.399007207693
20
7.37801644638452
30
0
41
1
10
17.8282012849152
20
7.37746386993911
30
0
41
1
10
17.2700550125218
20
7.3769127040041
30
0
41
1
10
16.7111886609175
20
7.37697836230421
30
0
41
1
10
16.1420771560782
20
7.37678780729007
30
0
41
1
10
15.524140994208
20
7.37591661494434
30
0
41
1
10
14.9058015325895
20
7.37564783660196
30
0
41
1
10
14.346920078071
20
7.37563741269636
30
0
41
1
10
13.8414778882583
20
7.37525310109805
30
0
41
1
10
13.3362342466738
20
7.37455337955475
30
0
41
1
10
12.7648101832989
20
7.37412072744536
30
0
41
1
10
12.156539093095
20
7.37465644498292
30
0
41
1
10
11.5115536893577
20
7.37490811383589
30
0
41
1
10
10.8350853250595
20
7.37393468814662
30
0
41
1
10
10.1174488535307
20
7.37357010789552
30
0
41
1
10
9.37876467817284
20
7.37349493501986
30
0
41
1
10
8.68266152298025
20
7.37189712212347
30
0
41
1
10
8.10408347035354
20
7.37139523125373
30
0
41
1
10
7.63116917990948
20
7.3713599238429
30
0
41
1
10
7.17722135485951
20
7.37125773644914
30
0
41
1
10
6.6363797330111
20
7.37116778470821
30
0
41
1
10
5.93877153253462
20
7.37103504136411
30
0
41
1
10
5.12828105995266
20
7.37048206511648
30
0
41
1
10
4.54106535535922
20
7.36925078664711
30
0
41
1
10
4.25055826382706
20
7.36847979035653
30
0
0
SPLINE
5
B4
100
AcDbEntity
8
1
62
256
6
ByLayer
370
18
48
1
60
0
100
AcDbSpline
70
4
71
3
72
26
73
22
40
0
40
0
40
0
40
0
40
0.124999999999994
40
0.124999999999994
40
0.187499999999993
40
0.187499999999993
40
0.249999999999992
40
0.249999999999992
40
0.499999999999994
40
0.499999999999994
40
0.562499999999995
40
0.562499999999995
40
0.624999999999997
40
0.624999999999997
40
0.749999999999998
40
0.749999999999998
40
0.874999999999999
40
0.874999999999999
40
0.937499999999999
40
0.937499999999999
40
1
40
1
40
1
40
1
41
1
10
82.3011858463203
20
-7.41493094653961
30
0
41
1
10
82.1933255267037
20
-7.4148319400052
30
0
41
1
10
82.0906640167724
20
-7.39905544473609
30
0
41
1
10
81.9448530880972
20
-7.35071913002594
30
0
41
1
10
81.8976163865881
20
-7.33048488766761
30
0
41
1
10
81.805987328579
20
-7.28143901898321
30
0
41
1
10
81.7614556076162
20
-7.25249890951994
30
0
41
1
10
81.5488772893816
20
-7.08746449875011
30
0
41
1
10
81.4093199823859
20
-6.89111375865932
30
0
41
1
10
81.2749054825768
20
-6.56126405420616
30
0
41
1
10
81.2500505357796
20
-6.4910179955013
30
0
41
1
10
81.2045599851886
20
-6.3416290218444
30
0
41
1
10
81.1838868035194
20
-6.26221696499704
30
0
41
1
10
81.1293232930341
20
-6.01413375019959
30
0
41
1
10
81.1024992221057
20
-5.83472392257238
30
0
41
1
10
81.0676705166232
20
-5.44827878296951
30
0
41
1
10
81.0596650273959
20
-5.24124472558816
30
0
41
1
10
81.0621827857233
20
-4.90937060086011
30
0
41
1
10
81.0654678739731
20
-4.79484836045827
30
0
41
1
10
81.0769602528626
20
-4.56008455681493
30
0
41
1
10
81.0851347444707
20
-4.44021103951019
30
0
41
1
10
81.0956984595413
20
-4.31788600432552
30
0
0
SPLINE
5
B5
100
AcDbEntity
8
1
62
256
6
ByLayer
370
18
48
1
60
0
100
AcDbSpline
70
4
71
3
72
14
73
10
40
0
40
0
40
0
40
0
40
0.109420089650684
40
0.109420089650684
40
0.723289114843053
40
0.723289114843053
40
0.876756371141146
40
0.876756371141146
40
1
40
1
40
1
40
1
41
1
10
39.3110579479653
20
-7.38895566188566
30
0
41
1
10
39.020449012179
20
-7.38821560315546
30
0
41
1
10
38.7303347376518
20
-7.38214119537142
30
0
41
1
10
36.814939861202
20
-7.30715611342166
30
0
41
1
10
35.1999794530806
20
-7.07726135616772
30
0
41
1
10
33.1627898977197
20
-6.59521146422003
30
0
41
1
10
32.7543681400518
20
-6.48908504487923
30
0
41
1
10
32.0155608576408
20
-6.28061046601673
30
0
41
1
10
31.6853844411789
20
-6.18148278868887
30
0
41
1
10
31.3561335628234
20
-6.07701273659742
30
0
0
SPLINE
5
B6
100
AcDbEntity
8
1
62
256
6
ByLayer
370
13
48
1
60
0
100
AcDbSpline
70
4
71
3
72
24
73
20
40
0
40
0
40
0
40
0
40
0.0137585422135556
40
0.0137585422135556
40
0.153482718299786
40
0.153482718299786
40
0.432931070472244
40
0.432931070472244
40
0.467862114493803
40
0.467862114493803
40
0.502793158515361
40
0.502793158515361
40
0.572655246558474
40
0.572655246558474
40
0.7123794226447
40
0.7123794226447
40
0.991827774817151
40
0.991827774817151
40
1
40
1
40
1
40
1
41
1
10
31.3561335631714
20
-6.07701273670787
30
0
41
1
10
31.2753897877088
20
-6.05139304369308
30
0
41
1
10
31.19470167421
20
-6.02545205967047
30
0
41
1
10
30.2955471230299
20
-5.73263813495987
30
0
41
1
10
29.4819815068863
20
-5.43348326985276
30
0
41
1
10
27.0467543909161
20
-4.45188365341693
30
0
41
1
10
25.430613128626
20
-3.68536002481841
30
0
41
1
10
23.591536683824
20
-2.73924250836055
30
0
41
1
10
23.3868907853183
20
-2.63297186347501
30
0
41
1
10
22.9769314429671
20
-2.41824329903395
30
0
41
1
10
22.771371424705
20
-2.3096546532297
30
0
41
1
10
22.1555183325322
20
-1.98191276582457
30
0
41
1
10
21.7464446519863
20
-1.76100861505509
30
0
41
1
10
20.5222835169265
20
-1.09368639832789
30
0
41
1
10
19.7103553959644
20
-0.642473169661343
30
0
41
1
10
17.2774387759658
20
0.712463279423588
30
0
41
1
10
15.6594938035039
20
1.61779818065907
30
0
41
1
10
13.9715992142839
20
2.50276601217891
30
0
41
1
10
13.9236079083708
20
2.52787805409253
30
0
41
1
10
13.8755947094825
20
2.552950317186
30
0
0
SPLINE
5
B7
100
AcDbEntity
8
1
62
256
6
ByLayer
370
18
48
1
60
0
100
AcDbSpline
70
4
71
3
72
30
73
26
40
0
40
0
40
0
40
0
40
0.0625000000000033
40
0.0625000000000033
40
0.125000000000007
40
0.125000000000007
40
0.18750000000001
40
0.18750000000001
40
0.218750000000012
40
0.218750000000012
40
0.250000000000015
40
0.250000000000015
40
0.375000000000019
40
0.375000000000019
40
0.437500000000021
40
0.437500000000021
40
0.468750000000021
40
0.468750000000021
40
0.500000000000021
40
0.500000000000021
40
0.75000000000001
40
0.75000000000001
40
0.875000000000005
40
0.875000000000005
40
1
40
1
40
1
40
1
41
1
10
74.2458886971377
20
3.89788170985255
30
0
41
1
10
74.2526806073009
20
3.69583752340472
30
0
41
1
10
74.2760637053372
20
3.48922656798936
30
0
41
1
10
74.3550791719772
20
3.06712795892705
30
0
41
1
10
74.4114431181251
20
2.84996791755634
30
0
41
1
10
74.5507202734735
20
2.42186756617116
30
0
41
1
10
74.6336775337376
20
2.20948677752762
30
0
41
1
10
74.775559773292
20
1.89310235058275
30
0
41
1
10
74.8257720617465
20
1.78800664832181
30
0
41
1
10
74.9317224682989
20
1.57850786098516
30
0
41
1
10
74.9876497623588
20
1.47377906600792
30
0
41
1
10
75.2776579086359
20
0.956698162261119
30
0
41
1
10
75.5420229568387
20
0.563349980540977
30
0
41
1
10
75.9739851157818
20
-0.0044369839148146
30
0
41
1
10
76.123998079683
20
-0.189916102291221
30
0
41
1
10
76.3570787043453
20
-0.463073509579772
30
0
41
1
10
76.4362176280135
20
-0.553385751780183
30
0
41
1
10
76.5958754215541
20
-0.731126393474113
30
0
41
1
10
76.6765208076674
20
-0.818708873296686
30
0
41
1
10
77.4091187417822
20
-1.59624224120188
30
0
41
1
10
78.1070828830888
20
-2.21361947236559
30
0
41
1
10
79.2029671423259
20
-3.06249579363964
30
0
41
1
10
79.576891021778
20
-3.33280557140085
30
0
41
1
10
80.3305412828431
20
-3.84474765400233
30
0
41
1
10
80.7113553540694
20
-4.0872671508848
30
0
41
1
10
81.0956984595413
20
-4.31788600432549
30
0
0
SPLINE
5
B8
100
AcDbEntity
8
1
62
256
6
ByLayer
370
18
48
1
60
0
100
AcDbSpline
70
4
71
3
72
8
73
4
40
0
40
0
40
0
40
0
40
1
40
1
40
1
40
1
41
1
10
82.3917410377724
20
-7.37143861801945
30
0
41
1
10
82.3564321642751
20
-7.40038534726901
30
0
41
1
10
82.3262185200806
20
-7.41496338757108
30
0
41
1
10
82.3011858463203
20
-7.41493094653964
30
0
0
SPLINE
5
B9
100
AcDbEntity
8
1
62
256
6
ByLayer
370
18
48
1
60
0
100
AcDbSpline
70
4
71
3
72
22
73
18
40
0
40
0
40
0
40
0
40
0.125
40
0.125
40
0.25
40
0.25
40
0.5
40
0.5
40
0.625
40
0.625
40
0.6875
40
0.6875
40
0.75
40
0.75
40
0.875
40
0.875
40
1
40
1
40
1
40
1
41
1
10
13.4069362447627
20
-6.68529433520806
30
0
41
1
10
13.0029834281391
20
-6.59027739624912
30
0
41
1
10
12.6017460749569
20
-6.48496408952337
30
0
41
1
10
11.8053704867429
20
-6.25360523984264
30
0
41
1
10
11.4099570096695
20
-6.12696524364193
30
0
41
1
10
10.2301325596697
20
-5.71509123791728
30
0
41
1
10
9.45173305639435
20
-5.39970502004911
30
0
41
1
10
8.29401826702818
20
-4.85648461331093
30
0
41
1
10
7.9097300781491
20
-4.66475853963814
30
0
41
1
10
7.33626745401165
20
-4.35775331078227
30
0
41
1
10
7.1456136084139
20
-4.252177764908
30
0
41
1
10
6.7654869005147
20
-4.03381884335414
30
0
41
1
10
6.57633278226032
20
-3.92120837975818
30
0
41
1
10
6.01486427460767
20
-3.57358876010017
30
0
41
1
10
5.64738153590758
20
-3.32839191866032
30
0
41
1
10
4.93188557477313
20
-2.80192384358088
30
0
41
1
10
4.58365028261386
20
-2.52100560766644
30
0
41
1
10
4.25118593166187
20
-2.21264674529974
30
0
0
SPLINE
5
BA
100
AcDbEntity
8
1
62
256
6
ByLayer
370
13
48
1
60
0
100
AcDbSpline
70
4
71
3
72
34
73
30
40
0
40
0
40
0
40
0
40
0.0475277959746519
40
0.0475277959746519
40
0.0908219870667133
40
0.0908219870667133
40
0.134116178158775
40
0.134116178158775
40
0.30729294252702
40
0.30729294252702
40
0.393881324711143
40
0.393881324711143
40
0.437175515803204
40
0.437175515803204
40
0.480469706895266
40
0.480469706895266
40
0.65364647126351
40
0.65364647126351
40
0.696940662355572
40
0.696940662355572
40
0.740234853447633
40
0.740234853447633
40
0.826823235631755
40
0.826823235631755
40
0.913411617815878
40
0.913411617815878
40
0.956705808907939
40
0.956705808907939
40
1
40
1
40
1
40
1
41
1
10
4.25061253118284
20
-7.36862120580449
30
0
41
1
10
4.25062359715591
20
-7.368877602136
30
0
41
1
10
4.25063447883252
20
-7.36469994842111
30
0
41
1
10
4.25065505481962
20
-7.3481233968426
30
0
41
1
10
4.2506647976895
20
-7.33642441363705
30
0
41
1
10
4.25068400190219
20
-7.30568307486934
30
0
41
1
10
4.25069346857299
20
-7.28666620035872
30
0
41
1
10
4.25074036573062
20
-7.17371442804694
30
0
41
1
10
4.25077660285831
20
-7.0268130563698
30
0
41
1
10
4.25083214009007
20
-6.72079292025921
30
0
41
1
10
4.25085085932733
20
-6.60403867191707
30
0
41
1
10
4.25087888927527
20
-6.40983733843467
30
0
41
1
10
4.250888242332
20
-6.34182352846042
30
0
41
1
10
4.25090697569266
20
-6.19920921343586
30
0
41
1
10
4.25091635369631
20
-6.12460800316566
30
0
41
1
10
4.25096288562423
20
-5.73852684502262
30
0
41
1
10
4.25099943541318
20
-5.38584938895312
30
0
41
1
10
4.25104273727831
20
-4.89101081906205
30
0
41
1
10
4.25105126965036
20
-4.78931309889509
30
0
41
1
10
4.25106800273909
20
-4.58035250143405
30
0
41
1
10
4.25107621870228
20
-4.47285065837002
30
0
41
1
10
4.25109994978357
20
-4.14578364831692
30
0
41
1
10
4.25111464504238
20
-3.9206201163623
30
0
41
1
10
4.25114110059636
20
-3.45644744939625
30
0
41
1
10
4.25115286221956
20
-3.21743748587758
30
0
41
1
10
4.2511676345643
20
-2.84845260627728
30
0
41
1
10
4.25117207858017
20
-2.72370882234986
30
0
41
1
10
4.25117987043714
20
-2.47066134684596
30
0
41
1
10
4.25118322398092
20
-2.34202250443659
30
0
41
1
10
4.25118593166206
20
-2.21264674529937
30
0
0
SPLINE
5
BB
100
AcDbEntity
8
1
62
256
6
ByLayer
370
18
48
1
60
0
100
AcDbSpline
70
4
71
3
72
8
73
4
40
0
40
0
40
0
40
0
40
1
40
1
40
1
40
1
41
1
10
82.2810936219082
20
-7.69839372993306
30
0
41
1
10
82.310947371834
20
-7.61850747304311
30
0
41
1
10
82.3407734279203
20
-7.53855457703631
30
0
41
1
10
82.3705717574538
20
-7.45853496319558
30
0
0
SPLINE
5
BC
100
AcDbEntity
8
1
62
256
6
ByLayer
370
18
48
1
60
0
100
AcDbSpline
70
4
71
3
72
20
73
16
40
0
40
0
40
0
40
0
40
0.0401404693574194
40
0.0401404693574194
40
0.149813533653429
40
0.149813533653429
40
0.259486597949438
40
0.259486597949438
40
0.698178855133474
40
0.698178855133474
40
0.917524983725492
40
0.917524983725492
40
0.972361515873497
40
0.972361515873497
40
1
40
1
40
1
40
1
41
1
10
59.9773600542566
20
-0.0137364412705665
30
0
41
1
10
60.1269355964407
20
-0.0984787439063268
30
0
41
1
10
60.2766724434542
20
-0.183321975961434
30
0
41
1
10
60.8361981816971
20
-0.500231478639392
30
0
41
1
10
61.2477635781441
20
-0.73273497079046
30
0
41
1
10
62.065762304797
20
-1.19232664951753
30
0
41
1
10
62.4732508826128
20
-1.41998199935171
30
0
41
1
10
64.505548007158
20
-2.54361429265865
30
0
41
1
10
66.1144024504117
20
-3.39643607544932
30
0
41
1
10
68.541752386757
20
-4.54207302936908
30
0
41
1
10
69.3530258368951
20
-4.90202931227574
30
0
41
1
10
70.3741225642802
20
-5.31749320447912
30
0
41
1
10
70.5787004440777
20
-5.39885682957274
30
0
41
1
10
70.8870075780656
20
-5.51850294351678
30
0
41
1
10
70.9904800627517
20
-5.55815779601505
30
0
41
1
10
71.0939470307364
20
-5.59730263670991
30
0
0
SPLINE
5
BD
100
AcDbEntity
8
1
62
256
6
ByLayer
370
13
48
1
60
0
100
AcDbSpline
70
4
71
3
72
20
73
16
40
0
40
0
40
0
40
0
40
0.0268157723313837
40
0.0268157723313837
40
0.134947353183452
40
0.134947353183452
40
0.567473676591729
40
0.567473676591729
40
0.78373683829587
40
0.78373683829587
40
0.891868419147938
40
0.891868419147938
40
0.945934209573969
40
0.945934209573969
40
1
40
1
40
1
40
1
41
1
10
71.0939470313189
20
-5.59730263693032
30
0
41
1
10
71.195765189856
20
-5.63582368063362
30
0
41
1
10
71.2975780061146
20
-5.67385083771941
30
0
41
1
10
71.8091446515783
20
-5.86239783425208
30
0
41
1
10
72.2174296474599
20
-6.00470216917608
30
0
41
1
10
74.2530039226704
20
-6.67060994581658
30
0
41
1
10
75.8624946981086
20
-7.05782149728796
30
0
41
1
10
78.2870249432026
20
-7.39580823182072
30
0
41
1
10
79.0970517519118
20
-7.46808522993251
30
0
41
1
10
80.319619502574
20
-7.51293255965348
30
0
41
1
10
80.7284180225377
20
-7.51727888994148
30
0
41
1
10
81.3441190102033
20
-7.50746243386908
30
0
41
1
10
81.5495311662426
20
-7.50146835228767
30
0
41
1
10
81.9600717616225
20
-7.48405675013299
30
0
41
1
10
82.1653174263716
20
-7.47235933916278
30
0
41
1
10
82.3705717574395
20
-7.45853496318949
30
0
0
SPLINE
5
BE
100
AcDbEntity
8
1
62
256
6
ByLayer
370
18
48
1
60
0
100
AcDbSpline
70
4
71
3
72
12
73
8
40
0
40
0
40
0
40
0
40
0.249999999999985
40
0.249999999999985
40
0.499999999999969
40
0.499999999999969
40
1
40
1
40
1
40
1
41
1
10
82.3705717574548
20
-7.45853496318844
30
0
41
1
10
82.3754877699189
20
-7.4453336386452
30
0
41
1
10
82.3802120888318
20
-7.43184341245791
30
0
41
1
10
82.3880140119927
20
-7.40754621035705
30
0
41
1
10
82.3910746966922
20
-7.39675715471665
30
0
41
1
10
82.3965512424987
20
-7.37288804149637
30
0
41
1
10
82.3954292726502
20
-7.36841494929698
30
0
41
1
10
82.3917410377724
20
-7.37143861801943
30
0
0
SPLINE
5
BF
100
AcDbEntity
8
1
62
256
6
ByLayer
370
13
48
1
60
0
100
AcDbSpline
70
4
71
3
72
16
73
12
40
0
40
0
40
0
40
0
40
0.346576987605291
40
0.346576987605291
40
0.47986841862672
40
0.47986841862672
40
0.61315984964815
40
0.61315984964815
40
0.879742711691008
40
0.879742711691008
40
1
40
1
40
1
40
1
41
1
10
4.25033766683319
20
6.74822633693043
30
0
41
1
10
4.25037704576812
20
6.88931053710417
30
0
41
1
10
4.2504129844186
20
7.00683946027883
30
0
41
1
10
4.25045945525173
20
7.13714547868136
30
0
41
1
10
4.25047203118103
20
7.16987733048185
30
0
41
1
10
4.25049634299413
20
7.22765453036351
30
0
41
1
10
4.2505081080775
20
7.25279161338426
30
0
41
1
10
4.25054243620122
20
7.3171569404401
30
0
41
1
10
4.25056403640937
20
7.34537155711013
30
0
41
1
10
4.25059421762612
20
7.36520486633182
30
0
41
1
10
4.25060343664603
20
7.36841048792041
30
0
41
1
10
4.25061253118602
20
7.36862120587591
30
0
0
SPLINE
5
C0
100
AcDbEntity
8
1
62
256
6
ByLayer
370
18
48
1
60
0
100
AcDbSpline
70
4
71
3
72
71
73
67
40
0
40
0
40
0
40
0
40
0.125000000000004
40
0.125000000000004
40
0.187500000000006
40
0.187500000000006
40
0.250000000000008
40
0.250000000000008
40
0.375000000000013
40
0.375000000000013
40
0.500000000000017
40
0.500000000000017
40
0.531250000000019
40
0.531250000000019
40
0.56250000000002
40
0.56250000000002
40
0.625000000000023
40
0.625000000000023
40
0.687500000000027
40
0.687500000000027
40
0.703125000000027
40
0.703125000000027
40
0.710937500000027
40
0.710937500000027
40
0.714843750000028
40
0.714843750000028
40
0.716796875000028
40
0.716796875000028
40
0.718750000000028
40
0.718750000000028
40
0.722656250000028
40
0.722656250000028
40
0.724609375000028
40
0.724609375000028
40
0.726562500000028
40
0.734375000000027
40
0.734375000000027
40
0.750000000000026
40
0.750000000000026
40
0.781250000000022
40
0.781250000000022
40
0.796875000000021
40
0.796875000000021
40
0.812500000000019
40
0.812500000000019
40
0.828125000000018
40
0.828125000000018
40
0.843750000000016
40
0.843750000000016
40
0.859375000000015
40
0.859375000000015
40
0.875000000000014
40
0.875000000000014
40
0.882812500000013
40
0.882812500000013
40
0.890625000000012
40
0.890625000000012
40
0.90625000000001
40
0.90625000000001
40
0.921875000000008
40
0.921875000000008
40
0.937500000000007
40
0.937500000000007
40
0.968750000000003
40
0.968750000000003
40
1
40
1
40
1
40
1
41
1
10
21.0915089991497
20
-2.20247303970544
30
0
41
1
10
20.1620699047988
20
-1.68128018132626
30
0
41
1
10
19.223109619018
20
-1.16540656820047
30
0
41
1
10
17.7906471893254
20
-0.420850799049106
30
0
41
1
10
17.3102667140358
20
-0.178300872804527
30
0
41
1
10
16.3460501046769
20
0.289366249102301
30
0
41
1
10
15.8616023980863
20
0.514787568486298
30
0
41
1
10
14.3987775550885
20
1.15998648432026
30
0
41
1
10
13.4107930011421
20
1.54832060192339
30
0
41
1
10
11.3982486412622
20
2.21718598944361
30
0
41
1
10
10.3737076410137
20
2.49782800186267
30
0
41
1
10
9.06558819643016
20
2.77271415815028
30
0
41
1
10
8.80259922790373
20
2.82391311421796
30
0
41
1
10
8.27379666192132
20
2.91858334234357
30
0
41
1
10
8.00768634464112
20
2.96209555208026
30
0
41
1
10
7.20778357157673
20
3.0803793268673
30
0
41
1
10
6.67227338691472
20
3.14299175936662
30
0
41
1
10
5.59653348501539
20
3.23521429646578
30
0
41
1
10
5.05745945551195
20
3.26473738099469
30
0
41
1
10
4.3826884199932
20
3.2802542355592
30
0
41
1
10
4.24767755721172
20
3.28228575754915
30
0
41
1
10
4.04507496732793
20
3.28370252452896
30
0
41
1
10
3.97752377604451
20
3.28390287912234
30
0
41
1
10
3.87623190785436
20
3.28379262604389
30
0
41
1
10
3.84247145979873
20
3.28368743160001
30
0
41
1
10
3.79183606634956
20
3.28342664461715
30
0
41
1
10
3.77495556212972
20
3.28337955587082
30
0
41
1
10
3.74130785375138
20
3.28107449171097
30
0
41
1
10
3.72452731290088
20
3.27907677859122
30
0
41
1
10
3.67434757063549
20
3.26992126013297
30
0
41
1
10
3.64078754198434
20
3.25955961085481
30
0
41
1
10
3.59901743602131
20
3.23463382473651
30
0
41
1
10
3.58554855728968
20
3.22570801897666
30
0
41
1
10
3.55829554951643
20
3.20826461007644
30
0
41
1
10
3.49034656431712
20
3.16437241621304
30
0
41
1
10
3.42333188203258
20
3.11903376672422
30
0
41
1
10
3.26444915846543
20
3.0071764236657
30
0
41
1
10
3.16188455629822
20
2.92908778022488
30
0
41
1
10
2.86622259753625
20
2.68277677549506
30
0
41
1
10
2.68464279175342
20
2.50277692405106
30
0
41
1
10
2.44633685790947
20
2.1972636917539
30
0
41
1
10
2.37229494528205
20
2.08858406098045
30
0
41
1
10
2.24282618738727
20
1.86319657031945
30
0
41
1
10
2.18687551427325
20
1.74599932652018
30
0
41
1
10
2.095028336811
20
1.50120716729228
30
0
41
1
10
2.05914411702349
20
1.37255830075037
30
0
41
1
10
2.01202924392939
20
1.11411751398452
30
0
41
1
10
2.00024897156069
20
0.983335869443181
30
0
41
1
10
1.99978785316858
20
0.718645852163661
30
0
41
1
10
2.01141853641337
20
0.583946776949148
30
0
41
1
10
2.05525131248527
20
0.321107691013083
30
0
41
1
10
2.08731416187209
20
0.191820598377404
30
0
41
1
10
2.1484221539518
20
0.0006141684591512
30
0
41
1
10
2.17105293232527
20
-0.0628658482580988
30
0
41
1
10
2.21980146428297
20
-0.187584393391035
30
0
41
1
10
2.24593036639789
20
-0.248910981336138
30
0
41
1
10
2.32898088895018
20
-0.430141472658448
30
0
41
1
10
2.390540707615
20
-0.547310996890189
30
0
41
1
10
2.52366448430578
20
-0.775732717532065
30
0
41
1
10
2.5952399830476
20
-0.886978216084941
30
0
41
1
10
2.74674034851569
20
-1.10451361458968
30
0
41
1
10
2.82680735034819
20
-1.21092162372548
30
0
41
1
10
3.07415232726115
20
-1.51963762461071
30
0
41
1
10
3.24953649768253
20
-1.71322328437489
30
0
41
1
10
3.6147499805063
20
-2.08322599952945
30
0
41
1
10
3.80465262603258
20
-2.25956121435479
30
0
41
1
10
3.99999983496727
20
-2.42928836133115
30
0
0
SPLINE
5
C1
100
AcDbEntity
8
1
62
256
6
ByLayer
370
18
48
1
60
0
100
AcDbSpline
70
4
71
3
72
22
73
18
40
0
40
0
40
0
40
0
40
0.125000000000003
40
0.125000000000003
40
0.250000000000006
40
0.250000000000006
40
0.500000000000004
40
0.500000000000004
40
0.625000000000003
40
0.625000000000003
40
0.750000000000002
40
0.750000000000002
40
0.875000000000002
40
0.875000000000002
40
0.937500000000001
40
0.937500000000001
40
1
40
1
40
1
40
1
41
1
10
83.8386892674567
20
3.74131767483297
30
0
41
1
10
83.7784050223439
20
3.90272803803379
30
0
41
1
10
83.7180760289903
20
4.06404006470154
30
0
41
1
10
83.5973074254989
20
4.38635052701278
30
0
41
1
10
83.5368563259059
20
4.54729955965954
30
0
41
1
10
83.3554541951007
20
5.02997557640197
30
0
41
1
10
83.2344943911625
20
5.35170900059131
30
0
41
1
10
83.0528472789087
20
5.83341608007745
30
0
41
1
10
82.9922656298121
20
5.99382298900463
30
0
41
1
10
82.8709670639385
20
6.31396437084149
30
0
41
1
10
82.8102816680967
20
6.47386507138077
30
0
41
1
10
82.6889012113532
20
6.79356037209084
30
0
41
1
10
82.6281852057114
20
6.95331767198942
30
0
41
1
10
82.5370582968549
20
7.19218133683628
30
0
41
1
10
82.5066724837777
20
7.27166138867312
30
0
41
1
10
82.4458636923287
20
7.43010594514251
30
0
41
1
10
82.4154377692034
20
7.50902960093021
30
0
41
1
10
82.3850102165983
20
7.58793065300219
30
0
0
SPLINE
5
C2
100
AcDbEntity
8
1
62
256
6
ByLayer
370
18
48
1
60
0
100
AcDbSpline
70
4
71
3
72
10
73
6
40
0
40
0
40
0
40
0
40
0.798648834691596
40
0.798648834691596
40
1
40
1
40
1
40
1
41
1
10
82.281093621908
20
7.69839372993309
30
0
41
1
10
81.8725162643434
20
7.72571615233778
30
0
41
1
10
81.4639519244279
20
7.741994196875
30
0
41
1
10
80.9519082849528
20
7.74850624153635
30
0
41
1
10
80.8488296186057
20
7.74911068201456
30
0
41
1
10
80.7457956819106
20
7.74901191770783
30
0
0
SPLINE
5
C3
100
AcDbEntity
8
1
62
256
6
ByLayer
370
18
48
1
60
0
100
AcDbSpline
70
4
71
3
72
47
73
43
40
0
40
0
40
0
40
0
40
0.02570876457081
40
0.02570876457081
40
0.0571375141007846
40
0.0571375141007846
40
0.119995013160733
40
0.119995013160733
40
0.151423762690707
40
0.151423762690707
40
0.167138137455694
40
0.167138137455694
40
0.182852512220681
40
0.245710011280629
40
0.245710011280629
40
0.371425009400525
40
0.371425009400525
40
0.4028537589305
40
0.4028537589305
40
0.434282508460474
40
0.434282508460474
40
0.497140007520422
40
0.497140007520422
40
0.528568757050396
40
0.528568757050396
40
0.55999750658037
40
0.55999750658037
40
0.622855005640318
40
0.622855005640318
40
0.685712504700265
40
0.685712504700265
40
0.717141254230239
40
0.717141254230239
40
0.748570003760213
40
0.748570003760213
40
0.81142750282016
40
0.81142750282016
40
0.842856252350134
40
0.842856252350134
40
0.874285001880107
40
0.874285001880107
40
1
40
1
40
1
40
1
41
1
10
42.9865501333188
20
-7.40481540105458
30
0
41
1
10
42.6527894312389
20
-7.46021986672616
30
0
41
1
10
42.3189253503012
20
-7.50857613400032
30
0
41
1
10
41.5761569192853
20
-7.60010316452488
30
0
41
1
10
41.1665926508012
20
-7.63976416797087
30
0
41
1
10
39.9398845731844
20
-7.72555802273311
30
0
41
1
10
39.1245596757754
20
-7.73868680307041
30
0
41
1
10
37.9001216210502
20
-7.69242894593671
30
0
41
1
10
37.4917224240249
20
-7.66601665160201
30
0
41
1
10
36.8780823388322
20
-7.60992304812422
30
0
41
1
10
36.6732435159827
20
-7.58846129255582
30
0
41
1
10
36.2646375211844
20
-7.54024994893075
30
0
41
1
10
35.2449375979077
20
-7.40643805867339
30
0
41
1
10
34.2329162559564
20
-7.20741831515284
30
0
41
1
10
31.8084336641809
20
-6.61348136924906
30
0
41
1
10
30.198088471182
20
-6.06231169954785
30
0
41
1
10
28.1582067675565
20
-5.20912325958528
30
0
41
1
10
27.7482135492094
20
-5.02997953781016
30
0
41
1
10
26.9305169752982
20
-4.65870710925859
30
0
41
1
10
26.522279167692
20
-4.46638309811786
30
0
41
1
10
25.2978213392585
20
-3.87165146963881
30
0
41
1
10
24.4821755756838
20
-3.45102486196177
30
0
41
1
10
23.2540902100087
20
-2.79211057978358
30
0
41
1
10
22.8452779193767
20
-2.56845912824826
30
0
41
1
10
22.031069582155
20
-2.11628715562631
30
0
41
1
10
21.6251653738975
20
-1.88753957718922
30
0
41
1
10
20.4096114410194
20
-1.19582825215801
30
0
41
1
10
19.6022329887464
20
-0.727201470573476
30
0
41
1
10
17.9866662825649
20
0.213155605519432
30
0
41
1
10
17.178523537734
20
0.684965750146233
30
0
41
1
10
15.960582748827
20
1.38606266399012
30
0
41
1
10
15.5536393698141
20
1.6186431403913
30
0
41
1
10
14.737000147346
20
2.08012443531103
30
0
41
1
10
14.3268917413661
20
2.30922142101002
30
0
41
1
10
13.1003045975619
20
2.98335188171097
30
0
41
1
10
12.2847385394666
20
3.41700292868046
30
0
41
1
10
11.059316421597
20
4.0355825181723
30
0
41
1
10
10.6505182799034
20
4.2364914505028
30
0
41
1
10
9.83135517041859
20
4.62631170345458
30
0
41
1
10
9.42262600410538
20
4.81441020815944
30
0
41
1
10
7.38285014570178
20
5.71724618594121
30
0
41
1
10
5.7619051080892
20
6.32078006942203
30
0
41
1
10
4.1242358035372
20
6.77379653201805
30
0
0
SPLINE
5
C4
100
AcDbEntity
8
1
62
256
6
ByLayer
370
18
48
1
60
0
100
AcDbSpline
70
4
71
3
72
28
73
24
40
0
40
0
40
0
40
0
40
0.250000000000017
40
0.250000000000017
40
0.375000000000025
40
0.375000000000025
40
0.500000000000034
40
0.500000000000034
40
0.625000000000043
40
0.625000000000043
40
0.687500000000036
40
0.687500000000036
40
0.750000000000029
40
0.750000000000029
40
0.812500000000022
40
0.812500000000022
40
0.875000000000015
40
0.875000000000015
40
0.906250000000012
40
0.906250000000012
40
0.937500000000008
40
0.937500000000008
40
1
40
1
40
1
40
1
41
1
10
81.3656556073795
20
2.18743182231458
30
0
41
1
10
81.6283774584772
20
2.2334666539297
30
0
41
1
10
81.8900319372432
20
2.28631923810184
30
0
41
1
10
82.2796931304725
20
2.38423304885512
30
0
41
1
10
82.4090306004856
20
2.42003085032408
30
0
41
1
10
82.6644034756258
20
2.50017181962869
30
0
41
1
10
82.7909431853697
20
2.54462106021862
30
0
41
1
10
83.038204302424
20
2.64620103050351
30
0
41
1
10
83.1585388358727
20
2.70299545051452
30
0
41
1
10
83.3308204536191
20
2.8034074009299
30
0
41
1
10
83.3868585330068
20
2.83945126891089
30
0
41
1
10
83.4950592490568
20
2.91877968646193
30
0
41
1
10
83.5468627040327
20
2.96185869875671
30
0
41
1
10
83.6421751020555
20
3.05579182504218
30
0
41
1
10
83.686391086129
20
3.10749899420881
30
0
41
1
10
83.7611266731525
20
3.21861472012603
30
0
41
1
10
83.7916939530321
20
3.27780051162665
30
0
41
1
10
83.8250459368701
20
3.37329980950014
30
0
41
1
10
83.8340582754295
20
3.40643024558483
30
0
41
1
10
83.8470754414953
20
3.47259112421977
30
0
41
1
10
83.8512035537511
20
3.50589836892198
30
0
41
1
10
83.8568462662994
20
3.6064650230916
30
0
41
1
10
83.8513519539864
20
3.67512268542578
30
0
41
1
10
83.8386892674567
20
3.74131767483297
30
0
0
SPLINE
5
C5
100
AcDbEntity
8
1
62
256
6
ByLayer
370
18
48
1
60
0
100
AcDbSpline
70
4
71
3
72
85
73
81
40
0
40
0
40
0
40
0
40
0.0187738479364202
40
0.0187738479364202
40
0.0564465870226844
40
0.0564465870226844
40
0.0941193261089486
40
0.0941193261089486
40
0.169464804281477
40
0.169464804281477
40
0.207137543367741
40
0.207137543367741
40
0.244810282454005
40
0.244810282454005
40
0.320155760626534
40
0.320155760626534
40
0.357828499712798
40
0.357828499712798
40
0.395501238799063
40
0.395501238799063
40
0.404919423570628
40
0.404919423570628
40
0.409628515956412
40
0.410805789052857
40
0.411100107326969
40
0.411100107326969
40
0.411247266464024
40
0.411247266464024
40
0.41139442560108
40
0.41139442560108
40
0.411983062149303
40
0.411983062149303
40
0.414337608342195
40
0.414337608342195
40
0.423755793113761
40
0.423755793113761
40
0.433173977885328
40
0.433173977885328
40
0.470846716971594
40
0.470846716971594
40
0.546192195144126
40
0.546192195144126
40
0.621537673316658
40
0.621537673316658
40
0.659210412402924
40
0.659210412402924
40
0.678046781946057
40
0.678046781946057
40
0.687464966717624
40
0.687464966717624
40
0.692174059103407
40
0.692174059103407
40
0.694528605296299
40
0.694528605296299
40
0.695705878392744
40
0.695705878392744
40
0.696000196666856
40
0.696000196666856
40
0.696147355803912
40
0.696147355803912
40
0.696294514940967
40
0.696294514940967
40
0.69688315148919
40
0.772228629661735
40
0.772228629661735
40
0.847574107834281
40
0.847574107834281
40
0.866410477377417
40
0.866410477377417
40
0.885246846920553
40
0.885246846920553
40
0.922919586006826
40
0.922919586006826
40
0.960592325093098
40
0.960592325093098
40
0.979428694636234
40
0.979428694636234
40
0.99826506417937
40
0.99826506417937
40
1
40
1
40
1
40
1
41
1
10
19.4185616386417
20
-1.28674771333834
30
0
41
1
10
19.3193575691674
20
-1.23776218472878
30
0
41
1
10
19.2200425035957
20
-1.18994160113533
30
0
41
1
10
18.9209264820696
20
-1.05003579254057
30
0
41
1
10
18.7228616893033
20
-0.963003372000514
30
0
41
1
10
18.3311232816994
20
-0.803972084901091
30
0
41
1
10
18.1370228324915
20
-0.731773476188835
30
0
41
1
10
17.5577613084089
20
-0.538506876581778
30
0
41
1
10
17.1756204280911
20
-0.440809305913888
30
0
41
1
10
16.5992619011648
20
-0.345300123650958
30
0
41
1
10
16.4061452465845
20
-0.321982389790463
30
0
41
1
10
16.023322619915
20
-0.293185863217275
30
0
41
1
10
15.8329418588215
20
-0.287548243416325
30
0
41
1
10
15.2627642731172
20
-0.296090721332149
30
0
41
1
10
14.883874240035
20
-0.335650587658137
30
0
41
1
10
14.3104176572167
20
-0.443666162679762
30
0
41
1
10
14.1180886165996
20
-0.487897147863293
30
0
41
1
10
13.7323334898975
20
-0.592051562001586
30
0
41
1
10
13.5394100845812
20
-0.651808498267656
30
0
41
1
10
13.2976724506594
20
-0.735721973805198
30
0
41
1
10
13.2493161440499
20
-0.752958902086135
30
0
41
1
10
13.1767584258859
20
-0.779488207154088
30
0
41
1
10
13.1465219986094
20
-0.790682203099408
30
0
41
1
10
13.1147694003186
20
-0.802617921100932
30
0
41
1
10
13.1072089138578
20
-0.805470602229803
30
0
41
1
10
13.1049407485001
20
-0.806327056393144
30
0
41
1
10
13.1040552272264
20
-0.806641099703228
30
0
41
1
10
13.1038542367693
20
-0.80789017141862
30
0
41
1
10
13.1042276408545
20
-0.808553778953041
30
0
41
1
10
13.1063055601621
20
-0.811596110084622
30
0
41
1
10
13.1090162334557
20
-0.81371155599777
30
0
41
1
10
13.1221291019912
20
-0.824072054048116
30
0
41
1
10
13.134137147723
20
-0.831523375821035
30
0
41
1
10
13.1937103047328
20
-0.868651039663234
30
0
41
1
10
13.2438389572677
20
-0.896588124708416
30
0
41
1
10
13.3439452101576
20
-0.952494542112788
30
0
41
1
10
13.3943909193787
20
-0.980166303940678
30
0
41
1
10
13.6474409215403
20
-1.11807532093533
30
0
41
1
10
13.8521845334004
20
-1.22711812061277
30
0
41
1
10
14.4675343121877
20
-1.55534548330795
30
0
41
1
10
14.8802866500253
20
-1.77474518811482
30
0
41
1
10
15.7048047530965
20
-2.22144916708925
30
0
41
1
10
16.1177793624988
20
-2.44722487819666
30
0
41
1
10
16.734720655209
20
-2.79412926513498
30
0
41
1
10
16.9400325834413
20
-2.91103656853287
30
0
41
1
10
17.2465038510864
20
-3.09008145067168
30
0
41
1
10
17.3484354910061
20
-3.15033104348149
30
0
41
1
10
17.5001865804752
20
-3.24280283121919
30
0
41
1
10
17.5506107047082
20
-3.27394489452857
30
0
41
1
10
17.6253629242495
20
-3.32207089064519
30
0
41
1
10
17.6501604069991
20
-3.33831520051956
30
0
41
1
10
17.6866433484108
20
-3.36377711360998
30
0
41
1
10
17.6987203792639
20
-3.37240026027709
30
0
41
1
10
17.7160930317572
20
-3.38631483620617
30
0
41
1
10
17.7219054199432
20
-3.39098705565755
30
0
41
1
10
17.7280431444628
20
-3.3980020318474
30
0
41
1
10
17.7292457308362
20
-3.39945458136924
30
0
41
1
10
17.7304290255875
20
-3.40202659440999
30
0
41
1
10
17.7307614435271
20
-3.40303380507603
30
0
41
1
10
17.7299778487009
20
-3.4048208715619
30
0
41
1
10
17.7290980693726
20
-3.40539273806831
30
0
41
1
10
17.7256729662915
20
-3.40888352553955
30
0
41
1
10
17.3722235699156
20
-3.7691174535268
30
0
41
1
10
17.0212165697232
20
-4.12845851613207
30
0
41
1
10
16.3326109469252
20
-4.80760470330722
30
0
41
1
10
15.9910054142055
20
-5.13203354878209
30
0
41
1
10
15.5532007443256
20
-5.50407356388936
30
0
41
1
10
15.4648421452391
20
-5.57694381847639
30
0
41
1
10
15.2881897337273
20
-5.71740950421889
30
0
41
1
10
15.1997839975242
20
-5.78511168364881
30
0
41
1
10
14.9336783663641
20
-5.9800293995574
30
0
41
1
10
14.755099541975
20
-6.09906060954432
30
0
41
1
10
14.3918634163497
20
-6.31189312936831
30
0
41
1
10
14.2071947764129
20
-6.40567470218059
30
0
41
1
10
13.9227002905384
20
-6.52492165870819
30
0
41
1
10
13.8266199295778
20
-6.56110234578705
30
0
41
1
10
13.6314976974855
20
-6.62598149879926
30
0
41
1
10
13.533079584887
20
-6.65444749767747
30
0
41
1
10
13.4253934997147
20
-6.68106683077002
30
0
41
1
10
13.4163074780151
20
-6.68327753724915
30
0
41
1
10
13.4072173830286
20
-6.68545413206223
30
0
0
SPLINE
5
C6
100
AcDbEntity
8
1
62
256
6
ByLayer
370
18
48
1
60
0
100
AcDbSpline
70
4
71
3
72
22
73
18
40
0
40
0
40
0
40
0
40
0.125000000000003
40
0.125000000000003
40
0.250000000000006
40
0.250000000000006
40
0.500000000000004
40
0.500000000000004
40
0.625000000000003
40
0.625000000000003
40
0.750000000000002
40
0.750000000000002
40
0.875000000000001
40
0.875000000000001
40
0.9375
40
0.9375
40
1
40
1
40
1
40
1
41
1
10
83.8386892674567
20
-3.74131767483277
30
0
41
1
10
83.7784050223439
20
-3.90272803803362
30
0
41
1
10
83.7180760289904
20
-4.06404006470137
30
0
41
1
10
83.597307425499
20
-4.38635052701264
30
0
41
1
10
83.5368563259059
20
-4.54729955965939
30
0
41
1
10
83.3554541951007
20
-5.02997557640182
30
0
41
1
10
83.2344943911625
20
-5.3517090005912
30
0
41
1
10
83.0528472789088
20
-5.8334160800774
30
0
41
1
10
82.9922656298121
20
-5.99382298900454
30
0
41
1
10
82.8709670639385
20
-6.3139643708414
30
0
41
1
10
82.8102816680966
20
-6.47386507138071
30
0
41
1
10
82.6889012113531
20
-6.79356037209081
30
0
41
1
10
82.6281852057113
20
-6.95331767198937
30
0
41
1
10
82.5370582968548
20
-7.19218133683626
30
0
41
1
10
82.5066724837777
20
-7.2716613886731
30
0
41
1
10
82.4458636923287
20
-7.43010594514251
30
0
41
1
10
82.4154377692034
20
-7.50902960093023
30
0
41
1
10
82.3850102165983
20
-7.58793065300219
30
0
0
SPLINE
5
C7
100
AcDbEntity
8
1
62
256
6
ByLayer
370
18
48
1
60
0
100
AcDbSpline
70
4
71
3
72
14
73
10
40
0
40
0
40
0
40
0
40
0.25
40
0.25
40
0.5
40
0.5
40
0.75
40
0.75
40
1
40
1
40
1
40
1
41
1
10
4.12423580353718
20
6.77379653201805
30
0
41
1
10
4.10524923162694
20
6.7790486483151
30
0
41
1
10
4.08811351578865
20
6.78533678666665
30
0
41
1
10
4.05743401910297
20
6.79986319494284
30
0
41
1
10
4.04402278612272
20
6.80810567018332
30
0
41
1
10
4.02244272660496
20
6.82558535540065
30
0
41
1
10
4.01398525924841
20
6.83507713514996
30
0
41
1
10
4.0028438982377
20
6.85427259031039
30
0
41
1
10
3.99999983497031
20
6.86402938265167
30
0
41
1
10
3.99999983497031
20
6.87394368381033
30
0
0
SPLINE
5
C8
100
AcDbEntity
8
1
62
256
6
ByLayer
370
18
48
1
60
0
100
AcDbSpline
70
4
71
3
72
102
73
98
40
0
40
0
40
0
40
0
40
0.0075240561726546
40
0.0075240561726546
40
0.0265235482627203
40
0.0265235482627203
40
0.0645225324428518
40
0.0645225324428518
40
0.0835220245329176
40
0.0835220245329176
40
0.102521516622983
40
0.102521516622983
40
0.121521008713049
40
0.121521008713049
40
0.140520500803115
40
0.140520500803115
40
0.159519992893181
40
0.159519992893181
40
0.178519484983246
40
0.178519484983246
40
0.197518977073312
40
0.197518977073312
40
0.216518469163378
40
0.216518469163378
40
0.235517961253443
40
0.235517961253443
40
0.254517453343509
40
0.254517453343509
40
0.273516945433575
40
0.273516945433575
40
0.292516437523641
40
0.292516437523641
40
0.311515929613707
40
0.311515929613707
40
0.330515421703772
40
0.330515421703772
40
0.368514405883903
40
0.368514405883903
40
0.406513390064034
40
0.406513390064034
40
0.4255128821541
40
0.4255128821541
40
0.444512374244166
40
0.444512374244166
40
0.463511866334231
40
0.463511866334231
40
0.482511358424297
40
0.482511358424297
40
0.501510850514363
40
0.501510850514363
40
0.520510342604429
40
0.520510342604429
40
0.558509326784561
40
0.558509326784561
40
0.577508818874627
40
0.577508818874627
40
0.596508310964693
40
0.596508310964693
40
0.61550780305476
40
0.61550780305476
40
0.634507295144826
40
0.634507295144826
40
0.653506787234893
40
0.653506787234893
40
0.672506279324959
40
0.672506279324959
40
0.691505771415026
40
0.691505771415026
40
0.710505263505092
40
0.710505263505092
40
0.729504755595158
40
0.729504755595158
40
0.748504247685225
40
0.748504247685225
40
0.786503231865358
40
0.786503231865358
40
0.805502723955425
40
0.805502723955425
40
0.824502216045492
40
0.824502216045492
40
0.843501708135559
40
0.843501708135559
40
0.862501200225626
40
0.862501200225626
40
0.881500692315693
40
0.881500692315693
40
0.90050018440576
40
0.90050018440576
40
0.919499676495827
40
0.919499676495827
40
0.938499168585894
40
0.938499168585894
40
0.957498660675961
40
0.957498660675961
40
0.976498152766028
40
0.976498152766028
40
1
40
1
40
1
40
1
41
1
10
69.8648981564874
20
-5.72947859457577
30
0
41
1
10
69.7392719672406
20
-5.77370163015868
30
0
41
1
10
69.6136308662645
20
-5.81724455110685
30
0
41
1
10
69.1707088112466
20
-5.96848577952721
30
0
41
1
10
68.8529816693611
20
-6.07249374113926
30
0
41
1
10
67.9002852353265
20
-6.3677414003688
30
0
41
1
10
67.2660654224798
20
-6.54329675671451
30
0
41
1
10
66.3163063364326
20
-6.77051758381128
30
0
41
1
10
65.9997974415318
20
-6.83970135731076
30
0
41
1
10
65.3657855660806
20
-6.96587948425707
30
0
41
1
10
65.048449252045
20
-7.02369014472592
30
0
41
1
10
64.4131207303832
20
-7.12794715719917
30
0
41
1
10
64.0950162607257
20
-7.17429176035805
30
0
41
1
10
63.4607063692619
20
-7.2535551167766
30
0
41
1
10
63.1439081671745
20
-7.2867027087965
30
0
41
1
10
62.5101186738398
20
-7.34128660503578
30
0
41
1
10
62.1932457650762
20
-7.36257392809421
30
0
41
1
10
61.5594938989166
20
-7.39191118530044
30
0
41
1
10
61.2426105116373
20
-7.3996903553649
30
0
41
1
10
60.6088693905333
20
-7.40230737759254
30
0
41
1
10
60.2917024472738
20
-7.39753848473785
30
0
41
1
10
59.6561627125621
20
-7.375969360439
30
0
41
1
10
59.3383245005217
20
-7.3590264306703
30
0
41
1
10
58.7037573524199
20
-7.31156366879489
30
0
41
1
10
58.386854496011
20
-7.28106839589108
30
0
41
1
10
57.7537113986975
20
-7.20854711802855
30
0
41
1
10
57.4371193493769
20
-7.16650594593349
30
0
41
1
10
56.8034369296695
20
-7.07008384923691
30
0
41
1
10
56.4863842789524
20
-7.01545210077273
30
0
41
1
10
55.8517639337294
20
-6.89358995402378
30
0
41
1
10
55.5340279226166
20
-6.82675752323129
30
0
41
1
10
54.8992285795555
20
-6.68161879829592
30
0
41
1
10
54.5825601153441
20
-6.60365977050563
30
0
41
1
10
53.9504464203865
20
-6.43659912600296
30
0
41
1
10
53.6350277638635
20
-6.34738535757572
30
0
41
1
10
52.6903525411491
20
-6.0653711022795
30
0
41
1
10
52.0634570337135
20
-5.85678832771717
30
0
41
1
10
50.8090872033229
20
-5.40110142703054
30
0
41
1
10
50.1821828075419
20
-5.15657796714012
30
0
41
1
10
49.2415999225986
20
-4.76104757628337
30
0
41
1
10
48.9275984108179
20
-4.62479200075154
30
0
41
1
10
48.2986215532343
20
-4.34564423902387
30
0
41
1
10
47.9836741368381
20
-4.20259765605272
30
0
41
1
10
47.3526653657605
20
-3.90834742972578
30
0
41
1
10
47.0367439649534
20
-3.75696972004351
30
0
41
1
10
46.4032820794046
20
-3.44670492316888
30
0
41
1
10
46.0851684671899
20
-3.2883566706019
30
0
41
1
10
45.4499683406519
20
-2.9675640089134
30
0
41
1
10
45.1326731078597
20
-2.80483484339129
30
0
41
1
10
44.4986709963505
20
-2.47435274955279
30
0
41
1
10
44.1821302314008
20
-2.3062655537461
30
0
41
1
10
43.2323801246301
20
-1.79735828795293
30
0
41
1
10
42.5984110901953
20
-1.4525830799353
30
0
41
1
10
41.6454097467457
20
-0.926781989865589
30
0
41
1
10
41.3276331745797
20
-0.74986166013548
30
0
41
1
10
40.6931390778191
20
-0.396074743147807
30
0
41
1
10
40.3760370296533
20
-0.219214953360108
30
0
41
1
10
39.7419900943903
20
0.134134926022796
30
0
41
1
10
39.4250312640117
20
0.310593919758219
30
0
41
1
10
38.7912534069118
20
0.663221048085632
30
0
41
1
10
38.4746614699411
20
0.839787511414016
30
0
41
1
10
37.840688818032
20
1.19088623016933
30
0
41
1
10
37.5232276032415
20
1.36524086635168
30
0
41
1
10
36.8872647337266
20
1.71148366088664
30
0
41
1
10
36.5693221872728
20
1.88321592355271
30
0
41
1
10
35.9346144209169
20
2.22331530161435
30
0
41
1
10
35.617902779889
20
2.39216086000349
30
0
41
1
10
34.9842530429714
20
2.72399455853477
30
0
41
1
10
34.6673094898095
20
2.88710482718429
30
0
41
1
10
34.0331379222155
20
3.20872950381008
30
0
41
1
10
33.7159130215881
20
3.36708450082884
30
0
41
1
10
33.0812285612064
20
3.67849329122191
30
0
41
1
10
32.763683530621
20
3.83161921706682
30
0
41
1
10
31.8101927169064
20
4.27880795473357
30
0
41
1
10
31.1752583502043
20
4.56318569639086
30
0
41
1
10
30.2242514730556
20
4.96418091395967
30
0
41
1
10
29.9075969002125
20
5.09342893813306
30
0
41
1
10
29.2734208126504
20
5.34347436016301
30
0
41
1
10
28.9560166596254
20
5.46416768175146
30
0
41
1
10
28.3204849052846
20
5.69606257738255
30
0
41
1
10
28.0020286368927
20
5.80716999375764
30
0
41
1
10
27.3666112836144
20
6.01846514942668
30
0
41
1
10
27.0495361164669
20
6.11945005708284
30
0
41
1
10
26.4151504930675
20
6.31063434122277
30
0
41
1
10
26.0979778987471
20
6.40096129627281
30
0
41
1
10
25.4635986589571
20
6.56958939130706
30
0
41
1
10
25.1463334658759
20
6.64726444870087
30
0
41
1
10
24.5119057021174
20
6.79309563776377
30
0
41
1
10
24.1947508436012
20
6.86100864369982
30
0
41
1
10
23.5590732500754
20
6.98453924741094
30
0
41
1
10
23.2407341541848
20
7.04016219365997
30
0
41
1
10
22.6055186417226
20
7.13747428411611
30
0
41
1
10
22.2882371449031
20
7.18008092421655
30
0
41
1
10
21.6545578349883
20
7.25383053302002
30
0
41
1
10
21.3380728203983
20
7.28456718782041
30
0
41
1
10
20.6294274263637
20
7.33853036246873
30
0
41
1
10
20.2372765290661
20
7.3589601939014
30
0
41
1
10
19.8448745677624
20
7.36976476608382
30
0
0
SPLINE
5
C9
100
AcDbEntity
8
1
62
256
6
ByLayer
370
18
48
1
60
0
100
AcDbSpline
70
4
71
3
72
34
73
30
40
0
40
0
40
0
40
0
40
0.127926390074987
40
0.127926390074987
40
0.191889585112481
40
0.191889585112481
40
0.255852780149974
40
0.255852780149974
40
0.319815975187468
40
0.319815975187468
40
0.383779170224961
40
0.383779170224961
40
0.511705560299949
40
0.511705560299949
40
0.575668755337443
40
0.575668755337443
40
0.639631950374938
40
0.639631950374938
40
0.703595145412432
40
0.703595145412432
40
0.767558340449927
40
0.767558340449927
40
0.831521535487422
40
0.831521535487422
40
0.895484730524916
40
0.895484730524916
40
0.959447925562411
40
0.959447925562411
40
1
40
1
40
1
40
1
41
1
10
13.4074135677805
20
-6.68540715078913
30
0
41
1
10
14.0433902818349
20
-6.83571495496633
30
0
41
1
10
14.6781365409026
20
-6.96137016444231
30
0
41
1
10
15.6288733145369
20
-7.11453845271856
30
0
41
1
10
15.9455521863876
20
-7.15982793840081
30
0
41
1
10
16.5791736658047
20
-7.23773086043761
30
0
41
1
10
16.8963931836932
20
-7.27012415632146
30
0
41
1
10
17.5314998131017
20
-7.32239914785725
30
0
41
1
10
17.8496630497468
20
-7.34242688154305
30
0
41
1
10
18.4852680509196
20
-7.37019796851854
30
0
41
1
10
18.8023831670844
20
-7.37780693081069
30
0
41
1
10
19.7533321251807
20
-7.3805581597648
30
0
41
1
10
20.3874259267726
20
-7.35696297829
30
0
41
1
10
21.3384510450325
20
-7.28453625511108
30
0
41
1
10
21.6553406755207
20
-7.25375652314369
30
0
41
1
10
22.2901870023768
20
-7.17983682026045
30
0
41
1
10
22.6084777579333
20
-7.13706157587336
30
0
41
1
10
23.2438530922991
20
-7.03964338165599
30
0
41
1
10
23.561115534832
20
-6.98415704916121
30
0
41
1
10
24.1949997921224
20
-6.86094553568384
30
0
41
1
10
24.5114873152896
20
-6.79318265958202
30
0
41
1
10
25.1449852253309
20
-6.64758348289101
30
0
41
1
10
25.4619791424273
20
-6.56999875034296
30
0
41
1
10
26.096348124241
20
-6.40141554252361
30
0
41
1
10
26.4137584463699
20
-6.31104324331511
30
0
41
1
10
27.0490490278663
20
-6.11960743712123
30
0
41
1
10
27.3666609526466
20
-6.01844515128147
30
0
41
1
10
27.8851464440485
20
-5.84603900108914
30
0
41
1
10
28.0862654332309
20
-5.77708060864191
30
0
41
1
10
28.2873237105516
20
-5.70609312749491
30
0
0
SPLINE
5
CA
100
AcDbEntity
8
1
62
256
6
ByLayer
370
18
48
1
60
0
100
AcDbSpline
70
4
71
3
72
30
73
26
40
0
40
0
40
0
40
0
40
0.0399535512746706
40
0.0399535512746706
40
0.113803278099696
40
0.113803278099696
40
0.187653004924722
40
0.187653004924722
40
0.261502731749747
40
0.261502731749747
40
0.335352458574773
40
0.335352458574773
40
0.409202185399798
40
0.409202185399798
40
0.556901639049849
40
0.556901639049849
40
0.630751365874874
40
0.630751365874874
40
0.704601092699899
40
0.704601092699899
40
0.778450819524924
40
0.778450819524924
40
0.852300546349949
40
0.852300546349949
40
1
40
1
40
1
40
1
41
1
10
61.3620845753644
20
7.39506678912869
30
0
41
1
10
61.5334597877429
20
7.39109879948836
30
0
41
1
10
61.7049059808208
20
7.38518025462477
30
0
41
1
10
62.1934517094541
20
7.36256366015746
30
0
41
1
10
62.5107158844179
20
7.34125052538988
30
0
41
1
10
63.1457218386124
20
7.28653109747967
30
0
41
1
10
63.4635137131097
20
7.25324291096914
30
0
41
1
10
64.0978668466194
20
7.17389660553664
30
0
41
1
10
64.4149565481392
20
7.12765993167611
30
0
41
1
10
65.048916729065
20
7.02359934994738
30
0
41
1
10
65.365793298615
20
6.96587510803133
30
0
41
1
10
65.9993003915394
20
6.83980311305521
30
0
41
1
10
66.3157927167476
20
6.77063714351863
30
0
41
1
10
67.2663158560653
20
6.54324347662774
30
0
41
1
10
67.9031499868907
20
6.3669023512534
30
0
41
1
10
68.8548240908389
20
6.07189825579076
30
0
41
1
10
69.1715059273304
20
5.96821607614154
30
0
41
1
10
69.805013728408
20
5.75189201552485
30
0
41
1
10
70.1219562014826
20
5.63959106116482
30
0
41
1
10
70.7559372660855
20
5.40535499242037
30
0
41
1
10
71.0730047736026
20
5.28322326227919
30
0
41
1
10
71.7074397413667
20
5.02862876841266
30
0
41
1
10
72.024908293723
20
4.8959947514094
30
0
41
1
10
72.9778234934993
20
4.48676774535178
30
0
41
1
10
73.6122948706506
20
4.19944850667474
30
0
41
1
10
74.2458886971379
20
3.89788170985244
30
0
0
SPLINE
5
CB
100
AcDbEntity
8
1
62
256
6
ByLayer
370
18
48
1
60
0
100
AcDbSpline
70
4
71
3
72
56
73
52
40
0
40
0
40
0
40
0
40
0.028306146820268
40
0.028306146820268
40
0.056612293640536
40
0.056612293640536
40
0.113224587281072
40
0.113224587281072
40
0.169836880921608
40
0.169836880921608
40
0.226449174562143
40
0.226449174562143
40
0.25475532138241
40
0.25475532138241
40
0.283061468202677
40
0.283061468202677
40
0.339673761843212
40
0.339673761843212
40
0.367979908663479
40
0.367979908663479
40
0.396286055483747
40
0.396286055483747
40
0.424592202304014
40
0.424592202304014
40
0.452898349124281
40
0.452898349124281
40
0.566122936405353
40
0.566122936405353
40
0.622735230045888
40
0.622735230045888
40
0.651041376866156
40
0.651041376866156
40
0.679347523686425
40
0.679347523686425
40
0.735959817326961
40
0.735959817326961
40
0.76426596414723
40
0.76426596414723
40
0.792572110967498
40
0.792572110967498
40
0.849184404608035
40
0.849184404608035
40
0.877490551428304
40
0.877490551428304
40
0.905796698248572
40
0.905796698248572
40
0.934102845068841
40
0.934102845068841
40
0.962408991889109
40
0.962408991889109
40
1
40
1
40
1
40
1
41
1
10
82.2810936219081
20
-7.69839372993309
30
0
41
1
10
81.8727861744989
20
-7.72569810288118
30
0
41
1
10
81.464588157626
20
-7.74196622382857
30
0
41
1
10
80.6476294645671
20
-7.75239581261891
30
0
41
1
10
80.2387174338585
20
-7.74652738232422
30
0
41
1
10
79.0147491933928
20
-7.69594174026764
30
0
41
1
10
78.2008461475224
20
-7.6183174973965
30
0
41
1
10
76.5703506986472
20
-7.37731665815394
30
0
41
1
10
75.752120869277
20
-7.21343660497857
30
0
41
1
10
74.1215224893976
20
-6.80697175651434
30
0
41
1
10
73.3075242905323
20
-6.56428062084825
30
0
41
1
10
72.0832907193096
20
-6.1454029779087
30
0
41
1
10
71.6742309616901
20
-5.9964219512147
30
0
41
1
10
70.8578751710959
20
-5.68248448627003
30
0
41
1
10
70.4502593165184
20
-5.51745826844257
30
0
41
1
10
69.2279206398023
20
-4.99973049208873
30
0
41
1
10
68.413540602953
20
-4.62457909302046
30
0
41
1
10
67.1874153095579
20
-4.02373476990442
30
0
41
1
10
66.7788430105399
20
-3.81752323404336
30
0
41
1
10
65.9631943547661
20
-3.39547037627116
30
0
41
1
10
65.5557969968818
20
-3.17948910982639
30
0
41
1
10
64.7409466914592
20
-2.73904803313093
30
0
41
1
10
64.3334786994993
20
-2.51461137131076
30
0
41
1
10
63.5174747971396
20
-2.05887256549281
30
0
41
1
10
63.1081562211432
20
-1.82711343127099
30
0
41
1
10
61.0682929021391
20
-0.660516497920497
30
0
41
1
10
59.4592409846172
20
0.295226215450299
30
0
41
1
10
57.0388547812788
20
1.69126185124418
30
0
41
1
10
56.2308134825552
20
2.15015491024553
30
0
41
1
10
55.0121005561676
20
2.8205082370857
30
0
41
1
10
54.6046683881214
20
3.04092840406381
30
0
41
1
10
53.7867492333067
20
3.47386108119642
30
0
41
1
10
53.3785669851802
20
3.68521602502364
30
0
41
1
10
52.1551990939232
20
4.30231967463422
30
0
41
1
10
51.3408788199608
20
4.69064405838259
30
0
41
1
10
50.1162707554402
20
5.23141740460912
30
0
41
1
10
49.7070391423105
20
5.40490399425869
30
0
41
1
10
48.8901860915275
20
5.73518662115188
30
0
41
1
10
48.4823548783543
20
5.89211107929361
30
0
41
1
10
47.25938588066
20
6.33695058043247
30
0
41
1
10
46.4447084091947
20
6.59886081149381
30
0
41
1
10
45.2183669112411
20
6.93435215246168
30
0
41
1
10
44.8095218624667
20
7.03640802216708
30
0
41
1
10
43.9934797680464
20
7.21981311829566
30
0
41
1
10
43.5858646336619
20
7.30125554233939
30
0
41
1
10
42.7705990844002
20
7.44318534603426
30
0
41
1
10
42.3629265397859
20
7.50366104183198
30
0
41
1
10
41.5466441965976
20
7.60319433490943
30
0
41
1
10
41.137570032064
20
7.64229116266577
30
0
41
1
10
40.1861551872352
20
7.70763171266663
30
0
41
1
10
39.6445841735157
20
7.72548920001375
30
0
41
1
10
39.1031659082688
20
7.72397792887952
30
0
0
SPLINE
5
CC
100
AcDbEntity
8
1
62
256
6
ByLayer
370
18
48
1
60
0
100
AcDbSpline
70
4
71
3
72
38
73
34
40
0
40
0
40
0
40
0
40
0.250000000000007
40
0.250000000000007
40
0.37500000000001
40
0.37500000000001
40
0.437500000000008
40
0.437500000000008
40
0.500000000000006
40
0.500000000000006
40
0.625000000000003
40
0.625000000000003
40
0.749999999999999
40
0.749999999999999
40
0.781249999999998
40
0.781249999999998
40
0.812499999999997
40
0.812499999999997
40
0.843749999999996
40
0.843749999999996
40
0.874999999999995
40
0.874999999999995
40
0.906249999999994
40
0.906249999999994
40
0.921874999999995
40
0.921874999999995
40
0.937499999999996
40
0.937499999999996
40
0.953124999999997
40
0.953124999999997
40
0.968749999999998
40
0.968749999999998
40
1
40
1
40
1
40
1
41
1
10
74.2458886971377
20
3.89788170985255
30
0
41
1
10
74.859412798264
20
3.38184107550296
30
0
41
1
10
75.4902364718208
20
2.91184778897457
30
0
41
1
10
76.4668888092625
20
2.28782021955058
30
0
41
1
10
76.7974838184821
20
2.09323757063328
30
0
41
1
10
77.301973405948
20
1.82424696281871
30
0
41
1
10
77.471001979402
20
1.73874608985429
30
0
41
1
10
77.8092726098206
20
1.57739111610766
30
0
41
1
10
77.9787532112385
20
1.50140262902431
30
0
41
1
10
78.4882893520681
20
1.28829829992253
30
0
41
1
10
78.8301555858426
20
1.16584559424285
30
0
41
1
10
79.5083422005251
20
0.969760464832632
30
0
41
1
10
79.8465924785809
20
0.895287525557933
30
0
41
1
10
80.2620667119496
20
0.838942138822318
30
0
41
1
10
80.3442854445094
20
0.831837286208327
30
0
41
1
10
80.5056830009032
20
0.827293355330823
30
0
41
1
10
80.5851317073617
20
0.829917771852564
30
0
41
1
10
80.7384927944361
20
0.848405505315952
30
0
41
1
10
80.8128652845962
20
0.864297526873941
30
0
41
1
10
80.9486746732467
20
0.915406369889809
30
0
41
1
10
81.0108696593103
20
0.95016258569666
30
0
41
1
10
81.1217707559388
20
1.04141375630974
30
0
41
1
10
81.1681065522842
20
1.09664060752684
30
0
41
1
10
81.2205084731712
20
1.19564985370639
30
0
41
1
10
81.2351196563786
20
1.23153387522061
30
0
41
1
10
81.2574899062503
20
1.3064019459863
30
0
41
1
10
81.2654387344363
20
1.34566351267065
30
0
41
1
10
81.275120827631
20
1.42769656405361
30
0
41
1
10
81.2768162459303
20
1.47083771402234
30
0
41
1
10
81.2743163694348
20
1.55838333646116
30
0
41
1
10
81.2701798479249
20
1.60275973618241
30
0
41
1
10
81.2509193549253
20
1.73732147384425
30
0
41
1
10
81.229030237148
20
1.82939807073461
30
0
41
1
10
81.2011891593471
20
1.92153936078233
30
0
0
SPLINE
5
CD
100
AcDbEntity
8
1
62
256
6
ByLayer
370
18
48
1
60
0
100
AcDbSpline
70
4
71
3
72
20
73
16
40
0
40
0
40
0
40
0
40
0.124999999999999
40
0.124999999999999
40
0.249999999999997
40
0.249999999999997
40
0.374999999999996
40
0.374999999999996
40
0.499999999999994
40
0.499999999999994
40
0.624999999999993
40
0.624999999999993
40
0.749999999999992
40
0.749999999999992
40
1
40
1
40
1
40
1
41
1
10
4.25118593166204
20
-2.21264674529934
30
0
41
1
10
4.23732501277078
20
-2.1997908190371
30
0
41
1
10
4.22298662950868
20
-2.18798233433665
30
0
41
1
10
4.19299540781952
20
-2.16722317295475
30
0
41
1
10
4.17714202821364
20
-2.15819111393552
30
0
41
1
10
4.1450711180793
20
-2.14529067438656
30
0
41
1
10
4.12844838083456
20
-2.14134237983981
30
0
41
1
10
4.09687135847093
20
-2.14088511634938
30
0
41
1
10
4.08169910188579
20
-2.14446000042281
30
0
41
1
10
4.05558017283806
20
-2.15849146006784
30
0
41
1
10
4.04448013359109
20
-2.16886160788331
30
0
41
1
10
4.02651985854985
20
-2.19360347119684
30
0
41
1
10
4.01972246818087
20
-2.20768913616587
30
0
41
1
10
4.00409104520492
20
-2.25291327127042
30
0
41
1
10
3.99999983497028
20
-2.28679553125988
30
0
41
1
10
3.99999983497028
20
-2.32160307229961
30
0
0
SPLINE
5
CE
100
AcDbEntity
8
1
62
256
6
ByLayer
370
18
48
1
60
0
100
AcDbSpline
70
4
71
3
72
104
73
100
40
0
40
0
40
0
40
0
40
0.0090034580127133
40
0.0090034580127133
40
0.0276441752549305
40
0.0276441752549305
40
0.0462848924971477
40
0.0462848924971477
40
0.0649256097393649
40
0.0649256097393649
40
0.0835663269815821
40
0.0835663269815821
40
0.120847761466017
40
0.120847761466017
40
0.139488478708235
40
0.139488478708235
40
0.158129195950453
40
0.158129195950453
40
0.17676991319267
40
0.17676991319267
40
0.195410630434888
40
0.195410630434888
40
0.214051347677106
40
0.214051347677106
40
0.232692064919324
40
0.232692064919324
40
0.251332782161542
40
0.251332782161542
40
0.269973499403759
40
0.269973499403759
40
0.288614216645977
40
0.288614216645977
40
0.307254933888195
40
0.307254933888195
40
0.344536368372631
40
0.344536368372631
40
0.363177085614849
40
0.363177085614849
40
0.381817802857067
40
0.381817802857067
40
0.400458520099285
40
0.400458520099285
40
0.419099237341503
40
0.419099237341503
40
0.456380671825939
40
0.456380671825939
40
0.475021389068157
40
0.475021389068157
40
0.493662106310375
40
0.493662106310375
40
0.512302823552593
40
0.512302823552593
40
0.530943540794811
40
0.530943540794811
40
0.549584258037029
40
0.549584258037029
40
0.568224975279247
40
0.568224975279247
40
0.605506409763684
40
0.605506409763684
40
0.624147127005902
40
0.624147127005902
40
0.64278784424812
40
0.64278784424812
40
0.661428561490338
40
0.661428561490338
40
0.680069278732556
40
0.680069278732556
40
0.717350713216993
40
0.717350713216993
40
0.726671071838102
40
0.726671071838102
40
0.735991430459212
40
0.735991430459212
40
0.754632147701431
40
0.754632147701431
40
0.77327286494365
40
0.77327286494365
40
0.791913582185868
40
0.791913582185868
40
0.829195016670306
40
0.829195016670306
40
0.847835733912524
40
0.847835733912524
40
0.866476451154743
40
0.866476451154743
40
0.885117168396961
40
0.885117168396961
40
0.90375788563918
40
0.90375788563918
40
0.941039320123616
40
0.941039320123616
40
0.959680037365834
40
0.959680037365834
40
0.978320754608053
40
0.978320754608053
40
0.996961471850271
40
0.996961471850271
40
1
40
1
40
1
40
1
41
1
10
28.2900812915563
20
5.71077751749431
30
0
41
1
10
28.4446425594257
20
5.77121774285067
30
0
41
1
10
28.5993201293142
20
5.83058050765354
30
0
41
1
10
29.0745286968734
20
6.00962244502435
30
0
41
1
10
29.3951005894869
20
6.12609813030326
30
0
41
1
10
30.0384456957157
20
6.34814835069542
30
0
41
1
10
30.3614214076411
20
6.45329149970274
30
0
41
1
10
31.0044666991134
20
6.65108917706846
30
0
41
1
10
31.3252181567602
20
6.74394115221844
30
0
41
1
10
31.9648778236062
20
6.91790728287231
30
0
41
1
10
32.2834380209694
20
6.99925120638733
30
0
41
1
10
33.2390964211415
20
7.22350245598679
30
0
41
1
10
33.8763687642741
20
7.34692923375007
30
0
41
1
10
34.8302205936153
20
7.49480794602147
30
0
41
1
10
35.1475073096791
20
7.53792587322334
30
0
41
1
10
35.7835653900479
20
7.61060222373624
30
0
41
1
10
36.102247879016
20
7.64025800251127
30
0
41
1
10
36.7404279302665
20
7.68642148154342
30
0
41
1
10
37.0599459221376
20
7.70292161633276
30
0
41
1
10
37.6995396619577
20
7.72254391353204
30
0
41
1
10
38.0193207111361
20
7.72562248814285
30
0
41
1
10
38.6618339608493
20
7.71803422453212
30
0
41
1
10
38.9849767131469
20
7.70738642752539
30
0
41
1
10
39.6290636179609
20
7.67260444697445
30
0
41
1
10
39.9501833286487
20
7.64850023576241
30
0
41
1
10
40.5902650963075
20
7.58683167476789
30
0
41
1
10
40.9090356729675
20
7.54914358150123
30
0
41
1
10
41.546995075363
20
7.46130510533234
30
0
41
1
10
41.8658381366669
20
7.41107603252084
30
0
41
1
10
42.5028678622148
20
7.29799991018348
30
0
41
1
10
42.8210654855318
20
7.23515724660993
30
0
41
1
10
43.456497443029
20
7.09654190797212
30
0
41
1
10
43.7736632991763
20
7.02066419368688
30
0
41
1
10
44.7276985873624
20
6.77640096853415
30
0
41
1
10
45.3655035662552
20
6.59056800617819
30
0
41
1
10
46.3229157579937
20
6.27479320964645
30
0
41
1
10
46.642264165142
20
6.16335676726476
30
0
41
1
10
47.2838422091843
20
5.93070491664852
30
0
41
1
10
47.6057677080724
20
5.80906644280327
30
0
41
1
10
48.2510219035093
20
5.55484585002694
30
0
41
1
10
48.5725675402012
20
5.42297852861913
30
0
41
1
10
49.2131625937462
20
5.14929793798916
30
0
41
1
10
49.5325538377291
20
5.00791299173574
30
0
41
1
10
50.4908025025626
20
4.57414710270413
30
0
41
1
10
51.1283725792246
20
4.27044741664551
30
0
41
1
10
52.0809449916403
20
3.79035240811626
30
0
41
1
10
52.3983891661741
20
3.62701992686891
30
0
41
1
10
53.0343820362184
20
3.29579063855442
30
0
41
1
10
53.352662036076
20
3.12748970683126
30
0
41
1
10
53.9894592814313
20
2.78497914252406
30
0
41
1
10
54.3079484534908
20
2.61072227295037
30
0
41
1
10
54.9449869160929
20
2.25584246268986
30
0
41
1
10
55.2642092248638
20
2.07634220698887
30
0
41
1
10
55.9048194376543
20
1.71456042244827
30
0
41
1
10
56.2260079819197
20
1.53194273746831
30
0
41
1
10
56.8698499166702
20
1.16261783957512
30
0
41
1
10
57.1924332580622
20
0.975741204471802
30
0
41
1
10
58.1545626111551
20
0.413645410601674
30
0
41
1
10
58.7944840571981
20
0.0414804669550506
30
0
41
1
10
59.7507965221488
20
-0.515590238196097
30
0
41
1
10
60.0687901600876
20
-0.701393584542444
30
0
41
1
10
60.7038789110918
20
-1.07205163810292
30
0
41
1
10
61.0217113272923
20
-1.25562892685102
30
0
41
1
10
61.6577106380044
20
-1.61974851224707
30
0
41
1
10
61.975836792014
20
-1.80036089819345
30
0
41
1
10
62.6120234988632
20
-2.1592209810297
30
0
41
1
10
62.9298831435175
20
-2.33780295367273
30
0
41
1
10
63.8843983405128
20
-2.86817592904515
30
0
41
1
10
64.5244927015722
20
-3.21048400091513
30
0
41
1
10
65.3273793988808
20
-3.62736874857828
30
0
41
1
10
65.488102105469
20
-3.71018133624574
30
0
41
1
10
65.8097981846402
20
-3.8747298415463
30
0
41
1
10
65.9707675901683
20
-3.95653800048507
30
0
41
1
10
66.4528339353611
20
-4.19811314473955
30
0
41
1
10
66.7738360849248
20
-4.35426706733622
30
0
41
1
10
67.414526535289
20
-4.65797933734649
30
0
41
1
10
67.734243668451
20
-4.80548983280127
30
0
41
1
10
68.3721161087237
20
-5.09229966597584
30
0
41
1
10
68.6899347563742
20
-5.23201344649934
30
0
41
1
10
69.6435273282402
20
-5.63548961903393
30
0
41
1
10
70.2800028050017
20
-5.88320441003415
30
0
41
1
10
71.2334707025454
20
-6.22592475279194
30
0
41
1
10
71.550761034733
20
-6.33561661274612
30
0
41
1
10
72.1869594295926
20
-6.54305499456956
30
0
41
1
10
72.5058654329858
20
-6.64085483525074
30
0
41
1
10
73.1447757718131
20
-6.82514134318112
30
0
41
1
10
73.4648032876815
20
-6.91160488249918
30
0
41
1
10
74.1057133034342
20
-7.07318583613466
30
0
41
1
10
74.4262793048848
20
-7.14849319145503
30
0
41
1
10
75.392699097856
20
-7.35448385153285
30
0
41
1
10
76.034296851483
20
-7.46446668454152
30
0
41
1
10
76.9904334900789
20
-7.59079630379739
30
0
41
1
10
77.3078799046681
20
-7.62643859113402
30
0
41
1
10
77.9432262472482
20
-7.68394407381916
30
0
41
1
10
78.2608242157254
20
-7.70596218581753
30
0
41
1
10
78.895470334895
20
-7.73681735775529
30
0
41
1
10
79.2125313955202
20
-7.74565044596883
30
0
41
1
10
79.5807841391647
20
-7.74819431896236
30
0
41
1
10
79.6323823394612
20
-7.74837256422697
30
0
41
1
10
79.6839713261169
20
-7.74837285994084
30
0
0
SPLINE
5
CF
100
AcDbEntity
8
1
62
256
6
ByLayer
370
18
48
1
60
0
100
AcDbSpline
70
4
71
3
72
16
73
12
40
0
40
0
40
0
40
0
40
0.250000000000103
40
0.250000000000103
40
0.500000000000206
40
0.500000000000206
40
0.625000000000203
40
0.625000000000203
40
0.7500000000002
40
0.7500000000002
40
1
40
1
40
1
40
1
41
1
10
81.2011891593471
20
1.92153936078233
30
0
41
1
10
81.1927807024051
20
1.94936752445778
30
0
41
1
10
81.1881093305394
20
1.97827784336371
30
0
41
1
10
81.1905434857433
20
2.03724308842311
30
0
41
1
10
81.1982041102144
20
2.06693330747797
30
0
41
1
10
81.2206113040845
20
2.1066015026114
30
0
41
1
10
81.2300657747379
20
2.11912826062294
30
0
41
1
10
81.2520652151137
20
2.14052995468001
30
0
41
1
10
81.2647392722242
20
2.14980654962551
30
0
41
1
10
81.3051170202401
20
2.17282325806164
30
0
41
1
10
81.3350603367164
20
2.1820708364387
30
0
41
1
10
81.3656556073793
20
2.18743182231518
30
0
0
SPLINE
5
D0
100
AcDbEntity
8
1
62
256
6
ByLayer
370
18
48
1
60
0
100
AcDbSpline
70
4
71
3
72
8
73
4
40
0
40
0
40
0
40
0
40
1
40
1
40
1
40
1
41
1
10
3.99999983497025
20
-2.32160307229961
30
0
41
1
10
3.99999983497025
20
-2.35766495127044
30
0
41
1
10
3.99999983497031
20
-2.39356004390976
30
0
41
1
10
3.99999983497031
20
-2.4292883613337
30
0
0
SPLINE
5
D1
100
AcDbEntity
8
1
62
256
6
ByLayer
370
18
48
1
60
0
100
AcDbSpline
70
4
71
3
72
20
73
16
40
0
40
0
40
0
40
0
40
0.0514866673770032
40
0.0514866673770032
40
0.270113812118355
40
0.270113812118355
40
0.379427384489031
40
0.379427384489031
40
0.434084170674369
40
0.434084170674369
40
0.488740956859706
40
0.488740956859706
40
0.925995246342403
40
0.925995246342403
40
1
40
1
40
1
40
1
41
1
10
18.2912092416928
20
0.0350619832240113
30
0
41
1
10
18.4821494411946
20
-0.0727420942223205
30
0
41
1
10
18.6731040294165
20
-0.180567126631843
30
0
41
1
10
19.6752094202871
20
-0.745947302772123
30
0
41
1
10
20.4872958044563
20
-1.20261091447526
30
0
41
1
10
21.7118583437731
20
-1.87725406075109
30
0
41
1
10
22.1210926813403
20
-2.10045588767753
30
0
41
1
10
22.7372367083017
20
-2.43143226821803
30
0
41
1
10
22.942853252439
20
-2.54103751788128
30
0
41
1
10
23.3529239175036
20
-2.75768931711778
30
0
41
1
10
23.557621934584
20
-2.86486586382713
30
0
41
1
10
25.397126119549
20
-3.81869678103953
30
0
41
1
10
27.0132954094789
20
-4.58902433462879
30
0
41
1
10
28.9119207051332
20
-5.35499744805043
30
0
41
1
10
29.1869597372982
20
-5.46257455629549
30
0
41
1
10
29.4623391790928
20
-5.56667521541098
30
0
0
SPLINE
5
D2
100
AcDbEntity
8
1
62
256
6
ByLayer
370
13
48
1
60
0
100
AcDbSpline
70
4
71
3
72
18
73
14
40
0
40
0
40
0
40
0
40
0.137956615461957
40
0.137956615461957
40
0.242231827320772
40
0.242231827320772
40
0.346507039179587
40
0.346507039179587
40
0.763607886614839
40
0.763607886614839
40
0.972158310332465
40
0.972158310332465
40
1
40
1
40
1
40
1
41
1
10
29.4623391792504
20
-5.56667521547055
30
0
41
1
10
30.0004942484241
20
-5.77011196093522
30
0
41
1
10
30.5399493485049
20
-5.96027208046715
30
0
41
1
10
31.4911067074173
20
-6.2685089878882
30
0
41
1
10
31.9027996399409
20
-6.39307677528421
30
0
41
1
10
32.7225011713679
20
-6.62230535226183
30
0
41
1
10
33.130999970003
20
-6.72721910238371
30
0
41
1
10
35.1685550073602
20
-7.20224711723921
30
0
41
1
10
36.7835365247422
20
-7.42357311195437
30
0
41
1
10
39.2225694334941
20
-7.50242699144613
30
0
41
1
10
40.0384091818581
20
-7.48661152470481
30
0
41
1
10
40.9700814429868
20
-7.41938906824279
30
0
41
1
10
41.0797972881355
20
-7.41070795617094
30
0
41
1
10
41.1895017632355
20
-7.401266555841
30
0
0
SPLINE
5
D3
100
AcDbEntity
8
1
62
256
6
ByLayer
370
18
48
1
60
0
100
AcDbSpline
70
4
71
3
72
36
73
32
40
0
40
0
40
0
40
0
40
0.112924203144562
40
0.112924203144562
40
0.169386304716843
40
0.169386304716843
40
0.225848406289123
40
0.225848406289123
40
0.282310507861403
40
0.282310507861403
40
0.338772609433684
40
0.338772609433684
40
0.451696812578243
40
0.451696812578243
40
0.508158914150522
40
0.508158914150522
40
0.564621015722802
40
0.564621015722802
40
0.621083117295081
40
0.621083117295081
40
0.677545218867361
40
0.677545218867361
40
0.79046942201192
40
0.79046942201192
40
0.8469315235842
40
0.8469315235842
40
0.90339362515648
40
0.90339362515648
40
0.959855726728761
40
0.959855726728761
40
1
40
1
40
1
40
1
41
1
10
21.0915213529223
20
-2.2024365185737
30
0
41
1
10
21.7356410581434
20
-2.56458966589139
30
0
41
1
10
22.3780959299631
20
-2.91267996465081
30
0
41
1
10
23.3370813177229
20
-3.41863886220904
30
0
41
1
10
23.6558081552732
20
-3.58479321335591
30
0
41
1
10
24.2922089735652
20
-3.9107544265338
30
0
41
1
10
24.6105871650041
20
-4.06949237373647
30
0
41
1
10
25.2473509636047
20
-4.37918752781988
30
0
41
1
10
25.5657150010844
20
-4.53017568471699
30
0
41
1
10
26.2020876739543
20
-4.82486459644119
30
0
41
1
10
26.5198677886997
20
-4.96886344234443
30
0
41
1
10
27.473945819201
20
-5.38796373547291
30
0
41
1
10
28.1132163997334
20
-5.64743365498984
30
0
41
1
10
29.0745286968733
20
-6.00962244502435
30
0
41
1
10
29.3951005894868
20
-6.12609813030323
30
0
41
1
10
30.0384456957155
20
-6.3481483506954
30
0
41
1
10
30.3614214076409
20
-6.45329149970271
30
0
41
1
10
31.0044666991133
20
-6.65108917706843
30
0
41
1
10
31.32521815676
20
-6.74394115221841
30
0
41
1
10
31.9648778236061
20
-6.91790728287228
30
0
41
1
10
32.2834380209693
20
-6.9992512063873
30
0
41
1
10
33.2390964211413
20
-7.22350245598676
30
0
41
1
10
33.8763687642739
20
-7.34692923375005
30
0
41
1
10
34.8302205936151
20
-7.49480794602147
30
0
41
1
10
35.147507309679
20
-7.53792587322332
30
0
41
1
10
35.7835653900478
20
-7.61060222373621
30
0
41
1
10
36.1022478790159
20
-7.64025800251125
30
0
41
1
10
36.7404279302663
20
-7.68642148154342
30
0
41
1
10
37.0599459221374
20
-7.70292161633276
30
0
41
1
10
37.6071167752939
20
-7.719708442768
30
0
41
1
10
37.8344827609402
20
-7.72328071070538
30
0
41
1
10
38.0623767835296
20
-7.72339920264386
30
0
0
SPLINE
5
D4
100
AcDbEntity
8
1
62
256
6
ByLayer
370
18
48
1
60
0
100
AcDbSpline
70
4
71
3
72
28
73
24
40
0
40
0
40
0
40
0
40
0.0803186799308386
40
0.0803186799308386
40
0.1569587899366
40
0.1569587899366
40
0.233598899942362
40
0.233598899942362
40
0.310239009948124
40
0.310239009948124
40
0.386879119953886
40
0.386879119953886
40
0.540159339965412
40
0.540159339965412
40
0.616799449971177
40
0.616799449971177
40
0.693439559976942
40
0.693439559976942
40
0.770079669982706
40
0.770079669982706
40
0.846719779988471
40
0.846719779988471
40
1
40
1
40
1
40
1
41
1
10
69.9159587183684
20
5.73637767228354
30
0
41
1
10
70.2492651654452
20
5.86695649341115
30
0
41
1
10
70.5825705954052
20
5.99196123037561
30
0
41
1
10
71.2334707025449
20
6.22592475279171
30
0
41
1
10
71.5507610347323
20
6.33561661274592
30
0
41
1
10
72.1869594295919
20
6.54305499456936
30
0
41
1
10
72.5058654329851
20
6.64085483525054
30
0
41
1
10
73.1447757718124
20
6.82514134318095
30
0
41
1
10
73.4648032876808
20
6.91160488249901
30
0
41
1
10
74.1057133034335
20
7.07318583613448
30
0
41
1
10
74.4262793048841
20
7.14849319145489
30
0
41
1
10
75.3926990978553
20
7.35448385153271
30
0
41
1
10
76.0342968514823
20
7.46446668454141
30
0
41
1
10
76.9904334900781
20
7.5907963037973
30
0
41
1
10
77.3078799046674
20
7.62643859113393
30
0
41
1
10
77.9432262472474
20
7.68394407381911
30
0
41
1
10
78.2608242157248
20
7.70596218581747
30
0
41
1
10
78.8954703348942
20
7.73681735775526
30
0
41
1
10
79.2125313955194
20
7.74565044596883
30
0
41
1
10
79.8458094588323
20
7.7500251016651
30
0
41
1
10
80.1618646988497
20
7.74550200860335
30
0
41
1
10
81.112641443886
20
7.71204412584288
30
0
41
1
10
81.7484847883424
20
7.663522124433
30
0
41
1
10
82.3850102165865
20
7.58793065300361
30
0
0
SPLINE
5
D5
100
AcDbEntity
8
1
62
256
6
ByLayer
370
18
48
1
60
0
100
AcDbSpline
70
2053
71
3
72
66
73
62
40
0
40
0
40
0
40
0
40
0.0312499999999983
40
0.0312499999999983
40
0.0624999999999966
40
0.0624999999999966
40
0.0937499999999948
40
0.0937499999999948
40
0.109374999999994
40
0.109374999999994
40
0.124999999999993
40
0.124999999999993
40
0.156249999999992
40
0.156249999999992
40
0.17187499999999
40
0.17187499999999
40
0.187499999999989
40
0.187499999999989
40
0.218749999999986
40
0.218749999999986
40
0.249999999999982
40
0.249999999999982
40
0.281249999999979
40
0.281249999999979
40
0.312499999999976
40
0.312499999999976
40
0.374999999999974
40
0.374999999999974
40
0.437499999999971
40
0.437499999999971
40
0.468749999999973
40
0.468749999999973
40
0.499999999999975
40
0.499999999999975
40
0.531249999999976
40
0.531249999999976
40
0.562499999999978
40
0.562499999999978
40
0.593749999999979
40
0.593749999999979
40
0.624999999999981
40
0.624999999999981
40
0.656249999999982
40
0.656249999999982
40
0.687499999999984
40
0.687499999999984
40
0.749999999999987
40
0.749999999999987
40
0.781249999999989
40
0.781249999999989
40
0.81249999999999
40
0.81249999999999
40
0.843749999999992
40
0.843749999999992
40
0.874999999999994
40
0.874999999999994
40
0.906249999999995
40
0.906249999999995
40
0.937499999999997
40
0.937499999999997
40
1
40
1
40
1
40
1
41
1
10
82.7215607575663
20
-2.96216831885886
30
0
41
1
10
82.6872143789275
20
-3.01020250921599
30
0
41
1
10
82.6535203754192
20
-3.06181783906436
30
0
41
1
10
82.5875567948668
20
-3.17286781907407
30
0
41
1
10
82.5549259536189
20
-3.2330433697681
30
0
41
1
10
82.4933956103953
20
-3.35886757034825
30
0
41
1
10
82.4645743908211
20
-3.42417850110849
30
0
41
1
10
82.4247109124774
20
-3.52630143141144
30
0
41
1
10
82.4120359917432
20
-3.56096672325865
30
0
41
1
10
82.3886622009397
20
-3.62962722380004
30
0
41
1
10
82.3778598026303
20
-3.66387934692838
30
0
41
1
10
82.348173303256
20
-3.76639539876993
30
0
41
1
10
82.3318465952912
20
-3.83548854112192
30
0
41
1
10
82.3145348926665
20
-3.93261498991956
30
0
41
1
10
82.3098950967834
20
-3.96405336462226
30
0
41
1
10
82.3028379656575
20
-4.02508828668749
30
0
41
1
10
82.3004165511389
20
-4.05488636617315
30
0
41
1
10
82.2966020984049
20
-4.13966235189341
30
0
41
1
10
82.2985285948591
20
-4.19015223141196
30
0
41
1
10
82.310400745845
20
-4.28031749045533
30
0
41
1
10
82.3202170931992
20
-4.3187653961082
30
0
41
1
10
82.3462766006672
20
-4.38348636470792
30
0
41
1
10
82.3626739935111
20
-4.40986787451848
30
0
41
1
10
82.4001864682942
20
-4.4502253763543
30
0
41
1
10
82.4214062627503
20
-4.46452544536047
30
0
41
1
10
82.4919001377858
20
-4.49111679429669
30
0
41
1
10
82.5459046331277
20
-4.48675685830924
30
0
41
1
10
82.6652271472298
20
-4.43910118813136
30
0
41
1
10
82.7284123139099
20
-4.39672095538032
30
0
41
1
10
82.8285190456704
20
-4.30509500926331
30
0
41
1
10
82.8624455360518
20
-4.27003478115424
30
0
41
1
10
82.9300377398532
20
-4.19213321743143
30
0
41
1
10
82.9639103952192
20
-4.14911435236888
30
0
41
1
10
83.0318244295653
20
-4.05411057877177
30
0
41
1
10
83.0661862659274
20
-4.0015442167545
30
0
41
1
10
83.1324681262428
20
-3.8900519576564
30
0
41
1
10
83.1646059993373
20
-3.83092370883006
30
0
41
1
10
83.2265485239781
20
-3.70480002808097
30
0
41
1
10
83.255939402934
20
-3.6384966785823
30
0
41
1
10
83.3090730580604
20
-3.5033815316396
30
0
41
1
10
83.3333900808391
20
-3.43290220187546
30
0
41
1
10
83.3736427166511
20
-3.29547343832189
30
0
41
1
10
83.3899703173681
20
-3.22759122821904
30
0
41
1
10
83.4139105064092
20
-3.09600907299949
30
0
41
1
10
83.4211013335256
20
-3.03486811605677
30
0
41
1
10
83.4292718658994
20
-2.86448504288845
30
0
41
1
10
83.4160075847323
20
-2.77344796665105
30
0
41
1
10
83.3766116528064
20
-2.67685380472329
30
0
41
1
10
83.3601472542344
20
-2.65075485900806
30
0
41
1
10
83.3221551163178
20
-2.61067447139399
30
0
41
1
10
83.3007877692264
20
-2.59670954960785
30
0
41
1
10
83.2538480942849
20
-2.57955296860391
30
0
41
1
10
83.2281526966901
20
-2.57645548308344
30
0
41
1
10
83.174234907033
20
-2.5805104044673
30
0
41
1
10
83.1458577881058
20
-2.58757232344209
30
0
41
1
10
83.086378138183
20
-2.61137091827709
30
0
41
1
10
83.0551399866846
20
-2.62825451655584
30
0
41
1
10
82.9916704576254
20
-2.67076430924018
30
0
41
1
10
82.9592465120122
20
-2.69643466122918
30
0
41
1
10
82.8598630129626
20
-2.78697474613619
30
0
41
1
10
82.790253514844
20
-2.8660999381446
30
0
41
1
10
82.7215607575663
20
-2.96216831885886
30
0
0
SPLINE
5
D6
100
AcDbEntity
8
1
62
256
6
ByLayer
370
18
48
1
60
0
100
AcDbSpline
70
4
71
3
72
14
73
10
40
0
40
0
40
0
40
0
40
0.132658732179249
40
0.132658732179249
40
0.409897418633796
40
0.409897418633796
40
0.964374791542888
40
0.964374791542888
40
1
40
1
40
1
40
1
41
1
10
81.1076037615585
20
-7.41388159417804
30
0
41
1
10
80.715143524673
20
-7.41616771135008
30
0
41
1
10
80.3241602242812
20
-7.40864502729769
30
0
41
1
10
79.1195917513409
20
-7.35587234920976
30
0
41
1
10
78.3097573980652
20
-7.27845047690735
30
0
41
1
10
75.8855149126459
20
-6.92715994850332
30
0
41
1
10
74.2759525738715
20
-6.53379763313978
30
0
41
1
10
72.5430668721402
20
-5.96368477194207
30
0
41
1
10
72.438374263558
20
-5.92867714754996
30
0
41
1
10
72.3335977323015
20
-5.89308652307665
30
0
0
SPLINE
5
D7
100
AcDbEntity
8
1
62
256
6
ByLayer
370
13
48
1
60
0
100
AcDbSpline
70
4
71
3
72
24
73
20
40
0
40
0
40
0
40
0
40
0.0544122822144677
40
0.0544122822144677
40
0.0910289052910832
40
0.0910289052910832
40
0.127645528367699
40
0.127645528367699
40
0.274112020674155
40
0.274112020674155
40
0.567045005287069
40
0.567045005287069
40
0.640278251440297
40
0.640278251440297
40
0.713511497593525
40
0.713511497593525
40
0.859977989899979
40
0.859977989899979
40
1
40
1
40
1
40
1
41
1
10
72.3335977323139
20
-5.89308652308091
30
0
41
1
10
72.0306839067254
20
-5.7901923722153
30
0
41
1
10
71.7270686428407
20
-5.68242541924766
30
0
41
1
10
71.2176504026825
20
-5.49423641602593
30
0
41
1
10
71.0121405339711
20
-5.41632853034116
30
0
41
1
10
70.6023746469726
20
-5.25717180728952
30
0
41
1
10
70.3978907238795
20
-5.17583299239877
30
0
41
1
10
69.377215186908
20
-4.76073788577767
30
0
41
1
10
68.5661482930479
20
-4.40182664502643
30
0
41
1
10
66.1392120935964
20
-3.26146343260299
30
0
41
1
10
64.5302558817727
20
-2.41517287701575
30
0
41
1
10
62.4981513563177
20
-1.30328308142774
30
0
41
1
10
62.0907187579907
20
-1.07815304913615
30
0
41
1
10
61.272866701218
20
-0.623985825636453
30
0
41
1
10
60.8614485939386
20
-0.394423449364496
30
0
41
1
10
59.6331987433941
20
0.292279345671261
30
0
41
1
10
58.8196053906457
20
0.747572725360783
30
0
41
1
10
57.2325261279784
20
1.6229592675225
30
0
41
1
10
56.4587062936817
20
2.04339818493764
30
0
41
1
10
55.6840032111378
20
2.45162892438771
30
0
0
SPLINE
5
D8
100
AcDbEntity
8
SK1
62
256
6
ByLayer
370
18
48
1
60
0
100
AcDbSpline
70
4
71
3
72
14
73
10
40
0
40
0
40
0
40
0
40
0.5
40
0.5
40
0.750000000000001
40
0.750000000000001
40
0.875000000000001
40
0.875000000000001
40
1
40
1
40
1
40
1
41
1
10
-46.1
20
-6.10020710599798
30
0
41
1
10
-46.078998416482
20
-6.12424958616108
30
0
41
1
10
-46.0586701890239
20
-6.14375481255613
30
0
41
1
10
-46.0304433385198
20
-6.16249093220435
30
0
41
1
10
-46.0214721393577
20
-6.16687631104125
30
0
41
1
10
-46.0103047485395
20
-6.1675950148832
30
0
41
1
10
-46.006895500949
20
-6.16684130408458
30
0
41
1
10
-46.001721316688
20
-6.16179015668939
30
0
41
1
10
-46
20
-6.15741351546166
30
0
41
1
10
-46
20
-6.15053352472543
30
0
0
SPLINE
5
D9
100
AcDbEntity
8
SK1
62
256
6
ByLayer
370
18
48
1
60
0
100
AcDbSpline
70
4
71
3
72
10
73
6
40
0
40
0
40
0
40
0
40
0.5
40
0.5
40
1
40
1
40
1
40
1
41
1
10
-46.1
20
-3.81677026604663
30
0
41
1
10
-46.391967450462
20
-3.48252777285637
30
0
41
1
10
-46.6831522395756
20
-3.14800264960223
30
0
41
1
10
-47.2624419617442
20
-2.47784022358411
30
0
41
1
10
-47.550647758546
20
-2.14223934414335
30
0
41
1
10
-47.8353906822901
20
-1.8053879723463
30
0
0
SPLINE
5
DA
100
AcDbEntity
8
SK1
62
256
6
ByLayer
370
18
48
1
60
0
100
AcDbSpline
70
4
71
3
72
14
73
10
40
0
40
0
40
0
40
0
40
0.125000000000003
40
0.125000000000003
40
0.250000000000006
40
0.250000000000006
40
0.500000000000007
40
0.500000000000007
40
1
40
1
40
1
40
1
41
1
10
-46
20
-4.01932580743753
30
0
41
1
10
-46
20
-4.01004234730922
30
0
41
1
10
-46.0017055870951
20
-3.9994316510851
30
0
41
1
10
-46.0068924291627
20
-3.97845630211339
30
0
41
1
10
-46.0102440228914
20
-3.96833621482054
30
0
41
1
10
-46.0215656644542
20
-3.93858997174922
30
0
41
1
10
-46.030416522685
20
-3.92050817316988
30
0
41
1
10
-46.0585951172059
20
-3.86948717962474
30
0
41
1
10
-46.0788864676936
20
-3.84094090447559
30
0
41
1
10
-46.1
20
-3.81677026604663
30
0
0
SPLINE
5
DB
100
AcDbEntity
8
SK1
62
256
6
ByLayer
370
18
48
1
60
0
100
AcDbSpline
70
4
71
3
72
10
73
6
40
0
40
0
40
0
40
0
40
0.5
40
0.5
40
1
40
1
40
1
40
1
41
1
10
-47.8353906822901
20
-1.8053879723463
30
0
41
1
10
-47.8599582314007
20
-1.74483609013711
30
0
41
1
10
-47.8861946075494
20
-1.6859580338203
30
0
41
1
10
-47.9412825219012
20
-1.57377371115766
30
0
41
1
10
-47.9699949417711
20
-1.52068591381268
30
0
41
1
10
-48
20
-1.47064339678354
30
0
0
SPLINE
5
DC
100
AcDbEntity
8
SK1
62
256
6
ByLayer
370
18
48
1
60
0
100
AcDbSpline
70
4
71
3
72
10
73
6
40
0
40
0
40
0
40
0
40
0.5
40
0.5
40
1
40
1
40
1
40
1
41
1
10
-48
20
-3.89341469607635
30
0
41
1
10
-47.6894490633445
20
-4.26344217399452
30
0
41
1
10
-47.3739356600329
20
-4.63169037629479
30
0
41
1
10
-46.7393913782979
20
-5.36684197308944
30
0
41
1
10
-46.4201562285781
20
-5.73369427766374
30
0
41
1
10
-46.1
20
-6.10020710599792
30
0
0
LINE
5
76
100
AcDbEntity
8
81
62
256
6
ByLayer
370
18
48
1
60
0
100
AcDbLine
10
85
20
0
30
0
11
90
21
0
31
0
39
0
210
0
220
0
230
1
0
LINE
5
77
100
AcDbEntity
8
1
62
256
6
ByLayer
370
18
48
1
60
0
100
AcDbLine
10
4
20
7.702969
30
0
11
0.931644
21
7.701128
31
0
39
0
210
0
220
0
230
1
0
LINE
5
79
100
AcDbEntity
8
1
62
256
6
ByLayer
370
18
48
1
60
0
100
AcDbLine
10
39.152356
20
7.72406
30
0
11
38.060661
21
7.723405
31
0
39
0
210
0
220
0
230
1
0
LINE
5
7A
100
AcDbEntity
8
1
62
256
6
ByLayer
370
18
48
1
60
0
100
AcDbLine
10
38.060661
20
-7.723405
30
0
11
39.152503
21
-7.72406
31
0
39
0
210
0
220
0
230
1
0
LINE
5
7B
100
AcDbEntity
8
1
62
256
6
ByLayer
370
18
48
1
60
0
100
AcDbLine
10
0.931644
20
-7.701128
30
0
11
4
21
-7.702969
31
0
39
0
210
0
220
0
230
1
0
LINE
5
7C
100
AcDbEntity
8
SK1
62
256
6
ByLayer
370
18
48
1
60
0
100
AcDbLine
10
0
20
8
30
0
11
-45.979274
21
8
31
0
39
0
210
0
220
0
230
1
0
LINE
5
7E
100
AcDbEntity
8
SK1
62
256
6
ByLayer
370
18
48
1
60
0
100
AcDbLine
10
-45.979274
20
-8
30
0
11
0
21
-8
31
0
39
0
210
0
220
0
230
1
0
LINE
5
7F
100
AcDbEntity
8
SK1
62
256
6
ByLayer
370
18
48
1
60
0
100
AcDbLine
10
-45.979274
20
8
30
0
11
-48
21
4.5
31
0
39
0
210
0
220
0
230
1
0
LINE
5
80
100
AcDbEntity
8
SK1
62
256
6
ByLayer
370
18
48
1
60
0
100
AcDbLine
10
-48
20
-4.5
30
0
11
-45.979274
21
-8
31
0
39
0
210
0
220
0
230
1
0
LINE
5
81
100
AcDbEntity
8
1
62
256
6
ByLayer
370
18
48
1
60
0
100
AcDbLine
10
80.753734
20
7.749021
30
0
11
79.669091
21
7.74837
31
0
39
0
210
0
220
0
230
1
0
LINE
5
82
100
AcDbEntity
8
1
62
256
6
ByLayer
370
18
48
1
60
0
100
AcDbLine
10
79.669091
20
-7.74837
30
0
11
80.753291
21
-7.749021
31
0
39
0
210
0
220
0
230
1
0
LINE
5
83
100
AcDbEntity
8
SK4
62
256
6
ByLayer
370
18
48
0.05
60
0
100
AcDbLine
10
90
20
0
30
0
11
-53
21
0
31
0
39
0
210
0
220
0
230
1
0
LINE
5
85
100
AcDbEntity
8
4
62
256
6
ByLayer
370
18
48
0.05
60
0
100
AcDbLine
10
85
20
0
30
0
11
0
21
0
31
0
39
0
210
0
220
0
230
1
0
LINE
5
87
100
AcDbEntity
8
80
62
256
6
ByLayer
370
18
48
1
60
0
100
AcDbLine
10
0
20
0
30
0
11
-5
21
0
31
0
39
0
210
0
220
0
230
1
0
LINE
5
88
100
AcDbEntity
8
1
62
256
6
ByLayer
370
13
48
1
60
0
100
AcDbLine
10
83.017137
20
1.274185
30
0
11
84.90092
21
0.341484
31
0
39
0
210
0
220
0
230
1
0
LINE
5
89
100
AcDbEntity
8
1
62
256
6
ByLayer
370
18
48
1
60
0
100
AcDbLine
10
85
20
0
30
0
11
82.301186
21
-7.414931
31
0
39
0
210
0
220
0
230
1
0
LINE
5
8A
100
AcDbEntity
8
1
62
256
6
ByLayer
370
13
48
1
60
0
100
AcDbLine
10
82.847678
20
0.927761
30
0
11
84.893585
21
-0.085211
31
0
39
0
210
0
220
0
230
1
0
LINE
5
8B
100
AcDbEntity
8
1
62
256
6
ByLayer
370
13
48
1
60
0
100
AcDbLine
10
0.465582
20
7.850564
30
0
11
0.465582
21
-7.850564
31
0
39
0
210
0
220
0
230
1
0
LINE
5
8C
100
AcDbEntity
8
1
62
256
6
ByLayer
370
13
48
1
60
0
100
AcDbLine
10
0.931644
20
7.701128
30
0
11
0.931644
21
-7.701128
31
0
39
0
210
0
220
0
230
1
0
LINE
5
8D
100
AcDbEntity
8
1
62
256
6
ByLayer
370
18
48
1
60
0
100
AcDbLine
10
85
20
0
30
0
11
84.983655
21
-0.073326
31
0
39
0
210
0
220
0
230
1
0
LINE
5
8E
100
AcDbEntity
8
1
62
256
6
ByLayer
370
18
48
1
60
0
100
AcDbLine
10
0
20
-8
30
0
11
0
21
8
31
0
39
0
210
0
220
0
230
1
0
LINE
5
8F
100
AcDbEntity
8
1
62
256
6
ByLayer
370
18
48
1
60
0
100
AcDbLine
10
4
20
7.702969
30
0
11
4
21
6.873944
31
0
39
0
210
0
220
0
230
1
0
LINE
5
90
100
AcDbEntity
8
1
62
256
6
ByLayer
370
18
48
1
60
0
100
AcDbLine
10
84.90092
20
-0.341484
30
0
11
84.648282
21
-1.274185
31
0
39
0
210
0
220
0
230
1
0
LINE
5
91
100
AcDbEntity
8
1
62
256
6
ByLayer
370
18
48
1
60
0
100
AcDbLine
10
4
20
-7.702969
30
0
11
4
21
-2.429288
31
0
39
0
210
0
220
0
230
1
0
LINE
5
92
100
AcDbEntity
8
1
62
256
6
ByLayer
370
18
48
1
60
0
100
AcDbLine
10
84.983655
20
0.073326
30
0
11
85
21
0
31
0
39
0
210
0
220
0
230
1
0
LINE
5
93
100
AcDbEntity
8
1
62
256
6
ByLayer
370
18
48
1
60
0
100
AcDbLine
10
84.90092
20
0.341484
30
0
11
84.648282
21
1.274185
31
0
39
0
210
0
220
0
230
1
0
LINE
5
94
100
AcDbEntity
8
1
62
256
6
ByLayer
370
18
48
1
60
0
100
AcDbLine
10
81.095698
20
-4.317886
30
0
11
84.893585
21
-0.085211
31
0
39
0
210
0
220
0
230
1
0
LINE
5
95
100
AcDbEntity
8
1
62
256
6
ByLayer
370
13
48
1
60
0
100
AcDbLine
10
84.648282
20
1.274185
30
0
11
83.017137
21
1.274185
31
0
39
0
210
0
220
0
230
1
0
LINE
5
96
100
AcDbEntity
8
SK1
62
256
6
ByLayer
370
18
48
1
60
0
100
AcDbLine
10
-48
20
-4.5
30
0
11
-48
21
-3.893415
31
0
39
0
210
0
220
0
230
1
0
LINE
5
97
100
AcDbEntity
8
SK1
62
256
6
ByLayer
370
18
48
1
60
0
100
AcDbLine
10
0
20
-8
30
0
11
0
21
8
31
0
39
0
210
0
220
0
230
1
0
LINE
5
98
100
AcDbEntity
8
SK1
62
256
6
ByLayer
370
18
48
1
60
0
100
AcDbLine
10
-48
20
4.5
30
0
11
-48
21
-1.470643
31
0
39
0
210
0
220
0
230
1
0
LINE
5
99
100
AcDbEntity
8
SK1
62
256
6
ByLayer
370
13
48
1
60
0
100
AcDbLine
10
-46.1
20
-3.816668
30
0
11
-46.1
21
-6.100207
31
0
39
0
210
0
220
0
230
1
0
LINE
5
9A
100
AcDbEntity
8
SK1
62
256
6
ByLayer
370
18
48
1
60
0
100
AcDbLine
10
-45.979274
20
8
30
0
11
-45.979274
21
-8
31
0
39
0
210
0
220
0
230
1
0
LINE
5
9B
100
AcDbEntity
8
SK1
62
256
6
ByLayer
370
18
48
1
60
0
100
AcDbLine
10
-46
20
-6.150534
30
0
11
-46
21
-4.019326
31
0
39
0
210
0
220
0
230
1
0
LINE
5
9C
100
AcDbEntity
8
SK1
62
256
6
ByLayer
370
18
48
1
60
0
100
AcDbLine
10
-48
20
-1.470569
30
0
11
-48
21
-3.893415
31
0
39
0
210
0
220
0
230
1
0
MTEXT
5
DD
100
AcDbEntity
8
SK6
62
256
6
ByLayer
370
13
48
1
60
0
100
AcDbMText
10
20.629169
20
40.132694
30
0
210
0
220
0
230
1
1
\W0.7415;R840-1550-50-A1A1220
40
3.5
41
0
44
1.084337
50
0
71
8
72
5
7
iso_b_vert
0
DIMENSION
5
EA
100
AcDbEntity
8
SK2
62
256
6
ByLayer
370
13
48
1
60
0
100
AcDbDimension
2
DimnDraft3D1
10
82.34
20
-17.963398
30
0
11
39.090059
21
-17.963398
31
0
70
32
71
5
72
1
41
1
210
0
220
0
230
1
3
Standard
100
AcDbAlignedDimension
13
0
23
-1.5875
33
0
14
82.34
24
-9.3375
34
0
50
0
100
AcDbRotatedDimension
1001
ACAD
1000
DSTYLE
1002
{
1070
   279
1070
     0
1070
   172
1070
     1
1070
   173
1070
     1
1070
   340
1005
DE
1070
   271
1070
     2
1070
   272
1070
     2
1070
    77
1070
     1
1070
    73
1070
     0
1070
   171
1070
     3
1070
   274
1070
     4
1070
   177
1070
    35
1070
   176
1070
    35
1070
   178
1070
    35
1070
    48
1040
-0.005
1070
    41
1041
3.5
1070
   147
1041
1.75
1070
    42
1041
1.5875
1070
    44
1041
2.0
1070
   140
1041
3.5
1070
   343
1005
0
1070
   344
1005
0
1002
}
0
DIMENSION
5
F4
100
AcDbEntity
8
SK2
62
256
6
ByLayer
370
13
48
1
60
0
100
AcDbDimension
2
DimnDraft3D2
10
85
20
-36.692985
30
0
11
17.1813
21
-36.692985
31
0
70
32
71
5
72
1
41
1
210
0
220
0
230
1
3
Standard
100
AcDbAlignedDimension
13
-48
23
-9.5875
33
0
14
85
24
-1.5875
34
0
50
0
100
AcDbRotatedDimension
1001
ACAD
1000
DSTYLE
1002
{
1070
   279
1070
     0
1070
   172
1070
     1
1070
   173
1070
     1
1070
   340
1005
DE
1070
   271
1070
     2
1070
   272
1070
     2
1070
    77
1070
     1
1070
    73
1070
     0
1070
   171
1070
     3
1070
   274
1070
     4
1070
   177
1070
    35
1070
   176
1070
    35
1070
   178
1070
    35
1070
    48
1040
-0.005
1070
    41
1041
3.5
1070
   147
1041
1.75
1070
    42
1041
1.5875
1070
    44
1041
2.0
1070
   140
1041
3.5
1070
   343
1005
0
1070
   344
1005
0
1002
}
0
DIMENSION
5
FE
100
AcDbEntity
8
SK2
62
256
6
ByLayer
370
13
48
1
60
0
100
AcDbDimension
2
DimnDraft3D3
10
85
20
19.359119
30
0
11
44.92
21
19.359119
31
0
70
32
71
5
72
1
41
1
210
0
220
0
230
1
3
Standard
100
AcDbAlignedDimension
13
4.84
23
9.3375
33
0
14
85
24
1.5875
34
0
50
0
100
AcDbRotatedDimension
1001
ACAD
1000
DSTYLE
1002
{
1070
   279
1070
     0
1070
   172
1070
     1
1070
   173
1070
     1
1070
   340
1005
DE
1070
   271
1070
     2
1070
   272
1070
     2
1070
    77
1070
     1
1070
    73
1070
     0
1070
   171
1070
     3
1070
   274
1070
     4
1070
   177
1070
    35
1070
   176
1070
    35
1070
   178
1070
    35
1070
    48
1040
-0.005
1070
    41
1041
3.5
1070
   147
1041
1.75
1070
    42
1041
1.5875
1070
    44
1041
2.0
1070
   140
1041
3.5
1070
   343
1005
0
1070
   344
1005
0
1002
}
0
DIMENSION
5
108
100
AcDbEntity
8
SK2
62
256
6
ByLayer
370
13
48
1
60
0
100
AcDbDimension
2
DimnDraft3D4
10
82.34
20
-20.552503
30
0
11
94.981425
21
-20.552503
31
0
70
32
71
5
72
1
41
1
210
0
220
0
230
1
3
Standard
100
AcDbAlignedDimension
13
85
23
-1.5875
33
0
14
82.34
24
-9.3375
34
0
50
0
100
AcDbRotatedDimension
1001
ACAD
1000
DSTYLE
1002
{
1070
   279
1070
     0
1070
   172
1070
     1
1070
   173
1070
     1
1070
   340
1005
DE
1070
   271
1070
     2
1070
   272
1070
     2
1070
    77
1070
     1
1070
    73
1070
     0
1070
   171
1070
     3
1070
   274
1070
     4
1070
   177
1070
    35
1070
   176
1070
    35
1070
   178
1070
    35
1070
    48
1040
-0.005
1070
    41
1041
3.5
1070
   147
1041
1.75
1070
    42
1041
1.5875
1070
    44
1041
2.0
1070
   140
1041
3.5
1070
   343
1005
0
1070
   344
1005
0
1002
}
0
DIMENSION
5
112
100
AcDbEntity
8
SK2
62
256
6
ByLayer
370
13
48
1
60
0
100
AcDbDimension
2
DimnDraft3D5
10
82.34
20
-26.343428
30
0
11
14.100676
21
-26.343428
31
0
70
32
71
5
72
1
41
1
210
0
220
0
230
1
3
Standard
100
AcDbAlignedDimension
13
-48
23
-9.5875
33
0
14
82.34
24
-9.3375
34
0
50
0
100
AcDbRotatedDimension
1001
ACAD
1000
DSTYLE
1002
{
1070
   279
1070
     0
1070
   172
1070
     1
1070
   173
1070
     1
1070
   340
1005
DE
1070
   271
1070
     2
1070
   272
1070
     2
1070
    77
1070
     1
1070
    73
1070
     0
1070
   171
1070
     3
1070
   274
1070
     4
1070
   177
1070
    35
1070
   176
1070
    35
1070
   178
1070
    35
1070
    48
1040
-0.005
1070
    41
1041
3.5
1070
   147
1041
1.75
1070
    42
1041
1.5875
1070
    44
1041
2.0
1070
   140
1041
3.5
1070
   343
1005
0
1070
   344
1005
0
1002
}
0
DIMENSION
5
11D
100
AcDbEntity
8
SK2
62
256
6
ByLayer
370
13
48
1
60
0
100
AcDbDimension
2
DimnDraft3D6
10
-58.625163
20
8
30
0
11
-59.250163
21
26.47418
31
0
70
33
71
5
72
1
41
1
210
0
220
0
230
1
3
Standard
100
AcDbAlignedDimension
13
-49.5875
23
-8
33
0
14
-49.5875
24
8
34
0
1001
ACAD
1000
DSTYLE
1002
{
1070
   279
1070
     0
1070
    74
1070
     0
1070
   173
1070
     1
1070
   340
1005
DE
1070
   271
1070
     3
1070
   272
1070
     2
1070
    77
1070
     1
1070
    73
1070
     0
1070
   171
1070
     3
1070
   274
1070
     4
1070
   177
1070
    35
1070
   176
1070
    35
1070
   178
1070
    35
1070
    48
1040
-0.005
1070
    41
1041
3.5
1070
   147
1041
1.75
1070
    42
1041
1.5875
1070
    44
1041
2.0
1070
   140
1041
3.5
1070
   343
1005
0
1070
   344
1005
0
1002
}
0
DIMENSION
5
128
100
AcDbEntity
8
2
62
256
6
ByLayer
370
13
48
1
60
0
100
AcDbDimension
2
DimnDraft3D7
10
99.083343
20
7.75
30
0
11
94.458343
21
24.817266
31
0
70
33
71
5
72
1
41
1
210
0
220
0
230
1
3
Standard
100
AcDbAlignedDimension
13
83.9275
23
-7.75
33
0
14
83.9275
24
7.75
34
0
1001
ACAD
1000
DSTYLE
1002
{
1070
   279
1070
     0
1070
    74
1070
     0
1070
   173
1070
     1
1070
   340
1005
DE
1070
   271
1070
     3
1070
   272
1070
     2
1070
    77
1070
     1
1070
    73
1070
     0
1070
   171
1070
     3
1070
   274
1070
     4
1070
   177
1070
    35
1070
   176
1070
    35
1070
   178
1070
    35
1070
    48
1040
-0.005
1070
    41
1041
3.5
1070
   147
1041
1.75
1070
    42
1041
1.5875
1070
    44
1041
2.0
1070
   140
1041
3.5
1070
   343
1005
0
1070
   344
1005
0
1002
}
0
ENDSEC
0
SECTION
2
OBJECTS
0
DICTIONARY
5
193
330
0
100
AcDbDictionary
280
0
281
1
3
ACAD_GROUP
350
194
3
ACAD_MLINESTYLE
350
195
0
DICTIONARY
5
194
330
0
100
AcDbDictionary
280
0
281
1
0
DICTIONARY
5
195
330
0
100
AcDbDictionary
280
0
281
1
3
Standard
350
18
0
MLINESTYLE
5
18
330
195
100
AcDbMlineStyle
2
Standard
70
0
3

62
256
51
90
52
90
71
2
49
-0.5
62
256
6
ByLayer
49
0.5
62
256
6
ByLayer
0
RASTERVARIABLES
5
181
330

100
AcDbRasterVariables
90
0
70
1
71
1
72
1
0
ENDSEC
0
EOF
