0
SECTION
2
HEADER
9
$ACADVER
1
AC1015
9
$DWGCODEPAGE
3
ANSI_1252
9
$HANDSEED
5
1a5
9
$ANGBASE
50
0
9
$ANGDIR
70
0
9
$ATTMODE
70
1
9
$AUNITS
70
0
9
$AUPREC
70
0
9
$CECOLOR
62
256
9
$CELTSCALE
40
1
9
$CELTYPE
6
ByLayer
9
$CELWEIGHT
370
18
9
$CLAYER
8
0
9
$CMLJUST
70
0
9
$CMLSCALE
40
1
9
$CMLSTYLE
2
Standard
9
$DIMSTYLE
2
Standard
9
$TEXTSIZE
40
0.2
9
$TEXTSTYLE
7
Standard
9
$LUNITS
70
2
9
$LUPREC
70
4
9
$EXTNAMES
290
1
9
$INSUNITS
70
4
9
$LTSCALE
40
1
9
$LWDISPLAY
290
1
9
$PDMODE
70
0
9
$PDSIZE
40
0
9
$PLINEGEN
70
0
0
ENDSEC
0
SECTION
2
CLASSES
0
CLASS
1
RASTERVARIABLES
2
AcDbRasterVariables
3
ISM
90
0
280
0
281
0
0
ENDSEC
0
SECTION
2
TABLES
0
TABLE
2
VPORT
5
19b
100
AcDbSymbolTable
0
VPORT
5
1
100
AcDbSymbolTableRecord
100
AcDbViewportTableRecord
2
*Active
70
0
10
0
20
0
11
1
21
1
12
-1
22
1
13
0
23
0
14
0.5
24
0.5
15
10
25
10
16
0
26
0
36
1
17
0
27
0
37
0
0
ENDTAB
0
TABLE
2
LTYPE
5
19c
100
AcDbSymbolTable
0
LTYPE
5
14
100
AcDbSymbolTableRecord
100
AcDbLinetypeTableRecord
70
0
2
ByBlock
3

72
65
73
0
40
0
0
LTYPE
5
15
100
AcDbSymbolTableRecord
100
AcDbLinetypeTableRecord
70
0
2
ByLayer
3

72
65
73
0
40
0
0
LTYPE
5
16
100
AcDbSymbolTableRecord
100
AcDbLinetypeTableRecord
70
0
2
CONTINUOUS
3
Solid line
72
65
73
0
40
0
0
LTYPE
5
6A
100
AcDbSymbolTableRecord
100
AcDbLinetypeTableRecord
70
0
2
CENTER
3
____ _ ____ _ ____ _ ____
72
65
73
4
40
47.5
49
22
74
0
49
-8.5
74
0
49
8.5
74
0
49
-8.5
74
0
0
LTYPE
5
6B
100
AcDbSymbolTableRecord
100
AcDbLinetypeTableRecord
70
0
2
DASHED
3
__ __ __ __ __ __ __ __ __
72
65
73
2
40
25.72
49
12.86
74
0
49
-12.86
74
0
0
ENDTAB
0
TABLE
2
LAYER
5
19d
100
AcDbSymbolTable
0
LAYER
5
10
100
AcDbSymbolTableRecord
100
AcDbLayerTableRecord
2
0
70
0
62
7
6
CONTINUOUS
290
1
370
-3
390
0
0
LAYER
5
6D
100
AcDbSymbolTableRecord
100
AcDbLayerTableRecord
2
81
70
0
62
-3
6
CONTINUOUS
290
1
370
-3
390
0
0
LAYER
5
6F
100
AcDbSymbolTableRecord
100
AcDbLayerTableRecord
2
80
70
0
62
-6
6
CONTINUOUS
290
1
370
-3
390
0
0
LAYER
5
74
100
AcDbSymbolTableRecord
100
AcDbLayerTableRecord
2
2
70
0
62
7
6
CONTINUOUS
290
1
370
-3
390
0
0
LAYER
5
78
100
AcDbSymbolTableRecord
100
AcDbLayerTableRecord
2
1
70
0
62
4
6
CONTINUOUS
290
1
370
-3
390
0
0
LAYER
5
86
100
AcDbSymbolTableRecord
100
AcDbLayerTableRecord
2
4
70
0
62
-2
6
CENTER
290
1
370
-3
390
0
0
LAYER
5
187
100
AcDbSymbolTableRecord
100
AcDbLayerTableRecord
2
SK2
70
0
62
7
6
CONTINUOUS
290
1
370
-3
390
0
0
LAYER
5
188
100
AcDbSymbolTableRecord
100
AcDbLayerTableRecord
2
SK1
70
0
62
4
6
CONTINUOUS
290
1
370
-3
390
0
0
LAYER
5
189
100
AcDbSymbolTableRecord
100
AcDbLayerTableRecord
2
SK4
70
0
62
2
6
CENTER
290
1
370
-3
390
0
0
LAYER
5
18a
100
AcDbSymbolTableRecord
100
AcDbLayerTableRecord
2
SK6
70
0
62
5
6
CONTINUOUS
290
1
370
-3
390
0
0
ENDTAB
0
TABLE
2
STYLE
5
19e
100
AcDbSymbolTable
0
STYLE
5
11
100
AcDbSymbolTableRecord
100
AcDbTextStyleTableRecord
2
Standard
3
txt
70
0
71
0
40
0
41
1
42
0
50
0
0
STYLE
5
E3
100
AcDbSymbolTableRecord
100
AcDbTextStyleTableRecord
2
iso_b_vert
3
simplex.shx
70
0
71
0
40
0
41
1
42
0
50
0
0
STYLE
5
E4
100
AcDbSymbolTableRecord
100
AcDbTextStyleTableRecord
2
DWGDirectTextStyle
3
simplex
70
0
71
0
40
0
41
1
42
0
50
0
0
ENDTAB
0
TABLE
2
DIMSTYLE
5
19f
100
AcDbSymbolTable
100
AcDbDimStyleTable
0
DIMSTYLE
105
27
100
AcDbSymbolTableRecord
100
AcDbDimStyleTableRecord
2
Standard
70
0
3
<>
41
0.18
42
0.0625
44
0.18
140
0.18
147
0.09
73
0
74
0
77
1
271
2
275
0
278
52
280
0
340
11
0
ENDTAB
0
TABLE
2
VIEW
5
1a0
100
AcDbSymbolTable
0
ENDTAB
0
TABLE
2
UCS
5
1a1
100
AcDbSymbolTable
0
ENDTAB
0
TABLE
2
APPID
5
1a2
100
AcDbSymbolTable
0
APPID
5
12
100
AcDbSymbolTableRecord
100
AcDbRegAppTableRecord
2
ACAD
70
0
0
ENDTAB
0
TABLE
2
BLOCK_RECORD
5
1a3
100
AcDbSymbolTable
0
BLOCK_RECORD
5
1F
100
AcDbSymbolTableRecord
100
AcDbBlockTableRecord
2
*Model_Space
340
0
70
0
0
BLOCK_RECORD
5
1B
100
AcDbSymbolTableRecord
100
AcDbBlockTableRecord
2
*Paper_Space
340
0
70
0
0
BLOCK_RECORD
5
23
100
AcDbSymbolTableRecord
100
AcDbBlockTableRecord
2
*Paper_Space0
340
0
70
0
0
BLOCK_RECORD
5
E6
100
AcDbSymbolTableRecord
100
AcDbBlockTableRecord
2
DimnDraft3D1
340
0
70
0
0
BLOCK_RECORD
5
F0
100
AcDbSymbolTableRecord
100
AcDbBlockTableRecord
2
DimnDraft3D2
340
0
70
0
0
BLOCK_RECORD
5
FA
100
AcDbSymbolTableRecord
100
AcDbBlockTableRecord
2
DimnDraft3D3
340
0
70
0
0
BLOCK_RECORD
5
104
100
AcDbSymbolTableRecord
100
AcDbBlockTableRecord
2
DimnDraft3D4
340
0
70
0
0
BLOCK_RECORD
5
10E
100
AcDbSymbolTableRecord
100
AcDbBlockTableRecord
2
DimnDraft3D5
340
0
70
0
0
BLOCK_RECORD
5
118
100
AcDbSymbolTableRecord
100
AcDbBlockTableRecord
2
DimnDraft3D6
340
0
70
0
0
BLOCK_RECORD
5
123
100
AcDbSymbolTableRecord
100
AcDbBlockTableRecord
2
DimnDraft3D7
340
0
70
0
0
ENDTAB
0
ENDSEC
0
SECTION
2
BLOCKS
0
BLOCK
5
20
100
AcDbEntity
8
0
100
AcDbBlockBegin
2
*Model_Space
70
0
10
0
20
0
30
0
3
*Model_Space
0
ENDBLK
5
21
100
AcDbEntity
8
0
100
AcDbBlockEnd
0
BLOCK
5
1C
100
AcDbEntity
8
0
100
AcDbBlockBegin
2
*Paper_Space
70
0
10
0
20
0
30
0
3
*Paper_Space
0
ENDBLK
5
1D
100
AcDbEntity
8
0
100
AcDbBlockEnd
0
BLOCK
5
24
100
AcDbEntity
8
0
100
AcDbBlockBegin
2
*Paper_Space0
70
0
10
0
20
0
30
0
3
*Paper_Space0
0
ENDBLK
5
25
100
AcDbEntity
8
0
100
AcDbBlockEnd
0
BLOCK
5
ED
100
AcDbEntity
8
0
100
AcDbBlockBegin
2
DimnDraft3D1
70
0
10
0
20
0
30
0
3
DimnDraft3D1
0
MTEXT
5
E7
100
AcDbEntity
8
SK2
62
256
6
ByLayer
370
13
48
1
60
0
100
AcDbMText
10
25.272954
20
-17.088398
30
0
210
0
220
0
230
1
1
\W0.7756;64,34
40
3.5
41
0
44
1.084337
50
0
71
7
72
5
7
iso_b_vert
0
LINE
5
E8
100
AcDbEntity
8
SK2
62
256
6
ByLayer
370
13
48
1
60
0
100
AcDbLine
10
0
20
-1.5875
30
0
11
0
21
-19.963398
31
0
39
0
210
0
220
0
230
1
0
LINE
5
E9
100
AcDbEntity
8
SK2
62
256
6
ByLayer
370
13
48
1
60
0
100
AcDbLine
10
64.34
20
-9.3375
30
0
11
64.34
21
-19.963398
31
0
39
0
210
0
220
0
230
1
0
LINE
5
EA
100
AcDbEntity
8
SK2
62
256
6
ByLayer
370
13
48
1
60
0
100
AcDbLine
10
0
20
-17.963398
30
0
11
64.34
21
-17.963398
31
0
39
0
210
0
220
0
230
1
0
SOLID
5
EB
100
AcDbEntity
8
SK2
62
256
6
ByLayer
370
13
48
1
60
0
100
AcDbTrace
10
0
20
-17.963398
30
0
11
3.499998
21
-17.502615
31
0
12
3.500002
22
-18.424182
32
0
13
0
23
-17.963398
33
0
39
0
210
0
220
0
230
1
0
SOLID
5
EC
100
AcDbEntity
8
SK2
62
256
6
ByLayer
370
13
48
1
60
0
100
AcDbTrace
10
64.34
20
-17.963398
30
0
11
60.840002
21
-18.424182
31
0
12
60.839998
22
-17.502615
32
0
13
64.34
23
-17.963398
33
0
39
0
210
0
220
0
230
1
0
ENDBLK
5
EE
100
AcDbEntity
8
0
100
AcDbBlockEnd
0
BLOCK
5
F7
100
AcDbEntity
8
0
100
AcDbBlockBegin
2
DimnDraft3D2
70
0
10
0
20
0
30
0
3
DimnDraft3D2
0
MTEXT
5
F1
100
AcDbEntity
8
SK2
62
256
6
ByLayer
370
13
48
1
60
0
100
AcDbMText
10
3.299721
20
-35.817985
30
0
210
0
220
0
230
1
1
\W0.6440;115,00
40
3.5
41
0
44
1.084337
50
0
71
7
72
5
7
iso_b_vert
0
LINE
5
F2
100
AcDbEntity
8
SK2
62
256
6
ByLayer
370
13
48
1
60
0
100
AcDbLine
10
-48
20
-9.5875
30
0
11
-48
21
-38.692985
31
0
39
0
210
0
220
0
230
1
0
LINE
5
F3
100
AcDbEntity
8
SK2
62
256
6
ByLayer
370
13
48
1
60
0
100
AcDbLine
10
67
20
-1.5875
30
0
11
67
21
-38.692985
31
0
39
0
210
0
220
0
230
1
0
LINE
5
F4
100
AcDbEntity
8
SK2
62
256
6
ByLayer
370
13
48
1
60
0
100
AcDbLine
10
-48
20
-36.692985
30
0
11
67
21
-36.692985
31
0
39
0
210
0
220
0
230
1
0
SOLID
5
F5
100
AcDbEntity
8
SK2
62
256
6
ByLayer
370
13
48
1
60
0
100
AcDbTrace
10
-48
20
-36.692985
30
0
11
-44.500002
21
-36.232202
31
0
12
-44.499998
22
-37.153769
32
0
13
-48
23
-36.692985
33
0
39
0
210
0
220
0
230
1
0
SOLID
5
F6
100
AcDbEntity
8
SK2
62
256
6
ByLayer
370
13
48
1
60
0
100
AcDbTrace
10
67
20
-36.692985
30
0
11
63.500002
21
-37.153769
31
0
12
63.499998
22
-36.232202
32
0
13
67
23
-36.692985
33
0
39
0
210
0
220
0
230
1
0
ENDBLK
5
F8
100
AcDbEntity
8
0
100
AcDbBlockEnd
0
BLOCK
5
101
100
AcDbEntity
8
0
100
AcDbBlockBegin
2
DimnDraft3D3
70
0
10
0
20
0
30
0
3
DimnDraft3D3
0
MTEXT
5
FB
100
AcDbEntity
8
SK2
62
256
6
ByLayer
370
13
48
1
60
0
100
AcDbMText
10
38.224605
20
20.234119
30
0
210
0
220
0
230
1
1
\W0.6977;49,16
40
3.5
41
0
44
1.084337
50
0
71
7
72
5
7
iso_b_vert
0
LINE
5
FC
100
AcDbEntity
8
SK2
62
256
6
ByLayer
370
13
48
1
60
0
100
AcDbLine
10
17.84
20
9.3375
30
0
11
17.84
21
21.359119
31
0
39
0
210
0
220
0
230
1
0
LINE
5
FD
100
AcDbEntity
8
SK2
62
256
6
ByLayer
370
13
48
1
60
0
100
AcDbLine
10
67
20
1.5875
30
0
11
67
21
21.359119
31
0
39
0
210
0
220
0
230
1
0
LINE
5
FE
100
AcDbEntity
8
SK2
62
256
6
ByLayer
370
13
48
1
60
0
100
AcDbLine
10
17.84
20
19.359119
30
0
11
67
21
19.359119
31
0
39
0
210
0
220
0
230
1
0
SOLID
5
FF
100
AcDbEntity
8
SK2
62
256
6
ByLayer
370
13
48
1
60
0
100
AcDbTrace
10
17.84
20
19.359119
30
0
11
21.339998
21
19.819903
31
0
12
21.340002
22
18.898335
32
0
13
17.84
23
19.359119
33
0
39
0
210
0
220
0
230
1
0
SOLID
5
100
100
AcDbEntity
8
SK2
62
256
6
ByLayer
370
13
48
1
60
0
100
AcDbTrace
10
67
20
19.359119
30
0
11
63.500002
21
18.898335
31
0
12
63.499998
22
19.819903
32
0
13
67
23
19.359119
33
0
39
0
210
0
220
0
230
1
0
ENDBLK
5
102
100
AcDbEntity
8
0
100
AcDbBlockEnd
0
BLOCK
5
10B
100
AcDbEntity
8
0
100
AcDbBlockBegin
2
DimnDraft3D4
70
0
10
0
20
0
30
0
3
DimnDraft3D4
0
MTEXT
5
105
100
AcDbEntity
8
SK2
62
256
6
ByLayer
370
13
48
1
60
0
100
AcDbMText
10
73.840636
20
-19.677503
30
0
210
0
220
0
230
1
1
\W0.7150;2,66
40
3.5
41
0
44
1.084337
50
0
71
7
72
5
7
iso_b_vert
0
LINE
5
106
100
AcDbEntity
8
SK2
62
256
6
ByLayer
370
13
48
1
60
0
100
AcDbLine
10
67
20
-1.5875
30
0
11
67
21
-22.552503
31
0
39
0
210
0
220
0
230
1
0
LINE
5
107
100
AcDbEntity
8
SK2
62
256
6
ByLayer
370
13
48
1
60
0
100
AcDbLine
10
64.34
20
-9.3375
30
0
11
64.34
21
-22.552503
31
0
39
0
210
0
220
0
230
1
0
LINE
5
108
100
AcDbEntity
8
SK2
62
256
6
ByLayer
370
13
48
1
60
0
100
AcDbLine
10
55.59
20
-20.552503
30
0
11
80.997215
21
-20.552503
31
0
39
0
210
0
220
0
230
1
0
SOLID
5
109
100
AcDbEntity
8
SK2
62
256
6
ByLayer
370
13
48
1
60
0
100
AcDbTrace
10
67
20
-20.552503
30
0
11
70.499998
21
-20.091719
31
0
12
70.500002
22
-21.013287
32
0
13
67
23
-20.552503
33
0
39
0
210
0
220
0
230
1
0
SOLID
5
10A
100
AcDbEntity
8
SK2
62
256
6
ByLayer
370
13
48
1
60
0
100
AcDbTrace
10
64.34
20
-20.552503
30
0
11
60.840002
21
-21.013287
31
0
12
60.839998
22
-20.091719
32
0
13
64.34
23
-20.552503
33
0
39
0
210
0
220
0
230
1
0
ENDBLK
5
10C
100
AcDbEntity
8
0
100
AcDbBlockEnd
0
BLOCK
5
115
100
AcDbEntity
8
0
100
AcDbBlockBegin
2
DimnDraft3D5
70
0
10
0
20
0
30
0
3
DimnDraft3D5
0
MTEXT
5
10F
100
AcDbEntity
8
SK2
62
256
6
ByLayer
370
13
48
1
60
0
100
AcDbMText
10
0.034887
20
-25.468428
30
0
210
0
220
0
230
1
1
\W0.6593;112,34
40
3.5
41
0
44
1.084337
50
0
71
7
72
5
7
iso_b_vert
0
LINE
5
110
100
AcDbEntity
8
SK2
62
256
6
ByLayer
370
13
48
1
60
0
100
AcDbLine
10
-48
20
-9.5875
30
0
11
-48
21
-28.343428
31
0
39
0
210
0
220
0
230
1
0
LINE
5
111
100
AcDbEntity
8
SK2
62
256
6
ByLayer
370
13
48
1
60
0
100
AcDbLine
10
64.34
20
-9.3375
30
0
11
64.34
21
-28.343428
31
0
39
0
210
0
220
0
230
1
0
LINE
5
112
100
AcDbEntity
8
SK2
62
256
6
ByLayer
370
13
48
1
60
0
100
AcDbLine
10
-48
20
-26.343428
30
0
11
64.34
21
-26.343428
31
0
39
0
210
0
220
0
230
1
0
SOLID
5
113
100
AcDbEntity
8
SK2
62
256
6
ByLayer
370
13
48
1
60
0
100
AcDbTrace
10
-48
20
-26.343428
30
0
11
-44.500002
21
-25.882645
31
0
12
-44.499998
22
-26.804212
32
0
13
-48
23
-26.343428
33
0
39
0
210
0
220
0
230
1
0
SOLID
5
114
100
AcDbEntity
8
SK2
62
256
6
ByLayer
370
13
48
1
60
0
100
AcDbTrace
10
64.34
20
-26.343428
30
0
11
60.840002
21
-26.804212
31
0
12
60.839998
22
-25.882645
32
0
13
64.34
23
-26.343428
33
0
39
0
210
0
220
0
230
1
0
ENDBLK
5
116
100
AcDbEntity
8
0
100
AcDbBlockEnd
0
BLOCK
5
120
100
AcDbEntity
8
0
100
AcDbBlockBegin
2
DimnDraft3D6
70
0
10
0
20
0
30
0
3
DimnDraft3D6
0
MTEXT
5
119
100
AcDbEntity
8
SK2
62
256
6
ByLayer
370
13
48
1
60
0
100
AcDbMText
10
-58.375163
20
27.34918
30
0
210
0
220
0
230
1
1
\W0.6930;16,000
40
3.5
41
0
44
1.084337
50
90
71
7
72
5
7
iso_b_vert
0
MTEXT
5
11A
100
AcDbEntity
8
SK2
62
256
6
ByLayer
370
13
48
1
60
0
100
AcDbMText
10
-58.375163
20
22.126524
30
0
210
0
220
0
230
1
1
%%c
40
3.5
41
0
44
1.084337
50
90
71
7
72
5
7
iso_b_vert
0
LINE
5
11B
100
AcDbEntity
8
SK2
62
256
6
ByLayer
370
13
48
1
60
0
100
AcDbLine
10
-49.5875
20
-8
30
0
11
-58.625163
21
-8
31
0
39
0
210
0
220
0
230
1
0
LINE
5
11C
100
AcDbEntity
8
SK2
62
256
6
ByLayer
370
13
48
1
60
0
100
AcDbLine
10
-49.5875
20
8
30
0
11
-58.625163
21
8
31
0
39
0
210
0
220
0
230
1
0
LINE
5
11D
100
AcDbEntity
8
SK2
62
256
6
ByLayer
370
13
48
1
60
0
100
AcDbLine
10
-56.625163
20
-8
30
0
11
-56.625163
21
38.862338
31
0
39
0
210
0
220
0
230
1
0
SOLID
5
11E
100
AcDbEntity
8
SK2
62
256
6
ByLayer
370
13
48
1
60
0
100
AcDbTrace
10
-56.625163
20
-8
30
0
11
-57.085946
21
-4.500002
31
0
12
-56.164379
22
-4.499998
32
0
13
-56.625163
23
-8
33
0
39
0
210
0
220
0
230
1
0
SOLID
5
11F
100
AcDbEntity
8
SK2
62
256
6
ByLayer
370
13
48
1
60
0
100
AcDbTrace
10
-56.625163
20
8
30
0
11
-56.164379
21
4.500002
31
0
12
-57.085946
22
4.499998
32
0
13
-56.625163
23
8
33
0
39
0
210
0
220
0
230
1
0
ENDBLK
5
121
100
AcDbEntity
8
0
100
AcDbBlockEnd
0
BLOCK
5
12B
100
AcDbEntity
8
0
100
AcDbBlockBegin
2
DimnDraft3D7
70
0
10
0
20
0
30
0
3
DimnDraft3D7
0
MTEXT
5
124
100
AcDbEntity
8
2
62
256
6
ByLayer
370
13
48
1
60
0
100
AcDbMText
10
77.333343
20
25.692266
30
0
210
0
220
0
230
1
1
\W0.6930;15,500
40
3.5
41
0
44
1.084337
50
90
71
7
72
5
7
iso_b_vert
0
MTEXT
5
125
100
AcDbEntity
8
2
62
256
6
ByLayer
370
13
48
1
60
0
100
AcDbMText
10
77.333343
20
20.46961
30
0
210
0
220
0
230
1
1
%%c
40
3.5
41
0
44
1.084337
50
90
71
7
72
5
7
iso_b_vert
0
LINE
5
126
100
AcDbEntity
8
2
62
256
6
ByLayer
370
13
48
1
60
0
100
AcDbLine
10
65.9275
20
-7.75
30
0
11
81.083343
21
-7.75
31
0
39
0
210
0
220
0
230
1
0
LINE
5
127
100
AcDbEntity
8
2
62
256
6
ByLayer
370
13
48
1
60
0
100
AcDbLine
10
65.9275
20
7.75
30
0
11
81.083343
21
7.75
31
0
39
0
210
0
220
0
230
1
0
LINE
5
128
100
AcDbEntity
8
2
62
256
6
ByLayer
370
13
48
1
60
0
100
AcDbLine
10
79.083343
20
-7.75
30
0
11
79.083343
21
37.205424
31
0
39
0
210
0
220
0
230
1
0
SOLID
5
129
100
AcDbEntity
8
2
62
256
6
ByLayer
370
13
48
1
60
0
100
AcDbTrace
10
79.083343
20
-7.75
30
0
11
78.622559
21
-4.250002
31
0
12
79.544126
22
-4.249998
32
0
13
79.083343
23
-7.75
33
0
39
0
210
0
220
0
230
1
0
SOLID
5
12A
100
AcDbEntity
8
2
62
256
6
ByLayer
370
13
48
1
60
0
100
AcDbTrace
10
79.083343
20
7.75
30
0
11
79.544126
21
4.250002
31
0
12
78.622559
22
4.249998
32
0
13
79.083343
23
7.75
33
0
39
0
210
0
220
0
230
1
0
ENDBLK
5
12C
100
AcDbEntity
8
0
100
AcDbBlockEnd
0
ENDSEC
0
SECTION
2
ENTITIES
0
ARC
5
9C
100
AcDbEntity
8
1
62
256
6
ByLayer
370
18
48
1
60
0
100
AcDbCircle
39
0
10
0
20
7.2
30
0
40
0.800000000000003
210
0
220
0
230
1
100
AcDbArc
50
55.079705
51
90
0
ARC
5
9D
100
AcDbEntity
8
1
62
256
6
ByLayer
370
18
48
1
60
0
100
AcDbCircle
39
0
10
0
20
-7.2
30
0
40
0.800000000000003
210
0
220
0
230
1
100
AcDbArc
50
270
51
304.920295
0
ARC
5
9E
100
AcDbEntity
8
1
62
256
6
ByLayer
370
18
48
1
60
0
100
AcDbCircle
39
0
10
-0.915898
20
8.511919
30
0
40
0.799999999999998
210
0
220
0
230
-1
100
AcDbArc
50
269.965623
51
304.920295
0
ARC
5
9F
100
AcDbEntity
8
1
62
256
6
ByLayer
370
18
48
1
60
0
100
AcDbCircle
39
0
10
-0.915898
20
-8.511919
30
0
40
0.799999999999998
210
0
220
0
230
-1
100
AcDbArc
50
55.079705
51
90.034377
0
ELLIPSE
5
A0
100
AcDbEntity
8
1
62
256
6
ByLayer
370
18
48
1
60
0
100
AcDbEllipse
10
67.000656
20
-0.001693
30
0
11
2.84179328451228
21
-7.74805398222414
31
0
210
0
220
0
230
-1
40
0.082138
41
-2.99615799548685
42
-2.90674110177443
0
ELLIPSE
5
A1
100
AcDbEntity
8
1
62
256
6
ByLayer
370
18
48
1
60
0
100
AcDbEllipse
10
66.859559
20
0.149831
30
0
11
0.086880372456413
21
0.290676908825523
31
0
210
0
220
0
230
-1
40
0.467765
41
1.69559195541578
42
2.36053717389135
0
ELLIPSE
5
A2
100
AcDbEntity
8
1
62
256
6
ByLayer
370
18
48
1
60
0
100
AcDbEllipse
10
65.59679
20
-3.573884
30
0
11
1.19331155145077
21
3.25352389330458
31
0
210
0
220
0
230
-1
40
0.082138
41
0.755280950346224
42
1.59605569580014
0
ELLIPSE
5
A3
100
AcDbEntity
8
1
62
256
6
ByLayer
370
13
48
1
60
0
100
AcDbEllipse
10
66.113909
20
3.573884
30
0
11
5.08796048209786
21
-2.27801117969686
31
0
210
0
220
0
230
-1
40
0.456964
41
1.58100725929131
42
1.92615804007154
0
ELLIPSE
5
A4
100
AcDbEntity
8
1
62
256
6
ByLayer
370
13
48
1
60
0
100
AcDbEllipse
10
4.250128
20
-2.05932
30
0
11
0.0477166916842756
21
0.0878812683949645
31
0
210
0
220
0
230
1
40
0.134667
41
1.32594928808852
42
2.88692883827662
0
ELLIPSE
5
A5
100
AcDbEntity
8
1
62
256
6
ByLayer
370
18
48
1
60
0
100
AcDbEllipse
10
65.59679
20
3.573884
30
0
11
1.19331155145892
21
-3.25352389332298
31
0
210
0
220
0
230
-1
40
0.082138
41
-1.596055695795
42
-0.755280950345085
0
ELLIPSE
5
A6
100
AcDbEntity
8
1
62
256
6
ByLayer
370
18
48
1
60
0
100
AcDbEllipse
10
67.012897
20
-0.073909
30
0
11
0.135658546021223
21
0.401200806198849
31
0
210
0
220
0
230
-1
40
0.065863
41
-2.32292776270906
42
-1.59160957947227
0
ELLIPSE
5
A7
100
AcDbEntity
8
1
62
256
6
ByLayer
370
18
48
1
60
0
100
AcDbEllipse
10
67.012897
20
0.073909
30
0
11
0.135658546067108
21
-0.401200806316796
31
0
210
0
220
0
230
-1
40
0.065863
41
1.59160957968361
42
2.3229277627266
0
ELLIPSE
5
A8
100
AcDbEntity
8
1
62
256
6
ByLayer
370
13
48
1
60
0
100
AcDbEllipse
10
4.176115
20
-2.024593
30
0
11
-0.0359950448232886
21
-0.0932971422293815
31
0
210
0
220
0
230
1
40
0.544618
41
-1.61275446383774
42
-0.296147237683165
0
ELLIPSE
5
A9
100
AcDbEntity
8
1
62
256
6
ByLayer
370
18
48
1
60
0
100
AcDbEllipse
10
67.000656
20
0.001693
30
0
11
2.84179335970018
21
7.74805419763798
31
0
210
0
220
0
230
-1
40
0.082138
41
2.90674110505215
42
2.99615799750574
0
ELLIPSE
5
AA
100
AcDbEntity
8
1
62
256
6
ByLayer
370
13
48
1
60
0
100
AcDbEllipse
10
65.944451
20
3.439592
30
0
11
5.04037690993392
21
-2.59120396102705
31
0
210
0
220
0
230
-1
40
0.482873
41
1.53949524921104
42
1.88350554541174
0
ELLIPSE
5
AB
100
AcDbEntity
8
1
62
256
6
ByLayer
370
13
48
1
60
0
100
AcDbEllipse
10
65.021043
20
1.060119
30
0
11
0.133113781883896
21
0.268850741253519
31
0
210
0
220
0
230
1
40
0.40558
41
0.884485917130899
42
2.28074931872642
0
POINT
5
6C
100
AcDbEntity
8
81
62
256
6
ByLayer
370
18
48
1
60
0
100
AcDbPoint
10
67
20
0
30
0
39
0
210
0
220
0
230
1
50
360
0
POINT
5
6E
100
AcDbEntity
8
80
62
256
6
ByLayer
370
18
48
1
60
0
100
AcDbPoint
10
0
20
0
30
0
39
0
210
0
220
0
230
1
50
360
0
POINT
5
70
100
AcDbEntity
8
SK2
62
256
6
ByLayer
370
18
48
1
60
1
100
AcDbPoint
10
-48
20
-8
30
0
39
0
210
0
220
0
230
1
50
360
0
POINT
5
72
100
AcDbEntity
8
SK2
62
256
6
ByLayer
370
18
48
1
60
1
100
AcDbPoint
10
-48
20
8
30
0
39
0
210
0
220
0
230
1
50
360
0
POINT
5
73
100
AcDbEntity
8
2
62
256
6
ByLayer
370
18
48
1
60
1
100
AcDbPoint
10
64.34
20
-7.75
30
0
39
0
210
0
220
0
230
1
50
360
0
POINT
5
75
100
AcDbEntity
8
2
62
256
6
ByLayer
370
18
48
1
60
1
100
AcDbPoint
10
64.34
20
7.75
30
0
39
0
210
0
220
0
230
1
50
360
0
SPLINE
5
AC
100
AcDbEntity
8
1
62
256
6
ByLayer
370
18
48
1
60
0
100
AcDbSpline
70
4
71
2
72
6
73
3
40
0
40
0
40
0
40
1
40
1
40
1
41
1
10
41.9548187845196
20
-0.0009626061864765
30
0
41
1
10
41.9548098250371
20
-0.0009577097717113
30
0
41
1
10
41.9548008655047
20
-0.00095265628795
30
0
0
SPLINE
5
AD
100
AcDbEntity
8
1
62
256
6
ByLayer
370
18
48
1
60
0
100
AcDbSpline
70
4
71
3
72
37
73
33
40
0
40
0
40
0
40
0
40
0.0049935801562193
40
0.0706537072254164
40
0.122363173456696
40
0.162808009996211
40
0.20281144175338
40
0.248311703266071
40
0.293966786096841
40
0.334260127001367
40
0.381973435796902
40
0.430340112719133
40
0.447079993569944
40
0.462727669301211
40
0.480247474962318
40
0.501078676000708
40
0.522545235041423
40
0.537156268149954
40
0.55251223908449
40
0.574234849029611
40
0.602332177447063
40
0.63096330878298
40
0.67256373433509
40
0.710563530165633
40
0.753747679365805
40
0.795073729493416
40
0.835884826895004
40
0.871554710725228
40
0.911330369445967
40
0.9476937635161
40
0.979142695924887
40
1
40
1
40
1
40
1
41
1
10
43.4025584752762
20
7.39424066406619
30
0
41
1
10
43.3718199005446
20
7.39433347506562
30
0
41
1
10
42.9372384622683
20
7.39562573360871
30
0
41
1
10
42.2149292950518
20
7.40075292175379
30
0
41
1
10
41.2500307623305
20
7.39842519292162
30
0
41
1
10
40.4356980561399
20
7.39795632894945
30
0
41
1
10
39.6623938797158
20
7.39821388419969
30
0
41
1
10
38.8553190731878
20
7.39902957068432
30
0
41
1
10
38.0467866453504
20
7.39861027573346
30
0
41
1
10
37.2245092280014
20
7.39892886467681
30
0
41
1
10
36.3857696623475
20
7.39472195959203
30
0
41
1
10
35.6912803817393
20
7.39507762876204
30
0
41
1
10
35.1962801611625
20
7.39523660387792
30
0
41
1
10
34.8937478928969
20
7.39493599885373
30
0
41
1
10
34.5603822226324
20
7.39518085273195
30
0
41
1
10
34.1935384158348
20
7.39627620364007
30
0
41
1
10
33.8482553507351
20
7.39721963090838
30
0
41
1
10
33.5330279011113
20
7.39670259026997
30
0
41
1
10
33.2147569196976
20
7.395565260544
30
0
41
1
10
32.8139512981537
20
7.39419722953966
30
0
41
1
10
32.3313132871219
20
7.39397559941736
30
0
41
1
10
31.7264562556599
20
7.39418656474464
30
0
41
1
10
31.0606599095271
20
7.39443984199747
30
0
41
1
10
30.305353327652
20
7.39520563561331
30
0
41
1
10
29.5517283954561
20
7.39310662761906
30
0
41
1
10
28.7808144900553
20
7.3918846271763
30
0
41
1
10
28.0562909679307
20
7.39232935153325
30
0
41
1
10
27.3410707087785
20
7.39262248877412
30
0
41
1
10
26.6533841680815
20
7.39279338803487
30
0
41
1
10
25.9915452670713
20
7.3919063668458
30
0
41
1
10
25.4461273850984
20
7.39104588858783
30
0
41
1
10
25.1243546328017
20
7.39091129614437
30
0
41
1
10
24.9960489235818
20
7.39087324276062
30
0
0
SPLINE
5
AE
100
AcDbEntity
8
1
62
256
6
ByLayer
370
18
48
1
60
0
100
AcDbSpline
70
4
71
2
72
6
73
3
40
0
40
0
40
0
40
1
40
1
40
1
41
1
10
62.9533121308312
20
-7.41427208795818
30
0
41
1
10
63.6128165418068
20
-7.41303358789148
30
0
41
1
10
64.2702791756563
20
-7.41593386905936
30
0
0
SPLINE
5
AF
100
AcDbEntity
8
1
62
256
6
ByLayer
370
18
48
1
60
0
100
AcDbSpline
70
4
71
3
72
10
73
6
40
0
40
0
40
0
40
0
40
0.170021143021918
40
0.38197019135379
40
1
40
1
40
1
40
1
41
1
10
43.5779799873729
20
-1.57361173469008
30
0
41
1
10
43.5776482235401
20
-1.57349815037011
30
0
41
1
10
43.5827553826395
20
-1.57634074656278
30
0
41
1
10
43.6338819928595
20
-1.60441836560938
30
0
41
1
10
43.6956508848686
20
-1.63935178406581
30
0
41
1
10
43.7578661595474
20
-1.67469860968043
30
0
0
SPLINE
5
B0
100
AcDbEntity
8
1
62
256
6
ByLayer
370
18
48
1
60
0
100
AcDbSpline
70
4
71
3
72
39
73
35
40
0
40
0
40
0
40
0
40
0.0150620256760909
40
0.0320649841939177
40
0.0486871675178553
40
0.0780165427580946
40
0.105662986237443
40
0.131094489160252
40
0.158251899251796
40
0.183147235713027
40
0.22980326460571
40
0.280849180331491
40
0.31573275675675
40
0.356936860138634
40
0.400444171638622
40
0.443665752027986
40
0.486078371095544
40
0.523400335639186
40
0.566529341468373
40
0.618832818109115
40
0.666305331995163
40
0.693787571741434
40
0.721042132750052
40
0.755225987072549
40
0.797565504397652
40
0.827713710121164
40
0.857517839459004
40
0.88118628269311
40
0.89818060285208
40
0.914499357669362
40
0.933291678667865
40
0.958916547488443
40
0.991020203347617
40
1
40
1
40
1
40
1
41
1
10
21.2936907022127
20
-7.38868882090793
30
0
41
1
10
21.3834837939709
20
-7.38816277281495
30
0
41
1
10
21.5838604569927
20
-7.38689092928433
30
0
41
1
10
21.9242531108658
20
-7.38194743363107
30
0
41
1
10
22.3885894298284
20
-7.38133611534101
30
0
41
1
10
22.9039368045885
20
-7.3885720128761
30
0
41
1
10
23.4901613695184
20
-7.39030727582212
30
0
41
1
10
24.0656294718198
20
-7.3906234722059
30
0
41
1
10
24.6301876748871
20
-7.39042057736671
30
0
41
1
10
25.346887768714
20
-7.39096439395428
30
0
41
1
10
26.2393261784066
20
-7.39259305867444
30
0
41
1
10
27.2041551694602
20
-7.39275209657654
30
0
41
1
10
28.1293936482522
20
-7.39234759783218
30
0
41
1
10
28.9997292841952
20
-7.39157510316198
30
0
41
1
10
29.9307800635873
20
-7.39505527729256
30
0
41
1
10
30.8706125046938
20
-7.39457764907624
30
0
41
1
10
31.765444828567
20
-7.3942875468785
30
0
41
1
10
32.6595734893567
20
-7.39337816654771
30
0
41
1
10
33.6257501567705
20
-7.39797045684969
30
0
41
1
10
34.6655586527384
20
-7.39578349090885
30
0
41
1
10
35.5916897812699
20
-7.39504868533589
30
0
41
1
10
36.335433088583
20
-7.39508133076185
30
0
41
1
10
36.9825718630421
20
-7.39757263356881
30
0
41
1
10
37.7378248141419
20
-7.39913085270442
30
0
41
1
10
38.5141282074107
20
-7.39881899999821
30
0
41
1
10
39.2586027197748
20
-7.39869540914424
30
0
41
1
10
39.867029040049
20
-7.39809892698472
30
0
41
1
10
40.3801042675889
20
-7.39818511525013
30
0
41
1
10
40.7933538959617
20
-7.39821666805102
30
0
41
1
10
41.1731215196425
20
-7.39845114843462
30
0
41
1
10
41.6138530950432
20
-7.39927199936756
30
0
41
1
10
42.1586482175959
20
-7.39883658142193
30
0
41
1
10
42.6458463347998
20
-7.40103241717134
30
0
41
1
10
42.944403703217
20
-7.40106419834547
30
0
41
1
10
43.009733377521
20
-7.40105938506358
30
0
0
SPLINE
5
B1
100
AcDbEntity
8
1
62
256
6
ByLayer
370
18
48
1
60
0
100
AcDbSpline
70
4
71
3
72
20
73
16
40
0
40
0
40
0
40
0
40
0.25
40
0.25
40
0.375
40
0.375
40
0.5
40
0.5
40
0.625
40
0.625
40
0.75
40
0.75
40
0.875
40
0.875
40
1
40
1
40
1
40
1
41
1
10
65.8338051836863
20
-3.75404250573663
30
0
41
1
10
65.7135514449496
20
-4.07555417488328
30
0
41
1
10
65.5932135225544
20
-4.39687179990318
30
0
41
1
10
65.4125220119726
20
-4.87824310381401
30
0
41
1
10
65.3522606758303
20
-5.03858295262015
30
0
41
1
10
65.2316363666125
20
-5.35887613795578
30
0
41
1
10
65.1712679413866
20
-5.51881084747768
30
0
41
1
10
65.0505365305537
20
-5.83869148231099
30
0
41
1
10
64.9901613366094
20
-5.9985845717132
30
0
41
1
10
64.8693473417127
20
-6.31805415423122
30
0
41
1
10
64.8089062115099
20
-6.47766545587552
30
0
41
1
10
64.6878858567759
20
-6.79597938513189
30
0
41
1
10
64.6273290041853
20
-6.9548095894236
30
0
41
1
10
64.5062027464232
20
-7.27219487592538
30
0
41
1
10
64.445620293219
20
-7.43060892897597
30
0
41
1
10
64.3849658587405
20
-7.58798525990753
30
0
0
SPLINE
5
B2
100
AcDbEntity
8
1
62
256
6
ByLayer
370
18
48
1
60
0
100
AcDbSpline
70
4
71
3
72
42
73
38
40
0
40
0
40
0
40
0
40
0.250000000000002
40
0.250000000000002
40
0.375000000000003
40
0.375000000000003
40
0.437500000000003
40
0.437500000000003
40
0.500000000000003
40
0.500000000000003
40
0.625000000000004
40
0.625000000000004
40
0.687500000000002
40
0.687500000000002
40
0.750000000000001
40
0.750000000000001
40
0.781250000000002
40
0.781250000000002
40
0.812500000000003
40
0.812500000000003
40
0.843750000000004
40
0.843750000000004
40
0.875000000000005
40
0.875000000000005
40
0.890625000000004
40
0.890625000000004
40
0.906250000000004
40
0.906250000000004
40
0.921875000000003
40
0.921875000000003
40
0.937500000000002
40
0.937500000000002
40
0.953125000000002
40
0.953125000000002
40
0.968750000000001
40
0.968750000000001
40
1
40
1
40
1
40
1
41
1
10
56.24448635493
20
3.8998851129042
30
0
41
1
10
56.8578128816339
20
3.38390154175298
30
0
41
1
10
57.4875493211099
20
2.9143216733585
30
0
41
1
10
58.4611928139544
20
2.29206744462164
30
0
41
1
10
58.790565092929
20
2.09829186942349
30
0
41
1
10
59.2927330006863
20
1.83056039761186
30
0
41
1
10
59.461879116144
20
1.74496238645707
30
0
41
1
10
59.8011548084903
20
1.58298266684869
30
0
41
1
10
59.970827765514
20
1.50679528499793
30
0
41
1
10
60.4799570390461
20
1.29333403773884
30
0
41
1
10
60.8195229186786
20
1.17104626582312
30
0
41
1
10
61.3291268602562
20
1.02251032760762
30
0
41
1
10
61.4992469214559
20
0.97879281985135
30
0
41
1
10
61.8368949564525
20
0.904798565868703
30
0
41
1
10
62.0047657195853
20
0.87441007591076
30
0
41
1
10
62.2547201283079
20
0.839869671112581
30
0
41
1
10
62.3374102760873
20
0.831371500977411
30
0
41
1
10
62.499646557137
20
0.825796994924076
30
0
41
1
10
62.57893856795
20
0.828641712918284
30
0
41
1
10
62.7320815638656
20
0.848430605625794
30
0
41
1
10
62.8057393081127
20
0.865369925506457
30
0
41
1
10
62.9424653472423
20
0.915115868158296
30
0
41
1
10
63.0061763568238
20
0.947714251043749
30
0
41
1
10
63.0913038421191
20
1.0139475138574
30
0
41
1
10
63.1177217410899
20
1.03890984763902
30
0
41
1
10
63.1643365060283
20
1.09404529357175
30
0
41
1
10
63.1847102881371
20
1.12443816842079
30
0
41
1
10
63.2194849261803
20
1.19097603891032
30
0
41
1
10
63.2338781216452
20
1.22729679159997
30
0
41
1
10
63.2558735982053
20
1.30302903578021
30
0
41
1
10
63.2636606714458
20
1.34271051203891
30
0
41
1
10
63.2733159564565
20
1.42542007023215
30
0
41
1
10
63.2751463724233
20
1.46875684796933
30
0
41
1
10
63.273328513735
20
1.55638415528091
30
0
41
1
10
63.2697458307597
20
1.60080965162899
30
0
41
1
10
63.2521664961663
20
1.73564936331482
30
0
41
1
10
63.2309774086455
20
1.82829738344057
30
0
41
1
10
63.2032983311139
20
1.9209144623712
30
0
0
SPLINE
5
B3
100
AcDbEntity
8
1
62
256
6
ByLayer
370
18
48
1
60
0
100
AcDbSpline
70
4
71
3
72
10
73
6
40
0
40
0
40
0
40
0
40
0.614648635779527
40
0.614648635779527
40
1
40
1
40
1
40
1
41
1
10
64.2810944503654
20
7.69839302049039
30
0
41
1
10
63.967527618568
20
7.71936031801206
30
0
41
1
10
63.6540040203382
20
7.73382237329864
30
0
41
1
10
63.143693444308
20
7.74674796463185
30
0
41
1
10
62.9468966434815
20
7.74916429830066
30
0
41
1
10
62.7501344794558
20
7.74901675818131
30
0
0
SPLINE
5
B4
100
AcDbEntity
8
1
62
256
6
ByLayer
370
18
48
1
60
0
100
AcDbSpline
70
4
71
3
72
32
73
28
40
0
40
0
40
0
40
0
40
0.0066374516903824
40
0.0066374516903824
40
0.0517902947953667
40
0.0517902947953667
40
0.0969431379003506
40
0.0969431379003506
40
0.277554510320285
40
0.277554510320285
40
0.322707353425268
40
0.322707353425268
40
0.367860196530251
40
0.367860196530251
40
0.458165882740215
40
0.458165882740215
40
0.548471568950178
40
0.548471568950178
40
0.638777255160142
40
0.638777255160142
40
0.683930098265124
40
0.683930098265124
40
0.729082941370106
40
0.729082941370106
40
0.81938862758007
40
0.81938862758007
40
1
40
1
40
1
40
1
41
1
10
24.9394771253936
20
-7.41261882442984
30
0
41
1
10
24.893445569563
20
-7.42017013945355
30
0
41
1
10
24.8474110818044
20
-7.42758731400991
30
0
41
1
10
24.4881877754211
20
-7.48441182154556
30
0
41
1
10
24.1748222469094
20
-7.52772484178794
30
0
41
1
10
23.5473514466
20
-7.60168898773759
30
0
41
1
10
23.2329811950298
20
-7.63235231024805
30
0
41
1
10
21.6639492968929
20
-7.75311780973951
30
0
41
1
10
20.414858356109
20
-7.74609578491749
30
0
41
1
10
18.8446903883077
20
-7.6077694733967
30
0
41
1
10
18.5305413145987
20
-7.57364956166072
30
0
41
1
10
17.9033847935046
20
-7.49284896239325
30
0
41
1
10
17.590123712508
20
-7.44614565068247
30
0
41
1
10
16.6506193663057
20
-7.2874905716811
30
0
41
1
10
16.0246474302042
20
-7.15700282497053
30
0
41
1
10
14.7702750015631
20
-6.84839510624283
30
0
41
1
10
14.1413820420557
20
-6.66994969886622
30
0
41
1
10
12.8877542450245
20
-6.27066139939555
30
0
41
1
10
12.2617880539906
20
-6.04965319116451
30
0
41
1
10
11.3217828998608
20
-5.68860423592923
30
0
41
1
10
11.0083061015985
20
-5.56329212941046
30
0
41
1
10
10.3806647033413
20
-5.30315551148831
30
0
41
1
10
10.0662282462624
20
-5.16820419166342
30
0
41
1
10
9.12538314062684
20
-4.75186328833803
30
0
41
1
10
8.50029884806662
20
-4.45849213156887
30
0
41
1
10
6.62688760140662
20
-3.53796646826345
30
0
41
1
10
5.38070736050091
20
-2.86990776467496
30
0
41
1
10
4.12417725123566
20
-2.1673319537812
30
0
0
SPLINE
5
B5
100
AcDbEntity
8
1
62
256
6
ByLayer
370
18
48
1
60
0
100
AcDbSpline
70
4
71
3
72
22
73
18
40
0
40
0
40
0
40
0
40
0.127474352709488
40
0.127474352709488
40
0.316222316314769
40
0.316222316314769
40
0.41059629811741
40
0.41059629811741
40
0.504970279920051
40
0.504970279920051
40
0.693718243525333
40
0.693718243525333
40
0.788092225327973
40
0.788092225327973
40
0.882466207130614
40
0.882466207130614
40
1
40
1
40
1
40
1
41
1
10
21.1394594332967
20
7.69860856927849
30
0
41
1
10
20.8695412840783
20
7.61227229700256
30
0
41
1
10
20.600566074642
20
7.51425115747566
30
0
41
1
10
19.9344706285673
20
7.23847485093248
30
0
41
1
10
19.5379360507211
20
7.0448859623308
30
0
41
1
10
18.9390413913708
20
6.70933628342073
30
0
41
1
10
18.7409765986043
20
6.5912987279128
30
0
41
1
10
18.3492381910003
20
6.34619158516594
30
0
41
1
10
18.1551377417925
20
6.2188919316792
30
0
41
1
10
17.5758762177098
20
5.8259201444489
30
0
41
1
10
17.1937353373924
20
5.54919466495147
30
0
41
1
10
16.617376810466
20
5.12518145846639
30
0
41
1
10
16.4242601558857
20
4.98200708564875
30
0
41
1
10
16.0414375292161
20
4.69918980457689
30
0
41
1
10
15.8510567681222
20
4.55905193621669
30
0
41
1
10
15.4242969732204
20
4.2491804510729
30
0
41
1
10
15.1880726791614
20
4.08064464406664
30
0
41
1
10
14.9512036709887
20
3.91683750301595
30
0
0
SPLINE
5
B6
100
AcDbEntity
8
1
62
256
6
ByLayer
370
18
48
1
60
0
100
AcDbSpline
70
4
71
3
72
8
73
4
40
0
40
0
40
0
40
0
40
1
40
1
40
1
40
1
41
1
10
64.2810944503654
20
-7.69839302049041
30
0
41
1
10
64.3109483747711
20
-7.61850618116949
30
0
41
1
10
64.3407745278967
20
-7.53855264900503
30
0
41
1
10
64.3705728694525
20
-7.45853232724076
30
0
0
SPLINE
5
B7
100
AcDbEntity
8
1
62
256
6
ByLayer
370
18
48
1
60
0
100
AcDbSpline
70
4
71
3
72
8
73
4
40
0
40
0
40
0
40
0
40
1
40
1
40
1
40
1
41
1
10
3.99999983497028
20
-7.59238768056036
30
0
41
1
10
3.99999983497028
20
-7.61711276454349
30
0
41
1
10
3.99999983497028
20
-7.64209855131779
30
0
41
1
10
3.99999983497028
20
-7.66734540071468
30
0
0
SPLINE
5
B8
100
AcDbEntity
8
1
62
256
6
ByLayer
370
18
48
1
60
0
100
AcDbSpline
70
4
71
3
72
24
73
20
40
0
40
0
40
0
40
0
40
0.249999999999995
40
0.249999999999995
40
0.374999999999999
40
0.374999999999999
40
0.500000000000003
40
0.500000000000003
40
0.625000000000007
40
0.625000000000007
40
0.750000000000011
40
0.750000000000011
40
0.812500000000008
40
0.812500000000008
40
0.875000000000005
40
0.875000000000005
40
0.937500000000003
40
0.937500000000003
40
1
40
1
40
1
40
1
41
1
10
63.3677281782982
20
2.18672239231321
30
0
41
1
10
63.6284272944832
20
2.23279519715385
30
0
41
1
10
63.8877357428542
20
2.28604267956743
30
0
41
1
10
64.2733267096
20
2.38395661915749
30
0
41
1
10
64.401286414799
20
2.41964983213106
30
0
41
1
10
64.655577826473
20
2.49990501547313
30
0
41
1
10
64.7821722220263
20
2.54448677407333
30
0
41
1
10
65.0317532523592
20
2.64736993594414
30
0
41
1
10
65.1534636458409
20
2.70497372632963
30
0
41
1
10
65.386354139508
20
2.84160793395276
30
0
41
1
10
65.4957924063359
20
2.91920189898457
30
0
41
1
10
65.6391650133986
20
3.06202188898655
30
0
41
1
10
65.6831873557437
20
3.114190345579
30
0
41
1
10
65.7576028609906
20
3.22654092942034
30
0
41
1
10
65.7886959660558
20
3.28821575008547
30
0
41
1
10
65.8320570710264
20
3.41606300501528
30
0
41
1
10
65.8447606044838
20
3.48266963795118
30
0
41
1
10
65.8519716476179
20
3.61949890420621
30
0
41
1
10
65.8465081104351
20
3.68709975482412
30
0
41
1
10
65.8338051836863
20
3.75404250573672
30
0
0
SPLINE
5
B9
100
AcDbEntity
8
1
62
256
6
ByLayer
370
18
48
1
60
0
100
AcDbSpline
70
4
71
3
72
10
73
6
40
0
40
0
40
0
40
0
40
0.5
40
0.5
40
1
40
1
40
1
40
1
41
1
10
3.99999983497028
20
-1.9352944275613
30
0
41
1
10
3.99999983497028
20
-1.96883872058754
30
0
41
1
10
4.01106093661735
20
-2.00312925936009
30
0
41
1
10
4.0535556364531
20
-2.06289052878032
30
0
41
1
10
4.08553408271257
20
-2.08956417212229
30
0
41
1
10
4.12685797690239
20
-2.1081077263768
30
0
0
SPLINE
5
BA
100
AcDbEntity
8
1
62
256
6
ByLayer
370
18
48
1
60
0
100
AcDbSpline
70
4
71
3
72
34
73
30
40
0
40
0
40
0
40
0
40
0.0266062352570349
40
0.0266062352570349
40
0.134761098006259
40
0.134761098006259
40
0.18883852938087
40
0.18883852938087
40
0.242915960755481
40
0.242915960755481
40
0.3510708235047
40
0.3510708235047
40
0.405148254879308
40
0.405148254879308
40
0.459225686253917
40
0.459225686253917
40
0.567380549003134
40
0.567380549003134
40
0.67553541175235
40
0.67553541175235
40
0.729612843126957
40
0.729612843126957
40
0.783690274501564
40
0.783690274501564
40
0.891845137250781
40
0.891845137250781
40
0.94592256862539
40
0.94592256862539
40
1
40
1
40
1
40
1
41
1
10
51.9103872091941
20
5.73312789093742
30
0
41
1
10
52.0207304406433
20
5.77652500437827
30
0
41
1
10
52.1310983642472
20
5.81927640350196
30
0
41
1
10
52.6901732628722
20
6.0326411072038
30
0
41
1
10
53.1390902368444
20
6.19353169172928
30
0
41
1
10
53.8120641135972
20
6.41993615620899
30
0
41
1
10
54.036264267747
20
6.49294887502751
30
0
41
1
10
54.4856446617765
20
6.63285730118622
30
0
41
1
10
54.7107403794617
20
6.69984860720294
30
0
41
1
10
55.38691550357
20
6.89225039732443
30
0
41
1
10
55.838916214722
20
7.00909060956388
30
0
41
1
10
56.5182055859358
20
7.16709914204515
30
0
41
1
10
56.7452631351317
20
7.21679379026509
30
0
41
1
10
57.1998506227091
20
7.30937773477473
30
0
41
1
10
57.426760718074
20
7.35227895263415
30
0
41
1
10
58.106172373203
20
7.47110324536746
30
0
41
1
10
58.5571603462863
20
7.53725790537123
30
0
41
1
10
59.4556834767804
20
7.64332942209842
30
0
41
1
10
59.9046423732849
20
7.68277657147141
30
0
41
1
10
60.5771008518711
20
7.72224069589802
30
0
41
1
10
60.8010808766653
20
7.73210225605078
30
0
41
1
10
61.248569574064
20
7.74522031679874
30
0
41
1
10
61.471963805342
20
7.74846963636756
30
0
41
1
10
62.1426253939355
20
7.74818407442504
30
0
41
1
10
62.5906597610632
20
7.73474144192815
30
0
41
1
10
63.2631128543506
20
7.69475960403727
30
0
41
1
10
63.487352051267
20
7.67811948459351
30
0
41
1
10
63.9358543724381
20
7.6380726233277
30
0
41
1
10
64.1601118449447
20
7.61464392089098
30
0
41
1
10
64.3849658587282
20
7.58798525990886
30
0
0
SPLINE
5
BB
100
AcDbEntity
8
1
62
256
6
ByLayer
370
18
48
1
60
0
100
AcDbSpline
70
4
71
3
72
20
73
16
40
0
40
0
40
0
40
0
40
0.23354957642035
40
0.23354957642035
40
0.350324364630526
40
0.350324364630526
40
0.467099152840701
40
0.467099152840701
40
0.700648729261051
40
0.700648729261051
40
0.934198305681402
40
0.934198305681402
40
0.992585699786489
40
0.992585699786489
40
1
40
1
40
1
40
1
41
1
10
21.1394481631233
20
7.69860568328116
30
0
41
1
10
20.2089433118997
20
7.74225569669682
30
0
41
1
10
19.2689847319744
20
7.72643404756477
30
0
41
1
10
17.8351180520588
20
7.63454281407505
30
0
41
1
10
17.3541527110615
20
7.59262289000645
30
0
41
1
10
16.3888769063788
20
7.49147940589646
30
0
41
1
10
15.9039098380595
20
7.43221919572437
30
0
41
1
10
14.4395395324445
20
7.23674980464256
30
0
41
1
10
13.4505409665015
20
7.08280804651264
30
0
41
1
10
11.4358989413039
20
6.77631768415304
30
0
41
1
10
10.4102731456266
20
6.62408970608632
30
0
41
1
10
9.10070818659764
20
6.46366350602349
30
0
41
1
10
8.83742575260939
20
6.43305178675837
30
0
41
1
10
8.53911356581878
20
6.40056629462234
30
0
41
1
10
8.50547314041216
20
6.39693433111489
30
0
41
1
10
8.47180740531022
20
6.3933315708226
30
0
0
SPLINE
5
BC
100
AcDbEntity
8
1
62
256
6
ByLayer
370
18
48
1
60
0
100
AcDbSpline
70
4
71
3
72
10
73
6
40
0
40
0
40
0
40
0
40
0.319236442782465
40
0.319236442782465
40
1
40
1
40
1
40
1
41
1
10
3.17714155445179
20
7.71328068119627
30
0
41
1
10
3.25958234370455
20
7.71313714968349
30
0
41
1
10
3.34395887439206
20
7.71128557332165
30
0
41
1
10
3.6132566018143
20
7.70082829888435
30
0
41
1
10
3.80390515332866
20
7.68689913770763
30
0
41
1
10
3.99999983496593
20
7.66734540071513
30
0
0
SPLINE
5
BD
100
AcDbEntity
8
1
62
256
6
ByLayer
370
18
48
1
60
0
100
AcDbSpline
70
4
71
3
72
12
73
8
40
0
40
0
40
0
40
0
40
0.25
40
0.25
40
0.500000000000001
40
0.500000000000001
40
1
40
1
40
1
40
1
41
1
10
64.3705728694565
20
-7.45853232723007
30
0
41
1
10
64.3754886555751
20
-7.44533149904981
30
0
41
1
10
64.380212756884
20
-7.43184188820788
30
0
41
1
10
64.3880145194152
20
-7.40754542992451
30
0
41
1
10
64.3910752597344
20
-7.39675653195795
30
0
41
1
10
64.3965523037175
20
-7.37288659279875
30
0
41
1
10
64.3954304998642
20
-7.36841335081579
30
0
41
1
10
64.3917422885479
20
-7.37143725103368
30
0
0
SPLINE
5
BE
100
AcDbEntity
8
1
62
256
6
ByLayer
370
13
48
1
60
0
100
AcDbSpline
70
4
71
3
72
10
73
6
40
0
40
0
40
0
40
0
40
0.5
40
0.5
40
1
40
1
40
1
40
1
41
1
10
3.99999983497028
20
-1.9352944275613
30
0
41
1
10
3.99999983497028
20
-1.94836150284874
30
0
41
1
10
4.01104320838854
20
-1.96154422799756
30
0
41
1
10
4.05353846135031
20
-1.98423541198025
30
0
41
1
10
4.08553870569423
20
-1.99420946133938
30
0
41
1
10
4.12685797690241
20
-2.00109332398594
30
0
0
SPLINE
5
BF
100
AcDbEntity
8
1
62
256
6
ByLayer
370
18
48
1
60
0
100
AcDbSpline
70
4
71
3
72
26
73
22
40
0
40
0
40
0
40
0
40
0.0621576432042703
40
0.0621576432042703
40
0.166362349514907
40
0.166362349514907
40
0.270567055825544
40
0.270567055825544
40
0.37477176213618
40
0.37477176213618
40
0.478976468446817
40
0.478976468446817
40
0.583181174757453
40
0.583181174757453
40
0.68738588106809
40
0.68738588106809
40
0.791590587378727
40
0.791590587378727
40
0.895795293689363
40
0.895795293689363
40
1
40
1
40
1
40
1
41
1
10
43.3988918708205
20
7.3944109453239
30
0
41
1
10
43.664737380911
20
7.38726255467148
30
0
41
1
10
43.9306771660896
20
7.37530136545547
30
0
41
1
10
44.6435566056071
20
7.33176376918806
30
0
41
1
10
45.0913698794409
20
7.29214694352044
30
0
41
1
10
45.9845214758086
20
7.1905415702314
30
0
41
1
10
46.430194885469
20
7.12923541891558
30
0
41
1
10
47.3219974524296
20
6.97799236367484
30
0
41
1
10
47.7678299898827
20
6.88977285452154
30
0
41
1
10
48.6597343660452
20
6.6900154784596
30
0
41
1
10
49.1063450016544
20
6.57835543992058
30
0
41
1
10
50.0007911979212
20
6.33622298106133
30
0
41
1
10
50.4470564335042
20
6.20416595336897
30
0
41
1
10
51.3382142863466
20
5.91679294809541
30
0
41
1
10
51.7836861272811
20
5.76278535878643
30
0
41
1
10
52.6754430993566
20
5.436657417361
30
0
41
1
10
53.1214185151329
20
5.2644179602899
30
0
41
1
10
54.0142828500266
20
4.90177031451987
30
0
41
1
10
54.4615546044813
20
4.7116616870417
30
0
41
1
10
55.3538424894266
20
4.31729510119442
30
0
41
1
10
55.799188407899
20
4.11230672170888
30
0
41
1
10
56.24448635493
20
3.89988511290423
30
0
0
SPLINE
5
C0
100
AcDbEntity
8
1
62
256
6
ByLayer
370
13
48
1
60
0
100
AcDbSpline
70
4
71
3
72
42
73
38
40
0
40
0
40
0
40
0
40
0.125
40
0.125
40
0.15625
40
0.15625
40
0.187499999999999
40
0.187499999999999
40
0.249999999999999
40
0.249999999999999
40
0.312499999999999
40
0.312499999999999
40
0.343749999999999
40
0.343749999999999
40
0.374999999999999
40
0.374999999999999
40
0.499999999999998
40
0.499999999999998
40
0.562499999999998
40
0.562499999999998
40
0.593749999999998
40
0.593749999999998
40
0.624999999999998
40
0.624999999999998
40
0.749999999999999
40
0.749999999999999
40
0.781249999999999
40
0.781249999999999
40
0.812499999999999
40
0.812499999999999
40
0.874999999999999
40
0.874999999999999
40
0.9375
40
0.9375
40
0.96875
40
0.96875
40
1
40
1
40
1
40
1
41
1
10
4.25021266851678
20
-2.03178291550313
30
0
41
1
10
4.25022099084165
20
-1.50847963494618
30
0
41
1
10
4.25021795982477
20
-0.975858746632071
30
0
41
1
10
4.25020685025427
20
-0.298536058855262
30
0
41
1
10
4.25020425353264
20
-0.162250675062552
30
0
41
1
10
4.25019855433848
20
0.108682666026908
30
0
41
1
10
4.25019544794935
20
0.243640155853996
30
0
41
1
10
4.25018563338145
20
0.647013125409671
30
0
41
1
10
4.25017843334058
20
0.913933487558609
30
0
41
1
10
4.25016406915299
20
1.4438233234406
30
0
41
1
10
4.25015690248702
20
1.70679299166463
30
0
41
1
10
4.25014712450516
20
2.09820609199798
30
0
41
1
10
4.25014401862137
20
2.22856463274721
30
0
41
1
10
4.25013834125997
20
2.48562354314151
30
0
41
1
10
4.25013576588108
20
2.61243182812143
30
0
41
1
10
4.2501245017551
20
3.23803756826803
30
0
41
1
10
4.25012073536729
20
3.71182808101315
30
0
41
1
10
4.25012745822875
20
4.3820415191974
30
0
41
1
10
4.25013177652951
20
4.59885695966688
30
0
41
1
10
4.25014152366234
20
4.90794814308668
30
0
41
1
10
4.25014531670217
20
5.00853365023312
30
0
41
1
10
4.25015400591883
20
5.20479470952961
30
0
41
1
10
4.25015890428333
20
5.30043461205426
30
0
41
1
10
4.25018589509378
20
5.76226388613409
30
0
41
1
10
4.25021571924421
20
6.08343389789252
30
0
41
1
10
4.25026093258376
20
6.42538852669355
30
0
41
1
10
4.25027036591254
20
6.49077054374814
30
0
41
1
10
4.25028992845574
20
6.6154010863917
30
0
41
1
10
4.25030008095345
20
6.67475027570291
30
0
41
1
10
4.25033105261252
20
6.84142828075395
30
0
41
1
10
4.25035248493234
20
6.93812100954761
30
0
41
1
10
4.25039581631282
20
7.10345088412382
30
0
41
1
10
4.25041771753988
20
7.1720863403462
30
0
41
1
10
4.25044999886157
20
7.25382566280922
30
0
41
1
10
4.25046066301667
20
7.27752869253135
30
0
41
1
10
4.25048162663037
20
7.31772209391551
30
0
41
1
10
4.25049195120377
20
7.33423760928676
30
0
41
1
10
4.25050191792363
20
7.34695832899044
30
0
0
SPLINE
5
C1
100
AcDbEntity
8
1
62
256
6
ByLayer
370
18
48
1
60
0
100
AcDbSpline
70
4
71
3
72
22
73
18
40
0
40
0
40
0
40
0
40
0.124999999999999
40
0.124999999999999
40
0.249999999999997
40
0.249999999999997
40
0.312499999999996
40
0.312499999999996
40
0.374999999999996
40
0.374999999999996
40
0.499999999999996
40
0.499999999999996
40
0.749999999999998
40
0.749999999999998
40
0.874999999999999
40
0.874999999999999
40
1
40
1
40
1
40
1
41
1
10
4.25050191792346
20
7.34695832899058
30
0
41
1
10
4.58332344686673
20
7.31743386111251
30
0
41
1
10
4.93186239099251
20
7.26896421670602
30
0
41
1
10
5.6477090978089
20
7.14436452689435
30
0
41
1
10
6.01521226417574
20
7.06811739124882
30
0
41
1
10
6.57653455009111
20
6.93638811299357
30
0
41
1
10
6.76565014038133
20
6.88946073552876
30
0
41
1
10
7.14543397712626
20
6.79041074928523
30
0
41
1
10
7.33593558131835
20
6.73839457105424
30
0
41
1
10
7.90895838950959
20
6.57577113091926
30
0
41
1
10
8.29309375087351
20
6.45748307524769
30
0
41
1
10
9.4509433699325
20
6.07537392104146
30
0
41
1
10
10.2297342366365
20
5.78543740189284
30
0
41
1
10
11.4102642096148
20
5.31374868200581
30
0
41
1
10
11.8059089072185
20
5.15021395462369
30
0
41
1
10
12.603060667311
20
4.81020735632399
30
0
41
1
10
13.0051769072139
20
4.63406850262479
30
0
41
1
10
13.4087521873495
20
4.45508905464945
30
0
0
SPLINE
5
C2
100
AcDbEntity
8
1
62
256
6
ByLayer
370
13
48
1
60
0
100
AcDbSpline
70
4
71
3
72
8
73
4
40
0
40
0
40
0
40
0
40
1
40
1
40
1
40
1
41
1
10
4.12417725123564
20
-2.1673319537812
30
0
41
1
10
4.12506135387426
20
-2.14759932550476
30
0
41
1
10
4.12595490821576
20
-2.12785805365607
30
0
41
1
10
4.12685797690241
20
-2.10810772637683
30
0
0
SPLINE
5
C3
100
AcDbEntity
8
1
62
256
6
ByLayer
370
18
48
1
60
0
100
AcDbSpline
70
4
71
3
72
62
73
58
40
0
40
0
40
0
40
0
40
0.043582518923438
40
0.043582518923438
40
0.0871650378468761
40
0.0871650378468761
40
0.130747556770314
40
0.130747556770314
40
0.152538816232033
40
0.152538816232033
40
0.174330075693752
40
0.174330075693752
40
0.217912594617191
40
0.217912594617191
40
0.23970385407891
40
0.23970385407891
40
0.261495113540629
40
0.261495113540629
40
0.305077632464068
40
0.305077632464068
40
0.348660151387507
40
0.348660151387507
40
0.435825189234384
40
0.435825189234384
40
0.457616448696103
40
0.457616448696103
40
0.479407708157822
40
0.479407708157822
40
0.522990227081261
40
0.522990227081261
40
0.54478148654298
40
0.54478148654298
40
0.5665727460047
40
0.5665727460047
40
0.61015526492814
40
0.61015526492814
40
0.65373778385158
40
0.65373778385158
40
0.697320302775019
40
0.697320302775019
40
0.740902821698459
40
0.740902821698459
40
0.762694081160179
40
0.762694081160179
40
0.784485340621899
40
0.784485340621899
40
0.828067859545338
40
0.828067859545338
40
0.871650378468777
40
0.871650378468777
40
0.915232897392217
40
0.915232897392217
40
0.937024156853936
40
0.937024156853936
40
0.958815416315656
40
0.958815416315656
40
1
40
1
40
1
40
1
41
1
10
64.2810944503654
20
-7.69839302049039
30
0
41
1
10
63.6538710171726
20
-7.74033361816439
30
0
41
1
10
63.0268780827425
20
-7.75623856756616
30
0
41
1
10
61.7713586774253
20
-7.73582666656964
30
0
41
1
10
61.1453868541604
20
-7.69956007069595
30
0
41
1
10
59.8939650086413
20
-7.57590365784284
30
0
41
1
10
59.2684781764034
20
-7.48851728535243
30
0
41
1
10
58.3281674700419
20
-7.31986456730073
30
0
41
1
10
58.0140713372583
20
-7.25732255443239
30
0
41
1
10
57.3868810438749
20
-7.12034194512418
30
0
41
1
10
57.0736648576181
20
-7.04589429018452
30
0
41
1
10
56.1345595260433
20
-6.80519080046889
30
0
41
1
10
55.5091908377981
20
-6.62159493277494
30
0
41
1
10
54.5698648044424
20
-6.31349345105107
30
0
41
1
10
54.2565523267644
20
-6.20533202798345
30
0
41
1
10
53.6290817235691
20
-5.97846175386661
30
0
41
1
10
53.3151106786187
20
-5.85981161038677
30
0
41
1
10
52.3749692036143
20
-5.49014167963841
30
0
41
1
10
51.7494110028259
20
-5.22499784733367
30
0
41
1
10
50.4976757235184
20
-4.661230684255
30
0
41
1
10
49.8710992697724
20
-4.36247099682052
30
0
41
1
10
47.9875782765129
20
-3.42373303725262
30
0
41
1
10
46.73915711584
20
-2.74675836950607
30
0
41
1
10
45.1712641834011
20
-1.86271975590873
30
0
41
1
10
44.8570562426004
20
-1.68384867511085
30
0
41
1
10
44.2297539652479
20
-1.32423084987653
30
0
41
1
10
43.9164748296185
20
-1.14338331031297
30
0
41
1
10
42.9771919759252
20
-0.598688422558212
30
0
41
1
10
42.351682096953
20
-0.232792531984046
30
0
41
1
10
41.4120575166731
20
0.316119703043256
30
0
41
1
10
41.0986337441693
20
0.499120987572496
30
0
41
1
10
40.4708996569457
20
0.86440257149556
30
0
41
1
10
40.1568950416855
20
1.04650135266866
30
0
41
1
10
39.2165689839772
20
1.58869757788935
30
0
41
1
10
38.5908891634193
20
1.94528468055916
30
0
41
1
10
37.3387774163016
20
2.64346464595494
30
0
41
1
10
36.7118549722145
20
2.98534315192282
30
0
41
1
10
35.4561740827249
20
3.64761748123277
30
0
41
1
10
34.8299850338135
20
3.96647844883754
30
0
41
1
10
33.5778251384522
20
4.57532229469976
30
0
41
1
10
32.9519856935666
20
4.86548412957919
30
0
41
1
10
32.0109693361143
20
5.27560440358195
30
0
41
1
10
31.6966842051674
20
5.40820759814073
30
0
41
1
10
31.0692894059264
20
5.66354185412897
30
0
41
1
10
30.7559447757452
20
5.78638191889121
30
0
41
1
10
29.8164028169494
20
6.13984747578647
30
0
41
1
10
29.1907923265933
20
6.35551271182058
30
0
41
1
10
27.9375731778137
20
6.74325772415773
30
0
41
1
10
27.308786169487
20
6.91554937146685
30
0
41
1
10
26.0547478212603
20
7.21152971769757
30
0
41
1
10
25.4290082580625
20
7.33554787402662
30
0
41
1
10
24.4897067713014
20
7.48419059326196
30
0
41
1
10
24.1764782171335
20
7.52750458048152
30
0
41
1
10
23.5493868519435
20
7.60147397502686
30
0
41
1
10
23.2352631118839
20
7.63214795162736
30
0
41
1
10
22.3278168852887
20
7.70207515383072
30
0
41
1
10
21.7359271912816
20
7.72462716211572
30
0
41
1
10
21.1442046321478
20
7.72404358042715
30
0
0
SPLINE
5
C4
100
AcDbEntity
8
1
62
256
6
ByLayer
370
13
48
1
60
0
100
AcDbSpline
70
4
71
3
72
10
73
6
40
0
40
0
40
0
40
0
40
0.5
40
0.5
40
1
40
1
40
1
40
1
41
1
10
4.25021266851678
20
-2.03178291550313
30
0
41
1
10
4.2286758317087
20
-2.02485840361896
30
0
41
1
10
4.20756724220777
20
-2.01884083549598
30
0
41
1
10
4.16620119863151
20
-2.00853980344175
30
0
41
1
10
4.14584821925044
20
-2.00425713148113
30
0
41
1
10
4.12685797690241
20
-2.00109332398594
30
0
0
SPLINE
5
C5
100
AcDbEntity
8
1
62
256
6
ByLayer
370
18
48
1
60
0
100
AcDbSpline
70
4
71
3
72
34
73
30
40
0
40
0
40
0
40
0
40
0.0624999999999983
40
0.0624999999999983
40
0.124999999999997
40
0.124999999999997
40
0.187499999999995
40
0.187499999999995
40
0.218749999999995
40
0.218749999999995
40
0.249999999999995
40
0.249999999999995
40
0.374999999999996
40
0.374999999999996
40
0.437499999999997
40
0.437499999999997
40
0.468749999999997
40
0.468749999999997
40
0.499999999999997
40
0.499999999999997
40
0.624999999999999
40
0.624999999999999
40
0.75
40
0.75
40
0.812500000000001
40
0.812500000000001
40
0.875000000000001
40
0.875000000000001
40
1
40
1
40
1
40
1
41
1
10
56.24448635493
20
3.8998851129042
30
0
41
1
10
56.2511792511671
20
3.69779838642441
30
0
41
1
10
56.274500697942
20
3.49112909591699
30
0
41
1
10
56.3535052474977
20
3.06887215726457
30
0
41
1
10
56.4099256801639
20
2.85160998144394
30
0
41
1
10
56.5494264640721
20
2.42337474213375
30
0
41
1
10
56.6325550832854
20
2.21094039216169
30
0
41
1
10
56.774769982228
20
1.89449350915814
30
0
41
1
10
56.8251057025169
20
1.78937996691732
30
0
41
1
10
56.9313227263251
20
1.57985063647661
30
0
41
1
10
56.9873940677888
20
1.47510892770384
30
0
41
1
10
57.2780689124845
20
0.958090088751902
30
0
41
1
10
57.5430025196813
20
0.564854326578768
30
0
41
1
10
57.9752381033446
20
-0.0030840657980775
30
0
41
1
10
58.1252324857418
20
-0.188675123845741
30
0
41
1
10
58.3580740242411
20
-0.462123198025921
30
0
41
1
10
58.4371075778045
20
-0.552561782955536
30
0
41
1
10
58.5965409191714
20
-0.730647029955435
30
0
41
1
10
58.6770490226922
20
-0.818442816645529
30
0
41
1
10
59.0833650926776
20
-1.25147368038657
30
0
41
1
10
59.4210252837425
20
-1.57803656036205
30
0
41
1
10
60.1156488956389
20
-2.20075168243363
30
0
41
1
10
60.4726315131672
20
-2.49687368172582
30
0
41
1
10
61.0203759734604
20
-2.92172547181406
30
0
41
1
10
61.2052544013269
20
-3.06024176197658
30
0
41
1
10
61.5779369617128
20
-3.33023133560911
30
0
41
1
10
61.7653975445083
20
-3.4614411070076
30
0
41
1
10
62.3308062991392
20
-3.8448343462768
30
0
41
1
10
62.7117208959204
20
-4.08698659995261
30
0
41
1
10
63.0960933119414
20
-4.31744594850593
30
0
0
SPLINE
5
C6
100
AcDbEntity
8
1
62
256
6
ByLayer
370
18
48
1
60
0
100
AcDbSpline
70
2053
71
3
72
70
73
66
40
0
40
0
40
0
40
0
40
0.0312499999999997
40
0.0312499999999997
40
0.0624999999999995
40
0.0624999999999995
40
0.0937499999999992
40
0.0937499999999992
40
0.109374999999998
40
0.109374999999998
40
0.124999999999997
40
0.124999999999997
40
0.156249999999996
40
0.156249999999996
40
0.171874999999996
40
0.171874999999996
40
0.187499999999995
40
0.187499999999995
40
0.218749999999995
40
0.218749999999995
40
0.249999999999994
40
0.249999999999994
40
0.281249999999993
40
0.281249999999993
40
0.312499999999993
40
0.312499999999993
40
0.374999999999991
40
0.374999999999991
40
0.43749999999999
40
0.43749999999999
40
0.468749999999991
40
0.468749999999991
40
0.499999999999992
40
0.499999999999992
40
0.531249999999992
40
0.531249999999992
40
0.562499999999993
40
0.562499999999993
40
0.578124999999994
40
0.578124999999994
40
0.593749999999994
40
0.593749999999994
40
0.624999999999995
40
0.624999999999995
40
0.656249999999995
40
0.656249999999995
40
0.687499999999996
40
0.687499999999996
40
0.718749999999997
40
0.718749999999997
40
0.749999999999997
40
0.749999999999997
40
0.781249999999998
40
0.781249999999998
40
0.812499999999999
40
0.812499999999999
40
0.843749999999999
40
0.843749999999999
40
0.875
40
0.875
40
0.90625
40
0.90625
40
0.937500000000001
40
0.937500000000001
40
1
40
1
40
1
40
1
41
1
10
65.0096535712483
20
-4.08491426689378
30
0
41
1
10
65.0439432890002
20
-4.03591184065164
30
0
41
1
10
65.0775206219574
20
-3.98340494101944
30
0
41
1
10
65.1431270797779
20
-3.87077487534143
30
0
41
1
10
65.1755130543982
20
-3.80990611479044
30
0
41
1
10
65.2364319509232
20
-3.68299631459342
30
0
41
1
10
65.2648904075848
20
-3.61728989386853
30
0
41
1
10
65.3041106615337
20
-3.5148287009194
30
0
41
1
10
65.3165587420917
20
-3.48008331426379
30
0
41
1
10
65.3394540104692
20
-3.41135914501024
30
0
41
1
10
65.3500038039544
20
-3.37712108712955
30
0
41
1
10
65.3788874588763
20
-3.27478896782875
30
0
41
1
10
65.3946131729777
20
-3.20599576530515
30
0
41
1
10
65.410954913114
20
-3.10959923393489
30
0
41
1
10
65.415258187505
20
-3.07845722005203
30
0
41
1
10
65.4216160198719
20
-3.01811956484397
30
0
41
1
10
65.4236721963557
20
-2.98872452672114
30
0
41
1
10
65.4263755091413
20
-2.90526339306661
30
0
41
1
10
65.423686233838
20
-2.85583747281814
30
0
41
1
10
65.4102849620972
20
-2.76808661680718
30
0
41
1
10
65.3997245896827
20
-2.73096165728498
30
0
41
1
10
65.372263172556
20
-2.66896067478592
30
0
41
1
10
65.3552112372841
20
-2.64399830910566
30
0
41
1
10
65.3165289602462
20
-2.60636601187969
30
0
41
1
10
65.2947860079309
20
-2.59338908116189
30
0
41
1
10
65.2229306198475
20
-2.57057810767279
30
0
41
1
10
65.1683360210621
20
-2.57706071427597
30
0
41
1
10
65.0481049672877
20
-2.62826123616995
30
0
41
1
10
64.9846703055909
20
-2.67201007888892
30
0
41
1
10
64.8844632424435
20
-2.76527378767429
30
0
41
1
10
64.8504032865896
20
-2.80095699628544
30
0
41
1
10
64.782752843256
20
-2.87991420392393
30
0
41
1
10
64.7489077729182
20
-2.92340816745545
30
0
41
1
10
64.681173705378
20
-3.0192824406102
30
0
41
1
10
64.6469050095047
20
-3.07232907006201
30
0
41
1
10
64.580744874431
20
-3.18513356252262
30
0
41
1
10
64.5487824095332
20
-3.24485245886737
30
0
41
1
10
64.5027835225414
20
-3.34020231399103
30
0
41
1
10
64.4877280458988
20
-3.37309166047873
30
0
41
1
10
64.4590765109175
20
-3.43933458596533
30
0
41
1
10
64.4453911073242
20
-3.47285996422639
30
0
41
1
10
64.4063511629446
20
-3.57470787789995
30
0
41
1
10
64.382742010024
20
-3.6453397017668
30
0
41
1
10
64.3441133002777
20
-3.78255121422151
30
0
41
1
10
64.3286863469831
20
-3.85020366308174
30
0
41
1
10
64.3067203412015
20
-3.98020494084014
30
0
41
1
10
64.3004717584402
20
-4.04045517687035
30
0
41
1
10
64.2967716217503
20
-4.15212892259774
30
0
41
1
10
64.2994349273118
20
-4.20226449503039
30
0
41
1
10
64.312526713628
20
-4.28998472803414
30
0
41
1
10
64.3230658911469
20
-4.32797082060239
30
0
41
1
10
64.3502296386342
20
-4.39061142082045
30
0
41
1
10
64.36706101257
20
-4.41590291758763
30
0
41
1
10
64.4057177158752
20
-4.45447191930256
30
0
41
1
10
64.4273670174445
20
-4.46771567813022
30
0
41
1
10
64.4748128026251
20
-4.48340931493397
30
0
41
1
10
64.5007656941395
20
-4.48576885798101
30
0
41
1
10
64.5551736197681
20
-4.48016256115207
30
0
41
1
10
64.5837683752238
20
-4.47228877633987
30
0
41
1
10
64.6436350885361
20
-4.44678049937781
30
0
41
1
10
64.6750944228014
20
-4.42896903771279
30
0
41
1
10
64.7389746843145
20
-4.38451040408711
30
0
41
1
10
64.7715623675346
20
-4.35783661296441
30
0
41
1
10
64.8713008956753
20
-4.26425654922184
30
0
41
1
10
64.9410741357444
20
-4.18291911937806
30
0
41
1
10
65.0096535712483
20
-4.08491426689378
30
0
0
SPLINE
5
C7
100
AcDbEntity
8
1
62
256
6
ByLayer
370
18
48
1
60
0
100
AcDbSpline
70
4
71
3
72
14
73
10
40
0
40
0
40
0
40
0
40
0.25
40
0.25
40
0.5
40
0.5
40
0.75
40
0.75
40
1
40
1
40
1
40
1
41
1
10
4.12417725123569
20
-2.1673319537812
30
0
41
1
10
4.10519873739091
20
-2.1567203141112
30
0
41
1
10
4.0880707090794
20
-2.14397721293272
30
0
41
1
10
4.05740579845724
20
-2.11433562986187
30
0
41
1
10
4.04400090519221
20
-2.09742345676813
30
0
41
1
10
4.02243161367826
20
-2.06125571171654
30
0
41
1
10
4.01397847997774
20
-2.04147029583982
30
0
41
1
10
4.00284242042397
20
-2.00108224873119
30
0
41
1
10
3.99999983497028
20
-1.98037614535551
30
0
41
1
10
3.99999983497028
20
-1.95913350649093
30
0
0
SPLINE
5
C8
100
AcDbEntity
8
1
62
256
6
ByLayer
370
18
48
1
60
0
100
AcDbSpline
70
4
71
3
72
71
73
67
40
0
40
0
40
0
40
0
40
0.0796262887409766
40
0.0796262887409766
40
0.145367268116624
40
0.145367268116624
40
0.211108247492271
40
0.211108247492271
40
0.342590206243566
40
0.342590206243566
40
0.474072164994862
40
0.474072164994862
40
0.506942654682686
40
0.506942654682686
40
0.53981314437051
40
0.53981314437051
40
0.605554123746157
40
0.605554123746157
40
0.671295103121804
40
0.671295103121804
40
0.687730347965717
40
0.687730347965717
40
0.695947970387673
40
0.695947970387673
40
0.700056781598651
40
0.700056781598651
40
0.70416559280963
40
0.70416559280963
40
0.706219998415119
40
0.706219998415119
40
0.708274404020608
40
0.708274404020608
40
0.710328809626097
40
0.710328809626097
40
0.712383215231586
40
0.72060083765354
40
0.72060083765354
40
0.737036082497449
40
0.737036082497449
40
0.769906572185268
40
0.769906572185268
40
0.778124194607223
40
0.778124194607223
40
0.786341817029177
40
0.786341817029177
40
0.802777061873087
40
0.802777061873087
40
0.819212306716996
40
0.819212306716996
40
0.835647551560906
40
0.835647551560906
40
0.852082796404815
40
0.852082796404815
40
0.868518041248725
40
0.868518041248725
40
0.884953286092634
40
0.884953286092634
40
0.901388530936544
40
0.901388530936544
40
0.917823775780453
40
0.917823775780453
40
0.934259020624363
40
0.934259020624363
40
0.967129510312181
40
0.967129510312181
40
1
40
1
40
1
40
1
41
1
10
20.0336819541489
20
-7.72336059081258
30
0
41
1
10
19.465034268662
20
-7.72270787274118
30
0
41
1
10
18.8919793080685
20
-7.70227315874558
30
0
41
1
10
17.8351180520587
20
-7.63454281407505
30
0
41
1
10
17.3541527110614
20
-7.59262289000645
30
0
41
1
10
16.3888769063786
20
-7.49147940589643
30
0
41
1
10
15.9039098380593
20
-7.43221919572434
30
0
41
1
10
14.4395395324442
20
-7.23674980464253
30
0
41
1
10
13.4505409665012
20
-7.08280804651261
30
0
41
1
10
11.4358989413035
20
-6.77631768415299
30
0
41
1
10
10.4102731456261
20
-6.62408970608627
30
0
41
1
10
9.10070818659713
20
-6.46366350602347
30
0
41
1
10
8.83742575260882
20
-6.43305178675834
30
0
41
1
10
8.30802688539544
20
-6.37540150125474
30
0
41
1
10
8.04161135453987
20
-6.34833671312254
30
0
41
1
10
7.24067781514967
20
-6.27362089710454
30
0
41
1
10
6.70447093171842
20
-6.23245353696654
30
0
41
1
10
5.62731758223609
20
-6.17074309205549
30
0
41
1
10
5.08745768014853
20
-6.15026548354209
30
0
41
1
10
4.41174797542661
20
-6.13903474840095
30
0
41
1
10
4.27654937103944
20
-6.1375044116088
30
0
41
1
10
4.07366516713799
20
-6.136303117631
30
0
41
1
10
4.00601481126986
20
-6.13608507041468
30
0
41
1
10
3.90457103186921
20
-6.13603387246999
30
0
41
1
10
3.87076009905039
20
-6.13606276387853
30
0
41
1
10
3.80314557673015
20
-6.13621273573239
30
0
41
1
10
3.76930483055065
20
-6.13586834624996
30
0
41
1
10
3.71890533293166
20
-6.13988751026071
30
0
41
1
10
3.70215444255297
20
-6.14184081471095
30
0
41
1
10
3.66878475397607
20
-6.14739589226249
30
0
41
1
10
3.65234590255605
20
-6.15099559798003
30
0
41
1
10
3.62200015815571
20
-6.15994749677228
30
0
41
1
10
3.60832702021421
20
-6.16574596825311
30
0
41
1
10
3.58088680744166
20
-6.17722696274265
30
0
41
1
10
3.51246979456661
20
-6.20601981255442
30
0
41
1
10
3.44498684665567
20
-6.23526788809852
30
0
41
1
10
3.28497804968166
20
-6.30637104219824
30
0
41
1
10
3.18146840410316
20
-6.35473560354166
30
0
41
1
10
2.88327271710594
20
-6.50213329198923
30
0
41
1
10
2.7000396004394
20
-6.60369794356708
30
0
41
1
10
2.49928509223796
20
-6.73483845521395
30
0
41
1
10
2.46057581623691
20
-6.76127661701003
30
0
41
1
10
2.3864020394918
20
-6.81457839912596
30
0
41
1
10
2.35103527123974
20
-6.84138651784821
30
0
41
1
10
2.25204345835525
20
-6.92106171608651
30
0
41
1
10
2.19491343467917
20
-6.97359885065214
30
0
41
1
10
2.10077930416085
20
-7.07690605138453
30
0
41
1
10
2.06364014707387
20
-7.12815564519607
30
0
41
1
10
2.01413018769603
20
-7.22453826718234
30
0
41
1
10
2.00130551679271
20
-7.26994457592392
30
0
41
1
10
1.99892241323653
20
-7.35487824554102
30
0
41
1
10
2.00966922481209
20
-7.39466351326772
30
0
41
1
10
2.05215398155721
20
-7.4657344300648
30
0
41
1
10
2.08368566919401
20
-7.49733756306239
30
0
41
1
10
2.16426234378648
20
-7.55349549693801
30
0
41
1
10
2.21349919678045
20
-7.57802616430234
30
0
41
1
10
2.32400139739141
20
-7.61976967565667
30
0
41
1
10
2.38552512093381
20
-7.6371955677935
30
0
41
1
10
2.51866745628064
20
-7.6662435079495
30
0
41
1
10
2.59029826598331
20
-7.67786028561559
30
0
41
1
10
2.74196162390206
20
-7.69604013981419
30
0
41
1
10
2.82224251793852
20
-7.70260081121347
30
0
41
1
10
3.07051698468962
20
-7.7154240996033
30
0
41
1
10
3.24660044407327
20
-7.71506616157382
30
0
41
1
10
3.61325660181436
20
-7.70082829888435
30
0
41
1
10
3.80390515332866
20
-7.68689913770766
30
0
41
1
10
3.99999983496591
20
-7.66734540071513
30
0
0
SPLINE
5
C9
100
AcDbEntity
8
1
62
256
6
ByLayer
370
18
48
1
60
0
100
AcDbSpline
70
4
71
3
72
20
73
16
40
0
40
0
40
0
40
0
40
0.125
40
0.125
40
0.25
40
0.25
40
0.375
40
0.375
40
0.5
40
0.5
40
0.625
40
0.625
40
0.75
40
0.75
40
1
40
1
40
1
40
1
41
1
10
4.25050191792363
20
-7.34695832899044
30
0
41
1
10
4.23665139382817
20
-7.34818700357482
30
0
41
1
10
4.22232544888377
20
-7.35042991591851
30
0
41
1
10
4.19236401241014
20
-7.35765360694413
30
0
41
1
10
4.17653041306431
20
-7.36271871000574
30
0
41
1
10
4.14451573220896
20
-7.3763881317276
30
0
41
1
10
4.1279289608359
20
-7.38521746703051
30
0
41
1
10
4.09644518538184
20
-7.40649134756785
30
0
41
1
10
4.08133201300993
20
-7.41913761748441
30
0
41
1
10
4.05532286606507
20
-7.44603175462876
30
0
41
1
10
4.04427688632717
20
-7.46032858519115
30
0
41
1
10
4.02640080957599
20
-7.48875568640642
30
0
41
1
10
4.01963522274426
20
-7.502653698584
30
0
41
1
10
4.00407544233772
20
-7.54326194861136
30
0
41
1
10
3.99999983497028
20
-7.56876453329386
30
0
41
1
10
3.99999983497028
20
-7.59238768056039
30
0
0
SPLINE
5
CA
100
AcDbEntity
8
1
62
256
6
ByLayer
370
18
48
1
60
0
100
AcDbSpline
70
4
71
3
72
14
73
10
40
0
40
0
40
0
40
0
40
0.216223222301691
40
0.216223222301691
40
0.477482148201128
40
0.477482148201128
40
0.738741074100564
40
0.738741074100564
40
1
40
1
40
1
40
1
41
1
10
8.48182887351447
20
-6.39445426886402
30
0
41
1
10
8.16278499606707
20
-6.49733277419887
30
0
41
1
10
7.84494453769696
20
-6.5939190850456
30
0
41
1
10
7.14609333960672
20
-6.79229466662886
30
0
41
1
10
6.76442177686604
20
-6.89228172210375
30
0
41
1
10
6.0159381426615
20
-7.06796064806099
30
0
41
1
10
5.64836323980651
20
-7.14423835721109
30
0
41
1
10
4.93227023510883
20
-7.26890551971493
30
0
41
1
10
4.58355597496373
20
-7.31741323363576
30
0
41
1
10
4.2505019179234
20
-7.34695832899055
30
0
0
SPLINE
5
CB
100
AcDbEntity
8
1
62
256
6
ByLayer
370
18
48
1
60
0
100
AcDbSpline
70
4
71
3
72
16
73
12
40
0
40
0
40
0
40
0
40
0.250000000000001
40
0.250000000000001
40
0.500000000000003
40
0.500000000000003
40
0.624999999999978
40
0.624999999999978
40
0.749999999999953
40
0.749999999999953
40
1
40
1
40
1
40
1
41
1
10
63.2032983311138
20
1.9209144623712
30
0
41
1
10
63.1949898814914
20
1.94871540095326
30
0
41
1
10
63.1904218431466
20
1.9775728333203
30
0
41
1
10
63.192920739469
20
2.03649456995512
30
0
41
1
10
63.2004215294292
20
2.06621922880933
30
0
41
1
10
63.2227834794318
20
2.10585870709528
30
0
41
1
10
63.232262663684
20
2.11835220429151
30
0
41
1
10
63.254259436263
20
2.139743755502
30
0
41
1
10
63.2669223918387
20
2.14901759370977
30
0
41
1
10
63.3072563662811
20
2.17204355773754
30
0
41
1
10
63.3371639490726
20
2.18132084056038
30
0
41
1
10
63.367728178298
20
2.18672239231401
30
0
0
SPLINE
5
CC
100
AcDbEntity
8
1
62
256
6
ByLayer
370
18
48
1
60
0
100
AcDbSpline
70
4
71
3
72
20
73
16
40
0
40
0
40
0
40
0
40
0.25
40
0.25
40
0.375
40
0.375
40
0.5
40
0.5
40
0.625
40
0.625
40
0.75
40
0.75
40
0.875
40
0.875
40
1
40
1
40
1
40
1
41
1
10
65.8338051836864
20
3.75404250573672
30
0
41
1
10
65.7135514449496
20
4.07555417488334
30
0
41
1
10
65.5932135225543
20
4.39687179990324
30
0
41
1
10
65.4125220119726
20
4.87824310381404
30
0
41
1
10
65.3522606758303
20
5.0385829526202
30
0
41
1
10
65.2316363666125
20
5.35887613795583
30
0
41
1
10
65.1712679413866
20
5.51881084747771
30
0
41
1
10
65.0505365305537
20
5.83869148231102
30
0
41
1
10
64.9901613366092
20
5.99858457171322
30
0
41
1
10
64.8693473417126
20
6.31805415423125
30
0
41
1
10
64.8089062115098
20
6.47766545587555
30
0
41
1
10
64.6878858567759
20
6.79597938513189
30
0
41
1
10
64.6273290041853
20
6.9548095894236
30
0
41
1
10
64.5062027464232
20
7.27219487592538
30
0
41
1
10
64.445620293219
20
7.43060892897597
30
0
41
1
10
64.3849658587405
20
7.58798525990753
30
0
0
SPLINE
5
CD
100
AcDbEntity
8
1
62
256
6
ByLayer
370
18
48
1
60
0
100
AcDbSpline
70
4
71
3
72
20
73
16
40
0
40
0
40
0
40
0
40
0.0781308946929562
40
0.0781308946929562
40
0.165918433667184
40
0.165918433667184
40
0.341493511615642
40
0.341493511615642
40
0.692643667512558
40
0.692643667512558
40
0.868218745461015
40
0.868218745461015
40
0.956006284435243
40
0.956006284435243
40
1
40
1
40
1
40
1
41
1
10
41.9086051334928
20
0.0252145653690548
30
0
41
1
10
42.1886397743687
20
-0.133404158881063
30
0
41
1
10
42.4688259950336
20
-0.292101649647748
30
0
41
1
10
43.0643688001706
20
-0.62888829897571
30
0
41
1
10
43.3802284995162
20
-0.807184171370437
30
0
41
1
10
44.3247077334042
20
-1.3377913075592
30
0
41
1
10
44.9510116713023
20
-1.68634323986288
30
0
41
1
10
46.8245815676368
20
-2.70863246385054
30
0
41
1
10
48.0662020992672
20
-3.35961131987781
30
0
41
1
10
49.9359148527417
20
-4.26018325074108
30
0
41
1
10
50.560267626815
20
-4.54788478021288
30
0
41
1
10
51.5007826943813
20
-4.9569783079603
30
0
41
1
10
51.8149630086795
20
-5.08958021261299
30
0
41
1
10
52.2878882429507
20
-5.28253143762868
30
0
41
1
10
52.4459339206866
20
-5.34589960370624
30
0
41
1
10
52.603963482715
20
-5.40811143754107
30
0
0
SPLINE
5
CE
100
AcDbEntity
8
1
62
256
6
ByLayer
370
13
48
1
60
0
100
AcDbSpline
70
4
71
3
72
20
73
16
40
0
40
0
40
0
40
0
40
0.0399125552737763
40
0.0399125552737763
40
0.359941703515852
40
0.359941703515852
40
0.51995627763689
40
0.51995627763689
40
0.679970851757927
40
0.679970851757927
40
0.839985425878965
40
0.839985425878965
40
0.919992712939482
40
0.919992712939482
40
1
40
1
40
1
40
1
41
1
10
52.6039634826264
20
-5.40811143750619
30
0
41
1
10
52.7612750132713
20
-5.47004060239934
30
0
41
1
10
52.9185705743243
20
-5.53082391912088
30
0
41
1
10
54.3353489059497
20
-6.06767263249489
30
0
41
1
10
55.5897939520321
20
-6.4671597005856
30
0
41
1
10
57.4821491884138
20
-6.93090684348098
30
0
41
1
10
58.1106775525954
20
-7.06188993462141
30
0
41
1
10
59.3634046530829
20
-7.2747928807791
30
0
41
1
10
59.9881499240176
20
-7.35695776189877
30
0
41
1
10
61.2373465771624
20
-7.47177480457236
30
0
41
1
10
61.8618511185353
20
-7.50447514107606
30
0
41
1
10
62.8005986617673
20
-7.51578210100934
30
0
41
1
10
63.1138408562707
20
-7.51325312681342
30
0
41
1
10
63.7413486508484
20
-7.495467580747
30
0
41
1
10
64.0556656347466
20
-7.47976540837666
30
0
41
1
10
64.3705728694319
20
-7.45853232723175
30
0
0
SPLINE
5
CF
100
AcDbEntity
8
1
62
256
6
ByLayer
370
18
48
1
60
0
100
AcDbSpline
70
4
71
3
72
76
73
72
40
0
40
0
40
0
40
0
40
0.0256292405681311
40
0.0256292405681311
40
0.0604281962621271
40
0.0604281962621271
40
0.095227151956123
40
0.095227151956123
40
0.130026107650119
40
0.130026107650119
40
0.164825063344115
40
0.164825063344115
40
0.199624019038111
40
0.199624019038111
40
0.234422974732107
40
0.234422974732107
40
0.251822452579104
40
0.251822452579104
40
0.269221930426102
40
0.269221930426102
40
0.304020886120097
40
0.304020886120097
40
0.338819841814092
40
0.338819841814092
40
0.35621931966109
40
0.35621931966109
40
0.373618797508088
40
0.373618797508088
40
0.408417753202083
40
0.408417753202083
40
0.443216708896078
40
0.443216708896078
40
0.478015664590073
40
0.478015664590073
40
0.495415142437071
40
0.495415142437071
40
0.512814620284068
40
0.512814620284068
40
0.547613575978063
40
0.547613575978063
40
0.56501305382506
40
0.56501305382506
40
0.582412531672058
40
0.582412531672058
40
0.599812009519055
40
0.599812009519055
40
0.617211487366053
40
0.617211487366053
40
0.652010443060048
40
0.652010443060048
40
0.669409920907046
40
0.669409920907046
40
0.686809398754043
40
0.686809398754043
40
0.721608354448039
40
0.721608354448039
40
0.756407310142034
40
0.756407310142034
40
0.791206265836029
40
0.791206265836029
40
0.826005221530024
40
0.826005221530024
40
0.860804177224019
40
0.860804177224019
40
0.895603132918014
40
0.895603132918014
40
0.930402088612009
40
0.930402088612009
40
0.965201044306005
40
0.965201044306005
40
1
40
1
40
1
40
1
41
1
10
51.8710519539238
20
-5.72888637045398
30
0
41
1
10
51.5419917766579
20
-5.84562713709261
30
0
41
1
10
51.2127516005498
20
-5.95736522061262
30
0
41
1
10
50.4356849373571
20
-6.2076740535978
30
0
41
1
10
49.9888357867773
20
-6.33963231719733
30
0
41
1
10
49.0956554621339
20
-6.58107179754302
30
0
41
1
10
48.6497150788623
20
-6.6924397983453
30
0
41
1
10
47.7573754717473
20
-6.89192981122011
30
0
41
1
10
47.3107250530015
20
-6.9801515845551
30
0
41
1
10
46.4159941175778
20
-7.13138911165981
30
0
41
1
10
45.9684352333553
20
-7.19264164816801
30
0
41
1
10
45.0748072524353
20
-7.2937509677935
30
0
41
1
10
44.6281442085716
20
-7.33298226538324
30
0
41
1
10
43.7351871483503
20
-7.38695358188798
30
0
41
1
10
43.2892605266466
20
-7.40186858087486
30
0
41
1
10
42.6187536313739
20
-7.40232476363158
30
0
41
1
10
42.3949865975001
20
-7.39848339652374
30
0
41
1
10
41.9470327994857
20
-7.38555700609353
30
0
41
1
10
41.7229906533059
20
-7.37648578192693
30
0
41
1
10
41.0519399811201
20
-7.33957453909971
30
0
41
1
10
40.6056477205666
20
-7.30240577756416
30
0
41
1
10
39.7124173193386
20
-7.20414884150134
30
0
41
1
10
39.2656718289004
20
-7.14333636087014
30
0
41
1
10
38.5955861489594
20
-7.03282132247637
30
0
41
1
10
38.3722371497506
20
-6.99276077981455
30
0
41
1
10
37.9249900205738
20
-6.90676833159094
30
0
41
1
10
37.7009233410372
20
-6.86087603524575
30
0
41
1
10
37.0293274278671
20
-6.71379658039345
30
0
41
1
10
36.5833075052397
20
-6.60303542286448
30
0
41
1
10
35.6940987722414
20
-6.36329424345379
30
0
41
1
10
35.2505564977357
20
-6.233570149196
30
0
41
1
10
34.364391109497
20
-5.95441887645478
30
0
41
1
10
33.9219612615517
20
-5.80514239861301
30
0
41
1
10
33.2591425812331
20
-5.5636998364576
30
0
41
1
10
33.0381949889611
20
-5.48070319318447
30
0
41
1
10
32.5960675053651
20
-5.31112471442341
30
0
41
1
10
32.3749161821766
20
-5.22451949979185
30
0
41
1
10
31.7111453759397
20
-4.9583866946721
30
0
41
1
10
31.2683964623992
20
-4.77244717848626
30
0
41
1
10
30.6033172298957
20
-4.48051049857929
30
0
41
1
10
30.3813450772421
20
-4.38126368522558
30
0
41
1
10
29.9366213282628
20
-4.17857522387348
30
0
41
1
10
29.7138071656975
20
-4.07482682547135
30
0
41
1
10
29.2674784168915
20
-3.86406638683769
30
0
41
1
10
29.0439876145783
20
-3.75712348450202
30
0
41
1
10
28.5964381445893
20
-3.53963078904536
30
0
41
1
10
28.3724651241446
20
-3.42905266733072
30
0
41
1
10
27.7014482952759
20
-3.09414476184466
30
0
41
1
10
27.254529387611
20
-2.86614760105772
30
0
41
1
10
26.5845148406862
20
-2.51718984665325
30
0
41
1
10
26.3612524311932
20
-2.39970964898254
30
0
41
1
10
25.9149170183334
20
-2.16190731290627
30
0
41
1
10
25.6917679715521
20
-2.04185671424892
30
0
41
1
10
25.0217652961254
20
-1.68022087278638
30
0
41
1
10
24.5744385357685
20
-1.43646860849393
30
0
41
1
10
23.6782551657813
20
-0.943399620676558
30
0
41
1
10
23.2312382364734
20
-0.694285659423713
30
0
41
1
10
22.3376756760255
20
-0.196400271798097
30
0
41
1
10
21.8909877918411
20
0.0524970009277297
30
0
41
1
10
20.9977566236276
20
0.55021588727476
30
0
41
1
10
20.5514495282135
20
0.799435023855722
30
0
41
1
10
19.6565824233747
20
1.29344941372372
30
0
41
1
10
19.2078527611751
20
1.53873770806126
30
0
41
1
10
18.3143425013929
20
2.02239717570694
30
0
41
1
10
17.8687411171064
20
2.2613381335488
30
0
41
1
10
16.9774790531097
20
2.72892048807364
30
0
41
1
10
16.5319855695102
20
2.95768328344795
30
0
41
1
10
15.6416963760156
20
3.4065189694941
30
0
41
1
10
15.196394943686
20
3.62526871474216
30
0
41
1
10
14.3038944493226
20
4.0494616671254
30
0
41
1
10
13.856747108901
20
4.25551035245988
30
0
41
1
10
13.408750432287
20
4.45508720839709
30
0
0
SPLINE
5
D0
100
AcDbEntity
8
1
62
256
6
ByLayer
370
18
48
1
60
0
100
AcDbSpline
70
4
71
3
72
8
73
4
40
0
40
0
40
0
40
0
40
1
40
1
40
1
40
1
41
1
10
64.3917422885465
20
-7.37143725103488
30
0
41
1
10
64.3564325895378
20
-7.40038705823625
30
0
41
1
10
64.3262206502609
20
-7.41495971252724
30
0
41
1
10
64.3011914123189
20
-7.41491565408444
30
0
0
SPLINE
5
D1
100
AcDbEntity
8
1
62
256
6
ByLayer
370
18
48
1
60
0
100
AcDbSpline
70
4
71
3
72
26
73
22
40
0
40
0
40
0
40
0
40
0.113980100843113
40
0.113980100843113
40
0.177267236497177
40
0.177267236497177
40
0.240554372151241
40
0.240554372151241
40
0.493702914767495
40
0.493702914767495
40
0.556990050421558
40
0.556990050421558
40
0.620277186075622
40
0.620277186075622
40
0.746851457383748
40
0.746851457383748
40
0.873425728691874
40
0.873425728691874
40
0.936712864345937
40
0.936712864345937
40
1
40
1
40
1
40
1
41
1
10
64.2691545672623
20
-7.41441181538056
30
0
41
1
10
64.1729754207812
20
-7.41148126241876
30
0
41
1
10
64.0810363601483
20
-7.39576407471276
30
0
41
1
10
63.9449280227819
20
-7.35057336658522
30
0
41
1
10
63.8977024308877
20
-7.33031663729008
30
0
41
1
10
63.8060953993126
20
-7.28122619775903
30
0
41
1
10
63.7615757080841
20
-7.25226442551056
30
0
41
1
10
63.5490642524369
20
-7.08713776814434
30
0
41
1
10
63.4095412385039
20
-6.89073914079822
30
0
41
1
10
63.2751564243257
20
-6.56083824589467
30
0
41
1
10
63.250306849691
20
-6.49058217153791
30
0
41
1
10
63.2048264880835
20
-6.34117232151232
30
0
41
1
10
63.1841606054568
20
-6.26175775115507
30
0
41
1
10
63.1296202171115
20
-6.013687021316
30
0
41
1
10
63.1028078247772
20
-5.83428552119366
30
0
41
1
10
63.0680013287094
20
-5.44784792027812
30
0
41
1
10
63.0600063363364
20
-5.24081312444992
30
0
41
1
10
63.0625429531996
20
-4.90892498273826
30
0
41
1
10
63.0658352402905
20
-4.79439044164374
30
0
41
1
10
63.0773412544921
20
-4.55963521742044
30
0
41
1
10
63.0855226465693
20
-4.43976621492848
30
0
41
1
10
63.0960933119414
20
-4.31744594850591
30
0
0
SPLINE
5
D2
100
AcDbEntity
8
1
62
256
6
ByLayer
370
18
48
1
60
0
100
AcDbSpline
70
4
71
3
72
14
73
10
40
0
40
0
40
0
40
0
40
0.13201329269024
40
0.13201329269024
40
0.26402658538048
40
0.26402658538048
40
0.528053170760963
40
0.528053170760963
40
1
40
1
40
1
40
1
41
1
10
4.20096838915188
20
-2.14274837819875
30
0
41
1
10
4.51679782238301
20
-2.3136335673027
30
0
41
1
10
4.83254828927204
20
-2.48265750988301
30
0
41
1
10
5.46177555171946
20
-2.81510259093747
30
0
41
1
10
5.77557589716983
20
-2.9787021583187
30
0
41
1
10
6.71511219196208
20
-3.46081082330585
30
0
41
1
10
7.33915024161868
20
-3.77043203089778
30
0
41
1
10
9.07631566423134
20
-4.59449637636499
30
0
41
1
10
10.1871377328428
20
-5.07895411475295
30
0
41
1
10
11.3038427531969
20
-5.50664600584207
30
0
0
SPLINE
5
D3
100
AcDbEntity
8
1
62
256
6
ByLayer
370
13
48
1
60
0
100
AcDbSpline
70
4
71
3
72
24
73
20
40
0
40
0
40
0
40
0
40
0.0337841652547352
40
0.0337841652547352
40
0.192766602913813
40
0.192766602913813
40
0.272257821743352
40
0.272257821743352
40
0.351749040572892
40
0.351749040572892
40
0.669713915891044
40
0.669713915891044
40
0.82869635355012
40
0.82869635355012
40
0.908187572379659
40
0.908187572379659
40
0.987678791209198
40
0.987678791209198
40
1
40
1
40
1
40
1
41
1
10
11.3038429831937
20
-5.50664609392959
30
0
41
1
10
11.4365998812864
20
-5.55749125598194
30
0
41
1
10
11.5694399236993
20
-5.60753414095208
30
0
41
1
10
12.3279631776438
20
-5.88836993578914
30
0
41
1
10
12.9555759165945
20
-6.10186382721827
30
0
41
1
10
13.9023417035039
20
-6.39179109588369
30
0
41
1
10
14.217520914335
20
-6.48296279937537
30
0
41
1
10
14.8459525614125
20
-6.65364078877801
30
0
41
1
10
15.1594517120029
20
-6.73322433278054
30
0
41
1
10
16.7241686794645
20
-7.10194141202575
30
0
41
1
10
17.9670564400377
20
-7.30367273015469
30
0
41
1
10
19.8362881034597
20
-7.45906541899433
30
0
41
1
10
20.4601480461163
20
-7.48634645699977
30
0
41
1
10
21.399320813944
20
-7.48954494480768
30
0
41
1
10
21.7129303966481
20
-7.48432550667053
30
0
41
1
10
22.3417250427974
20
-7.46122212919704
30
0
41
1
10
22.6574732950189
20
-7.44330781659568
30
0
41
1
10
23.0216349287877
20
-7.4153339871844
30
0
41
1
10
23.0704839855093
20
-7.41142955848599
30
0
41
1
10
23.1193124233143
20
-7.40737536794697
30
0
0
SPLINE
5
D4
100
AcDbEntity
8
1
62
256
6
ByLayer
370
13
48
1
60
0
100
AcDbSpline
70
4
71
3
72
8
73
4
40
0
40
0
40
0
40
0
40
1
40
1
40
1
40
1
41
1
10
4.12685797690239
20
-2.1081077263768
30
0
41
1
10
4.15006719817683
20
-2.11702917938999
30
0
41
1
10
4.17511558196881
20
-2.12876025239569
30
0
41
1
10
4.20096838915188
20
-2.14274837819875
30
0
0
SPLINE
5
D5
100
AcDbEntity
8
1
62
256
6
ByLayer
370
18
48
1
60
0
100
AcDbSpline
70
4
71
3
72
18
73
14
40
0
40
0
40
0
40
0
40
0.0525841617398131
40
0.0525841617398131
40
0.277302930514809
40
0.277302930514809
40
0.502021699289805
40
0.502021699289805
40
0.614381083677303
40
0.614381083677303
40
0.726740468064802
40
0.726740468064802
40
1
40
1
40
1
40
1
41
1
10
62.9486070508272
20
-7.41427901137166
30
0
41
1
10
62.8020152983201
20
-7.41414268446189
30
0
41
1
10
62.655512801485
20
-7.41263967114312
30
0
41
1
10
61.8833033994946
20
-7.39754097007796
30
0
41
1
10
61.258830782532
20
-7.36050218376579
30
0
41
1
10
60.0096800660725
20
-7.23776562141364
30
0
41
1
10
59.3849539270438
20
-7.15201595601479
30
0
41
1
10
58.44545951184
20
-6.98763131723751
30
0
41
1
10
58.1318814851469
20
-6.92683740703566
30
0
41
1
10
57.5035243630262
20
-6.79340455760567
30
0
41
1
10
57.1884916435049
20
-6.72070383649978
30
0
41
1
10
56.1065425383142
20
-6.45162450813868
30
0
41
1
10
55.3423820597213
20
-6.22823925994061
30
0
41
1
10
54.5780454123549
20
-5.97498761038347
30
0
0
SPLINE
5
D6
100
AcDbEntity
8
1
62
256
6
ByLayer
370
13
48
1
60
0
100
AcDbSpline
70
4
71
3
72
28
73
24
40
0
40
0
40
0
40
0
40
0.0871589194103622
40
0.0871589194103622
40
0.142745405399051
40
0.142745405399051
40
0.19833189138774
40
0.19833189138774
40
0.309504863365119
40
0.309504863365119
40
0.531850807319875
40
0.531850807319875
40
0.643023779297254
40
0.643023779297254
40
0.698610265285942
40
0.698610265285942
40
0.75419675127463
40
0.75419675127463
40
0.865369723252004
40
0.865369723252004
40
0.976542695229379
40
0.976542695229379
40
1
40
1
40
1
40
1
41
1
10
54.5780463616213
20
-5.97498792490885
30
0
41
1
10
54.0852569916136
20
-5.81170946756063
30
0
41
1
10
53.5923943932204
20
-5.63601631075434
30
0
41
1
10
52.7838930517532
20
-5.32918827737691
30
0
41
1
10
52.4682756523814
20
-5.2047858459585
30
0
41
1
10
51.8384933017298
20
-4.94794545287263
30
0
41
1
10
51.5244445572937
20
-4.81557158478137
30
0
41
1
10
50.5842684624881
20
-4.40749086502743
30
0
41
1
10
49.9600466847467
20
-4.1209328709671
30
0
41
1
10
48.090622231039
20
-3.22508594676225
30
0
41
1
10
46.8490381970217
20
-2.57898574519564
30
0
41
1
10
44.9755960164959
20
-1.56662804690885
30
0
41
1
10
44.349371019908
20
-1.22179964430782
30
0
41
1
10
43.4050778583597
20
-0.697416528938987
30
0
41
1
10
43.0893501290705
20
-0.521338592351242
30
0
41
1
10
42.459383047516
20
-0.169577829858071
30
0
41
1
10
42.1447039088219
20
0.0063448223939702
30
0
41
1
10
41.2011956182286
20
0.533548265243155
30
0
41
1
10
40.5728049070456
20
0.884101194977262
30
0
41
1
10
39.3140409661447
20
1.57763797222879
30
0
41
1
10
38.6825913310681
20
1.92132409561555
30
0
41
1
10
37.9200729103081
20
2.32697251179866
30
0
41
1
10
37.7872706786675
20
2.39728206630627
30
0
41
1
10
37.6545088590992
20
2.4671988680706
30
0
0
SPLINE
5
D7
100
AcDbEntity
8
1
62
256
6
ByLayer
370
18
48
1
60
0
100
AcDbSpline
70
4
71
3
72
18
73
14
40
0
40
0
40
0
40
0
40
0.0321543940512774
40
0.0321543940512774
40
0.261828282641324
40
0.261828282641324
40
0.721176059821421
40
0.721176059821421
40
0.836013004116447
40
0.836013004116447
40
0.950849948411475
40
0.950849948411475
40
1
40
1
40
1
40
1
41
1
10
21.380128353752
20
-7.38921336884678
30
0
41
1
10
21.2924061081964
20
-7.38925477565599
30
0
41
1
10
21.2047310948158
20
-7.38880940184072
30
0
41
1
10
20.4911496821464
20
-7.38122620668352
30
0
41
1
10
19.8673962496582
20
-7.34979260077577
30
0
41
1
10
17.9983904843209
20
-7.1830753289145
30
0
41
1
10
16.7555349847221
20
-6.97533882679679
30
0
41
1
10
15.1910045421187
20
-6.60127619114866
30
0
41
1
10
14.8775460342671
20
-6.52073585062101
30
0
41
1
10
14.2492251611632
20
-6.34838248601562
30
0
41
1
10
13.93406468689
20
-6.25647451550358
30
0
41
1
10
13.4836305609007
20
-6.11764660089136
30
0
41
1
10
13.3487954398705
20
-6.0751353937016
30
0
41
1
10
13.2141141028406
20
-6.03174309890332
30
0
0
SPLINE
5
D8
100
AcDbEntity
8
1
62
256
6
ByLayer
370
13
48
1
60
0
100
AcDbSpline
70
4
71
3
72
12
73
8
40
0
40
0
40
0
40
0
40
0.164229123343595
40
0.164229123343595
40
0.582114561671798
40
0.582114561671798
40
1
40
1
40
1
40
1
41
1
10
13.2141141028808
20
-6.03174309891631
30
0
41
1
10
12.7194413416524
20
-5.87236699858079
30
0
41
1
10
12.2268431705626
20
-5.70110477445371
30
0
41
1
10
10.4855607098609
20
-5.05557085441936
30
0
41
1
10
9.24481584855997
20
-4.52143703789301
30
0
41
1
10
6.7572190993323
20
-3.34778443035012
30
0
41
1
10
5.51114672741772
20
-2.70728959080102
30
0
41
1
10
4.2502126685167
20
-2.03178291550313
30
0
0
SPLINE
5
D9
100
AcDbEntity
8
1
62
256
6
ByLayer
370
18
48
1
60
0
100
AcDbSpline
70
4
71
3
72
16
73
12
40
0
40
0
40
0
40
0
40
0.249999999999996
40
0.249999999999996
40
0.499999999999992
40
0.499999999999992
40
0.625000000000003
40
0.625000000000003
40
0.750000000000015
40
0.750000000000015
40
1
40
1
40
1
40
1
41
1
10
3.99999983497028
20
7.59238768056039
30
0
41
1
10
3.99999983497028
20
7.56879896654451
30
0
41
1
10
4.00390828058929
20
7.54392029269354
30
0
41
1
10
4.02454650751736
20
7.4896187334439
30
0
41
1
10
4.04198742198454
20
7.45997641832403
30
0
41
1
10
4.08069826212073
20
7.41971757804689
30
0
41
1
10
4.09579188615376
20
7.40699385558932
30
0
41
1
10
4.12736202698721
20
7.38554179524178
30
0
41
1
10
4.14391520325546
20
7.37667220800267
30
0
41
1
10
4.19258506792832
20
7.35580943646031
30
0
41
1
10
4.22270039008257
20
7.34942459167016
30
0
41
1
10
4.25050191792363
20
7.34695832899044
30
0
0
SPLINE
5
DA
100
AcDbEntity
8
1
62
256
6
ByLayer
370
18
48
1
60
0
100
AcDbSpline
70
4
71
3
72
90
73
86
40
0
40
0
40
0
40
0
40
0.0333422245533388
40
0.0333422245533388
40
0.0500133368300086
40
0.0500133368300086
40
0.0666844491066783
40
0.0666844491066783
40
0.100026673660019
40
0.100026673660019
40
0.116697785936689
40
0.116697785936689
40
0.133368898213359
40
0.133368898213359
40
0.166711122766699
40
0.166711122766699
40
0.200053347320038
40
0.200053347320038
40
0.233395571873378
40
0.233395571873378
40
0.266737796426717
40
0.266737796426717
40
0.300080020980057
40
0.300080020980057
40
0.316751133256727
40
0.316751133256727
40
0.333422245533396
40
0.333422245533396
40
0.366764470086736
40
0.366764470086736
40
0.383435582363406
40
0.383435582363406
40
0.400106694640076
40
0.400106694640076
40
0.433448919193417
40
0.433448919193417
40
0.450120031470088
40
0.450120031470088
40
0.466791143746759
40
0.466791143746759
40
0.5001333683001
40
0.5001333683001
40
0.533475592853441
40
0.533475592853441
40
0.550146705130111
40
0.550146705130111
40
0.566817817406781
40
0.566817817406781
40
0.600160041960121
40
0.600160041960121
40
0.616831154236791
40
0.616831154236791
40
0.633502266513461
40
0.633502266513461
40
0.65017337879013
40
0.65017337879013
40
0.6668444910668
40
0.6668444910668
40
0.700186715620139
40
0.700186715620139
40
0.733528940173478
40
0.733528940173478
40
0.750200052450147
40
0.750200052450147
40
0.766871164726817
40
0.766871164726817
40
0.800213389280157
40
0.800213389280157
40
0.816884501556827
40
0.816884501556827
40
0.833555613833497
40
0.833555613833497
40
0.866897838386838
40
0.866897838386838
40
0.883568950663509
40
0.883568950663509
40
0.900240062940181
40
0.900240062940181
40
0.933582287493523
40
0.933582287493523
40
0.966924512046866
40
0.966924512046866
40
0.983595624323537
40
0.983595624323537
40
1
40
1
40
1
40
1
41
1
10
21.1394594319751
20
7.69860856885578
30
0
41
1
10
21.5940156583914
20
7.67725862908699
30
0
41
1
10
22.0476317207058
20
7.64247280264456
30
0
41
1
10
22.7258501233972
20
7.57073535606764
30
0
41
1
10
22.9515616041034
20
7.54355146458505
30
0
41
1
10
23.4021410836203
20
7.4825986796402
30
0
41
1
10
23.6268989707014
20
7.44876960353139
30
0
41
1
10
24.3009583722336
20
7.33785343351747
30
0
41
1
10
24.7504912501725
20
7.25166942552863
30
0
41
1
10
25.424087034241
20
7.10382462788365
30
0
41
1
10
25.6485189521131
20
7.05144715232669
30
0
41
1
10
26.0970281630981
20
6.94032843517348
30
0
41
1
10
26.3210724384418
20
6.88154399017236
30
0
41
1
10
26.9944071221105
20
6.69695539140722
30
0
41
1
10
27.4444352271736
20
6.56265452306323
30
0
41
1
10
28.34564795932
20
6.27047747432201
30
0
41
1
10
28.7962519815023
20
6.11185814715461
30
0
41
1
10
29.7023993836581
20
5.77436502684148
30
0
41
1
10
30.158810733687
20
5.59469250972509
30
0
41
1
10
31.0660119526402
20
5.21675386808823
30
0
41
1
10
31.5170274985695
20
5.01779465004807
30
0
41
1
10
32.418842025213
20
4.60685107629024
30
0
41
1
10
32.8690090701678
20
4.39407028642012
30
0
41
1
10
33.5424552600011
20
4.06298079706747
30
0
41
1
10
33.7665225724146
20
3.95044919289685
30
0
41
1
10
34.2149228708519
20
3.72268390509174
30
0
41
1
10
34.4393123695825
20
3.60754534028976
30
0
41
1
10
35.112642068257
20
3.25779125758075
30
0
41
1
10
35.5618305249193
20
3.01899149322324
30
0
41
1
10
36.2353067467089
20
2.65097515605552
30
0
41
1
10
36.4597793964391
20
2.52670446006206
30
0
41
1
10
36.9098080876543
20
2.27682938219928
30
0
41
1
10
37.1352322448744
20
2.1510122518938
30
0
41
1
10
37.8124678418176
20
1.77047007366451
30
0
41
1
10
38.26519864297
20
1.51259355254962
30
0
41
1
10
38.9459007946568
20
1.11870151945419
30
0
41
1
10
39.1734290890411
20
0.986608995389474
30
0
41
1
10
39.6274056428076
20
0.723374412595888
30
0
41
1
10
39.8540616023958
20
0.59184184016371
30
0
41
1
10
40.5328771835364
20
0.197187085369563
30
0
41
1
10
40.9835754181511
20
-0.0665451118488818
30
0
41
1
10
41.882444472623
20
-0.593196663350085
30
0
41
1
10
42.3319214224141
20
-0.853825910633446
30
0
41
1
10
43.0053726513865
20
-1.24225589389047
30
0
41
1
10
43.2297378504
20
-1.37129583398223
30
0
41
1
10
43.6780906107917
20
-1.62873334730082
30
0
41
1
10
43.9019874033236
20
-1.75728246014359
30
0
41
1
10
44.5746424508015
20
-2.139345063777
30
0
41
1
10
45.0241845028313
20
-2.38960623794509
30
0
41
1
10
45.6992268070582
20
-2.75988887336004
30
0
41
1
10
45.9243750520197
20
-2.88244131381941
30
0
41
1
10
46.3748199041177
20
-3.12596885699631
30
0
41
1
10
46.6002229968072
20
-3.24676576894274
30
0
41
1
10
47.0523599586532
20
-3.48484088250226
30
0
41
1
10
47.2789492785451
20
-3.60235724595509
30
0
41
1
10
47.7330238757748
20
-3.83457706664549
30
0
41
1
10
47.9608387955879
20
-3.94943007624019
30
0
41
1
10
48.6423052962699
20
-4.28835749607487
30
0
41
1
10
49.0938156142992
20
-4.50761725773023
30
0
41
1
10
49.9963007292602
20
-4.92567934042322
30
0
41
1
10
50.446713360953
20
-5.12541747789351
30
0
41
1
10
51.1204174389071
20
-5.41211474608849
30
0
41
1
10
51.3445472332729
20
-5.50566009385815
30
0
41
1
10
51.7928310013698
20
-5.68757490630995
30
0
41
1
10
52.0171303392629
20
-5.77578177703589
30
0
41
1
10
52.6901732628727
20
-6.032641107204
30
0
41
1
10
53.139090236845
20
-6.19353169172942
30
0
41
1
10
53.8120641135977
20
-6.41993615620916
30
0
41
1
10
54.0362642677475
20
-6.49294887502765
30
0
41
1
10
54.4856446617771
20
-6.63285730118639
30
0
41
1
10
54.7107403794623
20
-6.69984860720308
30
0
41
1
10
55.3869155035706
20
-6.8922503973246
30
0
41
1
10
55.8389162147227
20
-7.00909060956405
30
0
41
1
10
56.5182055859364
20
-7.16709914204529
30
0
41
1
10
56.7452631351323
20
-7.2167937902652
30
0
41
1
10
57.1998506227098
20
-7.30937773477484
30
0
41
1
10
57.4267607180745
20
-7.35227895263426
30
0
41
1
10
58.1061723732036
20
-7.47110324536752
30
0
41
1
10
58.557160346287
20
-7.53725790537132
30
0
41
1
10
59.455683476781
20
-7.64332942209847
30
0
41
1
10
59.9046423732857
20
-7.68277657147146
30
0
41
1
10
60.5771008518718
20
-7.72224069589805
30
0
41
1
10
60.801080876666
20
-7.73210225605081
30
0
41
1
10
61.24498968054
20
-7.74511537278343
30
0
41
1
10
61.4648151323714
20
-7.74836481132928
30
0
41
1
10
61.6847872514204
20
-7.74837644960823
30
0
0
SPLINE
5
DB
100
AcDbEntity
8
SK1
62
256
6
ByLayer
370
18
48
1
60
0
100
AcDbSpline
70
4
71
3
72
10
73
6
40
0
40
0
40
0
40
0
40
0.5
40
0.5
40
1
40
1
40
1
40
1
41
1
10
-47.8353426324044
20
4.71175496244857
30
0
41
1
10
-47.8599162737941
20
4.6782347781083
30
0
41
1
10
-47.8861591384187
20
4.6405761194811
30
0
41
1
10
-47.9412638460653
20
4.55845198020756
30
0
41
1
10
-47.9699852767962
20
4.51421453533334
30
0
41
1
10
-48.0000000000001
20
4.46685022436353
30
0
0
SPLINE
5
DC
100
AcDbEntity
8
SK1
62
256
6
ByLayer
370
18
48
1
60
0
100
AcDbSpline
70
4
71
3
72
14
73
10
40
0
40
0
40
0
40
0
40
0.5
40
0.5
40
0.749999999999999
40
0.749999999999999
40
0.875
40
0.875
40
1
40
1
40
1
40
1
41
1
10
-46.1
20
6.01856646192931
30
0
41
1
10
-46.078998416482
20
6.05119925964851
30
0
41
1
10
-46.0586701890239
20
6.08663289951346
30
0
41
1
10
-46.0304433385198
20
6.14410009425526
30
0
41
1
10
-46.0214721393577
20
6.16391839901661
30
0
41
1
10
-46.0103047485395
20
6.19323101203452
30
0
41
1
10
-46.006895500949
20
6.20313265615656
30
0
41
1
10
-46.001721316688
20
6.22198215266866
30
0
41
1
10
-46
20
6.23088955715019
30
0
41
1
10
-46
20
6.23762300091721
30
0
0
SPLINE
5
DD
100
AcDbEntity
8
SK1
62
256
6
ByLayer
370
18
48
1
60
0
100
AcDbSpline
70
4
71
3
72
14
73
10
40
0
40
0
40
0
40
0
40
0.125000000000003
40
0.125000000000003
40
0.250000000000005
40
0.250000000000005
40
0.500000000000005
40
0.500000000000005
40
1
40
1
40
1
40
1
41
1
10
-46
20
7.56590143450393
30
0
41
1
10
-46
20
7.56925915611049
30
0
41
1
10
-46.0017055870951
20
7.56972538408709
30
0
41
1
10
-46.0068924291627
20
7.56705395917075
30
0
41
1
10
-46.0102440228913
20
7.56408482345032
30
0
41
1
10
-46.0215656644541
20
7.55245077969909
30
0
41
1
10
-46.030416522685
20
7.54148679055723
30
0
41
1
10
-46.0585951172059
20
7.50425382602828
30
0
41
1
10
-46.0788864676936
20
7.47452867309696
30
0
41
1
10
-46.1
20
7.44172192648654
30
0
0
SPLINE
5
DE
100
AcDbEntity
8
SK1
62
256
6
ByLayer
370
18
48
1
60
0
100
AcDbSpline
70
4
71
4
72
13
73
8
40
0
40
0
40
0
40
0
40
0
40
0.373311762320532
40
0.373311762320532
40
0.373311762320532
40
1
40
1
40
1
40
1
40
1
41
1.01084944546408
10
-47.9999996676867
20
4.46685016965744
30
0
41
1.01321629577613
10
-47.9999997071624
20
4.41735868029591
30
0
41
1.01527787986061
10
-47.9999997526979
20
4.36643551053084
30
0
41
1.0166117137858
10
-47.9999998031961
20
4.31490034101463
30
0
41
1.0166117137858
10
-47.9999999476519
20
4.17776916165704
30
0
41
1.01285280749957
10
-48.0000000579615
20
4.08321516937128
30
0
41
1.00820228915385
10
-48.0000001873725
20
3.98311213558622
30
0
41
1.00406933802447
10
-48.0000003323131
20
3.88095142783322
30
0
0
SPLINE
5
DF
100
AcDbEntity
8
SK1
62
256
6
ByLayer
370
18
48
1
60
0
100
AcDbSpline
70
4
71
3
72
22
73
18
40
0
40
0
40
0
40
0
40
0.25
40
0.25
40
0.375
40
0.375
40
0.5
40
0.5
40
0.5625
40
0.5625
40
0.624999999999999
40
0.624999999999999
40
0.749999999999999
40
0.749999999999999
40
0.875
40
0.875
40
1
40
1
40
1
40
1
41
1
10
-48.0000000000026
20
3.88095143174576
30
0
41
1
10
-47.9091262033261
20
3.92674584898384
30
0
41
1
10
-47.8218421884562
20
3.97765544910283
30
0
41
1
10
-47.7043575804758
20
4.07007049575066
30
0
41
1
10
-47.6681369348796
20
4.1031283416458
30
0
41
1
10
-47.6053027586581
20
4.17660343729702
30
0
41
1
10
-47.5787512778626
20
4.21723066289101
30
0
41
1
10
-47.5543855628432
20
4.28317055560166
30
0
41
1
10
-47.5489003496011
20
4.30606638347547
30
0
41
1
10
-47.5444079262241
20
4.35161846118493
30
0
41
1
10
-47.5452987485791
20
4.37466410314602
30
0
41
1
10
-47.5578944412581
20
4.44361824379845
30
0
41
1
10
-47.579275357891
20
4.48686130821037
30
0
41
1
10
-47.6363111697983
20
4.56384656623143
30
0
41
1
10
-47.6720904129051
20
4.59829333520108
30
0
41
1
10
-47.7497405226404
20
4.65979393799705
30
0
41
1
10
-47.7915794939138
20
4.6869286091671
30
0
41
1
10
-47.8353426324044
20
4.71175496244854
30
0
0
SPLINE
5
E0
100
AcDbEntity
8
SK1
62
256
6
ByLayer
370
18
48
1
60
0
100
AcDbSpline
70
4
71
3
72
10
73
6
40
0
40
0
40
0
40
0
40
0.5
40
0.5
40
1
40
1
40
1
40
1
41
1
10
-46.1
20
7.44172192648654
30
0
41
1
10
-46.3919592969999
20
6.98806810209391
30
0
41
1
10
-46.6831432866859
20
6.53401926808795
30
0
41
1
10
-47.2624202546638
20
5.62442975620152
30
0
41
1
10
-47.550616446396
20
5.16893473824612
30
0
41
1
10
-47.8353426324044
20
4.71175496244854
30
0
0
SPLINE
5
E1
100
AcDbEntity
8
SK1
62
256
6
ByLayer
370
18
48
1
60
0
100
AcDbSpline
70
4
71
3
72
10
73
6
40
0
40
0
40
0
40
0
40
0.5
40
0.5
40
1
40
1
40
1
40
1
41
1
10
-48
20
3.02329268681251
30
0
41
1
10
-47.6894982961794
20
3.52545042820603
30
0
41
1
10
-47.373948578408
20
4.02533200521108
30
0
41
1
10
-46.7393979237749
20
5.02316161015111
30
0
41
1
10
-46.420159514285
20
5.5210944185194
30
0
41
1
10
-46.1
20
6.01856646192931
30
0
0
LINE
5
76
100
AcDbEntity
8
81
62
256
6
ByLayer
370
18
48
1
60
0
100
AcDbLine
10
67
20
0
30
0
11
72
21
0
31
0
39
0
210
0
220
0
230
1
0
LINE
5
77
100
AcDbEntity
8
1
62
256
6
ByLayer
370
18
48
1
60
0
100
AcDbLine
10
3.177556
20
7.713276
30
0
11
0.916378
21
7.711919
31
0
39
0
210
0
220
0
230
1
0
LINE
5
79
100
AcDbEntity
8
1
62
256
6
ByLayer
370
18
48
1
60
0
100
AcDbLine
10
21.152712
20
7.724061
30
0
11
20.037266
21
7.723391
31
0
39
0
210
0
220
0
230
1
0
LINE
5
7A
100
AcDbEntity
8
1
62
256
6
ByLayer
370
18
48
1
60
0
100
AcDbLine
10
62.753536
20
7.749021
30
0
11
61.673454
21
7.748373
31
0
39
0
210
0
220
0
230
1
0
LINE
5
7B
100
AcDbEntity
8
1
62
256
6
ByLayer
370
18
48
1
60
0
100
AcDbLine
10
61.673454
20
-7.748373
30
0
11
62.75318
21
-7.749021
31
0
39
0
210
0
220
0
230
1
0
LINE
5
7C
100
AcDbEntity
8
1
62
256
6
ByLayer
370
18
48
1
60
0
100
AcDbLine
10
20.037266
20
-7.723391
30
0
11
21.153132
21
-7.724061
31
0
39
0
210
0
220
0
230
1
0
LINE
5
7D
100
AcDbEntity
8
1
62
256
6
ByLayer
370
18
48
1
60
0
100
AcDbLine
10
0.916378
20
-7.711919
30
0
11
3.177556
21
-7.713276
31
0
39
0
210
0
220
0
230
1
0
LINE
5
7E
100
AcDbEntity
8
SK1
62
256
6
ByLayer
370
18
48
1
60
0
100
AcDbLine
10
0
20
8
30
0
11
-45.979274
21
8
31
0
39
0
210
0
220
0
230
1
0
LINE
5
80
100
AcDbEntity
8
SK1
62
256
6
ByLayer
370
18
48
1
60
0
100
AcDbLine
10
-45.979274
20
-8
30
0
11
0
21
-8
31
0
39
0
210
0
220
0
230
1
0
LINE
5
81
100
AcDbEntity
8
SK1
62
256
6
ByLayer
370
18
48
1
60
0
100
AcDbLine
10
-45.979274
20
8
30
0
11
-48
21
4.5
31
0
39
0
210
0
220
0
230
1
0
LINE
5
82
100
AcDbEntity
8
SK1
62
256
6
ByLayer
370
18
48
1
60
0
100
AcDbLine
10
-48
20
-4.5
30
0
11
-45.979274
21
-8
31
0
39
0
210
0
220
0
230
1
0
LINE
5
83
100
AcDbEntity
8
SK4
62
256
6
ByLayer
370
18
48
0.05
60
0
100
AcDbLine
10
72
20
0
30
0
11
-53
21
0
31
0
39
0
210
0
220
0
230
1
0
LINE
5
85
100
AcDbEntity
8
4
62
256
6
ByLayer
370
18
48
0.05
60
0
100
AcDbLine
10
67
20
0
30
0
11
0
21
0
31
0
39
0
210
0
220
0
230
1
0
LINE
5
87
100
AcDbEntity
8
80
62
256
6
ByLayer
370
18
48
1
60
0
100
AcDbLine
10
0
20
0
30
0
11
-5
21
0
31
0
39
0
210
0
220
0
230
1
0
LINE
5
88
100
AcDbEntity
8
1
62
256
6
ByLayer
370
18
48
1
60
0
100
AcDbLine
10
67
20
0
30
0
11
64.301191
21
-7.414916
31
0
39
0
210
0
220
0
230
1
0
LINE
5
89
100
AcDbEntity
8
1
62
256
6
ByLayer
370
18
48
1
60
0
100
AcDbLine
10
4
20
-1.959134
30
0
11
4
21
7.667345
31
0
39
0
210
0
220
0
230
1
0
LINE
5
8A
100
AcDbEntity
8
1
62
256
6
ByLayer
370
18
48
1
60
0
100
AcDbLine
10
63.096093
20
-4.317446
30
0
11
66.893585
21
-0.085211
31
0
39
0
210
0
220
0
230
1
0
LINE
5
8B
100
AcDbEntity
8
1
62
256
6
ByLayer
370
13
48
1
60
0
100
AcDbLine
10
66.648806
20
1.272251
30
0
11
65.021043
21
1.272251
31
0
39
0
210
0
220
0
230
1
0
LINE
5
8C
100
AcDbEntity
8
1
62
256
6
ByLayer
370
13
48
1
60
0
100
AcDbLine
10
0.457949
20
7.855959
30
0
11
0.457949
21
-7.855959
31
0
39
0
210
0
220
0
230
1
0
LINE
5
8D
100
AcDbEntity
8
1
62
256
6
ByLayer
370
18
48
1
60
0
100
AcDbLine
10
0
20
-8
30
0
11
0
21
8
31
0
39
0
210
0
220
0
230
1
0
LINE
5
8E
100
AcDbEntity
8
1
62
256
6
ByLayer
370
13
48
1
60
0
100
AcDbLine
10
64.851584
20
0.925827
30
0
11
66.893585
21
-0.085211
31
0
39
0
210
0
220
0
230
1
0
LINE
5
8F
100
AcDbEntity
8
1
62
256
6
ByLayer
370
13
48
1
60
0
100
AcDbLine
10
65.021043
20
1.272251
30
0
11
66.90092
21
0.341484
31
0
39
0
210
0
220
0
230
1
0
LINE
5
90
100
AcDbEntity
8
1
62
256
6
ByLayer
370
18
48
1
60
0
100
AcDbLine
10
67
20
0
30
0
11
66.983655
21
-0.073326
31
0
39
0
210
0
220
0
230
1
0
LINE
5
91
100
AcDbEntity
8
1
62
256
6
ByLayer
370
18
48
1
60
0
100
AcDbLine
10
66.90092
20
-0.341484
30
0
11
66.648806
21
-1.272251
31
0
39
0
210
0
220
0
230
1
0
LINE
5
92
100
AcDbEntity
8
1
62
256
6
ByLayer
370
18
48
1
60
0
100
AcDbLine
10
66.90092
20
0.341484
30
0
11
66.648806
21
1.272251
31
0
39
0
210
0
220
0
230
1
0
LINE
5
93
100
AcDbEntity
8
1
62
256
6
ByLayer
370
13
48
1
60
0
100
AcDbLine
10
0.916378
20
7.711919
30
0
11
0.916378
21
-7.711919
31
0
39
0
210
0
220
0
230
1
0
LINE
5
94
100
AcDbEntity
8
1
62
256
6
ByLayer
370
18
48
1
60
0
100
AcDbLine
10
66.983655
20
0.073326
30
0
11
67
21
0
31
0
39
0
210
0
220
0
230
1
0
LINE
5
95
100
AcDbEntity
8
SK1
62
256
6
ByLayer
370
18
48
1
60
0
100
AcDbLine
10
-48
20
4.5
30
0
11
-48
21
4.46685
31
0
39
0
210
0
220
0
230
1
0
LINE
5
96
100
AcDbEntity
8
SK1
62
256
6
ByLayer
370
18
48
1
60
0
100
AcDbLine
10
-46
20
6.237623
30
0
11
-46
21
7.565901
31
0
39
0
210
0
220
0
230
1
0
LINE
5
97
100
AcDbEntity
8
SK1
62
256
6
ByLayer
370
18
48
1
60
0
100
AcDbLine
10
-45.979274
20
8
30
0
11
-45.979274
21
-8
31
0
39
0
210
0
220
0
230
1
0
LINE
5
98
100
AcDbEntity
8
SK1
62
256
6
ByLayer
370
18
48
1
60
0
100
AcDbLine
10
0
20
-8
30
0
11
0
21
8
31
0
39
0
210
0
220
0
230
1
0
LINE
5
99
100
AcDbEntity
8
SK1
62
256
6
ByLayer
370
18
48
1
60
0
100
AcDbLine
10
-48
20
3.880951
30
0
11
-48
21
3.023207
31
0
39
0
210
0
220
0
230
1
0
LINE
5
9A
100
AcDbEntity
8
SK1
62
256
6
ByLayer
370
13
48
1
60
0
100
AcDbLine
10
-46.1
20
7.441722
30
0
11
-46.1
21
6.018507
31
0
39
0
210
0
220
0
230
1
0
LINE
5
9B
100
AcDbEntity
8
SK1
62
256
6
ByLayer
370
18
48
1
60
0
100
AcDbLine
10
-48
20
3.023293
30
0
11
-48
21
-4.5
31
0
39
0
210
0
220
0
230
1
0
MTEXT
5
E2
100
AcDbEntity
8
SK6
62
256
6
ByLayer
370
13
48
1
60
0
100
AcDbMText
10
11.629169
20
40.132694
30
0
210
0
220
0
230
1
1
\W0.7415;R840-1550-30-A1A1220
40
3.5
41
0
44
1.084337
50
0
71
8
72
5
7
iso_b_vert
0
DIMENSION
5
EF
100
AcDbEntity
8
SK2
62
256
6
ByLayer
370
13
48
1
60
0
100
AcDbDimension
2
DimnDraft3D1
10
64.34
20
-17.963398
30
0
11
30.090059
21
-17.963398
31
0
70
32
71
5
72
1
41
1
210
0
220
0
230
1
3
Standard
100
AcDbAlignedDimension
13
0
23
-1.5875
33
0
14
64.34
24
-9.3375
34
0
50
0
100
AcDbRotatedDimension
1001
ACAD
1000
DSTYLE
1002
{
1070
   279
1070
     0
1070
   172
1070
     1
1070
   173
1070
     1
1070
   340
1005
E3
1070
   271
1070
     2
1070
   272
1070
     2
1070
    77
1070
     1
1070
    73
1070
     0
1070
   171
1070
     3
1070
   274
1070
     4
1070
   177
1070
    35
1070
   176
1070
    35
1070
   178
1070
    35
1070
    48
1040
-0.005
1070
    41
1041
3.5
1070
   147
1041
1.75
1070
    42
1041
1.5875
1070
    44
1041
2.0
1070
   140
1041
3.5
1070
   343
1005
0
1070
   344
1005
0
1002
}
0
DIMENSION
5
F9
100
AcDbEntity
8
SK2
62
256
6
ByLayer
370
13
48
1
60
0
100
AcDbDimension
2
DimnDraft3D2
10
67
20
-36.692985
30
0
11
8.1813
21
-36.692985
31
0
70
32
71
5
72
1
41
1
210
0
220
0
230
1
3
Standard
100
AcDbAlignedDimension
13
-48
23
-9.5875
33
0
14
67
24
-1.5875
34
0
50
0
100
AcDbRotatedDimension
1001
ACAD
1000
DSTYLE
1002
{
1070
   279
1070
     0
1070
   172
1070
     1
1070
   173
1070
     1
1070
   340
1005
E3
1070
   271
1070
     2
1070
   272
1070
     2
1070
    77
1070
     1
1070
    73
1070
     0
1070
   171
1070
     3
1070
   274
1070
     4
1070
   177
1070
    35
1070
   176
1070
    35
1070
   178
1070
    35
1070
    48
1040
-0.005
1070
    41
1041
3.5
1070
   147
1041
1.75
1070
    42
1041
1.5875
1070
    44
1041
2.0
1070
   140
1041
3.5
1070
   343
1005
0
1070
   344
1005
0
1002
}
0
DIMENSION
5
103
100
AcDbEntity
8
SK2
62
256
6
ByLayer
370
13
48
1
60
0
100
AcDbDimension
2
DimnDraft3D3
10
67
20
19.359119
30
0
11
42.42
21
19.359119
31
0
70
32
71
5
72
1
41
1
210
0
220
0
230
1
3
Standard
100
AcDbAlignedDimension
13
17.84
23
9.3375
33
0
14
67
24
1.5875
34
0
50
0
100
AcDbRotatedDimension
1001
ACAD
1000
DSTYLE
1002
{
1070
   279
1070
     0
1070
   172
1070
     1
1070
   173
1070
     1
1070
   340
1005
E3
1070
   271
1070
     2
1070
   272
1070
     2
1070
    77
1070
     1
1070
    73
1070
     0
1070
   171
1070
     3
1070
   274
1070
     4
1070
   177
1070
    35
1070
   176
1070
    35
1070
   178
1070
    35
1070
    48
1040
-0.005
1070
    41
1041
3.5
1070
   147
1041
1.75
1070
    42
1041
1.5875
1070
    44
1041
2.0
1070
   140
1041
3.5
1070
   343
1005
0
1070
   344
1005
0
1002
}
0
DIMENSION
5
10D
100
AcDbEntity
8
SK2
62
256
6
ByLayer
370
13
48
1
60
0
100
AcDbDimension
2
DimnDraft3D4
10
64.34
20
-20.552503
30
0
11
76.981425
21
-20.552503
31
0
70
32
71
5
72
1
41
1
210
0
220
0
230
1
3
Standard
100
AcDbAlignedDimension
13
67
23
-1.5875
33
0
14
64.34
24
-9.3375
34
0
50
0
100
AcDbRotatedDimension
1001
ACAD
1000
DSTYLE
1002
{
1070
   279
1070
     0
1070
   172
1070
     1
1070
   173
1070
     1
1070
   340
1005
E3
1070
   271
1070
     2
1070
   272
1070
     2
1070
    77
1070
     1
1070
    73
1070
     0
1070
   171
1070
     3
1070
   274
1070
     4
1070
   177
1070
    35
1070
   176
1070
    35
1070
   178
1070
    35
1070
    48
1040
-0.005
1070
    41
1041
3.5
1070
   147
1041
1.75
1070
    42
1041
1.5875
1070
    44
1041
2.0
1070
   140
1041
3.5
1070
   343
1005
0
1070
   344
1005
0
1002
}
0
DIMENSION
5
117
100
AcDbEntity
8
SK2
62
256
6
ByLayer
370
13
48
1
60
0
100
AcDbDimension
2
DimnDraft3D5
10
64.34
20
-26.343428
30
0
11
5.100676
21
-26.343428
31
0
70
32
71
5
72
1
41
1
210
0
220
0
230
1
3
Standard
100
AcDbAlignedDimension
13
-48
23
-9.5875
33
0
14
64.34
24
-9.3375
34
0
50
0
100
AcDbRotatedDimension
1001
ACAD
1000
DSTYLE
1002
{
1070
   279
1070
     0
1070
   172
1070
     1
1070
   173
1070
     1
1070
   340
1005
E3
1070
   271
1070
     2
1070
   272
1070
     2
1070
    77
1070
     1
1070
    73
1070
     0
1070
   171
1070
     3
1070
   274
1070
     4
1070
   177
1070
    35
1070
   176
1070
    35
1070
   178
1070
    35
1070
    48
1040
-0.005
1070
    41
1041
3.5
1070
   147
1041
1.75
1070
    42
1041
1.5875
1070
    44
1041
2.0
1070
   140
1041
3.5
1070
   343
1005
0
1070
   344
1005
0
1002
}
0
DIMENSION
5
122
100
AcDbEntity
8
SK2
62
256
6
ByLayer
370
13
48
1
60
0
100
AcDbDimension
2
DimnDraft3D6
10
-58.625163
20
8
30
0
11
-59.250163
21
26.47418
31
0
70
33
71
5
72
1
41
1
210
0
220
0
230
1
3
Standard
100
AcDbAlignedDimension
13
-49.5875
23
-8
33
0
14
-49.5875
24
8
34
0
1001
ACAD
1000
DSTYLE
1002
{
1070
   279
1070
     0
1070
    74
1070
     0
1070
   173
1070
     1
1070
   340
1005
E3
1070
   271
1070
     3
1070
   272
1070
     2
1070
    77
1070
     1
1070
    73
1070
     0
1070
   171
1070
     3
1070
   274
1070
     4
1070
   177
1070
    35
1070
   176
1070
    35
1070
   178
1070
    35
1070
    48
1040
-0.005
1070
    41
1041
3.5
1070
   147
1041
1.75
1070
    42
1041
1.5875
1070
    44
1041
2.0
1070
   140
1041
3.5
1070
   343
1005
0
1070
   344
1005
0
1002
}
0
DIMENSION
5
12D
100
AcDbEntity
8
2
62
256
6
ByLayer
370
13
48
1
60
0
100
AcDbDimension
2
DimnDraft3D7
10
81.083343
20
7.75
30
0
11
76.458343
21
24.817266
31
0
70
33
71
5
72
1
41
1
210
0
220
0
230
1
3
Standard
100
AcDbAlignedDimension
13
65.9275
23
-7.75
33
0
14
65.9275
24
7.75
34
0
1001
ACAD
1000
DSTYLE
1002
{
1070
   279
1070
     0
1070
    74
1070
     0
1070
   173
1070
     1
1070
   340
1005
E3
1070
   271
1070
     3
1070
   272
1070
     2
1070
    77
1070
     1
1070
    73
1070
     0
1070
   171
1070
     3
1070
   274
1070
     4
1070
   177
1070
    35
1070
   176
1070
    35
1070
   178
1070
    35
1070
    48
1040
-0.005
1070
    41
1041
3.5
1070
   147
1041
1.75
1070
    42
1041
1.5875
1070
    44
1041
2.0
1070
   140
1041
3.5
1070
   343
1005
0
1070
   344
1005
0
1002
}
0
ENDSEC
0
SECTION
2
OBJECTS
0
DICTIONARY
5
198
330
0
100
AcDbDictionary
280
0
281
1
3
ACAD_GROUP
350
199
3
ACAD_MLINESTYLE
350
19a
0
DICTIONARY
5
199
330
0
100
AcDbDictionary
280
0
281
1
0
DICTIONARY
5
19a
330
0
100
AcDbDictionary
280
0
281
1
3
Standard
350
18
0
MLINESTYLE
5
18
330
19a
100
AcDbMlineStyle
2
Standard
70
0
3

62
256
51
90
52
90
71
2
49
-0.5
62
256
6
ByLayer
49
0.5
62
256
6
ByLayer
0
RASTERVARIABLES
5
186
330

100
AcDbRasterVariables
90
0
70
1
71
1
72
1
0
ENDSEC
0
EOF
