0
SECTION
2
HEADER
9
$ACADVER
1
AC1015
9
$DWGCODEPAGE
3
ANSI_1252
9
$HANDSEED
5
196
9
$ANGBASE
50
0
9
$ANGDIR
70
0
9
$ATTMODE
70
1
9
$AUNITS
70
0
9
$AUPREC
70
0
9
$CECOLOR
62
256
9
$CELTSCALE
40
1
9
$CELTYPE
6
ByLayer
9
$CELWEIGHT
370
18
9
$CLAYER
8
0
9
$CMLJUST
70
0
9
$CMLSCALE
40
1
9
$CMLSTYLE
2
Standard
9
$DIMSTYLE
2
Standard
9
$TEXTSIZE
40
0.2
9
$TEXTSTYLE
7
Standard
9
$LUNITS
70
2
9
$LUPREC
70
4
9
$EXTNAMES
290
1
9
$INSUNITS
70
4
9
$LTSCALE
40
1
9
$LWDISPLAY
290
1
9
$PDMODE
70
0
9
$PDSIZE
40
0
9
$PLINEGEN
70
0
0
ENDSEC
0
SECTION
2
CLASSES
0
CLASS
1
RASTERVARIABLES
2
AcDbRasterVariables
3
ISM
90
0
280
0
281
0
0
ENDSEC
0
SECTION
2
TABLES
0
TABLE
2
VPORT
5
18c
100
AcDbSymbolTable
0
VPORT
5
1
100
AcDbSymbolTableRecord
100
AcDbViewportTableRecord
2
*Active
70
0
10
0
20
0
11
1
21
1
12
-1
22
1
13
0
23
0
14
0.5
24
0.5
15
10
25
10
16
0
26
0
36
1
17
0
27
0
37
0
0
ENDTAB
0
TABLE
2
LTYPE
5
18d
100
AcDbSymbolTable
0
LTYPE
5
14
100
AcDbSymbolTableRecord
100
AcDbLinetypeTableRecord
70
0
2
ByBlock
3

72
65
73
0
40
0
0
LTYPE
5
15
100
AcDbSymbolTableRecord
100
AcDbLinetypeTableRecord
70
0
2
ByLayer
3

72
65
73
0
40
0
0
LTYPE
5
16
100
AcDbSymbolTableRecord
100
AcDbLinetypeTableRecord
70
0
2
CONTINUOUS
3
Solid line
72
65
73
0
40
0
0
LTYPE
5
6A
100
AcDbSymbolTableRecord
100
AcDbLinetypeTableRecord
70
0
2
CENTER
3
____ _ ____ _ ____ _ ____
72
65
73
4
40
47.5
49
22
74
0
49
-8.5
74
0
49
8.5
74
0
49
-8.5
74
0
0
LTYPE
5
6B
100
AcDbSymbolTableRecord
100
AcDbLinetypeTableRecord
70
0
2
DASHED
3
__ __ __ __ __ __ __ __ __
72
65
73
2
40
25.72
49
12.86
74
0
49
-12.86
74
0
0
ENDTAB
0
TABLE
2
LAYER
5
18e
100
AcDbSymbolTable
0
LAYER
5
10
100
AcDbSymbolTableRecord
100
AcDbLayerTableRecord
2
0
70
0
62
7
6
CONTINUOUS
290
1
370
-3
390
0
0
LAYER
5
6D
100
AcDbSymbolTableRecord
100
AcDbLayerTableRecord
2
81
70
0
62
-3
6
CONTINUOUS
290
1
370
-3
390
0
0
LAYER
5
6F
100
AcDbSymbolTableRecord
100
AcDbLayerTableRecord
2
80
70
0
62
-6
6
CONTINUOUS
290
1
370
-3
390
0
0
LAYER
5
74
100
AcDbSymbolTableRecord
100
AcDbLayerTableRecord
2
2
70
0
62
7
6
CONTINUOUS
290
1
370
-3
390
0
0
LAYER
5
78
100
AcDbSymbolTableRecord
100
AcDbLayerTableRecord
2
1
70
0
62
4
6
CONTINUOUS
290
1
370
-3
390
0
0
LAYER
5
86
100
AcDbSymbolTableRecord
100
AcDbLayerTableRecord
2
4
70
0
62
-2
6
CENTER
290
1
370
-3
390
0
0
LAYER
5
178
100
AcDbSymbolTableRecord
100
AcDbLayerTableRecord
2
SK2
70
0
62
7
6
CONTINUOUS
290
1
370
-3
390
0
0
LAYER
5
179
100
AcDbSymbolTableRecord
100
AcDbLayerTableRecord
2
SK1
70
0
62
4
6
CONTINUOUS
290
1
370
-3
390
0
0
LAYER
5
17a
100
AcDbSymbolTableRecord
100
AcDbLayerTableRecord
2
SK4
70
0
62
2
6
CENTER
290
1
370
-3
390
0
0
LAYER
5
17b
100
AcDbSymbolTableRecord
100
AcDbLayerTableRecord
2
SK6
70
0
62
5
6
CONTINUOUS
290
1
370
-3
390
0
0
ENDTAB
0
TABLE
2
STYLE
5
18f
100
AcDbSymbolTable
0
STYLE
5
11
100
AcDbSymbolTableRecord
100
AcDbTextStyleTableRecord
2
Standard
3
txt
70
0
71
0
40
0
41
1
42
0
50
0
0
STYLE
5
D4
100
AcDbSymbolTableRecord
100
AcDbTextStyleTableRecord
2
iso_b_vert
3
simplex.shx
70
0
71
0
40
0
41
1
42
0
50
0
0
STYLE
5
D5
100
AcDbSymbolTableRecord
100
AcDbTextStyleTableRecord
2
DWGDirectTextStyle
3
simplex
70
0
71
0
40
0
41
1
42
0
50
0
0
ENDTAB
0
TABLE
2
DIMSTYLE
5
190
100
AcDbSymbolTable
100
AcDbDimStyleTable
0
DIMSTYLE
105
27
100
AcDbSymbolTableRecord
100
AcDbDimStyleTableRecord
2
Standard
70
0
3
<>
41
0.18
42
0.0625
44
0.18
140
0.18
147
0.09
73
0
74
0
77
1
271
2
275
0
278
52
280
0
340
11
0
ENDTAB
0
TABLE
2
VIEW
5
191
100
AcDbSymbolTable
0
ENDTAB
0
TABLE
2
UCS
5
192
100
AcDbSymbolTable
0
ENDTAB
0
TABLE
2
APPID
5
193
100
AcDbSymbolTable
0
APPID
5
12
100
AcDbSymbolTableRecord
100
AcDbRegAppTableRecord
2
ACAD
70
0
0
ENDTAB
0
TABLE
2
BLOCK_RECORD
5
194
100
AcDbSymbolTable
0
BLOCK_RECORD
5
1F
100
AcDbSymbolTableRecord
100
AcDbBlockTableRecord
2
*Model_Space
340
0
70
0
0
BLOCK_RECORD
5
1B
100
AcDbSymbolTableRecord
100
AcDbBlockTableRecord
2
*Paper_Space
340
0
70
0
0
BLOCK_RECORD
5
23
100
AcDbSymbolTableRecord
100
AcDbBlockTableRecord
2
*Paper_Space0
340
0
70
0
0
BLOCK_RECORD
5
D7
100
AcDbSymbolTableRecord
100
AcDbBlockTableRecord
2
DimnDraft3D1
340
0
70
0
0
BLOCK_RECORD
5
E1
100
AcDbSymbolTableRecord
100
AcDbBlockTableRecord
2
DimnDraft3D2
340
0
70
0
0
BLOCK_RECORD
5
EB
100
AcDbSymbolTableRecord
100
AcDbBlockTableRecord
2
DimnDraft3D3
340
0
70
0
0
BLOCK_RECORD
5
F5
100
AcDbSymbolTableRecord
100
AcDbBlockTableRecord
2
DimnDraft3D4
340
0
70
0
0
BLOCK_RECORD
5
FF
100
AcDbSymbolTableRecord
100
AcDbBlockTableRecord
2
DimnDraft3D5
340
0
70
0
0
BLOCK_RECORD
5
109
100
AcDbSymbolTableRecord
100
AcDbBlockTableRecord
2
DimnDraft3D6
340
0
70
0
0
BLOCK_RECORD
5
114
100
AcDbSymbolTableRecord
100
AcDbBlockTableRecord
2
DimnDraft3D7
340
0
70
0
0
ENDTAB
0
ENDSEC
0
SECTION
2
BLOCKS
0
BLOCK
5
20
100
AcDbEntity
8
0
100
AcDbBlockBegin
2
*Model_Space
70
0
10
0
20
0
30
0
3
*Model_Space
0
ENDBLK
5
21
100
AcDbEntity
8
0
100
AcDbBlockEnd
0
BLOCK
5
1C
100
AcDbEntity
8
0
100
AcDbBlockBegin
2
*Paper_Space
70
0
10
0
20
0
30
0
3
*Paper_Space
0
ENDBLK
5
1D
100
AcDbEntity
8
0
100
AcDbBlockEnd
0
BLOCK
5
24
100
AcDbEntity
8
0
100
AcDbBlockBegin
2
*Paper_Space0
70
0
10
0
20
0
30
0
3
*Paper_Space0
0
ENDBLK
5
25
100
AcDbEntity
8
0
100
AcDbBlockEnd
0
BLOCK
5
DE
100
AcDbEntity
8
0
100
AcDbBlockBegin
2
DimnDraft3D1
70
0
10
0
20
0
30
0
3
DimnDraft3D1
0
MTEXT
5
D8
100
AcDbEntity
8
SK2
62
256
6
ByLayer
370
13
48
1
60
0
100
AcDbMText
10
34.547164
20
-16.838398
30
0
210
0
220
0
230
1
1
\W0.7581;82,43
40
3.5
41
0
44
1.084337
50
0
71
7
72
5
7
iso_b_vert
0
LINE
5
D9
100
AcDbEntity
8
SK2
62
256
6
ByLayer
370
13
48
1
60
0
100
AcDbLine
10
0
20
-1.5875
30
0
11
0
21
-19.713398
31
0
39
0
210
0
220
0
230
1
0
LINE
5
DA
100
AcDbEntity
8
SK2
62
256
6
ByLayer
370
13
48
1
60
0
100
AcDbLine
10
82.43
20
-9.0875
30
0
11
82.43
21
-19.713398
31
0
39
0
210
0
220
0
230
1
0
LINE
5
DB
100
AcDbEntity
8
SK2
62
256
6
ByLayer
370
13
48
1
60
0
100
AcDbLine
10
0
20
-17.713398
30
0
11
82.43
21
-17.713398
31
0
39
0
210
0
220
0
230
1
0
SOLID
5
DC
100
AcDbEntity
8
SK2
62
256
6
ByLayer
370
13
48
1
60
0
100
AcDbTrace
10
0
20
-17.713398
30
0
11
3.499998
21
-17.252615
31
0
12
3.500002
22
-18.174182
32
0
13
0
23
-17.713398
33
0
39
0
210
0
220
0
230
1
0
SOLID
5
DD
100
AcDbEntity
8
SK2
62
256
6
ByLayer
370
13
48
1
60
0
100
AcDbTrace
10
82.43
20
-17.713398
30
0
11
78.930002
21
-18.174182
31
0
12
78.929998
22
-17.252615
32
0
13
82.43
23
-17.713398
33
0
39
0
210
0
220
0
230
1
0
ENDBLK
5
DF
100
AcDbEntity
8
0
100
AcDbBlockEnd
0
BLOCK
5
E8
100
AcDbEntity
8
0
100
AcDbBlockBegin
2
DimnDraft3D2
70
0
10
0
20
0
30
0
3
DimnDraft3D2
0
MTEXT
5
E2
100
AcDbEntity
8
SK2
62
256
6
ByLayer
370
13
48
1
60
0
100
AcDbMText
10
11.952221
20
-35.817985
30
0
210
0
220
0
230
1
1
\W0.6930;133,00
40
3.5
41
0
44
1.084337
50
0
71
7
72
5
7
iso_b_vert
0
LINE
5
E3
100
AcDbEntity
8
SK2
62
256
6
ByLayer
370
13
48
1
60
0
100
AcDbLine
10
-48
20
-9.5875
30
0
11
-48
21
-38.692985
31
0
39
0
210
0
220
0
230
1
0
LINE
5
E4
100
AcDbEntity
8
SK2
62
256
6
ByLayer
370
13
48
1
60
0
100
AcDbLine
10
85
20
-1.5875
30
0
11
85
21
-38.692985
31
0
39
0
210
0
220
0
230
1
0
LINE
5
E5
100
AcDbEntity
8
SK2
62
256
6
ByLayer
370
13
48
1
60
0
100
AcDbLine
10
-48
20
-36.692985
30
0
11
85
21
-36.692985
31
0
39
0
210
0
220
0
230
1
0
SOLID
5
E6
100
AcDbEntity
8
SK2
62
256
6
ByLayer
370
13
48
1
60
0
100
AcDbTrace
10
-48
20
-36.692985
30
0
11
-44.500002
21
-36.232202
31
0
12
-44.499998
22
-37.153769
32
0
13
-48
23
-36.692985
33
0
39
0
210
0
220
0
230
1
0
SOLID
5
E7
100
AcDbEntity
8
SK2
62
256
6
ByLayer
370
13
48
1
60
0
100
AcDbTrace
10
85
20
-36.692985
30
0
11
81.500002
21
-37.153769
31
0
12
81.499998
22
-36.232202
32
0
13
85
23
-36.692985
33
0
39
0
210
0
220
0
230
1
0
ENDBLK
5
E9
100
AcDbEntity
8
0
100
AcDbBlockEnd
0
BLOCK
5
F2
100
AcDbEntity
8
0
100
AcDbBlockBegin
2
DimnDraft3D3
70
0
10
0
20
0
30
0
3
DimnDraft3D3
0
MTEXT
5
EC
100
AcDbEntity
8
SK2
62
256
6
ByLayer
370
13
48
1
60
0
100
AcDbMText
10
41.766316
20
19.984119
30
0
210
0
220
0
230
1
1
\W0.7317;77,57
40
3.5
41
0
44
1.084337
50
0
71
7
72
5
7
iso_b_vert
0
LINE
5
ED
100
AcDbEntity
8
SK2
62
256
6
ByLayer
370
13
48
1
60
0
100
AcDbLine
10
7.43
20
9.0875
30
0
11
7.43
21
21.109119
31
0
39
0
210
0
220
0
230
1
0
LINE
5
EE
100
AcDbEntity
8
SK2
62
256
6
ByLayer
370
13
48
1
60
0
100
AcDbLine
10
85
20
1.5875
30
0
11
85
21
21.109119
31
0
39
0
210
0
220
0
230
1
0
LINE
5
EF
100
AcDbEntity
8
SK2
62
256
6
ByLayer
370
13
48
1
60
0
100
AcDbLine
10
7.43
20
19.109119
30
0
11
85
21
19.109119
31
0
39
0
210
0
220
0
230
1
0
SOLID
5
F0
100
AcDbEntity
8
SK2
62
256
6
ByLayer
370
13
48
1
60
0
100
AcDbTrace
10
7.43
20
19.109119
30
0
11
10.929998
21
19.569903
31
0
12
10.930002
22
18.648335
32
0
13
7.43
23
19.109119
33
0
39
0
210
0
220
0
230
1
0
SOLID
5
F1
100
AcDbEntity
8
SK2
62
256
6
ByLayer
370
13
48
1
60
0
100
AcDbTrace
10
85
20
19.109119
30
0
11
81.500002
21
18.648335
31
0
12
81.499998
22
19.569903
32
0
13
85
23
19.109119
33
0
39
0
210
0
220
0
230
1
0
ENDBLK
5
F3
100
AcDbEntity
8
0
100
AcDbBlockEnd
0
BLOCK
5
FC
100
AcDbEntity
8
0
100
AcDbBlockBegin
2
DimnDraft3D4
70
0
10
0
20
0
30
0
3
DimnDraft3D4
0
MTEXT
5
F6
100
AcDbEntity
8
SK2
62
256
6
ByLayer
370
13
48
1
60
0
100
AcDbMText
10
91.840636
20
-19.427503
30
0
210
0
220
0
230
1
1
\W0.7150;2,57
40
3.5
41
0
44
1.084337
50
0
71
7
72
5
7
iso_b_vert
0
LINE
5
F7
100
AcDbEntity
8
SK2
62
256
6
ByLayer
370
13
48
1
60
0
100
AcDbLine
10
85
20
-1.5875
30
0
11
85
21
-22.302503
31
0
39
0
210
0
220
0
230
1
0
LINE
5
F8
100
AcDbEntity
8
SK2
62
256
6
ByLayer
370
13
48
1
60
0
100
AcDbLine
10
82.43
20
-9.0875
30
0
11
82.43
21
-22.302503
31
0
39
0
210
0
220
0
230
1
0
LINE
5
F9
100
AcDbEntity
8
SK2
62
256
6
ByLayer
370
13
48
1
60
0
100
AcDbLine
10
73.68
20
-20.302503
30
0
11
98.997215
21
-20.302503
31
0
39
0
210
0
220
0
230
1
0
SOLID
5
FA
100
AcDbEntity
8
SK2
62
256
6
ByLayer
370
13
48
1
60
0
100
AcDbTrace
10
85
20
-20.302503
30
0
11
88.499998
21
-19.841719
31
0
12
88.500002
22
-20.763287
32
0
13
85
23
-20.302503
33
0
39
0
210
0
220
0
230
1
0
SOLID
5
FB
100
AcDbEntity
8
SK2
62
256
6
ByLayer
370
13
48
1
60
0
100
AcDbTrace
10
82.43
20
-20.302503
30
0
11
78.930002
21
-20.763287
31
0
12
78.929998
22
-19.841719
32
0
13
82.43
23
-20.302503
33
0
39
0
210
0
220
0
230
1
0
ENDBLK
5
FD
100
AcDbEntity
8
0
100
AcDbBlockEnd
0
BLOCK
5
106
100
AcDbEntity
8
0
100
AcDbBlockBegin
2
DimnDraft3D5
70
0
10
0
20
0
30
0
3
DimnDraft3D5
0
MTEXT
5
100
100
AcDbEntity
8
SK2
62
256
6
ByLayer
370
13
48
1
60
0
100
AcDbMText
10
8.687387
20
-25.468428
30
0
210
0
220
0
230
1
1
\W0.7145;130,43
40
3.5
41
0
44
1.084337
50
0
71
7
72
5
7
iso_b_vert
0
LINE
5
101
100
AcDbEntity
8
SK2
62
256
6
ByLayer
370
13
48
1
60
0
100
AcDbLine
10
-48
20
-9.5875
30
0
11
-48
21
-28.343428
31
0
39
0
210
0
220
0
230
1
0
LINE
5
102
100
AcDbEntity
8
SK2
62
256
6
ByLayer
370
13
48
1
60
0
100
AcDbLine
10
82.43
20
-9.0875
30
0
11
82.43
21
-28.343428
31
0
39
0
210
0
220
0
230
1
0
LINE
5
103
100
AcDbEntity
8
SK2
62
256
6
ByLayer
370
13
48
1
60
0
100
AcDbLine
10
-48
20
-26.343428
30
0
11
82.43
21
-26.343428
31
0
39
0
210
0
220
0
230
1
0
SOLID
5
104
100
AcDbEntity
8
SK2
62
256
6
ByLayer
370
13
48
1
60
0
100
AcDbTrace
10
-48
20
-26.343428
30
0
11
-44.500002
21
-25.882645
31
0
12
-44.499998
22
-26.804212
32
0
13
-48
23
-26.343428
33
0
39
0
210
0
220
0
230
1
0
SOLID
5
105
100
AcDbEntity
8
SK2
62
256
6
ByLayer
370
13
48
1
60
0
100
AcDbTrace
10
82.43
20
-26.343428
30
0
11
78.930002
21
-26.804212
31
0
12
78.929998
22
-25.882645
32
0
13
82.43
23
-26.343428
33
0
39
0
210
0
220
0
230
1
0
ENDBLK
5
107
100
AcDbEntity
8
0
100
AcDbBlockEnd
0
BLOCK
5
111
100
AcDbEntity
8
0
100
AcDbBlockBegin
2
DimnDraft3D6
70
0
10
0
20
0
30
0
3
DimnDraft3D6
0
MTEXT
5
10A
100
AcDbEntity
8
SK2
62
256
6
ByLayer
370
13
48
1
60
0
100
AcDbMText
10
-58.375163
20
27.34918
30
0
210
0
220
0
230
1
1
\W0.6930;16,000
40
3.5
41
0
44
1.084337
50
90
71
7
72
5
7
iso_b_vert
0
MTEXT
5
10B
100
AcDbEntity
8
SK2
62
256
6
ByLayer
370
13
48
1
60
0
100
AcDbMText
10
-58.375163
20
22.126524
30
0
210
0
220
0
230
1
1
%%c
40
3.5
41
0
44
1.084337
50
90
71
7
72
5
7
iso_b_vert
0
LINE
5
10C
100
AcDbEntity
8
SK2
62
256
6
ByLayer
370
13
48
1
60
0
100
AcDbLine
10
-49.5875
20
-8
30
0
11
-58.625163
21
-8
31
0
39
0
210
0
220
0
230
1
0
LINE
5
10D
100
AcDbEntity
8
SK2
62
256
6
ByLayer
370
13
48
1
60
0
100
AcDbLine
10
-49.5875
20
8
30
0
11
-58.625163
21
8
31
0
39
0
210
0
220
0
230
1
0
LINE
5
10E
100
AcDbEntity
8
SK2
62
256
6
ByLayer
370
13
48
1
60
0
100
AcDbLine
10
-56.625163
20
-8
30
0
11
-56.625163
21
38.862338
31
0
39
0
210
0
220
0
230
1
0
SOLID
5
10F
100
AcDbEntity
8
SK2
62
256
6
ByLayer
370
13
48
1
60
0
100
AcDbTrace
10
-56.625163
20
-8
30
0
11
-57.085946
21
-4.500002
31
0
12
-56.164379
22
-4.499998
32
0
13
-56.625163
23
-8
33
0
39
0
210
0
220
0
230
1
0
SOLID
5
110
100
AcDbEntity
8
SK2
62
256
6
ByLayer
370
13
48
1
60
0
100
AcDbTrace
10
-56.625163
20
8
30
0
11
-56.164379
21
4.500002
31
0
12
-57.085946
22
4.499998
32
0
13
-56.625163
23
8
33
0
39
0
210
0
220
0
230
1
0
ENDBLK
5
112
100
AcDbEntity
8
0
100
AcDbBlockEnd
0
BLOCK
5
11C
100
AcDbEntity
8
0
100
AcDbBlockBegin
2
DimnDraft3D7
70
0
10
0
20
0
30
0
3
DimnDraft3D7
0
MTEXT
5
115
100
AcDbEntity
8
2
62
256
6
ByLayer
370
13
48
1
60
0
100
AcDbMText
10
95.333343
20
25.442266
30
0
210
0
220
0
230
1
1
\W0.6930;15,000
40
3.5
41
0
44
1.084337
50
90
71
7
72
5
7
iso_b_vert
0
MTEXT
5
116
100
AcDbEntity
8
2
62
256
6
ByLayer
370
13
48
1
60
0
100
AcDbMText
10
95.333343
20
20.21961
30
0
210
0
220
0
230
1
1
%%c
40
3.5
41
0
44
1.084337
50
90
71
7
72
5
7
iso_b_vert
0
LINE
5
117
100
AcDbEntity
8
2
62
256
6
ByLayer
370
13
48
1
60
0
100
AcDbLine
10
84.0175
20
-7.5
30
0
11
99.083343
21
-7.5
31
0
39
0
210
0
220
0
230
1
0
LINE
5
118
100
AcDbEntity
8
2
62
256
6
ByLayer
370
13
48
1
60
0
100
AcDbLine
10
84.0175
20
7.5
30
0
11
99.083343
21
7.5
31
0
39
0
210
0
220
0
230
1
0
LINE
5
119
100
AcDbEntity
8
2
62
256
6
ByLayer
370
13
48
1
60
0
100
AcDbLine
10
97.083343
20
-7.5
30
0
11
97.083343
21
36.955424
31
0
39
0
210
0
220
0
230
1
0
SOLID
5
11A
100
AcDbEntity
8
2
62
256
6
ByLayer
370
13
48
1
60
0
100
AcDbTrace
10
97.083343
20
-7.5
30
0
11
96.622559
21
-4.000002
31
0
12
97.544126
22
-3.999998
32
0
13
97.083343
23
-7.5
33
0
39
0
210
0
220
0
230
1
0
SOLID
5
11B
100
AcDbEntity
8
2
62
256
6
ByLayer
370
13
48
1
60
0
100
AcDbTrace
10
97.083343
20
7.5
30
0
11
97.544126
21
4.000002
31
0
12
96.622559
22
3.999998
32
0
13
97.083343
23
7.5
33
0
39
0
210
0
220
0
230
1
0
ENDBLK
5
11D
100
AcDbEntity
8
0
100
AcDbBlockEnd
0
ENDSEC
0
SECTION
2
ENTITIES
0
ARC
5
99
100
AcDbEntity
8
1
62
256
6
ByLayer
370
18
48
1
60
0
100
AcDbCircle
39
0
10
0
20
7.2
30
0
40
0.8
210
0
220
0
230
1
100
AcDbArc
50
41.07343
51
90
0
ARC
5
9A
100
AcDbEntity
8
1
62
256
6
ByLayer
370
18
48
1
60
0
100
AcDbCircle
39
0
10
0
20
-7.2
30
0
40
0.8
210
0
220
0
230
1
100
AcDbArc
50
270
51
318.92657
0
ARC
5
9B
100
AcDbEntity
8
1
62
256
6
ByLayer
370
18
48
1
60
0
100
AcDbCircle
39
0
10
-1.206189
20
8.251241
30
0
40
0.800000000000001
210
0
220
0
230
-1
100
AcDbArc
50
269.965623
51
318.92657
0
ARC
5
9C
100
AcDbEntity
8
1
62
256
6
ByLayer
370
18
48
1
60
0
100
AcDbCircle
39
0
10
-1.206189
20
-8.251241
30
0
40
0.800000000000001
210
0
220
0
230
-1
100
AcDbArc
50
41.07343
51
90.034377
0
ELLIPSE
5
9D
100
AcDbEntity
8
1
62
256
6
ByLayer
370
18
48
1
60
0
100
AcDbEllipse
10
4.25
20
7.378528
30
0
11
0.25
21
0
31
0
210
0
220
0
230
1
40
0.999992
41
-3.13610465621743
42
-1.55201066213336
0
ELLIPSE
5
9E
100
AcDbEntity
8
1
62
256
6
ByLayer
370
18
48
1
60
0
100
AcDbEllipse
10
4.25
20
-7.378528
30
0
11
0.25
21
0
31
0
210
0
220
0
230
1
40
0.999992
41
1.58459763822895
42
3.13610465621745
0
ELLIPSE
5
9F
100
AcDbEntity
8
1
62
256
6
ByLayer
370
18
48
1
60
0
100
AcDbEllipse
10
83.636446
20
3.478522
30
0
11
1.15481763043794
21
-3.14857150965322
31
0
210
0
220
0
230
-1
40
0.082138
41
-1.58617754189105
42
-0.755280950345297
0
ELLIPSE
5
A0
100
AcDbEntity
8
1
62
256
6
ByLayer
370
18
48
1
60
0
100
AcDbEllipse
10
85.000635
20
-0.001638
30
0
11
2.75012227198552
21
-7.49811606230039
31
0
210
0
220
0
230
-1
40
0.082138
41
-2.99489105542598
42
-2.90521683839575
0
ELLIPSE
5
A1
100
AcDbEntity
8
1
62
256
6
ByLayer
370
18
48
1
60
0
100
AcDbEllipse
10
85.014011
20
-0.069797
30
0
11
0.135658546011954
21
0.401200806173877
31
0
210
0
220
0
230
-1
40
0.065863
41
-2.32292776273874
42
-1.5959383458766
0
ELLIPSE
5
A2
100
AcDbEntity
8
1
62
256
6
ByLayer
370
18
48
1
60
0
100
AcDbEllipse
10
83.636446
20
-3.478522
30
0
11
1.15481763042924
21
3.14857150963296
31
0
210
0
220
0
230
-1
40
0.082138
41
0.755280950344886
42
1.58617754189565
0
ELLIPSE
5
A3
100
AcDbEntity
8
1
62
256
6
ByLayer
370
13
48
1
60
0
100
AcDbEllipse
10
83.056499
20
1.039004
30
0
11
0.133113781883907
21
0.268850741253513
31
0
210
0
220
0
230
1
40
0.40558
41
0.884485917130962
42
2.28074931872654
0
ELLIPSE
5
A4
100
AcDbEntity
8
1
62
256
6
ByLayer
370
18
48
1
60
0
100
AcDbEllipse
10
85.014011
20
0.069797
30
0
11
0.135658545999564
21
-0.401200806142315
31
0
210
0
220
0
230
-1
40
0.065863
41
1.59593834581792
42
2.32292776273172
0
ELLIPSE
5
A5
100
AcDbEntity
8
1
62
256
6
ByLayer
370
18
48
1
60
0
100
AcDbEllipse
10
85.000635
20
0.001638
30
0
11
2.75012213336596
21
7.4981156653491
31
0
210
0
220
0
230
-1
40
0.082138
41
2.90521683211318
42
2.99489105154606
0
ELLIPSE
5
A6
100
AcDbEntity
8
1
62
256
6
ByLayer
370
13
48
1
60
0
100
AcDbEllipse
10
83.947628
20
3.34423
30
0
11
4.89150501748451
21
-2.51467051052109
31
0
210
0
220
0
230
-1
40
0.482873
41
1.53949524916544
42
1.88019552137573
0
ELLIPSE
5
A7
100
AcDbEntity
8
1
62
256
6
ByLayer
370
13
48
1
60
0
100
AcDbEllipse
10
84.117087
20
3.478522
30
0
11
4.93889863350391
21
-2.20181019803853
31
0
210
0
220
0
230
-1
40
0.456108
41
1.58221398346907
42
1.92571181555781
0
ELLIPSE
5
A8
100
AcDbEntity
8
1
62
256
6
ByLayer
370
18
48
1
60
0
100
AcDbEllipse
10
84.859643
20
0.146228
30
0
11
0.0868803724490116
21
0.290676908893695
31
0
210
0
220
0
230
-1
40
0.467765
41
1.69126318916857
42
2.36053717394755
0
POINT
5
6C
100
AcDbEntity
8
81
62
256
6
ByLayer
370
18
48
1
60
0
100
AcDbPoint
10
85
20
0
30
0
39
0
210
0
220
0
230
1
50
360
0
POINT
5
6E
100
AcDbEntity
8
80
62
256
6
ByLayer
370
18
48
1
60
0
100
AcDbPoint
10
0
20
0
30
0
39
0
210
0
220
0
230
1
50
360
0
POINT
5
70
100
AcDbEntity
8
SK2
62
256
6
ByLayer
370
18
48
1
60
1
100
AcDbPoint
10
-48
20
-8
30
0
39
0
210
0
220
0
230
1
50
360
0
POINT
5
72
100
AcDbEntity
8
SK2
62
256
6
ByLayer
370
18
48
1
60
1
100
AcDbPoint
10
-48
20
8
30
0
39
0
210
0
220
0
230
1
50
360
0
POINT
5
73
100
AcDbEntity
8
2
62
256
6
ByLayer
370
18
48
1
60
1
100
AcDbPoint
10
82.43
20
-7.5
30
0
39
0
210
0
220
0
230
1
50
360
0
POINT
5
75
100
AcDbEntity
8
2
62
256
6
ByLayer
370
18
48
1
60
1
100
AcDbPoint
10
82.43
20
7.5
30
0
39
0
210
0
220
0
230
1
50
360
0
SPLINE
5
A9
100
AcDbEntity
8
1
62
256
6
ByLayer
370
18
48
1
60
0
100
AcDbSpline
70
4
71
1
72
4
73
2
40
0
40
0
40
1
40
1
41
1
10
60.0249594533142
20
-0.0002397768950289
30
0
41
1
10
60.0249758090336
20
-0.000230362424162
30
0
0
SPLINE
5
AA
100
AcDbEntity
8
1
62
256
6
ByLayer
370
18
48
1
60
0
100
AcDbSpline
70
4
71
1
72
4
73
2
40
0
40
0
40
1
40
1
41
1
10
60.0249758090366
20
0.000230362422343
30
0
41
1
10
60.0249594527987
20
0.0002397771959579
30
0
0
SPLINE
5
AB
100
AcDbEntity
8
1
62
256
6
ByLayer
370
18
48
1
60
0
100
AcDbSpline
70
4
71
3
72
31
73
27
40
0
40
0
40
0
40
0
40
0.0506078579466206
40
0.105836300853921
40
0.149088133620772
40
0.183542053331021
40
0.211961881614728
40
0.234947062215156
40
0.261501647896563
40
0.294742301177802
40
0.358981604873029
40
0.422599871816818
40
0.48126440958214
40
0.53497656191891
40
0.57995812555861
40
0.633292841253404
40
0.67038732760981
40
0.715922931906473
40
0.769685190788041
40
0.815790655171905
40
0.843297103805862
40
0.871707143216717
40
0.901466469141296
40
0.935177452889258
40
0.983390731773556
40
1
40
1
40
1
40
1
41
1
10
4.25057635725958
20
-7.12846296062435
30
0
41
1
10
4.50227276046979
20
-7.12915367570412
30
0
41
1
10
5.02864766180656
20
-7.13032290316991
30
0
41
1
10
5.77014736980084
20
-7.13099860537005
30
0
41
1
10
6.43129702098679
20
-7.13118336805013
30
0
41
1
10
6.95909868574054
20
-7.13126505578623
30
0
41
1
10
7.38613548771076
20
-7.13132799567035
30
0
41
1
10
7.77382828802246
20
-7.1314027821021
30
0
41
1
10
8.18555232013082
20
-7.13140152825548
30
0
41
1
10
8.80243031655957
20
-7.13212623329656
30
0
41
1
10
9.60358608692178
20
-7.13380056474264
30
0
41
1
10
10.5313158629972
20
-7.1335418895533
30
0
41
1
10
11.4065165916149
20
-7.13489637731567
30
0
41
1
10
12.1890666897176
20
-7.13467672878014
30
0
41
1
10
12.9452026802112
20
-7.13409122563743
30
0
41
1
10
13.6186684287335
20
-7.13504890157446
30
0
41
1
10
14.2948986591589
20
-7.13572973209116
30
0
41
1
10
14.9732339317329
20
-7.13566551419115
30
0
41
1
10
15.6964617821323
20
-7.13616034856111
30
0
41
1
10
16.3296114555931
20
-7.13701471566111
30
0
41
1
10
16.8357882736555
20
-7.13693425914067
30
0
41
1
10
17.2624187828793
20
-7.136981979491
30
0
41
1
10
17.7181909716884
20
-7.13736716193643
30
0
41
1
10
18.2699965197602
20
-7.13789653814913
30
0
41
1
10
18.761001222672
20
-7.13855604241488
30
0
41
1
10
19.0832695517915
20
-7.13864454418371
30
0
41
1
10
19.16587585172
20
-7.13865702315871
30
0
0
SPLINE
5
AC
100
AcDbEntity
8
1
62
256
6
ByLayer
370
18
48
1
60
0
100
AcDbSpline
70
4
71
2
72
6
73
3
40
0
40
0
40
0
40
1
40
1
40
1
41
1
10
81.0380027545379
20
-7.17427926280314
30
0
41
1
10
81.7130175020424
20
-7.17189180612849
30
0
41
1
10
82.3880522365124
20
-7.17719015314574
30
0
0
SPLINE
5
AD
100
AcDbEntity
8
1
62
256
6
ByLayer
370
18
48
1
60
0
100
AcDbSpline
70
4
71
3
72
42
73
38
40
0
40
0
40
0
40
0
40
0.0300702681115112
40
0.0594486085116394
40
0.0846641631748193
40
0.107344385611604
40
0.128937968514867
40
0.148326147797997
40
0.167006412350075
40
0.188862025474408
40
0.215535165666245
40
0.248468851405569
40
0.278514625523717
40
0.303165402454498
40
0.337907530609788
40
0.375397880873695
40
0.407937447053339
40
0.433148165437974
40
0.461003871422478
40
0.492758692647982
40
0.519892507731727
40
0.546692090336217
40
0.57545560066488
40
0.61187701139364
40
0.655614868725808
40
0.686703222416733
40
0.711768602433056
40
0.737516447514387
40
0.766758739882494
40
0.798143515471218
40
0.839063212728992
40
0.876451353248839
40
0.908177545705224
40
0.938924958175525
40
0.959047972442097
40
0.980254363816199
40
1
40
1
40
1
40
1
41
1
10
39.3968201617236
20
-7.14875636261471
30
0
41
1
10
39.6081596464804
20
-7.14839856157221
30
0
41
1
10
40.0294078611197
20
-7.14798790840337
30
0
41
1
10
40.6446612916746
20
-7.14593807398694
30
0
41
1
10
41.204700891764
20
-7.14866912510414
30
0
41
1
10
41.6922592564811
20
-7.15064823082116
30
0
41
1
10
42.1440075309938
20
-7.15086443644168
30
0
41
1
10
42.56043709304
20
-7.14907138626569
30
0
41
1
10
42.9990678812181
20
-7.14756849842351
30
0
41
1
10
43.4760377933806
20
-7.15122488512705
30
0
41
1
10
44.0569542441931
20
-7.15181127311081
30
0
41
1
10
44.7109974998679
20
-7.15274038184998
30
0
41
1
10
45.346315588253
20
-7.15308821374779
30
0
41
1
10
45.9957638499686
20
-7.15290799523044
30
0
41
1
10
46.6990020435405
20
-7.15343104333598
30
0
41
1
10
47.4595860393383
20
-7.15446604793775
30
0
41
1
10
48.1509632956974
20
-7.1543577813527
30
0
41
1
10
48.7723894742051
20
-7.1541009098238
30
0
41
1
10
49.3881344299605
20
-7.1552016439224
30
0
41
1
10
50.0178298434345
20
-7.15548296866828
30
0
41
1
10
50.6398628729034
20
-7.15523324862718
30
0
41
1
10
51.2401838148718
20
-7.15514028719141
30
0
41
1
10
51.9079244937319
20
-7.15674213634588
30
0
41
1
10
52.6986255604782
20
-7.15679732474598
30
0
41
1
10
53.5062014988436
20
-7.15588706081621
30
0
41
1
10
54.2313407725052
20
-7.15778223007388
30
0
41
1
10
54.8258863297077
20
-7.15782506517698
30
0
41
1
10
55.4070328020343
20
-7.1576602302172
30
0
41
1
10
56.0340509888321
20
-7.15821613411336
30
0
41
1
10
56.771209916634
20
-7.15962188298971
30
0
41
1
10
57.5674890900105
20
-7.15894790182969
30
0
41
1
10
58.3662236676428
20
-7.15920562096164
30
0
41
1
10
59.0911714466155
20
-7.16062580422926
30
0
41
1
10
59.6906393509116
20
-7.16052874365755
30
0
41
1
10
60.2072578750448
20
-7.15993621895345
30
0
41
1
10
60.6390395149405
20
-7.15771672031346
30
0
41
1
10
60.9368278425272
20
-7.15814033672169
30
0
41
1
10
61.0813625351303
20
-7.15854691804853
30
0
0
SPLINE
5
AE
100
AcDbEntity
8
1
62
256
6
ByLayer
370
18
48
1
60
0
100
AcDbSpline
70
4
71
3
72
33
73
29
40
0
40
0
40
0
40
0
40
0.0166913438575265
40
0.0578609009920239
40
0.0958888747189785
40
0.153668271145924
40
0.219563139001557
40
0.26346451235079
40
0.299070079548919
40
0.324974701634918
40
0.361855323875234
40
0.408464300263474
40
0.440787565653283
40
0.467276496940611
40
0.50313685533026
40
0.540560633049517
40
0.574557417321886
40
0.60510914650314
40
0.63218320565607
40
0.687855229803766
40
0.743642328877783
40
0.772065413632507
40
0.79836618023554
40
0.822219725810647
40
0.850179799168291
40
0.891709195115638
40
0.947040762513557
40
1
40
1
40
1
40
1
41
1
10
19.5073279295375
20
7.13546313556859
30
0
41
1
10
19.4220831530768
20
7.13518571663894
30
0
41
1
10
19.1275068955732
20
7.13449715873733
30
0
41
1
10
18.6501412103966
20
7.13816959592418
30
0
41
1
10
17.9635417118376
20
7.13756767443942
30
0
41
1
10
17.1371207286099
20
7.13719859509786
30
0
41
1
10
16.2847898981376
20
7.13707006765407
30
0
41
1
10
15.544231767777
20
7.13598903021199
30
0
41
1
10
15.0075083894058
20
7.13573671095949
30
0
41
1
10
14.5064860987301
20
7.13570527951615
30
0
41
1
10
13.9494439456902
20
7.13549921980592
30
0
41
1
10
13.3597153525969
20
7.13461220768804
30
0
41
1
10
12.822901602424
20
7.13424240920219
30
0
41
1
10
12.3408212736101
20
7.13449622968457
30
0
41
1
10
11.8327717160911
20
7.13492881941468
30
0
41
1
10
11.286489538457
20
7.13457516995374
30
0
41
1
10
10.7672386560815
20
7.13395435084669
30
0
41
1
10
10.3006886099437
20
7.13373494249319
30
0
41
1
10
9.72376662120323
20
7.13360827156407
30
0
41
1
10
9.01834349962675
20
7.13290338337188
30
0
41
1
10
8.30605425950819
20
7.13135803704989
30
0
41
1
10
7.74332819072421
20
7.13141210713147
30
0
41
1
10
7.34320279859469
20
7.13133566098776
30
0
41
1
10
6.9454439197103
20
7.13128336853327
30
0
41
1
10
6.47012751855976
20
7.13119730174046
30
0
41
1
10
5.8345569559298
20
7.13102814259332
30
0
41
1
10
5.07165104540442
20
7.13039457774673
30
0
41
1
10
4.52024218867993
20
7.12918895339021
30
0
41
1
10
4.25057850722698
20
7.12845285978855
30
0
0
SPLINE
5
AF
100
AcDbEntity
8
1
62
256
6
ByLayer
370
18
48
1
60
0
100
AcDbSpline
70
4
71
3
72
34
73
30
40
0
40
0
40
0
40
0
40
0.0037261763030907
40
0.0364206846200627
40
0.0648862492221649
40
0.0922861540551206
40
0.118794712920256
40
0.146877259775853
40
0.191528186800739
40
0.240793382341479
40
0.287901097645881
40
0.330303511042288
40
0.374911306551161
40
0.432458692131469
40
0.490343143377237
40
0.535177239717016
40
0.572817617682921
40
0.610974093579774
40
0.651713498300021
40
0.686910562781922
40
0.720374796423505
40
0.764877004056986
40
0.802461766312648
40
0.837486610476918
40
0.875118066775585
40
0.922832735092438
40
0.959711247337354
40
0.988746180542507
40
1
40
1
40
1
40
1
41
1
10
61.0866091718762
20
7.1583959004335
30
0
41
1
10
61.064195697236
20
7.15831065200206
30
0
41
1
10
60.8452504118015
20
7.15755490527616
30
0
41
1
10
60.4539242293731
20
7.15885550024211
30
0
41
1
10
59.9340253331486
20
7.16041070040836
30
0
41
1
10
59.4390493574261
20
7.16059188661856
30
0
41
1
10
58.9446264744284
20
7.16034996890068
30
0
41
1
10
58.3462904938122
20
7.15922683612243
30
0
41
1
10
57.6107024787576
20
7.1589126062164
30
0
41
1
10
56.7604171798313
20
7.15968506390269
30
0
41
1
10
55.923663584484
20
7.1579468787177
30
0
41
1
10
55.1149976754393
20
7.15766273725592
30
0
41
1
10
54.2433852680875
20
7.15798124041191
30
0
41
1
10
53.2784256864923
20
7.15564685425292
30
0
41
1
10
52.3121010654443
20
7.15725599719977
30
0
41
1
10
51.4658044409815
20
7.15558597409168
30
0
41
1
10
50.7384567931645
20
7.15506083014532
30
0
41
1
10
50.0358012406476
20
7.15554712563252
30
0
41
1
10
49.3478809342712
20
7.15513398495654
30
0
41
1
10
48.6882470104972
20
7.15402443199133
30
0
41
1
10
48.0059301353025
20
7.15446505959559
30
0
41
1
10
47.3092242435096
20
7.15435680484188
30
0
41
1
10
46.6030649468624
20
7.15329057831178
30
0
41
1
10
45.9384795074569
20
7.15288489865941
30
0
41
1
10
45.2122018642119
20
7.15321501001233
30
0
41
1
10
44.477436107976
20
7.15208608705652
30
0
41
1
10
43.7860051807158
20
7.15210704831395
30
0
41
1
10
43.3420021515406
20
7.14970803593712
30
0
41
1
10
43.0993960799194
20
7.14874006853194
30
0
41
1
10
43.0314396652402
20
7.14855153499641
30
0
0
SPLINE
5
B0
100
AcDbEntity
8
1
62
256
6
ByLayer
370
18
48
1
60
0
100
AcDbSpline
70
4
71
3
72
20
73
16
40
0
40
0
40
0
40
0
40
0.249999999999998
40
0.249999999999998
40
0.499999999999996
40
0.499999999999996
40
0.624999999999999
40
0.624999999999999
40
0.750000000000001
40
0.750000000000001
40
0.875000000000004
40
0.875000000000004
40
0.937500000000002
40
0.937500000000002
40
1
40
1
40
1
40
1
41
1
10
83.8772720263561
20
-3.62179261325599
30
0
41
1
10
83.7607292678957
20
-3.93413678892949
30
0
41
1
10
83.6440401292083
20
-4.24598503548603
30
0
41
1
10
83.410231976318
20
-4.86822513118068
30
0
41
1
10
83.293287707775
20
-5.17920901014787
30
0
41
1
10
83.1176484643268
20
-5.64492985532823
30
0
41
1
10
83.0590623322352
20
-5.80003557572101
30
0
41
1
10
82.9417227856761
20
-6.10968027192152
30
0
41
1
10
82.8829637348117
20
-6.26420015188961
30
0
41
1
10
82.7654358047099
20
-6.57320661377474
30
0
41
1
10
82.7066425289495
20
-6.7276283050233
30
0
41
1
10
82.6184146723193
20
-6.9584775114715
30
0
41
1
10
82.5889962241424
20
-7.0352881130874
30
0
41
1
10
82.5301294181408
20
-7.18845514068636
30
0
41
1
10
82.5006761642643
20
-7.26473722050676
30
0
41
1
10
82.4712135576623
20
-7.3408772799342
30
0
0
SPLINE
5
B1
100
AcDbEntity
8
1
62
256
6
ByLayer
370
18
48
1
60
0
100
AcDbSpline
70
4
71
3
72
24
73
20
40
0
40
0
40
0
40
0
40
0.125000000000001
40
0.125000000000001
40
0.250000000000001
40
0.250000000000001
40
0.375000000000001
40
0.375000000000001
40
0.500000000000002
40
0.500000000000002
40
0.625000000000002
40
0.625000000000002
40
0.687500000000002
40
0.687500000000002
40
0.750000000000002
40
0.750000000000002
40
0.875000000000001
40
0.875000000000001
40
1
40
1
40
1
40
1
41
1
10
13.1938182781747
20
-6.43706379085828
30
0
41
1
10
12.8002156627099
20
-6.34565075845126
30
0
41
1
10
12.409521975899
20
-6.24506206315712
30
0
41
1
10
11.632895894291
20
-6.02394454126258
30
0
41
1
10
11.2469951930287
20
-5.90299244023737
30
0
41
1
10
10.4788985760313
20
-5.64166908639672
30
0
41
1
10
10.096694728258
20
-5.50142786861753
30
0
41
1
10
9.33548745383982
20
-5.20014899878703
30
0
41
1
10
8.95650971432624
20
-5.03871683613184
30
0
41
1
10
8.20159785089407
20
-4.69430261733351
30
0
41
1
10
7.82561191659769
20
-4.51194621980056
30
0
41
1
10
7.26435648808334
20
-4.21952946901015
30
0
41
1
10
7.07743731249752
20
-4.11875627260653
30
0
41
1
10
6.70653419975778
20
-3.91128355269129
30
0
41
1
10
6.52250532817922
20
-3.80457836398699
30
0
41
1
10
5.97526719421032
20
-3.47456574317675
30
0
41
1
10
5.61679066032008
20
-3.2415432380798
30
0
41
1
10
4.91788801734796
20
-2.74053523961922
30
0
41
1
10
4.57725589435057
20
-2.47289409835145
30
0
41
1
10
4.25120106066862
20
-2.17865330398098
30
0
0
SPLINE
5
B2
100
AcDbEntity
8
1
62
256
6
ByLayer
370
18
48
1
60
0
100
AcDbSpline
70
4
71
3
72
8
73
4
40
0
40
0
40
0
40
0
40
1
40
1
40
1
40
1
41
1
10
82.4767136306184
20
-7.13239478782148
30
0
41
1
10
82.4423112785376
20
-7.16070658279151
30
0
41
1
10
82.412892128271
20
-7.1749628975931
30
0
41
1
10
82.3885390361861
20
-7.17493002986566
30
0
0
SPLINE
5
B3
100
AcDbEntity
8
1
62
256
6
ByLayer
370
18
48
1
60
0
100
AcDbSpline
70
4
71
3
72
30
73
26
40
0
40
0
40
0
40
0
40
0.0625000000000017
40
0.0625000000000017
40
0.0937500000000024
40
0.0937500000000024
40
0.125000000000003
40
0.125000000000003
40
0.250000000000006
40
0.250000000000006
40
0.281250000000007
40
0.281250000000007
40
0.312500000000007
40
0.312500000000007
40
0.375000000000007
40
0.375000000000007
40
0.437500000000006
40
0.437500000000006
40
0.500000000000005
40
0.500000000000005
40
0.750000000000003
40
0.750000000000003
40
0.875000000000001
40
0.875000000000001
40
1
40
1
40
1
40
1
41
1
10
74.6013835818577
20
3.56780734296979
30
0
41
1
10
74.6186090957019
20
3.37292826375031
30
0
41
1
10
74.6509870743115
20
3.17495907660165
30
0
41
1
10
74.7211021716146
20
2.87361089229387
30
0
41
1
10
74.7480721576265
20
2.77242768325166
30
0
41
1
10
74.8090872986657
20
2.56861839523074
30
0
41
1
10
74.8431751199633
20
2.46597465179789
30
0
41
1
10
75.0275155988202
20
1.95808957699146
30
0
41
1
10
75.2207472949115
20
1.56134087388708
30
0
41
1
10
75.5069200409811
20
1.07472908545802
30
0
41
1
10
75.5662691721804
20
0.978180498678171
30
0
41
1
10
75.6879298915594
20
0.787992132808967
30
0
41
1
10
75.7503786154587
20
0.694116140408056
30
0
41
1
10
75.9421627762346
20
0.41582876864598
30
0
41
1
10
76.075917781737
20
0.234744129106986
30
0
41
1
10
76.3534985296122
20
-0.119844608922904
30
0
41
1
10
76.4973382527573
20
-0.293338183673399
30
0
41
1
10
76.793935381398
20
-0.63361273031461
30
0
41
1
10
76.9470430151444
20
-0.800749719586577
30
0
41
1
10
77.7287734086379
20
-1.61722084952291
30
0
41
1
10
78.3930114971683
20
-2.19756112448241
30
0
41
1
10
79.4285749839158
20
-2.99457394885579
30
0
41
1
10
79.7803744457154
20
-3.247850494478
30
0
41
1
10
80.4957207335806
20
-3.73238157008893
30
0
41
1
10
80.8574829302939
20
-3.96241608266106
30
0
41
1
10
81.2218682779561
20
-4.18096817169391
30
0
0
SPLINE
5
B4
100
AcDbEntity
8
1
62
256
6
ByLayer
370
18
48
1
60
0
100
AcDbSpline
70
4
71
3
72
16
73
12
40
0
40
0
40
0
40
0
40
0.261554766942438
40
0.261554766942438
40
0.3695459048621
40
0.3695459048621
40
0.477537042781761
40
0.477537042781761
40
0.693519318621081
40
0.693519318621081
40
1
40
1
40
1
40
1
41
1
10
59.9501412145529
20
0.0411069125380834
30
0
41
1
10
60.9320343651065
20
-0.497305109737823
30
0
41
1
10
61.9146079401129
20
-1.0364785818966
30
0
41
1
10
63.311651587803
20
-1.78478501844535
30
0
41
1
10
63.7210009192911
20
-2.00176375906318
30
0
41
1
10
64.5425417454989
20
-2.43112280560106
30
0
41
1
10
64.9527738526793
20
-2.64243270299937
30
0
41
1
10
66.1785302517515
20
-3.26152061807193
30
0
41
1
10
66.9912054894636
20
-3.65535352930635
30
0
41
1
10
68.9534405861865
20
-4.55198025545855
30
0
41
1
10
70.1013240766112
20
-5.03133425282007
30
0
41
1
10
71.2552028182018
20
-5.45084065920688
30
0
0
SPLINE
5
B5
100
AcDbEntity
8
1
62
256
6
ByLayer
370
13
48
1
60
0
100
AcDbSpline
70
4
71
3
72
22
73
18
40
0
40
0
40
0
40
0
40
0.126826586760078
40
0.126826586760078
40
0.181399925087574
40
0.181399925087574
40
0.23597326341507
40
0.23597326341507
40
0.345119940070061
40
0.345119940070061
40
0.563413293380043
40
0.563413293380043
40
0.781706646690024
40
0.781706646690024
40
0.890853323345012
40
0.890853323345012
40
1
40
1
40
1
40
1
41
1
10
71.2552028176154
20
-5.45084065899363
30
0
41
1
10
71.7276409816118
20
-5.62260119958114
30
0
41
1
10
72.2010841708831
20
-5.78432907599424
30
0
41
1
10
72.8805874940913
20
-5.99999941467306
30
0
41
1
10
73.085318527455
20
-6.06285438491599
30
0
41
1
10
73.4954853348562
20
-6.18437232196598
30
0
41
1
10
73.7011485887351
20
-6.24309519933513
30
0
41
1
10
74.3166834009098
20
-6.41205322468733
30
0
41
1
10
74.7256273024665
20
-6.51524760803667
30
0
41
1
10
75.9495196761924
20
-6.79591934844234
30
0
41
1
10
76.7615763885188
20
-6.94455887991171
30
0
41
1
10
78.3839006200335
20
-7.16210185432598
30
0
41
1
10
79.1943742894204
20
-7.23112081954937
30
0
41
1
10
80.4135460212201
20
-7.27328810308424
30
0
41
1
10
80.8205320668414
20
-7.27711056151705
30
0
41
1
10
81.636410641903
20
-7.26394651378897
30
0
41
1
10
82.0453750934515
20
-7.24643211290987
30
0
41
1
10
82.4555200820498
20
-7.21943722993586
30
0
0
SPLINE
5
B6
100
AcDbEntity
8
1
62
256
6
ByLayer
370
18
48
1
60
0
100
AcDbSpline
70
4
71
3
72
20
73
16
40
0
40
0
40
0
40
0
40
0.25
40
0.25
40
0.5
40
0.5
40
0.625
40
0.625
40
0.75
40
0.75
40
0.875
40
0.875
40
0.9375
40
0.9375
40
1
40
1
40
1
40
1
41
1
10
83.8772720263561
20
3.62179261325602
30
0
41
1
10
83.7607292678962
20
3.93413678892827
30
0
41
1
10
83.6440401292092
20
4.24598503548359
30
0
41
1
10
83.4102319763198
20
4.86822513117568
30
0
41
1
10
83.2932877077772
20
5.17920901014165
30
0
41
1
10
83.1176484643297
20
5.64492985532013
30
0
41
1
10
83.0590623322385
20
5.80003557571232
30
0
41
1
10
82.9417227856799
20
6.1096802719116
30
0
41
1
10
82.8829637348157
20
6.26420015187907
30
0
41
1
10
82.7654358047144
20
6.57320661376295
30
0
41
1
10
82.7066425289542
20
6.72762830501088
30
0
41
1
10
82.6184146723245
20
6.9584775114582
30
0
41
1
10
82.5889962241477
20
7.03528811307382
30
0
41
1
10
82.5301294181462
20
7.1884551406722
30
0
41
1
10
82.5006761642698
20
7.26473722049235
30
0
41
1
10
82.471213557668
20
7.34087727991951
30
0
0
SPLINE
5
B7
100
AcDbEntity
8
1
62
256
6
ByLayer
370
18
48
1
60
0
100
AcDbSpline
70
4
71
3
72
18
73
14
40
0
40
0
40
0
40
0
40
0.127619990311357
40
0.127619990311357
40
0.438130778193236
40
0.438130778193236
40
0.74864156607511
40
0.74864156607511
40
0.903896960016048
40
0.903896960016048
40
0.981524656986516
40
0.981524656986516
40
1
40
1
40
1
40
1
41
1
10
81.0323137975809
20
-7.17426575884386
30
0
41
1
10
80.6973334465786
20
-7.17404859696001
30
0
41
1
10
80.3629439020648
20
-7.16692649925614
30
0
41
1
10
79.216310708634
20
-7.11910569432735
30
0
41
1
10
78.4059372391884
20
-7.04492031627393
30
0
41
1
10
76.7837892025108
20
-6.81845978734643
30
0
41
1
10
75.9718501966963
20
-6.66601952268249
30
0
41
1
10
74.7482336426815
20
-6.38086277250144
30
0
41
1
10
74.3394055827536
20
-6.27636970046402
30
0
41
1
10
73.7240928808805
20
-6.10576813251242
30
0
41
1
10
73.5185601460174
20
-6.04656172101156
30
0
41
1
10
73.2648282536991
20
-5.97080924225207
30
0
41
1
10
73.2160689485299
20
-5.95613026260096
30
0
41
1
10
73.1673284459972
20
-5.94133626022392
30
0
0
SPLINE
5
B8
100
AcDbEntity
8
1
62
256
6
ByLayer
370
13
48
1
60
0
100
AcDbSpline
70
4
71
3
72
20
73
16
40
0
40
0
40
0
40
0
40
0.0270270493913085
40
0.0270270493913085
40
0.31077536503696
40
0.31077536503696
40
0.452649522859786
40
0.452649522859786
40
0.5235866017712
40
0.5235866017712
40
0.594523680682613
40
0.594523680682613
40
0.878271996328264
40
0.878271996328264
40
1
40
1
40
1
40
1
41
1
10
73.1673284459823
20
-5.94133626021934
30
0
41
1
10
73.0112763794166
20
-5.89397042433833
30
0
41
1
10
72.8554170554859
20
-5.84542551001442
30
0
41
1
10
71.0652241454554
20
-5.27400890400713
30
0
41
1
10
69.4494768053893
20
-4.62589501184584
30
0
41
1
10
67.0165284857223
20
-3.51935713943416
30
0
41
1
10
66.2040278816432
20
-3.12813439172473
30
0
41
1
10
64.9786366564553
20
-2.51419873408332
30
0
41
1
10
64.5684895229134
20
-2.30477159550003
30
0
41
1
10
63.7474817852454
20
-1.87974703494425
30
0
41
1
10
63.338356802212
20
-1.66509604420682
30
0
41
1
10
61.2980798551866
20
-0.584046967994311
30
0
41
1
10
59.6823218981072
20
0.304447579865808
30
0
41
1
10
57.362123603821
20
1.54226684620414
30
0
41
1
10
56.664017321349
20
1.90956730212036
30
0
41
1
10
55.9625439703065
20
2.26916456846374
30
0
0
SPLINE
5
B9
100
AcDbEntity
8
1
62
256
6
ByLayer
370
18
48
1
60
0
100
AcDbSpline
70
4
71
3
72
106
73
102
40
0
40
0
40
0
40
0
40
0.0103902921019826
40
0.0103902921019826
40
0.0290108719001247
40
0.0290108719001247
40
0.0476314516982667
40
0.0476314516982667
40
0.0662520314964088
40
0.0662520314964088
40
0.0848726112945508
40
0.0848726112945508
40
0.122113770890835
40
0.122113770890835
40
0.140734350688977
40
0.140734350688977
40
0.159354930487119
40
0.159354930487119
40
0.177975510285261
40
0.177975510285261
40
0.196596090083403
40
0.196596090083403
40
0.215216669881545
40
0.215216669881545
40
0.233837249679687
40
0.233837249679687
40
0.252457829477829
40
0.252457829477829
40
0.271078409275971
40
0.271078409275971
40
0.289698989074114
40
0.289698989074114
40
0.308319568872256
40
0.308319568872256
40
0.34556072846854
40
0.34556072846854
40
0.364181308266683
40
0.364181308266683
40
0.382801888064825
40
0.382801888064825
40
0.401422467862967
40
0.401422467862967
40
0.42004304766111
40
0.42004304766111
40
0.457284207257395
40
0.457284207257395
40
0.475904787055537
40
0.475904787055537
40
0.494525366853679
40
0.494525366853679
40
0.513145946651822
40
0.513145946651822
40
0.531766526449964
40
0.531766526449964
40
0.550387106248106
40
0.550387106248106
40
0.569007686046249
40
0.569007686046249
40
0.606248845642534
40
0.606248845642534
40
0.624869425440676
40
0.624869425440676
40
0.643490005238819
40
0.643490005238819
40
0.662110585036961
40
0.662110585036961
40
0.680731164835103
40
0.680731164835103
40
0.717972324431387
40
0.717972324431387
40
0.736592904229529
40
0.736592904229529
40
0.755213484027671
40
0.755213484027671
40
0.773834063825813
40
0.773834063825813
40
0.792454643623955
40
0.792454643623955
40
0.811075223422096
40
0.811075223422096
40
0.829695803220238
40
0.829695803220238
40
0.84831638301838
40
0.84831638301838
40
0.866936962816522
40
0.866936962816522
40
0.885557542614664
40
0.885557542614664
40
0.904178122412805
40
0.904178122412805
40
0.922798702210947
40
0.922798702210947
40
0.941419282009089
40
0.941419282009089
40
0.960039861807231
40
0.960039861807231
40
0.978660441605372
40
0.978660441605372
40
0.997281021403514
40
0.997281021403514
40
1
40
1
40
1
40
1
41
1
10
28.2652876662463
20
5.49138909471546
30
0
41
1
10
28.4436129754036
20
5.55935390685354
30
0
41
1
10
28.6219395824002
20
5.62587242592136
30
0
41
1
10
29.1197495429613
20
5.80770276251812
30
0
41
1
10
29.4388678904855
20
5.92018374180225
30
0
41
1
10
30.0783931307383
20
6.1342266098543
30
0
41
1
10
30.3991508877404
20
6.23556041981098
30
0
41
1
10
31.0394003770188
20
6.42678509686422
30
0
41
1
10
31.3592296095328
20
6.51675339304413
30
0
41
1
10
31.9979762198478
20
6.68565150587261
30
0
41
1
10
32.3165479178938
20
6.76481287302155
30
0
41
1
10
33.2737637284392
20
6.98330636332085
30
0
41
1
10
33.913840255862
20
7.10411358299714
30
0
41
1
10
34.8745527045253
20
7.24923036643031
30
0
41
1
10
35.1938964649072
20
7.29150350658128
30
0
41
1
10
35.8329372736205
20
7.36260772879641
30
0
41
1
10
36.1525781410448
20
7.3915907723277
30
0
41
1
10
36.7916414915291
20
7.43673995082219
30
0
41
1
10
37.1110813052835
20
7.45289923008673
30
0
41
1
10
37.7494511398808
20
7.47228768772743
30
0
41
1
10
38.0681414955637
20
7.47546871666447
30
0
41
1
10
38.7074925510037
20
7.46868537930038
30
0
41
1
10
39.0281375963409
20
7.45876555883709
30
0
41
1
10
39.6688632071021
20
7.42596561149043
30
0
41
1
10
39.9887682593829
20
7.40310939750054
30
0
41
1
10
40.6273284652872
20
7.34431721110863
30
0
41
1
10
40.9458768288079
20
7.30828430397537
30
0
41
1
10
41.5843151667426
20
7.22403989860635
30
0
41
1
10
41.9038270825393
20
7.17573632822612
30
0
41
1
10
42.5430597357319
20
7.06665419601796
30
0
41
1
10
42.8627893557152
20
7.00588000483816
30
0
41
1
10
43.5021440857138
20
6.87140614124604
30
0
41
1
10
43.8220102434635
20
6.79764750933302
30
0
41
1
10
44.7816641373763
20
6.56063414950611
30
0
41
1
10
45.4210928941008
20
6.38056201643801
30
0
41
1
10
46.3776975634141
20
6.075351765682
30
0
41
1
10
46.6964470337773
20
5.96799051083093
30
0
41
1
10
47.3356071521999
20
5.74413451584806
30
0
41
1
10
47.655671478821
20
5.62729498248029
30
0
41
1
10
48.2964304213485
20
5.38336190008687
30
0
41
1
10
48.6165831821629
20
5.256462174506
30
0
41
1
10
49.2549627802068
20
4.99276937613141
30
0
41
1
10
49.573920156104
20
4.85660196960254
30
0
41
1
10
50.531928322312
20
4.43782780290209
30
0
41
1
10
51.1709735379427
20
4.14355209767237
30
0
41
1
10
52.1285308150292
20
3.67669853873554
30
0
41
1
10
52.4485501958269
20
3.51779958225026
30
0
41
1
10
53.0890159611051
20
3.19537389500084
30
0
41
1
10
53.4089938340067
20
3.03172928279321
30
0
41
1
10
54.048111226895
20
2.69906429943467
30
0
41
1
10
54.3671548154053
20
2.52988147114579
30
0
41
1
10
55.0045105875164
20
2.18624966570331
30
0
41
1
10
55.3235733445512
20
2.01307034228998
30
0
41
1
10
55.9625155504319
20
1.66413637356146
30
0
41
1
10
56.2823050647861
20
1.48822872887555
30
0
41
1
10
56.9221962412107
20
1.13293518452761
30
0
41
1
10
57.2423504286993
20
0.953126828916851
30
0
41
1
10
58.2003802589529
20
0.411688828591622
30
0
41
1
10
58.8396580378016
20
0.0524957143076961
30
0
41
1
10
59.7972444436885
20
-0.48761274292994
30
0
41
1
10
60.1159860742507
20
-0.6682785138714
30
0
41
1
10
60.7539589576
20
-1.02838463647501
30
0
41
1
10
61.0737387826166
20
-1.20685397569875
30
0
41
1
10
61.7143029039878
20
-1.56166035745792
30
0
41
1
10
62.0346946420734
20
-1.7377302010249
30
0
41
1
10
62.6738639249724
20
-2.08693103129639
30
0
41
1
10
62.9925566122559
20
-2.26071180403122
30
0
41
1
10
63.949037542861
20
-2.77430060003877
30
0
41
1
10
64.5882025845874
20
-3.10486746701005
30
0
41
1
10
65.5467605207124
20
-3.58706247821337
30
0
41
1
10
65.8661671161628
20
-3.74609311496275
30
0
41
1
10
66.5057614502274
20
-4.05589997608016
30
0
41
1
10
66.8255822525359
20
-4.20646589594861
30
0
41
1
10
67.4647562657819
20
-4.49986309704724
30
0
41
1
10
67.7841328455567
20
-4.64265739543146
30
0
41
1
10
68.4221425922027
20
-4.92083576098989
30
0
41
1
10
68.7404514789475
20
-5.05661929525203
30
0
41
1
10
69.3785402474682
20
-5.31774443184455
30
0
41
1
10
69.6981628911327
20
-5.4433343182728
30
0
41
1
10
70.3380938341682
20
-5.68520884123114
30
0
41
1
10
70.6586694902087
20
-5.80154995499987
30
0
41
1
10
71.2978871743242
20
-6.02427489873304
30
0
41
1
10
71.6164986329255
20
-6.13096855404723
30
0
41
1
10
72.2546950627435
20
-6.33199358068646
30
0
41
1
10
72.5739863686019
20
-6.42667767050042
30
0
41
1
10
73.2125368551655
20
-6.6048990610565
30
0
41
1
10
73.5318093094197
20
-6.68842316699616
30
0
41
1
10
74.1700205886782
20
-6.84439660733031
30
0
41
1
10
74.4888277280254
20
-6.9168873214621
30
0
41
1
10
75.1286912500271
20
-7.04884005236212
30
0
41
1
10
75.4490351033017
20
-7.10852433195655
30
0
41
1
10
76.0883898154356
20
-7.21534994208071
30
0
41
1
10
76.407673405749
20
-7.26254093494069
30
0
41
1
10
77.045113100734
20
-7.34450484168056
30
0
41
1
10
77.3633063327549
20
-7.37920216643249
30
0
41
1
10
78.0011827412406
20
-7.43528389429608
30
0
41
1
10
78.32047165834
20
-7.45683714856213
30
0
41
1
10
78.9593988232429
20
-7.48707207293464
30
0
41
1
10
79.2790436915928
20
-7.49575305167337
30
0
41
1
10
79.6453811712953
20
-7.49816754755787
30
0
41
1
10
79.6920511392861
20
-7.49833355221821
30
0
41
1
10
79.7387154536572
20
-7.49835845528597
30
0
0
SPLINE
5
BA
100
AcDbEntity
8
1
62
256
6
ByLayer
370
18
48
1
60
0
100
AcDbSpline
70
4
71
3
72
34
73
30
40
0
40
0
40
0
40
0
40
0.127388616591419
40
0.127388616591419
40
0.191082924887128
40
0.191082924887128
40
0.254777233182836
40
0.254777233182836
40
0.318471541478545
40
0.318471541478545
40
0.382165849774253
40
0.382165849774253
40
0.509554466365668
40
0.509554466365668
40
0.573248774661375
40
0.573248774661375
40
0.636943082957083
40
0.636943082957083
40
0.70063739125279
40
0.70063739125279
40
0.764331699548497
40
0.764331699548497
40
0.828026007844205
40
0.828026007844205
40
0.891720316139912
40
0.891720316139912
40
0.95541462443562
40
0.95541462443562
40
1
40
1
40
1
40
1
41
1
10
13.1939776093534
20
-6.43710098064662
30
0
41
1
10
13.8351220739069
20
-6.58674988853491
30
0
41
1
10
14.4750931675626
20
-6.71275894503441
30
0
41
1
10
15.4336174559953
20
-6.866286132944
30
0
41
1
10
15.7528758378125
20
-6.91184477896689
30
0
41
1
10
16.3916838338511
20
-6.99069903217645
30
0
41
1
10
16.711477879564
20
-7.02377078344597
30
0
41
1
10
17.3516863040291
20
-7.07737257030405
30
0
41
1
10
17.6723217186657
20
-7.09804312425214
30
0
41
1
10
18.3132441416804
20
-7.12751299971248
30
0
41
1
10
18.6329967623379
20
-7.13618535748688
30
0
41
1
10
19.5919860825746
20
-7.14248491829233
30
0
41
1
10
20.2312862245234
20
-7.12118985808269
30
0
41
1
10
21.1899100539934
20
-7.05335783272673
30
0
41
1
10
21.5092897192191
20
-7.02429771455743
30
0
41
1
10
22.1492336033997
20
-6.9537849165682
30
0
41
1
10
22.4700484832791
20
-6.91256055832108
30
0
41
1
10
23.110886776487
20
-6.81896344072115
30
0
41
1
10
23.4308492572915
20
-6.76579135304291
30
0
41
1
10
24.07000102666
20
-6.64674669927012
30
0
41
1
10
24.3890992161613
20
-6.58106515317846
30
0
41
1
10
25.0279061935126
20
-6.43974663036923
30
0
41
1
10
25.347466251116
20
-6.3644911191758
30
0
41
1
10
25.986828900824
20
-6.20120049996618
30
0
41
1
10
26.3066691058329
20
-6.11335333947693
30
0
41
1
10
26.9467029747246
20
-5.92707969311826
30
0
41
1
10
27.2670609189651
20
-5.82840451962761
30
0
41
1
10
27.8113040144043
20
-5.6537225978432
30
0
41
1
10
28.0352885553083
20
-5.5794102375973
30
0
41
1
10
28.2591556347656
20
-5.50263105000806
30
0
0
SPLINE
5
BB
100
AcDbEntity
8
1
62
256
6
ByLayer
370
18
48
1
60
0
100
AcDbSpline
70
4
71
3
72
28
73
24
40
0
40
0
40
0
40
0
40
0.0065288544659333
40
0.0065288544659333
40
0.148453303827945
40
0.148453303827945
40
0.21941552850895
40
0.21941552850895
40
0.290377753189954
40
0.290377753189954
40
0.432302202551963
40
0.432302202551963
40
0.574226651913973
40
0.574226651913973
40
0.645188876594977
40
0.645188876594977
40
0.716151101275981
40
0.716151101275981
40
0.85807555063799
40
0.85807555063799
40
0.929037775318995
40
0.929037775318995
40
1
40
1
40
1
40
1
41
1
10
61.0783539460267
20
7.15854850211835
30
0
41
1
10
61.107758814832
20
7.1581497882182
30
0
41
1
10
61.1371647698694
20
7.15769922695318
30
0
41
1
10
61.8058341640936
20
7.14626949544905
30
0
41
1
10
62.4449659376551
20
7.10814464757223
30
0
41
1
10
63.403922858268
20
7.01523307694703
30
0
41
1
10
63.7237508112884
20
6.9785217136328
30
0
41
1
10
64.3649114448449
20
6.89207527317001
30
0
41
1
10
64.6853926064736
20
6.84249053543041
30
0
41
1
10
65.6454136567188
20
6.67723505467495
30
0
41
1
10
66.2834133441284
20
6.54587082950187
30
0
41
1
10
67.561836051935
20
6.23264171888206
30
0
41
1
10
68.2020915946435
20
6.05244956805026
30
0
41
1
10
69.1629846564797
20
5.75106377544731
30
0
41
1
10
69.483065445699
20
5.64599690980864
30
0
41
1
10
70.1230377716779
20
5.42752835867077
30
0
41
1
10
70.442847984271
20
5.31417128315829
30
0
41
1
10
71.4016544976816
20
4.95907843558797
30
0
41
1
10
72.0397953415947
20
4.70146921463333
30
0
41
1
10
73.0003930006348
20
4.29313136639428
30
0
41
1
10
73.3212750235764
20
4.15294680700003
30
0
41
1
10
73.9620757686641
20
3.86548005059038
30
0
41
1
10
74.2818356977395
20
3.7180726356317
30
0
41
1
10
74.6013835818577
20
3.56780734296976
30
0
0
SPLINE
5
BC
100
AcDbEntity
8
1
62
256
6
ByLayer
370
18
48
1
60
0
100
AcDbSpline
70
4
71
3
72
18
73
14
40
0
40
0
40
0
40
0
40
0.125
40
0.125
40
0.249999999999999
40
0.249999999999999
40
0.374999999999999
40
0.374999999999999
40
0.499999999999999
40
0.499999999999999
40
0.749999999999999
40
0.749999999999999
40
1
40
1
40
1
40
1
41
1
10
4.25120106066882
20
-2.17865330398044
30
0
41
1
10
4.23716479425502
20
-2.16598659349822
30
0
41
1
10
4.22263332931124
20
-2.15441972735508
30
0
41
1
10
4.19219670321783
20
-2.13431114545662
30
0
41
1
10
4.17611718602393
20
-2.12571841789099
30
0
41
1
10
4.14367064529026
20
-2.11396973730518
30
0
41
1
10
4.12690353571801
20
-2.11076170323003
30
0
41
1
10
4.0952712222018
20
-2.11193345179939
30
0
41
1
10
4.08025744445783
20
-2.11636966301475
30
0
41
1
10
4.0415426364016
20
-2.13964845948544
30
0
41
1
10
4.02451129118555
20
-2.16744252219999
30
0
41
1
10
4.00408314388008
20
-2.22847185941316
30
0
41
1
10
3.9999995628647
20
-2.26264216866562
30
0
41
1
10
3.99999956286473
20
-2.29760598984635
30
0
0
SPLINE
5
BD
100
AcDbEntity
8
1
62
256
6
ByLayer
370
18
48
1
60
0
100
AcDbSpline
70
4
71
3
72
12
73
8
40
0
40
0
40
0
40
0
40
0.250000000000018
40
0.250000000000018
40
0.500000000000036
40
0.500000000000036
40
1
40
1
40
1
40
1
41
1
10
82.45552008205
20
-7.21943722993586
30
0
41
1
10
82.4604093637061
20
-7.20628075324623
30
0
41
1
10
82.4651005883021
20
-7.19286487254504
30
0
41
1
10
82.472865446354
20
-7.16867764729071
30
0
41
1
10
82.4759219301707
20
-7.15793136292194
30
0
41
1
10
82.4814619560213
20
-7.13394409275713
30
0
41
1
10
82.4803924177088
20
-7.12936728942148
30
0
41
1
10
82.476713630615
20
-7.1323947878243
30
0
0
SPLINE
5
BE
100
AcDbEntity
8
1
62
256
6
ByLayer
370
18
48
1
60
0
100
AcDbSpline
70
4
71
3
72
106
73
102
40
0
40
0
40
0
40
0
40
0.0013525845442019
40
0.0013525845442019
40
0.0204027452118418
40
0.0204027452118418
40
0.0585030665471217
40
0.0585030665471217
40
0.0775532272147616
40
0.0775532272147616
40
0.0966033878824015
40
0.0966033878824015
40
0.115653548550041
40
0.115653548550041
40
0.134703709217681
40
0.134703709217681
40
0.153753869885321
40
0.153753869885321
40
0.172804030552961
40
0.172804030552961
40
0.191854191220601
40
0.191854191220601
40
0.210904351888241
40
0.210904351888241
40
0.229954512555881
40
0.229954512555881
40
0.249004673223521
40
0.249004673223521
40
0.268054833891161
40
0.268054833891161
40
0.287104994558801
40
0.287104994558801
40
0.306155155226441
40
0.306155155226441
40
0.325205315894081
40
0.325205315894081
40
0.344255476561721
40
0.344255476561721
40
0.363305637229361
40
0.363305637229361
40
0.40140595856464
40
0.40140595856464
40
0.42045611923228
40
0.42045611923228
40
0.43950627989992
40
0.43950627989992
40
0.45855644056756
40
0.45855644056756
40
0.4776066012352
40
0.4776066012352
40
0.49665676190284
40
0.49665676190284
40
0.51570692257048
40
0.51570692257048
40
0.53475708323812
40
0.53475708323812
40
0.55380724390576
40
0.55380724390576
40
0.59190756524104
40
0.59190756524104
40
0.610957725908681
40
0.610957725908681
40
0.630007886576321
40
0.630007886576321
40
0.649058047243961
40
0.649058047243961
40
0.668108207911601
40
0.668108207911601
40
0.687158368579241
40
0.687158368579241
40
0.706208529246882
40
0.706208529246882
40
0.725258689914522
40
0.725258689914522
40
0.744308850582162
40
0.744308850582162
40
0.782409171917442
40
0.782409171917442
40
0.801459332585082
40
0.801459332585082
40
0.820509493252722
40
0.820509493252722
40
0.839559653920362
40
0.839559653920362
40
0.858609814588002
40
0.858609814588002
40
0.877659975255642
40
0.877659975255642
40
0.896710135923282
40
0.896710135923282
40
0.915760296590921
40
0.915760296590921
40
0.934810457258561
40
0.934810457258561
40
0.953860617926201
40
0.953860617926201
40
0.972910778593841
40
0.972910778593841
40
0.991960939261481
40
0.991960939261481
40
1
40
1
40
1
40
1
41
1
10
69.8753400148205
20
-5.51201366729652
30
0
41
1
10
69.8526317417121
20
-5.51981075149314
30
0
41
1
10
69.8299247670987
20
-5.52758599308683
30
0
41
1
10
69.4874259582161
20
-5.644545530356
30
0
41
1
10
69.1679789433338
20
-5.74943356005099
30
0
41
1
10
68.2104312555144
20
-6.04995950203761
30
0
41
1
10
67.5715629563965
20
-6.23003371975096
30
0
41
1
10
66.6116598730113
20
-6.46555647716548
30
0
41
1
10
66.2912287984183
20
-6.53826263111375
30
0
41
1
10
65.6511291148524
20
-6.67078121111564
30
0
41
1
10
65.3312303365289
20
-6.7312472272917
30
0
41
1
10
64.6916072565908
20
-6.84148995903334
30
0
41
1
10
64.371917547058
20
-6.89102350358178
30
0
41
1
10
63.7327981778208
20
-6.97740636686407
30
0
41
1
10
63.4135358068713
20
-7.01417823911231
30
0
41
1
10
62.7746178581162
20
-7.07632500413075
30
0
41
1
10
62.454814199852
20
-7.10154666816487
30
0
41
1
10
61.8143499685043
20
-7.13923979051776
30
0
41
1
10
61.493427755532
20
-7.15152053754343
30
0
41
1
10
60.8529966196757
20
-7.16264375546297
30
0
41
1
10
60.5334489528607
20
-7.16201046553812
30
0
41
1
10
59.8943899797074
20
-7.14915548642503
30
0
41
1
10
59.5748425707265
20
-7.13682679345669
30
0
41
1
10
58.935612839113
20
-7.09900644450593
30
0
41
1
10
58.6159113984385
20
-7.07328426645967
30
0
41
1
10
57.9763942382161
20
-7.01028764948873
30
0
41
1
10
57.6567897641771
20
-6.97289842572624
30
0
41
1
10
57.0163791536469
20
-6.88600066505094
30
0
41
1
10
56.695623221234
20
-6.83631958569507
30
0
41
1
10
56.0553303125365
20
-6.72445136379164
30
0
41
1
10
55.7354402465853
20
-6.66274457664287
30
0
41
1
10
55.0962720770017
20
-6.52838402794376
30
0
41
1
10
54.7771570866439
20
-6.45545896489998
30
0
41
1
10
54.1382812025856
20
-6.29811517372238
30
0
41
1
10
53.818587788272
20
-6.21333094483811
30
0
41
1
10
53.1786958108115
20
-6.03430500232756
30
0
41
1
10
52.8584994100329
20
-5.93993708972044
30
0
41
1
10
52.2176663725564
20
-5.73971243312604
30
0
41
1
10
51.8976337913221
20
-5.63394309497392
30
0
41
1
10
50.9380770443965
20
-5.30261609017779
30
0
41
1
10
50.2986584922761
20
-5.06541206415599
30
0
41
1
10
49.3403713122152
20
-4.68107876615295
30
0
41
1
10
49.0210282843385
20
-4.54800456888091
30
0
41
1
10
48.3812197208146
20
-4.27557235687215
30
0
41
1
10
48.0607821775576
20
-4.13593236306428
30
0
41
1
10
47.4195462613704
20
-3.84899696870346
30
0
41
1
10
47.099385156792
20
-3.70209271652374
30
0
41
1
10
46.460128395406
20
-3.40110706245119
30
0
41
1
10
46.1408173526131
20
-3.24760840560978
30
0
41
1
10
45.5017945860682
20
-2.9365512931472
30
0
41
1
10
45.1822186062169
20
-2.7786222778166
30
0
41
1
10
44.5428490955088
20
-2.45755259374244
30
0
41
1
10
44.2230304786096
20
-2.29438601040101
30
0
41
1
10
43.5833628229718
20
-1.96358125181916
30
0
41
1
10
43.2629277176281
20
-1.79616783099453
30
0
41
1
10
42.6222436882527
20
-1.45944327722887
30
0
41
1
10
42.3022064933012
20
-1.29002132162583
30
0
41
1
10
41.3428641856087
20
-0.778830481341004
30
0
41
1
10
40.7049811423836
20
-0.433233939230576
30
0
41
1
10
39.7460000235635
20
0.0841556134851089
30
0
41
1
10
39.4260301156105
20
0.256555011913861
30
0
41
1
10
38.7855574221934
20
0.601195889643662
30
0
41
1
10
38.4648898373333
20
0.77375895975689
30
0
41
1
10
37.8250562187406
20
1.11724016521737
30
0
41
1
10
37.5053762291556
20
1.28745629230224
30
0
41
1
10
36.8660609278064
20
1.62473719930216
30
0
41
1
10
36.5464577589439
20
1.79194807882482
30
0
41
1
10
35.9074091614507
20
2.12336013258641
30
0
41
1
10
35.588115866473
20
2.28786018018613
30
0
41
1
10
34.9491728421614
20
2.61236539733108
30
0
41
1
10
34.629268445121
20
2.77208629820129
30
0
41
1
10
33.9885744272231
20
3.08703068038039
30
0
41
1
10
33.6677950289139
20
3.24215284228953
30
0
41
1
10
33.0277073476041
20
3.54604025940151
30
0
41
1
10
32.7083309656488
20
3.69487037665164
30
0
41
1
10
31.7503253886982
20
4.13066201614305
30
0
41
1
10
31.1113248836362
20
4.40818684929121
30
0
41
1
10
30.1520215088735
20
4.79910513971015
30
0
41
1
10
29.8323013830915
20
4.92542644711514
30
0
41
1
10
29.191754707112
20
5.17016281457498
30
0
41
1
10
28.8713562311071
20
5.28809411517912
30
0
41
1
10
28.2314065669927
20
5.51385701026558
30
0
41
1
10
27.9116865838181
20
5.621455489889
30
0
41
1
10
27.2727259322259
20
5.82663352700831
30
0
41
1
10
26.9536687518797
20
5.92496654390044
30
0
41
1
10
26.3149335273828
20
6.11103191162292
30
0
41
1
10
25.9953167589026
20
6.19892390137883
30
0
41
1
10
25.3554046689038
20
6.36256975455078
30
0
41
1
10
25.0349518750927
20
6.43812489563086
30
0
41
1
10
24.3940556494043
20
6.58003057888928
30
0
41
1
10
24.0743344705811
20
6.64588577492373
30
0
41
1
10
23.4348785172691
20
6.7650939901485
30
0
41
1
10
23.1152533979582
20
6.81826060582733
30
0
41
1
10
22.4760647407316
20
6.91174588207275
30
0
41
1
10
22.1564769903936
20
6.95288956370288
30
0
41
1
10
21.517518420895
20
7.02348593464583
30
0
41
1
10
21.1981771199779
20
7.05266897793905
30
0
41
1
10
20.5582418292898
20
7.0981559110682
30
0
41
1
10
20.2375414407947
20
7.1147055384352
30
0
41
1
10
19.7817601691543
20
7.12975174913572
30
0
41
1
10
19.6465485679791
20
7.13313262943942
30
0
41
1
10
19.5113924461346
20
7.13539508395445
30
0
0
SPLINE
5
BF
100
AcDbEntity
8
1
62
256
6
ByLayer
370
18
48
1
60
0
100
AcDbSpline
70
4
71
3
72
26
73
22
40
0
40
0
40
0
40
0
40
0.125000000000001
40
0.125000000000001
40
0.187500000000002
40
0.187500000000002
40
0.250000000000002
40
0.250000000000002
40
0.500000000000001
40
0.500000000000001
40
0.562500000000001
40
0.562500000000001
40
0.625000000000001
40
0.625000000000001
40
0.750000000000001
40
0.750000000000001
40
0.875
40
0.875
40
0.9375
40
0.9375
40
1
40
1
40
1
40
1
41
1
10
82.3885390361862
20
-7.17493002986566
30
0
41
1
10
82.2842255665965
20
-7.17483122445103
30
0
41
1
10
82.1849368385703
20
-7.15957680206054
30
0
41
1
10
82.0439107487412
20
-7.11284608182788
30
0
41
1
10
81.9982231601257
20
-7.09328445139371
30
0
41
1
10
81.9095969099525
20
-7.04586988139903
30
0
41
1
10
81.8665242922989
20
-7.01789316617837
30
0
41
1
10
81.6609100904031
20
-6.85836033344015
30
0
41
1
10
81.5258949796929
20
-6.6685557372295
30
0
41
1
10
81.3958155736536
20
-6.3496869192065
30
0
41
1
10
81.3717596066355
20
-6.28177883770309
30
0
41
1
10
81.3277255427782
20
-6.13736065948626
30
0
41
1
10
81.3077125113495
20
-6.06059549484337
30
0
41
1
10
81.2548813456686
20
-5.82078913575913
30
0
41
1
10
81.2288909687381
20
-5.64735997277464
30
0
41
1
10
81.1950990453547
20
-5.27378462135022
30
0
41
1
10
81.1872966479632
20
-5.07363968282837
30
0
41
1
10
81.1896334083738
20
-4.75279881811613
30
0
41
1
10
81.1927763671845
20
-4.64208138165225
30
0
41
1
10
81.2038200819745
20
-4.41512096030817
30
0
41
1
10
81.211689339419
20
-4.29923038363992
30
0
41
1
10
81.2218682779562
20
-4.18096817169391
30
0
0
SPLINE
5
C0
100
AcDbEntity
8
1
62
256
6
ByLayer
370
18
48
1
60
0
100
AcDbSpline
70
4
71
3
72
16
73
12
40
0
40
0
40
0
40
0
40
0.249999999999953
40
0.249999999999953
40
0.374999999999927
40
0.374999999999927
40
0.499999999999901
40
0.499999999999901
40
0.749999999999951
40
0.749999999999951
40
1
40
1
40
1
40
1
41
1
10
81.3016215536215
20
1.86009104087481
30
0
41
1
10
81.2924442464085
20
1.88818886138358
30
0
41
1
10
81.2868530471929
20
1.91723173049459
30
0
41
1
10
81.2869707841045
20
1.96231625297767
30
0
41
1
10
81.2884703999837
20
1.97723226684377
30
0
41
1
10
81.2950290478165
20
2.00678959772441
30
0
41
1
10
81.2998249315409
20
2.02157452182578
30
0
41
1
10
81.3208989101804
20
2.06235170971144
30
0
41
1
10
81.3442480090083
20
2.08525001915598
30
0
41
1
10
81.3979826892517
20
2.11657426265131
30
0
41
1
10
81.4282785013635
20
2.12601770594068
30
0
41
1
10
81.4590905120278
20
2.13139923556966
30
0
0
SPLINE
5
C1
100
AcDbEntity
8
1
62
256
6
ByLayer
370
18
48
1
60
0
100
AcDbSpline
70
4
71
3
72
24
73
20
40
0
40
0
40
0
40
0
40
0.250000000000017
40
0.250000000000017
40
0.500000000000035
40
0.500000000000035
40
0.625000000000031
40
0.625000000000031
40
0.750000000000028
40
0.750000000000028
40
0.812500000000016
40
0.812500000000016
40
0.875000000000005
40
0.875000000000005
40
0.906250000000004
40
0.906250000000004
40
0.937500000000003
40
0.937500000000003
40
1
40
1
40
1
40
1
41
1
10
81.4590905120279
20
2.13139923556969
30
0
41
1
10
81.7142156153128
20
2.17595858995207
30
0
41
1
10
81.9675537108465
20
2.22701808512221
30
0
41
1
10
82.4663612003087
20
2.35125081721284
30
0
41
1
10
82.7122585927009
20
2.42371792161589
30
0
41
1
10
83.0697905175685
20
2.56700032971583
30
0
41
1
10
83.1870627165815
20
2.6205846844463
30
0
41
1
10
83.4148488659692
20
2.74881550748265
30
0
41
1
10
83.5243228378368
20
2.82276873899681
30
0
41
1
10
83.6680855776275
20
2.95767244782229
30
0
41
1
10
83.7117876416994
20
3.00601905406151
30
0
41
1
10
83.7879044976561
20
3.11181956382464
30
0
41
1
10
83.8206387292299
20
3.17034813106491
30
0
41
1
10
83.856018011093
20
3.26237774489141
30
0
41
1
10
83.8656213122075
20
3.29378662741684
30
0
41
1
10
83.8802624400506
20
3.35813737021846
30
0
41
1
10
83.8852959768679
20
3.39132764514775
30
0
41
1
10
83.8931508583403
20
3.49031172553325
30
0
41
1
10
83.8890185698159
20
3.55632551638999
30
0
41
1
10
83.8772720263561
20
3.62179261325602
30
0
0
SPLINE
5
C2
100
AcDbEntity
8
1
62
256
6
ByLayer
370
18
48
1
60
0
100
AcDbSpline
70
4
71
3
72
58
73
54
40
0
40
0
40
0
40
0
40
0.0283262038241837
40
0.0283262038241837
40
0.0566524076483674
40
0.0566524076483674
40
0.113304815296735
40
0.113304815296735
40
0.141631019120918
40
0.141631019120918
40
0.169957222945102
40
0.169957222945102
40
0.226609630593469
40
0.226609630593469
40
0.254935834417652
40
0.254935834417652
40
0.283262038241836
40
0.283262038241836
40
0.339914445890203
40
0.339914445890203
40
0.368240649714387
40
0.368240649714387
40
0.396566853538571
40
0.396566853538571
40
0.453219261186938
40
0.453219261186938
40
0.509871668835306
40
0.509871668835306
40
0.566524076483673
40
0.566524076483673
40
0.623176484132041
40
0.623176484132041
40
0.651502687956224
40
0.651502687956224
40
0.679828891780408
40
0.679828891780408
40
0.736481299428775
40
0.736481299428775
40
0.76480750325296
40
0.76480750325296
40
0.793133707077144
40
0.793133707077144
40
0.849786114725513
40
0.849786114725513
40
0.878112318549698
40
0.878112318549698
40
0.906438522373882
40
0.906438522373882
40
0.963090930022251
40
0.963090930022251
40
0.991417133846436
40
0.991417133846436
40
1
40
1
40
1
40
1
41
1
10
82.3700805672404
20
-7.44895716691011
30
0
41
1
10
81.9613460359779
20
-7.47569280383846
30
0
41
1
10
81.5527186473888
20
-7.49172683676937
30
0
41
1
10
80.7349289593045
20
-7.50235641719394
30
0
41
1
10
80.3256144447751
20
-7.49692400499043
30
0
41
1
10
79.10038074589
20
-7.44863928991796
30
0
41
1
10
78.2856122457714
20
-7.37386555923501
30
0
41
1
10
77.0616351749123
20
-7.19937551998328
30
0
41
1
10
76.6533106852809
20
-7.13083355098709
30
0
41
1
10
75.8351144030578
20
-6.97331003145939
30
0
41
1
10
75.4264111686967
20
-6.88454500294245
30
0
41
1
10
74.2020608673126
20
-6.58957365049562
30
0
41
1
10
73.3872715553831
20
-6.35467726155167
30
0
41
1
10
72.1623142216091
20
-5.94935545187644
30
0
41
1
10
71.7530550627027
20
-5.80519882937347
30
0
41
1
10
70.9354297572776
20
-5.50106738025443
30
0
41
1
10
70.5272437469684
20
-5.34120405129048
30
0
41
1
10
69.3034435334306
20
-4.83974470152842
30
0
41
1
10
68.4884357302023
20
-4.47646368262798
30
0
41
1
10
67.2621333211157
20
-3.89499945776996
30
0
41
1
10
66.8526010287548
20
-3.69499778181071
30
0
41
1
10
66.0356359201874
20
-3.28592494080374
30
0
41
1
10
65.6276905557741
20
-3.07663006635778
30
0
41
1
10
64.4041542259733
20
-2.436625204895
30
0
41
1
10
63.588693673669
20
-1.99407736118778
30
0
41
1
10
61.9516951431005
20
-1.08809690434845
30
0
41
1
10
61.1386308433163
20
-0.629554105564239
30
0
41
1
10
59.519225466252
20
0.286205108442601
30
0
41
1
10
58.7121989130496
20
0.743010774119398
30
0
41
1
10
57.0976345549383
20
1.6440130803731
30
0
41
1
10
56.2898645014467
20
2.08779481989291
30
0
41
1
10
55.0729474469642
20
2.73529618439886
30
0
41
1
10
54.6663936988629
20
2.94803504022724
30
0
41
1
10
53.8505927690332
20
3.36578716241965
30
0
41
1
10
53.4407415177328
20
3.5710934490381
30
0
41
1
10
52.2146170930718
20
4.1691837744246
30
0
41
1
10
51.3994384934568
20
4.54512613604797
30
0
41
1
10
50.1750540027612
20
5.06785077698385
30
0
41
1
10
49.7666590577236
20
5.23522975830875
30
0
41
1
10
48.9484305518255
20
5.55500254389585
30
0
41
1
10
48.5390977947638
20
5.70719527710176
30
0
41
1
10
47.3137672733239
20
6.13779218220537
30
0
41
1
10
46.4985867388092
20
6.39078017186858
30
0
41
1
10
45.2733474238138
20
6.71429210833247
30
0
41
1
10
44.8641789059638
20
6.81286758599433
30
0
41
1
10
44.045715909929
20
6.9902463357262
30
0
41
1
10
43.6371853186299
20
7.0688781522058
30
0
41
1
10
42.4124790962223
20
7.27409487794313
30
0
41
1
10
41.5971263267529
20
7.36996757018744
30
0
41
1
10
40.3708272010571
20
7.45032114839367
30
0
41
1
10
39.9610570102281
20
7.46651084306578
30
0
41
1
10
39.4283245400639
20
7.47362009882531
30
0
41
1
10
39.3044973149442
20
7.47429163157528
30
0
41
1
10
39.1807118781138
20
7.47398353801935
30
0
0
SPLINE
5
C3
100
AcDbEntity
8
1
62
256
6
ByLayer
370
18
48
1
60
0
100
AcDbSpline
70
4
71
3
72
93
73
89
40
0
40
0
40
0
40
0
40
0.0268498023024276
40
0.0268498023024276
40
0.0643855123114315
40
0.0643855123114315
40
0.101921222320436
40
0.101921222320436
40
0.176992642338444
40
0.176992642338444
40
0.214528352347448
40
0.214528352347448
40
0.252064062356452
40
0.252064062356452
40
0.32713548237446
40
0.32713548237446
40
0.364671192383464
40
0.364671192383464
40
0.383439047387966
40
0.383439047387966
40
0.392822974890217
40
0.392822974890217
40
0.397514938641343
40
0.399860920516906
40
0.401033911454687
40
0.401620406923578
40
0.401913654658023
40
0.401913654658023
40
0.402206902392468
40
0.402206902392468
40
0.402500150126914
40
0.402500150126914
40
0.402793397861359
40
0.402793397861359
40
0.40337989333025
40
0.40337989333025
40
0.404552884268031
40
0.404552884268031
40
0.406898866143594
40
0.406898866143594
40
0.411590829894721
40
0.411590829894721
40
0.420974757396973
40
0.420974757396973
40
0.439742612401477
40
0.439742612401477
40
0.477278322410487
40
0.477278322410487
40
0.514814032419496
40
0.514814032419496
40
0.552349742428505
40
0.552349742428505
40
0.627421162446524
40
0.627421162446524
40
0.664956872455533
40
0.664956872455533
40
0.683724727460038
40
0.683724727460038
40
0.688416691211164
40
0.688416691211164
40
0.689589682148945
40
0.689589682148945
40
0.690176177617836
40
0.690176177617836
40
0.690469425352281
40
0.690469425352281
40
0.690762673086727
40
0.690762673086727
40
0.693108654962289
40
0.70249258246454
40
0.70249258246454
40
0.740028292473542
40
0.740028292473542
40
0.777564002482543
40
0.777564002482543
40
0.815099712491545
40
0.815099712491545
40
0.833867567496046
40
0.833867567496046
40
0.852635422500546
40
0.852635422500546
40
0.92770684251855
40
0.92770684251855
40
0.946474697523051
40
0.946474697523051
40
0.965242552527552
40
0.965242552527552
40
1
40
1
40
1
40
1
41
1
10
19.5118825182795
20
-1.26960385198115
30
0
41
1
10
19.3645097815174
20
-1.19973381345699
30
0
41
1
10
19.2170815784544
20
-1.13234103311854
30
0
41
1
10
18.8630309303653
20
-0.977533644800559
30
0
41
1
10
18.6552952388265
20
-0.892577001411894
30
0
41
1
10
18.2452572397867
20
-0.738745597104668
30
0
41
1
10
18.0422595064713
20
-0.669517167844106
30
0
41
1
10
17.4370767266618
20
-0.486146971879293
30
0
41
1
10
17.0386789003409
20
-0.39636907496336
30
0
41
1
10
16.4395735465516
20
-0.314053222045715
30
0
41
1
10
16.2396241871872
20
-0.295324544108837
30
0
41
1
10
15.8377772676279
20
-0.275804833097254
30
0
41
1
10
15.6381848619232
20
-0.275125398817778
30
0
41
1
10
15.041569793835
20
-0.299260918318879
30
0
41
1
10
14.646486001592
20
-0.350168812623394
30
0
41
1
10
14.050757116734
20
-0.475574660802693
30
0
41
1
10
13.8516828000764
20
-0.525568131598789
30
0
41
1
10
13.5515502877735
20
-0.61261110885988
30
0
41
1
10
13.4512175838074
20
-0.643647085647984
30
0
41
1
10
13.3003568890104
20
-0.693160080635863
30
0
41
1
10
13.2500648574985
20
-0.710139207020319
30
0
41
1
10
13.1746080092208
20
-0.736311979940808
30
0
41
1
10
13.1368768773495
20
-0.74957370766171
30
0
41
1
10
13.0928514768895
20
-0.76535027407445
30
0
41
1
10
13.070837573469
20
-0.773314278885096
30
0
41
1
10
13.0598302526385
20
-0.77731519422926
30
0
41
1
10
13.0551127652222
20
-0.779033915142833
30
0
41
1
10
13.0519677577692
20
-0.780180627578773
30
0
41
1
10
13.0501849612762
20
-0.780557447275385
30
0
41
1
10
13.0475104991085
20
-0.782146767845234
30
0
41
1
10
13.0488124031346
20
-0.783739939351392
30
0
41
1
10
13.0508397566994
20
-0.78601094878556
30
0
41
1
10
13.0520332139593
20
-0.787067020682713
30
0
41
1
10
13.0557558407884
20
-0.790172490236188
30
0
41
1
10
13.0584593177403
20
-0.792140909926104
30
0
41
1
10
13.066697191048
20
-0.797914016749445
30
0
41
1
10
13.0724353253505
20
-0.801600267786711
30
0
41
1
10
13.089870148695
20
-0.81251513327183
30
0
41
1
10
13.1018153254668
20
-0.819567981185912
30
0
41
1
10
13.1378947737996
20
-0.840493807291523
30
0
41
1
10
13.1623568154451
20
-0.85412349413221
30
0
41
1
10
13.236131327696
20
-0.894731732076025
30
0
41
1
10
13.285875420036
20
-0.921375582218445
30
0
41
1
10
13.4355991022971
20
-1.00095435498804
30
0
41
1
10
13.5361827900593
20
-1.05349270060958
30
0
41
1
10
13.8387078651958
20
-1.21094983120227
30
0
41
1
10
14.041494632422
20
-1.31560538278202
30
0
41
1
10
14.4477597590285
20
-1.52555948321338
30
0
41
1
10
14.6513961053498
20
-1.63067786174875
30
0
41
1
10
15.0586554237264
20
-1.84264731284677
30
0
41
1
10
15.2623284082888
20
-1.94944086002496
30
0
41
1
10
15.8736038928889
20
-2.27204109566537
30
0
41
1
10
16.281680224022
20
-2.48963685602223
30
0
41
1
10
16.8905911956648
20
-2.82504197168052
30
0
41
1
10
17.0932437100574
20
-2.93808838222552
30
0
41
1
10
17.3947981775441
20
-3.11266478967147
30
0
41
1
10
17.4953093306789
20
-3.17112531770829
30
0
41
1
10
17.6178012014054
20
-3.24942469473325
30
0
41
1
10
17.6422629513677
20
-3.26521240191138
30
0
41
1
10
17.6714016911618
20
-3.2869260141035
30
0
41
1
10
17.6771664296838
20
-3.29135645659071
30
0
41
1
10
17.6853388873378
20
-3.29866006353038
30
0
41
1
10
17.6880564198514
20
-3.30114776834813
30
0
41
1
10
17.6912878335894
20
-3.30561608124626
30
0
41
1
10
17.6927413393323
20
-3.30784544487912
30
0
41
1
10
17.6900716789852
20
-3.31062408280349
30
0
41
1
10
17.6886451160796
20
-3.31191802242492
30
0
41
1
10
17.6762155183068
20
-3.32398837229491
30
0
41
1
10
17.6209811913195
20
-3.37762068898732
30
0
41
1
10
17.5657792557754
20
-3.43118459330552
30
0
41
1
10
17.3451297285971
20
-3.64504711296013
30
0
41
1
10
17.1687787633611
20
-3.81522544093539
30
0
41
1
10
16.8177981059107
20
-4.14897330668077
30
0
41
1
10
16.6429856022263
20
-4.31273492962509
30
0
41
1
10
16.2926406875476
20
-4.63188768831586
30
0
41
1
10
16.1171160519839
20
-4.78728598941248
30
0
41
1
10
15.8513548080066
20
-5.01203664966349
30
0
41
1
10
15.7622033888525
20
-5.08566802111062
30
0
41
1
10
15.5841494078394
20
-5.22855682650427
30
0
41
1
10
15.4951033391403
20
-5.29794128693706
30
0
41
1
10
15.0488865474977
20
-5.63370108028042
30
0
41
1
10
14.6889359240456
20
-5.86671250752897
30
0
41
1
10
14.2190707595574
20
-6.09788435340474
30
0
41
1
10
14.124091662623
20
-6.14110967903187
30
0
41
1
10
13.9316944574247
20
-6.22116376178877
30
0
41
1
10
13.8346848931925
20
-6.25779753982675
30
0
41
1
10
13.5577833708781
20
-6.35168391705315
30
0
41
1
10
13.3767782868684
20
-6.40025978702482
30
0
41
1
10
13.1939100746606
20
-6.4371145919707
30
0
0
SPLINE
5
C4
100
AcDbEntity
8
1
62
256
6
ByLayer
370
13
48
1
60
0
100
AcDbSpline
70
4
71
3
72
32
73
28
40
0
40
0
40
0
40
0
40
0.0495221164247224
40
0.0495221164247224
40
0.0927256565872352
40
0.0927256565872352
40
0.135929196749748
40
0.135929196749748
40
0.308743357399799
40
0.308743357399799
40
0.395150437724824
40
0.395150437724824
40
0.438353977887337
40
0.438353977887337
40
0.48155751804985
40
0.48155751804985
40
0.6543716786999
40
0.6543716786999
40
0.697575218862413
40
0.697575218862413
40
0.740778759024925
40
0.740778759024925
40
0.82718583934995
40
0.82718583934995
40
0.913592919674975
40
0.913592919674975
40
1
40
1
40
1
40
1
41
1
10
4.25062946587158
20
-7.12858750028369
30
0
41
1
10
4.25064186492449
20
-7.12883822146145
30
0
41
1
10
4.25065403731102
20
-7.12447847637884
30
0
41
1
10
4.25067653964518
20
-7.10756634745539
30
0
41
1
10
4.25068693422983
20
-7.09607714078601
30
0
41
1
10
4.25070743177767
20
-7.0660103787354
30
0
41
1
10
4.25071751141564
20
-7.04749182074315
30
0
41
1
10
4.25076729014202
20
-6.93784039170313
30
0
41
1
10
4.25080524254813
20
-6.79612954618287
30
0
41
1
10
4.25086223145539
20
-6.50221591493082
30
0
41
1
10
4.25088127509531
20
-6.39008890133474
30
0
41
1
10
4.25090952037621
20
-6.20360332842483
30
0
41
1
10
4.25091889703461
20
-6.13832066734639
30
0
41
1
10
4.2509375823465
20
-6.00149712975582
30
0
41
1
10
4.25094690154546
20
-5.92985735318317
30
0
41
1
10
4.25099292747259
20
-5.55910511199545
30
0
41
1
10
4.2510283532632
20
-5.22075711172869
30
0
41
1
10
4.25106961459662
20
-4.74663088178932
30
0
41
1
10
4.25107770748181
20
-4.64921751289361
30
0
41
1
10
4.25109350741195
20
-4.44912309140332
30
0
41
1
10
4.25110123691312
20
-4.34611171592516
30
0
41
1
10
4.2511235034296
20
-4.03212070762547
30
0
41
1
10
4.25113714914912
20
-3.81604012828987
30
0
41
1
10
4.25116145625498
20
-3.3707833331267
30
0
41
1
10
4.2511721186907
20
-3.14160609493356
30
0
41
1
10
4.25118967382909
20
-2.67009161505226
30
0
41
1
10
4.25119657882863
20
-2.42717555039764
30
0
41
1
10
4.25120106066885
20
-2.17865330480055
30
0
0
SPLINE
5
C5
100
AcDbEntity
8
1
62
256
6
ByLayer
370
18
48
1
60
0
100
AcDbSpline
70
4
71
3
72
8
73
4
40
0
40
0
40
0
40
0
40
1
40
1
40
1
40
1
41
1
10
82.3700805672405
20
-7.44895716691013
30
0
41
1
10
82.3985872015074
20
-7.37250759434582
30
0
41
1
10
82.4270670483386
20
-7.29600096692297
30
0
41
1
10
82.45552008205
20
-7.21943722993586
30
0
0
SPLINE
5
C6
100
AcDbEntity
8
1
62
256
6
ByLayer
370
18
48
1
60
0
100
AcDbSpline
70
4
71
3
72
10
73
6
40
0
40
0
40
0
40
0
40
0.790469487262752
40
0.790469487262752
40
1
40
1
40
1
40
1
41
1
10
82.370080567246
20
7.44895716690976
30
0
41
1
10
81.9614026895085
20
7.47568909808797
30
0
41
1
10
81.5527398985208
20
7.49172841797656
30
0
41
1
10
81.0352976677879
20
7.49845175040878
30
0
41
1
10
80.9268812625449
20
7.49910522533227
30
0
41
1
10
80.8184815684707
20
7.49900533236834
30
0
0
SPLINE
5
C7
100
AcDbEntity
8
1
62
256
6
ByLayer
370
18
48
1
60
0
100
AcDbSpline
70
4
71
3
72
44
73
40
40
0
40
0
40
0
40
0
40
0.0577593620804307
40
0.0577593620804307
40
0.0891673833444159
40
0.0891673833444159
40
0.120575404608401
40
0.120575404608401
40
0.183391447136372
40
0.183391447136372
40
0.246207489664344
40
0.246207489664344
40
0.27761551092833
40
0.27761551092833
40
0.309023532192316
40
0.309023532192316
40
0.371839574720287
40
0.371839574720287
40
0.497471659776229
40
0.497471659776229
40
0.528879681040215
40
0.528879681040215
40
0.5602877023042
40
0.5602877023042
40
0.623103744832171
40
0.623103744832171
40
0.654511766096157
40
0.654511766096157
40
0.685919787360142
40
0.685919787360142
40
0.748735829888114
40
0.748735829888114
40
0.874367914944057
40
0.874367914944057
40
0.905775936208043
40
0.905775936208043
40
0.937183957472029
40
0.937183957472029
40
1
40
1
40
1
40
1
41
1
10
43.0316176553911
20
-7.1695548953785
30
0
41
1
10
42.281145497835
20
-7.28925860893582
30
0
41
1
10
41.5310861765998
20
-7.3743178441764
30
0
41
1
10
40.3698385738094
20
-7.45037341798616
30
0
41
1
10
39.9602106429546
20
-7.46653303682683
30
0
41
1
10
39.1429495091875
20
-7.47741748117065
30
0
41
1
10
38.7348242734455
20
-7.47218005637245
30
0
41
1
10
37.510560126442
20
-7.42460513855505
30
0
41
1
10
36.6944348765675
20
-7.35037584278334
30
0
41
1
10
35.0565366938618
20
-7.11811823739185
30
0
41
1
10
34.2406090286813
20
-6.96093709513562
30
0
41
1
10
33.0161919663497
20
-6.66724693035013
30
0
41
1
10
32.6079327022202
20
-6.55972583561714
30
0
41
1
10
31.7904612021707
20
-6.325947486193
30
0
41
1
10
31.3804853683457
20
-6.19941712561274
30
0
41
1
10
30.1550856782789
20
-5.7953078301594
30
0
41
1
10
29.3436068326891
20
-5.49322632668424
30
0
41
1
10
26.915715557904
20
-4.50317133642116
30
0
41
1
10
25.3061046165859
20
-3.73094254073325
30
0
41
1
10
23.272545606722
20
-2.67332052585493
30
0
41
1
10
22.8647632350269
20
-2.4571740217433
30
0
41
1
10
22.046268874747
20
-2.01677689191496
30
0
41
1
10
21.6368730916656
20
-1.79327689194019
30
0
41
1
10
20.4111259017983
20
-1.11767126059797
30
0
41
1
10
19.5955533950989
20
-0.659288315036719
30
0
41
1
10
18.3695358595759
20
0.0313183132909103
30
0
41
1
10
17.9597796950647
20
0.262366690363876
30
0
41
1
10
17.1416167679781
20
0.722348795087356
30
0
41
1
10
16.7340029851676
20
0.950811279181039
30
0
41
1
10
15.5142031087797
20
1.62930084400048
30
0
41
1
10
14.7051453976881
20
2.07258993237878
30
0
41
1
10
12.2804938999113
20
3.35871317569325
30
0
41
1
10
10.6677736485924
20
4.15834556726196
30
0
41
1
10
8.62345786030272
20
5.03072400827963
30
0
41
1
10
8.21332597246982
20
5.19873690812187
30
0
41
1
10
7.39568760962527
20
5.51844175458658
30
0
41
1
10
6.98739044883891
20
5.67044648409092
30
0
41
1
10
5.76268004908874
20
6.10139156925962
30
0
41
1
10
4.94640797924561
20
6.35525285412703
30
0
41
1
10
4.12732146890704
20
6.57234293226276
30
0
0
SPLINE
5
C8
100
AcDbEntity
8
1
62
256
6
ByLayer
370
18
48
1
60
0
100
AcDbSpline
70
4
71
3
72
18
73
14
40
0
40
0
40
0
40
0
40
0.113294545164403
40
0.113294545164403
40
0.418266119468769
40
0.418266119468769
40
0.570751906620951
40
0.570751906620951
40
0.646994800197041
40
0.646994800197041
40
0.72323769377313
40
0.72323769377313
40
1
40
1
40
1
40
1
41
1
10
39.3901896145485
20
-7.14894651700217
30
0
41
1
10
39.0888804226675
20
-7.14822025437203
30
0
41
1
10
38.7877025030349
20
-7.14194501957516
30
0
41
1
10
37.6757379333468
20
-7.09838544337154
30
0
41
1
10
36.8647472446409
20
-7.0265564566738
30
0
41
1
10
35.643399528144
20
-6.85923397882914
30
0
41
1
10
35.2354454187471
20
-6.79353468161312
30
0
41
1
10
34.6217177559641
20
-6.68027030524615
30
0
41
1
10
34.4168496522768
20
-6.64005409992279
30
0
41
1
10
34.0064153804816
20
-6.55472263827372
30
0
41
1
10
33.8007184352022
20
-6.50957191839473
30
0
41
1
10
32.8509703647374
20
-6.29030664148897
30
0
41
1
10
32.110845387252
20
-6.08886350601554
30
0
41
1
10
31.3729141443728
20
-5.86084085260035
30
0
0
SPLINE
5
C9
100
AcDbEntity
8
1
62
256
6
ByLayer
370
13
48
1
60
0
100
AcDbSpline
70
4
71
3
72
22
73
18
40
0
40
0
40
0
40
0
40
0.154438594640427
40
0.154438594640427
40
0.295801357641345
40
0.295801357641345
40
0.366482739141804
40
0.366482739141804
40
0.437164120642263
40
0.437164120642263
40
0.719889646644099
40
0.719889646644099
40
0.861252409645017
40
0.861252409645017
40
0.931933791145476
40
0.931933791145476
40
1
40
1
40
1
40
1
41
1
10
31.372915099671
20
-5.86084114778993
30
0
41
1
10
30.4845548123355
20
-5.58633556076722
30
0
41
1
10
29.5993738194814
20
-5.27330932485279
30
0
41
1
10
27.9023591022094
20
-4.60985714989351
30
0
41
1
10
27.090725786529
20
-4.26485465648679
30
0
41
1
10
25.8676288110947
20
-3.71169807698652
30
0
41
1
10
25.4589548020786
20
-3.52140271299766
30
0
41
1
10
24.6390602511251
20
-3.12989660164357
30
0
41
1
10
24.2273550323633
20
-2.92845658185081
30
0
41
1
10
22.1795047504818
20
-1.90741693601936
30
0
41
1
10
20.5611535288562
20
-1.03838627202285
30
0
41
1
10
18.1263962440751
20
0.273562770530276
30
0
41
1
10
17.3136579863627
20
0.712374400106455
30
0
41
1
10
16.088184969828
20
1.36406145928527
30
0
41
1
10
15.6786068606391
20
1.58015391254753
30
0
41
1
10
14.8717803026811
20
2.00080069421554
30
0
41
1
10
14.4766840717409
20
2.20440157500411
30
0
41
1
10
14.0829025975499
20
2.40406910303042
30
0
0
SPLINE
5
CA
100
AcDbEntity
8
1
62
256
6
ByLayer
370
18
48
1
60
0
100
AcDbSpline
70
4
71
3
72
38
73
34
40
0
40
0
40
0
40
0
40
0.250000000000018
40
0.250000000000018
40
0.375000000000027
40
0.375000000000027
40
0.437500000000028
40
0.437500000000028
40
0.500000000000029
40
0.500000000000029
40
0.625000000000023
40
0.625000000000023
40
0.750000000000018
40
0.750000000000018
40
0.781250000000013
40
0.781250000000013
40
0.812500000000008
40
0.812500000000008
40
0.843750000000004
40
0.843750000000004
40
0.859375000000004
40
0.859375000000004
40
0.875000000000004
40
0.875000000000004
40
0.890625000000005
40
0.890625000000005
40
0.906250000000005
40
0.906250000000005
40
0.937500000000004
40
0.937500000000004
40
0.968750000000002
40
0.968750000000002
40
1
40
1
40
1
40
1
41
1
10
74.6013835818577
20
3.56780734296979
30
0
41
1
10
75.2049976416163
20
3.08687020204127
30
0
41
1
10
75.8216626249955
20
2.64964937324066
30
0
41
1
10
76.7703074974108
20
2.07302915245219
30
0
41
1
10
77.090450595017
20
1.89398039281937
30
0
41
1
10
77.5773209170492
20
1.64770158298313
30
0
41
1
10
77.740722026518
20
1.56933013896972
30
0
41
1
10
78.0699303424509
20
1.42064688643822
30
0
41
1
10
78.235357273057
20
1.35053577308193
30
0
41
1
10
78.7297397241115
20
1.15551230537284
30
0
41
1
10
79.0584644703311
20
1.04502502819483
30
0
41
1
10
79.7139295371495
20
0.868926152756103
30
0
41
1
10
80.0417937955224
20
0.803252196043815
30
0
41
1
10
80.4436344785045
20
0.756219936848765
30
0
41
1
10
80.5229508362775
20
0.751452133841298
30
0
41
1
10
80.6786436524598
20
0.751032789129994
30
0
41
1
10
80.7552991989858
20
0.755683199969923
30
0
41
1
10
80.9013298326866
20
0.778977177843672
30
0
41
1
10
80.9702278861538
20
0.798158517671965
30
0
41
1
10
81.0663582734267
20
0.840136652876055
30
0
41
1
10
81.0972208301465
20
0.856290352898384
30
0
41
1
10
81.1562084573083
20
0.893607192529032
30
0
41
1
10
81.1841934145703
20
0.914760748855713
30
0
41
1
10
81.2353338449347
20
0.961629671205316
30
0
41
1
10
81.2586887954209
20
0.987459886536783
30
0
41
1
10
81.3004478153117
20
1.04447457303718
30
0
41
1
10
81.3189585026879
20
1.07598676468277
30
0
41
1
10
81.3646053780673
20
1.17640164831795
30
0
41
1
10
81.3824730250227
20
1.25160342960848
30
0
41
1
10
81.392833173634
20
1.41717371985294
30
0
41
1
10
81.3854504133352
20
1.50328623134837
30
0
41
1
10
81.3547813555699
20
1.67972343227953
30
0
41
1
10
81.3310214084143
20
1.77007859781554
30
0
41
1
10
81.3016215536215
20
1.86009104087481
30
0
0
SPLINE
5
CB
100
AcDbEntity
8
1
62
256
6
ByLayer
370
18
48
1
60
0
100
AcDbSpline
70
4
71
3
72
18
73
14
40
0
40
0
40
0
40
0
40
0.0435329036811832
40
0.0435329036811832
40
0.500571292736206
40
0.500571292736206
40
0.614830889999962
40
0.614830889999962
40
0.729090487263717
40
0.729090487263717
40
0.957609681791231
40
0.957609681791231
40
1
40
1
40
1
40
1
41
1
10
18.4315023149506
20
-0.0032871263500738
30
0
41
1
10
18.5862564840648
20
-0.0878544806002424
30
0
41
1
10
18.7409464243219
20
-0.172388352838737
30
0
41
1
10
20.5191914664527
20
-1.14356192591993
30
0
41
1
10
22.1378574051417
20
-2.02256532138824
30
0
41
1
10
24.1867696967652
20
-3.05279946888533
30
0
41
1
10
24.5987271730119
20
-3.25593101268692
30
0
41
1
10
25.4189791617011
20
-3.65039120532859
30
0
41
1
10
25.8278043841189
20
-3.84195159256302
30
0
41
1
10
27.0513238544625
20
-4.39826786668317
30
0
41
1
10
27.8631420953817
20
-4.74461808747924
30
0
41
1
10
28.8248257749265
20
-5.12113057402928
30
0
41
1
10
28.9752797033567
20
-5.17905705774658
30
0
41
1
10
29.1257291724464
20
-5.23597027501918
30
0
0
SPLINE
5
CC
100
AcDbEntity
8
1
62
256
6
ByLayer
370
13
48
1
60
0
100
AcDbSpline
70
4
71
3
72
20
73
16
40
0
40
0
40
0
40
0
40
0.365606359721824
40
0.365606359721824
40
0.415979240191894
40
0.415979240191894
40
0.466352120661964
40
0.466352120661964
40
0.567097881602104
40
0.567097881602104
40
0.768589403482381
40
0.768589403482381
40
0.970080925362658
40
0.970080925362658
40
1
40
1
40
1
40
1
41
1
10
29.1257291725396
20
-5.23597027505443
30
0
41
1
10
30.5973761134599
20
-5.79267654064191
30
0
41
1
10
32.0685963799838
20
-6.25243240611002
30
0
41
1
10
33.7635302993828
20
-6.63828019362282
30
0
41
1
10
33.9693501646657
20
-6.68274865362511
30
0
41
1
10
34.3799715679951
20
-6.76661216899538
30
0
41
1
10
34.5849248820321
20
-6.80604691693239
30
0
41
1
10
35.1988847288067
20
-6.91682650463375
30
0
41
1
10
35.6069714120538
20
-6.98068059828847
30
0
41
1
10
36.8286949339924
20
-7.14194514699844
30
0
41
1
10
37.6398551368022
20
-7.2090583318751
30
0
41
1
10
39.2618008961738
20
-7.2619187804809
30
0
41
1
10
40.0726492785195
20
-7.24770687078592
30
0
41
1
10
41.0071825573469
20
-7.18423061662162
30
0
41
1
10
41.1280834817868
20
-7.17512093346716
30
0
41
1
10
41.2490655823115
20
-7.16510832131181
30
0
0
SPLINE
5
CD
100
AcDbEntity
8
1
62
256
6
ByLayer
370
18
48
1
60
0
100
AcDbSpline
70
4
71
3
72
65
73
61
40
0
40
0
40
0
40
0
40
0.125000000000003
40
0.125000000000003
40
0.187500000000005
40
0.187500000000005
40
0.250000000000007
40
0.250000000000007
40
0.37500000000001
40
0.37500000000001
40
0.500000000000013
40
0.500000000000013
40
0.562500000000015
40
0.562500000000015
40
0.625000000000017
40
0.625000000000017
40
0.687500000000019
40
0.687500000000019
40
0.718750000000019
40
0.718750000000019
40
0.722656250000019
40
0.722656250000019
40
0.726562500000019
40
0.726562500000019
40
0.728515625000018
40
0.728515625000018
40
0.730468750000018
40
0.734375000000018
40
0.734375000000018
40
0.750000000000017
40
0.750000000000017
40
0.781250000000015
40
0.781250000000015
40
0.796875000000014
40
0.796875000000014
40
0.812500000000013
40
0.812500000000013
40
0.820312500000012
40
0.820312500000012
40
0.828125000000012
40
0.828125000000012
40
0.843750000000011
40
0.843750000000011
40
0.85156250000001
40
0.85156250000001
40
0.85937500000001
40
0.85937500000001
40
0.875000000000009
40
0.875000000000009
40
0.890625000000008
40
0.890625000000008
40
0.906250000000007
40
0.906250000000007
40
0.921875000000006
40
0.921875000000006
40
0.937500000000005
40
0.937500000000005
40
0.968750000000002
40
0.968750000000002
40
1
40
1
40
1
40
1
41
1
10
21.1285844905104
20
-2.11577190699222
30
0
41
1
10
20.197930821628
20
-1.61039031253458
30
0
41
1
10
19.2575849683199
20
-1.11165229886527
30
0
41
1
10
17.8239368247609
20
-0.393325908471382
30
0
41
1
10
17.3433380340724
20
-0.159587344452831
30
0
41
1
10
16.3789307049475
20
0.290836686386655
30
0
41
1
10
15.8945519746985
20
0.507794925995114
30
0
41
1
10
14.4326947715658
20
1.12848933726528
30
0
41
1
10
13.4463834642165
20
1.50169134409759
30
0
41
1
10
11.4404261431411
20
2.1443910206026
30
0
41
1
10
10.4207944085929
20
2.41398648245232
30
0
41
1
10
8.86144753718466
20
2.73115327663962
30
0
41
1
10
8.33670766477232
20
2.82240777002383
30
0
41
1
10
7.27665148331516
20
2.97472365555066
30
0
41
1
10
6.74423830838774
20
3.03536928860231
30
0
41
1
10
5.67581233571039
20
3.12498801809116
30
0
41
1
10
5.13995144174277
20
3.1539615593974
30
0
41
1
10
4.33525603958668
20
3.17281360282158
30
0
41
1
10
4.06685971104707
20
3.17498952580044
30
0
41
1
10
3.76511713957083
20
3.1726921311967
30
0
41
1
10
3.7315576911777
20
3.17302578849609
30
0
41
1
10
3.66493214060202
20
3.16475756237955
30
0
41
1
10
3.63064017000869
20
3.15678098919992
30
0
41
1
10
3.58571234641329
20
3.13641567284162
30
0
41
1
10
3.5722347424919
20
3.12762121489703
30
0
41
1
10
3.54498993219735
20
3.11040244946935
30
0
41
1
10
3.50423238567731
20
3.0844054341631
30
0
41
1
10
3.46381051762864
20
3.05789062534762
30
0
41
1
10
3.32984908802868
20
2.96830334189085
30
0
41
1
10
3.22510987523486
20
2.89271651179087
30
0
41
1
10
2.92345230974979
20
2.6549898362604
30
0
41
1
10
2.73757523278474
20
2.48146896197511
30
0
41
1
10
2.49168846005088
20
2.18786364772205
30
0
41
1
10
2.41527289551672
20
2.08437939131937
30
0
41
1
10
2.27660518516879
20
1.86291282135724
30
0
41
1
10
2.2162710710775
20
1.74786755080291
30
0
41
1
10
2.14108576609183
20
1.56818603587234
30
0
41
1
10
2.11857420631148
20
1.50709202883587
30
0
41
1
10
2.07900580386413
20
1.38232293417789
30
0
41
1
10
2.06188182937763
20
1.31831241442688
30
0
41
1
10
2.01984035578388
20
1.1246653770412
30
0
41
1
10
2.00430670383966
20
0.994396153908383
30
0
41
1
10
1.99900841302778
20
0.797259284949661
30
0
41
1
10
2.00024556226253
20
0.731257939984175
30
0
41
1
10
2.00863487960061
20
0.598678616888321
30
0
41
1
10
2.01584500652476
20
0.531837126487716
30
0
41
1
10
2.04560241699178
20
0.333948627765949
30
0
41
1
10
2.0761982307867
20
0.204641802974379
30
0
41
1
10
2.155404262243
20
-0.0495973231358846
30
0
41
1
10
2.20438800150404
20
-0.175150548890741
30
0
41
1
10
2.31498766076931
20
-0.416859339824413
30
0
41
1
10
2.37672419484639
20
-0.533677949663115
30
0
41
1
10
2.51042420339579
20
-0.760880024640983
30
0
41
1
10
2.58240215501655
20
-0.871254553776311
30
0
41
1
10
2.73479411306081
20
-1.08667583999156
30
0
41
1
10
2.81551424953349
20
-1.19206530372537
30
0
41
1
10
3.06557074694368
20
-1.49811667179819
30
0
41
1
10
3.24279578514248
20
-1.6892727655742
30
0
41
1
10
3.61151361082861
20
-2.05377559161434
30
0
41
1
10
3.80308775796488
20
-2.22702686193921
30
0
41
1
10
3.99999956286038
20
-2.39347549018916
30
0
0
SPLINE
5
CE
100
AcDbEntity
8
1
62
256
6
ByLayer
370
18
48
1
60
0
100
AcDbSpline
70
4
71
3
72
12
73
8
40
0
40
0
40
0
40
0
40
0.24999999999999
40
0.24999999999999
40
0.49999999999998
40
0.49999999999998
40
1
40
1
40
1
40
1
41
1
10
4.12732146890701
20
6.57234293226276
30
0
41
1
10
4.10793953219249
20
6.57747990632188
30
0
41
1
10
4.09042186803538
20
6.58368112524752
30
0
41
1
10
4.05900786742689
20
6.59808620603425
30
0
41
1
10
4.04527132990816
20
6.60628246505254
30
0
41
1
10
4.01205263098004
20
6.6324321053591
30
0
41
1
10
3.99999956286479
20
6.65236294471325
30
0
41
1
10
3.9999995628647
20
6.67218589235722
30
0
0
SPLINE
5
CF
100
AcDbEntity
8
1
62
256
6
ByLayer
370
18
48
1
60
0
100
AcDbSpline
70
4
71
3
72
36
73
32
40
0
40
0
40
0
40
0
40
0.112816031149159
40
0.112816031149159
40
0.16922404672374
40
0.16922404672374
40
0.22563206229832
40
0.22563206229832
40
0.2820400778729
40
0.2820400778729
40
0.338448093447481
40
0.338448093447481
40
0.45126412459664
40
0.45126412459664
40
0.507672140171219
40
0.507672140171219
40
0.564080155745797
40
0.564080155745797
40
0.620488171320376
40
0.620488171320376
40
0.676896186894954
40
0.676896186894954
40
0.789712218044109
40
0.789712218044109
40
0.846120233618688
40
0.846120233618688
40
0.902528249193266
40
0.902528249193266
40
0.958936264767845
40
0.958936264767845
40
1
40
1
40
1
40
1
41
1
10
21.1286087621481
20
-2.11574606077434
30
0
41
1
10
21.7683808027678
20
-2.46404810980869
30
0
41
1
10
22.4085326786118
20
-2.79997315327583
30
0
41
1
10
23.3669459888037
20
-3.28981666828847
30
0
41
1
10
23.6859676258413
20
-3.4509609979774
30
0
41
1
10
24.3239123505017
20
-3.76760336133572
30
0
41
1
10
24.643530921879
20
-3.92202559404259
30
0
41
1
10
25.2836937565661
20
-4.22372051528913
30
0
41
1
10
25.6045307497057
20
-4.3711624000438
30
0
41
1
10
26.2449903696819
20
-4.65856041254455
30
0
41
1
10
26.5643125607396
20
-4.79882763128938
30
0
41
1
10
27.5217056376561
20
-5.20623540223983
30
0
41
1
10
28.1611940613974
20
-5.45758026665047
30
0
41
1
10
29.1197495429613
20
-5.80770276251812
30
0
41
1
10
29.4388678904855
20
-5.92018374180228
30
0
41
1
10
30.0783931307383
20
-6.13422660985432
30
0
41
1
10
30.3991508877404
20
-6.23556041981098
30
0
41
1
10
31.0394003770188
20
-6.42678509686422
30
0
41
1
10
31.3592296095329
20
-6.51675339304413
30
0
41
1
10
31.9979762198479
20
-6.68565150587264
30
0
41
1
10
32.3165479178938
20
-6.76481287302155
30
0
41
1
10
33.2737637284392
20
-6.98330636332088
30
0
41
1
10
33.9138402558621
20
-7.10411358299714
30
0
41
1
10
34.8745527045253
20
-7.24923036643031
30
0
41
1
10
35.1938964649072
20
-7.29150350658128
30
0
41
1
10
35.8329372736205
20
-7.36260772879641
30
0
41
1
10
36.1525781410448
20
-7.3915907723277
30
0
41
1
10
36.7916414915292
20
-7.43673995082219
30
0
41
1
10
37.1110813052836
20
-7.45289923008673
30
0
41
1
10
37.6626254857214
20
-7.46965063405327
30
0
41
1
10
37.8947226557135
20
-7.47325613604065
30
0
41
1
10
38.1271286015312
20
-7.47338701113617
30
0
0
SPLINE
5
D0
100
AcDbEntity
8
1
62
256
6
ByLayer
370
18
48
1
60
0
100
AcDbSpline
70
4
71
3
72
32
73
28
40
0
40
0
40
0
40
0
40
0.0114068043596095
40
0.0114068043596095
40
0.087452434793486
40
0.087452434793486
40
0.163498065227362
40
0.163498065227362
40
0.239543695661239
40
0.239543695661239
40
0.315589326095116
40
0.315589326095116
40
0.391634956528993
40
0.391634956528993
40
0.467680586962869
40
0.467680586962869
40
0.543726217396745
40
0.543726217396745
40
0.619771847830622
40
0.619771847830622
40
0.695817478264499
40
0.695817478264499
40
0.771863108698375
40
0.771863108698375
40
0.847908739132252
40
0.847908739132252
40
1
40
1
40
1
40
1
41
1
10
69.8741683432568
20
5.50953487375483
30
0
41
1
10
69.9221467731004
20
5.5278858458644
30
0
41
1
10
69.9701337110893
20
5.54613105446992
30
0
41
1
10
70.3380938341682
20
5.68520884123117
30
0
41
1
10
70.6586694902087
20
5.80154995499993
30
0
41
1
10
71.2978871743242
20
6.02427489873307
30
0
41
1
10
71.6164986329256
20
6.13096855404729
30
0
41
1
10
72.2546950627436
20
6.33199358068646
30
0
41
1
10
72.573986368602
20
6.42667767050045
30
0
41
1
10
73.2125368551656
20
6.60489906105653
30
0
41
1
10
73.5318093094198
20
6.68842316699619
30
0
41
1
10
74.1700205886783
20
6.84439660733034
30
0
41
1
10
74.4888277280255
20
6.9168873214621
30
0
41
1
10
75.1286912500271
20
7.04884005236215
30
0
41
1
10
75.4490351033018
20
7.10852433195655
30
0
41
1
10
76.0883898154356
20
7.21534994208074
30
0
41
1
10
76.4076734057491
20
7.26254093494072
30
0
41
1
10
77.045113100734
20
7.34450484168056
30
0
41
1
10
77.363306332755
20
7.37920216643249
30
0
41
1
10
78.0011827412406
20
7.43528389429611
30
0
41
1
10
78.3204716583401
20
7.45683714856213
30
0
41
1
10
78.959398823243
20
7.48707207293464
30
0
41
1
10
79.2790436915928
20
7.49575305167337
30
0
41
1
10
79.9183649134949
20
7.49996675773593
30
0
41
1
10
80.2377018772885
20
7.49543074925126
30
0
41
1
10
81.1959435356947
20
7.46241119148681
30
0
41
1
10
81.834415724525
20
7.41474810931348
30
0
41
1
10
82.4712135576559
20
7.34087727992093
30
0
0
SPLINE
5
D1
100
AcDbEntity
8
1
62
256
6
ByLayer
370
13
48
1
60
0
100
AcDbSpline
70
4
71
3
72
16
73
12
40
0
40
0
40
0
40
0
40
0.346552070242211
40
0.346552070242211
40
0.481179514197794
40
0.481179514197794
40
0.615806958153377
40
0.615806958153377
40
0.885061846064543
40
0.885061846064543
40
1
40
1
40
1
40
1
41
1
10
4.25034092154871
20
6.54757765808037
30
0
41
1
10
4.2503814133801
20
6.67973548318267
30
0
41
1
10
4.25041875190232
20
6.78978760946259
30
0
41
1
10
4.25046751407584
20
6.91210765042624
30
0
41
1
10
4.25048085135506
20
6.94303980296101
30
0
41
1
10
4.2505067136253
20
6.99759541184085
30
0
41
1
10
4.25051925743861
20
7.02128000086154
30
0
41
1
10
4.25055591554266
20
7.08176236195413
30
0
41
1
10
4.25057906067266
20
7.10801925626907
30
0
41
1
10
4.25061087006475
20
7.12565635020897
30
0
41
1
10
4.25062023085917
20
7.12840076608998
30
0
41
1
10
4.25062946590919
20
7.12858750104439
30
0
0
SPLINE
5
D2
100
AcDbEntity
8
1
62
256
6
ByLayer
370
18
48
1
60
0
100
AcDbSpline
70
4
71
3
72
8
73
4
40
0
40
0
40
0
40
0
40
1
40
1
40
1
40
1
41
1
10
3.99999956286473
20
-2.29760598984638
30
0
41
1
10
3.99999956286473
20
-2.32968895928224
30
0
41
1
10
3.9999995628647
20
-2.36164545834555
30
0
41
1
10
3.9999995628647
20
-2.39347549019283
30
0
0
LINE
5
76
100
AcDbEntity
8
81
62
256
6
ByLayer
370
18
48
1
60
0
100
AcDbLine
10
85
20
0
30
0
11
90
21
0
31
0
39
0
210
0
220
0
230
1
0
LINE
5
77
100
AcDbEntity
8
1
62
256
6
ByLayer
370
18
48
1
60
0
100
AcDbLine
10
4
20
7.452917
30
0
11
1.206669
21
7.451241
31
0
39
0
210
0
220
0
230
1
0
LINE
5
79
100
AcDbEntity
8
1
62
256
6
ByLayer
370
18
48
1
60
0
100
AcDbLine
10
39.225203
20
7.474052
30
0
11
38.127051
21
7.473394
31
0
39
0
210
0
220
0
230
1
0
LINE
5
7A
100
AcDbEntity
8
1
62
256
6
ByLayer
370
18
48
1
60
0
100
AcDbLine
10
80.825985
20
7.499013
30
0
11
79.73777
21
7.49836
31
0
39
0
210
0
220
0
230
1
0
LINE
5
7B
100
AcDbEntity
8
1
62
256
6
ByLayer
370
18
48
1
60
0
100
AcDbLine
10
79.73777
20
-7.49836
30
0
11
80.825528
21
-7.499013
31
0
39
0
210
0
220
0
230
1
0
LINE
5
7C
100
AcDbEntity
8
1
62
256
6
ByLayer
370
18
48
1
60
0
100
AcDbLine
10
38.127051
20
-7.473394
30
0
11
39.224902
21
-7.474052
31
0
39
0
210
0
220
0
230
1
0
LINE
5
7D
100
AcDbEntity
8
1
62
256
6
ByLayer
370
18
48
1
60
0
100
AcDbLine
10
1.206669
20
-7.451241
30
0
11
4
21
-7.452917
31
0
39
0
210
0
220
0
230
1
0
LINE
5
7E
100
AcDbEntity
8
SK1
62
256
6
ByLayer
370
18
48
1
60
0
100
AcDbLine
10
-45.979274
20
8
30
0
11
-48
21
4.5
31
0
39
0
210
0
220
0
230
1
0
LINE
5
80
100
AcDbEntity
8
SK1
62
256
6
ByLayer
370
18
48
1
60
0
100
AcDbLine
10
-48
20
-4.5
30
0
11
-45.979274
21
-8
31
0
39
0
210
0
220
0
230
1
0
LINE
5
81
100
AcDbEntity
8
SK1
62
256
6
ByLayer
370
18
48
1
60
0
100
AcDbLine
10
0
20
8
30
0
11
-45.979274
21
8
31
0
39
0
210
0
220
0
230
1
0
LINE
5
82
100
AcDbEntity
8
SK1
62
256
6
ByLayer
370
18
48
1
60
0
100
AcDbLine
10
-45.979274
20
-8
30
0
11
0
21
-8
31
0
39
0
210
0
220
0
230
1
0
LINE
5
83
100
AcDbEntity
8
SK4
62
256
6
ByLayer
370
18
48
0.05
60
0
100
AcDbLine
10
90
20
0
30
0
11
-53
21
0
31
0
39
0
210
0
220
0
230
1
0
LINE
5
85
100
AcDbEntity
8
4
62
256
6
ByLayer
370
18
48
0.05
60
0
100
AcDbLine
10
85
20
0
30
0
11
0
21
0
31
0
39
0
210
0
220
0
230
1
0
LINE
5
87
100
AcDbEntity
8
80
62
256
6
ByLayer
370
18
48
1
60
0
100
AcDbLine
10
0
20
0
30
0
11
-5
21
0
31
0
39
0
210
0
220
0
230
1
0
LINE
5
88
100
AcDbEntity
8
1
62
256
6
ByLayer
370
18
48
1
60
0
100
AcDbLine
10
85
20
0
30
0
11
82.388539
21
-7.17493
31
0
39
0
210
0
220
0
230
1
0
LINE
5
89
100
AcDbEntity
8
1
62
256
6
ByLayer
370
18
48
1
60
0
100
AcDbLine
10
84.902034
20
-0.337372
30
0
11
84.654526
21
-1.251136
31
0
39
0
210
0
220
0
230
1
0
LINE
5
8A
100
AcDbEntity
8
1
62
256
6
ByLayer
370
13
48
1
60
0
100
AcDbLine
10
0.603095
20
7.725621
30
0
11
0.603095
21
-7.725621
31
0
39
0
210
0
220
0
230
1
0
LINE
5
8B
100
AcDbEntity
8
1
62
256
6
ByLayer
370
18
48
1
60
0
100
AcDbLine
10
84.984185
20
0.070951
30
0
11
85
21
0
31
0
39
0
210
0
220
0
230
1
0
LINE
5
8C
100
AcDbEntity
8
1
62
256
6
ByLayer
370
13
48
1
60
0
100
AcDbLine
10
1.206669
20
7.451241
30
0
11
1.206669
21
-7.451241
31
0
39
0
210
0
220
0
230
1
0
LINE
5
8D
100
AcDbEntity
8
1
62
256
6
ByLayer
370
18
48
1
60
0
100
AcDbLine
10
4
20
-7.452917
30
0
11
4
21
-2.393475
31
0
39
0
210
0
220
0
230
1
0
LINE
5
8E
100
AcDbEntity
8
1
62
256
6
ByLayer
370
18
48
1
60
0
100
AcDbLine
10
85
20
0
30
0
11
84.984185
21
-0.070951
31
0
39
0
210
0
220
0
230
1
0
LINE
5
8F
100
AcDbEntity
8
1
62
256
6
ByLayer
370
13
48
1
60
0
100
AcDbLine
10
83.056499
20
1.251136
30
0
11
84.902034
21
0.337372
31
0
39
0
210
0
220
0
230
1
0
LINE
5
90
100
AcDbEntity
8
1
62
256
6
ByLayer
370
18
48
1
60
0
100
AcDbLine
10
0
20
-8
30
0
11
0
21
8
31
0
39
0
210
0
220
0
230
1
0
LINE
5
91
100
AcDbEntity
8
1
62
256
6
ByLayer
370
18
48
1
60
0
100
AcDbLine
10
84.902034
20
0.337372
30
0
11
84.654526
21
1.251136
31
0
39
0
210
0
220
0
230
1
0
LINE
5
92
100
AcDbEntity
8
1
62
256
6
ByLayer
370
18
48
1
60
0
100
AcDbLine
10
81.221868
20
-4.180968
30
0
11
84.893669
21
-0.088813
31
0
39
0
210
0
220
0
230
1
0
LINE
5
93
100
AcDbEntity
8
1
62
256
6
ByLayer
370
13
48
1
60
0
100
AcDbLine
10
82.88704
20
0.904711
30
0
11
84.893669
21
-0.088813
31
0
39
0
210
0
220
0
230
1
0
LINE
5
94
100
AcDbEntity
8
1
62
256
6
ByLayer
370
13
48
1
60
0
100
AcDbLine
10
84.654526
20
1.251136
30
0
11
83.056499
21
1.251136
31
0
39
0
210
0
220
0
230
1
0
LINE
5
95
100
AcDbEntity
8
1
62
256
6
ByLayer
370
18
48
1
60
0
100
AcDbLine
10
4
20
7.452917
30
0
11
4
21
6.672186
31
0
39
0
210
0
220
0
230
1
0
LINE
5
96
100
AcDbEntity
8
SK1
62
256
6
ByLayer
370
18
48
1
60
0
100
AcDbLine
10
0
20
-8
30
0
11
0
21
8
31
0
39
0
210
0
220
0
230
1
0
LINE
5
97
100
AcDbEntity
8
SK1
62
256
6
ByLayer
370
18
48
1
60
0
100
AcDbLine
10
-45.979274
20
8
30
0
11
-45.979274
21
-8
31
0
39
0
210
0
220
0
230
1
0
LINE
5
98
100
AcDbEntity
8
SK1
62
256
6
ByLayer
370
18
48
1
60
0
100
AcDbLine
10
-48
20
4.5
30
0
11
-48
21
-4.5
31
0
39
0
210
0
220
0
230
1
0
MTEXT
5
D3
100
AcDbEntity
8
SK6
62
256
6
ByLayer
370
13
48
1
60
0
100
AcDbMText
10
20.629169
20
39.882694
30
0
210
0
220
0
230
1
1
\W0.7542;R840-1500-50-A0A1220
40
3.5
41
0
44
1.084337
50
0
71
8
72
5
7
iso_b_vert
0
DIMENSION
5
E0
100
AcDbEntity
8
SK2
62
256
6
ByLayer
370
13
48
1
60
0
100
AcDbDimension
2
DimnDraft3D1
10
82.43
20
-17.713398
30
0
11
39.180059
21
-17.713398
31
0
70
32
71
5
72
1
41
1
210
0
220
0
230
1
3
Standard
100
AcDbAlignedDimension
13
0
23
-1.5875
33
0
14
82.43
24
-9.0875
34
0
50
0
100
AcDbRotatedDimension
1001
ACAD
1000
DSTYLE
1002
{
1070
   279
1070
     0
1070
   172
1070
     1
1070
   173
1070
     1
1070
   340
1005
D4
1070
   271
1070
     2
1070
   272
1070
     2
1070
    77
1070
     1
1070
    73
1070
     0
1070
   171
1070
     3
1070
   274
1070
     4
1070
   177
1070
    35
1070
   176
1070
    35
1070
   178
1070
    35
1070
    48
1040
-0.005
1070
    41
1041
3.5
1070
   147
1041
1.75
1070
    42
1041
1.5875
1070
    44
1041
2.0
1070
   140
1041
3.5
1070
   343
1005
0
1070
   344
1005
0
1002
}
0
DIMENSION
5
EA
100
AcDbEntity
8
SK2
62
256
6
ByLayer
370
13
48
1
60
0
100
AcDbDimension
2
DimnDraft3D2
10
85
20
-36.692985
30
0
11
17.2713
21
-36.692985
31
0
70
32
71
5
72
1
41
1
210
0
220
0
230
1
3
Standard
100
AcDbAlignedDimension
13
-48
23
-9.5875
33
0
14
85
24
-1.5875
34
0
50
0
100
AcDbRotatedDimension
1001
ACAD
1000
DSTYLE
1002
{
1070
   279
1070
     0
1070
   172
1070
     1
1070
   173
1070
     1
1070
   340
1005
D4
1070
   271
1070
     2
1070
   272
1070
     2
1070
    77
1070
     1
1070
    73
1070
     0
1070
   171
1070
     3
1070
   274
1070
     4
1070
   177
1070
    35
1070
   176
1070
    35
1070
   178
1070
    35
1070
    48
1040
-0.005
1070
    41
1041
3.5
1070
   147
1041
1.75
1070
    42
1041
1.5875
1070
    44
1041
2.0
1070
   140
1041
3.5
1070
   343
1005
0
1070
   344
1005
0
1002
}
0
DIMENSION
5
F4
100
AcDbEntity
8
SK2
62
256
6
ByLayer
370
13
48
1
60
0
100
AcDbDimension
2
DimnDraft3D3
10
85
20
19.109119
30
0
11
46.215
21
19.109119
31
0
70
32
71
5
72
1
41
1
210
0
220
0
230
1
3
Standard
100
AcDbAlignedDimension
13
7.43
23
9.0875
33
0
14
85
24
1.5875
34
0
50
0
100
AcDbRotatedDimension
1001
ACAD
1000
DSTYLE
1002
{
1070
   279
1070
     0
1070
   172
1070
     1
1070
   173
1070
     1
1070
   340
1005
D4
1070
   271
1070
     2
1070
   272
1070
     2
1070
    77
1070
     1
1070
    73
1070
     0
1070
   171
1070
     3
1070
   274
1070
     4
1070
   177
1070
    35
1070
   176
1070
    35
1070
   178
1070
    35
1070
    48
1040
-0.005
1070
    41
1041
3.5
1070
   147
1041
1.75
1070
    42
1041
1.5875
1070
    44
1041
2.0
1070
   140
1041
3.5
1070
   343
1005
0
1070
   344
1005
0
1002
}
0
DIMENSION
5
FE
100
AcDbEntity
8
SK2
62
256
6
ByLayer
370
13
48
1
60
0
100
AcDbDimension
2
DimnDraft3D4
10
82.43
20
-20.302503
30
0
11
94.981425
21
-20.302503
31
0
70
32
71
5
72
1
41
1
210
0
220
0
230
1
3
Standard
100
AcDbAlignedDimension
13
85
23
-1.5875
33
0
14
82.43
24
-9.0875
34
0
50
0
100
AcDbRotatedDimension
1001
ACAD
1000
DSTYLE
1002
{
1070
   279
1070
     0
1070
   172
1070
     1
1070
   173
1070
     1
1070
   340
1005
D4
1070
   271
1070
     2
1070
   272
1070
     2
1070
    77
1070
     1
1070
    73
1070
     0
1070
   171
1070
     3
1070
   274
1070
     4
1070
   177
1070
    35
1070
   176
1070
    35
1070
   178
1070
    35
1070
    48
1040
-0.005
1070
    41
1041
3.5
1070
   147
1041
1.75
1070
    42
1041
1.5875
1070
    44
1041
2.0
1070
   140
1041
3.5
1070
   343
1005
0
1070
   344
1005
0
1002
}
0
DIMENSION
5
108
100
AcDbEntity
8
SK2
62
256
6
ByLayer
370
13
48
1
60
0
100
AcDbDimension
2
DimnDraft3D5
10
82.43
20
-26.343428
30
0
11
14.190676
21
-26.343428
31
0
70
32
71
5
72
1
41
1
210
0
220
0
230
1
3
Standard
100
AcDbAlignedDimension
13
-48
23
-9.5875
33
0
14
82.43
24
-9.0875
34
0
50
0
100
AcDbRotatedDimension
1001
ACAD
1000
DSTYLE
1002
{
1070
   279
1070
     0
1070
   172
1070
     1
1070
   173
1070
     1
1070
   340
1005
D4
1070
   271
1070
     2
1070
   272
1070
     2
1070
    77
1070
     1
1070
    73
1070
     0
1070
   171
1070
     3
1070
   274
1070
     4
1070
   177
1070
    35
1070
   176
1070
    35
1070
   178
1070
    35
1070
    48
1040
-0.005
1070
    41
1041
3.5
1070
   147
1041
1.75
1070
    42
1041
1.5875
1070
    44
1041
2.0
1070
   140
1041
3.5
1070
   343
1005
0
1070
   344
1005
0
1002
}
0
DIMENSION
5
113
100
AcDbEntity
8
SK2
62
256
6
ByLayer
370
13
48
1
60
0
100
AcDbDimension
2
DimnDraft3D6
10
-58.625163
20
8
30
0
11
-59.250163
21
26.47418
31
0
70
33
71
5
72
1
41
1
210
0
220
0
230
1
3
Standard
100
AcDbAlignedDimension
13
-49.5875
23
-8
33
0
14
-49.5875
24
8
34
0
1001
ACAD
1000
DSTYLE
1002
{
1070
   279
1070
     0
1070
    74
1070
     0
1070
   173
1070
     1
1070
   340
1005
D4
1070
   271
1070
     3
1070
   272
1070
     2
1070
    77
1070
     1
1070
    73
1070
     0
1070
   171
1070
     3
1070
   274
1070
     4
1070
   177
1070
    35
1070
   176
1070
    35
1070
   178
1070
    35
1070
    48
1040
-0.005
1070
    41
1041
3.5
1070
   147
1041
1.75
1070
    42
1041
1.5875
1070
    44
1041
2.0
1070
   140
1041
3.5
1070
   343
1005
0
1070
   344
1005
0
1002
}
0
DIMENSION
5
11E
100
AcDbEntity
8
2
62
256
6
ByLayer
370
13
48
1
60
0
100
AcDbDimension
2
DimnDraft3D7
10
99.083343
20
7.5
30
0
11
94.458343
21
24.567266
31
0
70
33
71
5
72
1
41
1
210
0
220
0
230
1
3
Standard
100
AcDbAlignedDimension
13
84.0175
23
-7.5
33
0
14
84.0175
24
7.5
34
0
1001
ACAD
1000
DSTYLE
1002
{
1070
   279
1070
     0
1070
    74
1070
     0
1070
   173
1070
     1
1070
   340
1005
D4
1070
   271
1070
     3
1070
   272
1070
     2
1070
    77
1070
     1
1070
    73
1070
     0
1070
   171
1070
     3
1070
   274
1070
     4
1070
   177
1070
    35
1070
   176
1070
    35
1070
   178
1070
    35
1070
    48
1040
-0.005
1070
    41
1041
3.5
1070
   147
1041
1.75
1070
    42
1041
1.5875
1070
    44
1041
2.0
1070
   140
1041
3.5
1070
   343
1005
0
1070
   344
1005
0
1002
}
0
ENDSEC
0
SECTION
2
OBJECTS
0
DICTIONARY
5
189
330
0
100
AcDbDictionary
280
0
281
1
3
ACAD_GROUP
350
18a
3
ACAD_MLINESTYLE
350
18b
0
DICTIONARY
5
18a
330
0
100
AcDbDictionary
280
0
281
1
0
DICTIONARY
5
18b
330
0
100
AcDbDictionary
280
0
281
1
3
Standard
350
18
0
MLINESTYLE
5
18
330
18b
100
AcDbMlineStyle
2
Standard
70
0
3

62
256
51
90
52
90
71
2
49
-0.5
62
256
6
ByLayer
49
0.5
62
256
6
ByLayer
0
RASTERVARIABLES
5
177
330

100
AcDbRasterVariables
90
0
70
1
71
1
72
1
0
ENDSEC
0
EOF
