0
SECTION
2
HEADER
9
$ACADVER
1
AC1015
9
$DWGCODEPAGE
3
ANSI_1252
9
$HANDSEED
5
199
9
$ANGBASE
50
0
9
$ANGDIR
70
0
9
$ATTMODE
70
1
9
$AUNITS
70
0
9
$AUPREC
70
0
9
$CECOLOR
62
256
9
$CELTSCALE
40
1
9
$CELTYPE
6
ByLayer
9
$CELWEIGHT
370
18
9
$CLAYER
8
0
9
$CMLJUST
70
0
9
$CMLSCALE
40
1
9
$CMLSTYLE
2
Standard
9
$DIMSTYLE
2
Standard
9
$TEXTSIZE
40
0.2
9
$TEXTSTYLE
7
Standard
9
$LUNITS
70
2
9
$LUPREC
70
4
9
$EXTNAMES
290
1
9
$INSUNITS
70
4
9
$LTSCALE
40
1
9
$LWDISPLAY
290
1
9
$PDMODE
70
0
9
$PDSIZE
40
0
9
$PLINEGEN
70
0
0
ENDSEC
0
SECTION
2
CLASSES
0
CLASS
1
RASTERVARIABLES
2
AcDbRasterVariables
3
ISM
90
0
280
0
281
0
0
ENDSEC
0
SECTION
2
TABLES
0
TABLE
2
VPORT
5
18f
100
AcDbSymbolTable
0
VPORT
5
1
100
AcDbSymbolTableRecord
100
AcDbViewportTableRecord
2
*Active
70
0
10
0
20
0
11
1
21
1
12
-1
22
1
13
0
23
0
14
0.5
24
0.5
15
10
25
10
16
0
26
0
36
1
17
0
27
0
37
0
0
ENDTAB
0
TABLE
2
LTYPE
5
190
100
AcDbSymbolTable
0
LTYPE
5
14
100
AcDbSymbolTableRecord
100
AcDbLinetypeTableRecord
70
0
2
ByBlock
3

72
65
73
0
40
0
0
LTYPE
5
15
100
AcDbSymbolTableRecord
100
AcDbLinetypeTableRecord
70
0
2
ByLayer
3

72
65
73
0
40
0
0
LTYPE
5
16
100
AcDbSymbolTableRecord
100
AcDbLinetypeTableRecord
70
0
2
CONTINUOUS
3
Solid line
72
65
73
0
40
0
0
LTYPE
5
6A
100
AcDbSymbolTableRecord
100
AcDbLinetypeTableRecord
70
0
2
CENTER
3
____ _ ____ _ ____ _ ____
72
65
73
4
40
47.5
49
22
74
0
49
-8.5
74
0
49
8.5
74
0
49
-8.5
74
0
0
LTYPE
5
6B
100
AcDbSymbolTableRecord
100
AcDbLinetypeTableRecord
70
0
2
DASHED
3
__ __ __ __ __ __ __ __ __
72
65
73
2
40
25.72
49
12.86
74
0
49
-12.86
74
0
0
ENDTAB
0
TABLE
2
LAYER
5
191
100
AcDbSymbolTable
0
LAYER
5
10
100
AcDbSymbolTableRecord
100
AcDbLayerTableRecord
2
0
70
0
62
7
6
CONTINUOUS
290
1
370
-3
390
0
0
LAYER
5
6D
100
AcDbSymbolTableRecord
100
AcDbLayerTableRecord
2
81
70
0
62
-3
6
CONTINUOUS
290
1
370
-3
390
0
0
LAYER
5
6F
100
AcDbSymbolTableRecord
100
AcDbLayerTableRecord
2
80
70
0
62
-6
6
CONTINUOUS
290
1
370
-3
390
0
0
LAYER
5
74
100
AcDbSymbolTableRecord
100
AcDbLayerTableRecord
2
2
70
0
62
7
6
CONTINUOUS
290
1
370
-3
390
0
0
LAYER
5
78
100
AcDbSymbolTableRecord
100
AcDbLayerTableRecord
2
1
70
0
62
4
6
CONTINUOUS
290
1
370
-3
390
0
0
LAYER
5
86
100
AcDbSymbolTableRecord
100
AcDbLayerTableRecord
2
4
70
0
62
-2
6
CENTER
290
1
370
-3
390
0
0
LAYER
5
17b
100
AcDbSymbolTableRecord
100
AcDbLayerTableRecord
2
SK2
70
0
62
7
6
CONTINUOUS
290
1
370
-3
390
0
0
LAYER
5
17c
100
AcDbSymbolTableRecord
100
AcDbLayerTableRecord
2
SK1
70
0
62
4
6
CONTINUOUS
290
1
370
-3
390
0
0
LAYER
5
17d
100
AcDbSymbolTableRecord
100
AcDbLayerTableRecord
2
SK4
70
0
62
2
6
CENTER
290
1
370
-3
390
0
0
LAYER
5
17e
100
AcDbSymbolTableRecord
100
AcDbLayerTableRecord
2
SK6
70
0
62
5
6
CONTINUOUS
290
1
370
-3
390
0
0
ENDTAB
0
TABLE
2
STYLE
5
192
100
AcDbSymbolTable
0
STYLE
5
11
100
AcDbSymbolTableRecord
100
AcDbTextStyleTableRecord
2
Standard
3
txt
70
0
71
0
40
0
41
1
42
0
50
0
0
STYLE
5
D7
100
AcDbSymbolTableRecord
100
AcDbTextStyleTableRecord
2
iso_b_vert
3
simplex.shx
70
0
71
0
40
0
41
1
42
0
50
0
0
STYLE
5
D8
100
AcDbSymbolTableRecord
100
AcDbTextStyleTableRecord
2
DWGDirectTextStyle
3
simplex
70
0
71
0
40
0
41
1
42
0
50
0
0
ENDTAB
0
TABLE
2
DIMSTYLE
5
193
100
AcDbSymbolTable
100
AcDbDimStyleTable
0
DIMSTYLE
105
27
100
AcDbSymbolTableRecord
100
AcDbDimStyleTableRecord
2
Standard
70
0
3
<>
41
0.18
42
0.0625
44
0.18
140
0.18
147
0.09
73
0
74
0
77
1
271
2
275
0
278
52
280
0
340
11
0
ENDTAB
0
TABLE
2
VIEW
5
194
100
AcDbSymbolTable
0
ENDTAB
0
TABLE
2
UCS
5
195
100
AcDbSymbolTable
0
ENDTAB
0
TABLE
2
APPID
5
196
100
AcDbSymbolTable
0
APPID
5
12
100
AcDbSymbolTableRecord
100
AcDbRegAppTableRecord
2
ACAD
70
0
0
ENDTAB
0
TABLE
2
BLOCK_RECORD
5
197
100
AcDbSymbolTable
0
BLOCK_RECORD
5
1F
100
AcDbSymbolTableRecord
100
AcDbBlockTableRecord
2
*Model_Space
340
0
70
0
0
BLOCK_RECORD
5
1B
100
AcDbSymbolTableRecord
100
AcDbBlockTableRecord
2
*Paper_Space
340
0
70
0
0
BLOCK_RECORD
5
23
100
AcDbSymbolTableRecord
100
AcDbBlockTableRecord
2
*Paper_Space0
340
0
70
0
0
BLOCK_RECORD
5
DA
100
AcDbSymbolTableRecord
100
AcDbBlockTableRecord
2
DimnDraft3D1
340
0
70
0
0
BLOCK_RECORD
5
E4
100
AcDbSymbolTableRecord
100
AcDbBlockTableRecord
2
DimnDraft3D2
340
0
70
0
0
BLOCK_RECORD
5
EE
100
AcDbSymbolTableRecord
100
AcDbBlockTableRecord
2
DimnDraft3D3
340
0
70
0
0
BLOCK_RECORD
5
F8
100
AcDbSymbolTableRecord
100
AcDbBlockTableRecord
2
DimnDraft3D4
340
0
70
0
0
BLOCK_RECORD
5
102
100
AcDbSymbolTableRecord
100
AcDbBlockTableRecord
2
DimnDraft3D5
340
0
70
0
0
BLOCK_RECORD
5
10C
100
AcDbSymbolTableRecord
100
AcDbBlockTableRecord
2
DimnDraft3D6
340
0
70
0
0
BLOCK_RECORD
5
117
100
AcDbSymbolTableRecord
100
AcDbBlockTableRecord
2
DimnDraft3D7
340
0
70
0
0
ENDTAB
0
ENDSEC
0
SECTION
2
BLOCKS
0
BLOCK
5
20
100
AcDbEntity
8
0
100
AcDbBlockBegin
2
*Model_Space
70
0
10
0
20
0
30
0
3
*Model_Space
0
ENDBLK
5
21
100
AcDbEntity
8
0
100
AcDbBlockEnd
0
BLOCK
5
1C
100
AcDbEntity
8
0
100
AcDbBlockBegin
2
*Paper_Space
70
0
10
0
20
0
30
0
3
*Paper_Space
0
ENDBLK
5
1D
100
AcDbEntity
8
0
100
AcDbBlockEnd
0
BLOCK
5
24
100
AcDbEntity
8
0
100
AcDbBlockBegin
2
*Paper_Space0
70
0
10
0
20
0
30
0
3
*Paper_Space0
0
ENDBLK
5
25
100
AcDbEntity
8
0
100
AcDbBlockEnd
0
BLOCK
5
E1
100
AcDbEntity
8
0
100
AcDbBlockBegin
2
DimnDraft3D1
70
0
10
0
20
0
30
0
3
DimnDraft3D1
0
MTEXT
5
DB
100
AcDbEntity
8
SK2
62
256
6
ByLayer
370
13
48
1
60
0
100
AcDbMText
10
25.362954
20
-16.838398
30
0
210
0
220
0
230
1
1
\W0.7845;64,43
40
3.5
41
0
44
1.084337
50
0
71
7
72
5
7
iso_b_vert
0
LINE
5
DC
100
AcDbEntity
8
SK2
62
256
6
ByLayer
370
13
48
1
60
0
100
AcDbLine
10
0
20
-1.5875
30
0
11
0
21
-19.713398
31
0
39
0
210
0
220
0
230
1
0
LINE
5
DD
100
AcDbEntity
8
SK2
62
256
6
ByLayer
370
13
48
1
60
0
100
AcDbLine
10
64.43
20
-9.0875
30
0
11
64.43
21
-19.713398
31
0
39
0
210
0
220
0
230
1
0
LINE
5
DE
100
AcDbEntity
8
SK2
62
256
6
ByLayer
370
13
48
1
60
0
100
AcDbLine
10
0
20
-17.713398
30
0
11
64.43
21
-17.713398
31
0
39
0
210
0
220
0
230
1
0
SOLID
5
DF
100
AcDbEntity
8
SK2
62
256
6
ByLayer
370
13
48
1
60
0
100
AcDbTrace
10
0
20
-17.713398
30
0
11
3.499998
21
-17.252615
31
0
12
3.500002
22
-18.174182
32
0
13
0
23
-17.713398
33
0
39
0
210
0
220
0
230
1
0
SOLID
5
E0
100
AcDbEntity
8
SK2
62
256
6
ByLayer
370
13
48
1
60
0
100
AcDbTrace
10
64.43
20
-17.713398
30
0
11
60.930002
21
-18.174182
31
0
12
60.929998
22
-17.252615
32
0
13
64.43
23
-17.713398
33
0
39
0
210
0
220
0
230
1
0
ENDBLK
5
E2
100
AcDbEntity
8
0
100
AcDbBlockEnd
0
BLOCK
5
EB
100
AcDbEntity
8
0
100
AcDbBlockBegin
2
DimnDraft3D2
70
0
10
0
20
0
30
0
3
DimnDraft3D2
0
MTEXT
5
E5
100
AcDbEntity
8
SK2
62
256
6
ByLayer
370
13
48
1
60
0
100
AcDbMText
10
3.389721
20
-35.817985
30
0
210
0
220
0
230
1
1
\W0.6440;115,00
40
3.5
41
0
44
1.084337
50
0
71
7
72
5
7
iso_b_vert
0
LINE
5
E6
100
AcDbEntity
8
SK2
62
256
6
ByLayer
370
13
48
1
60
0
100
AcDbLine
10
-48
20
-9.5875
30
0
11
-48
21
-38.692985
31
0
39
0
210
0
220
0
230
1
0
LINE
5
E7
100
AcDbEntity
8
SK2
62
256
6
ByLayer
370
13
48
1
60
0
100
AcDbLine
10
67
20
-1.5875
30
0
11
67
21
-38.692985
31
0
39
0
210
0
220
0
230
1
0
LINE
5
E8
100
AcDbEntity
8
SK2
62
256
6
ByLayer
370
13
48
1
60
0
100
AcDbLine
10
-48
20
-36.692985
30
0
11
67
21
-36.692985
31
0
39
0
210
0
220
0
230
1
0
SOLID
5
E9
100
AcDbEntity
8
SK2
62
256
6
ByLayer
370
13
48
1
60
0
100
AcDbTrace
10
-48
20
-36.692985
30
0
11
-44.500002
21
-36.232202
31
0
12
-44.499998
22
-37.153769
32
0
13
-48
23
-36.692985
33
0
39
0
210
0
220
0
230
1
0
SOLID
5
EA
100
AcDbEntity
8
SK2
62
256
6
ByLayer
370
13
48
1
60
0
100
AcDbTrace
10
67
20
-36.692985
30
0
11
63.500002
21
-37.153769
31
0
12
63.499998
22
-36.232202
32
0
13
67
23
-36.692985
33
0
39
0
210
0
220
0
230
1
0
ENDBLK
5
EC
100
AcDbEntity
8
0
100
AcDbBlockEnd
0
BLOCK
5
F5
100
AcDbEntity
8
0
100
AcDbBlockBegin
2
DimnDraft3D3
70
0
10
0
20
0
30
0
3
DimnDraft3D3
0
MTEXT
5
EF
100
AcDbEntity
8
SK2
62
256
6
ByLayer
370
13
48
1
60
0
100
AcDbMText
10
38.582105
20
19.984119
30
0
210
0
220
0
230
1
1
\W0.7581;47,57
40
3.5
41
0
44
1.084337
50
0
71
7
72
5
7
iso_b_vert
0
LINE
5
F0
100
AcDbEntity
8
SK2
62
256
6
ByLayer
370
13
48
1
60
0
100
AcDbLine
10
19.43
20
9.0875
30
0
11
19.43
21
21.109119
31
0
39
0
210
0
220
0
230
1
0
LINE
5
F1
100
AcDbEntity
8
SK2
62
256
6
ByLayer
370
13
48
1
60
0
100
AcDbLine
10
67
20
1.5875
30
0
11
67
21
21.109119
31
0
39
0
210
0
220
0
230
1
0
LINE
5
F2
100
AcDbEntity
8
SK2
62
256
6
ByLayer
370
13
48
1
60
0
100
AcDbLine
10
19.43
20
19.109119
30
0
11
67
21
19.109119
31
0
39
0
210
0
220
0
230
1
0
SOLID
5
F3
100
AcDbEntity
8
SK2
62
256
6
ByLayer
370
13
48
1
60
0
100
AcDbTrace
10
19.43
20
19.109119
30
0
11
22.929998
21
19.569903
31
0
12
22.930002
22
18.648335
32
0
13
19.43
23
19.109119
33
0
39
0
210
0
220
0
230
1
0
SOLID
5
F4
100
AcDbEntity
8
SK2
62
256
6
ByLayer
370
13
48
1
60
0
100
AcDbTrace
10
67
20
19.109119
30
0
11
63.500002
21
18.648335
31
0
12
63.499998
22
19.569903
32
0
13
67
23
19.109119
33
0
39
0
210
0
220
0
230
1
0
ENDBLK
5
F6
100
AcDbEntity
8
0
100
AcDbBlockEnd
0
BLOCK
5
FF
100
AcDbEntity
8
0
100
AcDbBlockBegin
2
DimnDraft3D4
70
0
10
0
20
0
30
0
3
DimnDraft3D4
0
MTEXT
5
F9
100
AcDbEntity
8
SK2
62
256
6
ByLayer
370
13
48
1
60
0
100
AcDbMText
10
73.840636
20
-19.427503
30
0
210
0
220
0
230
1
1
\W0.7150;2,57
40
3.5
41
0
44
1.084337
50
0
71
7
72
5
7
iso_b_vert
0
LINE
5
FA
100
AcDbEntity
8
SK2
62
256
6
ByLayer
370
13
48
1
60
0
100
AcDbLine
10
67
20
-1.5875
30
0
11
67
21
-22.302503
31
0
39
0
210
0
220
0
230
1
0
LINE
5
FB
100
AcDbEntity
8
SK2
62
256
6
ByLayer
370
13
48
1
60
0
100
AcDbLine
10
64.43
20
-9.0875
30
0
11
64.43
21
-22.302503
31
0
39
0
210
0
220
0
230
1
0
LINE
5
FC
100
AcDbEntity
8
SK2
62
256
6
ByLayer
370
13
48
1
60
0
100
AcDbLine
10
55.68
20
-20.302503
30
0
11
80.997215
21
-20.302503
31
0
39
0
210
0
220
0
230
1
0
SOLID
5
FD
100
AcDbEntity
8
SK2
62
256
6
ByLayer
370
13
48
1
60
0
100
AcDbTrace
10
67
20
-20.302503
30
0
11
70.499998
21
-19.841719
31
0
12
70.500002
22
-20.763287
32
0
13
67
23
-20.302503
33
0
39
0
210
0
220
0
230
1
0
SOLID
5
FE
100
AcDbEntity
8
SK2
62
256
6
ByLayer
370
13
48
1
60
0
100
AcDbTrace
10
64.43
20
-20.302503
30
0
11
60.930002
21
-20.763287
31
0
12
60.929998
22
-19.841719
32
0
13
64.43
23
-20.302503
33
0
39
0
210
0
220
0
230
1
0
ENDBLK
5
100
100
AcDbEntity
8
0
100
AcDbBlockEnd
0
BLOCK
5
109
100
AcDbEntity
8
0
100
AcDbBlockBegin
2
DimnDraft3D5
70
0
10
0
20
0
30
0
3
DimnDraft3D5
0
MTEXT
5
103
100
AcDbEntity
8
SK2
62
256
6
ByLayer
370
13
48
1
60
0
100
AcDbMText
10
0.124887
20
-25.468428
30
0
210
0
220
0
230
1
1
\W0.6654;112,43
40
3.5
41
0
44
1.084337
50
0
71
7
72
5
7
iso_b_vert
0
LINE
5
104
100
AcDbEntity
8
SK2
62
256
6
ByLayer
370
13
48
1
60
0
100
AcDbLine
10
-48
20
-9.5875
30
0
11
-48
21
-28.343428
31
0
39
0
210
0
220
0
230
1
0
LINE
5
105
100
AcDbEntity
8
SK2
62
256
6
ByLayer
370
13
48
1
60
0
100
AcDbLine
10
64.43
20
-9.0875
30
0
11
64.43
21
-28.343428
31
0
39
0
210
0
220
0
230
1
0
LINE
5
106
100
AcDbEntity
8
SK2
62
256
6
ByLayer
370
13
48
1
60
0
100
AcDbLine
10
-48
20
-26.343428
30
0
11
64.43
21
-26.343428
31
0
39
0
210
0
220
0
230
1
0
SOLID
5
107
100
AcDbEntity
8
SK2
62
256
6
ByLayer
370
13
48
1
60
0
100
AcDbTrace
10
-48
20
-26.343428
30
0
11
-44.500002
21
-25.882645
31
0
12
-44.499998
22
-26.804212
32
0
13
-48
23
-26.343428
33
0
39
0
210
0
220
0
230
1
0
SOLID
5
108
100
AcDbEntity
8
SK2
62
256
6
ByLayer
370
13
48
1
60
0
100
AcDbTrace
10
64.43
20
-26.343428
30
0
11
60.930002
21
-26.804212
31
0
12
60.929998
22
-25.882645
32
0
13
64.43
23
-26.343428
33
0
39
0
210
0
220
0
230
1
0
ENDBLK
5
10A
100
AcDbEntity
8
0
100
AcDbBlockEnd
0
BLOCK
5
114
100
AcDbEntity
8
0
100
AcDbBlockBegin
2
DimnDraft3D6
70
0
10
0
20
0
30
0
3
DimnDraft3D6
0
MTEXT
5
10D
100
AcDbEntity
8
SK2
62
256
6
ByLayer
370
13
48
1
60
0
100
AcDbMText
10
-58.375163
20
27.34918
30
0
210
0
220
0
230
1
1
\W0.6930;16,000
40
3.5
41
0
44
1.084337
50
90
71
7
72
5
7
iso_b_vert
0
MTEXT
5
10E
100
AcDbEntity
8
SK2
62
256
6
ByLayer
370
13
48
1
60
0
100
AcDbMText
10
-58.375163
20
22.126524
30
0
210
0
220
0
230
1
1
%%c
40
3.5
41
0
44
1.084337
50
90
71
7
72
5
7
iso_b_vert
0
LINE
5
10F
100
AcDbEntity
8
SK2
62
256
6
ByLayer
370
13
48
1
60
0
100
AcDbLine
10
-49.5875
20
-8
30
0
11
-58.625163
21
-8
31
0
39
0
210
0
220
0
230
1
0
LINE
5
110
100
AcDbEntity
8
SK2
62
256
6
ByLayer
370
13
48
1
60
0
100
AcDbLine
10
-49.5875
20
8
30
0
11
-58.625163
21
8
31
0
39
0
210
0
220
0
230
1
0
LINE
5
111
100
AcDbEntity
8
SK2
62
256
6
ByLayer
370
13
48
1
60
0
100
AcDbLine
10
-56.625163
20
-8
30
0
11
-56.625163
21
38.862338
31
0
39
0
210
0
220
0
230
1
0
SOLID
5
112
100
AcDbEntity
8
SK2
62
256
6
ByLayer
370
13
48
1
60
0
100
AcDbTrace
10
-56.625163
20
-8
30
0
11
-57.085946
21
-4.500002
31
0
12
-56.164379
22
-4.499998
32
0
13
-56.625163
23
-8
33
0
39
0
210
0
220
0
230
1
0
SOLID
5
113
100
AcDbEntity
8
SK2
62
256
6
ByLayer
370
13
48
1
60
0
100
AcDbTrace
10
-56.625163
20
8
30
0
11
-56.164379
21
4.500002
31
0
12
-57.085946
22
4.499998
32
0
13
-56.625163
23
8
33
0
39
0
210
0
220
0
230
1
0
ENDBLK
5
115
100
AcDbEntity
8
0
100
AcDbBlockEnd
0
BLOCK
5
11F
100
AcDbEntity
8
0
100
AcDbBlockBegin
2
DimnDraft3D7
70
0
10
0
20
0
30
0
3
DimnDraft3D7
0
MTEXT
5
118
100
AcDbEntity
8
2
62
256
6
ByLayer
370
13
48
1
60
0
100
AcDbMText
10
77.333343
20
25.442266
30
0
210
0
220
0
230
1
1
\W0.6930;15,000
40
3.5
41
0
44
1.084337
50
90
71
7
72
5
7
iso_b_vert
0
MTEXT
5
119
100
AcDbEntity
8
2
62
256
6
ByLayer
370
13
48
1
60
0
100
AcDbMText
10
77.333343
20
20.21961
30
0
210
0
220
0
230
1
1
%%c
40
3.5
41
0
44
1.084337
50
90
71
7
72
5
7
iso_b_vert
0
LINE
5
11A
100
AcDbEntity
8
2
62
256
6
ByLayer
370
13
48
1
60
0
100
AcDbLine
10
66.0175
20
-7.5
30
0
11
81.083343
21
-7.5
31
0
39
0
210
0
220
0
230
1
0
LINE
5
11B
100
AcDbEntity
8
2
62
256
6
ByLayer
370
13
48
1
60
0
100
AcDbLine
10
66.0175
20
7.5
30
0
11
81.083343
21
7.5
31
0
39
0
210
0
220
0
230
1
0
LINE
5
11C
100
AcDbEntity
8
2
62
256
6
ByLayer
370
13
48
1
60
0
100
AcDbLine
10
79.083343
20
-7.5
30
0
11
79.083343
21
36.955424
31
0
39
0
210
0
220
0
230
1
0
SOLID
5
11D
100
AcDbEntity
8
2
62
256
6
ByLayer
370
13
48
1
60
0
100
AcDbTrace
10
79.083343
20
-7.5
30
0
11
78.622559
21
-4.000002
31
0
12
79.544126
22
-3.999998
32
0
13
79.083343
23
-7.5
33
0
39
0
210
0
220
0
230
1
0
SOLID
5
11E
100
AcDbEntity
8
2
62
256
6
ByLayer
370
13
48
1
60
0
100
AcDbTrace
10
79.083343
20
7.5
30
0
11
79.544126
21
4.000002
31
0
12
78.622559
22
3.999998
32
0
13
79.083343
23
7.5
33
0
39
0
210
0
220
0
230
1
0
ENDBLK
5
120
100
AcDbEntity
8
0
100
AcDbBlockEnd
0
ENDSEC
0
SECTION
2
ENTITIES
0
ARC
5
98
100
AcDbEntity
8
1
62
256
6
ByLayer
370
18
48
1
60
0
100
AcDbCircle
39
0
10
0
20
7.2
30
0
40
0.799999999999999
210
0
220
0
230
1
100
AcDbArc
50
41.588197
51
90
0
ARC
5
99
100
AcDbEntity
8
1
62
256
6
ByLayer
370
18
48
1
60
0
100
AcDbCircle
39
0
10
-1.196696
20
-8.262035
30
0
40
0.799999999999998
210
0
220
0
230
-1
100
AcDbArc
50
41.588197
51
90.034377
0
ARC
5
9A
100
AcDbEntity
8
1
62
256
6
ByLayer
370
18
48
1
60
0
100
AcDbCircle
39
0
10
0
20
-7.2
30
0
40
0.799999999999999
210
0
220
0
230
1
100
AcDbArc
50
270
51
318.411803
0
ARC
5
9B
100
AcDbEntity
8
1
62
256
6
ByLayer
370
18
48
1
60
0
100
AcDbCircle
39
0
10
-1.196696
20
8.262035
30
0
40
0.799999999999998
210
0
220
0
230
-1
100
AcDbArc
50
269.965623
51
318.411803
0
ELLIPSE
5
9C
100
AcDbEntity
8
1
62
256
6
ByLayer
370
18
48
1
60
0
100
AcDbEllipse
10
67.014011
20
-0.069797
30
0
11
0.135658546022865
21
0.401200806202279
31
0
210
0
220
0
230
-1
40
0.065863
41
-2.32292776272857
42
-1.59593834591702
0
ELLIPSE
5
9D
100
AcDbEntity
8
1
62
256
6
ByLayer
370
18
48
1
60
0
100
AcDbEllipse
10
65.636878
20
3.476927
30
0
11
1.15481763047648
21
-3.14857150974232
31
0
210
0
220
0
230
-1
40
0.082138
41
-1.5927949881534
42
-0.755280950346041
0
ELLIPSE
5
9E
100
AcDbEntity
8
1
62
256
6
ByLayer
370
13
48
1
60
0
100
AcDbEllipse
10
4.177932
20
-1.919631
30
0
11
-0.0352769257368466
21
-0.093571034570304
31
0
210
0
220
0
230
1
40
0.532012
41
-1.61841919699308
42
-0.290165612118123
0
ELLIPSE
5
9F
100
AcDbEntity
8
1
62
256
6
ByLayer
370
18
48
1
60
0
100
AcDbEllipse
10
67.014011
20
0.069797
30
0
11
0.135658546038606
21
-0.401200806242905
31
0
210
0
220
0
230
-1
40
0.065863
41
1.5959383459869
42
2.32292776273092
0
ELLIPSE
5
A0
100
AcDbEntity
8
1
62
256
6
ByLayer
370
18
48
1
60
0
100
AcDbEllipse
10
67.000635
20
0.001638
30
0
11
2.75012216303309
21
7.49811575044566
31
0
210
0
220
0
230
-1
40
0.082138
41
2.90528862809466
42
2.99489361335133
0
ELLIPSE
5
A1
100
AcDbEntity
8
1
62
256
6
ByLayer
370
13
48
1
60
0
100
AcDbEllipse
10
66.120307
20
3.476927
30
0
11
4.93889863290389
21
-2.20181019790997
31
0
210
0
220
0
230
-1
40
0.456108
41
1.58221398341845
42
1.92617233720467
0
ELLIPSE
5
A2
100
AcDbEntity
8
1
62
256
6
ByLayer
370
18
48
1
60
0
100
AcDbEllipse
10
67.000635
20
-0.001638
30
0
11
2.75012218187441
21
-7.49811580425081
31
0
210
0
220
0
230
-1
40
0.082138
41
-2.99489361387835
42
-2.90528862894672
0
ELLIPSE
5
A3
100
AcDbEntity
8
1
62
256
6
ByLayer
370
13
48
1
60
0
100
AcDbEllipse
10
65.059719
20
1.037409
30
0
11
0.133113781883896
21
0.268850741253519
31
0
210
0
220
0
230
1
40
0.40558
41
0.8844859171309
42
2.28074931872636
0
ELLIPSE
5
A4
100
AcDbEntity
8
1
62
256
6
ByLayer
370
18
48
1
60
0
100
AcDbEllipse
10
65.636878
20
-3.476927
30
0
11
1.15481763047541
21
3.14857150973977
31
0
210
0
220
0
230
-1
40
0.082138
41
0.755280950345767
42
1.5927949881538
0
ELLIPSE
5
A5
100
AcDbEntity
8
1
62
256
6
ByLayer
370
18
48
1
60
0
100
AcDbEllipse
10
66.859643
20
0.146228
30
0
11
0.0868803724572913
21
0.290676908817174
31
0
210
0
220
0
230
-1
40
0.467765
41
1.69126318896993
42
2.36053717388517
0
ELLIPSE
5
A6
100
AcDbEntity
8
1
62
256
6
ByLayer
370
13
48
1
60
0
100
AcDbEllipse
10
65.950848
20
3.342635
30
0
11
4.89150501813256
21
-2.51467051072191
31
0
210
0
220
0
230
-1
40
0.482873
41
1.53949524921364
42
1.88043673799494
0
ELLIPSE
5
A7
100
AcDbEntity
8
1
62
256
6
ByLayer
370
13
48
1
60
0
100
AcDbEllipse
10
4.250128
20
-1.952554
30
0
11
0.0465832044322094
21
0.0884873158414639
31
0
210
0
220
0
230
1
40
0.128637
41
1.32934970396209
42
2.88982903829801
0
POINT
5
6C
100
AcDbEntity
8
81
62
256
6
ByLayer
370
18
48
1
60
0
100
AcDbPoint
10
67
20
0
30
0
39
0
210
0
220
0
230
1
50
360
0
POINT
5
6E
100
AcDbEntity
8
80
62
256
6
ByLayer
370
18
48
1
60
0
100
AcDbPoint
10
0
20
0
30
0
39
0
210
0
220
0
230
1
50
360
0
POINT
5
70
100
AcDbEntity
8
SK2
62
256
6
ByLayer
370
18
48
1
60
1
100
AcDbPoint
10
-48
20
-8
30
0
39
0
210
0
220
0
230
1
50
360
0
POINT
5
72
100
AcDbEntity
8
SK2
62
256
6
ByLayer
370
18
48
1
60
1
100
AcDbPoint
10
-48
20
8
30
0
39
0
210
0
220
0
230
1
50
360
0
POINT
5
73
100
AcDbEntity
8
2
62
256
6
ByLayer
370
18
48
1
60
1
100
AcDbPoint
10
64.43
20
-7.5
30
0
39
0
210
0
220
0
230
1
50
360
0
POINT
5
75
100
AcDbEntity
8
2
62
256
6
ByLayer
370
18
48
1
60
1
100
AcDbPoint
10
64.43
20
7.5
30
0
39
0
210
0
220
0
230
1
50
360
0
SPLINE
5
A8
100
AcDbEntity
8
1
62
256
6
ByLayer
370
18
48
1
60
0
100
AcDbSpline
70
4
71
2
72
6
73
3
40
0
40
0
40
0
40
1
40
1
40
1
41
1
10
42.0312493217363
20
-0.0032002328247529
30
0
41
1
10
42.0312322382649
20
-0.0031899877789101
30
0
41
1
10
42.0312151546614
20
-0.0031794687808713
30
0
0
SPLINE
5
A9
100
AcDbEntity
8
1
62
256
6
ByLayer
370
18
48
1
60
0
100
AcDbSpline
70
4
71
3
72
10
73
6
40
0
40
0
40
0
40
0
40
0.192232446761705
40
0.515962590574513
40
1
40
1
40
1
40
1
41
1
10
43.8415065498732
20
-1.6326056570972
30
0
41
1
10
43.841846819762
20
-1.63283174896586
30
0
41
1
10
43.852456219066
20
-1.63842569300283
30
0
41
1
10
43.9470706027762
20
-1.68864534786491
30
0
41
1
10
44.0332120996618
20
-1.73602575447748
30
0
41
1
10
44.0969416038469
20
-1.77128020286745
30
0
0
SPLINE
5
AA
100
AcDbEntity
8
1
62
256
6
ByLayer
370
18
48
1
60
0
100
AcDbSpline
70
4
71
2
72
6
73
3
40
0
40
0
40
0
40
1
40
1
40
1
41
1
10
63.0371007067093
20
-7.17437837623012
30
0
41
1
10
63.6995955028185
20
-7.17295461447881
30
0
41
1
10
64.3601933490035
20
-7.17598744221647
30
0
0
SPLINE
5
AB
100
AcDbEntity
8
1
62
256
6
ByLayer
370
18
48
1
60
0
100
AcDbSpline
70
4
71
3
72
37
73
33
40
0
40
0
40
0
40
0
40
0.0178064928407906
40
0.0345152545359619
40
0.0512230595921478
40
0.0812874940627549
40
0.109497462829489
40
0.13539691246888
40
0.163023831338808
40
0.188640653188833
40
0.236944834450236
40
0.289644661756806
40
0.32099097734166
40
0.357258150617723
40
0.394991782042886
40
0.432290540944038
40
0.469523916450129
40
0.506045295477516
40
0.534429452483437
40
0.574280826655748
40
0.622706425153545
40
0.669641188155936
40
0.712279226629836
40
0.757842792098233
40
0.811208907947394
40
0.846850696020711
40
0.87953958616818
40
0.906403357910948
40
0.935427800894742
40
0.961598723821439
40
0.993214666238654
40
1
40
1
40
1
40
1
41
1
10
21.3094250166836
20
-7.1492577347739
30
0
41
1
10
21.4119361691803
20
-7.1485777413053
30
0
41
1
10
21.6232643134356
20
-7.14710438023604
30
0
41
1
10
21.980638610271
20
-7.14158968093378
30
0
41
1
10
22.4486974432686
20
-7.14136094277595
30
0
41
1
10
22.9711783642873
20
-7.14858246070179
30
0
41
1
10
23.5705032937082
20
-7.15008279802049
30
0
41
1
10
24.156252386693
20
-7.15053318837735
30
0
41
1
10
24.7323600100246
20
-7.15049752908496
30
0
41
1
10
25.4679320259751
20
-7.15094716258932
30
0
41
1
10
26.3882837044645
20
-7.15260249133576
30
0
41
1
10
27.3494073233882
20
-7.15239693367519
30
0
41
1
10
28.2233517603201
20
-7.15196491190198
30
0
41
1
10
28.9885157968607
20
-7.15138086156503
30
0
41
1
10
29.7969519195907
20
-7.15382269998068
30
0
41
1
10
30.612392571019
20
-7.15451780935493
30
0
41
1
10
31.4190440431263
20
-7.15376223449735
30
0
41
1
10
32.160932313684
20
-7.1533302023407
30
0
41
1
10
32.9218289795802
20
-7.15305968974266
30
0
41
1
10
33.7692349738254
20
-7.15800549539799
30
0
41
1
10
34.75119672401
20
-7.15605051669712
30
0
41
1
10
35.7535409057457
20
-7.15482821973717
30
0
41
1
10
36.7350407460907
20
-7.15453804263143
30
0
41
1
10
37.7633395685971
20
-7.1574996581094
30
0
41
1
10
38.7408362677237
20
-7.15868334696904
30
0
41
1
10
39.6247078341415
20
-7.15878379108196
30
0
41
1
10
40.3163730765241
20
-7.15705276186537
30
0
41
1
10
40.9583833384815
20
-7.15580176257217
30
0
41
1
10
41.5560758474692
20
-7.15627491267185
30
0
41
1
10
42.1721545570631
20
-7.15674445221936
30
0
41
1
10
42.6424816892892
20
-7.15873835840276
30
0
41
1
10
42.9209912778034
20
-7.15909856180224
30
0
41
1
10
42.9702494778237
20
-7.15915723447256
30
0
0
SPLINE
5
AC
100
AcDbEntity
8
1
62
256
6
ByLayer
370
18
48
1
60
0
100
AcDbSpline
70
4
71
3
72
36
73
32
40
0
40
0
40
0
40
0
40
0.0639010730977249
40
0.115882431416927
40
0.156194446999839
40
0.195486679177132
40
0.237292549758533
40
0.28045860485399
40
0.305809601098531
40
0.334947340035353
40
0.371823970850362
40
0.413867864676363
40
0.450308617800606
40
0.484509771671408
40
0.520357323873345
40
0.541706985992184
40
0.563883020832876
40
0.595240018442239
40
0.629125139907483
40
0.660689730403476
40
0.689954448606693
40
0.71789587514768
40
0.760257876909655
40
0.800878897205851
40
0.841858342889878
40
0.871632202141559
40
0.904379641216032
40
0.935244055991809
40
0.962104149583894
40
0.987671778278187
40
1
40
1
40
1
40
1
41
1
10
43.3718498437357
20
7.15195318391378
30
0
41
1
10
42.9906513503207
20
7.15482223641411
30
0
41
1
10
42.2950772374704
20
7.15843169564388
30
0
41
1
10
41.3521495044077
20
7.15553738643683
30
0
41
1
10
40.5431496735452
20
7.15626606860303
30
0
41
1
10
39.8009926560524
20
7.15820436729311
30
0
41
1
10
39.0390866471284
20
7.15958200793759
30
0
41
1
10
38.3628099335287
20
7.15702982956361
30
0
41
1
10
37.7641645449203
20
7.15731670417154
30
0
41
1
10
37.2040257397088
20
7.15632796336709
30
0
41
1
10
36.5418407410017
20
7.15429654262775
30
0
41
1
10
35.8336275460966
20
7.15488126781656
30
0
41
1
10
35.1462643548374
20
7.1555792093298
30
0
41
1
10
34.4923250686131
20
7.15565508433804
30
0
41
1
10
33.9365809674735
20
7.15726523080212
30
0
41
1
10
33.4504066984804
20
7.15598861406559
30
0
41
1
10
32.9912632108231
20
7.15361085138164
30
0
41
1
10
32.4554049839544
20
7.15315937955737
30
0
41
1
10
31.8619427865133
20
7.15347512102213
30
0
41
1
10
31.2813190520188
20
7.15394044961289
30
0
41
1
10
30.7371306413256
20
7.15419902419328
30
0
41
1
10
30.1267519223549
20
7.15469192955433
30
0
41
1
10
29.4467504442875
20
7.15211199584328
30
0
41
1
10
28.6868580664371
20
7.15165057875001
30
0
41
1
10
28.0042295938006
20
7.15203536534554
30
0
41
1
10
27.3697001241372
20
7.15234311496857
30
0
41
1
10
26.7972882103192
20
7.15242527304119
30
0
41
1
10
26.2427085207792
20
7.15222574113369
30
0
41
1
10
25.7320948808385
20
7.1511985896021
30
0
41
1
10
25.3351297358747
20
7.15095024562919
30
0
41
1
10
25.1028528903098
20
7.15088749964264
30
0
41
1
10
25.0272850126914
20
7.15086900827896
30
0
0
SPLINE
5
AD
100
AcDbEntity
8
1
62
256
6
ByLayer
370
18
48
1
60
0
100
AcDbSpline
70
4
71
3
72
16
73
12
40
0
40
0
40
0
40
0
40
0.250000000000024
40
0.250000000000024
40
0.375000000000036
40
0.375000000000036
40
0.500000000000047
40
0.500000000000047
40
0.750000000000024
40
0.750000000000024
40
1
40
1
40
1
40
1
41
1
10
63.3038074027259
20
1.85924781661143
30
0
41
1
10
63.2945580583209
20
1.88734028021742
30
0
41
1
10
63.2888227270258
20
1.91639512551302
30
0
41
1
10
63.2885723631685
20
1.96150869991268
30
0
41
1
10
63.2899147362047
20
1.97645586012666
30
0
41
1
10
63.2961821823916
20
2.00610421747524
30
0
41
1
10
63.3010277798658
20
2.02087637212585
30
0
41
1
10
63.3221340064485
20
2.06168690904806
30
0
41
1
10
63.3454688780633
20
2.08463573613489
30
0
41
1
10
63.3991943171062
20
2.11611423798351
30
0
41
1
10
63.4295047153278
20
2.12565314473395
30
0
41
1
10
63.4603392710235
20
2.13111614789827
30
0
0
SPLINE
5
AE
100
AcDbEntity
8
1
62
256
6
ByLayer
370
18
48
1
60
0
100
AcDbSpline
70
4
71
3
72
38
73
34
40
0
40
0
40
0
40
0
40
0.249999999999999
40
0.249999999999999
40
0.374999999999999
40
0.374999999999999
40
0.437499999999997
40
0.437499999999997
40
0.499999999999995
40
0.499999999999995
40
0.624999999999991
40
0.624999999999991
40
0.749999999999987
40
0.749999999999987
40
0.781249999999987
40
0.781249999999987
40
0.812499999999987
40
0.812499999999987
40
0.843749999999987
40
0.843749999999987
40
0.859374999999988
40
0.859374999999988
40
0.874999999999989
40
0.874999999999989
40
0.906249999999992
40
0.906249999999992
40
0.937499999999995
40
0.937499999999995
40
0.953124999999996
40
0.953124999999996
40
0.968749999999997
40
0.968749999999997
40
1
40
1
40
1
40
1
41
1
10
56.6041831174773
20
3.56695139206721
30
0
41
1
10
57.2074145499631
20
3.08611068844903
30
0
41
1
10
57.8239274453768
20
2.64946262539709
30
0
41
1
10
58.7724334496896
20
2.07347172001525
30
0
41
1
10
59.0925470088806
20
1.89460095269772
30
0
41
1
10
59.5793610077416
20
1.6484008666414
30
0
41
1
10
59.7427359938637
20
1.57000645860043
30
0
41
1
10
60.071902298139
20
1.42125772767417
30
0
41
1
10
60.237035475889
20
1.35119747527952
30
0
41
1
10
60.7308935753744
20
1.15606925237125
30
0
41
1
10
61.0593663672966
20
1.04534581705602
30
0
41
1
10
61.7145409115646
20
0.868668645116202
30
0
41
1
10
62.0422235475498
20
0.802679816278015
30
0
41
1
10
62.4438997912742
20
0.755290999632479
30
0
41
1
10
62.5233649168831
20
0.750278990904462
30
0
41
1
10
62.6781025214666
20
0.750738232017227
30
0
41
1
10
62.7533977958882
20
0.756330246653079
30
0
41
1
10
62.8987267926189
20
0.781121286615587
30
0
41
1
10
62.9693026917702
20
0.800316292647437
30
0
41
1
10
63.0669476684489
20
0.840951748303354
30
0
41
1
10
63.0981901179227
20
0.856527634555505
30
0
41
1
10
63.1574772719095
20
0.892652138131496
30
0
41
1
10
63.1856850691622
20
0.913317272220013
30
0
41
1
10
63.2631284998613
20
0.983929766763907
30
0
41
1
10
63.3042096823559
20
1.04116813173337
30
0
41
1
10
63.3636955278542
20
1.17749495868748
30
0
41
1
10
63.380600773678
20
1.25343156796555
30
0
41
1
10
63.3890030402585
20
1.37659531080004
30
0
41
1
10
63.3889442943966
20
1.41909977540706
30
0
41
1
10
63.3837997290093
20
1.50464868578746
30
0
41
1
10
63.3787140125047
20
1.54799571832322
30
0
41
1
10
63.3568501330585
20
1.67954187401929
30
0
41
1
10
63.3332367560287
20
1.76986385593224
30
0
41
1
10
63.3038074027259
20
1.85924781661143
30
0
0
SPLINE
5
AF
100
AcDbEntity
8
1
62
256
6
ByLayer
370
18
48
1
60
0
100
AcDbSpline
70
4
71
3
72
18
73
14
40
0
40
0
40
0
40
0
40
0.231789991031889
40
0.231789991031889
40
0.347684986547836
40
0.347684986547836
40
0.463579982063782
40
0.463579982063782
40
0.695369973095678
40
0.695369973095678
40
0.927159964127574
40
0.927159964127574
40
1
40
1
40
1
40
1
41
1
10
21.1774175431632
20
7.45065558207625
30
0
41
1
10
20.2433360208249
20
7.49193821425027
30
0
41
1
10
19.2995747611298
20
7.47518699680413
30
0
41
1
10
17.8607441698774
20
7.38457950322439
30
0
41
1
10
17.3783236848947
20
7.34353117590453
30
0
41
1
10
16.4103275820751
20
7.24490685905874
30
0
41
1
10
15.9241468112485
20
7.18729698296065
30
0
41
1
10
14.4568285829141
20
6.99771790936308
30
0
41
1
10
13.4668015160222
20
6.84897079240565
30
0
41
1
10
11.4531153419161
20
6.55359931925827
30
0
41
1
10
10.4294705951703
20
6.4072796234959
30
0
41
1
10
9.05769388276951
20
6.2454536654711
30
0
41
1
10
8.72771131435624
20
6.20902673940063
30
0
41
1
10
8.39566828174458
20
6.17543551394979
30
0
0
SPLINE
5
B0
100
AcDbEntity
8
1
62
256
6
ByLayer
370
18
48
1
60
0
100
AcDbSpline
70
4
71
3
72
10
73
6
40
0
40
0
40
0
40
0
40
0.343804523433465
40
0.343804523433465
40
1
40
1
40
1
40
1
41
1
10
3.1458406285453
20
7.46320124782366
30
0
41
1
10
3.23772991044873
20
7.4629867211784
30
0
41
1
10
3.33208097950521
20
7.46063567666243
30
0
41
1
10
3.61227308837684
20
7.44848962255293
30
0
41
1
10
3.80342607873413
20
7.43382097987367
30
0
41
1
10
3.9999995628628
20
7.41364477956267
30
0
0
SPLINE
5
B1
100
AcDbEntity
8
1
62
256
6
ByLayer
370
18
48
1
60
0
100
AcDbSpline
70
4
71
3
72
76
73
72
40
0
40
0
40
0
40
0
40
0.0181125595554419
40
0.0181125595554419
40
0.0531799681427478
40
0.0531799681427478
40
0.0882473767300539
40
0.0882473767300539
40
0.12331478531736
40
0.12331478531736
40
0.140848489611012
40
0.140848489611012
40
0.158382193904665
40
0.158382193904665
40
0.19344960249197
40
0.19344960249197
40
0.228517011079275
40
0.228517011079275
40
0.26358441966658
40
0.26358441966658
40
0.298651828253885
40
0.298651828253885
40
0.333719236841191
40
0.333719236841191
40
0.351252941134843
40
0.351252941134843
40
0.368786645428496
40
0.368786645428496
40
0.403854054015801
40
0.403854054015801
40
0.438921462603106
40
0.438921462603106
40
0.473988871190411
40
0.473988871190411
40
0.491522575484064
40
0.491522575484064
40
0.509056279777717
40
0.509056279777717
40
0.544123688365022
40
0.544123688365022
40
0.561657392658675
40
0.561657392658675
40
0.579191096952328
40
0.579191096952328
40
0.614258505539634
40
0.614258505539634
40
0.64932591412694
40
0.64932591412694
40
0.666859618420593
40
0.666859618420593
40
0.684393322714246
40
0.684393322714246
40
0.719460731301552
40
0.719460731301552
40
0.754528139888858
40
0.754528139888858
40
0.789595548476164
40
0.789595548476164
40
0.807129252769817
40
0.807129252769817
40
0.824662957063469
40
0.824662957063469
40
0.859730365650776
40
0.859730365650776
40
0.894797774238081
40
0.894797774238081
40
0.929865182825387
40
0.929865182825387
40
0.964932591412694
40
0.964932591412694
40
1
40
1
40
1
40
1
41
1
10
51.8732718620793
20
-5.51309813901571
30
0
41
1
10
51.6394464219825
20
-5.5938821540841
30
0
41
1
10
51.4055215993817
20
-5.67218648045241
30
0
41
1
10
50.718462235953
20
-5.89461629998215
30
0
41
1
10
50.2647773328497
20
-6.03123801526763
30
0
41
1
10
49.3589536093193
20
-6.27954766004777
30
0
41
1
10
48.9062947050543
20
-6.3935105472163
30
0
41
1
10
48.0021323475891
20
-6.60022101220414
30
0
41
1
10
47.5500792544206
20
-6.69193997641923
30
0
41
1
10
46.8708749468841
20
-6.811659253736
30
0
41
1
10
46.6443129436903
20
-6.84844976565623
30
0
41
1
10
46.1908287725258
20
-6.9150306579734
30
0
41
1
10
45.9638684781469
20
-6.94513318283123
30
0
41
1
10
45.2838847835114
20
-7.0276750456479
30
0
41
1
10
44.8310215993931
20
-7.07141051123324
30
0
41
1
10
43.9256021469976
20
-7.1343711219981
30
0
41
1
10
43.4734007695488
20
-7.15374836377489
30
0
41
1
10
42.568574763179
20
-7.16407832992431
30
0
41
1
10
42.1153917563878
20
-7.15421194161905
30
0
41
1
10
41.207511892359
20
-7.11444945920621
30
0
41
1
10
40.7545324256912
20
-7.08330040033565
30
0
41
1
10
39.8519689701378
20
-6.99691799288397
30
0
41
1
10
39.401747897528
20
-6.94206577109662
30
0
41
1
10
38.7279800996727
20
-6.83923737185592
30
0
41
1
10
38.5036947564211
20
-6.80157029159292
30
0
41
1
10
38.0554603251935
20
-6.72148839734413
30
0
41
1
10
37.8314534069988
20
-6.67876634674946
30
0
41
1
10
37.1594267016032
20
-6.54149862916537
30
0
41
1
10
36.7113584863343
20
-6.43791501429243
30
0
41
1
10
35.8152366414969
20
-6.21179427597977
30
0
41
1
10
35.3674157159591
20
-6.08813256000028
30
0
41
1
10
34.469500747077
20
-5.82013621588209
30
0
41
1
10
34.0196057236712
20
-5.67626214220553
30
0
41
1
10
33.3430252725808
20
-5.44149189792114
30
0
41
1
10
33.1172131274105
20
-5.36012786587943
30
0
41
1
10
32.6647879858532
20
-5.19402394012511
30
0
41
1
10
32.4381499759861
20
-5.10902800457399
30
0
41
1
10
31.7570277331159
20
-4.84743098600302
30
0
41
1
10
31.3036315565884
20
-4.66526643903921
30
0
41
1
10
30.6249190937812
20
-4.37903217212792
30
0
41
1
10
30.3988055991846
20
-4.28166199927966
30
0
41
1
10
29.9464618450627
20
-4.08300975532646
30
0
41
1
10
29.7202515758411
20
-3.98140086458756
30
0
41
1
10
29.0413422147441
20
-3.67242001829681
30
0
41
1
10
28.5885793162669
20
-3.46061169060855
30
0
41
1
10
27.6824427224374
20
-3.02401800202531
30
0
41
1
10
27.2281231823772
20
-2.79998928807319
30
0
41
1
10
26.5482886785184
20
-2.45798843112797
30
0
41
1
10
26.3218318112756
20
-2.34289779008947
30
0
41
1
10
25.8693279877446
20
-2.11010752418502
30
0
41
1
10
25.6432861382037
20
-1.99254437072227
30
0
41
1
10
24.9649276698426
20
-1.63833329411781
30
0
41
1
10
24.5124529034795
20
-1.39980307766777
30
0
41
1
10
23.6065693550611
20
-0.91768222370942
30
0
41
1
10
23.1532095772928
20
-0.673497286960298
30
0
41
1
10
22.2461122513543
20
-0.184311456529571
30
0
41
1
10
21.7931186604229
20
0.0599992220299725
30
0
41
1
10
21.1143396982911
20
0.425769951338168
30
0
41
1
10
20.888281215504
20
0.547725006544823
30
0
41
1
10
20.4362504735359
20
0.791040962656098
30
0
41
1
10
20.2101949085468
20
0.912239150897221
30
0
41
1
10
19.5316363719812
20
1.27436033030168
30
0
41
1
10
19.0787695391263
20
1.5137448625693
30
0
41
1
10
18.1722877301515
20
1.98846865768195
30
0
41
1
10
17.718569190216
20
2.22401163075108
30
0
41
1
10
16.8129725634616
20
2.68258172234945
30
0
41
1
10
16.3605417708859
20
2.90619307443387
30
0
41
1
10
15.4567336892641
20
3.34481376193074
30
0
41
1
10
15.0049525455938
20
3.55852150626237
30
0
41
1
10
14.1000675545682
20
3.97299210574337
30
0
41
1
10
13.6469765058225
20
4.17394567407757
30
0
41
1
10
13.1932836568363
20
4.36808441092518
30
0
0
SPLINE
5
B2
100
AcDbEntity
8
1
62
256
6
ByLayer
370
13
48
1
60
0
100
AcDbSpline
70
4
71
3
72
8
73
4
40
0
40
0
40
0
40
0
40
1
40
1
40
1
40
1
41
1
10
4.12725510530814
20
-2.05966022732036
30
0
41
1
10
4.12812359215496
20
-2.04108901160552
30
0
41
1
10
4.12900083265166
20
-2.02250940151671
30
0
41
1
10
4.12988686927227
20
-2.00392102318568
30
0
0
SPLINE
5
B3
100
AcDbEntity
8
1
62
256
6
ByLayer
370
18
48
1
60
0
100
AcDbSpline
70
4
71
3
72
18
73
14
40
0
40
0
40
0
40
0
40
0.125
40
0.125
40
0.25
40
0.25
40
0.375
40
0.375
40
0.5
40
0.5
40
0.75
40
0.75
40
1
40
1
40
1
40
1
41
1
10
4.25053697130491
20
-7.10411195236424
30
0
41
1
10
4.23651041784018
20
-7.10539634536121
30
0
41
1
10
4.22199076272804
20
-7.10771326867535
30
0
41
1
10
4.19158289415751
20
-7.11515740983251
30
0
41
1
10
4.17552377406261
20
-7.12036628007758
30
0
41
1
10
4.14313264626773
20
-7.13436829341012
30
0
41
1
10
4.12640292109077
20
-7.14339009598223
30
0
41
1
10
4.09486305108621
20
-7.16494027397596
30
0
41
1
10
4.07990791856693
20
-7.17760003921467
30
0
41
1
10
4.04135190332931
20
-7.21780851601469
30
0
41
1
10
4.02440571055308
20
-7.24674963466185
30
0
41
1
10
4.00406740451947
20
-7.29981511260311
30
0
41
1
10
3.99999956286467
20
-7.32496471108783
30
0
41
1
10
3.99999956286467
20
-7.34824184114115
30
0
0
SPLINE
5
B4
100
AcDbEntity
8
1
62
256
6
ByLayer
370
18
48
1
60
0
100
AcDbSpline
70
4
71
3
72
12
73
8
40
0
40
0
40
0
40
0
40
0.250000000000009
40
0.250000000000009
40
0.500000000000019
40
0.500000000000019
40
1
40
1
40
1
40
1
41
1
10
4.12725510530817
20
-2.05966022732039
30
0
41
1
10
4.10788204218332
20
-2.04916263630946
30
0
41
1
10
4.09037290215653
20
-2.03645208254355
30
0
41
1
10
4.05897519162554
20
-2.00671257733475
30
0
41
1
10
4.04524576664451
20
-1.98969391917029
30
0
41
1
10
4.01204542374265
20
-1.93491463877206
30
0
41
1
10
3.99999956286467
20
-1.8925142430306
30
0
41
1
10
3.99999956286467
20
-1.84942548133813
30
0
0
SPLINE
5
B5
100
AcDbEntity
8
1
62
256
6
ByLayer
370
18
48
1
60
0
100
AcDbSpline
70
4
71
3
72
14
73
10
40
0
40
0
40
0
40
0
40
0.415370700699518
40
0.415370700699518
40
0.830741401399036
40
0.830741401399036
40
0.934584076573914
40
0.934584076573914
40
1
40
1
40
1
40
1
41
1
10
4.20217810353205
20
-2.03675855986555
30
0
41
1
10
5.46749491042118
20
-2.70049175300045
30
0
41
1
10
6.71886894667026
20
-3.32956997636259
30
0
41
1
10
9.21828496054459
20
-4.48089578651502
30
0
41
1
10
10.4656085521485
20
-5.00414926970649
30
0
41
1
10
12.0370073163855
20
-5.56980309995191
30
0
41
1
10
12.3518697202482
20
-5.67853798986005
30
0
41
1
10
12.8663151501519
20
-5.84820241860959
30
0
41
1
10
13.0656696057343
20
-5.91199698465965
30
0
41
1
10
13.264961463715
20
-5.97375905204578
30
0
0
SPLINE
5
B6
100
AcDbEntity
8
1
62
256
6
ByLayer
370
13
48
1
60
0
100
AcDbSpline
70
4
71
3
72
20
73
16
40
0
40
0
40
0
40
0
40
0.0351220499544244
40
0.0351220499544244
40
0.224946557151162
40
0.224946557151162
40
0.604595571544637
40
0.604595571544637
40
0.794420078741373
40
0.794420078741373
40
0.889332332339742
40
0.889332332339742
40
0.984244585938112
40
0.984244585938112
40
1
40
1
40
1
40
1
41
1
10
13.2649616545771
20
-5.97375911119539
30
0
41
1
10
13.3820300102274
20
-6.01003948708856
30
0
41
1
10
13.4990767656201
20
-6.04561852039518
30
0
41
1
10
14.2478210005123
20
-6.26866989705852
30
0
41
1
10
14.8764158651999
20
-6.43522107215739
30
0
41
1
10
16.7564784979923
20
-6.86716268025825
30
0
41
1
10
18.0028064155547
20
-7.06479988214363
30
0
41
1
10
19.8779191597683
20
-7.21827073565782
30
0
41
1
10
20.5039963086431
20
-7.2456499671261
30
0
41
1
10
21.4468964629884
20
-7.24985718638732
30
0
41
1
10
21.7618013819035
20
-7.24510729429767
30
0
41
1
10
22.3932023349641
20
-7.22320847600693
30
0
41
1
10
22.7101657130276
20
-7.20600914003015
30
0
41
1
10
23.0782930036998
20
-7.17888658315511
30
0
41
1
10
23.1306798987367
20
-7.17485817282923
30
0
41
1
10
23.1830453837348
20
-7.17066334536173
30
0
0
SPLINE
5
B7
100
AcDbEntity
8
1
62
256
6
ByLayer
370
18
48
1
60
0
100
AcDbSpline
70
4
71
3
72
26
73
22
40
0
40
0
40
0
40
0
40
0.114554715633581
40
0.114554715633581
40
0.177800807374039
40
0.177800807374039
40
0.241046899114497
40
0.241046899114497
40
0.49403126607633
40
0.49403126607633
40
0.557277357816788
40
0.557277357816788
40
0.620523449557247
40
0.620523449557247
40
0.747015633038165
40
0.747015633038165
40
0.873507816519082
40
0.873507816519082
40
0.936753908259541
40
0.936753908259541
40
1
40
1
40
1
40
1
41
1
10
64.3591606697014
20
-7.17446111456246
30
0
41
1
10
64.2655912471234
20
-7.17173379627206
30
0
41
1
10
64.1761692486127
20
-7.15649525351895
30
0
41
1
10
64.0440946425298
20
-7.11257892316965
30
0
41
1
10
63.9984365516794
20
-7.09296755253519
30
0
41
1
10
63.9098718075683
20
-7.04544475496087
30
0
41
1
10
63.866834206582
20
-7.01741053609018
30
0
41
1
10
63.6614290672956
20
-6.85760790741801
30
0
41
1
10
63.5265789042412
20
-6.66756621713165
30
0
41
1
10
63.396702551565
20
-6.3483733601679
30
0
41
1
10
63.3726870978023
20
-6.28039893995788
30
0
41
1
10
63.3287340119559
20
-6.13584457365099
30
0
41
1
10
63.3087686063231
20
-6.05903362203568
30
0
41
1
10
63.2560805575562
20
-5.81914352220102
30
0
41
1
10
63.2301732640778
20
-5.64566281704256
30
0
41
1
10
63.1965274805908
20
-5.27198655327885
30
0
41
1
10
63.1887881090485
20
-5.07179229085378
30
0
41
1
10
63.1912062723746
20
-4.75087570061044
30
0
41
1
10
63.1943755212598
20
-4.64011476501244
30
0
41
1
10
63.2054589614547
20
-4.41320256664784
30
0
41
1
10
63.2133435750957
20
-4.29734092840866
30
0
41
1
10
63.2235332004871
20
-4.17911264580886
30
0
0
SPLINE
5
B8
100
AcDbEntity
8
1
62
256
6
ByLayer
370
18
48
1
60
0
100
AcDbSpline
70
4
71
3
72
16
73
12
40
0
40
0
40
0
40
0
40
0.0199933500387937
40
0.0199933500387937
40
0.239700890869943
40
0.239700890869943
40
0.679115972532243
40
0.679115972532243
40
0.898823513363395
40
0.898823513363395
40
1
40
1
40
1
40
1
41
1
10
21.343886189245
20
-7.14911651326406
30
0
41
1
10
21.2866726928282
20
-7.14887205317271
30
0
41
1
10
21.2294798262234
20
-7.14842646431373
30
0
41
1
10
20.5440264275191
20
-7.14067619751441
30
0
41
1
10
19.9181787692308
20
-7.10938068050828
30
0
41
1
10
18.0437581791999
20
-6.94542206856488
30
0
41
1
10
16.7977788169177
20
-6.74233232308768
30
0
41
1
10
14.9184321756615
20
-6.30491294835758
30
0
41
1
10
14.2901121357241
20
-6.13699032064139
30
0
41
1
10
13.3678254114614
20
-5.86080196642192
30
0
41
1
10
13.0761788413687
20
-5.76916363062969
30
0
41
1
10
12.7854901269059
20
-5.67375172759401
30
0
0
SPLINE
5
B9
100
AcDbEntity
8
1
62
256
6
ByLayer
370
13
48
1
60
0
100
AcDbSpline
70
4
71
3
72
14
73
10
40
0
40
0
40
0
40
0
40
0.0087003514943829
40
0.0087003514943829
40
0.118844756883896
40
0.118844756883896
40
0.559422378441949
40
0.559422378441949
40
1
40
1
40
1
40
1
41
1
10
12.7854910779575
20
-5.6737520397549
30
0
41
1
10
12.7605601810327
20
-5.66556904544058
30
0
41
1
10
12.7356363297182
20
-5.65735829418227
30
0
41
1
10
12.395294150822
20
-5.54482893888715
30
0
41
1
10
12.0806120094396
20
-5.43600626753789
30
0
41
1
10
10.5100505340533
20
-4.8704912663178
30
0
41
1
10
9.26323637322835
20
-4.34921504098864
30
0
41
1
10
6.76506639712244
20
-3.20539778300494
30
0
41
1
10
5.51442200546902
20
-2.58192092242709
30
0
41
1
10
4.25021417711847
20
-1.92557712175088
30
0
0
SPLINE
5
BA
100
AcDbEntity
8
1
62
256
6
ByLayer
370
18
48
1
60
0
100
AcDbSpline
70
4
71
3
72
20
73
16
40
0
40
0
40
0
40
0
40
0.125
40
0.125
40
0.25
40
0.25
40
0.374999999999999
40
0.374999999999999
40
0.499999999999999
40
0.499999999999999
40
0.75
40
0.75
40
0.875
40
0.875
40
1
40
1
40
1
40
1
41
1
10
4.2505369787543
20
7.10411195167995
30
0
41
1
10
4.57670169065213
20
7.07424547903003
30
0
41
1
10
4.91760664636237
20
7.02667143323984
30
0
41
1
10
5.61717805704677
20
6.9057552826865
30
0
41
1
10
5.97602710249009
20
6.83229584096529
30
0
41
1
10
6.70649759348012
20
6.66397391297667
30
0
41
1
10
7.07875224993177
20
6.56856705303264
30
0
41
1
10
7.82492560433198
20
6.36198111630509
30
0
41
1
10
8.20005485724423
20
6.24987542852699
30
0
41
1
10
9.33082589196388
20
5.88821725185542
30
0
41
1
10
10.0914486433156
20
5.6149742313861
30
0
41
1
10
11.2439211522058
20
5.17162748669298
30
0
41
1
10
11.6299960348765
20
5.01865851017658
30
0
41
1
10
12.4074935439767
20
4.70058759982749
30
0
41
1
10
12.7993537393735
20
4.53586995501357
30
0
41
1
10
13.1931836977321
20
4.36812718408817
30
0
0
SPLINE
5
BB
100
AcDbEntity
8
1
62
256
6
ByLayer
370
18
48
1
60
0
100
AcDbSpline
70
4
71
3
72
32
73
28
40
0
40
0
40
0
40
0
40
0.0625000000000035
40
0.0625000000000035
40
0.0937500000000049
40
0.0937500000000049
40
0.125000000000006
40
0.125000000000006
40
0.25000000000001
40
0.25000000000001
40
0.28125000000001
40
0.28125000000001
40
0.31250000000001
40
0.31250000000001
40
0.37500000000001
40
0.37500000000001
40
0.43750000000001
40
0.43750000000001
40
0.50000000000001
40
0.50000000000001
40
0.625000000000008
40
0.625000000000008
40
0.750000000000005
40
0.750000000000005
40
0.875000000000003
40
0.875000000000003
40
1
40
1
40
1
40
1
41
1
10
56.6041831174773
20
3.56695139206721
30
0
41
1
10
56.6214769242229
20
3.37212652735701
30
0
41
1
10
56.6539649673076
20
3.17420487485788
30
0
41
1
10
56.7243350360736
20
2.87291228259644
30
0
41
1
10
56.751405119268
20
2.7717449607535
30
0
41
1
10
56.8126561772635
20
2.56796102262439
30
0
41
1
10
56.8468768686544
20
2.46533764188709
30
0
41
1
10
57.0319298620284
20
1.95762439716196
30
0
41
1
10
57.2260127279345
20
1.56118018001422
30
0
41
1
10
57.5125686735716
20
1.07491015948142
30
0
41
1
10
57.5719545760065
20
0.978417751556179
30
0
41
1
10
57.6936240588186
20
0.788285121390601
30
0
41
1
10
57.7560429799342
20
0.694413804220545
30
0
41
1
10
57.9476447524433
20
0.416077433434396
30
0
41
1
10
58.0811561202816
20
0.23487751955318
30
0
41
1
10
58.3580687471147
20
-0.120062043936628
30
0
41
1
10
58.5014767547414
20
-0.29379660283422
30
0
41
1
10
58.7969903153106
20
-0.634704881328531
30
0
41
1
10
58.9492436898315
20
-0.802125808994703
30
0
41
1
10
59.4178463943812
20
-1.2931871751754
30
0
41
1
10
59.7409742832449
20
-1.6002120393868
30
0
41
1
10
60.4025352851653
20
-2.18522491069115
30
0
41
1
10
60.7411864237123
20
-2.46279928287578
30
0
41
1
10
61.4315290670029
20
-2.99320802701723
30
0
41
1
10
61.7832384502652
20
-3.24600848009848
30
0
41
1
10
62.4980212762456
20
-3.73004965171995
30
0
41
1
10
62.8595022010095
20
-3.96025425478578
30
0
41
1
10
63.2235332004871
20
-4.17911264580886
30
0
0
SPLINE
5
BC
100
AcDbEntity
8
1
62
256
6
ByLayer
370
13
48
1
60
0
100
AcDbSpline
70
4
71
3
72
10
73
6
40
0
40
0
40
0
40
0
40
0.5
40
0.5
40
1
40
1
40
1
40
1
41
1
10
3.9999995628647
20
-1.82877337391619
30
0
41
1
10
3.9999995628647
20
-1.84226712191079
30
0
41
1
10
4.01132011656878
20
-1.85589724591549
30
0
41
1
10
4.05487304041688
20
-1.8792646340263
30
0
41
1
10
4.08765179452953
20
-1.88948477065929
30
0
41
1
10
4.12988686927224
20
-1.89643034713137
30
0
0
SPLINE
5
BD
100
AcDbEntity
8
1
62
256
6
ByLayer
370
13
48
1
60
0
100
AcDbSpline
70
4
71
3
72
8
73
4
40
0
40
0
40
0
40
0
40
1
40
1
40
1
40
1
41
1
10
4.12988686927224
20
-2.00392102318568
30
0
41
1
10
4.15250257780957
20
-2.01241506755011
30
0
41
1
10
4.17709592138417
20
-2.02360147797336
30
0
41
1
10
4.20217810353205
20
-2.03675855986555
30
0
0
SPLINE
5
BE
100
AcDbEntity
8
1
62
256
6
ByLayer
370
18
48
1
60
0
100
AcDbSpline
70
4
71
3
72
16
73
12
40
0
40
0
40
0
40
0
40
0.220423882152289
40
0.220423882152289
40
0.350353235126908
40
0.350353235126908
40
0.480282588101526
40
0.480282588101526
40
0.740141294050763
40
0.740141294050763
40
1
40
1
40
1
40
1
41
1
10
8.40754595490915
20
-6.18298039906725
30
0
41
1
10
8.08771756778026
20
-6.28325981378862
30
0
41
1
10
7.76904002480333
20
-6.37745570849589
30
0
41
1
10
7.26457962051788
20
-6.51711756392248
30
0
41
1
10
7.07767576960126
20
-6.56699296525025
30
0
41
1
10
6.70696656723592
20
-6.66154215365802
30
0
41
1
10
6.52302364855183
20
-6.70625678524405
30
0
41
1
10
5.97595708370636
20
-6.8323018137352
30
0
41
1
10
5.61744459147084
20
-6.90570082480599
30
0
41
1
10
4.91810073635404
20
-7.0265944132546
30
0
41
1
10
4.5770852555772
20
-7.07421035674997
30
0
41
1
10
4.25053697130167
20
-7.10411195236239
30
0
0
SPLINE
5
BF
100
AcDbEntity
8
1
62
256
6
ByLayer
370
13
48
1
60
0
100
AcDbSpline
70
4
71
3
72
40
73
36
40
0
40
0
40
0
40
0
40
0.125
40
0.125
40
0.15625
40
0.15625
40
0.187500000000001
40
0.187500000000001
40
0.250000000000001
40
0.250000000000001
40
0.312500000000001
40
0.312500000000001
40
0.343750000000001
40
0.343750000000001
40
0.375000000000001
40
0.375000000000001
40
0.500000000000001
40
0.500000000000001
40
0.562500000000001
40
0.562500000000001
40
0.593750000000001
40
0.593750000000001
40
0.625000000000001
40
0.625000000000001
40
0.750000000000001
40
0.750000000000001
40
0.78125
40
0.78125
40
0.8125
40
0.8125
40
0.875
40
0.875
40
0.9375
40
0.9375
40
1
40
1
40
1
40
1
41
1
10
4.25021417711838
20
-1.92557712175085
30
0
41
1
10
4.25022701521172
20
-1.42174224406264
30
0
41
1
10
4.25022934945281
20
-0.90943363036169
30
0
41
1
10
4.25022537820269
20
-0.258563366567671
30
0
41
1
10
4.25022423281226
20
-0.127541274154737
30
0
41
1
10
4.25022142947287
20
0.133079980496404
30
0
41
1
10
4.25021977201337
20
0.262870155347656
30
0
41
1
10
4.25021428401357
20
0.650709197922225
30
0
41
1
10
4.25020994132137
20
0.907231004030109
30
0
41
1
10
4.25020111819839
20
1.41624689574587
30
0
41
1
10
4.250196635496
20
1.66874112611936
30
0
41
1
10
4.25019066343211
20
2.04438917477717
30
0
41
1
10
4.25018879302041
20
2.16944571378073
30
0
41
1
10
4.25018546612236
20
2.41665775002107
30
0
41
1
10
4.25018401190997
20
2.53858464297855
30
0
41
1
10
4.25017806081848
20
3.13999894543551
30
0
41
1
10
4.25017760623513
20
3.59511393089207
30
0
41
1
10
4.25018748870014
20
4.23856142678852
30
0
41
1
10
4.25019256222015
20
4.4469898683171
30
0
41
1
10
4.25020296501731
20
4.744306975001
30
0
41
1
10
4.25020689713236
20
4.84105661087045
30
0
41
1
10
4.25021570502557
20
5.02983090017503
30
0
41
1
10
4.25022058903269
20
5.12195175758623
30
0
41
1
10
4.25024713689729
20
5.56692009313795
30
0
41
1
10
4.25027539158194
20
5.87644909285376
30
0
41
1
10
4.25031741603689
20
6.20641288460345
30
0
41
1
10
4.25032615052817
20
6.26952650910539
30
0
41
1
10
4.2503442021216
20
6.38989400272712
30
0
41
1
10
4.25035354934002
20
6.44730788672777
30
0
41
1
10
4.25038204677634
20
6.60897289117273
30
0
41
1
10
4.25040166565336
20
6.7028948086521
30
0
41
1
10
4.25044116219115
20
6.8638739160655
30
0
41
1
10
4.25046104171051
20
6.93092899707321
30
0
41
1
10
4.25049995950749
20
7.0380446444394
30
0
41
1
10
4.25051904072953
20
7.07816437575667
30
0
41
1
10
4.2505369713019
20
7.10411195236225
30
0
0
SPLINE
5
C0
100
AcDbEntity
8
1
62
256
6
ByLayer
370
18
48
1
60
0
100
AcDbSpline
70
4
71
3
72
32
73
28
40
0
40
0
40
0
40
0
40
0.0329338857108568
40
0.0329338857108568
40
0.140385676187428
40
0.140385676187428
40
0.194111571425712
40
0.194111571425712
40
0.247837466663997
40
0.247837466663997
40
0.355289257140565
40
0.355289257140565
40
0.462741047617134
40
0.462741047617134
40
0.516466942855418
40
0.516466942855418
40
0.570192838093703
40
0.570192838093703
40
0.677644628570274
40
0.677644628570274
40
0.731370523808561
40
0.731370523808561
40
0.785096419046848
40
0.785096419046848
40
0.892548209523424
40
0.892548209523424
40
1
40
1
40
1
40
1
41
1
10
51.8899459743693
20
5.51475638832267
30
0
41
1
10
52.0276694995706
20
5.56754175299102
30
0
41
1
10
52.1653991495946
20
5.61934151588557
30
0
41
1
10
52.7523843752118
20
5.83614610304053
30
0
41
1
10
53.2014839592908
20
5.99202599368448
30
0
41
1
10
53.8741225449644
20
6.21138206764772
30
0
41
1
10
54.0982509518089
20
6.28198036902953
30
0
41
1
10
54.5473012190488
20
6.41720071838617
30
0
41
1
10
54.7720963506392
20
6.48195841378876
30
0
41
1
10
55.447039739439
20
6.66793146621751
30
0
41
1
10
55.8976564126359
20
6.78094330480661
30
0
41
1
10
56.8000874778933
20
6.98448556404711
30
0
41
1
10
57.2532588184646
20
7.07401739129901
30
0
41
1
10
57.9359123636801
20
7.18989788670376
30
0
41
1
10
58.1635463185092
20
7.22540171345417
30
0
41
1
10
58.6172415881092
20
7.28997185212336
30
0
41
1
10
58.8434348707885
20
7.31911512084284
30
0
41
1
10
59.5213178489387
20
7.39661248101865
30
0
41
1
10
59.9728395258414
20
7.4349600599592
30
0
41
1
10
60.6486463675526
20
7.47327110688479
30
0
41
1
10
60.8736860883568
20
7.48282330911829
30
0
41
1
10
61.3231311267973
20
7.49546796472791
30
0
41
1
10
61.5475244262951
20
7.49854160481033
30
0
41
1
10
62.2213975530031
20
7.49798779611359
30
0
41
1
10
62.671221071383
20
7.48471315457886
30
0
41
1
10
63.5708436557639
20
7.43237074682568
30
0
41
1
10
64.0200768780332
20
7.39301419268543
30
0
41
1
10
64.4711243390135
20
7.34098755946937
30
0
0
SPLINE
5
C1
100
AcDbEntity
8
1
62
256
6
ByLayer
370
18
48
1
60
0
100
AcDbSpline
70
4
71
3
72
8
73
4
40
0
40
0
40
0
40
0
40
1
40
1
40
1
40
1
41
1
10
64.3700779774132
20
-7.44895940154109
30
0
41
1
10
64.3985862286108
20
-7.37250765597167
30
0
41
1
10
64.4270675697231
20
-7.29599850526333
30
0
41
1
10
64.4555219570541
20
-7.21943185620316
30
0
0
SPLINE
5
C2
100
AcDbEntity
8
1
62
256
6
ByLayer
370
18
48
1
60
0
100
AcDbSpline
70
4
71
3
72
24
73
20
40
0
40
0
40
0
40
0
40
0.250000000000009
40
0.250000000000009
40
0.375000000000008
40
0.375000000000008
40
0.500000000000006
40
0.500000000000006
40
0.625000000000005
40
0.625000000000005
40
0.750000000000003
40
0.750000000000003
40
0.812500000000002
40
0.812500000000002
40
0.875000000000001
40
0.875000000000001
40
0.937500000000001
40
0.937500000000001
40
1
40
1
40
1
40
1
41
1
10
63.4603392710235
20
2.13111614789827
30
0
41
1
10
63.7167064551546
20
2.17653709548574
30
0
41
1
10
63.971991360712
20
2.2287501708625
30
0
41
1
10
64.3510868441467
20
2.3246089512073
30
0
41
1
10
64.4765241893872
20
2.3594713380084
30
0
41
1
10
64.7247926125469
20
2.4374952935444
30
0
41
1
10
64.84793215708
20
2.48073559429241
30
0
41
1
10
65.0879378428739
20
2.57905115182112
30
0
41
1
10
65.2050144830802
20
2.6340000992567
30
0
41
1
10
65.4292265129561
20
2.76389289430097
30
0
41
1
10
65.5372463755423
20
2.83930757958339
30
0
41
1
10
65.676926909627
20
2.97596786017732
30
0
41
1
10
65.7200372481734
20
3.02605598778192
30
0
41
1
10
65.7927212390923
20
3.13322863387339
30
0
41
1
10
65.8227711858052
20
3.19066494158571
30
0
41
1
10
65.8667460894339
20
3.31548396628219
30
0
41
1
10
65.8793916741666
20
3.37959709869872
30
0
41
1
10
65.8871497474892
20
3.50996422723523
30
0
41
1
10
65.8820449583689
20
3.57680613834722
30
0
41
1
10
65.870031351402
20
3.64101818241622
30
0
0
SPLINE
5
C3
100
AcDbEntity
8
1
62
256
6
ByLayer
370
18
48
1
60
0
100
AcDbSpline
70
4
71
3
72
12
73
8
40
0
40
0
40
0
40
0
40
0.250000000000008
40
0.250000000000008
40
0.500000000000017
40
0.500000000000017
40
1
40
1
40
1
40
1
41
1
10
64.4555219570716
20
-7.21943185620199
30
0
41
1
10
64.4604110866526
20
-7.2062759142209
30
0
41
1
10
64.4651022760534
20
-7.19286040921043
30
0
41
1
10
64.472867243713
20
-7.16867342885254
30
0
41
1
10
64.4759238534673
20
-7.15792703886555
30
0
41
1
10
64.481463911333
20
-7.13394005630127
30
0
41
1
10
64.4803938522314
20
-7.12936481944547
30
0
41
1
10
64.4767149185264
20
-7.13239300292418
30
0
0
SPLINE
5
C4
100
AcDbEntity
8
1
62
256
6
ByLayer
370
18
48
1
60
0
100
AcDbSpline
70
4
71
3
72
10
73
6
40
0
40
0
40
0
40
0
40
0.5
40
0.5
40
1
40
1
40
1
40
1
41
1
10
3.99999956286473
20
-1.82877337391619
30
0
41
1
10
3.99999956286473
20
-1.86290369777956
30
0
41
1
10
4.01133868206674
20
-1.89784629309466
30
0
41
1
10
4.05489018557569
20
-1.95851515751301
30
0
41
1
10
4.08764539619685
20
-1.98546999928908
30
0
41
1
10
4.12988686927224
20
-2.00392102318568
30
0
0
SPLINE
5
C5
100
AcDbEntity
8
1
62
256
6
ByLayer
370
18
48
1
60
0
100
AcDbSpline
70
4
71
3
72
69
73
65
40
0
40
0
40
0
40
0
40
0.0809104290559483
40
0.0809104290559483
40
0.146559684123375
40
0.146559684123375
40
0.212208939190801
40
0.212208939190801
40
0.343507449325654
40
0.343507449325654
40
0.474805959460506
40
0.474805959460506
40
0.540455214527933
40
0.540455214527933
40
0.60610446959536
40
0.60610446959536
40
0.671753724662786
40
0.671753724662786
40
0.704578352196499
40
0.704578352196499
40
0.706629891417356
40
0.706629891417356
40
0.708681430638213
40
0.708681430638213
40
0.712784509079928
40
0.712784509079928
40
0.714836048300785
40
0.714836048300785
40
0.716887587521642
40
0.720990665963357
40
0.720990665963357
40
0.737402979730219
40
0.737402979730219
40
0.770227607263942
40
0.770227607263942
40
0.778433764147372
40
0.778433764147372
40
0.786639921030803
40
0.786639921030803
40
0.803052234797664
40
0.803052234797664
40
0.811258391681095
40
0.811258391681095
40
0.819464548564526
40
0.819464548564526
40
0.835876862331387
40
0.835876862331387
40
0.844083019214818
40
0.844083019214818
40
0.852289176098249
40
0.852289176098249
40
0.86870148986511
40
0.86870148986511
40
0.885113803631971
40
0.885113803631971
40
0.901526117398832
40
0.901526117398832
40
0.917938431165694
40
0.917938431165694
40
0.934350744932555
40
0.934350744932555
40
0.967175372466277
40
0.967175372466277
40
1
40
1
40
1
40
1
41
1
10
20.09740410424
20
-7.47335590656931
30
0
41
1
10
19.5166897277903
20
-7.47265185965818
30
0
41
1
10
18.9314572939608
20
-7.45200553176861
30
0
41
1
10
17.8607441698771
20
-7.38457950322436
30
0
41
1
10
17.3783236848944
20
-7.3435311759045
30
0
41
1
10
16.4103275820747
20
-7.24490685905869
30
0
41
1
10
15.9241468112481
20
-7.18729698296059
30
0
41
1
10
14.4568285829135
20
-6.99771790936299
30
0
41
1
10
13.4668015160216
20
-6.84897079240557
30
0
41
1
10
11.4531153419152
20
-6.55359931925813
30
0
41
1
10
10.4294705951693
20
-6.40727962349578
30
0
41
1
10
8.86381348433056
20
-6.22258195396299
30
0
41
1
10
8.33692221052362
20
-6.16675576035357
30
0
41
1
10
7.27245826463928
20
-6.07116212369181
30
0
41
1
10
6.73797415405511
20
-6.03168739869648
30
0
41
1
10
5.66521906022999
20
-5.97263641383222
30
0
41
1
10
5.1271932178249
20
-5.95307708354949
30
0
41
1
10
4.3192823007777
20
-5.94035708005708
30
0
41
1
10
4.04981457014341
20
-5.93887957290195
30
0
41
1
10
3.76370614683717
20
-5.94033868545415
30
0
41
1
10
3.74686787483256
20
-5.94031571184965
30
0
41
1
10
3.71329837032047
20
-5.9416624939802
30
0
41
1
10
3.69655610023989
20
-5.94288868840508
30
0
41
1
10
3.64648709175182
20
-5.94861417932634
30
0
41
1
10
3.61287531464129
20
-5.9552050071475
30
0
41
1
10
3.5708525788647
20
-5.9711421081783
30
0
41
1
10
3.5575331475824
20
-5.97705451695154
30
0
41
1
10
3.53039563182807
20
-5.98840449264691
30
0
41
1
10
3.48979882534505
20
-6.00548273490276
30
0
41
1
10
3.44953714560526
20
-6.02272227955024
30
0
41
1
10
3.3161087265091
20
-6.08055304088114
30
0
41
1
10
3.21188982351274
20
-6.12798161490491
30
0
41
1
10
2.91170090776998
20
-6.27231261756407
30
0
41
1
10
2.72670179933095
20
-6.3717415341886
30
0
41
1
10
2.52292199078607
20
-6.50010623604001
30
0
41
1
10
2.48356581952982
20
-6.52598392903346
30
0
41
1
10
2.40800282425269
20
-6.57815438759974
30
0
41
1
10
2.37164916275015
20
-6.60456450738349
30
0
41
1
10
2.26934198784653
20
-6.68334451191814
30
0
41
1
10
2.21000649905434
20
-6.73528815790013
30
0
41
1
10
2.13611976532914
20
-6.81188569491934
30
0
41
1
10
2.11401591581097
20
-6.83719751568228
30
0
41
1
10
2.07524362009826
20
-6.8872882602183
30
0
41
1
10
2.0585645351066
20
-6.91213575980746
30
0
41
1
10
2.01806596299727
20
-6.98417165253528
30
0
41
1
10
2.00331900364898
20
-7.02936002136894
30
0
41
1
10
1.99908985168466
20
-7.09266234773608
30
0
41
1
10
2.00066455156869
20
-7.11301613468339
30
0
41
1
10
2.00973011218565
20
-7.1521878457292
30
0
41
1
10
2.01723984005824
20
-7.17094419697716
30
0
41
1
10
2.04771962724931
20
-7.22389814056365
30
0
41
1
10
2.07867225122382
20
-7.25517316519506
30
0
41
1
10
2.15856168028367
20
-7.31055334364939
30
0
41
1
10
2.20773015514558
20
-7.33464876654682
30
0
41
1
10
2.31836002359128
20
-7.37543668499362
30
0
41
1
10
2.38007637364055
20
-7.39234561909944
30
0
41
1
10
2.51374816612102
20
-7.42033387915754
30
0
41
1
10
2.58571702874971
20
-7.43140739776698
30
0
41
1
10
2.73814187960008
20
-7.44850344897864
30
0
41
1
10
2.81877674983198
20
-7.45451433949472
30
0
41
1
10
3.06790447538285
20
-7.46575258970498
30
0
41
1
10
3.24455149955531
20
-7.46442999408245
30
0
41
1
10
3.61227308837772
20
-7.44848962255281
30
0
41
1
10
3.80342607873499
20
-7.43382097987359
30
0
41
1
10
3.99999956286362
20
-7.41364477956259
30
0
0
SPLINE
5
C6
100
AcDbEntity
8
1
62
256
6
ByLayer
370
18
48
1
60
0
100
AcDbSpline
70
4
71
3
72
90
73
86
40
0
40
0
40
0
40
0
40
0.0333550141466138
40
0.0333550141466138
40
0.0500325212199211
40
0.0500325212199211
40
0.0667100282932283
40
0.0667100282932283
40
0.100065042439843
40
0.100065042439843
40
0.11674254951315
40
0.11674254951315
40
0.133420056586457
40
0.133420056586457
40
0.166775070733072
40
0.166775070733072
40
0.200130084879687
40
0.200130084879687
40
0.216807591952994
40
0.216807591952994
40
0.233485099026301
40
0.233485099026301
40
0.266840113172916
40
0.266840113172916
40
0.30019512731953
40
0.30019512731953
40
0.316872634392838
40
0.316872634392838
40
0.333550141466145
40
0.333550141466145
40
0.366905155612761
40
0.366905155612761
40
0.383582662686069
40
0.383582662686069
40
0.400260169759377
40
0.400260169759377
40
0.433615183905994
40
0.433615183905994
40
0.466970198052611
40
0.466970198052611
40
0.483647705125919
40
0.483647705125919
40
0.500325212199228
40
0.500325212199228
40
0.533680226345845
40
0.533680226345845
40
0.550357733419153
40
0.550357733419153
40
0.567035240492461
40
0.567035240492461
40
0.600390254639076
40
0.600390254639076
40
0.633745268785691
40
0.633745268785691
40
0.667100282932307
40
0.667100282932307
40
0.683777790005614
40
0.683777790005614
40
0.700455297078922
40
0.700455297078922
40
0.733810311225537
40
0.733810311225537
40
0.750487818298844
40
0.750487818298844
40
0.767165325372151
40
0.767165325372151
40
0.800520339518766
40
0.800520339518766
40
0.817197846592073
40
0.817197846592073
40
0.833875353665381
40
0.833875353665381
40
0.867230367811995
40
0.867230367811995
40
0.90058538195861
40
0.90058538195861
40
0.917262889031918
40
0.917262889031918
40
0.933940396105225
40
0.933940396105225
40
0.967295410251841
40
0.967295410251841
40
0.983972917325149
40
0.983972917325149
40
1
40
1
40
1
40
1
41
1
10
21.1774399442831
20
7.4506575958489
30
0
41
1
10
21.6323082877653
20
7.4305315909084
30
0
41
1
10
22.0862507447424
20
7.39738135215427
30
0
41
1
10
22.7649910983423
20
7.32869104570139
30
0
41
1
10
22.9908817139852
20
7.30262188756433
30
0
41
1
10
23.4418287279011
20
7.24409214516965
30
0
41
1
10
23.6667791297679
20
7.21157152655979
30
0
41
1
10
24.3414238705603
20
7.10488170910958
30
0
41
1
10
24.7913076089588
20
7.02189905507854
30
0
41
1
10
25.4653708232334
20
6.87941215218598
30
0
41
1
10
25.6899516735363
20
6.8289159062553
30
0
41
1
10
26.1387217919396
20
6.7217287105511
30
0
41
1
10
26.3629246969315
20
6.66503038969222
30
0
41
1
10
27.0366262565344
20
6.48696097910332
30
0
41
1
10
27.4868035304691
20
6.35737977328864
30
0
41
1
10
28.3881197126442
20
6.07537342683989
30
0
41
1
10
28.838715924559
20
5.92222465748958
30
0
41
1
10
29.518131391589
20
5.67795580957468
30
0
41
1
10
29.7450910026394
20
5.59402136624314
30
0
41
1
10
30.1998724714381
20
5.42095208021209
30
0
41
1
10
30.427925319698
20
5.33172146888819
30
0
41
1
10
31.1096068629505
20
5.05735474410054
30
0
41
1
10
31.5614908771893
20
4.86476342769913
30
0
41
1
10
32.4647935252301
20
4.46705343331811
30
0
41
1
10
32.9155912029491
20
4.261116988178
30
0
41
1
10
33.5897786173342
20
3.94054094213965
30
0
41
1
10
33.8140937498223
20
3.83160245496538
30
0
41
1
10
34.262973290438
20
3.61123907768572
30
0
41
1
10
34.4875572137958
20
3.49985403134474
30
0
41
1
10
35.1613302788936
20
3.1614880258457
30
0
41
1
10
35.6106255821074
20
2.9304493633368
30
0
41
1
10
36.2840251434842
20
2.57437913994275
30
0
41
1
10
36.5084995944993
20
2.45425786572423
30
0
41
1
10
36.9583972061957
20
2.21275939253135
30
0
41
1
10
37.1836895545862
20
2.0911630467007
30
0
41
1
10
37.8603578850582
20
1.7234167105517
30
0
41
1
10
38.3124114174591
20
1.47411587777685
30
0
41
1
10
39.2184431366376
20
0.966912464326612
30
0
41
1
10
39.6748158165191
20
0.710941168974387
30
0
41
1
10
40.3556382545572
20
0.327949683351477
30
0
41
1
10
40.5821459012582
20
0.200268952857556
30
0
41
1
10
41.0341716193154
20
-0.055360295061945
30
0
41
1
10
41.2595823500473
20
-0.183504673030711
30
0
41
1
10
41.9353433126236
20
-0.566461652696717
30
0
41
1
10
42.3856672935657
20
-0.819009027622258
30
0
41
1
10
43.0599628107152
20
-1.19546349943212
30
0
41
1
10
43.2845486960624
20
-1.32051644270956
30
0
41
1
10
43.7331841699339
20
-1.57006226042182
30
0
41
1
10
43.9572375562299
20
-1.69454384203863
30
0
41
1
10
44.6302517618631
20
-2.0642205053588
30
0
41
1
10
45.079680076951
20
-2.30635407768813
30
0
41
1
10
45.9788974175514
20
-2.78397530880485
30
0
41
1
10
46.4281294657593
20
-3.02037144266558
30
0
41
1
10
47.3306436981722
20
-3.48014767556342
30
0
41
1
10
47.783548991425
20
-3.70419747064378
30
0
41
1
10
48.4647387162117
20
-4.03247123802748
30
0
41
1
10
48.6923293091918
20
-4.1408887894838
30
0
41
1
10
49.1464151713857
20
-4.35344835933915
30
0
41
1
10
49.373181808692
20
-4.45735037808089
30
0
41
1
10
50.0527139347502
20
-4.76203201979396
30
0
41
1
10
50.5045636366916
20
-4.95605440149927
30
0
41
1
10
51.179872073512
20
-5.23457529176329
30
0
41
1
10
51.4044771962747
20
-5.32542071224918
30
0
41
1
10
51.8537548316322
20
-5.50176271663176
30
0
41
1
10
52.0784629126867
20
-5.58723138069126
30
0
41
1
10
52.7523843752117
20
-5.83614610304045
30
0
41
1
10
53.2014839592907
20
-5.99202599368442
30
0
41
1
10
53.8741225449643
20
-6.21138206764769
30
0
41
1
10
54.0982509518087
20
-6.28198036902947
30
0
41
1
10
54.5473012190486
20
-6.41720071838611
30
0
41
1
10
54.7720963506391
20
-6.4819584137887
30
0
41
1
10
55.4470397394389
20
-6.66793146621748
30
0
41
1
10
55.8976564126358
20
-6.78094330480658
30
0
41
1
10
56.8000874778932
20
-6.98448556404705
30
0
41
1
10
57.2532588184645
20
-7.07401739129895
30
0
41
1
10
57.93591236368
20
-7.18989788670373
30
0
41
1
10
58.1635463185091
20
-7.22540171345415
30
0
41
1
10
58.6172415881091
20
-7.28997185212333
30
0
41
1
10
58.8434348707883
20
-7.31911512084281
30
0
41
1
10
59.5213178489384
20
-7.39661248101865
30
0
41
1
10
59.9728395258413
20
-7.43496005995917
30
0
41
1
10
60.6486463675525
20
-7.47327110688479
30
0
41
1
10
60.8736860883567
20
-7.48282330911826
30
0
41
1
10
61.3143669266837
20
-7.49522139332842
30
0
41
1
10
61.5300212045249
20
-7.49829691900715
30
0
41
1
10
61.7458687055288
20
-7.49836373363436
30
0
0
SPLINE
5
C7
100
AcDbEntity
8
1
62
256
6
ByLayer
370
18
48
1
60
0
100
AcDbSpline
70
4
71
3
72
30
73
26
40
0
40
0
40
0
40
0
40
0.0775885740085354
40
0.0775885740085354
40
0.180078732452029
40
0.180078732452029
40
0.231323811673778
40
0.231323811673778
40
0.282568890895526
40
0.282568890895526
40
0.385059049339022
40
0.385059049339022
40
0.487549207782518
40
0.487549207782518
40
0.538794287004267
40
0.538794287004267
40
0.590039366226015
40
0.590039366226015
40
0.692529524669511
40
0.692529524669511
40
0.795019683113007
40
0.795019683113007
40
0.897509841556504
40
0.897509841556504
40
1
40
1
40
1
40
1
41
1
10
43.367868869632
20
7.15220108235587
30
0
41
1
10
43.7097917673401
20
7.14290957615194
30
0
41
1
10
44.0518152674165
20
7.12580670872896
30
0
41
1
10
44.8465119706869
20
7.07004142424074
30
0
41
1
10
45.2993745381289
20
7.02603712671083
30
0
41
1
10
45.9788091362445
20
6.94319221628751
30
0
41
1
10
46.2051380882815
20
6.9130639452296
30
0
41
1
10
46.6576612575487
20
6.84634731573709
30
0
41
1
10
46.8837903156023
20
6.80949460852577
30
0
41
1
10
47.5618245867211
20
6.68963638899541
30
0
41
1
10
48.0132558751146
20
6.59785328504827
30
0
41
1
10
48.9165360665595
20
6.39098961327599
30
0
41
1
10
49.3689091005151
20
6.27697631840374
30
0
41
1
10
50.0480625694141
20
6.09056367303299
30
0
41
1
10
50.2747441260306
20
6.02551124434322
30
0
41
1
10
50.7274430566117
20
5.88947881472259
30
0
41
1
10
50.9534910190866
20
5.8185826627558
30
0
41
1
10
51.6316654241054
20
5.5988612944484
30
0
41
1
10
52.083628680316
20
5.44282243814325
30
0
41
1
10
52.9869681284391
20
5.11258436240402
30
0
41
1
10
53.4381880190063
20
4.93852897586782
30
0
41
1
10
54.3425643697043
20
4.57411043411867
30
0
41
1
10
54.7960998129451
20
4.38278025369436
30
0
41
1
10
55.701218290424
20
3.9853988239299
30
0
41
1
10
56.1526035958914
20
3.77893055663284
30
0
41
1
10
56.6041831174773
20
3.56695139206721
30
0
0
SPLINE
5
C8
100
AcDbEntity
8
1
62
256
6
ByLayer
370
18
48
1
60
0
100
AcDbSpline
70
4
71
3
72
18
73
14
40
0
40
0
40
0
40
0
40
0.294611206270914
40
0.294611206270914
40
0.371593485768181
40
0.371593485768181
40
0.448575765265448
40
0.448575765265448
40
0.602540324259982
40
0.602540324259982
40
0.910469442249049
40
0.910469442249049
40
1
40
1
40
1
40
1
41
1
10
42.0443071063121
20
-0.0103653056123676
30
0
41
1
10
43.2374867949572
20
-0.664880458077192
30
0
41
1
10
44.4301204434546
20
-1.31891486871075
30
0
41
1
10
45.9461907586798
20
-2.11996741125426
30
0
41
1
10
46.2609388496683
20
-2.28457524778531
30
0
41
1
10
46.8920210155639
20
-2.61063096032794
30
0
41
1
10
47.2088262726852
20
-2.77230395062423
30
0
41
1
10
48.1553872249007
20
-3.24779733231776
30
0
41
1
10
48.7831394613519
20
-3.553108064176
30
0
41
1
10
50.660906255306
20
-4.42768989429561
30
0
41
1
10
51.9051642379894
20
-4.95621671747747
30
0
41
1
10
53.5164329034466
20
-5.54674534187939
30
0
41
1
10
53.879706420917
20
-5.67379556472622
30
0
41
1
10
54.2435915050556
20
-5.79451285216325
30
0
0
SPLINE
5
C9
100
AcDbEntity
8
1
62
256
6
ByLayer
370
13
48
1
60
0
100
AcDbSpline
70
4
71
3
72
20
73
16
40
0
40
0
40
0
40
0
40
0.0772352128752258
40
0.0772352128752258
40
0.169511691587704
40
0.169511691587704
40
0.261788170300182
40
0.261788170300182
40
0.630894085150094
40
0.630894085150094
40
0.815447042575049
40
0.815447042575049
40
0.907723521287524
40
0.907723521287524
40
1
40
1
40
1
40
1
41
1
10
54.2435915049923
20
-5.79451285214225
30
0
41
1
10
54.5054749619346
20
-5.88139154523776
30
0
41
1
10
54.7676751796758
20
-5.96499009606256
30
0
41
1
10
55.344068558311
20
-6.14097207145568
30
0
41
1
10
55.6584468913998
20
-6.23188571747298
30
0
41
1
10
56.2887690670895
20
-6.40346916260029
30
0
41
1
10
56.6052851480006
20
-6.48426442246549
30
0
41
1
10
58.1846509610332
20
-6.85928740610311
30
0
41
1
10
59.4364914034216
20
-7.06647193175766
30
0
41
1
10
61.3143202928054
20
-7.23342164291961
30
0
41
1
10
61.9403075734868
20
-7.26509738662119
30
0
41
1
10
62.8814073396768
20
-7.27580234920748
30
0
41
1
10
63.1954596719032
20
-7.27323368799497
30
0
41
1
10
63.8246164780368
20
-7.25567877337528
30
0
41
1
10
64.1397693219705
20
-7.2402873006119
30
0
41
1
10
64.4555219570539
20
-7.21943185620316
30
0
0
SPLINE
5
CA
100
AcDbEntity
8
1
62
256
6
ByLayer
370
18
48
1
60
0
100
AcDbSpline
70
4
71
3
72
20
73
16
40
0
40
0
40
0
40
0
40
0.125000000000001
40
0.125000000000001
40
0.250000000000002
40
0.250000000000002
40
0.375000000000003
40
0.375000000000003
40
0.500000000000004
40
0.500000000000004
40
0.750000000000002
40
0.750000000000002
40
0.875000000000001
40
0.875000000000001
40
1
40
1
40
1
40
1
41
1
10
65.8700313514015
20
-3.64101818241602
30
0
41
1
10
65.8119999381899
20
-3.79633670782698
30
0
41
1
10
65.7539188654018
20
-3.95151960109058
30
0
41
1
10
65.6377393220518
20
-4.26183787014821
30
0
41
1
10
65.5796272413514
20
-4.41693607340827
30
0
41
1
10
65.4633271740909
20
-4.72692516292142
30
0
41
1
10
65.4051332102749
20
-4.88184243285514
30
0
41
1
10
65.2886662156987
20
-5.19124475968223
30
0
41
1
10
65.2303892076787
20
-5.34563822600353
30
0
41
1
10
65.0555309698517
20
-5.80862617596315
30
0
41
1
10
64.9389489639146
20
-6.1172151710027
30
0
41
1
10
64.763730019552
20
-6.57765229390512
30
0
41
1
10
64.7052575996821
20
-6.73066385614453
30
0
41
1
10
64.588282298946
20
-7.03647156801995
30
0
41
1
10
64.5297591228611
20
-7.18912419490803
30
0
41
1
10
64.4711243390215
20
-7.34098755946818
30
0
0
SPLINE
5
CB
100
AcDbEntity
8
1
62
256
6
ByLayer
370
18
48
1
60
0
100
AcDbSpline
70
4
71
3
72
22
73
18
40
0
40
0
40
0
40
0
40
0.129814454090896
40
0.129814454090896
40
0.31884355842485
40
0.31884355842485
40
0.413358110591827
40
0.413358110591827
40
0.507872662758803
40
0.507872662758803
40
0.696901767092758
40
0.696901767092758
40
0.791416319259735
40
0.791416319259735
40
0.885930871426713
40
0.885930871426713
40
1
40
1
40
1
40
1
41
1
10
21.1774399453862
20
7.45065759620053
30
0
41
1
10
20.8907560317807
20
7.35926670372982
30
0
41
1
10
20.6053853150442
20
7.25606984317116
30
0
41
1
10
19.9065649763208
20
6.97042213139426
30
0
41
1
10
19.4940983368743
20
6.77315834986621
30
0
41
1
10
18.872796299875
20
6.43514409841876
30
0
41
1
10
18.6643902529618
20
6.31498174382347
30
0
41
1
10
18.2531302909216
20
6.06655512529287
30
0
41
1
10
18.0495227631007
20
5.93794363090086
30
0
41
1
10
17.44248994664
20
5.54225598405637
30
0
41
1
10
17.0428305620292
20
5.26535596641978
30
0
41
1
10
16.4417041409809
20
4.84404070223471
30
0
41
1
10
16.2409605632086
20
4.70253470150462
30
0
41
1
10
15.837872979958
20
4.42000713867321
30
0
41
1
10
15.6377257431658
20
4.28053993125937
30
0
41
1
10
15.197485499456
20
3.97868950075096
30
0
41
1
10
14.9576718557343
20
3.81755726865205
30
0
41
1
10
14.7177559351223
20
3.66166314756134
30
0
0
SPLINE
5
CC
100
AcDbEntity
8
1
62
256
6
ByLayer
370
18
48
1
60
0
100
AcDbSpline
70
4
71
3
72
8
73
4
40
0
40
0
40
0
40
0
40
1
40
1
40
1
40
1
41
1
10
64.4767149185264
20
-7.13239300292418
30
0
41
1
10
64.4423095788412
20
-7.16071253504128
30
0
41
1
10
64.412893621697
20
-7.17495943230227
30
0
41
1
10
64.3885475033466
20
-7.17490676653378
30
0
0
SPLINE
5
CD
100
AcDbEntity
8
1
62
256
6
ByLayer
370
18
48
1
60
0
100
AcDbSpline
70
4
71
3
72
8
73
4
40
0
40
0
40
0
40
0
40
1
40
1
40
1
40
1
41
1
10
3.99999956286467
20
-7.34824184114115
30
0
41
1
10
3.99999956286467
20
-7.36983757980389
30
0
41
1
10
3.99999956286473
20
-7.39163846789006
30
0
41
1
10
3.99999956286473
20
-7.41364477956242
30
0
0
SPLINE
5
CE
100
AcDbEntity
8
1
62
256
6
ByLayer
370
18
48
1
60
0
100
AcDbSpline
70
4
71
3
72
18
73
14
40
0
40
0
40
0
40
0
40
0.0491099921763156
40
0.0491099921763156
40
0.258534161461011
40
0.258534161461011
40
0.677382500030401
40
0.677382500030401
40
0.78209458467275
40
0.78209458467275
40
0.8868066693151
40
0.8868066693151
40
1
40
1
40
1
40
1
41
1
10
63.0310529047988
20
-7.17437161600313
30
0
41
1
10
62.8838032246868
20
-7.17426939144502
30
0
41
1
10
62.7366476751936
20
-7.17283088192875
30
0
41
1
10
61.9623671205058
20
-7.15826083330614
30
0
41
1
10
61.3365626776865
20
-7.12229683727222
30
0
41
1
10
59.4592709601442
20
-6.94363800582025
30
0
41
1
10
58.2077008666202
20
-6.7302273699533
30
0
41
1
10
56.6290748833722
20
-6.3497976110514
30
0
41
1
10
56.312816907401
20
-6.26806483775388
30
0
41
1
10
55.6829111640838
20
-6.09484383927878
30
0
41
1
10
55.3687151065143
20
-6.00323241425957
30
0
41
1
10
54.7161057949608
20
-5.8026683083072
30
0
41
1
10
54.3777856632518
20
-5.69292561937763
30
0
41
1
10
54.0399263832111
20
-5.57791404611424
30
0
0
SPLINE
5
CF
100
AcDbEntity
8
1
62
256
6
ByLayer
370
13
48
1
60
0
100
AcDbSpline
70
4
71
3
72
24
73
20
40
0
40
0
40
0
40
0
40
0.0519593526836385
40
0.0519593526836385
40
0.278114386376383
40
0.278114386376383
40
0.391191903222755
40
0.391191903222755
40
0.447730661645942
40
0.447730661645942
40
0.504269420069128
40
0.504269420069128
40
0.6173469369155
40
0.6173469369155
40
0.730424453761872
40
0.730424453761872
40
0.956579487454617
40
0.956579487454617
40
1
40
1
40
1
40
1
41
1
10
54.039926383166
20
-5.57791404609893
30
0
41
1
10
53.752696723533
20
-5.48013743614922
30
0
41
1
10
53.4658001434939
20
-5.37855275090007
30
0
41
1
10
51.9312215523806
20
-4.81538321244653
30
0
41
1
10
50.687281274765
20
-4.28823593174067
30
0
41
1
10
48.8100916865266
20
-3.41863250127082
30
0
41
1
10
48.1825730555201
20
-3.11545271485062
30
0
41
1
10
47.2364381043426
20
-2.64389478793575
30
0
41
1
10
46.9198419292857
20
-2.48368177877674
30
0
41
1
10
46.2891727186207
20
-2.16078202168131
30
0
41
1
10
45.9746038367176
20
-1.99785610650309
30
0
41
1
10
45.0328624596603
20
-1.50527802217275
30
0
41
1
10
44.4075639717079
20
-1.1719975286388
30
0
41
1
10
43.1591666206583
20
-0.50104697071788
30
0
41
1
10
42.5359156804466
20
-0.163663936477803
30
0
41
1
10
40.6656466021412
20
0.847855732274013
30
0
41
1
10
39.4174484198169
20
1.52011256107124
30
0
41
1
10
37.9148222117476
20
2.29405672112438
30
0
41
1
10
37.6720972810197
20
2.41798736946103
30
0
41
1
10
37.429317541927
20
2.54065266478364
30
0
0
SPLINE
5
D0
100
AcDbEntity
8
1
62
256
6
ByLayer
370
18
48
1
60
0
100
AcDbSpline
70
4
71
3
72
58
73
54
40
0
40
0
40
0
40
0
40
0.0436271435854259
40
0.0436271435854259
40
0.0872542871708518
40
0.0872542871708518
40
0.130881430756278
40
0.130881430756278
40
0.152695002548991
40
0.152695002548991
40
0.174508574341704
40
0.174508574341704
40
0.218135717927131
40
0.218135717927131
40
0.239949289719845
40
0.239949289719845
40
0.261762861512558
40
0.261762861512558
40
0.349017148683411
40
0.349017148683411
40
0.370830720476125
40
0.370830720476125
40
0.392644292268838
40
0.392644292268838
40
0.436271435854265
40
0.436271435854265
40
0.479898579439691
40
0.479898579439691
40
0.523525723025117
40
0.523525723025117
40
0.54533929481783
40
0.54533929481783
40
0.567152866610543
40
0.567152866610543
40
0.610780010195969
40
0.610780010195969
40
0.654407153781394
40
0.654407153781394
40
0.676220725574107
40
0.676220725574107
40
0.69803429736682
40
0.69803429736682
40
0.741661440952245
40
0.741661440952245
40
0.763475012744958
40
0.763475012744958
40
0.78528858453767
40
0.78528858453767
40
0.872542871708518
40
0.872542871708518
40
0.959797158879365
40
0.959797158879365
40
1
40
1
40
1
40
1
41
1
10
64.3700779774132
20
-7.44895940154112
30
0
41
1
10
63.7420965778316
20
-7.49004777177325
30
0
41
1
10
63.1143052504288
20
-7.50585592178999
30
0
41
1
10
61.8572119585016
20
-7.48680638538491
30
0
41
1
10
61.2304034015849
20
-7.45199166087966
30
0
41
1
10
59.9773838485634
20
-7.33275888120653
30
0
41
1
10
59.3510877814315
20
-7.24836374422659
30
0
41
1
10
58.4097745020541
20
-7.08534370287848
30
0
41
1
10
58.0953728504465
20
-7.02487606032838
30
0
41
1
10
57.4671946829968
20
-6.89230973761505
30
0
41
1
10
57.1535034424533
20
-6.82024337146854
30
0
41
1
10
56.2130561456574
20
-6.58720130964903
30
0
41
1
10
55.5869156387264
20
-6.40938992045719
30
0
41
1
10
54.6466548368183
20
-6.11105362501541
30
0
41
1
10
54.3330640546068
20
-6.00633344965678
30
0
41
1
10
53.7051254913515
20
-5.78672732877467
30
0
41
1
10
53.3905750874517
20
-5.67175915161948
30
0
41
1
10
51.8208279755566
20
-5.07465668580701
30
0
41
1
10
50.5707678354407
20
-4.52420731286477
30
0
41
1
10
48.9997529523216
20
-3.76641866031531
30
0
41
1
10
48.6853421199645
20
-3.61146004618701
30
0
41
1
10
48.0577108939955
20
-3.29628569160713
30
0
41
1
10
47.7442122665051
20
-3.13593743753617
30
0
41
1
10
46.8040932413894
20
-2.64755757194257
30
0
41
1
10
46.1777679265047
20
-2.3123246552758
30
0
41
1
10
44.9229546377869
20
-1.62757318401501
30
0
41
1
10
44.293559502007
20
-1.27753018439239
30
0
41
1
10
43.0388177959197
20
-0.573240295077312
30
0
41
1
10
42.4124342070245
20
-0.218711871021696
30
0
41
1
10
41.4722295903242
20
0.312907180927653
30
0
41
1
10
41.1586847070675
20
0.490016223707983
30
0
41
1
10
40.5309502463727
20
0.84340337781515
30
0
41
1
10
40.216479270806
20
1.01983800408996
30
0
41
1
10
39.2737160229269
20
1.54570947244127
30
0
41
1
10
38.6468502608799
20
1.89132081734246
30
0
41
1
10
37.3933660622586
20
2.5674510969495
30
0
41
1
10
36.7667442375347
20
2.89796217501873
30
0
41
1
10
35.8245948787363
20
3.37835666062037
30
0
41
1
10
35.5099342761045
20
3.53605054562405
30
0
41
1
10
34.8817449624611
20
3.84460133909226
30
0
41
1
10
34.5680073286404
20
3.99556883956396
30
0
41
1
10
33.627316363632
20
4.43777168668623
30
0
41
1
10
33.0009457576654
20
4.71839023180362
30
0
41
1
10
32.0600677433261
20
5.11455872149534
30
0
41
1
10
31.7462164191659
20
5.24248342700835
30
0
41
1
10
31.1176868663134
20
5.48954523702881
30
0
41
1
10
30.8031083979674
20
5.60863156513
30
0
41
1
10
29.2332847947452
20
6.17874834725404
30
0
41
1
10
27.98267096949
20
6.55585530134556
30
0
41
1
10
25.4666093865185
20
7.1275544890218
30
0
41
1
10
24.2155050874193
20
7.31922016116192
30
0
41
1
10
22.3811695463601
20
7.45337854563633
30
0
41
1
10
21.8011479935414
20
7.47444349263088
30
0
41
1
10
21.2226042685101
20
7.47404846890819
30
0
0
SPLINE
5
D1
100
AcDbEntity
8
1
62
256
6
ByLayer
370
18
48
1
60
0
100
AcDbSpline
70
4
71
3
72
10
73
6
40
0
40
0
40
0
40
0
40
0.60903226506339
40
0.60903226506339
40
1
40
1
40
1
40
1
41
1
10
64.3700779774132
20
7.44895940154112
30
0
41
1
10
64.0561376576057
20
7.46950029033121
30
0
41
1
10
63.7422272797118
20
7.48372419295714
30
0
41
1
10
63.2265777953334
20
7.49669413584769
30
0
41
1
10
63.0248240361752
20
7.49915581724542
30
0
41
1
10
62.8231091555122
20
7.49900915576583
30
0
0
SPLINE
5
D2
100
AcDbEntity
8
1
62
256
6
ByLayer
370
18
48
1
60
0
100
AcDbSpline
70
4
71
3
72
30
73
26
40
0
40
0
40
0
40
0
40
0.100438107947672
40
0.100438107947672
40
0.145416202550289
40
0.145416202550289
40
0.190394297152907
40
0.190394297152907
40
0.280350486358141
40
0.280350486358141
40
0.325328580960757
40
0.325328580960757
40
0.370306675563373
40
0.370306675563373
40
0.460262864768606
40
0.460262864768606
40
0.550219053973838
40
0.550219053973838
40
0.64017524317907
40
0.64017524317907
40
0.730131432384302
40
0.730131432384302
40
0.820087621589535
40
0.820087621589535
40
1
40
1
40
1
40
1
41
1
10
25.0599471477593
20
-7.16500015279931
30
0
41
1
10
24.3599230601599
20
-7.27747603754014
30
0
41
1
10
23.6602825417701
20
-7.35985470927722
30
0
41
1
10
22.6447313955391
20
-7.43409019524395
30
0
41
1
10
22.3299938633569
20
-7.45081974157364
30
0
41
1
10
21.7016074948138
20
-7.47160403061292
30
0
41
1
10
21.3877753800321
20
-7.47568277103076
30
0
41
1
10
20.446778103453
20
-7.46906080934076
30
0
41
1
10
19.8202307710878
20
-7.43948980188352
30
0
41
1
10
18.8791386453947
20
-7.35770579471836
30
0
41
1
10
18.5652096405866
20
-7.32421486378453
30
0
41
1
10
17.9365235778379
20
-7.24484057200542
30
0
41
1
10
17.6218196295109
20
-7.19894942392966
30
0
41
1
10
16.6795791531989
20
-7.04346685296741
30
0
41
1
10
16.0528324258796
20
-6.91584294771093
30
0
41
1
10
14.7987397226443
20
-6.6150302547984
30
0
41
1
10
14.1713913354077
20
-6.44186416158394
30
0
41
1
10
12.9131912224259
20
-6.05212775280498
30
0
41
1
10
12.2854970030636
20
-5.83661772392054
30
0
41
1
10
11.031321403745
20
-5.36853006488741
30
0
41
1
10
10.4047882271102
20
-5.11564931029494
30
0
41
1
10
9.14939300795723
20
-4.57641726482254
30
0
41
1
10
8.5194966231187
20
-4.28959511666119
30
0
41
1
10
6.63610144924604
20
-3.39171148127687
30
0
41
1
10
5.38546826996159
20
-2.7414423039055
30
0
41
1
10
4.12725510530817
20
-2.05966022732039
30
0
0
SPLINE
5
D3
100
AcDbEntity
8
1
62
256
6
ByLayer
370
18
48
1
60
0
100
AcDbSpline
70
4
71
3
72
16
73
12
40
0
40
0
40
0
40
0
40
0.25
40
0.25
40
0.5
40
0.5
40
0.625
40
0.625
40
0.75
40
0.75
40
1
40
1
40
1
40
1
41
1
10
3.99999956286473
20
7.34824184114112
30
0
41
1
10
3.99999956286473
20
7.32498916277495
30
0
41
1
10
4.00388757477302
20
7.30047903537204
30
0
41
1
10
4.02419484589694
20
7.24710878639144
30
0
41
1
10
4.04125246856719
20
7.21802791015901
30
0
41
1
10
4.07935983604986
20
7.17811511193798
30
0
41
1
10
4.09436024278151
20
7.16533601668868
30
0
41
1
10
4.12586385544847
20
7.14370792870071
30
0
41
1
10
4.14260418868903
20
7.13462230465598
30
0
41
1
10
4.19171590152752
20
7.11331643794921
30
0
41
1
10
4.22239770156168
20
7.10668862817167
30
0
41
1
10
4.2505369713019
20
7.10411195236225
30
0
0
SPLINE
5
D4
100
AcDbEntity
8
1
62
256
6
ByLayer
370
18
48
1
60
0
100
AcDbSpline
70
4
71
3
72
20
73
16
40
0
40
0
40
0
40
0
40
0.125
40
0.125
40
0.25
40
0.25
40
0.375
40
0.375
40
0.5
40
0.5
40
0.75
40
0.75
40
0.875
40
0.875
40
1
40
1
40
1
40
1
41
1
10
65.8700313514015
20
3.64101818241613
30
0
41
1
10
65.8119999381899
20
3.79633670782709
30
0
41
1
10
65.7539188654017
20
3.95151960109067
30
0
41
1
10
65.6377393220517
20
4.2618378701483
30
0
41
1
10
65.5796272413513
20
4.41693607340835
30
0
41
1
10
65.4633271740908
20
4.72692516292148
30
0
41
1
10
65.4051332102749
20
4.88184243285519
30
0
41
1
10
65.2886662156987
20
5.19124475968229
30
0
41
1
10
65.2303892076787
20
5.34563822600359
30
0
41
1
10
65.0555309698516
20
5.80862617596321
30
0
41
1
10
64.9389489639145
20
6.11721517100273
30
0
41
1
10
64.7637300195518
20
6.57765229390515
30
0
41
1
10
64.7052575996821
20
6.73066385614456
30
0
41
1
10
64.588282298946
20
7.03647156801998
30
0
41
1
10
64.5297591228611
20
7.18912419490806
30
0
41
1
10
64.4711243390215
20
7.34098755946818
30
0
0
SPLINE
5
D5
100
AcDbEntity
8
1
62
256
6
ByLayer
370
13
48
1
60
0
100
AcDbSpline
70
4
71
3
72
8
73
4
40
0
40
0
40
0
40
0
40
1
40
1
40
1
40
1
41
1
10
4.25021417711841
20
-1.92557712175085
30
0
41
1
10
4.20819864307188
20
-1.91248533751158
30
0
41
1
10
4.16717591243574
20
-1.90256254655168
30
0
41
1
10
4.12988686927221
20
-1.89643034713137
30
0
0
LINE
5
76
100
AcDbEntity
8
81
62
256
6
ByLayer
370
18
48
1
60
0
100
AcDbLine
10
67
20
0
30
0
11
72
21
0
31
0
39
0
210
0
220
0
230
1
0
LINE
5
77
100
AcDbEntity
8
1
62
256
6
ByLayer
370
18
48
1
60
0
100
AcDbLine
10
3.144183
20
7.463204
30
0
11
1.197176
21
7.462036
31
0
39
0
210
0
220
0
230
1
0
LINE
5
79
100
AcDbEntity
8
1
62
256
6
ByLayer
370
18
48
1
60
0
100
AcDbLine
10
21.225294
20
7.474052
30
0
11
20.102548
21
7.473379
31
0
39
0
210
0
220
0
230
1
0
LINE
5
7A
100
AcDbEntity
8
1
62
256
6
ByLayer
370
18
48
1
60
0
100
AcDbLine
10
62.826104
20
7.499013
30
0
11
61.740808
21
7.498362
31
0
39
0
210
0
220
0
230
1
0
LINE
5
7B
100
AcDbEntity
8
1
62
256
6
ByLayer
370
18
48
1
60
0
100
AcDbLine
10
61.740808
20
-7.498362
30
0
11
62.825713
21
-7.499013
31
0
39
0
210
0
220
0
230
1
0
LINE
5
7C
100
AcDbEntity
8
1
62
256
6
ByLayer
370
18
48
1
60
0
100
AcDbLine
10
20.102548
20
-7.473379
30
0
11
21.224957
21
-7.474052
31
0
39
0
210
0
220
0
230
1
0
LINE
5
7D
100
AcDbEntity
8
1
62
256
6
ByLayer
370
18
48
1
60
0
100
AcDbLine
10
1.197176
20
-7.462036
30
0
11
3.144183
21
-7.463204
31
0
39
0
210
0
220
0
230
1
0
LINE
5
7E
100
AcDbEntity
8
SK1
62
256
6
ByLayer
370
18
48
1
60
0
100
AcDbLine
10
-45.979274
20
8
30
0
11
-48
21
4.5
31
0
39
0
210
0
220
0
230
1
0
LINE
5
80
100
AcDbEntity
8
SK1
62
256
6
ByLayer
370
18
48
1
60
0
100
AcDbLine
10
-48
20
-4.5
30
0
11
-45.979274
21
-8
31
0
39
0
210
0
220
0
230
1
0
LINE
5
81
100
AcDbEntity
8
SK1
62
256
6
ByLayer
370
18
48
1
60
0
100
AcDbLine
10
0
20
8
30
0
11
-45.979274
21
8
31
0
39
0
210
0
220
0
230
1
0
LINE
5
82
100
AcDbEntity
8
SK1
62
256
6
ByLayer
370
18
48
1
60
0
100
AcDbLine
10
-45.979274
20
-8
30
0
11
0
21
-8
31
0
39
0
210
0
220
0
230
1
0
LINE
5
83
100
AcDbEntity
8
SK4
62
256
6
ByLayer
370
18
48
0.05
60
0
100
AcDbLine
10
72
20
0
30
0
11
-53
21
0
31
0
39
0
210
0
220
0
230
1
0
LINE
5
85
100
AcDbEntity
8
4
62
256
6
ByLayer
370
18
48
0.05
60
0
100
AcDbLine
10
67
20
0
30
0
11
0
21
0
31
0
39
0
210
0
220
0
230
1
0
LINE
5
87
100
AcDbEntity
8
80
62
256
6
ByLayer
370
18
48
1
60
0
100
AcDbLine
10
0
20
0
30
0
11
-5
21
0
31
0
39
0
210
0
220
0
230
1
0
LINE
5
88
100
AcDbEntity
8
1
62
256
6
ByLayer
370
13
48
1
60
0
100
AcDbLine
10
0.598348
20
7.731018
30
0
11
0.598348
21
-7.731018
31
0
39
0
210
0
220
0
230
1
0
LINE
5
89
100
AcDbEntity
8
1
62
256
6
ByLayer
370
13
48
1
60
0
100
AcDbLine
10
65.059719
20
1.249541
30
0
11
66.902034
21
0.337372
31
0
39
0
210
0
220
0
230
1
0
LINE
5
8A
100
AcDbEntity
8
1
62
256
6
ByLayer
370
13
48
1
60
0
100
AcDbLine
10
1.197176
20
7.462036
30
0
11
1.197176
21
-7.462036
31
0
39
0
210
0
220
0
230
1
0
LINE
5
8B
100
AcDbEntity
8
1
62
256
6
ByLayer
370
13
48
1
60
0
100
AcDbLine
10
64.890261
20
0.903117
30
0
11
66.893669
21
-0.088813
31
0
39
0
210
0
220
0
230
1
0
LINE
5
8C
100
AcDbEntity
8
1
62
256
6
ByLayer
370
18
48
1
60
0
100
AcDbLine
10
0
20
-8
30
0
11
0
21
8
31
0
39
0
210
0
220
0
230
1
0
LINE
5
8D
100
AcDbEntity
8
1
62
256
6
ByLayer
370
18
48
1
60
0
100
AcDbLine
10
66.902034
20
-0.337372
30
0
11
66.654957
21
-1.249541
31
0
39
0
210
0
220
0
230
1
0
LINE
5
8E
100
AcDbEntity
8
1
62
256
6
ByLayer
370
18
48
1
60
0
100
AcDbLine
10
4
20
-1.849425
30
0
11
4
21
7.413645
31
0
39
0
210
0
220
0
230
1
0
LINE
5
8F
100
AcDbEntity
8
1
62
256
6
ByLayer
370
18
48
1
60
0
100
AcDbLine
10
66.984185
20
0.070951
30
0
11
67
21
0
31
0
39
0
210
0
220
0
230
1
0
LINE
5
90
100
AcDbEntity
8
1
62
256
6
ByLayer
370
18
48
1
60
0
100
AcDbLine
10
67
20
0
30
0
11
64.388548
21
-7.174907
31
0
39
0
210
0
220
0
230
1
0
LINE
5
91
100
AcDbEntity
8
1
62
256
6
ByLayer
370
18
48
1
60
0
100
AcDbLine
10
63.223533
20
-4.179113
30
0
11
66.893669
21
-0.088813
31
0
39
0
210
0
220
0
230
1
0
LINE
5
92
100
AcDbEntity
8
1
62
256
6
ByLayer
370
18
48
1
60
0
100
AcDbLine
10
66.902034
20
0.337372
30
0
11
66.654957
21
1.249541
31
0
39
0
210
0
220
0
230
1
0
LINE
5
93
100
AcDbEntity
8
1
62
256
6
ByLayer
370
18
48
1
60
0
100
AcDbLine
10
67
20
0
30
0
11
66.984185
21
-0.070951
31
0
39
0
210
0
220
0
230
1
0
LINE
5
94
100
AcDbEntity
8
1
62
256
6
ByLayer
370
13
48
1
60
0
100
AcDbLine
10
66.654957
20
1.249541
30
0
11
65.059719
21
1.249541
31
0
39
0
210
0
220
0
230
1
0
LINE
5
95
100
AcDbEntity
8
SK1
62
256
6
ByLayer
370
18
48
1
60
0
100
AcDbLine
10
0
20
-8
30
0
11
0
21
8
31
0
39
0
210
0
220
0
230
1
0
LINE
5
96
100
AcDbEntity
8
SK1
62
256
6
ByLayer
370
18
48
1
60
0
100
AcDbLine
10
-48
20
4.5
30
0
11
-48
21
-4.5
31
0
39
0
210
0
220
0
230
1
0
LINE
5
97
100
AcDbEntity
8
SK1
62
256
6
ByLayer
370
18
48
1
60
0
100
AcDbLine
10
-45.979274
20
8
30
0
11
-45.979274
21
-8
31
0
39
0
210
0
220
0
230
1
0
MTEXT
5
D6
100
AcDbEntity
8
SK6
62
256
6
ByLayer
370
13
48
1
60
0
100
AcDbMText
10
11.629169
20
39.882694
30
0
210
0
220
0
230
1
1
\W0.7542;R840-1500-30-A0A1220
40
3.5
41
0
44
1.084337
50
0
71
8
72
5
7
iso_b_vert
0
DIMENSION
5
E3
100
AcDbEntity
8
SK2
62
256
6
ByLayer
370
13
48
1
60
0
100
AcDbDimension
2
DimnDraft3D1
10
64.43
20
-17.713398
30
0
11
30.180059
21
-17.713398
31
0
70
32
71
5
72
1
41
1
210
0
220
0
230
1
3
Standard
100
AcDbAlignedDimension
13
0
23
-1.5875
33
0
14
64.43
24
-9.0875
34
0
50
0
100
AcDbRotatedDimension
1001
ACAD
1000
DSTYLE
1002
{
1070
   279
1070
     0
1070
   172
1070
     1
1070
   173
1070
     1
1070
   340
1005
D7
1070
   271
1070
     2
1070
   272
1070
     2
1070
    77
1070
     1
1070
    73
1070
     0
1070
   171
1070
     3
1070
   274
1070
     4
1070
   177
1070
    35
1070
   176
1070
    35
1070
   178
1070
    35
1070
    48
1040
-0.005
1070
    41
1041
3.5
1070
   147
1041
1.75
1070
    42
1041
1.5875
1070
    44
1041
2.0
1070
   140
1041
3.5
1070
   343
1005
0
1070
   344
1005
0
1002
}
0
DIMENSION
5
ED
100
AcDbEntity
8
SK2
62
256
6
ByLayer
370
13
48
1
60
0
100
AcDbDimension
2
DimnDraft3D2
10
67
20
-36.692985
30
0
11
8.2713
21
-36.692985
31
0
70
32
71
5
72
1
41
1
210
0
220
0
230
1
3
Standard
100
AcDbAlignedDimension
13
-48
23
-9.5875
33
0
14
67
24
-1.5875
34
0
50
0
100
AcDbRotatedDimension
1001
ACAD
1000
DSTYLE
1002
{
1070
   279
1070
     0
1070
   172
1070
     1
1070
   173
1070
     1
1070
   340
1005
D7
1070
   271
1070
     2
1070
   272
1070
     2
1070
    77
1070
     1
1070
    73
1070
     0
1070
   171
1070
     3
1070
   274
1070
     4
1070
   177
1070
    35
1070
   176
1070
    35
1070
   178
1070
    35
1070
    48
1040
-0.005
1070
    41
1041
3.5
1070
   147
1041
1.75
1070
    42
1041
1.5875
1070
    44
1041
2.0
1070
   140
1041
3.5
1070
   343
1005
0
1070
   344
1005
0
1002
}
0
DIMENSION
5
F7
100
AcDbEntity
8
SK2
62
256
6
ByLayer
370
13
48
1
60
0
100
AcDbDimension
2
DimnDraft3D3
10
67
20
19.109119
30
0
11
43.215
21
19.109119
31
0
70
32
71
5
72
1
41
1
210
0
220
0
230
1
3
Standard
100
AcDbAlignedDimension
13
19.43
23
9.0875
33
0
14
67
24
1.5875
34
0
50
0
100
AcDbRotatedDimension
1001
ACAD
1000
DSTYLE
1002
{
1070
   279
1070
     0
1070
   172
1070
     1
1070
   173
1070
     1
1070
   340
1005
D7
1070
   271
1070
     2
1070
   272
1070
     2
1070
    77
1070
     1
1070
    73
1070
     0
1070
   171
1070
     3
1070
   274
1070
     4
1070
   177
1070
    35
1070
   176
1070
    35
1070
   178
1070
    35
1070
    48
1040
-0.005
1070
    41
1041
3.5
1070
   147
1041
1.75
1070
    42
1041
1.5875
1070
    44
1041
2.0
1070
   140
1041
3.5
1070
   343
1005
0
1070
   344
1005
0
1002
}
0
DIMENSION
5
101
100
AcDbEntity
8
SK2
62
256
6
ByLayer
370
13
48
1
60
0
100
AcDbDimension
2
DimnDraft3D4
10
64.43
20
-20.302503
30
0
11
76.981425
21
-20.302503
31
0
70
32
71
5
72
1
41
1
210
0
220
0
230
1
3
Standard
100
AcDbAlignedDimension
13
67
23
-1.5875
33
0
14
64.43
24
-9.0875
34
0
50
0
100
AcDbRotatedDimension
1001
ACAD
1000
DSTYLE
1002
{
1070
   279
1070
     0
1070
   172
1070
     1
1070
   173
1070
     1
1070
   340
1005
D7
1070
   271
1070
     2
1070
   272
1070
     2
1070
    77
1070
     1
1070
    73
1070
     0
1070
   171
1070
     3
1070
   274
1070
     4
1070
   177
1070
    35
1070
   176
1070
    35
1070
   178
1070
    35
1070
    48
1040
-0.005
1070
    41
1041
3.5
1070
   147
1041
1.75
1070
    42
1041
1.5875
1070
    44
1041
2.0
1070
   140
1041
3.5
1070
   343
1005
0
1070
   344
1005
0
1002
}
0
DIMENSION
5
10B
100
AcDbEntity
8
SK2
62
256
6
ByLayer
370
13
48
1
60
0
100
AcDbDimension
2
DimnDraft3D5
10
64.43
20
-26.343428
30
0
11
5.190676
21
-26.343428
31
0
70
32
71
5
72
1
41
1
210
0
220
0
230
1
3
Standard
100
AcDbAlignedDimension
13
-48
23
-9.5875
33
0
14
64.43
24
-9.0875
34
0
50
0
100
AcDbRotatedDimension
1001
ACAD
1000
DSTYLE
1002
{
1070
   279
1070
     0
1070
   172
1070
     1
1070
   173
1070
     1
1070
   340
1005
D7
1070
   271
1070
     2
1070
   272
1070
     2
1070
    77
1070
     1
1070
    73
1070
     0
1070
   171
1070
     3
1070
   274
1070
     4
1070
   177
1070
    35
1070
   176
1070
    35
1070
   178
1070
    35
1070
    48
1040
-0.005
1070
    41
1041
3.5
1070
   147
1041
1.75
1070
    42
1041
1.5875
1070
    44
1041
2.0
1070
   140
1041
3.5
1070
   343
1005
0
1070
   344
1005
0
1002
}
0
DIMENSION
5
116
100
AcDbEntity
8
SK2
62
256
6
ByLayer
370
13
48
1
60
0
100
AcDbDimension
2
DimnDraft3D6
10
-58.625163
20
8
30
0
11
-59.250163
21
26.47418
31
0
70
33
71
5
72
1
41
1
210
0
220
0
230
1
3
Standard
100
AcDbAlignedDimension
13
-49.5875
23
-8
33
0
14
-49.5875
24
8
34
0
1001
ACAD
1000
DSTYLE
1002
{
1070
   279
1070
     0
1070
    74
1070
     0
1070
   173
1070
     1
1070
   340
1005
D7
1070
   271
1070
     3
1070
   272
1070
     2
1070
    77
1070
     1
1070
    73
1070
     0
1070
   171
1070
     3
1070
   274
1070
     4
1070
   177
1070
    35
1070
   176
1070
    35
1070
   178
1070
    35
1070
    48
1040
-0.005
1070
    41
1041
3.5
1070
   147
1041
1.75
1070
    42
1041
1.5875
1070
    44
1041
2.0
1070
   140
1041
3.5
1070
   343
1005
0
1070
   344
1005
0
1002
}
0
DIMENSION
5
121
100
AcDbEntity
8
2
62
256
6
ByLayer
370
13
48
1
60
0
100
AcDbDimension
2
DimnDraft3D7
10
81.083343
20
7.5
30
0
11
76.458343
21
24.567266
31
0
70
33
71
5
72
1
41
1
210
0
220
0
230
1
3
Standard
100
AcDbAlignedDimension
13
66.0175
23
-7.5
33
0
14
66.0175
24
7.5
34
0
1001
ACAD
1000
DSTYLE
1002
{
1070
   279
1070
     0
1070
    74
1070
     0
1070
   173
1070
     1
1070
   340
1005
D7
1070
   271
1070
     3
1070
   272
1070
     2
1070
    77
1070
     1
1070
    73
1070
     0
1070
   171
1070
     3
1070
   274
1070
     4
1070
   177
1070
    35
1070
   176
1070
    35
1070
   178
1070
    35
1070
    48
1040
-0.005
1070
    41
1041
3.5
1070
   147
1041
1.75
1070
    42
1041
1.5875
1070
    44
1041
2.0
1070
   140
1041
3.5
1070
   343
1005
0
1070
   344
1005
0
1002
}
0
ENDSEC
0
SECTION
2
OBJECTS
0
DICTIONARY
5
18c
330
0
100
AcDbDictionary
280
0
281
1
3
ACAD_GROUP
350
18d
3
ACAD_MLINESTYLE
350
18e
0
DICTIONARY
5
18d
330
0
100
AcDbDictionary
280
0
281
1
0
DICTIONARY
5
18e
330
0
100
AcDbDictionary
280
0
281
1
3
Standard
350
18
0
MLINESTYLE
5
18
330
18e
100
AcDbMlineStyle
2
Standard
70
0
3

62
256
51
90
52
90
71
2
49
-0.5
62
256
6
ByLayer
49
0.5
62
256
6
ByLayer
0
RASTERVARIABLES
5
17a
330

100
AcDbRasterVariables
90
0
70
1
71
1
72
1
0
ENDSEC
0
EOF
