0
SECTION
2
HEADER
9
$ACADVER
1
AC1015
9
$DWGCODEPAGE
3
ANSI_1252
9
$HANDSEED
5
195
9
$ANGBASE
50
0
9
$ANGDIR
70
0
9
$ATTMODE
70
1
9
$AUNITS
70
0
9
$AUPREC
70
0
9
$CECOLOR
62
256
9
$CELTSCALE
40
1
9
$CELTYPE
6
ByLayer
9
$CELWEIGHT
370
18
9
$CLAYER
8
0
9
$CMLJUST
70
0
9
$CMLSCALE
40
1
9
$CMLSTYLE
2
Standard
9
$DIMSTYLE
2
Standard
9
$TEXTSIZE
40
0.2
9
$TEXTSTYLE
7
Standard
9
$LUNITS
70
2
9
$LUPREC
70
4
9
$EXTNAMES
290
1
9
$INSUNITS
70
4
9
$LTSCALE
40
1
9
$LWDISPLAY
290
1
9
$PDMODE
70
0
9
$PDSIZE
40
0
9
$PLINEGEN
70
0
0
ENDSEC
0
SECTION
2
CLASSES
0
CLASS
1
RASTERVARIABLES
2
AcDbRasterVariables
3
ISM
90
0
280
0
281
0
0
ENDSEC
0
SECTION
2
TABLES
0
TABLE
2
VPORT
5
18b
100
AcDbSymbolTable
0
VPORT
5
1
100
AcDbSymbolTableRecord
100
AcDbViewportTableRecord
2
*Active
70
0
10
0
20
0
11
1
21
1
12
-1
22
1
13
0
23
0
14
0.5
24
0.5
15
10
25
10
16
0
26
0
36
1
17
0
27
0
37
0
0
ENDTAB
0
TABLE
2
LTYPE
5
18c
100
AcDbSymbolTable
0
LTYPE
5
14
100
AcDbSymbolTableRecord
100
AcDbLinetypeTableRecord
70
0
2
ByBlock
3

72
65
73
0
40
0
0
LTYPE
5
15
100
AcDbSymbolTableRecord
100
AcDbLinetypeTableRecord
70
0
2
ByLayer
3

72
65
73
0
40
0
0
LTYPE
5
16
100
AcDbSymbolTableRecord
100
AcDbLinetypeTableRecord
70
0
2
CONTINUOUS
3
Solid line
72
65
73
0
40
0
0
LTYPE
5
6A
100
AcDbSymbolTableRecord
100
AcDbLinetypeTableRecord
70
0
2
CENTER
3
____ _ ____ _ ____ _ ____
72
65
73
4
40
47.5
49
22
74
0
49
-8.5
74
0
49
8.5
74
0
49
-8.5
74
0
0
LTYPE
5
6B
100
AcDbSymbolTableRecord
100
AcDbLinetypeTableRecord
70
0
2
DASHED
3
__ __ __ __ __ __ __ __ __
72
65
73
2
40
25.72
49
12.86
74
0
49
-12.86
74
0
0
ENDTAB
0
TABLE
2
LAYER
5
18d
100
AcDbSymbolTable
0
LAYER
5
10
100
AcDbSymbolTableRecord
100
AcDbLayerTableRecord
2
0
70
0
62
7
6
CONTINUOUS
290
1
370
-3
390
0
0
LAYER
5
6D
100
AcDbSymbolTableRecord
100
AcDbLayerTableRecord
2
81
70
0
62
-3
6
CONTINUOUS
290
1
370
-3
390
0
0
LAYER
5
6F
100
AcDbSymbolTableRecord
100
AcDbLayerTableRecord
2
80
70
0
62
-6
6
CONTINUOUS
290
1
370
-3
390
0
0
LAYER
5
74
100
AcDbSymbolTableRecord
100
AcDbLayerTableRecord
2
2
70
0
62
7
6
CONTINUOUS
290
1
370
-3
390
0
0
LAYER
5
78
100
AcDbSymbolTableRecord
100
AcDbLayerTableRecord
2
1
70
0
62
4
6
CONTINUOUS
290
1
370
-3
390
0
0
LAYER
5
86
100
AcDbSymbolTableRecord
100
AcDbLayerTableRecord
2
4
70
0
62
-2
6
CENTER
290
1
370
-3
390
0
0
LAYER
5
177
100
AcDbSymbolTableRecord
100
AcDbLayerTableRecord
2
SK2
70
0
62
7
6
CONTINUOUS
290
1
370
-3
390
0
0
LAYER
5
178
100
AcDbSymbolTableRecord
100
AcDbLayerTableRecord
2
SK1
70
0
62
4
6
CONTINUOUS
290
1
370
-3
390
0
0
LAYER
5
179
100
AcDbSymbolTableRecord
100
AcDbLayerTableRecord
2
SK4
70
0
62
2
6
CENTER
290
1
370
-3
390
0
0
LAYER
5
17a
100
AcDbSymbolTableRecord
100
AcDbLayerTableRecord
2
SK6
70
0
62
5
6
CONTINUOUS
290
1
370
-3
390
0
0
ENDTAB
0
TABLE
2
STYLE
5
18e
100
AcDbSymbolTable
0
STYLE
5
11
100
AcDbSymbolTableRecord
100
AcDbTextStyleTableRecord
2
Standard
3
txt
70
0
71
0
40
0
41
1
42
0
50
0
0
STYLE
5
D3
100
AcDbSymbolTableRecord
100
AcDbTextStyleTableRecord
2
iso_b_vert
3
simplex.shx
70
0
71
0
40
0
41
1
42
0
50
0
0
STYLE
5
D4
100
AcDbSymbolTableRecord
100
AcDbTextStyleTableRecord
2
DWGDirectTextStyle
3
simplex
70
0
71
0
40
0
41
1
42
0
50
0
0
ENDTAB
0
TABLE
2
DIMSTYLE
5
18f
100
AcDbSymbolTable
100
AcDbDimStyleTable
0
DIMSTYLE
105
27
100
AcDbSymbolTableRecord
100
AcDbDimStyleTableRecord
2
Standard
70
0
3
<>
41
0.18
42
0.0625
44
0.18
140
0.18
147
0.09
73
0
74
0
77
1
271
2
275
0
278
52
280
0
340
11
0
ENDTAB
0
TABLE
2
VIEW
5
190
100
AcDbSymbolTable
0
ENDTAB
0
TABLE
2
UCS
5
191
100
AcDbSymbolTable
0
ENDTAB
0
TABLE
2
APPID
5
192
100
AcDbSymbolTable
0
APPID
5
12
100
AcDbSymbolTableRecord
100
AcDbRegAppTableRecord
2
ACAD
70
0
0
ENDTAB
0
TABLE
2
BLOCK_RECORD
5
193
100
AcDbSymbolTable
0
BLOCK_RECORD
5
1F
100
AcDbSymbolTableRecord
100
AcDbBlockTableRecord
2
*Model_Space
340
0
70
0
0
BLOCK_RECORD
5
1B
100
AcDbSymbolTableRecord
100
AcDbBlockTableRecord
2
*Paper_Space
340
0
70
0
0
BLOCK_RECORD
5
23
100
AcDbSymbolTableRecord
100
AcDbBlockTableRecord
2
*Paper_Space0
340
0
70
0
0
BLOCK_RECORD
5
D6
100
AcDbSymbolTableRecord
100
AcDbBlockTableRecord
2
DimnDraft3D1
340
0
70
0
0
BLOCK_RECORD
5
E0
100
AcDbSymbolTableRecord
100
AcDbBlockTableRecord
2
DimnDraft3D2
340
0
70
0
0
BLOCK_RECORD
5
EA
100
AcDbSymbolTableRecord
100
AcDbBlockTableRecord
2
DimnDraft3D3
340
0
70
0
0
BLOCK_RECORD
5
F4
100
AcDbSymbolTableRecord
100
AcDbBlockTableRecord
2
DimnDraft3D4
340
0
70
0
0
BLOCK_RECORD
5
FE
100
AcDbSymbolTableRecord
100
AcDbBlockTableRecord
2
DimnDraft3D5
340
0
70
0
0
BLOCK_RECORD
5
108
100
AcDbSymbolTableRecord
100
AcDbBlockTableRecord
2
DimnDraft3D6
340
0
70
0
0
BLOCK_RECORD
5
113
100
AcDbSymbolTableRecord
100
AcDbBlockTableRecord
2
DimnDraft3D7
340
0
70
0
0
ENDTAB
0
ENDSEC
0
SECTION
2
BLOCKS
0
BLOCK
5
20
100
AcDbEntity
8
0
100
AcDbBlockBegin
2
*Model_Space
70
0
10
0
20
0
30
0
3
*Model_Space
0
ENDBLK
5
21
100
AcDbEntity
8
0
100
AcDbBlockEnd
0
BLOCK
5
1C
100
AcDbEntity
8
0
100
AcDbBlockBegin
2
*Paper_Space
70
0
10
0
20
0
30
0
3
*Paper_Space
0
ENDBLK
5
1D
100
AcDbEntity
8
0
100
AcDbBlockEnd
0
BLOCK
5
24
100
AcDbEntity
8
0
100
AcDbBlockBegin
2
*Paper_Space0
70
0
10
0
20
0
30
0
3
*Paper_Space0
0
ENDBLK
5
25
100
AcDbEntity
8
0
100
AcDbBlockEnd
0
BLOCK
5
DD
100
AcDbEntity
8
0
100
AcDbBlockBegin
2
DimnDraft3D1
70
0
10
0
20
0
30
0
3
DimnDraft3D1
0
MTEXT
5
D7
100
AcDbEntity
8
SK2
62
256
6
ByLayer
370
13
48
1
60
0
100
AcDbMText
10
34.851375
20
-16.463398
30
0
210
0
220
0
230
1
1
\W0.7317;82,55
40
3.5
41
0
44
1.084337
50
0
71
7
72
5
7
iso_b_vert
0
LINE
5
D8
100
AcDbEntity
8
SK2
62
256
6
ByLayer
370
13
48
1
60
0
100
AcDbLine
10
0
20
-1.5875
30
0
11
0
21
-19.338398
31
0
39
0
210
0
220
0
230
1
0
LINE
5
D9
100
AcDbEntity
8
SK2
62
256
6
ByLayer
370
13
48
1
60
0
100
AcDbLine
10
82.55
20
-8.7125
30
0
11
82.55
21
-19.338398
31
0
39
0
210
0
220
0
230
1
0
LINE
5
DA
100
AcDbEntity
8
SK2
62
256
6
ByLayer
370
13
48
1
60
0
100
AcDbLine
10
0
20
-17.338398
30
0
11
82.55
21
-17.338398
31
0
39
0
210
0
220
0
230
1
0
SOLID
5
DB
100
AcDbEntity
8
SK2
62
256
6
ByLayer
370
13
48
1
60
0
100
AcDbTrace
10
0
20
-17.338398
30
0
11
3.499998
21
-16.877615
31
0
12
3.500002
22
-17.799182
32
0
13
0
23
-17.338398
33
0
39
0
210
0
220
0
230
1
0
SOLID
5
DC
100
AcDbEntity
8
SK2
62
256
6
ByLayer
370
13
48
1
60
0
100
AcDbTrace
10
82.55
20
-17.338398
30
0
11
79.050002
21
-17.799182
31
0
12
79.049998
22
-16.877615
32
0
13
82.55
23
-17.338398
33
0
39
0
210
0
220
0
230
1
0
ENDBLK
5
DE
100
AcDbEntity
8
0
100
AcDbBlockEnd
0
BLOCK
5
E7
100
AcDbEntity
8
0
100
AcDbBlockBegin
2
DimnDraft3D2
70
0
10
0
20
0
30
0
3
DimnDraft3D2
0
MTEXT
5
E1
100
AcDbEntity
8
SK2
62
256
6
ByLayer
370
13
48
1
60
0
100
AcDbMText
10
12.072221
20
-35.817985
30
0
210
0
220
0
230
1
1
\W0.6930;133,00
40
3.5
41
0
44
1.084337
50
0
71
7
72
5
7
iso_b_vert
0
LINE
5
E2
100
AcDbEntity
8
SK2
62
256
6
ByLayer
370
13
48
1
60
0
100
AcDbLine
10
-48
20
-9.5875
30
0
11
-48
21
-38.692985
31
0
39
0
210
0
220
0
230
1
0
LINE
5
E3
100
AcDbEntity
8
SK2
62
256
6
ByLayer
370
13
48
1
60
0
100
AcDbLine
10
85
20
-1.5875
30
0
11
85
21
-38.692985
31
0
39
0
210
0
220
0
230
1
0
LINE
5
E4
100
AcDbEntity
8
SK2
62
256
6
ByLayer
370
13
48
1
60
0
100
AcDbLine
10
-48
20
-36.692985
30
0
11
85
21
-36.692985
31
0
39
0
210
0
220
0
230
1
0
SOLID
5
E5
100
AcDbEntity
8
SK2
62
256
6
ByLayer
370
13
48
1
60
0
100
AcDbTrace
10
-48
20
-36.692985
30
0
11
-44.500002
21
-36.232202
31
0
12
-44.499998
22
-37.153769
32
0
13
-48
23
-36.692985
33
0
39
0
210
0
220
0
230
1
0
SOLID
5
E6
100
AcDbEntity
8
SK2
62
256
6
ByLayer
370
13
48
1
60
0
100
AcDbTrace
10
85
20
-36.692985
30
0
11
81.500002
21
-37.153769
31
0
12
81.499998
22
-36.232202
32
0
13
85
23
-36.692985
33
0
39
0
210
0
220
0
230
1
0
ENDBLK
5
E8
100
AcDbEntity
8
0
100
AcDbBlockEnd
0
BLOCK
5
F1
100
AcDbEntity
8
0
100
AcDbBlockBegin
2
DimnDraft3D3
70
0
10
0
20
0
30
0
3
DimnDraft3D3
0
MTEXT
5
EB
100
AcDbEntity
8
SK2
62
256
6
ByLayer
370
13
48
1
60
0
100
AcDbMText
10
43.701316
20
19.609119
30
0
210
0
220
0
230
1
1
\W0.7317;73,70
40
3.5
41
0
44
1.084337
50
0
71
7
72
5
7
iso_b_vert
0
LINE
5
EC
100
AcDbEntity
8
SK2
62
256
6
ByLayer
370
13
48
1
60
0
100
AcDbLine
10
11.3
20
8.7125
30
0
11
11.3
21
20.734119
31
0
39
0
210
0
220
0
230
1
0
LINE
5
ED
100
AcDbEntity
8
SK2
62
256
6
ByLayer
370
13
48
1
60
0
100
AcDbLine
10
85
20
1.5875
30
0
11
85
21
20.734119
31
0
39
0
210
0
220
0
230
1
0
LINE
5
EE
100
AcDbEntity
8
SK2
62
256
6
ByLayer
370
13
48
1
60
0
100
AcDbLine
10
11.3
20
18.734119
30
0
11
85
21
18.734119
31
0
39
0
210
0
220
0
230
1
0
SOLID
5
EF
100
AcDbEntity
8
SK2
62
256
6
ByLayer
370
13
48
1
60
0
100
AcDbTrace
10
11.3
20
18.734119
30
0
11
14.799998
21
19.194903
31
0
12
14.800002
22
18.273335
32
0
13
11.3
23
18.734119
33
0
39
0
210
0
220
0
230
1
0
SOLID
5
F0
100
AcDbEntity
8
SK2
62
256
6
ByLayer
370
13
48
1
60
0
100
AcDbTrace
10
85
20
18.734119
30
0
11
81.500002
21
18.273335
31
0
12
81.499998
22
19.194903
32
0
13
85
23
18.734119
33
0
39
0
210
0
220
0
230
1
0
ENDBLK
5
F2
100
AcDbEntity
8
0
100
AcDbBlockEnd
0
BLOCK
5
FB
100
AcDbEntity
8
0
100
AcDbBlockBegin
2
DimnDraft3D4
70
0
10
0
20
0
30
0
3
DimnDraft3D4
0
MTEXT
5
F5
100
AcDbEntity
8
SK2
62
256
6
ByLayer
370
13
48
1
60
0
100
AcDbMText
10
91.656425
20
-19.052503
30
0
210
0
220
0
230
1
1
\W0.7493;2,45
40
3.5
41
0
44
1.084337
50
0
71
7
72
5
7
iso_b_vert
0
LINE
5
F6
100
AcDbEntity
8
SK2
62
256
6
ByLayer
370
13
48
1
60
0
100
AcDbLine
10
85
20
-1.5875
30
0
11
85
21
-21.927503
31
0
39
0
210
0
220
0
230
1
0
LINE
5
F7
100
AcDbEntity
8
SK2
62
256
6
ByLayer
370
13
48
1
60
0
100
AcDbLine
10
82.55
20
-8.7125
30
0
11
82.55
21
-21.927503
31
0
39
0
210
0
220
0
230
1
0
LINE
5
F8
100
AcDbEntity
8
SK2
62
256
6
ByLayer
370
13
48
1
60
0
100
AcDbLine
10
73.8
20
-19.927503
30
0
11
99.181425
21
-19.927503
31
0
39
0
210
0
220
0
230
1
0
SOLID
5
F9
100
AcDbEntity
8
SK2
62
256
6
ByLayer
370
13
48
1
60
0
100
AcDbTrace
10
85
20
-19.927503
30
0
11
88.499998
21
-19.466719
31
0
12
88.500002
22
-20.388287
32
0
13
85
23
-19.927503
33
0
39
0
210
0
220
0
230
1
0
SOLID
5
FA
100
AcDbEntity
8
SK2
62
256
6
ByLayer
370
13
48
1
60
0
100
AcDbTrace
10
82.55
20
-19.927503
30
0
11
79.050002
21
-20.388287
31
0
12
79.049998
22
-19.466719
32
0
13
82.55
23
-19.927503
33
0
39
0
210
0
220
0
230
1
0
ENDBLK
5
FC
100
AcDbEntity
8
0
100
AcDbBlockEnd
0
BLOCK
5
105
100
AcDbEntity
8
0
100
AcDbBlockBegin
2
DimnDraft3D5
70
0
10
0
20
0
30
0
3
DimnDraft3D5
0
MTEXT
5
FF
100
AcDbEntity
8
SK2
62
256
6
ByLayer
370
13
48
1
60
0
100
AcDbMText
10
8.991597
20
-25.468428
30
0
210
0
220
0
230
1
1
\W0.6930;130,55
40
3.5
41
0
44
1.084337
50
0
71
7
72
5
7
iso_b_vert
0
LINE
5
100
100
AcDbEntity
8
SK2
62
256
6
ByLayer
370
13
48
1
60
0
100
AcDbLine
10
-48
20
-9.5875
30
0
11
-48
21
-28.343428
31
0
39
0
210
0
220
0
230
1
0
LINE
5
101
100
AcDbEntity
8
SK2
62
256
6
ByLayer
370
13
48
1
60
0
100
AcDbLine
10
82.55
20
-8.7125
30
0
11
82.55
21
-28.343428
31
0
39
0
210
0
220
0
230
1
0
LINE
5
102
100
AcDbEntity
8
SK2
62
256
6
ByLayer
370
13
48
1
60
0
100
AcDbLine
10
-48
20
-26.343428
30
0
11
82.55
21
-26.343428
31
0
39
0
210
0
220
0
230
1
0
SOLID
5
103
100
AcDbEntity
8
SK2
62
256
6
ByLayer
370
13
48
1
60
0
100
AcDbTrace
10
-48
20
-26.343428
30
0
11
-44.500002
21
-25.882645
31
0
12
-44.499998
22
-26.804212
32
0
13
-48
23
-26.343428
33
0
39
0
210
0
220
0
230
1
0
SOLID
5
104
100
AcDbEntity
8
SK2
62
256
6
ByLayer
370
13
48
1
60
0
100
AcDbTrace
10
82.55
20
-26.343428
30
0
11
79.050002
21
-26.804212
31
0
12
79.049998
22
-25.882645
32
0
13
82.55
23
-26.343428
33
0
39
0
210
0
220
0
230
1
0
ENDBLK
5
106
100
AcDbEntity
8
0
100
AcDbBlockEnd
0
BLOCK
5
110
100
AcDbEntity
8
0
100
AcDbBlockBegin
2
DimnDraft3D6
70
0
10
0
20
0
30
0
3
DimnDraft3D6
0
MTEXT
5
109
100
AcDbEntity
8
SK2
62
256
6
ByLayer
370
13
48
1
60
0
100
AcDbMText
10
-58.375163
20
27.34918
30
0
210
0
220
0
230
1
1
\W0.6930;16,000
40
3.5
41
0
44
1.084337
50
90
71
7
72
5
7
iso_b_vert
0
MTEXT
5
10A
100
AcDbEntity
8
SK2
62
256
6
ByLayer
370
13
48
1
60
0
100
AcDbMText
10
-58.375163
20
22.126524
30
0
210
0
220
0
230
1
1
%%c
40
3.5
41
0
44
1.084337
50
90
71
7
72
5
7
iso_b_vert
0
LINE
5
10B
100
AcDbEntity
8
SK2
62
256
6
ByLayer
370
13
48
1
60
0
100
AcDbLine
10
-49.5875
20
-8
30
0
11
-58.625163
21
-8
31
0
39
0
210
0
220
0
230
1
0
LINE
5
10C
100
AcDbEntity
8
SK2
62
256
6
ByLayer
370
13
48
1
60
0
100
AcDbLine
10
-49.5875
20
8
30
0
11
-58.625163
21
8
31
0
39
0
210
0
220
0
230
1
0
LINE
5
10D
100
AcDbEntity
8
SK2
62
256
6
ByLayer
370
13
48
1
60
0
100
AcDbLine
10
-56.625163
20
-8
30
0
11
-56.625163
21
38.862338
31
0
39
0
210
0
220
0
230
1
0
SOLID
5
10E
100
AcDbEntity
8
SK2
62
256
6
ByLayer
370
13
48
1
60
0
100
AcDbTrace
10
-56.625163
20
-8
30
0
11
-57.085946
21
-4.500002
31
0
12
-56.164379
22
-4.499998
32
0
13
-56.625163
23
-8
33
0
39
0
210
0
220
0
230
1
0
SOLID
5
10F
100
AcDbEntity
8
SK2
62
256
6
ByLayer
370
13
48
1
60
0
100
AcDbTrace
10
-56.625163
20
8
30
0
11
-56.164379
21
4.500002
31
0
12
-57.085946
22
4.499998
32
0
13
-56.625163
23
8
33
0
39
0
210
0
220
0
230
1
0
ENDBLK
5
111
100
AcDbEntity
8
0
100
AcDbBlockEnd
0
BLOCK
5
11B
100
AcDbEntity
8
0
100
AcDbBlockBegin
2
DimnDraft3D7
70
0
10
0
20
0
30
0
3
DimnDraft3D7
0
MTEXT
5
114
100
AcDbEntity
8
2
62
256
6
ByLayer
370
13
48
1
60
0
100
AcDbMText
10
95.333343
20
25.067266
30
0
210
0
220
0
230
1
1
\W0.7145;14,250
40
3.5
41
0
44
1.084337
50
90
71
7
72
5
7
iso_b_vert
0
MTEXT
5
115
100
AcDbEntity
8
2
62
256
6
ByLayer
370
13
48
1
60
0
100
AcDbMText
10
95.333343
20
19.84461
30
0
210
0
220
0
230
1
1
%%c
40
3.5
41
0
44
1.084337
50
90
71
7
72
5
7
iso_b_vert
0
LINE
5
116
100
AcDbEntity
8
2
62
256
6
ByLayer
370
13
48
1
60
0
100
AcDbLine
10
84.1375
20
-7.125
30
0
11
99.083343
21
-7.125
31
0
39
0
210
0
220
0
230
1
0
LINE
5
117
100
AcDbEntity
8
2
62
256
6
ByLayer
370
13
48
1
60
0
100
AcDbLine
10
84.1375
20
7.125
30
0
11
99.083343
21
7.125
31
0
39
0
210
0
220
0
230
1
0
LINE
5
118
100
AcDbEntity
8
2
62
256
6
ByLayer
370
13
48
1
60
0
100
AcDbLine
10
97.083343
20
-7.125
30
0
11
97.083343
21
36.948845
31
0
39
0
210
0
220
0
230
1
0
SOLID
5
119
100
AcDbEntity
8
2
62
256
6
ByLayer
370
13
48
1
60
0
100
AcDbTrace
10
97.083343
20
-7.125
30
0
11
96.622559
21
-3.625002
31
0
12
97.544126
22
-3.624998
32
0
13
97.083343
23
-7.125
33
0
39
0
210
0
220
0
230
1
0
SOLID
5
11A
100
AcDbEntity
8
2
62
256
6
ByLayer
370
13
48
1
60
0
100
AcDbTrace
10
97.083343
20
7.125
30
0
11
97.544126
21
3.625002
31
0
12
96.622559
22
3.624998
32
0
13
97.083343
23
7.125
33
0
39
0
210
0
220
0
230
1
0
ENDBLK
5
11C
100
AcDbEntity
8
0
100
AcDbBlockEnd
0
ENDSEC
0
SECTION
2
ENTITIES
0
ARC
5
99
100
AcDbEntity
8
1
62
256
6
ByLayer
370
18
48
1
60
0
100
AcDbCircle
39
0
10
0
20
7.2
30
0
40
0.800000000000002
210
0
220
0
230
1
100
AcDbArc
50
25.004772
51
90
0
ARC
5
9A
100
AcDbEntity
8
1
62
256
6
ByLayer
370
18
48
1
60
0
100
AcDbCircle
39
0
10
0
20
-7.2
30
0
40
0.800000000000002
210
0
220
0
230
1
100
AcDbArc
50
270
51
334.995228
0
ARC
5
9B
100
AcDbEntity
8
1
62
256
6
ByLayer
370
18
48
1
60
0
100
AcDbCircle
39
0
10
-1.450036
20
-7.87631
30
0
40
0.800000000000002
210
0
220
0
230
-1
100
AcDbArc
50
25.004772
51
90.034377
0
ARC
5
9C
100
AcDbEntity
8
1
62
256
6
ByLayer
370
18
48
1
60
0
100
AcDbCircle
39
0
10
-1.450036
20
7.87631
30
0
40
0.800000000000002
210
0
220
0
230
-1
100
AcDbArc
50
269.965623
51
334.995228
0
ELLIPSE
5
9D
100
AcDbEntity
8
1
62
256
6
ByLayer
370
18
48
1
60
0
100
AcDbEllipse
10
4.25
20
7.018527
30
0
11
0.25
21
0
31
0
210
0
220
0
230
1
40
0.999994
41
-3.13810215916188
42
-1.55418666725176
0
ELLIPSE
5
9E
100
AcDbEntity
8
1
62
256
6
ByLayer
370
18
48
1
60
0
100
AcDbEllipse
10
4.25
20
-7.018527
30
0
11
0.25
21
0
31
0
210
0
220
0
230
1
40
0.999994
41
1.58198656911544
42
3.1381021591619
0
ELLIPSE
5
9F
100
AcDbEntity
8
1
62
256
6
ByLayer
370
18
48
1
60
0
100
AcDbEllipse
10
83.697188
20
3.330832
30
0
11
1.09707674892174
21
-2.9911429341843
31
0
210
0
220
0
230
-1
40
0.082138
41
-1.58195778278792
42
-0.755280950347357
0
ELLIPSE
5
A0
100
AcDbEntity
8
1
62
256
6
ByLayer
370
13
48
1
60
0
100
AcDbEllipse
10
84.131213
20
3.330832
30
0
11
4.71528420103442
21
-2.08754923988387
31
0
210
0
220
0
230
-1
40
0.454714
41
1.58416090456262
42
1.92653125806451
0
ELLIPSE
5
A1
100
AcDbEntity
8
1
62
256
6
ByLayer
370
18
48
1
60
0
100
AcDbEllipse
10
85.000604
20
-0.001557
30
0
11
2.6126156060692
21
-7.12320875815719
31
0
210
0
220
0
230
-1
40
0.082138
41
-2.99295296709111
42
-2.90289967393602
0
ELLIPSE
5
A2
100
AcDbEntity
8
1
62
256
6
ByLayer
370
18
48
1
60
0
100
AcDbEllipse
10
84.859769
20
0.140812
30
0
11
0.086880372451726
21
0.290676908864867
31
0
210
0
220
0
230
-1
40
0.467765
41
1.68473212857539
42
2.36053717392948
0
ELLIPSE
5
A3
100
AcDbEntity
8
1
62
256
6
ByLayer
370
13
48
1
60
0
100
AcDbEllipse
10
83.119044
20
1.002683
30
0
11
0.133113781883907
21
0.268850741253513
31
0
210
0
220
0
230
1
40
0.40558
41
0.884485917130774
42
2.28074931872648
0
ELLIPSE
5
A4
100
AcDbEntity
8
1
62
256
6
ByLayer
370
18
48
1
60
0
100
AcDbEllipse
10
83.697188
20
-3.330832
30
0
11
1.09707674895753
21
2.99114293426567
31
0
210
0
220
0
230
-1
40
0.082138
41
0.755280950343702
42
1.5819577827648
0
ELLIPSE
5
A5
100
AcDbEntity
8
1
62
256
6
ByLayer
370
18
48
1
60
0
100
AcDbEllipse
10
85.015686
20
-0.063615
30
0
11
0.135658546067412
21
0.401200806317843
31
0
210
0
220
0
230
-1
40
0.065863
41
-2.32292776271703
42
-1.60246940662172
0
ELLIPSE
5
A6
100
AcDbEntity
8
1
62
256
6
ByLayer
370
13
48
1
60
0
100
AcDbEllipse
10
83.961754
20
3.19654
30
0
11
4.66819718010819
21
-2.39987033514415
31
0
210
0
220
0
230
-1
40
0.482873
41
1.53949524919984
42
1.87628191477158
0
ELLIPSE
5
A7
100
AcDbEntity
8
1
62
256
6
ByLayer
370
18
48
1
60
0
100
AcDbEllipse
10
85.000604
20
0.001556
30
0
11
2.61261548530245
21
7.12320841186432
31
0
210
0
220
0
230
-1
40
0.082138
41
2.9028996681111
42
2.992952963485
0
ELLIPSE
5
A8
100
AcDbEntity
8
1
62
256
6
ByLayer
370
18
48
1
60
0
100
AcDbEllipse
10
85.015686
20
0.063615
30
0
11
0.135658545965987
21
-0.401200806056465
31
0
210
0
220
0
230
-1
40
0.065863
41
1.60246940617819
42
2.32292776270148
0
POINT
5
6C
100
AcDbEntity
8
81
62
256
6
ByLayer
370
18
48
1
60
0
100
AcDbPoint
10
85
20
0
30
0
39
0
210
0
220
0
230
1
50
360
0
POINT
5
6E
100
AcDbEntity
8
80
62
256
6
ByLayer
370
18
48
1
60
0
100
AcDbPoint
10
0
20
0
30
0
39
0
210
0
220
0
230
1
50
360
0
POINT
5
70
100
AcDbEntity
8
SK2
62
256
6
ByLayer
370
18
48
1
60
1
100
AcDbPoint
10
-48
20
-8
30
0
39
0
210
0
220
0
230
1
50
360
0
POINT
5
72
100
AcDbEntity
8
SK2
62
256
6
ByLayer
370
18
48
1
60
1
100
AcDbPoint
10
-48
20
8
30
0
39
0
210
0
220
0
230
1
50
360
0
POINT
5
73
100
AcDbEntity
8
2
62
256
6
ByLayer
370
18
48
1
60
1
100
AcDbPoint
10
82.55
20
-7.125
30
0
39
0
210
0
220
0
230
1
50
360
0
POINT
5
75
100
AcDbEntity
8
2
62
256
6
ByLayer
370
18
48
1
60
1
100
AcDbPoint
10
82.55
20
7.125
30
0
39
0
210
0
220
0
230
1
50
360
0
SPLINE
5
A9
100
AcDbEntity
8
1
62
256
6
ByLayer
370
18
48
1
60
0
100
AcDbSpline
70
4
71
3
72
30
73
26
40
0
40
0
40
0
40
0
40
0.0594572859166805
40
0.120045657385231
40
0.165691586166925
40
0.201976505542625
40
0.230311940649547
40
0.2596596359461
40
0.297864939142872
40
0.363040112715869
40
0.427047748607674
40
0.485916402097817
40
0.538455127885384
40
0.582348662304512
40
0.637621135564639
40
0.675298475668193
40
0.721470511421609
40
0.775734545029566
40
0.822199722612769
40
0.849978385784753
40
0.878669610897703
40
0.908682261123255
40
0.942607149431655
40
0.989764106313668
40
1
40
1
40
1
40
1
41
1
10
4.25063845131527
20
-6.76841325293432
30
0
41
1
10
4.54437010090021
20
-6.76928823200885
30
0
41
1
10
5.13742018246236
20
-6.77067871728636
30
0
41
1
10
5.9559979680736
20
-6.77130039577722
30
0
41
1
10
6.6600477710364
20
-6.77141340853049
30
0
41
1
10
7.20480890988168
20
-6.77144892803275
30
0
41
1
10
7.66900703560052
20
-6.7714958263492
30
0
41
1
10
8.14271846000153
20
-6.77141004256291
30
0
41
1
10
8.79843284348533
20
-6.77213866152235
30
0
41
1
10
9.62532421141037
20
-6.77398115679557
30
0
41
1
10
10.5543903244232
20
-6.77360638820042
30
0
41
1
10
11.4209011498476
20
-6.77499171675697
30
0
41
1
10
12.1880802782331
20
-6.77487439071928
30
0
41
1
10
12.9375551154133
20
-6.77433065339668
30
0
41
1
10
13.6135949031927
20
-6.7752772734477
30
0
41
1
10
14.3009003372364
20
-6.77594584009034
30
0
41
1
10
14.9831992573933
20
-6.77587074233361
30
0
41
1
10
15.7089995383634
20
-6.77638065973275
30
0
41
1
10
16.3434783674249
20
-6.7772145852943
30
0
41
1
10
16.8509642303796
20
-6.77712510409455
30
0
41
1
10
17.2787279879648
20
-6.77719795105435
30
0
41
1
10
17.7347366015601
20
-6.77758938799064
30
0
41
1
10
18.2795407587289
20
-6.77796432306039
30
0
41
1
10
18.7316937949618
20
-6.77856065299144
30
0
41
1
10
19.0151193640869
20
-6.77865568556072
30
0
41
1
10
19.0656822633717
20
-6.77866958861111
30
0
0
SPLINE
5
AA
100
AcDbEntity
8
1
62
256
6
ByLayer
370
18
48
1
60
0
100
AcDbSpline
70
4
71
2
72
6
73
3
40
0
40
0
40
0
40
1
40
1
40
1
41
1
10
81.1519254746535
20
-6.8142548429841
30
0
41
1
10
81.8347648985024
20
-6.81217527675605
30
0
41
1
10
82.5165485124752
20
-6.81694190857948
30
0
0
SPLINE
5
AB
100
AcDbEntity
8
1
62
256
6
ByLayer
370
18
48
1
60
0
100
AcDbSpline
70
4
71
3
72
34
73
30
40
0
40
0
40
0
40
0
40
0.000273326883745
40
0.0328992275141639
40
0.0636414128539992
40
0.0944595748701142
40
0.125501241185023
40
0.156348716626987
40
0.198112299556637
40
0.239465090141198
40
0.280846640495627
40
0.319037462605873
40
0.348700029724284
40
0.37539385834292
40
0.411760366144477
40
0.457043000916039
40
0.500544637187854
40
0.539530366030131
40
0.576096968525606
40
0.619532605158925
40
0.662610244025326
40
0.696599549550801
40
0.730220667497889
40
0.774087836480428
40
0.818989406994705
40
0.861189038709919
40
0.913749855868719
40
0.963993730833443
40
1
40
1
40
1
40
1
41
1
10
61.0482688336071
20
6.79661148716949
30
0
41
1
10
61.0466484102966
20
6.79660432488078
30
0
41
1
10
60.8516136715702
20
6.7957498860809
30
0
41
1
10
60.4754333451804
20
6.79855340423544
30
0
41
1
10
59.9274269155072
20
6.80009878839016
30
0
41
1
10
59.3779458595235
20
6.8005478992394
30
0
41
1
10
58.8263422239161
20
6.79984980784036
30
0
41
1
10
58.2095776285543
20
6.79889270791574
30
0
41
1
10
57.5314403491703
20
6.79902731740771
30
0
41
1
10
56.790639132264
20
6.79942258760858
30
0
41
1
10
56.0710826643827
20
6.79800826363007
30
0
41
1
10
55.4210915262501
20
6.79760272523578
30
0
41
1
10
54.858497532159
20
6.79776786539605
30
0
41
1
10
54.3067579696185
20
6.79765662827094
30
0
41
1
10
53.6620764492001
20
6.79600832547888
30
0
41
1
10
52.9173847011539
20
6.79656945104338
30
0
41
1
10
52.1570982276969
20
6.79685110521569
30
0
41
1
10
51.448683041454
20
6.79532477951568
30
0
41
1
10
50.7406794890656
20
6.79509007847966
30
0
41
1
10
50.0083154476021
20
6.79553515790718
30
0
41
1
10
49.2912765019321
20
6.79472802572835
30
0
41
1
10
48.6326395760624
20
6.79381882547574
30
0
41
1
10
47.9693075487724
20
6.79415678296766
30
0
41
1
10
47.241010978293
20
6.79401290861981
30
0
41
1
10
46.4618261973888
20
6.7928754289309
30
0
41
1
10
45.6302821005777
20
6.79315407076217
30
0
41
1
10
44.7697013989289
20
6.79241904944189
30
0
41
1
10
43.9360967455115
20
6.79251200646084
30
0
41
1
10
43.4400968453831
20
6.78963925586046
30
0
41
1
10
43.2280831997414
20
6.78916402551471
30
0
0
SPLINE
5
AC
100
AcDbEntity
8
1
62
256
6
ByLayer
370
18
48
1
60
0
100
AcDbSpline
70
4
71
3
72
36
73
32
40
0
40
0
40
0
40
0
40
0.0361854980986473
40
0.0698897058027629
40
0.0992755119916949
40
0.125573034920604
40
0.148841481727939
40
0.171557286435916
40
0.202365355613677
40
0.243468140717267
40
0.282771025266884
40
0.31401112402571
40
0.352011223995233
40
0.391107899504965
40
0.421707485942909
40
0.450230318357274
40
0.487065752167335
40
0.524727937470921
40
0.563358234384103
40
0.606298244917233
40
0.654165268589598
40
0.692887198945878
40
0.720623740083705
40
0.756825622360536
40
0.80110428092517
40
0.846695735604618
40
0.893079528324979
40
0.939966784481018
40
0.967413135942093
40
0.995857915689107
40
1
40
1
40
1
40
1
41
1
10
39.5153792121983
20
-6.78874760272049
30
0
41
1
10
39.7673537094027
20
-6.78794563289091
30
0
41
1
10
40.2572285946243
20
-6.78717648360302
30
0
41
1
10
40.9818668356358
20
-6.7861819157267
30
0
41
1
10
41.6077662893314
20
-6.79046595888249
30
0
41
1
10
42.1644209219963
20
-6.79108028443559
30
0
41
1
10
42.6672167509647
20
-6.78896537084583
30
0
41
1
10
43.2280839114886
20
-6.78846959897598
30
0
41
1
10
43.8856978040955
20
-6.79248766102282
30
0
41
1
10
44.6937839650531
20
-6.79230250196571
30
0
41
1
10
45.4958662413076
20
-6.79317856210642
30
0
41
1
10
46.2779538167493
20
-6.7927941161964
30
0
41
1
10
47.0580109146741
20
-6.79381964681659
30
0
41
1
10
47.8336087804892
20
-6.79419745674917
30
0
41
1
10
48.5409239685979
20
-6.7938211770464
30
0
41
1
10
49.2319550496624
20
-6.79457405381328
30
0
41
1
10
49.9738522911691
20
-6.79559088433993
30
0
41
1
10
50.7885239393064
20
-6.79495560224274
30
0
41
1
10
51.6471420103078
20
-6.79579948766039
30
0
41
1
10
52.5792835508732
20
-6.79712236191341
30
0
41
1
10
53.5120739104866
20
-6.79565089794255
30
0
41
1
10
54.3353790609188
20
-6.79779401258094
30
0
41
1
10
55.0746804083822
20
-6.79771465328196
30
0
41
1
10
55.8540092985176
20
-6.7975826183968
30
0
41
1
10
56.7618649801978
20
-6.79960915911039
30
0
41
1
10
57.7432646540811
20
-6.79867632105746
30
0
41
1
10
58.7425582429632
20
-6.79969077169099
30
0
41
1
10
59.6142240981735
20
-6.80059192278921
30
0
41
1
10
60.3440059220816
20
-6.7994088567078
30
0
41
1
10
60.7679987426993
20
-6.79575609142572
30
0
41
1
10
61.0022812196874
20
-6.7967172314244
30
0
41
1
10
61.0320908692499
20
-6.79685773872524
30
0
0
SPLINE
5
AD
100
AcDbEntity
8
1
62
256
6
ByLayer
370
18
48
1
60
0
100
AcDbSpline
70
4
71
3
72
33
73
29
40
0
40
0
40
0
40
0
40
0.0120122716270312
40
0.0531517783753796
40
0.0923188636072347
40
0.153348341195797
40
0.219552588614184
40
0.261494759626443
40
0.296697467713861
40
0.324263566359012
40
0.360963726614679
40
0.405772738120769
40
0.43799359369199
40
0.465000675771049
40
0.501656625085483
40
0.539633555927199
40
0.573992613103871
40
0.604713887958428
40
0.631765666425483
40
0.687030950248072
40
0.742381355969846
40
0.770588948388404
40
0.796887927256102
40
0.820996923650545
40
0.849424241061179
40
0.891343212408453
40
0.946963687506739
40
1
40
1
40
1
40
1
41
1
10
19.4257720135203
20
6.77491180254583
30
0
41
1
10
19.3648314485696
20
6.77470239733071
30
0
41
1
10
19.0957977383167
20
6.77400100696153
30
0
41
1
10
18.639168623325
20
6.77815427006743
30
0
41
1
10
17.933330555318
20
6.77763504311744
30
0
41
1
10
17.0881500462522
20
6.77744902226416
30
0
41
1
10
16.2320253479846
20
6.77717538989464
30
0
41
1
10
15.5058778318914
20
6.77616012960505
30
0
41
1
10
14.9755655274732
20
6.775938465048
30
0
41
1
10
14.4717672794109
20
6.77591566284261
30
0
41
1
10
13.9193228754931
20
6.77567832837246
30
0
41
1
10
13.3433015882249
20
6.77483746935326
30
0
41
1
10
12.8163733387783
20
6.77447692739699
30
0
41
1
10
12.3307393389219
20
6.77470805427475
30
0
41
1
10
11.8159546787117
20
6.77509683285825
30
0
41
1
10
11.2639318219864
20
6.77459721428855
30
0
41
1
10
10.7419662930567
20
6.77397352878828
30
0
41
1
10
10.2753338551422
20
6.77383075902483
30
0
41
1
10
9.70281554037265
20
6.77372751588527
30
0
41
1
10
9.00555488611482
20
6.77294510380966
30
0
41
1
10
8.30244286744568
20
6.77136763285961
30
0
41
1
10
7.74604154684016
20
6.77150687479931
30
0
41
1
10
7.34786579305884
20
6.77147462401024
30
0
41
1
10
6.94858523590571
20
6.77145853513068
30
0
41
1
10
6.47018126997159
20
6.77139968264154
30
0
41
1
10
5.83220736912867
20
6.77123499629605
30
0
41
1
10
5.06956104013929
20
6.77053682735541
30
0
41
1
10
4.5192499043165
20
6.76922532120037
30
0
41
1
10
4.25063922547574
20
6.76842537609579
30
0
0
SPLINE
5
AE
100
AcDbEntity
8
1
62
256
6
ByLayer
370
18
48
1
60
0
100
AcDbSpline
70
4
71
3
72
11
73
7
40
0
40
0
40
0
40
0
40
0.0539726674181763
40
0.273784856160351
40
0.598794309914628
40
1
40
1
40
1
40
1
41
1
10
62.2244374689875
20
-1.70363912880168
30
0
41
1
10
62.2242330444489
20
-1.70356238121542
30
0
41
1
10
62.2253882242715
20
-1.70418354676346
30
0
41
1
10
62.255201035634
20
-1.71828614760827
30
0
41
1
10
62.3507562070023
20
-1.76494259269975
30
0
41
1
10
62.4286039350126
20
-1.80441702458194
30
0
41
1
10
62.4772380954531
20
-1.82935019080338
30
0
0
SPLINE
5
AF
100
AcDbEntity
8
1
62
256
6
ByLayer
370
13
48
1
60
0
100
AcDbSpline
70
4
71
3
72
26
73
22
40
0
40
0
40
0
40
0
40
0.0500741906135642
40
0.0500741906135642
40
0.136431082375967
40
0.136431082375967
40
0.309144865900774
40
0.309144865900774
40
0.395501757663177
40
0.395501757663177
40
0.438680203544379
40
0.438680203544379
40
0.48185864942558
40
0.48185864942558
40
0.654572432950387
40
0.654572432950387
40
0.74092932471279
40
0.74092932471279
40
0.827286216475193
40
0.827286216475193
40
1
40
1
40
1
40
1
41
1
10
4.25068718979625
20
-6.76856936885153
30
0
41
1
10
4.25070208947423
20
-6.7683576754477
30
0
41
1
10
4.25071670965914
20
-6.76375921264875
30
0
41
1
10
4.25075595133367
20
-6.73914074504918
30
0
41
1
10
4.25078024454442
20
-6.7100483143175
30
0
41
1
10
4.25085039169738
20
-6.58463754388444
30
0
41
1
10
4.25089410251687
20
-6.45078312831345
30
0
41
1
10
4.2509575670193
20
-6.17493979388729
30
0
41
1
10
4.25097843481785
20
-6.06983764141316
30
0
41
1
10
4.25100888198801
20
-5.89485493599457
30
0
41
1
10
4.2510188937608
20
-5.83363868713261
30
0
41
1
10
4.25103865220163
20
-5.70542574896575
30
0
41
1
10
4.25104841882725
20
-5.63827733625541
30
0
41
1
10
4.25109625809608
20
-5.29036233321145
30
0
41
1
10
4.25113155685514
20
-4.97330056399696
30
0
41
1
10
4.25117895525753
20
-4.44114338123737
30
0
41
1
10
4.2511938302132
20
-4.25388547613102
30
0
41
1
10
4.25122106467845
20
-3.86110847521778
30
0
41
1
10
4.25123322629341
20
-3.65849533370513
30
0
41
1
10
4.25126468800718
20
-3.03263160609794
30
0
41
1
10
4.25127908172763
20
-2.59156465154737
30
0
41
1
10
4.25128391071317
20
-2.12583958535328
30
0
0
SPLINE
5
B0
100
AcDbEntity
8
1
62
256
6
ByLayer
370
18
48
1
60
0
100
AcDbSpline
70
4
71
3
72
36
73
32
40
0
40
0
40
0
40
0
40
0.112543121393064
40
0.112543121393064
40
0.168814682089596
40
0.168814682089596
40
0.225086242786128
40
0.225086242786128
40
0.28135780348266
40
0.28135780348266
40
0.337629364179192
40
0.337629364179192
40
0.450172485572256
40
0.450172485572256
40
0.506444046268789
40
0.506444046268789
40
0.562715606965322
40
0.562715606965322
40
0.618987167661855
40
0.618987167661855
40
0.675258728358388
40
0.675258728358388
40
0.787801849751454
40
0.787801849751454
40
0.844073410447986
40
0.844073410447986
40
0.900344971144518
40
0.900344971144518
40
0.95661653184105
40
0.95661653184105
40
1
40
1
40
1
40
1
41
1
10
21.157544529425
20
-1.9742327973309
30
0
41
1
10
21.7983395992549
20
-2.30610568941185
30
0
41
1
10
22.439466934261
20
-2.6261605088572
30
0
41
1
10
23.3993311774458
20
-3.09314573549534
30
0
41
1
10
23.7188288097669
20
-3.24685055705118
30
0
41
1
10
24.357745857453
20
-3.54884636587701
30
0
41
1
10
24.6778082322004
20
-3.69608883262461
30
0
41
1
10
25.318732277523
20
-3.98381419713857
30
0
41
1
10
25.6397713557869
20
-4.12439207037551
30
0
41
1
10
26.2814780675029
20
-4.39888248543153
30
0
41
1
10
26.601395092689
20
-4.53295244599624
30
0
41
1
10
27.5606777517743
20
-4.92209657322675
30
0
41
1
10
28.2011383862498
20
-5.16217022811034
30
0
41
1
10
29.1607758755826
20
-5.49686655375731
30
0
41
1
10
29.4801858665915
20
-5.60447360456968
30
0
41
1
10
30.1203096747622
20
-5.80902547240987
30
0
41
1
10
30.4414322728675
20
-5.90595782251538
30
0
41
1
10
31.0832003793054
20
-6.08919845377471
30
0
41
1
10
31.4037106432958
20
-6.17544536265595
30
0
41
1
10
32.0436641559579
20
-6.33745631413399
30
0
41
1
10
32.3627897803302
20
-6.41343965427376
30
0
41
1
10
33.3216192944789
20
-6.62299731165797
30
0
41
1
10
33.9622135958649
20
-6.73904164589646
30
0
41
1
10
34.9229810089385
20
-6.87885170287925
30
0
41
1
10
35.2432885180591
20
-6.91977362409008
30
0
41
1
10
35.8841872733028
20
-6.98868011140007
30
0
41
1
10
36.2045964749518
20
-7.01686770521584
30
0
41
1
10
36.8449339459664
20
-7.06102359263835
30
0
41
1
10
37.1648746082867
20
-7.07698695326371
30
0
41
1
10
37.7307809636587
20
-7.09434892917076
30
0
41
1
10
37.976848432488
20
-7.09821187966077
30
0
41
1
10
38.2232311716906
20
-7.09836889766032
30
0
0
SPLINE
5
B1
100
AcDbEntity
8
1
62
256
6
ByLayer
370
18
48
1
60
0
100
AcDbSpline
70
4
71
3
72
30
73
26
40
0
40
0
40
0
40
0
40
0.0967942739134704
40
0.0967942739134704
40
0.172061417754014
40
0.172061417754014
40
0.247328561594558
40
0.247328561594558
40
0.322595705435102
40
0.322595705435102
40
0.397862849275646
40
0.397862849275646
40
0.548397136956736
40
0.548397136956736
40
0.62366428079728
40
0.62366428079728
40
0.698931424637824
40
0.698931424637824
40
0.774198568478368
40
0.774198568478368
40
0.849465712318912
40
0.849465712318912
40
0.924732856159456
40
0.924732856159456
40
1
40
1
40
1
40
1
41
1
10
69.8478754214639
20
5.18749925161467
30
0
41
1
10
70.2591302428115
20
5.33846052840644
30
0
41
1
10
70.67028582172
20
5.48189201200961
30
0
41
1
10
71.4003480224274
20
5.72416012897477
30
0
41
1
10
71.7197211135725
20
5.82541871010892
30
0
41
1
10
72.3602991064533
20
6.01658405579829
30
0
41
1
10
72.6814141309324
20
6.10693105629954
30
0
41
1
10
73.322239578616
20
6.27675137417503
30
0
41
1
10
73.6421569843644
20
6.35630159945202
30
0
41
1
10
74.2807201952602
20
6.50476003246169
30
0
41
1
10
74.5999125789359
20
6.57320111988409
30
0
41
1
10
75.55880046278
20
6.76031077252964
30
0
41
1
10
76.1987424579891
20
6.86174561217581
30
0
41
1
10
77.1582815675156
20
6.97879931273798
30
0
41
1
10
77.4788703857351
20
7.01159322610485
30
0
41
1
10
78.1196200297821
20
7.06460614214257
30
0
41
1
10
78.4399115081694
20
7.08491839446256
30
0
41
1
10
79.0800005710096
20
7.11324667670326
30
0
41
1
10
79.399675840918
20
7.12126302333161
30
0
41
1
10
80.0387762361993
20
7.12471754814587
30
0
41
1
10
80.3589087925189
20
7.12015927787937
30
0
41
1
10
81.0001568362634
20
7.09866130339779
30
0
41
1
10
81.321002276951
20
7.08171719689958
30
0
41
1
10
81.9613937584431
20
7.03544765285625
30
0
41
1
10
82.2809377425851
20
7.00603125490895
30
0
41
1
10
82.600395614168
20
6.97043125060489
30
0
0
SPLINE
5
B2
100
AcDbEntity
8
1
62
256
6
ByLayer
370
18
48
1
60
0
100
AcDbSpline
70
4
71
3
72
8
73
4
40
0
40
0
40
0
40
0
40
1
40
1
40
1
40
1
41
1
10
82.5034437246398
20
-7.07488785030097
30
0
41
1
10
82.5299431651687
20
-7.0035858975898
30
0
41
1
10
82.5564174789874
20
-6.93223941096505
30
0
41
1
10
82.5828666490926
20
-6.86084836029099
30
0
0
SPLINE
5
B3
100
AcDbEntity
8
1
62
256
6
ByLayer
370
18
48
1
60
0
100
AcDbSpline
70
4
71
3
72
8
73
4
40
0
40
0
40
0
40
0
40
1
40
1
40
1
40
1
41
1
10
82.6040896309521
20
-6.77389431786631
30
0
41
1
10
82.5710803842846
20
-6.80121169811105
30
0
41
1
10
82.5428811742137
20
-6.81496203892428
30
0
41
1
10
82.5195689393325
20
-6.81492832969846
30
0
0
SPLINE
5
B4
100
AcDbEntity
8
1
62
256
6
ByLayer
370
18
48
1
60
0
100
AcDbSpline
70
4
71
3
72
69
73
65
40
0
40
0
40
0
40
0
40
0.124999999999992
40
0.124999999999992
40
0.187499999999989
40
0.187499999999989
40
0.249999999999986
40
0.249999999999986
40
0.374999999999979
40
0.374999999999979
40
0.499999999999973
40
0.499999999999973
40
0.56249999999997
40
0.56249999999997
40
0.624999999999967
40
0.624999999999967
40
0.687499999999964
40
0.687499999999964
40
0.718749999999962
40
0.718749999999962
40
0.726562499999962
40
0.726562499999962
40
0.730468749999963
40
0.730468749999963
40
0.734374999999963
40
0.734374999999963
40
0.738281249999963
40
0.738281249999963
40
0.740234374999963
40
0.740234374999963
40
0.742187499999963
40
0.749999999999963
40
0.749999999999963
40
0.765624999999965
40
0.765624999999965
40
0.781249999999967
40
0.781249999999967
40
0.796874999999968
40
0.796874999999968
40
0.804687499999969
40
0.804687499999969
40
0.81249999999997
40
0.81249999999997
40
0.828124999999973
40
0.828124999999973
40
0.843749999999975
40
0.843749999999975
40
0.851562499999976
40
0.851562499999976
40
0.859374999999978
40
0.859374999999978
40
0.87499999999998
40
0.87499999999998
40
0.890624999999983
40
0.890624999999983
40
0.906249999999985
40
0.906249999999985
40
0.921874999999988
40
0.921874999999988
40
0.937499999999991
40
0.937499999999991
40
0.968749999999995
40
0.968749999999995
40
1
40
1
40
1
40
1
41
1
10
21.1575185460161
20
-1.97425277718943
30
0
41
1
10
20.2312551513471
20
-1.49565605596936
30
0
41
1
10
19.2952501183606
20
-1.02565426048773
30
0
41
1
10
17.8697460293208
20
-0.350871065572079
30
0
41
1
10
17.3920604637557
20
-0.131633341409327
30
0
41
1
10
16.4339394597006
20
0.290515128558013
30
0
41
1
10
15.9529675878929
20
0.493668683198479
30
0
41
1
10
14.5025265394459
20
1.07464007607152
30
0
41
1
10
13.5254420000554
20
1.42365995683795
30
0
41
1
10
11.5429503195409
20
2.02540394250536
30
0
41
1
10
10.5375510532914
20
2.27820354627903
30
0
41
1
10
9.00418934506902
20
2.57696790522172
30
0
41
1
10
8.48887957040782
20
2.66321291228235
30
0
41
1
10
7.44935286165355
20
2.80796769696633
30
0
41
1
10
6.92451638512514
20
2.86648320196872
30
0
41
1
10
5.87458537856574
20
2.95396209819594
30
0
41
1
10
5.34847091601813
20
2.98312288958516
30
0
41
1
10
4.55748602637752
20
3.00429009247392
30
0
41
1
10
4.29351249157568
20
3.00757255887129
30
0
41
1
10
3.96364049493403
20
3.00682568395922
30
0
41
1
10
3.89766395779117
20
3.00643378720397
30
0
41
1
10
3.7987003062338
20
3.00547926742072
30
0
41
1
10
3.76571542441198
20
3.00510000718717
30
0
41
1
10
3.69975168586515
20
3.00421885578058
30
0
41
1
10
3.6667621120811
20
3.00393585710444
30
0
41
1
10
3.60123179444812
20
2.99423212432265
30
0
41
1
10
3.56917573574688
20
2.98608030660267
30
0
41
1
10
3.52555603422994
20
2.96412035479244
30
0
41
1
10
3.51197147161929
20
2.9548398204366
30
0
41
1
10
3.48434780818007
20
2.9374123350884
30
0
41
1
10
3.41549123513988
20
2.89355322487171
30
0
41
1
10
3.34766683948831
20
2.84821209722861
30
0
41
1
10
3.18705559184915
20
2.73625914807789
30
0
41
1
10
3.08300686877581
20
2.65753052676385
30
0
41
1
10
2.8839149725105
20
2.4916006639119
30
0
41
1
10
2.788629418223
20
2.4042526662835
30
0
41
1
10
2.60843155794245
20
2.21875502433633
30
0
41
1
10
2.52350006171156
20
2.12062639778549
30
0
41
1
10
2.40597872080312
20
1.96303430851492
30
0
41
1
10
2.36850509165396
20
1.90877245179541
30
0
41
1
10
2.29846358784223
20
1.79815595646002
30
0
41
1
10
2.2657386933773
20
1.74160028711594
30
0
41
1
10
2.17500282172489
20
1.56786948498626
30
0
41
1
10
2.1243080780522
20
1.44641024281958
30
0
41
1
10
2.04684754103189
20
1.19146822371914
30
0
41
1
10
2.0213097605961
20
1.06200688034346
30
0
41
1
10
2.00263479155734
20
0.86479790338592
30
0
41
1
10
1.99968463879182
20
0.798558348967958
30
0
41
1
10
2.00034162399967
20
0.665062657182034
30
0
41
1
10
2.00400244665042
20
0.597433150612375
30
0
41
1
10
2.02439199162561
20
0.396726793142392
30
0
41
1
10
2.05031103425313
20
0.265393348976545
30
0
41
1
10
2.12286866721072
20
0.0068628782310896
30
0
41
1
10
2.16986156873415
20
-0.120795543924515
30
0
41
1
10
2.27814781694329
20
-0.365567545199468
30
0
41
1
10
2.33965494175052
20
-0.483687573518466
30
0
41
1
10
2.47427723001496
20
-0.713182858648281
30
0
41
1
10
2.54741075879591
20
-0.824547612266542
30
0
41
1
10
2.70321065130909
20
-1.04172111665349
30
0
41
1
10
2.78541516773831
20
-1.146837022873
30
0
41
1
10
3.04009311257235
20
-1.451099362707
30
0
41
1
10
3.22147211837614
20
-1.64067041988795
30
0
41
1
10
3.59988294054381
20
-2.00159146159015
30
0
41
1
10
3.79700910646588
20
-2.17283728624946
30
0
41
1
10
4.00000004981601
20
-2.337134555327
30
0
0
SPLINE
5
B5
100
AcDbEntity
8
1
62
256
6
ByLayer
370
18
48
1
60
0
100
AcDbSpline
70
4
71
3
72
104
73
100
40
0
40
0
40
0
40
0
40
0.0104032460392557
40
0.0104032460392557
40
0.0485100949121112
40
0.0485100949121112
40
0.0675635193485386
40
0.0675635193485386
40
0.086616943784966
40
0.086616943784966
40
0.105670368221393
40
0.105670368221393
40
0.124723792657821
40
0.124723792657821
40
0.143777217094248
40
0.143777217094248
40
0.162830641530676
40
0.162830641530676
40
0.181884065967103
40
0.181884065967103
40
0.20093749040353
40
0.20093749040353
40
0.219990914839958
40
0.219990914839958
40
0.239044339276385
40
0.239044339276385
40
0.258097763712813
40
0.258097763712813
40
0.27715118814924
40
0.27715118814924
40
0.296204612585667
40
0.296204612585667
40
0.315258037022095
40
0.315258037022095
40
0.35336488589495
40
0.35336488589495
40
0.372418310331377
40
0.372418310331377
40
0.391471734767804
40
0.391471734767804
40
0.410525159204231
40
0.410525159204231
40
0.429578583640658
40
0.429578583640658
40
0.448632008077085
40
0.448632008077085
40
0.467685432513512
40
0.467685432513512
40
0.486738856949939
40
0.486738856949939
40
0.505792281386366
40
0.505792281386366
40
0.524845705822793
40
0.524845705822793
40
0.54389913025922
40
0.54389913025922
40
0.562952554695647
40
0.562952554695647
40
0.582005979132074
40
0.582005979132074
40
0.601059403568501
40
0.601059403568501
40
0.620112828004929
40
0.620112828004929
40
0.639166252441356
40
0.639166252441356
40
0.658219676877783
40
0.658219676877783
40
0.67727310131421
40
0.67727310131421
40
0.696326525750637
40
0.696326525750637
40
0.715379950187064
40
0.715379950187064
40
0.734433374623491
40
0.734433374623491
40
0.772540223496344
40
0.772540223496344
40
0.791593647932771
40
0.791593647932771
40
0.810647072369198
40
0.810647072369198
40
0.829700496805625
40
0.829700496805625
40
0.848753921242051
40
0.848753921242051
40
0.867807345678478
40
0.867807345678478
40
0.886860770114905
40
0.886860770114905
40
0.905914194551332
40
0.905914194551332
40
0.924967618987759
40
0.924967618987759
40
0.944021043424185
40
0.944021043424185
40
0.963074467860612
40
0.963074467860612
40
1
40
1
40
1
40
1
41
1
10
69.8555824201211
20
-5.19803175890289
30
0
41
1
10
69.6787368139026
20
-5.25634748229908
30
0
41
1
10
69.50182590475
20
-5.31338980093716
30
0
41
1
10
68.6766175599649
20
-5.57338753097184
30
0
41
1
10
68.0274018667521
20
-5.76102284997327
30
0
41
1
10
67.0554888995011
20
-6.00742650498421
30
0
41
1
10
66.7317147480622
20
-6.08383662464803
30
0
41
1
10
66.08448527294
20
-6.22437976479256
30
0
41
1
10
65.7611621591331
20
-6.28857385967459
30
0
41
1
10
65.114301201308
20
-6.40736689755076
30
0
41
1
10
64.7905656418924
20
-6.46156422029344
30
0
41
1
10
64.1423808142659
20
-6.55816607191429
30
0
41
1
10
63.817728922724
20
-6.60032048312172
30
0
41
1
10
63.1685573528972
20
-6.6728519970975
30
0
41
1
10
62.8446761789358
20
-6.7035809612839
30
0
41
1
10
62.1971329439674
20
-6.75292397274839
30
0
41
1
10
61.873427017209
20
-6.77146229399418
30
0
41
1
10
61.2260412478894
20
-6.79517483840004
30
0
41
1
10
60.902340329426
20
-6.80056750245117
30
0
41
1
10
60.2549873087965
20
-6.80029205235505
30
0
41
1
10
59.9315239462398
20
-6.79452452090482
30
0
41
1
10
59.2835064239626
20
-6.77042305191557
30
0
41
1
10
58.9587318370996
20
-6.75178165683337
30
0
41
1
10
58.3094580748031
20
-6.70239669511412
30
0
41
1
10
57.9851500633486
20
-6.6720817210433
30
0
41
1
10
57.3373916980491
20
-6.59984019845547
30
0
41
1
10
57.0140179579554
20
-6.55772925998798
30
0
41
1
10
56.3667890836296
20
-6.4610318189406
30
0
41
1
10
56.0430432914935
20
-6.40660324261557
30
0
41
1
10
55.3952708661108
20
-6.28737905879612
30
0
41
1
10
55.0712358421687
20
-6.22245178312164
30
0
41
1
10
54.4230424715744
20
-6.0804988481282
30
0
41
1
10
54.0984504863247
20
-6.00312327544609
30
0
41
1
10
53.1248295260661
20
-5.75650739106385
30
0
41
1
10
52.4765324169637
20
-5.57403425489153
30
0
41
1
10
51.5058900399594
20
-5.26653386966771
30
0
41
1
10
51.1823286209045
20
-5.15909814562374
30
0
41
1
10
50.5344905294374
20
-4.93679735322331
30
0
41
1
10
50.2103101984403
20
-4.8213394577609
30
0
41
1
10
49.5613625024389
20
-4.58109696495958
30
0
41
1
10
49.2363597136483
20
-4.45595261537724
30
0
41
1
10
48.5876828329256
20
-4.19797152034838
30
0
41
1
10
48.2635056626938
20
-4.06593085320563
30
0
41
1
10
47.6153234907111
20
-3.79506709553817
30
0
41
1
10
47.2913404918945
20
-3.6562634643777
30
0
41
1
10
46.643547791508
20
-3.37170701921153
30
0
41
1
10
46.319869499368
20
-3.22588754021501
30
0
41
1
10
45.6722655702248
20
-2.92905654502016
30
0
41
1
10
45.3481110822682
20
-2.77818975941466
30
0
41
1
10
44.698896034285
20
-2.47132142956031
30
0
41
1
10
44.3735976791977
20
-2.31504123208759
30
0
41
1
10
43.7243113132783
20
-1.99933033171683
30
0
41
1
10
43.4002965181895
20
-1.83929538850501
30
0
41
1
10
42.7523964531795
20
-1.51672896293192
30
0
41
1
10
42.4284488332623
20
-1.35431535695938
30
0
41
1
10
41.7804130457332
20
-1.0273844149813
30
0
41
1
10
41.4563130587415
20
-0.863080172641162
30
0
41
1
10
40.8080652570373
20
-0.53247492584515
30
0
41
1
10
40.4840990672797
20
-0.365811850977991
30
0
41
1
10
39.834897378129
20
-0.0326035489429728
30
0
41
1
10
39.5096178747481
20
0.134067906546079
30
0
41
1
10
38.8601664149547
20
0.466115084106718
30
0
41
1
10
38.5357098363311
20
0.631646925688756
30
0
41
1
10
37.8875583877488
20
0.961936868687701
30
0
41
1
10
37.5639455533534
20
1.12670569928287
30
0
41
1
10
36.916031367646
20
1.45278004766635
30
0
41
1
10
36.5918731588095
20
1.61443451574121
30
0
41
1
10
35.9431807418501
20
1.93486225486549
30
0
41
1
10
35.6186314857351
20
2.09362494111485
30
0
41
1
10
34.9691879040858
20
2.40794504308556
30
0
41
1
10
34.6442242013437
20
2.56337693902367
30
0
41
1
10
33.9949106069291
20
2.8682846247408
30
0
41
1
10
33.6704174463799
20
3.0180546363996
30
0
41
1
10
33.0218035799152
20
3.31171942602717
30
0
41
1
10
32.69768973031
20
3.45526066388854
30
0
41
1
10
31.7259529094316
20
3.87779831129424
30
0
41
1
10
31.0774666173186
20
4.14739900714389
30
0
41
1
10
30.1020970235848
20
4.5262911532636
30
0
41
1
10
29.7768957301812
20
4.64860786266479
30
0
41
1
10
29.1279347399325
20
4.88577075638179
30
0
41
1
10
28.8035765107086
20
4.99999914294233
30
0
41
1
10
28.1548891552725
20
5.2187283818657
30
0
41
1
10
27.8306006384023
20
5.32261173250416
30
0
41
1
10
27.1820120323563
20
5.52095813234732
30
0
41
1
10
26.8578802447937
20
5.61614268037519
30
0
41
1
10
26.2092183891873
20
5.79657313863075
30
0
41
1
10
25.8844798185204
20
5.88169684364311
30
0
41
1
10
25.2338752185569
20
6.0395484373731
30
0
41
1
10
24.9085550241756
20
6.11263068666011
30
0
41
1
10
24.2589684578743
20
6.24935212579095
30
0
41
1
10
23.9347632065904
20
6.31272426079661
30
0
41
1
10
23.2863216577179
20
6.42715968597079
30
0
41
1
10
22.9620369660914
20
6.47775765524131
30
0
41
1
10
22.3131647062448
20
6.56735138601763
30
0
41
1
10
21.9885911943669
20
6.60681367894588
30
0
41
1
10
21.3392558789848
20
6.67381367074464
30
0
41
1
10
21.014649310714
20
6.70122485748681
30
0
41
1
10
20.0588933714631
20
6.76363753986354
30
0
41
1
10
19.4288934033306
20
6.78281845548204
30
0
41
1
10
18.7996792497313
20
6.77817929384108
30
0
0
SPLINE
5
B6
100
AcDbEntity
8
1
62
256
6
ByLayer
370
18
48
1
60
0
100
AcDbSpline
70
4
71
3
72
18
73
14
40
0
40
0
40
0
40
0
40
0.116763171140237
40
0.116763171140237
40
0.704999458686609
40
0.704999458686609
40
0.852058530573201
40
0.852058530573201
40
0.925588066516497
40
0.925588066516497
40
0.999117602459793
40
0.999117602459793
40
1
40
1
40
1
40
1
41
1
10
39.5079066466001
20
-6.7889547046988
30
0
41
1
10
39.1834116759545
20
-6.78822093823507
30
0
41
1
10
38.8595130502588
20
-6.78137566689813
30
0
41
1
10
36.9064076621507
20
-6.70362872209955
30
0
41
1
10
35.2871482247944
20
-6.48518248821867
30
0
41
1
10
33.2480824880418
20
-6.03413179436458
30
0
41
1
10
32.8394725024831
20
-5.93504901731589
30
0
41
1
10
32.2248940405792
20
-5.77348415536832
30
0
41
1
10
32.0197656451951
20
-5.71746013109032
30
0
41
1
10
31.6088635816921
20
-5.60114174841442
30
0
41
1
10
31.4028895537403
20
-5.54078416018169
30
0
41
1
10
31.1949187562834
20
-5.47783808644104
30
0
41
1
10
31.1924526271507
20
-5.47709138425577
30
0
41
1
10
31.1899865447492
20
-5.4763444121742
30
0
0
SPLINE
5
B7
100
AcDbEntity
8
1
62
256
6
ByLayer
370
13
48
1
60
0
100
AcDbSpline
70
4
71
3
72
18
73
14
40
0
40
0
40
0
40
0
40
0.142795743394373
40
0.142795743394373
40
0.429246624844968
40
0.429246624844968
40
0.500859345207618
40
0.500859345207618
40
0.572472065570268
40
0.572472065570268
40
0.715697506295567
40
0.715697506295567
40
1
40
1
40
1
40
1
41
1
10
31.1899865444703
20
-5.4763444120897
30
0
41
1
10
30.3704653193447
20
-5.22811285459386
30
0
41
1
10
29.5561048336103
20
-4.95007540039327
30
0
41
1
10
27.1150808534235
20
-4.03833336090622
30
0
41
1
10
25.4955116022544
20
-3.32790819190458
30
0
41
1
10
23.4544467872643
20
-2.35939817295227
30
0
41
1
10
23.0453725957545
20
-2.161724541381
30
0
41
1
10
22.2249393957541
20
-1.75946033468148
30
0
41
1
10
21.8126907239645
20
-1.55445140990526
30
0
41
1
10
20.5810772538262
20
-0.936399036308586
30
0
41
1
10
19.7650532702282
20
-0.519300538325297
30
0
41
1
10
17.3357558391024
20
0.723836101160884
30
0
41
1
10
15.7289671080493
20
1.5480459248156
30
0
41
1
10
14.1088030816915
20
2.3261433070048
30
0
0
SPLINE
5
B8
100
AcDbEntity
8
1
62
256
6
ByLayer
370
18
48
1
60
0
100
AcDbSpline
70
4
71
3
72
12
73
8
40
0
40
0
40
0
40
0
40
0.25000000000001
40
0.25000000000001
40
0.50000000000002
40
0.50000000000002
40
1
40
1
40
1
40
1
41
1
10
4.13209324638223
20
6.26733959876665
30
0
41
1
10
4.11207764138626
20
6.27230351967665
30
0
41
1
10
4.09394934086353
20
6.27837836037284
30
0
41
1
10
4.06136467736712
20
6.29261761372686
30
0
41
1
10
4.0471174504747
20
6.30075398223352
30
0
41
1
10
4.01257345965718
20
6.32683826646172
30
0
41
1
10
4.00000004981405
20
6.34683485643248
30
0
41
1
10
4.00000004981408
20
6.36666783532451
30
0
0
SPLINE
5
B9
100
AcDbEntity
8
1
62
256
6
ByLayer
370
18
48
1
60
0
100
AcDbSpline
70
4
71
3
72
42
73
38
40
0
40
0
40
0
40
0
40
0.249999999999999
40
0.249999999999999
40
0.374999999999998
40
0.374999999999998
40
0.437499999999998
40
0.437499999999998
40
0.499999999999997
40
0.499999999999997
40
0.624999999999996
40
0.624999999999996
40
0.687499999999992
40
0.687499999999992
40
0.71874999999999
40
0.71874999999999
40
0.749999999999988
40
0.749999999999988
40
0.781249999999986
40
0.781249999999986
40
0.812499999999984
40
0.812499999999984
40
0.843749999999982
40
0.843749999999982
40
0.859374999999984
40
0.859374999999984
40
0.874999999999986
40
0.874999999999986
40
0.890624999999987
40
0.890624999999987
40
0.906249999999989
40
0.906249999999989
40
0.937499999999993
40
0.937499999999993
40
0.968749999999996
40
0.968749999999996
40
1
40
1
40
1
40
1
41
1
10
75.15554642857
20
3.07856460821748
30
0
41
1
10
75.7413048132266
20
2.65018618022594
30
0
41
1
10
76.3365708554212
20
2.2613129896157
30
0
41
1
10
77.2473491407524
20
1.75229310192785
30
0
41
1
10
77.5539063439482
20
1.59493734707487
30
0
41
1
10
78.0187913077895
20
1.37988345938172
30
0
41
1
10
78.1745952725655
20
1.31169871040799
30
0
41
1
10
78.4880367669773
20
1.18294785193584
30
0
41
1
10
78.644871536156
20
1.12271900019098
30
0
41
1
10
79.1136724158357
20
0.955951638537016
30
0
41
1
10
79.4247824093616
20
0.862873243968011
30
0
41
1
10
79.8889871842992
20
0.75452800204792
30
0
41
1
10
80.0433118790128
20
0.723627450457315
30
0
41
1
10
80.2741205335772
20
0.685899759039074
30
0
41
1
10
80.35090305081
20
0.674776186172778
30
0
41
1
10
80.5037044121771
20
0.655609577322991
30
0
41
1
10
80.5799748526092
20
0.646832208310997
30
0
41
1
10
80.7307298273317
20
0.63621489455241
30
0
41
1
10
80.8052367337749
20
0.634589376407803
30
0
41
1
10
80.9495055486548
20
0.641941093106595
30
0
41
1
10
81.0192235424749
20
0.651389611411162
30
0
41
1
10
81.1526453933883
20
0.684654041898284
30
0
41
1
10
81.2169564601592
20
0.708286470789346
30
0
41
1
10
81.3042191968202
20
0.755629400172126
30
0
41
1
10
81.3318786711456
20
0.77343385177258
30
0
41
1
10
81.3838715058078
20
0.813755511412012
30
0
41
1
10
81.4083630580061
20
0.836466926160654
30
0
41
1
10
81.4524575108788
20
0.88647490744188
30
0
41
1
10
81.4720626993617
20
0.913669186633996
30
0
41
1
10
81.5058706820115
20
0.972903207147624
30
0
41
1
10
81.520134602898
20
1.00515726212333
30
0
41
1
10
81.5533605772008
20
1.10869292335712
30
0
41
1
10
81.5618604137566
20
1.18462582868759
30
0
41
1
10
81.5589456512541
20
1.34657099858737
30
0
41
1
10
81.5474790141267
20
1.42957224977417
30
0
41
1
10
81.5100456672435
20
1.59772076320209
30
0
41
1
10
81.4837887701952
20
1.6834342625101
30
0
41
1
10
81.4525845208036
20
1.76853391468487
30
0
0
SPLINE
5
BA
100
AcDbEntity
8
1
62
256
6
ByLayer
370
18
48
1
60
0
100
AcDbSpline
70
4
71
3
72
26
73
22
40
0
40
0
40
0
40
0
40
0.0625000000000017
40
0.0625000000000017
40
0.125000000000003
40
0.125000000000003
40
0.250000000000005
40
0.250000000000005
40
0.312500000000006
40
0.312500000000006
40
0.375000000000007
40
0.375000000000007
40
0.500000000000009
40
0.500000000000009
40
0.562500000000007
40
0.562500000000007
40
0.625000000000005
40
0.625000000000005
40
0.750000000000001
40
0.750000000000001
40
1
40
1
40
1
40
1
41
1
10
75.1555464285701
20
3.07856460821765
30
0
41
1
10
75.186613393838
20
2.89584913731448
30
0
41
1
10
75.2305174244038
20
2.71197171899192
30
0
41
1
10
75.3419310892548
20
2.34208022029125
30
0
41
1
10
75.4096534109476
20
2.15557744853888
30
0
41
1
10
75.6450765963682
20
1.59611188464876
30
0
41
1
10
75.8388752403061
20
1.23606302557769
30
0
41
1
10
76.1708475331612
20
0.710470176391823
30
0
41
1
10
76.2890276819046
20
0.537011091360995
30
0
41
1
10
76.5339285041864
20
0.199742011863464
30
0
41
1
10
76.660863297257
20
0.0354914944930727
30
0
41
1
10
77.0531550500156
20
-0.446029769144161
30
0
41
1
10
77.3298744756474
20
-0.752192339133813
30
0
41
1
10
77.7629219783753
20
-1.19386995815898
30
0
41
1
10
77.9103295411954
20
-1.33810588218404
30
0
41
1
10
78.2110649609548
20
-1.62078993108756
30
0
41
1
10
78.3635839385102
20
-1.75841065316237
30
0
41
1
10
78.8246891267899
20
-2.15977843906239
30
0
41
1
10
79.137650898327
20
-2.41316574686206
30
0
41
1
10
80.0902211758398
20
-3.1383878823508
30
0
41
1
10
80.7434684939272
20
-3.57540075210312
30
0
41
1
10
81.4111409031881
20
-3.97558417410187
30
0
0
SPLINE
5
BB
100
AcDbEntity
8
1
62
256
6
ByLayer
370
18
48
1
60
0
100
AcDbSpline
70
4
71
3
72
22
73
18
40
0
40
0
40
0
40
0
40
0.125
40
0.125
40
0.250000000000001
40
0.250000000000001
40
0.375000000000001
40
0.375000000000001
40
0.500000000000002
40
0.500000000000002
40
0.750000000000002
40
0.750000000000002
40
0.812500000000002
40
0.812500000000002
40
0.875000000000002
40
0.875000000000002
40
1
40
1
40
1
40
1
41
1
10
12.8899260299944
20
-6.07343897811742
30
0
41
1
10
12.5111493574221
20
-5.9878182600236
30
0
41
1
10
12.1349629881184
20
-5.89409587252439
30
0
41
1
10
11.3871245383333
20
-5.68830228218681
30
0
41
1
10
11.0154730103479
20
-5.57614251419275
30
0
41
1
10
10.2757816907473
20
-5.3350117753846
30
0
41
1
10
9.90776783368383
20
-5.20584329310702
30
0
41
1
10
9.17515182276898
20
-4.92840870179342
30
0
41
1
10
8.81058922969976
20
-4.77972690788488
30
0
41
1
10
7.72173867015394
20
-4.30561647878207
30
0
41
1
10
7.00187715355344
20
-3.95314636233778
30
0
41
1
10
6.11491789349944
20
-3.44195030121295
30
0
41
1
10
5.93783545014855
20
-3.3358494970343
30
0
41
1
10
5.58759248873287
20
-3.11653783463694
30
0
41
1
10
5.41443179288223
20
-3.0033541958847
30
0
41
1
10
4.90196759445436
20
-2.65144988576125
30
0
41
1
10
4.56938228598705
20
-2.4008384959854
30
0
41
1
10
4.25128392673014
20
-2.12583957789721
30
0
0
SPLINE
5
BC
100
AcDbEntity
8
1
62
256
6
ByLayer
370
18
48
1
60
0
100
AcDbSpline
70
4
71
3
72
12
73
8
40
0
40
0
40
0
40
0
40
0.25
40
0.25
40
0.5
40
0.5
40
1
40
1
40
1
40
1
41
1
10
82.5828666490926
20
-6.86084836029099
30
0
41
1
10
82.5877129663534
20
-6.84776728138499
30
0
41
1
10
82.5923520216069
20
-6.83447081818744
30
0
41
1
10
82.6000584218494
20
-6.8104576863073
30
0
41
1
10
82.6031077143979
20
-6.79977606207271
30
0
41
1
10
82.6087367937132
20
-6.77564714624324
30
0
41
1
10
82.6077545728469
20
-6.77086133100897
30
0
41
1
10
82.6040896309521
20
-6.77389431786631
30
0
0
SPLINE
5
BD
100
AcDbEntity
8
1
62
256
6
ByLayer
370
18
48
1
60
0
100
AcDbSpline
70
4
71
3
72
34
73
30
40
0
40
0
40
0
40
0
40
0.126791019449145
40
0.126791019449145
40
0.190186529173719
40
0.190186529173719
40
0.253582038898292
40
0.253582038898292
40
0.316977548622865
40
0.316977548622865
40
0.380373058347438
40
0.380373058347438
40
0.507164077796585
40
0.507164077796585
40
0.570559587521157
40
0.570559587521157
40
0.633955097245729
40
0.633955097245729
40
0.697350606970301
40
0.697350606970301
40
0.760746116694873
40
0.760746116694873
40
0.824141626419445
40
0.824141626419445
40
0.887537136144017
40
0.887537136144017
40
0.950932645868589
40
0.950932645868589
40
1
40
1
40
1
40
1
41
1
10
12.8905189062886
20
-6.07357370668282
30
0
41
1
10
13.5413701252621
20
-6.2214704006081
30
0
41
1
10
14.1911204666584
20
-6.34719896599714
30
0
41
1
10
15.1642436980588
20
-6.50019681207064
30
0
41
1
10
15.4883390005776
20
-6.54562564192827
30
0
41
1
10
16.1368724096012
20
-6.62481336956159
30
0
41
1
10
16.4614918436697
20
-6.6583736121776
30
0
41
1
10
17.111277375073
20
-6.71297600668893
30
0
41
1
10
17.4364787832017
20
-6.73412255032659
30
0
41
1
10
18.08737514749
20
-6.76487699246943
30
0
41
1
10
18.4120882105667
20
-6.77442180663738
30
0
41
1
10
19.3861443506819
20
-6.78406450806753
30
0
41
1
10
20.0351852495475
20
-6.76504718988539
30
0
41
1
10
21.0081076349804
20
-6.70172042523919
30
0
41
1
10
21.3322457974206
20
-6.67445111636658
30
0
41
1
10
21.9817531461627
20
-6.60760330558017
30
0
41
1
10
22.3069820406592
20
-6.56814691647364
30
0
41
1
10
22.9580283643945
20
-6.47836839146697
30
0
41
1
10
23.2830346247118
20
-6.4277014788556
30
0
41
1
10
23.9320796765095
20
-6.3132357880796
30
0
41
1
10
24.2561924046176
20
-6.24990309158912
30
0
41
1
10
24.9049063613666
20
-6.11343163169869
30
0
41
1
10
25.2292870401159
20
-6.04059154324722
30
0
41
1
10
25.8780629348815
20
-5.88332263876458
30
0
41
1
10
26.2024899664267
20
-5.79837270911938
30
0
41
1
10
26.8515319017839
20
-5.61797908050653
30
0
41
1
10
27.1764079869011
20
-5.52263165164604
30
0
41
1
10
27.7536489560976
20
-5.34617518127081
30
0
41
1
10
28.0052688987027
20
-5.26642295357775
30
0
41
1
10
28.2566568039927
20
-5.18356547549999
30
0
0
SPLINE
5
BE
100
AcDbEntity
8
1
62
256
6
ByLayer
370
18
48
1
60
0
100
AcDbSpline
70
4
71
3
72
32
73
28
40
0
40
0
40
0
40
0
40
0.0349540294776715
40
0.0349540294776715
40
0.103885884514981
40
0.103885884514981
40
0.17281773955229
40
0.17281773955229
40
0.2417495945896
40
0.2417495945896
40
0.310681449626909
40
0.310681449626909
40
0.379613304664218
40
0.379613304664218
40
0.448545159701527
40
0.448545159701527
40
0.586408869776146
40
0.586408869776146
40
0.655340724813455
40
0.655340724813455
40
0.724272579850764
40
0.724272579850764
40
0.862136289925382
40
0.862136289925382
40
0.931068144962691
40
0.931068144962691
40
1
40
1
40
1
40
1
41
1
10
61.061634129223
20
6.79641398978899
30
0
41
1
10
61.2262999933994
20
6.79356838195892
30
0
41
1
10
61.3910114922802
20
6.78917236010531
30
0
41
1
10
61.8802375035456
20
6.7711316364674
30
0
41
1
10
62.2043694869472
20
6.7524622655425
30
0
41
1
10
62.8518553268362
20
6.70294216773704
30
0
41
1
10
63.175265436818
20
6.67216929504386
30
0
41
1
10
63.8226408576734
20
6.59970367867592
30
0
41
1
10
64.1464007566502
20
6.55761300738098
30
0
41
1
10
64.7941015704961
20
6.46099065961317
30
0
41
1
10
65.118034931347
20
6.40672852331846
30
0
41
1
10
65.7660701654661
20
6.28762458368428
30
0
41
1
10
66.0906881194279
20
6.22311948544365
30
0
41
1
10
66.739504305185
20
6.0820566240003
30
0
41
1
10
67.0635514919645
20
6.00547243026725
30
0
41
1
10
68.0348258244371
20
5.75895740368116
30
0
41
1
10
68.6807858970381
20
5.57213541512115
30
0
41
1
10
69.6519590078934
20
5.26605664522034
30
0
41
1
10
69.9758846030301
20
5.15960830668902
30
0
41
1
10
70.6240464201897
20
4.93793621397359
30
0
41
1
10
70.9485274298311
20
4.82217287894241
30
0
41
1
10
71.9204205347379
20
4.46103660038662
30
0
41
1
10
72.5677441924207
20
4.20411726788302
30
0
41
1
10
73.5378146579559
20
3.79696222404328
30
0
41
1
10
73.8608975024276
20
3.65728842744852
30
0
41
1
10
74.5076443755478
20
3.37197817732527
30
0
41
1
10
74.8314497590753
20
3.22664838098638
30
0
41
1
10
75.1555464285699
20
3.07856460821782
30
0
0
SPLINE
5
BF
100
AcDbEntity
8
1
62
256
6
ByLayer
370
18
48
1
60
0
100
AcDbSpline
70
4
71
3
72
8
73
4
40
0
40
0
40
0
40
0
40
1
40
1
40
1
40
1
41
1
10
4.00000004981436
20
-2.25966738159934
30
0
41
1
10
4.00000004981436
20
-2.28556667822986
30
0
41
1
10
4.00000004981436
20
-2.3113890716553
30
0
41
1
10
4.00000004981436
20
-2.33713455532566
30
0
0
SPLINE
5
C0
100
AcDbEntity
8
1
62
256
6
ByLayer
370
18
48
1
60
0
100
AcDbSpline
70
4
71
3
72
14
73
10
40
0
40
0
40
0
40
0
40
0.249999999999999
40
0.249999999999999
40
0.499999999999998
40
0.499999999999998
40
0.749999999999999
40
0.749999999999999
40
1
40
1
40
1
40
1
41
1
10
81.4525845208036
20
1.76853391468487
30
0
41
1
10
81.442159670772
20
1.79696437300282
30
0
41
1
10
81.4350585854366
20
1.82628587329904
30
0
41
1
10
81.4312275774741
20
1.88772345703498
30
0
41
1
10
81.4343148612897
20
1.91952818908374
30
0
41
1
10
81.4603331854829
20
1.97605392746485
30
0
41
1
10
81.4832255474675
20
2.00011414925302
30
0
41
1
10
81.5370881326276
20
2.03281642910619
30
0
41
1
10
81.5679086009307
20
2.0425694853331
30
0
41
1
10
81.5991696350144
20
2.04801645300574
30
0
0
SPLINE
5
C1
100
AcDbEntity
8
1
62
256
6
ByLayer
370
18
48
1
60
0
100
AcDbSpline
70
4
71
3
72
104
73
100
40
0
40
0
40
0
40
0
40
0.0114082558890251
40
0.0114082558890251
40
0.0300187971548747
40
0.0300187971548747
40
0.0486293384207243
40
0.0486293384207243
40
0.067239879686574
40
0.067239879686574
40
0.0858504209524236
40
0.0858504209524236
40
0.123071503484123
40
0.123071503484123
40
0.141682044749972
40
0.141682044749972
40
0.160292586015822
40
0.160292586015822
40
0.178903127281671
40
0.178903127281671
40
0.19751366854752
40
0.19751366854752
40
0.216124209813369
40
0.216124209813369
40
0.234734751079219
40
0.234734751079219
40
0.253345292345068
40
0.253345292345068
40
0.271955833610918
40
0.271955833610918
40
0.290566374876767
40
0.290566374876767
40
0.309176916142616
40
0.309176916142616
40
0.327787457408465
40
0.327787457408465
40
0.346397998674315
40
0.346397998674315
40
0.365008539940164
40
0.365008539940164
40
0.383619081206014
40
0.383619081206014
40
0.402229622471863
40
0.402229622471863
40
0.420840163737712
40
0.420840163737712
40
0.439450705003561
40
0.439450705003561
40
0.458061246269411
40
0.458061246269411
40
0.495282328801109
40
0.495282328801109
40
0.513892870066958
40
0.513892870066958
40
0.532503411332807
40
0.532503411332807
40
0.551113952598656
40
0.551113952598656
40
0.569724493864505
40
0.569724493864505
40
0.606945576396204
40
0.606945576396204
40
0.625556117662053
40
0.625556117662053
40
0.644166658927902
40
0.644166658927902
40
0.662777200193752
40
0.662777200193752
40
0.681387741459601
40
0.681387741459601
40
0.7186088239913
40
0.7186088239913
40
0.737219365257149
40
0.737219365257149
40
0.755829906522998
40
0.755829906522998
40
0.774440447788847
40
0.774440447788847
40
0.793050989054696
40
0.793050989054696
40
0.830272071586393
40
0.830272071586393
40
0.848882612852242
40
0.848882612852242
40
0.867493154118091
40
0.867493154118091
40
0.886103695383939
40
0.886103695383939
40
0.904714236649788
40
0.904714236649788
40
0.941935319181485
40
0.941935319181485
40
0.960545860447334
40
0.960545860447334
40
0.979156401713183
40
0.979156401713183
40
0.997766942979032
40
0.997766942979032
40
1
40
1
40
1
40
1
41
1
10
28.2524885616759
20
5.17528797141139
30
0
41
1
10
28.4486590852062
20
5.24693031055656
30
0
41
1
10
28.6448108870136
20
5.31691153141171
30
0
41
1
10
29.1607758755826
20
5.49686655375731
30
0
41
1
10
29.4801858665914
20
5.60447360456968
30
0
41
1
10
30.1203096747622
20
5.80902547240984
30
0
41
1
10
30.4414322728675
20
5.90595782251538
30
0
41
1
10
31.0832003793054
20
6.08919845377469
30
0
41
1
10
31.4037106432958
20
6.17544536265595
30
0
41
1
10
32.0436641559579
20
6.33745631413396
30
0
41
1
10
32.3627897803302
20
6.41343965427376
30
0
41
1
10
33.3216192944789
20
6.62299731165797
30
0
41
1
10
33.962213595865
20
6.73904164589646
30
0
41
1
10
34.9229810089385
20
6.87885170287922
30
0
41
1
10
35.2432885180591
20
6.91977362409008
30
0
41
1
10
35.8841872733028
20
6.98868011140007
30
0
41
1
10
36.2045964749518
20
7.01686770521584
30
0
41
1
10
36.8449339459664
20
7.06102359263835
30
0
41
1
10
37.1648746082868
20
7.07698695326371
30
0
41
1
10
37.8039679724771
20
7.09659430258239
30
0
41
1
10
38.1230230496666
20
7.10018091731564
30
0
41
1
10
38.7628012544593
20
7.09487384406594
30
0
41
1
10
39.0831629706649
20
7.08603716314252
30
0
41
1
10
39.7244661620388
20
7.05598842649479
30
0
41
1
10
40.045623026443
20
7.03474995288764
30
0
41
1
10
40.6858854484416
20
6.97975063724977
30
0
41
1
10
41.005351546128
20
6.94596493374164
30
0
41
1
10
41.6451748882222
20
6.86682641634647
30
0
41
1
10
41.9651676268767
20
6.82137001991927
30
0
41
1
10
42.6049749968072
20
6.71858523163675
30
0
41
1
10
42.9247954630168
20
6.66126043593937
30
0
41
1
10
43.5639258926516
20
6.53428658893759
30
0
41
1
10
43.8836225639141
20
6.46486499820153
30
0
41
1
10
44.5248260547118
20
6.31543792398415
30
0
41
1
10
44.8460488088677
20
6.2352075460108
30
0
41
1
10
45.4869529569407
20
6.0640800267814
30
0
41
1
10
45.8069179225902
20
5.97309455233551
30
0
41
1
10
46.4456721718189
20
5.77992749463255
30
0
41
1
10
46.7650717228782
20
5.67837188815494
30
0
41
1
10
47.4047116978782
20
5.46638586620358
30
0
41
1
10
47.7247521525804
20
5.35574296954562
30
0
41
1
10
48.3649450105366
20
5.12473435982935
30
0
41
1
10
48.6850224663357
20
5.00426477080188
30
0
41
1
10
49.3253153696315
20
4.7533707744538
30
0
41
1
10
49.6459572469955
20
4.6240259385267
30
0
41
1
10
50.2866060571319
20
4.35867414402622
30
0
41
1
10
50.6067704470612
20
4.22241974652482
30
0
41
1
10
51.2464549660664
20
3.94228104344037
30
0
41
1
10
51.5658237617484
20
3.79815180910762
30
0
41
1
10
52.5235584656814
20
3.35505932361468
30
0
41
1
10
53.1642673641957
20
3.04991686598726
30
0
41
1
10
54.1265102840519
20
2.57409414342439
30
0
41
1
10
54.4465512391438
20
2.41235700472441
30
0
41
1
10
55.0859019594329
20
2.08539222279919
30
0
41
1
10
55.4058204305453
20
1.92100599008006
30
0
41
1
10
56.0455778545952
20
1.58946661742377
30
0
41
1
10
56.3654395718886
20
1.42235352878726
30
0
41
1
10
57.0048096793955
20
1.08483959047581
30
0
41
1
10
57.3240081770072
20
0.913855744661305
30
0
41
1
10
58.2832812379643
20
0.400000243335256
30
0
41
1
10
58.9264526624446
20
0.0570904925858144
30
0
41
1
10
59.8861891611935
20
-0.45786007655812
30
0
41
1
10
60.205215559398
20
-0.630307712495437
30
0
41
1
10
60.8440868740639
20
-0.971951697039145
30
0
41
1
10
61.1638714069681
20
-1.14126995700599
30
0
41
1
10
61.8036557685104
20
-1.47781389704821
30
0
41
1
10
62.1236753660966
20
-1.64500268607986
30
0
41
1
10
62.7636528790627
20
-1.97776868836922
30
0
41
1
10
63.0836045914622
20
-2.14395568054349
30
0
41
1
10
64.0448180379852
20
-2.63297005630983
30
0
41
1
10
64.6853334301039
20
-2.94769661717029
30
0
41
1
10
65.6435636631659
20
-3.40660269757316
30
0
41
1
10
65.9624081369342
20
-3.55755463175996
30
0
41
1
10
66.6016954932291
20
-3.85098600226652
30
0
41
1
10
66.9217933795316
20
-3.99405096493959
30
0
41
1
10
67.5625213293961
20
-4.27349078156018
30
0
41
1
10
67.8834657938732
20
-4.4099757011486
30
0
41
1
10
68.5237092462943
20
-4.67579645629374
30
0
41
1
10
68.8430685402563
20
-4.80504762841662
30
0
41
1
10
69.8024444652833
20
-5.17699322601638
30
0
41
1
10
70.4422651926368
20
-5.40622431084151
30
0
41
1
10
71.4003480224273
20
-5.72416012897477
30
0
41
1
10
71.7197211135725
20
-5.82541871010892
30
0
41
1
10
72.3602991064533
20
-6.01658405579829
30
0
41
1
10
72.6814141309324
20
-6.10693105629954
30
0
41
1
10
73.3222395786161
20
-6.27675137417503
30
0
41
1
10
73.6421569843644
20
-6.35630159945202
30
0
41
1
10
74.2807201952603
20
-6.50476003246169
30
0
41
1
10
74.5999125789359
20
-6.57320111988409
30
0
41
1
10
75.5588004627801
20
-6.76031077252966
30
0
41
1
10
76.1987424579891
20
-6.86174561217581
30
0
41
1
10
77.1582815675157
20
-6.97879931273798
30
0
41
1
10
77.4788703857351
20
-7.01159322610485
30
0
41
1
10
78.1196200297822
20
-7.06460614214254
30
0
41
1
10
78.4399115081694
20
-7.08491839446259
30
0
41
1
10
79.0800005710096
20
-7.11324667670326
30
0
41
1
10
79.399675840918
20
-7.12126302333161
30
0
41
1
10
79.7575684920209
20
-7.12319753792931
30
0
41
1
10
79.7959193298866
20
-7.12331429530303
30
0
41
1
10
79.8342783951364
20
-7.12334072165564
30
0
0
SPLINE
5
C2
100
AcDbEntity
8
1
62
256
6
ByLayer
370
18
48
1
60
0
100
AcDbSpline
70
4
71
3
72
54
73
50
40
0
40
0
40
0
40
0
40
0.0283559647437598
40
0.0283559647437598
40
0.0567119294875195
40
0.0567119294875195
40
0.113423858975039
40
0.113423858975039
40
0.141779823718799
40
0.141779823718799
40
0.170135788462559
40
0.170135788462559
40
0.226847717950078
40
0.226847717950078
40
0.283559647437598
40
0.283559647437598
40
0.340271576925117
40
0.340271576925117
40
0.368627541668877
40
0.368627541668877
40
0.396983506412636
40
0.396983506412636
40
0.453695435900155
40
0.453695435900155
40
0.482051400643914
40
0.482051400643914
40
0.510407365387673
40
0.510407365387673
40
0.567119294875191
40
0.567119294875191
40
0.59547525961895
40
0.59547525961895
40
0.623831224362709
40
0.623831224362709
40
0.680543153850227
40
0.680543153850227
40
0.793967012825262
40
0.793967012825262
40
0.822322977569021
40
0.822322977569021
40
0.850678942312779
40
0.850678942312779
40
0.907390871800296
40
0.907390871800296
40
0.964102801287812
40
0.964102801287812
40
0.992458766031571
40
0.992458766031571
40
1
40
1
40
1
40
1
41
1
10
82.5034437246398
20
-7.07488785030097
30
0
41
1
10
82.0945828483931
20
-7.10070705382805
30
0
41
1
10
81.6858245887263
20
-7.1163549021762
30
0
41
1
10
80.8678156258175
20
-7.1272707951843
30
0
41
1
10
80.4584127454469
20
-7.12251386958494
30
0
41
1
10
79.2328069906418
20
-7.07782852906854
30
0
41
1
10
78.4177299747682
20
-7.00754544929905
30
0
41
1
10
77.1936023938613
20
-6.84290382433505
30
0
41
1
10
76.7852852345023
20
-6.77816212255499
30
0
41
1
10
75.9672761784225
20
-6.62929018305283
30
0
41
1
10
75.5580451614753
20
-6.54522235626189
30
0
41
1
10
74.3329773911821
20
-6.26587768527162
30
0
41
1
10
73.5179181858661
20
-6.04328627875637
30
0
41
1
10
71.8850404817974
20
-5.53121853192198
30
0
41
1
10
71.0657464850162
20
-5.24103769109556
30
0
41
1
10
69.4328517441355
20
-4.60644498688208
30
0
41
1
10
68.6177371910194
20
-4.2617075577424
30
0
41
1
10
67.3923624056868
20
-3.71034528093006
30
0
41
1
10
66.9830312322809
20
-3.5206423445747
30
0
41
1
10
66.1648771878929
20
-3.13181748724929
30
0
41
1
10
65.7564842958718
20
-2.93292563490374
30
0
41
1
10
64.532139826572
20
-2.32494437491903
30
0
41
1
10
63.7168683403158
20
-1.90481734572285
30
0
41
1
10
62.490855685535
20
-1.26049967937618
30
0
41
1
10
62.0812180373951
20
-1.04309476148842
30
0
41
1
10
61.2634782154477
20
-0.606875140243233
30
0
41
1
10
60.8551854694635
20
-0.387906055736295
30
0
41
1
10
59.6310169848967
20
0.269666205771756
30
0
41
1
10
58.815469963746
20
0.708220950419047
30
0
41
1
10
57.5887475635795
20
1.35836244458827
30
0
41
1
10
57.1790699168972
20
1.5738397220322
30
0
41
1
10
56.3635380460393
20
1.99746092679303
30
0
41
1
10
55.9569819364488
20
2.20604609737708
30
0
41
1
10
54.7399743204698
20
2.82054484608378
30
0
41
1
10
53.9319146348353
20
3.21470428614177
30
0
41
1
10
51.5089091910192
20
4.33655742515225
30
0
41
1
10
49.8950636192335
20
5.00338724927954
30
0
41
1
10
47.849393403528
20
5.68748179139962
30
0
41
1
10
47.4400516478269
20
5.81639379814646
30
0
41
1
10
46.6230417041292
20
6.05666734437446
30
0
41
1
10
46.2149289821717
20
6.16819104021164
30
0
41
1
10
44.9906721266661
20
6.47596056780486
30
0
41
1
10
44.1743573921723
20
6.64537812567411
30
0
41
1
10
42.5364248696891
20
6.90720914402522
30
0
41
1
10
41.7203235272667
20
6.99872583701787
30
0
41
1
10
40.495903202635
20
7.0757223179107
30
0
41
1
10
40.0876819475226
20
7.09133559380666
30
0
41
1
10
39.5703449067135
20
7.09827774526016
30
0
41
1
10
39.4616026585919
20
7.09901806176987
30
0
41
1
10
39.3528206397533
20
7.09904005600211
30
0
0
SPLINE
5
C3
100
AcDbEntity
8
1
62
256
6
ByLayer
370
18
48
1
60
0
100
AcDbSpline
70
4
71
3
72
17
73
13
40
0
40
0
40
0
40
0
40
0.0597585573944444
40
0.0597585573944444
40
0.119517114788889
40
0.239034229577777
40
0.239034229577777
40
0.478068459155555
40
0.478068459155555
40
0.956136918311116
40
0.956136918311116
40
1
40
1
40
1
40
1
41
1
10
82.6040896309521
20
-6.77389431786631
30
0
41
1
10
82.3983380363401
20
-6.78535776389987
30
0
41
1
10
82.1929015376827
20
-6.79448607342619
30
0
41
1
10
81.7816815716226
20
-6.80766760843349
30
0
41
1
10
81.1658754806769
20
-6.81999185453867
30
0
41
1
10
80.5527518865771
20
-6.81017884262963
30
0
41
1
10
79.3290760366034
20
-6.76165782428311
30
0
41
1
10
78.5166396296613
20
-6.69078572524623
30
0
41
1
10
76.0811257106712
20
-6.36721649622248
30
0
41
1
10
74.4595578060629
20
-6.00298887342316
30
0
41
1
10
72.6666605544166
20
-5.45947796249527
30
0
41
1
10
72.51569497647
20
-5.41263605959654
30
0
41
1
10
72.3648258247274
20
-5.36477910265438
30
0
0
SPLINE
5
C4
100
AcDbEntity
8
1
62
256
6
ByLayer
370
13
48
1
60
0
100
AcDbSpline
70
4
71
3
72
24
73
20
40
0
40
0
40
0
40
0
40
0.0096613143168742
40
0.0096613143168742
40
0.0459826801416932
40
0.0459826801416932
40
0.118625411791331
40
0.118625411791331
40
0.263910875090607
40
0.263910875090607
40
0.554481801689158
40
0.554481801689158
40
0.627124533338795
40
0.627124533338795
40
0.699767264988432
40
0.699767264988432
40
0.845052728287706
40
0.845052728287706
40
1
40
1
40
1
40
1
41
1
10
72.3648260571295
20
-5.36477917637424
30
0
41
1
10
72.3101527363449
20
-5.3474363420722
30
0
41
1
10
72.2554920787813
20
-5.32996020498999
30
0
41
1
10
71.9954845783323
20
-5.24618273567089
30
0
41
1
10
71.7904403072334
20
-5.17819838128423
30
0
41
1
10
71.1761406661054
20
-4.96908115801747
30
0
41
1
10
70.76770091849
20
-4.82280473362468
30
0
41
1
10
69.5448086308433
20
-4.36486249812512
30
0
41
1
10
68.7326615005246
20
-4.03412253955673
30
0
41
1
10
66.2967159580928
20
-2.98067104056332
30
0
41
1
10
64.6740007590037
20
-2.19534141064622
30
0
41
1
10
62.6181343271905
20
-1.16050703353034
30
0
41
1
10
62.2074783651255
20
-0.951787770428723
30
0
41
1
10
61.389201760745
20
-0.533960126853998
30
0
41
1
10
60.9811332953157
20
-0.324628086189676
30
0
41
1
10
59.7593589925483
20
0.303153304315657
30
0
41
1
10
58.9476268934451
20
0.720404126289992
30
0
41
1
10
57.2706203039722
20
1.56967120347179
30
0
41
1
10
56.405240596341
20
2.0005113218665
30
0
41
1
10
55.5365258168449
20
2.41719944343293
30
0
0
SPLINE
5
C5
100
AcDbEntity
8
1
62
256
6
ByLayer
370
18
48
1
60
0
100
AcDbSpline
70
4
71
3
72
16
73
12
40
0
40
0
40
0
40
0
40
0.0413835696934302
40
0.0413835696934302
40
0.162742782801907
40
0.162742782801907
40
0.284101995910384
40
0.284101995910384
40
0.769538848344289
40
0.769538848344289
40
1
40
1
40
1
40
1
41
1
10
60.1476807415228
20
-0.0076485706106553
30
0
41
1
10
60.2864977458733
20
-0.080005460858473
30
0
41
1
10
60.4253859809574
20
-0.152408533319573
30
0
41
1
10
60.9719021484583
20
-0.437218824406614
30
0
41
1
10
61.3802862431267
20
-0.649545447874004
30
0
41
1
10
62.1992722995284
20
-1.07306486818169
30
0
41
1
10
62.6104594856842
20
-1.28454817934335
30
0
41
1
10
64.6675642203494
20
-2.3315872581631
30
0
41
1
10
66.2908713247883
20
-3.12345313073885
30
0
41
1
10
68.6871060522345
20
-4.16388521409522
30
0
41
1
10
69.4586923420062
20
-4.4796996526114
30
0
41
1
10
70.2330456357813
20
-4.77206332019804
30
0
0
SPLINE
5
C6
100
AcDbEntity
8
1
62
256
6
ByLayer
370
13
48
1
60
0
100
AcDbSpline
70
4
71
3
72
22
73
18
40
0
40
0
40
0
40
0
40
0.0099990052008022
40
0.0099990052008022
40
0.108999104680726
40
0.108999104680726
40
0.158499154420686
40
0.158499154420686
40
0.207999204160648
40
0.207999204160648
40
0.603999602080321
40
0.603999602080321
40
0.80199980104016
40
0.80199980104016
40
0.90099990052008
40
0.90099990052008
40
1
40
1
40
1
40
1
41
1
10
70.2330456355654
20
-4.7720633201165
30
0
41
1
10
70.2742302815571
20
-4.78761293325482
30
0
41
1
10
70.3154227546719
20
-4.80309621035974
30
0
41
1
10
70.7645512390654
20
-4.97114910432589
30
0
41
1
10
71.1733203229886
20
-5.11719976532774
30
0
41
1
10
71.788182692754
20
-5.32565384026776
30
0
41
1
10
71.9934266091454
20
-5.39336238326158
30
0
41
1
10
72.4046075737002
20
-5.52505025973062
30
0
41
1
10
72.6105649579913
20
-5.58902768057186
30
0
41
1
10
74.4587095763858
20
-6.14470924395178
30
0
41
1
10
76.0785417622434
20
-6.50098823804117
30
0
41
1
10
78.508663141314
20
-6.80909330051185
30
0
41
1
10
79.3188602340747
20
-6.87420490508558
30
0
41
1
10
80.5385042634602
20
-6.91352289175907
30
0
41
1
10
80.9457970934201
20
-6.9168984665869
30
0
41
1
10
81.7625398812977
20
-6.90382096560481
30
0
41
1
10
82.1720578166038
20
-6.88691894014974
30
0
41
1
10
82.5828666490929
20
-6.86084836029099
30
0
0
SPLINE
5
C7
100
AcDbEntity
8
1
62
256
6
ByLayer
370
18
48
1
60
0
100
AcDbSpline
70
4
71
3
72
18
73
14
40
0
40
0
40
0
40
0
40
0.124999999999993
40
0.124999999999993
40
0.249999999999985
40
0.249999999999985
40
0.374999999999978
40
0.374999999999978
40
0.499999999999971
40
0.499999999999971
40
0.749999999999985
40
0.749999999999985
40
1
40
1
40
1
40
1
41
1
10
4.25128391071499
20
-2.12583956406073
30
0
41
1
10
4.23697917289442
20
-2.11347298835241
30
0
41
1
10
4.22215319233939
20
-2.10229016002344
30
0
41
1
10
4.19103966021274
20
-2.08321780552521
30
0
41
1
10
4.17464301466927
20
-2.075332183276
30
0
41
1
10
4.1416422371984
20
-2.06538187703396
30
0
41
1
10
4.12472123934148
20
-2.06332229053075
30
0
41
1
10
4.09304700737553
20
-2.06692984219032
30
0
41
1
10
4.07832538162873
20
-2.07258341433118
30
0
41
1
10
4.04028960037382
20
-2.09901016569412
30
0
41
1
10
4.02399154158047
20
-2.12766658366144
30
0
41
1
10
4.0040442379333
20
-2.18995849389438
30
0
41
1
10
4.00000004981439
20
-2.22445442441636
30
0
41
1
10
4.00000004981439
20
-2.25966738159934
30
0
0
SPLINE
5
C8
100
AcDbEntity
8
1
62
256
6
ByLayer
370
18
48
1
60
0
100
AcDbSpline
70
4
71
3
72
26
73
22
40
0
40
0
40
0
40
0
40
0.125000000000004
40
0.125000000000004
40
0.187500000000003
40
0.187500000000003
40
0.250000000000003
40
0.250000000000003
40
0.499999999999999
40
0.499999999999999
40
0.562499999999998
40
0.562499999999998
40
0.624999999999997
40
0.624999999999997
40
0.749999999999998
40
0.749999999999998
40
0.874999999999999
40
0.874999999999999
40
0.9375
40
0.9375
40
1
40
1
40
1
40
1
41
1
10
82.5195689393265
20
-6.81492832969843
30
0
41
1
10
82.4205763158186
20
-6.81482937584471
30
0
41
1
10
82.3263476190936
20
-6.80035737122884
30
0
41
1
10
82.1925004383419
20
-6.75603389527484
30
0
41
1
10
82.149137129091
20
-6.73748078461779
30
0
41
1
10
82.065016409824
20
-6.69251241014888
30
0
41
1
10
82.0241329681908
20
-6.66598035257053
30
0
41
1
10
81.8289655780369
20
-6.51469574014413
30
0
41
1
10
81.7007665748335
20
-6.33470704097675
30
0
41
1
10
81.5771933467612
20
-6.03231171388285
30
0
41
1
10
81.5543365597103
20
-5.96791134640355
30
0
41
1
10
81.5124885824256
20
-5.83095166271684
30
0
41
1
10
81.4934659518111
20
-5.75815680456631
30
0
41
1
10
81.4432331685996
20
-5.53076155252106
30
0
41
1
10
81.4184937223897
20
-5.36630151980103
30
0
41
1
10
81.3862579697539
20
-5.01202998600795
30
0
41
1
10
81.3787608319017
20
-4.82221970732718
30
0
41
1
10
81.3808265956493
20
-4.51793329887167
30
0
41
1
10
81.3837563573265
20
-4.4129264985078
30
0
41
1
10
81.394127390461
20
-4.1976694087042
30
0
41
1
10
81.4015389735091
20
-4.08775257611544
30
0
41
1
10
81.4111409031881
20
-3.9755841741019
30
0
0
SPLINE
5
C9
100
AcDbEntity
8
1
62
256
6
ByLayer
370
18
48
1
60
0
100
AcDbSpline
70
4
71
3
72
24
73
20
40
0
40
0
40
0
40
0
40
0.250000000000013
40
0.250000000000013
40
0.500000000000027
40
0.500000000000027
40
0.625000000000021
40
0.625000000000021
40
0.750000000000015
40
0.750000000000015
40
0.812500000000012
40
0.812500000000012
40
0.875000000000009
40
0.875000000000009
40
0.937500000000006
40
0.937500000000006
40
0.968750000000003
40
0.968750000000003
40
1
40
1
40
1
40
1
41
1
10
81.5991696350144
20
2.04801645300574
30
0
41
1
10
81.843724944182
20
2.09062812284489
30
0
41
1
10
82.0874369776797
20
2.13952598854567
30
0
41
1
10
82.5678762117507
20
2.25843328574345
30
0
41
1
10
82.8049109067989
20
2.3277306304067
30
0
41
1
10
83.150150159911
20
2.46471376245964
30
0
41
1
10
83.2635077361943
20
2.51608562150301
30
0
41
1
10
83.4800562733488
20
2.63629268702343
30
0
41
1
10
83.5839340578619
20
2.70529841451847
30
0
41
1
10
83.7206669558696
20
2.82982028178304
30
0
41
1
10
83.7635906293145
20
2.87555276449942
30
0
41
1
10
83.8380952036079
20
2.97503187448268
30
0
41
1
10
83.8696611866933
20
3.02862147676075
30
0
41
1
10
83.9172725813313
20
3.14492448681321
30
0
41
1
10
83.9322241070091
20
3.20506320797622
30
0
41
1
10
83.9413092117492
20
3.29828859034663
30
0
41
1
10
83.9420757041657
20
3.33003371487493
30
0
41
1
10
83.9393460646298
20
3.39255579268885
30
0
41
1
10
83.9358955878436
20
3.42355502948212
30
0
41
1
10
83.9306154759561
20
3.45432348967404
30
0
0
SPLINE
5
CA
100
AcDbEntity
8
1
62
256
6
ByLayer
370
18
48
1
60
0
100
AcDbSpline
70
4
71
3
72
10
73
6
40
0
40
0
40
0
40
0
40
0.778772750196414
40
0.778772750196414
40
1
40
1
40
1
40
1
41
1
10
82.5034437246398
20
7.07488785030094
30
0
41
1
10
82.0947539378673
20
7.10069624967872
30
0
41
1
10
81.6860818704934
20
7.11634716479884
30
0
41
1
10
81.1608929251325
20
7.12336105597214
30
0
41
1
10
81.0447099662331
20
7.12408870878394
30
0
41
1
10
80.9285462209
20
7.12399448596821
30
0
0
SPLINE
5
CB
100
AcDbEntity
8
1
62
256
6
ByLayer
370
18
48
1
60
0
100
AcDbSpline
70
4
71
3
72
48
73
44
40
0
40
0
40
0
40
0
40
0.0576113936248569
40
0.0576113936248569
40
0.0890243471706959
40
0.0890243471706959
40
0.120437300716535
40
0.120437300716535
40
0.183263207808212
40
0.183263207808212
40
0.21467616135405
40
0.21467616135405
40
0.246089114899888
40
0.246089114899888
40
0.308915021991565
40
0.308915021991565
40
0.340327975537404
40
0.340327975537404
40
0.371740929083242
40
0.371740929083242
40
0.434566836174918
40
0.434566836174918
40
0.465979789720755
40
0.465979789720755
40
0.497392743266593
40
0.497392743266593
40
0.560218650358269
40
0.560218650358269
40
0.591631603904107
40
0.591631603904107
40
0.623044557449945
40
0.623044557449945
40
0.68587046454162
40
0.68587046454162
40
0.717283418087458
40
0.717283418087458
40
0.748696371633295
40
0.748696371633295
40
0.874348185816647
40
0.874348185816647
40
0.937174092908324
40
0.937174092908324
40
1
40
1
40
1
40
1
41
1
10
43.0957135364948
20
-6.81649757329387
30
0
41
1
10
42.3462194450252
20
-6.92875550896122
30
0
41
1
10
41.5983620572652
20
-7.00797106770793
30
0
41
1
10
40.4416360247373
20
-7.07818409869839
30
0
41
1
10
40.0332324011402
20
-7.09291246103589
30
0
41
1
10
39.2152279644282
20
-7.10207534663067
30
0
41
1
10
38.8056113966256
20
-7.09647322678194
30
0
41
1
10
37.5796279967293
20
-7.04933007983888
30
0
41
1
10
36.764216539211
20
-6.97750029724344
30
0
41
1
10
35.5392874205562
20
-6.81077687391331
30
0
41
1
10
35.1306620999613
20
-6.74538364141685
30
0
41
1
10
34.3120618831177
20
-6.5952243084372
30
0
41
1
10
33.9028377284698
20
-6.5105712492464
30
0
41
1
10
32.6772857286047
20
-6.22963295928034
30
0
41
1
10
31.8618207393449
20
-6.00610482424466
30
0
41
1
10
30.6363733519383
20
-5.62089676238872
30
0
41
1
10
30.2273032000152
20
-5.48415264141968
30
0
41
1
10
29.4084369180491
20
-5.1950176733794
30
0
41
1
10
28.9997407353877
20
-5.04301859282768
30
0
41
1
10
27.7744609038809
20
-4.56672262055483
30
0
41
1
10
26.9589826837517
20
-4.22171071230466
30
0
41
1
10
25.7328369866919
20
-3.67027832356953
30
0
41
1
10
25.3231877901674
20
-3.48054356976707
30
0
41
1
10
24.5048254680293
20
-3.09196357431375
30
0
41
1
10
24.0962820717818
20
-2.89326449833072
30
0
41
1
10
22.8712458234051
20
-2.28627094524282
30
0
41
1
10
22.0556027806709
20
-1.86662931279693
30
0
41
1
10
20.8288063940325
20
-1.22342229066942
30
0
41
1
10
20.4189153906596
20
-1.0065261803671
30
0
41
1
10
19.6009392748101
20
-0.571373579136974
30
0
41
1
10
19.1925089315672
20
-0.352960013564427
30
0
41
1
10
17.9676318356678
20
0.302427203788483
30
0
41
1
10
17.1517080217863
20
0.739752047678138
30
0
41
1
10
15.9240733065316
20
1.3874395642645
30
0
41
1
10
15.5143130033607
20
1.60188653443728
30
0
41
1
10
14.6986873787199
20
2.02362173446608
30
0
41
1
10
14.2920787898932
20
2.23128231933927
30
0
41
1
10
12.2630111722103
20
3.25012159281829
30
0
41
1
10
10.6527967378153
20
4.00337227548656
30
0
41
1
10
8.22098800126238
20
4.98193717961277
30
0
41
1
10
7.4077644115533
20
5.2831152755256
30
0
41
1
10
5.76970657825464
20
5.82540422174174
30
0
41
1
10
4.95127594641269
20
6.06418020715211
30
0
41
1
10
4.13209324638217
20
6.26733959876665
30
0
0
SPLINE
5
CC
100
AcDbEntity
8
1
62
256
6
ByLayer
370
13
48
1
60
0
100
AcDbSpline
70
4
71
3
72
15
73
11
40
0
40
0
40
0
40
0
40
0.344184747863372
40
0.344184747863372
40
0.480874465227494
40
0.480874465227494
40
0.617564182591616
40
0.617564182591616
40
0.890943617319859
40
1
40
1
40
1
40
1
41
1
10
4.25035549548323
20
6.24596324627768
30
0
41
1
10
4.25039984959079
20
6.36432764864844
30
0
41
1
10
4.25044149583348
20
6.46293338822628
30
0
41
1
10
4.25049692770432
20
6.57331916101279
30
0
41
1
10
4.25051241004141
20
6.60163307182651
30
0
41
1
10
4.25054262188456
20
6.65155679188837
30
0
41
1
10
4.25055733673483
20
6.67315934128678
30
0
41
1
10
4.25060047187966
20
6.72809595673428
30
0
41
1
10
4.25063882415043
20
6.76095774955493
30
0
41
1
10
4.25067528756409
20
6.76849968816262
30
0
41
1
10
4.25068555220403
20
6.76857498270977
30
0
0
SPLINE
5
CD
100
AcDbEntity
8
1
62
256
6
ByLayer
370
18
48
1
60
0
100
AcDbSpline
70
4
71
3
72
20
73
16
40
0
40
0
40
0
40
0
40
0.25
40
0.25
40
0.375
40
0.375
40
0.5
40
0.5
40
0.625
40
0.625
40
0.75
40
0.75
40
0.875
40
0.875
40
1
40
1
40
1
40
1
41
1
10
83.930615475956
20
3.45432348967415
30
0
41
1
10
83.8203912415793
20
3.75008151153955
30
0
41
1
10
83.7099996071649
20
4.04557433535044
30
0
41
1
10
83.5440885121295
20
4.48753494334261
30
0
41
1
10
83.4887271138598
20
4.634654704523
30
0
41
1
10
83.3779946310487
20
4.92886057812865
30
0
41
1
10
83.3226072162747
20
5.07588996160536
30
0
41
1
10
83.2117531427246
20
5.36967344595661
30
0
41
1
10
83.156277401851
20
5.51645398448176
30
0
41
1
10
83.0452738307322
20
5.8092293696962
30
0
41
1
10
82.9897238874312
20
5.95506523042238
30
0
41
1
10
82.8785954017019
20
6.24640923903479
30
0
41
1
10
82.8230202934671
20
6.39195673879755
30
0
41
1
10
82.7117933410833
20
6.68217243372007
30
0
41
1
10
82.6561423649416
20
6.82685057523707
30
0
41
1
10
82.6003956141741
20
6.97043125058934
30
0
0
SPLINE
5
CE
100
AcDbEntity
8
1
62
256
6
ByLayer
370
18
48
1
60
0
100
AcDbSpline
70
4
71
3
72
20
73
16
40
0
40
0
40
0
40
0
40
0.25
40
0.25
40
0.375
40
0.375
40
0.5
40
0.5
40
0.625
40
0.625
40
0.75
40
0.75
40
0.875
40
0.875
40
1
40
1
40
1
40
1
41
1
10
83.9306154759561
20
-3.45432348967424
30
0
41
1
10
83.8203912415798
20
-3.75008151153858
30
0
41
1
10
83.7099996071658
20
-4.04557433534845
30
0
41
1
10
83.5440885121309
20
-4.48753494333911
30
0
41
1
10
83.4887271138613
20
-4.63465470451897
30
0
41
1
10
83.3779946310506
20
-4.92886057812359
30
0
41
1
10
83.3226072162768
20
-5.07588996159978
30
0
41
1
10
83.211753142727
20
-5.36967344595001
30
0
41
1
10
83.1562774018538
20
-5.51645398447465
30
0
41
1
10
83.0452738307353
20
-5.80922936968813
30
0
41
1
10
82.9897238874345
20
-5.95506523041382
30
0
41
1
10
82.8785954017056
20
-6.24640923902524
30
0
41
1
10
82.8230202934708
20
-6.39195673878751
30
0
41
1
10
82.7117933410874
20
-6.68217243370904
30
0
41
1
10
82.656142364946
20
-6.82685057522559
30
0
41
1
10
82.6003956141787
20
-6.97043125057741
30
0
0
SPLINE
5
CF
100
AcDbEntity
8
1
62
256
6
ByLayer
370
18
48
1
60
0
100
AcDbSpline
70
4
71
3
72
18
73
14
40
0
40
0
40
0
40
0
40
0.0362436128108722
40
0.0362436128108722
40
0.267832434148721
40
0.267832434148721
40
0.383626844817645
40
0.383626844817645
40
0.49942125548657
40
0.49942125548657
40
0.962598898162271
40
0.962598898162271
40
1
40
1
40
1
40
1
41
1
10
18.5332422978982
20
-4.89080593695E-05
30
0
41
1
10
18.6605827378909
20
-0.0661714709958403
30
0
41
1
10
18.7879676740038
20
-0.132318852836448
30
0
41
1
10
19.729725422082
20
-0.62115698750037
30
0
41
1
10
20.5462953543231
20
-1.04399444886783
30
0
41
1
10
21.7789414427501
20
-1.66981066998554
30
0
41
1
10
22.1915389148673
20
-1.87725204627483
30
0
41
1
10
23.0125326757376
20
-2.28395732759839
30
0
41
1
10
23.4218625214515
20
-2.48364951361694
30
0
41
1
10
25.4641541372266
20
-3.46122486819616
30
0
41
1
10
27.0844042618147
20
-4.17587755753578
30
0
41
1
10
28.8460379829733
20
-4.83451925944945
30
0
41
1
10
28.9777218398078
20
-4.88304758086881
30
0
41
1
10
29.1094804409487
20
-4.93087363785307
30
0
0
SPLINE
5
D0
100
AcDbEntity
8
1
62
256
6
ByLayer
370
13
48
1
60
0
100
AcDbSpline
70
4
71
3
72
20
73
16
40
0
40
0
40
0
40
0
40
0.166882468871767
40
0.166882468871767
40
0.216638594499839
40
0.216638594499839
40
0.266394720127911
40
0.266394720127911
40
0.365906971384058
40
0.365906971384058
40
0.763955976408651
40
0.763955976408651
40
0.962980478920949
40
0.962980478920949
40
1
40
1
40
1
40
1
41
1
10
29.1094804409245
20
-4.93087363784431
30
0
41
1
10
29.793575321107
20
-5.17918805860324
30
0
41
1
10
30.4796850982677
20
-5.4085713987624
30
0
41
1
10
31.3752678018533
20
-5.67819149718582
30
0
41
1
10
31.5814128331031
20
-5.73821650241246
30
0
41
1
10
31.9926020731752
20
-5.85375421506777
30
0
41
1
10
32.1978662471941
20
-5.90933544835215
30
0
41
1
10
32.8128298556844
20
-6.06941622198758
30
0
41
1
10
33.2216756422955
20
-6.16729811192124
30
0
41
1
10
35.2618942237509
20
-6.61134607692458
30
0
41
1
10
36.8818315919339
20
-6.82108619309983
30
0
41
1
10
39.3278948408932
20
-6.90133836037521
30
0
41
1
10
40.1460073982825
20
-6.88914609962916
30
0
41
1
10
41.1229841791343
20
-6.82703500347512
30
0
41
1
10
41.2761673673846
20
-6.81592276595177
30
0
41
1
10
41.4293255365606
20
-6.80344896951695
30
0
0
SPLINE
5
D1
100
AcDbEntity
8
1
62
256
6
ByLayer
370
18
48
1
60
0
100
AcDbSpline
70
4
71
3
72
88
73
84
40
0
40
0
40
0
40
0
40
0.0301171674332006
40
0.0301171674332006
40
0.0998149824584011
40
0.0998149824584011
40
0.134663889971001
40
0.134663889971001
40
0.169512797483602
40
0.169512797483602
40
0.239210612508802
40
0.239210612508802
40
0.274059520021402
40
0.274059520021402
40
0.308908427534003
40
0.308908427534003
40
0.378606242559203
40
0.378606242559203
40
0.413455150071804
40
0.413455150071804
40
0.430879603828104
40
0.430879603828104
40
0.439591830706254
40
0.441769887425791
40
0.442314401605676
40
0.442586658695618
40
0.442722787240589
40
0.442722787240589
40
0.44285891578556
40
0.44285891578556
40
0.443403429965445
40
0.443403429965445
40
0.443947944145329
40
0.443947944145329
40
0.448304057584406
40
0.448304057584406
40
0.457016284462558
40
0.457016284462558
40
0.465728511340711
40
0.465728511340711
40
0.483152965097016
40
0.483152965097016
40
0.518001872609627
40
0.518001872609627
40
0.587699687634847
40
0.587699687634847
40
0.657397502660068
40
0.657397502660068
40
0.692246410172678
40
0.692246410172678
40
0.700958637050831
40
0.700958637050831
40
0.705314750489907
40
0.705314750489907
40
0.706403778849676
40
0.706403778849676
40
0.707492807209445
40
0.707492807209445
40
0.707765064299388
40
0.707765064299388
40
0.70803732138933
40
0.70803732138933
40
0.708581835569215
40
0.709670863928984
40
0.727095317685292
40
0.727095317685292
40
0.761944225197907
40
0.761944225197907
40
0.796793132710522
40
0.796793132710522
40
0.831642040223138
40
0.831642040223138
40
0.849066493979445
40
0.849066493979445
40
0.866490947735753
40
0.866490947735753
40
0.936188762760984
40
0.936188762760984
40
0.953613216517291
40
0.953613216517291
40
0.971037670273599
40
0.971037670273599
40
1
40
1
40
1
40
1
41
1
10
20.8618218112707
20
-1.82128769158959
30
0
41
1
10
20.6785382196612
20
-1.72757894711279
30
0
41
1
10
20.4956130938352
20
-1.63616070099431
30
0
41
1
10
19.8901995558881
20
-1.34221317285724
30
0
41
1
10
19.4688385393954
20
-1.15157886596651
30
0
41
1
10
18.8342957025107
20
-0.898354332205884
30
0
41
1
10
18.6215515198838
20
-0.819205133296578
30
0
41
1
10
18.2014088869252
20
-0.676237137863353
30
0
41
1
10
17.993305293533
20
-0.612095090806406
30
0
41
1
10
17.3730227333828
20
-0.442886901783453
30
0
41
1
10
16.9648633981282
20
-0.361097240132494
30
0
41
1
10
16.3528730159972
20
-0.288295448423071
30
0
41
1
10
16.1489179116231
20
-0.27232507082897
30
0
41
1
10
15.7398208470718
20
-0.257407723554706
30
0
41
1
10
15.5343168420586
20
-0.258478290155551
30
0
41
1
10
14.9165592357362
20
-0.287711952281683
30
0
41
1
10
14.5073964603114
20
-0.341502664638028
30
0
41
1
10
13.8907164479511
20
-0.470937182890765
30
0
41
1
10
13.6849756142401
20
-0.522174927663656
30
0
41
1
10
13.3764711828998
20
-0.610428571671235
30
0
41
1
10
13.273569776614
20
-0.641767858530756
30
0
41
1
10
13.1191996022663
20
-0.691546454549979
30
0
41
1
10
13.0548731952086
20
-0.712864835302526
30
0
41
1
10
12.9873270352313
20
-0.735992404991464
30
0
41
1
10
12.9696361635979
20
-0.742098060796621
30
0
41
1
10
12.9640072159607
20
-0.744045392462084
30
0
41
1
10
12.9615948043073
20
-0.744880952652693
30
0
41
1
10
12.9599865296236
20
-0.745438212261178
30
0
41
1
10
12.9597825920609
20
-0.746144912350132
30
0
41
1
10
12.9610649675763
20
-0.749261943839485
30
0
41
1
10
12.9641494929855
20
-0.751246513163039
30
0
41
1
10
12.9694627005815
20
-0.755188181177374
30
0
41
1
10
12.9722585100764
20
-0.757068509029267
30
0
41
1
10
12.9978556631097
20
-0.773709826777747
30
0
41
1
10
13.0227417229679
20
-0.786975848080999
30
0
41
1
10
13.0968214719843
20
-0.826975395928372
30
0
41
1
10
13.1471641848517
20
-0.852850697421786
30
0
41
1
10
13.2481419804264
20
-0.90436260314965
30
0
41
1
10
13.2988892468819
20
-0.92992114851296
30
0
41
1
10
13.4515065407448
20
-1.00638012672815
30
0
41
1
10
13.5537492658061
20
-1.05705720226175
30
0
41
1
10
13.861056664409
20
-1.20898600801735
30
0
41
1
10
14.0667616088888
20
-1.31012634040113
30
0
41
1
10
14.6848870382869
20
-1.61461719003495
30
0
41
1
10
15.0981102562365
20
-1.81945021952231
30
0
41
1
10
15.9242494135924
20
-2.23597701461219
30
0
41
1
10
16.3375367385242
20
-2.44701475403159
30
0
41
1
10
16.9540740329239
20
-2.7732781252796
30
0
41
1
10
17.1593844033265
20
-2.88307373514579
30
0
41
1
10
17.4129271026418
20
-3.02656246525777
30
0
41
1
10
17.4634868748805
20
-3.05556287204664
30
0
41
1
10
17.5383741083413
20
-3.10069883194456
30
0
41
1
10
17.5632619639937
20
-3.11592925968725
30
0
41
1
10
17.5934566089271
20
-3.13634736484823
30
0
41
1
10
17.5994444929942
20
-3.14050607209202
30
0
41
1
10
17.6111592219544
20
-3.14920600269511
30
0
41
1
10
17.6171360111787
20
-3.15355493055438
30
0
41
1
10
17.6231904900241
20
-3.16038857665751
30
0
41
1
10
17.6245737617108
20
-3.16183383178679
30
0
41
1
10
17.6250378373954
20
-3.16557866604325
30
0
41
1
10
17.6227354391538
20
-3.16667829840935
30
0
41
1
10
17.6184825352053
20
-3.17050807901157
30
0
41
1
10
17.609976768446
20
-3.17816683668812
30
0
41
1
10
17.5107436998439
20
-3.26749069903573
30
0
41
1
10
17.4143702057901
20
-3.35392609915229
30
0
41
1
10
17.1423050036997
20
-3.59649628761835
30
0
41
1
10
16.9607752459947
20
-3.75643195652253
30
0
41
1
10
16.5988216390183
20
-4.06798151447805
30
0
41
1
10
16.4180466358864
20
-4.21992025078768
30
0
41
1
10
16.0548395253922
20
-4.51385291645121
30
0
41
1
10
15.8724118136726
20
-4.65585045633938
30
0
41
1
10
15.5956846882782
20
-4.85931460305986
30
0
41
1
10
15.5027425677926
20
-4.92566413690327
30
0
41
1
10
15.3167244937242
20
-5.05392647730088
30
0
41
1
10
15.2235880499419
20
-5.11589220964413
30
0
41
1
10
14.7564957829876
20
-5.41415423580091
30
0
41
1
10
14.378295998367
20
-5.61561217622
30
0
41
1
10
13.8872941087615
20
-5.80982218349672
30
0
41
1
10
13.788042728137
20
-5.8458246379721
30
0
41
1
10
13.5896154694219
20
-5.91123942393139
30
0
41
1
10
13.490190989873
20
-5.94076015545963
30
0
41
1
10
13.2246904180224
20
-6.01107565677736
30
0
41
1
10
13.0580610408255
20
-6.0463753654989
30
0
41
1
10
12.890259193707
20
-6.07361587432493
30
0
0
LINE
5
76
100
AcDbEntity
8
81
62
256
6
ByLayer
370
18
48
1
60
0
100
AcDbLine
10
85
20
0
30
0
11
90
21
0
31
0
39
0
210
0
220
0
230
1
0
LINE
5
77
100
AcDbEntity
8
1
62
256
6
ByLayer
370
18
48
1
60
0
100
AcDbLine
10
4
20
7.07784
30
0
11
1.450516
21
7.07631
31
0
39
0
210
0
220
0
230
1
0
LINE
5
79
100
AcDbEntity
8
1
62
256
6
ByLayer
370
18
48
1
60
0
100
AcDbLine
10
39.332075
20
7.099039
30
0
11
38.225963
21
7.098375
31
0
39
0
210
0
220
0
230
1
0
LINE
5
7A
100
AcDbEntity
8
1
62
256
6
ByLayer
370
18
48
1
60
0
100
AcDbLine
10
80.933776
20
7.124
30
0
11
79.837921
21
7.123343
31
0
39
0
210
0
220
0
230
1
0
LINE
5
7B
100
AcDbEntity
8
1
62
256
6
ByLayer
370
18
48
1
60
0
100
AcDbLine
10
79.837921
20
-7.123343
30
0
11
80.9333
21
-7.124
31
0
39
0
210
0
220
0
230
1
0
LINE
5
7C
100
AcDbEntity
8
1
62
256
6
ByLayer
370
18
48
1
60
0
100
AcDbLine
10
38.225963
20
-7.098375
30
0
11
39.332377
21
-7.099039
31
0
39
0
210
0
220
0
230
1
0
LINE
5
7D
100
AcDbEntity
8
1
62
256
6
ByLayer
370
18
48
1
60
0
100
AcDbLine
10
1.450516
20
-7.07631
30
0
11
4
21
-7.07784
31
0
39
0
210
0
220
0
230
1
0
LINE
5
7E
100
AcDbEntity
8
SK1
62
256
6
ByLayer
370
18
48
1
60
0
100
AcDbLine
10
-45.979274
20
8
30
0
11
-48
21
4.5
31
0
39
0
210
0
220
0
230
1
0
LINE
5
80
100
AcDbEntity
8
SK1
62
256
6
ByLayer
370
18
48
1
60
0
100
AcDbLine
10
-48
20
-4.5
30
0
11
-45.979274
21
-8
31
0
39
0
210
0
220
0
230
1
0
LINE
5
81
100
AcDbEntity
8
SK1
62
256
6
ByLayer
370
18
48
1
60
0
100
AcDbLine
10
0
20
8
30
0
11
-45.979274
21
8
31
0
39
0
210
0
220
0
230
1
0
LINE
5
82
100
AcDbEntity
8
SK1
62
256
6
ByLayer
370
18
48
1
60
0
100
AcDbLine
10
-45.979274
20
-8
30
0
11
0
21
-8
31
0
39
0
210
0
220
0
230
1
0
LINE
5
83
100
AcDbEntity
8
SK4
62
256
6
ByLayer
370
18
48
0.05
60
0
100
AcDbLine
10
90
20
0
30
0
11
-53
21
0
31
0
39
0
210
0
220
0
230
1
0
LINE
5
85
100
AcDbEntity
8
4
62
256
6
ByLayer
370
18
48
0.05
60
0
100
AcDbLine
10
85
20
0
30
0
11
0
21
0
31
0
39
0
210
0
220
0
230
1
0
LINE
5
87
100
AcDbEntity
8
80
62
256
6
ByLayer
370
18
48
1
60
0
100
AcDbLine
10
0
20
0
30
0
11
-5
21
0
31
0
39
0
210
0
220
0
230
1
0
LINE
5
88
100
AcDbEntity
8
1
62
256
6
ByLayer
370
18
48
1
60
0
100
AcDbLine
10
4
20
7.07784
30
0
11
4
21
6.366668
31
0
39
0
210
0
220
0
230
1
0
LINE
5
89
100
AcDbEntity
8
1
62
256
6
ByLayer
370
13
48
1
60
0
100
AcDbLine
10
1.450516
20
7.07631
30
0
11
1.450516
21
-7.07631
31
0
39
0
210
0
220
0
230
1
0
LINE
5
8A
100
AcDbEntity
8
1
62
256
6
ByLayer
370
18
48
1
60
0
100
AcDbLine
10
85
20
0
30
0
11
82.519569
21
-6.814928
31
0
39
0
210
0
220
0
230
1
0
LINE
5
8B
100
AcDbEntity
8
1
62
256
6
ByLayer
370
18
48
1
60
0
100
AcDbLine
10
84.903708
20
0.331189
30
0
11
84.664364
21
1.214815
31
0
39
0
210
0
220
0
230
1
0
LINE
5
8C
100
AcDbEntity
8
1
62
256
6
ByLayer
370
18
48
1
60
0
100
AcDbLine
10
84.903708
20
-0.331189
30
0
11
84.664364
21
-1.214815
31
0
39
0
210
0
220
0
230
1
0
LINE
5
8D
100
AcDbEntity
8
1
62
256
6
ByLayer
370
13
48
1
60
0
100
AcDbLine
10
82.949585
20
0.868391
30
0
11
84.893795
21
-0.094229
31
0
39
0
210
0
220
0
230
1
0
LINE
5
8E
100
AcDbEntity
8
1
62
256
6
ByLayer
370
13
48
1
60
0
100
AcDbLine
10
0.725018
20
7.538155
30
0
11
0.725018
21
-7.538155
31
0
39
0
210
0
220
0
230
1
0
LINE
5
8F
100
AcDbEntity
8
1
62
256
6
ByLayer
370
18
48
1
60
0
100
AcDbLine
10
0
20
-8
30
0
11
0
21
8
31
0
39
0
210
0
220
0
230
1
0
LINE
5
90
100
AcDbEntity
8
1
62
256
6
ByLayer
370
18
48
1
60
0
100
AcDbLine
10
4
20
-7.07784
30
0
11
4
21
-2.337135
31
0
39
0
210
0
220
0
230
1
0
LINE
5
91
100
AcDbEntity
8
1
62
256
6
ByLayer
370
18
48
1
60
0
100
AcDbLine
10
81.411141
20
-3.975584
30
0
11
84.893795
21
-0.094229
31
0
39
0
210
0
220
0
230
1
0
LINE
5
92
100
AcDbEntity
8
1
62
256
6
ByLayer
370
13
48
1
60
0
100
AcDbLine
10
84.664364
20
1.214815
30
0
11
83.119044
21
1.214815
31
0
39
0
210
0
220
0
230
1
0
LINE
5
93
100
AcDbEntity
8
1
62
256
6
ByLayer
370
13
48
1
60
0
100
AcDbLine
10
83.119044
20
1.214815
30
0
11
84.903708
21
0.331189
31
0
39
0
210
0
220
0
230
1
0
LINE
5
94
100
AcDbEntity
8
1
62
256
6
ByLayer
370
18
48
1
60
0
100
AcDbLine
10
84.984979
20
0.067389
30
0
11
85
21
0
31
0
39
0
210
0
220
0
230
1
0
LINE
5
95
100
AcDbEntity
8
1
62
256
6
ByLayer
370
18
48
1
60
0
100
AcDbLine
10
85
20
0
30
0
11
84.984979
21
-0.067389
31
0
39
0
210
0
220
0
230
1
0
LINE
5
96
100
AcDbEntity
8
SK1
62
256
6
ByLayer
370
18
48
1
60
0
100
AcDbLine
10
0
20
-8
30
0
11
0
21
8
31
0
39
0
210
0
220
0
230
1
0
LINE
5
97
100
AcDbEntity
8
SK1
62
256
6
ByLayer
370
18
48
1
60
0
100
AcDbLine
10
-48
20
4.5
30
0
11
-48
21
-4.5
31
0
39
0
210
0
220
0
230
1
0
LINE
5
98
100
AcDbEntity
8
SK1
62
256
6
ByLayer
370
18
48
1
60
0
100
AcDbLine
10
-45.979274
20
8
30
0
11
-45.979274
21
-8
31
0
39
0
210
0
220
0
230
1
0
MTEXT
5
D2
100
AcDbEntity
8
SK6
62
256
6
ByLayer
370
13
48
1
60
0
100
AcDbMText
10
20.629169
20
39.507694
30
0
210
0
220
0
230
1
1
\W0.7598;R840-1425-50-A0A1220
40
3.5
41
0
44
1.084337
50
0
71
8
72
5
7
iso_b_vert
0
DIMENSION
5
DF
100
AcDbEntity
8
SK2
62
256
6
ByLayer
370
13
48
1
60
0
100
AcDbDimension
2
DimnDraft3D1
10
82.55
20
-17.338398
30
0
11
39.300059
21
-17.338398
31
0
70
32
71
5
72
1
41
1
210
0
220
0
230
1
3
Standard
100
AcDbAlignedDimension
13
0
23
-1.5875
33
0
14
82.55
24
-8.7125
34
0
50
0
100
AcDbRotatedDimension
1001
ACAD
1000
DSTYLE
1002
{
1070
   279
1070
     0
1070
   172
1070
     1
1070
   173
1070
     1
1070
   340
1005
D3
1070
   271
1070
     2
1070
   272
1070
     2
1070
    77
1070
     1
1070
    73
1070
     0
1070
   171
1070
     3
1070
   274
1070
     4
1070
   177
1070
    35
1070
   176
1070
    35
1070
   178
1070
    35
1070
    48
1040
-0.005
1070
    41
1041
3.5
1070
   147
1041
1.75
1070
    42
1041
1.5875
1070
    44
1041
2.0
1070
   140
1041
3.5
1070
   343
1005
0
1070
   344
1005
0
1002
}
0
DIMENSION
5
E9
100
AcDbEntity
8
SK2
62
256
6
ByLayer
370
13
48
1
60
0
100
AcDbDimension
2
DimnDraft3D2
10
85
20
-36.692985
30
0
11
17.3913
21
-36.692985
31
0
70
32
71
5
72
1
41
1
210
0
220
0
230
1
3
Standard
100
AcDbAlignedDimension
13
-48
23
-9.5875
33
0
14
85
24
-1.5875
34
0
50
0
100
AcDbRotatedDimension
1001
ACAD
1000
DSTYLE
1002
{
1070
   279
1070
     0
1070
   172
1070
     1
1070
   173
1070
     1
1070
   340
1005
D3
1070
   271
1070
     2
1070
   272
1070
     2
1070
    77
1070
     1
1070
    73
1070
     0
1070
   171
1070
     3
1070
   274
1070
     4
1070
   177
1070
    35
1070
   176
1070
    35
1070
   178
1070
    35
1070
    48
1040
-0.005
1070
    41
1041
3.5
1070
   147
1041
1.75
1070
    42
1041
1.5875
1070
    44
1041
2.0
1070
   140
1041
3.5
1070
   343
1005
0
1070
   344
1005
0
1002
}
0
DIMENSION
5
F3
100
AcDbEntity
8
SK2
62
256
6
ByLayer
370
13
48
1
60
0
100
AcDbDimension
2
DimnDraft3D3
10
85
20
18.734119
30
0
11
48.15
21
18.734119
31
0
70
32
71
5
72
1
41
1
210
0
220
0
230
1
3
Standard
100
AcDbAlignedDimension
13
11.3
23
8.7125
33
0
14
85
24
1.5875
34
0
50
0
100
AcDbRotatedDimension
1001
ACAD
1000
DSTYLE
1002
{
1070
   279
1070
     0
1070
   172
1070
     1
1070
   173
1070
     1
1070
   340
1005
D3
1070
   271
1070
     2
1070
   272
1070
     2
1070
    77
1070
     1
1070
    73
1070
     0
1070
   171
1070
     3
1070
   274
1070
     4
1070
   177
1070
    35
1070
   176
1070
    35
1070
   178
1070
    35
1070
    48
1040
-0.005
1070
    41
1041
3.5
1070
   147
1041
1.75
1070
    42
1041
1.5875
1070
    44
1041
2.0
1070
   140
1041
3.5
1070
   343
1005
0
1070
   344
1005
0
1002
}
0
DIMENSION
5
FD
100
AcDbEntity
8
SK2
62
256
6
ByLayer
370
13
48
1
60
0
100
AcDbDimension
2
DimnDraft3D4
10
82.55
20
-19.927503
30
0
11
94.981425
21
-19.927503
31
0
70
32
71
5
72
1
41
1
210
0
220
0
230
1
3
Standard
100
AcDbAlignedDimension
13
85
23
-1.5875
33
0
14
82.55
24
-8.7125
34
0
50
0
100
AcDbRotatedDimension
1001
ACAD
1000
DSTYLE
1002
{
1070
   279
1070
     0
1070
   172
1070
     1
1070
   173
1070
     1
1070
   340
1005
D3
1070
   271
1070
     2
1070
   272
1070
     2
1070
    77
1070
     1
1070
    73
1070
     0
1070
   171
1070
     3
1070
   274
1070
     4
1070
   177
1070
    35
1070
   176
1070
    35
1070
   178
1070
    35
1070
    48
1040
-0.005
1070
    41
1041
3.5
1070
   147
1041
1.75
1070
    42
1041
1.5875
1070
    44
1041
2.0
1070
   140
1041
3.5
1070
   343
1005
0
1070
   344
1005
0
1002
}
0
DIMENSION
5
107
100
AcDbEntity
8
SK2
62
256
6
ByLayer
370
13
48
1
60
0
100
AcDbDimension
2
DimnDraft3D5
10
82.55
20
-26.343428
30
0
11
14.310676
21
-26.343428
31
0
70
32
71
5
72
1
41
1
210
0
220
0
230
1
3
Standard
100
AcDbAlignedDimension
13
-48
23
-9.5875
33
0
14
82.55
24
-8.7125
34
0
50
0
100
AcDbRotatedDimension
1001
ACAD
1000
DSTYLE
1002
{
1070
   279
1070
     0
1070
   172
1070
     1
1070
   173
1070
     1
1070
   340
1005
D3
1070
   271
1070
     2
1070
   272
1070
     2
1070
    77
1070
     1
1070
    73
1070
     0
1070
   171
1070
     3
1070
   274
1070
     4
1070
   177
1070
    35
1070
   176
1070
    35
1070
   178
1070
    35
1070
    48
1040
-0.005
1070
    41
1041
3.5
1070
   147
1041
1.75
1070
    42
1041
1.5875
1070
    44
1041
2.0
1070
   140
1041
3.5
1070
   343
1005
0
1070
   344
1005
0
1002
}
0
DIMENSION
5
112
100
AcDbEntity
8
SK2
62
256
6
ByLayer
370
13
48
1
60
0
100
AcDbDimension
2
DimnDraft3D6
10
-58.625163
20
8
30
0
11
-59.250163
21
26.47418
31
0
70
33
71
5
72
1
41
1
210
0
220
0
230
1
3
Standard
100
AcDbAlignedDimension
13
-49.5875
23
-8
33
0
14
-49.5875
24
8
34
0
1001
ACAD
1000
DSTYLE
1002
{
1070
   279
1070
     0
1070
    74
1070
     0
1070
   173
1070
     1
1070
   340
1005
D3
1070
   271
1070
     3
1070
   272
1070
     2
1070
    77
1070
     1
1070
    73
1070
     0
1070
   171
1070
     3
1070
   274
1070
     4
1070
   177
1070
    35
1070
   176
1070
    35
1070
   178
1070
    35
1070
    48
1040
-0.005
1070
    41
1041
3.5
1070
   147
1041
1.75
1070
    42
1041
1.5875
1070
    44
1041
2.0
1070
   140
1041
3.5
1070
   343
1005
0
1070
   344
1005
0
1002
}
0
DIMENSION
5
11D
100
AcDbEntity
8
2
62
256
6
ByLayer
370
13
48
1
60
0
100
AcDbDimension
2
DimnDraft3D7
10
99.083343
20
7.125
30
0
11
94.458343
21
24.192266
31
0
70
33
71
5
72
1
41
1
210
0
220
0
230
1
3
Standard
100
AcDbAlignedDimension
13
84.1375
23
-7.125
33
0
14
84.1375
24
7.125
34
0
1001
ACAD
1000
DSTYLE
1002
{
1070
   279
1070
     0
1070
    74
1070
     0
1070
   173
1070
     1
1070
   340
1005
D3
1070
   271
1070
     3
1070
   272
1070
     2
1070
    77
1070
     1
1070
    73
1070
     0
1070
   171
1070
     3
1070
   274
1070
     4
1070
   177
1070
    35
1070
   176
1070
    35
1070
   178
1070
    35
1070
    48
1040
-0.005
1070
    41
1041
3.5
1070
   147
1041
1.75
1070
    42
1041
1.5875
1070
    44
1041
2.0
1070
   140
1041
3.5
1070
   343
1005
0
1070
   344
1005
0
1002
}
0
ENDSEC
0
SECTION
2
OBJECTS
0
DICTIONARY
5
188
330
0
100
AcDbDictionary
280
0
281
1
3
ACAD_GROUP
350
189
3
ACAD_MLINESTYLE
350
18a
0
DICTIONARY
5
189
330
0
100
AcDbDictionary
280
0
281
1
0
DICTIONARY
5
18a
330
0
100
AcDbDictionary
280
0
281
1
3
Standard
350
18
0
MLINESTYLE
5
18
330
18a
100
AcDbMlineStyle
2
Standard
70
0
3

62
256
51
90
52
90
71
2
49
-0.5
62
256
6
ByLayer
49
0.5
62
256
6
ByLayer
0
RASTERVARIABLES
5
176
330

100
AcDbRasterVariables
90
0
70
1
71
1
72
1
0
ENDSEC
0
EOF
