0
SECTION
2
HEADER
9
$ACADVER
1
AC1015
9
$DWGCODEPAGE
3
ANSI_1252
9
$HANDSEED
5
1a4
9
$ANGBASE
50
0
9
$ANGDIR
70
0
9
$ATTMODE
70
1
9
$AUNITS
70
0
9
$AUPREC
70
0
9
$CECOLOR
62
256
9
$CELTSCALE
40
1
9
$CELTYPE
6
ByLayer
9
$CELWEIGHT
370
18
9
$CLAYER
8
0
9
$CMLJUST
70
0
9
$CMLSCALE
40
1
9
$CMLSTYLE
2
Standard
9
$DIMSTYLE
2
Standard
9
$TEXTSIZE
40
0.2
9
$TEXTSTYLE
7
Standard
9
$LUNITS
70
2
9
$LUPREC
70
4
9
$EXTNAMES
290
1
9
$INSUNITS
70
4
9
$LTSCALE
40
1
9
$LWDISPLAY
290
1
9
$PDMODE
70
0
9
$PDSIZE
40
0
9
$PLINEGEN
70
0
0
ENDSEC
0
SECTION
2
CLASSES
0
CLASS
1
RASTERVARIABLES
2
AcDbRasterVariables
3
ISM
90
0
280
0
281
0
0
ENDSEC
0
SECTION
2
TABLES
0
TABLE
2
VPORT
5
19a
100
AcDbSymbolTable
0
VPORT
5
1
100
AcDbSymbolTableRecord
100
AcDbViewportTableRecord
2
*Active
70
0
10
0
20
0
11
1
21
1
12
-1
22
1
13
0
23
0
14
0.5
24
0.5
15
10
25
10
16
0
26
0
36
1
17
0
27
0
37
0
0
ENDTAB
0
TABLE
2
LTYPE
5
19b
100
AcDbSymbolTable
0
LTYPE
5
14
100
AcDbSymbolTableRecord
100
AcDbLinetypeTableRecord
70
0
2
ByBlock
3

72
65
73
0
40
0
0
LTYPE
5
15
100
AcDbSymbolTableRecord
100
AcDbLinetypeTableRecord
70
0
2
ByLayer
3

72
65
73
0
40
0
0
LTYPE
5
16
100
AcDbSymbolTableRecord
100
AcDbLinetypeTableRecord
70
0
2
CONTINUOUS
3
Solid line
72
65
73
0
40
0
0
LTYPE
5
6A
100
AcDbSymbolTableRecord
100
AcDbLinetypeTableRecord
70
0
2
CENTER
3
____ _ ____ _ ____ _ ____
72
65
73
4
40
47.5
49
22
74
0
49
-8.5
74
0
49
8.5
74
0
49
-8.5
74
0
0
LTYPE
5
6B
100
AcDbSymbolTableRecord
100
AcDbLinetypeTableRecord
70
0
2
DASHED
3
__ __ __ __ __ __ __ __ __
72
65
73
2
40
25.72
49
12.86
74
0
49
-12.86
74
0
0
ENDTAB
0
TABLE
2
LAYER
5
19c
100
AcDbSymbolTable
0
LAYER
5
10
100
AcDbSymbolTableRecord
100
AcDbLayerTableRecord
2
0
70
0
62
7
6
CONTINUOUS
290
1
370
-3
390
0
0
LAYER
5
6D
100
AcDbSymbolTableRecord
100
AcDbLayerTableRecord
2
81
70
0
62
-3
6
CONTINUOUS
290
1
370
-3
390
0
0
LAYER
5
6F
100
AcDbSymbolTableRecord
100
AcDbLayerTableRecord
2
80
70
0
62
-6
6
CONTINUOUS
290
1
370
-3
390
0
0
LAYER
5
74
100
AcDbSymbolTableRecord
100
AcDbLayerTableRecord
2
2
70
0
62
7
6
CONTINUOUS
290
1
370
-3
390
0
0
LAYER
5
78
100
AcDbSymbolTableRecord
100
AcDbLayerTableRecord
2
1
70
0
62
4
6
CONTINUOUS
290
1
370
-3
390
0
0
LAYER
5
86
100
AcDbSymbolTableRecord
100
AcDbLayerTableRecord
2
4
70
0
62
-2
6
CENTER
290
1
370
-3
390
0
0
LAYER
5
186
100
AcDbSymbolTableRecord
100
AcDbLayerTableRecord
2
SK2
70
0
62
7
6
CONTINUOUS
290
1
370
-3
390
0
0
LAYER
5
187
100
AcDbSymbolTableRecord
100
AcDbLayerTableRecord
2
SK1
70
0
62
4
6
CONTINUOUS
290
1
370
-3
390
0
0
LAYER
5
188
100
AcDbSymbolTableRecord
100
AcDbLayerTableRecord
2
SK4
70
0
62
2
6
CENTER
290
1
370
-3
390
0
0
LAYER
5
189
100
AcDbSymbolTableRecord
100
AcDbLayerTableRecord
2
SK6
70
0
62
5
6
CONTINUOUS
290
1
370
-3
390
0
0
ENDTAB
0
TABLE
2
STYLE
5
19d
100
AcDbSymbolTable
0
STYLE
5
11
100
AcDbSymbolTableRecord
100
AcDbTextStyleTableRecord
2
Standard
3
txt
70
0
71
0
40
0
41
1
42
0
50
0
0
STYLE
5
E2
100
AcDbSymbolTableRecord
100
AcDbTextStyleTableRecord
2
iso_b_vert
3
simplex.shx
70
0
71
0
40
0
41
1
42
0
50
0
0
STYLE
5
E3
100
AcDbSymbolTableRecord
100
AcDbTextStyleTableRecord
2
DWGDirectTextStyle
3
simplex
70
0
71
0
40
0
41
1
42
0
50
0
0
ENDTAB
0
TABLE
2
DIMSTYLE
5
19e
100
AcDbSymbolTable
100
AcDbDimStyleTable
0
DIMSTYLE
105
27
100
AcDbSymbolTableRecord
100
AcDbDimStyleTableRecord
2
Standard
70
0
3
<>
41
0.18
42
0.0625
44
0.18
140
0.18
147
0.09
73
0
74
0
77
1
271
2
275
0
278
52
280
0
340
11
0
ENDTAB
0
TABLE
2
VIEW
5
19f
100
AcDbSymbolTable
0
ENDTAB
0
TABLE
2
UCS
5
1a0
100
AcDbSymbolTable
0
ENDTAB
0
TABLE
2
APPID
5
1a1
100
AcDbSymbolTable
0
APPID
5
12
100
AcDbSymbolTableRecord
100
AcDbRegAppTableRecord
2
ACAD
70
0
0
ENDTAB
0
TABLE
2
BLOCK_RECORD
5
1a2
100
AcDbSymbolTable
0
BLOCK_RECORD
5
1F
100
AcDbSymbolTableRecord
100
AcDbBlockTableRecord
2
*Model_Space
340
0
70
0
0
BLOCK_RECORD
5
1B
100
AcDbSymbolTableRecord
100
AcDbBlockTableRecord
2
*Paper_Space
340
0
70
0
0
BLOCK_RECORD
5
23
100
AcDbSymbolTableRecord
100
AcDbBlockTableRecord
2
*Paper_Space0
340
0
70
0
0
BLOCK_RECORD
5
E5
100
AcDbSymbolTableRecord
100
AcDbBlockTableRecord
2
DimnDraft3D1
340
0
70
0
0
BLOCK_RECORD
5
EF
100
AcDbSymbolTableRecord
100
AcDbBlockTableRecord
2
DimnDraft3D2
340
0
70
0
0
BLOCK_RECORD
5
F9
100
AcDbSymbolTableRecord
100
AcDbBlockTableRecord
2
DimnDraft3D3
340
0
70
0
0
BLOCK_RECORD
5
103
100
AcDbSymbolTableRecord
100
AcDbBlockTableRecord
2
DimnDraft3D4
340
0
70
0
0
BLOCK_RECORD
5
10D
100
AcDbSymbolTableRecord
100
AcDbBlockTableRecord
2
DimnDraft3D5
340
0
70
0
0
BLOCK_RECORD
5
117
100
AcDbSymbolTableRecord
100
AcDbBlockTableRecord
2
DimnDraft3D6
340
0
70
0
0
BLOCK_RECORD
5
122
100
AcDbSymbolTableRecord
100
AcDbBlockTableRecord
2
DimnDraft3D7
340
0
70
0
0
ENDTAB
0
ENDSEC
0
SECTION
2
BLOCKS
0
BLOCK
5
20
100
AcDbEntity
8
0
100
AcDbBlockBegin
2
*Model_Space
70
0
10
0
20
0
30
0
3
*Model_Space
0
ENDBLK
5
21
100
AcDbEntity
8
0
100
AcDbBlockEnd
0
BLOCK
5
1C
100
AcDbEntity
8
0
100
AcDbBlockBegin
2
*Paper_Space
70
0
10
0
20
0
30
0
3
*Paper_Space
0
ENDBLK
5
1D
100
AcDbEntity
8
0
100
AcDbBlockEnd
0
BLOCK
5
24
100
AcDbEntity
8
0
100
AcDbBlockBegin
2
*Paper_Space0
70
0
10
0
20
0
30
0
3
*Paper_Space0
0
ENDBLK
5
25
100
AcDbEntity
8
0
100
AcDbBlockEnd
0
BLOCK
5
EC
100
AcDbEntity
8
0
100
AcDbBlockBegin
2
DimnDraft3D1
70
0
10
0
20
0
30
0
3
DimnDraft3D1
0
MTEXT
5
E6
100
AcDbEntity
8
SK2
62
256
6
ByLayer
370
13
48
1
60
0
100
AcDbMText
10
25.697164
20
-16.388398
30
0
210
0
220
0
230
1
1
\W0.7581;64,58
40
3.5
41
0
44
1.084337
50
0
71
7
72
5
7
iso_b_vert
0
LINE
5
E7
100
AcDbEntity
8
SK2
62
256
6
ByLayer
370
13
48
1
60
0
100
AcDbLine
10
0
20
-1.5875
30
0
11
0
21
-19.263398
31
0
39
0
210
0
220
0
230
1
0
LINE
5
E8
100
AcDbEntity
8
SK2
62
256
6
ByLayer
370
13
48
1
60
0
100
AcDbLine
10
64.58
20
-8.6375
30
0
11
64.58
21
-19.263398
31
0
39
0
210
0
220
0
230
1
0
LINE
5
E9
100
AcDbEntity
8
SK2
62
256
6
ByLayer
370
13
48
1
60
0
100
AcDbLine
10
0
20
-17.263398
30
0
11
64.58
21
-17.263398
31
0
39
0
210
0
220
0
230
1
0
SOLID
5
EA
100
AcDbEntity
8
SK2
62
256
6
ByLayer
370
13
48
1
60
0
100
AcDbTrace
10
0
20
-17.263398
30
0
11
3.499998
21
-16.802615
31
0
12
3.500002
22
-17.724182
32
0
13
0
23
-17.263398
33
0
39
0
210
0
220
0
230
1
0
SOLID
5
EB
100
AcDbEntity
8
SK2
62
256
6
ByLayer
370
13
48
1
60
0
100
AcDbTrace
10
64.58
20
-17.263398
30
0
11
61.080002
21
-17.724182
31
0
12
61.079998
22
-16.802615
32
0
13
64.58
23
-17.263398
33
0
39
0
210
0
220
0
230
1
0
ENDBLK
5
ED
100
AcDbEntity
8
0
100
AcDbBlockEnd
0
BLOCK
5
F6
100
AcDbEntity
8
0
100
AcDbBlockBegin
2
DimnDraft3D2
70
0
10
0
20
0
30
0
3
DimnDraft3D2
0
MTEXT
5
F0
100
AcDbEntity
8
SK2
62
256
6
ByLayer
370
13
48
1
60
0
100
AcDbMText
10
3.539721
20
-35.817985
30
0
210
0
220
0
230
1
1
\W0.6440;115,00
40
3.5
41
0
44
1.084337
50
0
71
7
72
5
7
iso_b_vert
0
LINE
5
F1
100
AcDbEntity
8
SK2
62
256
6
ByLayer
370
13
48
1
60
0
100
AcDbLine
10
-48
20
-9.5875
30
0
11
-48
21
-38.692985
31
0
39
0
210
0
220
0
230
1
0
LINE
5
F2
100
AcDbEntity
8
SK2
62
256
6
ByLayer
370
13
48
1
60
0
100
AcDbLine
10
67
20
-1.5875
30
0
11
67
21
-38.692985
31
0
39
0
210
0
220
0
230
1
0
LINE
5
F3
100
AcDbEntity
8
SK2
62
256
6
ByLayer
370
13
48
1
60
0
100
AcDbLine
10
-48
20
-36.692985
30
0
11
67
21
-36.692985
31
0
39
0
210
0
220
0
230
1
0
SOLID
5
F4
100
AcDbEntity
8
SK2
62
256
6
ByLayer
370
13
48
1
60
0
100
AcDbTrace
10
-48
20
-36.692985
30
0
11
-44.500002
21
-36.232202
31
0
12
-44.499998
22
-37.153769
32
0
13
-48
23
-36.692985
33
0
39
0
210
0
220
0
230
1
0
SOLID
5
F5
100
AcDbEntity
8
SK2
62
256
6
ByLayer
370
13
48
1
60
0
100
AcDbTrace
10
67
20
-36.692985
30
0
11
63.500002
21
-37.153769
31
0
12
63.499998
22
-36.232202
32
0
13
67
23
-36.692985
33
0
39
0
210
0
220
0
230
1
0
ENDBLK
5
F7
100
AcDbEntity
8
0
100
AcDbBlockEnd
0
BLOCK
5
100
100
AcDbEntity
8
0
100
AcDbBlockBegin
2
DimnDraft3D3
70
0
10
0
20
0
30
0
3
DimnDraft3D3
0
MTEXT
5
FA
100
AcDbEntity
8
SK2
62
256
6
ByLayer
370
13
48
1
60
0
100
AcDbMText
10
39.822895
20
19.534119
30
0
210
0
220
0
230
1
1
\W0.7845;44,72
40
3.5
41
0
44
1.084337
50
0
71
7
72
5
7
iso_b_vert
0
LINE
5
FB
100
AcDbEntity
8
SK2
62
256
6
ByLayer
370
13
48
1
60
0
100
AcDbLine
10
22.28
20
8.6375
30
0
11
22.28
21
20.659119
31
0
39
0
210
0
220
0
230
1
0
LINE
5
FC
100
AcDbEntity
8
SK2
62
256
6
ByLayer
370
13
48
1
60
0
100
AcDbLine
10
67
20
1.5875
30
0
11
67
21
20.659119
31
0
39
0
210
0
220
0
230
1
0
LINE
5
FD
100
AcDbEntity
8
SK2
62
256
6
ByLayer
370
13
48
1
60
0
100
AcDbLine
10
22.28
20
18.659119
30
0
11
67
21
18.659119
31
0
39
0
210
0
220
0
230
1
0
SOLID
5
FE
100
AcDbEntity
8
SK2
62
256
6
ByLayer
370
13
48
1
60
0
100
AcDbTrace
10
22.28
20
18.659119
30
0
11
25.779998
21
19.119903
31
0
12
25.780002
22
18.198335
32
0
13
22.28
23
18.659119
33
0
39
0
210
0
220
0
230
1
0
SOLID
5
FF
100
AcDbEntity
8
SK2
62
256
6
ByLayer
370
13
48
1
60
0
100
AcDbTrace
10
67
20
18.659119
30
0
11
63.500002
21
18.198335
31
0
12
63.499998
22
19.119903
32
0
13
67
23
18.659119
33
0
39
0
210
0
220
0
230
1
0
ENDBLK
5
101
100
AcDbEntity
8
0
100
AcDbBlockEnd
0
BLOCK
5
10A
100
AcDbEntity
8
0
100
AcDbBlockBegin
2
DimnDraft3D4
70
0
10
0
20
0
30
0
3
DimnDraft3D4
0
MTEXT
5
104
100
AcDbEntity
8
SK2
62
256
6
ByLayer
370
13
48
1
60
0
100
AcDbMText
10
73.656425
20
-18.977503
30
0
210
0
220
0
230
1
1
\W0.7493;2,42
40
3.5
41
0
44
1.084337
50
0
71
7
72
5
7
iso_b_vert
0
LINE
5
105
100
AcDbEntity
8
SK2
62
256
6
ByLayer
370
13
48
1
60
0
100
AcDbLine
10
67
20
-1.5875
30
0
11
67
21
-21.852503
31
0
39
0
210
0
220
0
230
1
0
LINE
5
106
100
AcDbEntity
8
SK2
62
256
6
ByLayer
370
13
48
1
60
0
100
AcDbLine
10
64.58
20
-8.6375
30
0
11
64.58
21
-21.852503
31
0
39
0
210
0
220
0
230
1
0
LINE
5
107
100
AcDbEntity
8
SK2
62
256
6
ByLayer
370
13
48
1
60
0
100
AcDbLine
10
55.83
20
-19.852503
30
0
11
81.181425
21
-19.852503
31
0
39
0
210
0
220
0
230
1
0
SOLID
5
108
100
AcDbEntity
8
SK2
62
256
6
ByLayer
370
13
48
1
60
0
100
AcDbTrace
10
67
20
-19.852503
30
0
11
70.499998
21
-19.391719
31
0
12
70.500002
22
-20.313287
32
0
13
67
23
-19.852503
33
0
39
0
210
0
220
0
230
1
0
SOLID
5
109
100
AcDbEntity
8
SK2
62
256
6
ByLayer
370
13
48
1
60
0
100
AcDbTrace
10
64.58
20
-19.852503
30
0
11
61.080002
21
-20.313287
31
0
12
61.079998
22
-19.391719
32
0
13
64.58
23
-19.852503
33
0
39
0
210
0
220
0
230
1
0
ENDBLK
5
10B
100
AcDbEntity
8
0
100
AcDbBlockEnd
0
BLOCK
5
114
100
AcDbEntity
8
0
100
AcDbBlockBegin
2
DimnDraft3D5
70
0
10
0
20
0
30
0
3
DimnDraft3D5
0
MTEXT
5
10E
100
AcDbEntity
8
SK2
62
256
6
ByLayer
370
13
48
1
60
0
100
AcDbMText
10
0.459097
20
-25.468428
30
0
210
0
220
0
230
1
1
\W0.6440;112,58
40
3.5
41
0
44
1.084337
50
0
71
7
72
5
7
iso_b_vert
0
LINE
5
10F
100
AcDbEntity
8
SK2
62
256
6
ByLayer
370
13
48
1
60
0
100
AcDbLine
10
-48
20
-9.5875
30
0
11
-48
21
-28.343428
31
0
39
0
210
0
220
0
230
1
0
LINE
5
110
100
AcDbEntity
8
SK2
62
256
6
ByLayer
370
13
48
1
60
0
100
AcDbLine
10
64.58
20
-8.6375
30
0
11
64.58
21
-28.343428
31
0
39
0
210
0
220
0
230
1
0
LINE
5
111
100
AcDbEntity
8
SK2
62
256
6
ByLayer
370
13
48
1
60
0
100
AcDbLine
10
-48
20
-26.343428
30
0
11
64.58
21
-26.343428
31
0
39
0
210
0
220
0
230
1
0
SOLID
5
112
100
AcDbEntity
8
SK2
62
256
6
ByLayer
370
13
48
1
60
0
100
AcDbTrace
10
-48
20
-26.343428
30
0
11
-44.500002
21
-25.882645
31
0
12
-44.499998
22
-26.804212
32
0
13
-48
23
-26.343428
33
0
39
0
210
0
220
0
230
1
0
SOLID
5
113
100
AcDbEntity
8
SK2
62
256
6
ByLayer
370
13
48
1
60
0
100
AcDbTrace
10
64.58
20
-26.343428
30
0
11
61.080002
21
-26.804212
31
0
12
61.079998
22
-25.882645
32
0
13
64.58
23
-26.343428
33
0
39
0
210
0
220
0
230
1
0
ENDBLK
5
115
100
AcDbEntity
8
0
100
AcDbBlockEnd
0
BLOCK
5
11F
100
AcDbEntity
8
0
100
AcDbBlockBegin
2
DimnDraft3D6
70
0
10
0
20
0
30
0
3
DimnDraft3D6
0
MTEXT
5
118
100
AcDbEntity
8
SK2
62
256
6
ByLayer
370
13
48
1
60
0
100
AcDbMText
10
-58.375163
20
27.34918
30
0
210
0
220
0
230
1
1
\W0.6930;16,000
40
3.5
41
0
44
1.084337
50
90
71
7
72
5
7
iso_b_vert
0
MTEXT
5
119
100
AcDbEntity
8
SK2
62
256
6
ByLayer
370
13
48
1
60
0
100
AcDbMText
10
-58.375163
20
22.126524
30
0
210
0
220
0
230
1
1
%%c
40
3.5
41
0
44
1.084337
50
90
71
7
72
5
7
iso_b_vert
0
LINE
5
11A
100
AcDbEntity
8
SK2
62
256
6
ByLayer
370
13
48
1
60
0
100
AcDbLine
10
-49.5875
20
-8
30
0
11
-58.625163
21
-8
31
0
39
0
210
0
220
0
230
1
0
LINE
5
11B
100
AcDbEntity
8
SK2
62
256
6
ByLayer
370
13
48
1
60
0
100
AcDbLine
10
-49.5875
20
8
30
0
11
-58.625163
21
8
31
0
39
0
210
0
220
0
230
1
0
LINE
5
11C
100
AcDbEntity
8
SK2
62
256
6
ByLayer
370
13
48
1
60
0
100
AcDbLine
10
-56.625163
20
-8
30
0
11
-56.625163
21
38.862338
31
0
39
0
210
0
220
0
230
1
0
SOLID
5
11D
100
AcDbEntity
8
SK2
62
256
6
ByLayer
370
13
48
1
60
0
100
AcDbTrace
10
-56.625163
20
-8
30
0
11
-57.085946
21
-4.500002
31
0
12
-56.164379
22
-4.499998
32
0
13
-56.625163
23
-8
33
0
39
0
210
0
220
0
230
1
0
SOLID
5
11E
100
AcDbEntity
8
SK2
62
256
6
ByLayer
370
13
48
1
60
0
100
AcDbTrace
10
-56.625163
20
8
30
0
11
-56.164379
21
4.500002
31
0
12
-57.085946
22
4.499998
32
0
13
-56.625163
23
8
33
0
39
0
210
0
220
0
230
1
0
ENDBLK
5
120
100
AcDbEntity
8
0
100
AcDbBlockEnd
0
BLOCK
5
12A
100
AcDbEntity
8
0
100
AcDbBlockBegin
2
DimnDraft3D7
70
0
10
0
20
0
30
0
3
DimnDraft3D7
0
MTEXT
5
123
100
AcDbEntity
8
2
62
256
6
ByLayer
370
13
48
1
60
0
100
AcDbMText
10
77.333343
20
24.992266
30
0
210
0
220
0
230
1
1
\W0.6654;14,100
40
3.5
41
0
44
1.084337
50
90
71
7
72
5
7
iso_b_vert
0
MTEXT
5
124
100
AcDbEntity
8
2
62
256
6
ByLayer
370
13
48
1
60
0
100
AcDbMText
10
77.333343
20
19.76961
30
0
210
0
220
0
230
1
1
%%c
40
3.5
41
0
44
1.084337
50
90
71
7
72
5
7
iso_b_vert
0
LINE
5
125
100
AcDbEntity
8
2
62
256
6
ByLayer
370
13
48
1
60
0
100
AcDbLine
10
66.1675
20
-7.05
30
0
11
81.083343
21
-7.05
31
0
39
0
210
0
220
0
230
1
0
LINE
5
126
100
AcDbEntity
8
2
62
256
6
ByLayer
370
13
48
1
60
0
100
AcDbLine
10
66.1675
20
7.05
30
0
11
81.083343
21
7.05
31
0
39
0
210
0
220
0
230
1
0
LINE
5
127
100
AcDbEntity
8
2
62
256
6
ByLayer
370
13
48
1
60
0
100
AcDbLine
10
79.083343
20
-7.05
30
0
11
79.083343
21
35.998845
31
0
39
0
210
0
220
0
230
1
0
SOLID
5
128
100
AcDbEntity
8
2
62
256
6
ByLayer
370
13
48
1
60
0
100
AcDbTrace
10
79.083343
20
-7.05
30
0
11
78.622559
21
-3.550002
31
0
12
79.544126
22
-3.549998
32
0
13
79.083343
23
-7.05
33
0
39
0
210
0
220
0
230
1
0
SOLID
5
129
100
AcDbEntity
8
2
62
256
6
ByLayer
370
13
48
1
60
0
100
AcDbTrace
10
79.083343
20
7.05
30
0
11
79.544126
21
3.550002
31
0
12
78.622559
22
3.549998
32
0
13
79.083343
23
7.05
33
0
39
0
210
0
220
0
230
1
0
ENDBLK
5
12B
100
AcDbEntity
8
0
100
AcDbBlockEnd
0
ENDSEC
0
SECTION
2
ENTITIES
0
ARC
5
9C
100
AcDbEntity
8
1
62
256
6
ByLayer
370
18
48
1
60
0
100
AcDbCircle
39
0
10
0
20
7.2
30
0
40
0.8
210
0
220
0
230
1
100
AcDbArc
50
22.492945
51
90
0
ARC
5
9D
100
AcDbEntity
8
1
62
256
6
ByLayer
370
18
48
1
60
0
100
AcDbCircle
39
0
10
0
20
-7.2
30
0
40
0.8
210
0
220
0
230
1
100
AcDbArc
50
270
51
337.507055
0
ARC
5
9E
100
AcDbEntity
8
1
62
256
6
ByLayer
370
18
48
1
60
0
100
AcDbCircle
39
0
10
-1.478283
20
-7.812111
30
0
40
0.8
210
0
220
0
230
-1
100
AcDbArc
50
22.492945
51
90.034377
0
ARC
5
9F
100
AcDbEntity
8
1
62
256
6
ByLayer
370
18
48
1
60
0
100
AcDbCircle
39
0
10
-1.478283
20
7.812111
30
0
40
0.8
210
0
220
0
230
-1
100
AcDbArc
50
269.965623
51
337.507055
0
ELLIPSE
5
A0
100
AcDbEntity
8
1
62
256
6
ByLayer
370
13
48
1
60
0
100
AcDbEllipse
10
65.965042
20
3.166772
30
0
11
4.62353561298632
21
-2.37691030019504
31
0
210
0
220
0
230
-1
40
0.482873
41
1.53949524922895
42
1.87556936991955
0
ELLIPSE
5
A1
100
AcDbEntity
8
1
62
256
6
ByLayer
370
13
48
1
60
0
100
AcDbEllipse
10
66.1345
20
3.301064
30
0
11
4.67055793028643
21
-2.06470341477472
31
0
210
0
220
0
230
-1
40
0.454418
41
1.58457166729128
42
1.92689162344406
0
ELLIPSE
5
A2
100
AcDbEntity
8
1
62
256
6
ByLayer
370
18
48
1
60
0
100
AcDbEllipse
10
65.709399
20
3.301064
30
0
11
1.08552857261867
21
-2.95965721909067
31
0
210
0
220
0
230
-1
40
0.082138
41
-1.58638637557253
42
-0.755280950346537
0
ELLIPSE
5
A3
100
AcDbEntity
8
1
62
256
6
ByLayer
370
18
48
1
60
0
100
AcDbEllipse
10
67.000597
20
0.00154
30
0
11
2.58511415103269
21
7.04822694744276
31
0
210
0
220
0
230
-1
40
0.082138
41
2.9025168820573
42
2.99256236235427
0
ELLIPSE
5
A4
100
AcDbEntity
8
1
62
256
6
ByLayer
370
13
48
1
60
0
100
AcDbEllipse
10
4.181314
20
-1.737178
30
0
11
-0.033911523183521
21
-0.0940744842950176
31
0
210
0
220
0
230
1
40
0.508386
41
-1.62850010198383
42
-0.279533707278027
0
ELLIPSE
5
A5
100
AcDbEntity
8
1
62
256
6
ByLayer
370
18
48
1
60
0
100
AcDbEllipse
10
65.709399
20
-3.301064
30
0
11
1.0855285726239
21
2.95965721910262
31
0
210
0
220
0
230
-1
40
0.082138
41
0.755280950346341
42
1.58638637556293
0
ELLIPSE
5
A6
100
AcDbEntity
8
1
62
256
6
ByLayer
370
18
48
1
60
0
100
AcDbEllipse
10
66.859795
20
0.139727
30
0
11
0.0868803724554842
21
0.290676908832539
31
0
210
0
220
0
230
-1
40
0.467765
41
1.68342036433144
42
2.36053717390022
0
ELLIPSE
5
A7
100
AcDbEntity
8
1
62
256
6
ByLayer
370
18
48
1
60
0
100
AcDbEllipse
10
67.000597
20
-0.00154
30
0
11
2.58511408490461
21
-7.04822675805795
31
0
210
0
220
0
230
-1
40
0.082138
41
-2.99256236035325
42
-2.90251687883144
0
ELLIPSE
5
A8
100
AcDbEntity
8
1
62
256
6
ByLayer
370
18
48
1
60
0
100
AcDbEllipse
10
67.016021
20
-0.062376
30
0
11
0.135658546015303
21
0.401200806183234
31
0
210
0
220
0
230
-1
40
0.065863
41
-2.32292776271844
42
-1.60378117055786
0
ELLIPSE
5
A9
100
AcDbEntity
8
1
62
256
6
ByLayer
370
13
48
1
60
0
100
AcDbEllipse
10
65.132015
20
0.995188
30
0
11
0.133113781883896
21
0.268850741253519
31
0
210
0
220
0
230
1
40
0.40558
41
0.884485917130894
42
2.28074931872641
0
ELLIPSE
5
AA
100
AcDbEntity
8
1
62
256
6
ByLayer
370
18
48
1
60
0
100
AcDbEllipse
10
67.016021
20
0.062376
30
0
11
0.135658546029446
21
-0.401200806219836
31
0
210
0
220
0
230
-1
40
0.065863
41
1.60378117061937
42
2.3229277627196
0
ELLIPSE
5
AB
100
AcDbEntity
8
1
62
256
6
ByLayer
370
13
48
1
60
0
100
AcDbEllipse
10
4.250128
20
-1.7669
30
0
11
0.0444683198320695
21
0.0895687921729035
31
0
210
0
220
0
230
1
40
0.117929
41
1.33571573823728
42
2.89519739618755
0
POINT
5
6C
100
AcDbEntity
8
81
62
256
6
ByLayer
370
18
48
1
60
0
100
AcDbPoint
10
67
20
0
30
0
39
0
210
0
220
0
230
1
50
360
0
POINT
5
6E
100
AcDbEntity
8
80
62
256
6
ByLayer
370
18
48
1
60
0
100
AcDbPoint
10
0
20
0
30
0
39
0
210
0
220
0
230
1
50
360
0
POINT
5
70
100
AcDbEntity
8
SK2
62
256
6
ByLayer
370
18
48
1
60
1
100
AcDbPoint
10
-48
20
-8
30
0
39
0
210
0
220
0
230
1
50
360
0
POINT
5
72
100
AcDbEntity
8
SK2
62
256
6
ByLayer
370
18
48
1
60
1
100
AcDbPoint
10
-48
20
8
30
0
39
0
210
0
220
0
230
1
50
360
0
POINT
5
73
100
AcDbEntity
8
2
62
256
6
ByLayer
370
18
48
1
60
1
100
AcDbPoint
10
64.58
20
-7.05
30
0
39
0
210
0
220
0
230
1
50
360
0
POINT
5
75
100
AcDbEntity
8
2
62
256
6
ByLayer
370
18
48
1
60
1
100
AcDbPoint
10
64.58
20
7.05
30
0
39
0
210
0
220
0
230
1
50
360
0
SPLINE
5
AC
100
AcDbEntity
8
1
62
256
6
ByLayer
370
18
48
1
60
0
100
AcDbSpline
70
4
71
3
72
32
73
28
40
0
40
0
40
0
40
0
40
0.0093709226735591
40
0.0479073590271263
40
0.0822836293118589
40
0.114245273825409
40
0.144561796046749
40
0.19205614355537
40
0.243207365466797
40
0.297419033692516
40
0.347418090662772
40
0.392745475612542
40
0.440282959610783
40
0.490338844336742
40
0.544130760160666
40
0.578258177618301
40
0.610987114465741
40
0.638719982134585
40
0.663323011765055
40
0.697864257941886
40
0.7427604670411
40
0.808925629506677
40
0.864160145883071
40
0.910397837541202
40
0.953990560144051
40
0.995357626836198
40
1
40
1
40
1
40
1
41
1
10
42.8911941171551
20
6.72565384138068
30
0
41
1
10
42.8359289839003
20
6.72550869457044
30
0
41
1
10
42.5537665408077
20
6.72482448990311
30
0
41
1
10
42.0736618652118
20
6.72444551449246
30
0
41
1
10
41.4650384959975
20
6.72425224583321
30
0
41
1
10
40.8945259171207
20
6.72436631351937
30
0
41
1
10
40.2479753718909
20
6.72541012290975
30
0
41
1
10
39.4877745312259
20
6.72754038900715
30
0
41
1
10
38.5868164251732
20
6.72511675890931
30
0
41
1
10
37.6711024749196
20
6.72546256152501
30
0
41
1
10
36.7896803146475
20
6.72262134342392
30
0
41
1
10
35.9476767628771
20
6.72220959040033
30
0
41
1
10
35.1052593575528
20
6.72300167070915
30
0
41
1
10
34.212963753931
20
6.72501967200924
30
0
41
1
10
33.3997056190484
20
6.72305436678977
30
0
41
1
10
32.688580965774
20
6.72105267055767
30
0
41
1
10
32.1310517399993
20
6.72148081313446
30
0
41
1
10
31.6296620544613
20
6.72177618352742
30
0
41
1
10
31.1175919277535
20
6.72207544427999
30
0
41
1
10
30.5043519973421
20
6.72255569750533
30
0
41
1
10
29.6461385831571
20
6.72101377360397
30
0
41
1
10
28.6659847913431
20
6.71910062254616
30
0
41
1
10
27.6778649729812
20
6.71982137291587
30
0
41
1
10
26.8228811138989
20
6.72039999676431
30
0
41
1
10
26.0494621422671
20
6.71975860209113
30
0
41
1
10
25.5215953988864
20
6.71909767096736
30
0
41
1
10
25.2505029528921
20
6.71884062612676
30
0
41
1
10
25.223149449816
20
6.71881562165936
30
0
0
SPLINE
5
AD
100
AcDbEntity
8
1
62
256
6
ByLayer
370
18
48
1
60
0
100
AcDbSpline
70
4
71
3
72
34
73
30
40
0
40
0
40
0
40
0
40
0.0374385149083891
40
0.0692005092321639
40
0.0938626415525029
40
0.119480299671419
40
0.148618838254227
40
0.175264304200379
40
0.196218219415919
40
0.23233694407708
40
0.277506511064176
40
0.31905854901758
40
0.368278227797808
40
0.418479863445021
40
0.46234887545969
40
0.509991080249065
40
0.561792208325308
40
0.621996910894298
40
0.688252425157572
40
0.749420438476101
40
0.797983198200891
40
0.852533038822567
40
0.902335770833931
40
0.914554574072872
40
0.926862591893316
40
0.939772668386657
40
0.957922932614129
40
0.992111147701337
40
1
40
1
40
1
40
1
41
1
10
21.5421823719149
20
-6.71716781301626
30
0
41
1
10
21.7977906042831
20
-6.71660369310732
30
0
41
1
10
22.2724680884522
20
-6.71615247536198
30
0
41
1
10
22.9365637226703
20
-6.71424765776069
30
0
41
1
10
23.4981741098191
20
-6.7179495727467
30
0
41
1
10
24.0500516210074
20
-6.71831251313517
30
0
41
1
10
24.6205181696673
20
-6.71865506003485
30
0
41
1
10
25.1580967232938
20
-6.71886651817337
30
0
41
1
10
25.7446880498056
20
-6.71912032460713
30
0
41
1
10
26.461075040274
20
-6.72059116756867
30
0
41
1
10
27.3216272780228
20
-6.71993623871279
30
0
41
1
10
28.2741861019344
20
-6.71949678828901
30
0
41
1
10
29.2617292095731
20
-6.7193767655676
30
0
41
1
10
30.2657502247172
20
-6.72295888012391
30
0
41
1
10
31.2586514079225
20
-6.72202108090716
30
0
41
1
10
32.2627810529114
20
-6.72091411608841
30
0
41
1
10
33.381362663171
20
-6.72302791039132
30
0
41
1
10
34.6303712511999
20
-6.72475151526962
30
0
41
1
10
35.9449734715456
20
-6.72121141156757
30
0
41
1
10
37.178110131753
20
-6.72443572852737
30
0
41
1
10
38.3289151368515
20
-6.72485872401356
30
0
41
1
10
39.401246686246
20
-6.72795220091572
30
0
41
1
10
40.2155159041026
20
-6.7252112850413
30
0
41
1
10
40.7364749356469
20
-6.72439678483613
30
0
41
1
10
40.9986901031551
20
-6.72420451293942
30
0
41
1
10
41.3011479660431
20
-6.72422331386835
30
0
41
1
10
41.7583264437241
20
-6.72427075607533
30
0
41
1
10
42.1802190658506
20
-6.72574524793379
30
0
41
1
10
42.4750356939332
20
-6.72654378978163
30
0
41
1
10
42.5303099992833
20
-6.72670167589615
30
0
0
SPLINE
5
AE
100
AcDbEntity
8
1
62
256
6
ByLayer
370
18
48
1
60
0
100
AcDbSpline
70
4
71
2
72
6
73
3
40
0
40
0
40
0
40
1
40
1
40
1
41
1
10
63.1788753644259
20
-6.74234582591794
30
0
41
1
10
63.8507156576078
20
-6.74100296503156
30
0
41
1
10
64.520971805688
20
-6.74400253016978
30
0
0
SPLINE
5
AF
100
AcDbEntity
8
1
62
256
6
ByLayer
370
18
48
1
60
0
100
AcDbSpline
70
4
71
3
72
10
73
6
40
0
40
0
40
0
40
0
40
0.186412145253313
40
0.597196448350234
40
1
40
1
40
1
40
1
41
1
10
44.3503110326136
20
-1.73688745189142
30
0
41
1
10
44.3519904432072
20
-1.7377372275941
30
0
41
1
10
44.3656676537126
20
-1.74446066615826
30
0
41
1
10
44.431462502659
20
-1.77706211495635
30
0
41
1
10
44.4907963363003
20
-1.80752457516977
30
0
41
1
10
44.5250273567107
20
-1.82519335493609
30
0
0
SPLINE
5
B0
100
AcDbEntity
8
1
62
256
6
ByLayer
370
18
48
1
60
0
100
AcDbSpline
70
4
71
3
72
18
73
14
40
0
40
0
40
0
40
0
40
0.124999999999999
40
0.124999999999999
40
0.249999999999998
40
0.249999999999998
40
0.374999999999997
40
0.374999999999997
40
0.499999999999996
40
0.499999999999996
40
0.749999999999998
40
0.749999999999998
40
1
40
1
40
1
40
1
41
1
10
4.25055232280423
20
-6.66649764456898
30
0
41
1
10
4.23620189553191
20
-6.66788645699714
30
0
41
1
10
4.2213276441058
20
-6.6703400277303
30
0
41
1
10
4.19010655879504
20
-6.67818607772719
30
0
41
1
10
4.17367322766955
20
-6.68364271210916
30
0
41
1
10
4.14062514739439
20
-6.69822276070391
30
0
41
1
10
4.12372882485647
20
-6.70752995774743
30
0
41
1
10
4.09215984561931
20
-6.72947303038794
30
0
41
1
10
4.07757198205496
20
-6.74203691283333
30
0
41
1
10
4.03984938854782
20
-6.78182099306076
30
0
41
1
10
4.02378117881437
20
-6.80948563688844
30
0
41
1
10
4.00402011344852
20
-6.86085287438345
30
0
41
1
10
3.99999983391464
20
-6.88525643867007
30
0
41
1
10
3.99999983391464
20
-6.90791192576896
30
0
0
SPLINE
5
B1
100
AcDbEntity
8
1
62
256
6
ByLayer
370
18
48
1
60
0
100
AcDbSpline
70
4
71
3
72
30
73
26
40
0
40
0
40
0
40
0
40
0.0345631321288889
40
0.0345631321288889
40
0.131106818916002
40
0.131106818916002
40
0.227650505703114
40
0.227650505703114
40
0.27592234909667
40
0.27592234909667
40
0.324194192490225
40
0.324194192490225
40
0.420737879277336
40
0.420737879277336
40
0.517281566064447
40
0.517281566064447
40
0.613825252851557
40
0.613825252851557
40
0.710368939638668
40
0.710368939638668
40
0.806912626425779
40
0.806912626425779
40
0.903456313212889
40
0.903456313212889
40
1
40
1
40
1
40
1
41
1
10
42.8927933026285
20
6.72595339624723
30
0
41
1
10
43.0584524326011
20
6.7241497528014
30
0
41
1
10
43.2240535378728
20
6.72048747282795
30
0
41
1
10
43.8522765639602
20
6.69996915228916
30
0
41
1
10
44.3146966217583
20
6.6717693965266
30
0
41
1
10
45.2393055651606
20
6.5918924622662
30
0
41
1
10
45.701600638121
20
6.54007880404453
30
0
41
1
10
46.396456905622
20
6.44700351096969
30
0
41
1
10
46.6283244025769
20
6.41311073547416
30
0
41
1
10
47.0920995673049
20
6.33806763693983
30
0
41
1
10
47.3236958200051
20
6.29723850223851
30
0
41
1
10
48.0178434765769
20
6.16629141313393
30
0
41
1
10
48.4801898154185
20
6.06775613829311
30
0
41
1
10
49.4050027311219
20
5.84931710390978
30
0
41
1
10
49.8670977203653
20
5.7305597104029
30
0
41
1
10
50.7917705644359
20
5.47055635192572
30
0
41
1
10
51.255337189642
20
5.32934342630162
30
0
41
1
10
52.1828844543151
20
5.02774495782762
30
0
41
1
10
52.6454537688122
20
4.86724867178035
30
0
41
1
10
53.5704129918114
20
4.53113089846516
30
0
41
1
10
54.0329079985888
20
4.35573152082461
30
0
41
1
10
54.9576406523058
20
3.98723921329281
30
0
41
1
10
55.4197626701771
20
3.79463493566769
30
0
41
1
10
56.3464073310693
20
3.39669373461359
30
0
41
1
10
56.8107981788021
20
3.19046670379782
30
0
41
1
10
57.2738351430763
20
2.97896080537473
30
0
0
SPLINE
5
B2
100
AcDbEntity
8
1
62
256
6
ByLayer
370
18
48
1
60
0
100
AcDbSpline
70
4
71
3
72
16
73
12
40
0
40
0
40
0
40
0
40
0.250000000000006
40
0.250000000000006
40
0.375000000000005
40
0.375000000000005
40
0.500000000000003
40
0.500000000000003
40
0.750000000000002
40
0.750000000000002
40
1
40
1
40
1
40
1
41
1
10
63.4827741604178
20
1.7503341149596
30
0
41
1
10
63.4719677569761
20
1.77878660230155
30
0
41
1
10
63.4643826729756
20
1.80815570975094
30
0
41
1
10
63.4605074238919
20
1.85434513860895
30
0
41
1
10
63.4603979453286
20
1.86976361151679
30
0
41
1
10
63.4644637915394
20
1.90044614081714
30
0
41
1
10
63.4685855657613
20
1.91576131387626
30
0
41
1
10
63.4877468427669
20
1.95851721104631
30
0
41
1
10
63.5105709881141
20
1.9829744208092
30
0
41
1
10
63.5645375563906
20
2.01617880972631
30
0
41
1
10
63.5954752711791
20
2.02607902490288
30
0
41
1
10
63.6268856292184
20
2.03161646951389
30
0
0
SPLINE
5
B3
100
AcDbEntity
8
1
62
256
6
ByLayer
370
18
48
1
60
0
100
AcDbSpline
70
4
71
3
72
76
73
72
40
0
40
0
40
0
40
0
40
0.0033814579717095
40
0.0033814579717095
40
0.0389749773298636
40
0.0389749773298636
40
0.0745684966880176
40
0.0745684966880176
40
0.110162016046172
40
0.110162016046172
40
0.127958775725249
40
0.127958775725249
40
0.145755535404326
40
0.145755535404326
40
0.18134905476248
40
0.18134905476248
40
0.216942574120634
40
0.216942574120634
40
0.23473933379971
40
0.23473933379971
40
0.252536093478787
40
0.252536093478787
40
0.28812961283694
40
0.28812961283694
40
0.323723132195094
40
0.323723132195094
40
0.34151989187417
40
0.34151989187417
40
0.359316651553247
40
0.359316651553247
40
0.3949101709114
40
0.3949101709114
40
0.430503690269553
40
0.430503690269553
40
0.466097209627707
40
0.466097209627707
40
0.483893969306783
40
0.483893969306783
40
0.501690728985859
40
0.501690728985859
40
0.537284248344011
40
0.537284248344011
40
0.555081008023087
40
0.555081008023087
40
0.572877767702164
40
0.572877767702164
40
0.608471287060316
40
0.608471287060316
40
0.644064806418469
40
0.644064806418469
40
0.661861566097545
40
0.661861566097545
40
0.679658325776621
40
0.679658325776621
40
0.715251845134774
40
0.715251845134774
40
0.750845364492927
40
0.750845364492927
40
0.786438883851081
40
0.786438883851081
40
0.822032403209234
40
0.822032403209234
40
0.857625922567387
40
0.857625922567387
40
0.893219441925541
40
0.893219441925541
40
0.928812961283694
40
0.928812961283694
40
0.964406480641847
40
0.964406480641847
40
1
40
1
40
1
40
1
41
1
10
51.8516875410721
20
-5.13516321958599
30
0
41
1
10
51.8077245275031
20
-5.14963833335554
30
0
41
1
10
51.7637550172213
20
-5.16402693259292
30
0
41
1
10
51.2568730307301
20
-5.32885330402439
30
0
41
1
10
50.7928587742657
20
-5.47025044449177
30
0
41
1
10
49.8659997266957
20
-5.73086836889678
30
0
41
1
10
49.4032270447363
20
-5.84976833570943
30
0
41
1
10
48.4777259420573
20
-6.06830613628298
30
0
41
1
10
48.0154244769266
20
-6.16678034048465
30
0
41
1
10
47.3219253744471
20
-6.29755608338766
30
0
41
1
10
47.090639879297
20
-6.3383137953698
30
0
41
1
10
46.6277075423614
20
-6.41320053688705
30
0
41
1
10
46.3960400940244
20
-6.44706435690117
30
0
41
1
10
45.7004742140667
20
-6.54021963729821
30
0
41
1
10
45.2365777920288
20
-6.59218695877758
30
0
41
1
10
44.3105299670286
20
-6.67207006967948
30
0
41
1
10
43.8477487530832
20
-6.70020374170201
30
0
41
1
10
43.1538956341335
20
-6.72273490444496
30
0
41
1
10
42.9227449523211
20
-6.7268290160564
30
0
41
1
10
42.4603237984809
20
-6.72761648388709
30
0
41
1
10
42.2289790241052
20
-6.72473586789684
30
0
41
1
10
41.5343653243323
20
-6.70855011601387
30
0
41
1
10
41.0699716927917
20
-6.68703209210074
30
0
41
1
10
40.1428073771111
20
-6.61988095937693
30
0
41
1
10
39.6802308617915
20
-6.57454348202822
30
0
41
1
10
38.9863053810145
20
-6.48659646645933
30
0
41
1
10
38.7550295128874
20
-6.45364224146755
30
0
41
1
10
38.2925037029752
20
-6.38275420664661
30
0
41
1
10
38.0613037419132
20
-6.34474688827962
30
0
41
1
10
37.3677694973474
20
-6.2211494612645
30
0
41
1
10
36.9049152913978
20
-6.12603761902255
30
0
41
1
10
35.9773465245459
20
-5.91638697876616
30
0
41
1
10
35.5133904052437
20
-5.80125480295973
30
0
41
1
10
34.5878709783767
20
-5.55005758219795
30
0
41
1
10
34.1253407953334
20
-5.41481122257213
30
0
41
1
10
33.4315490654631
20
-5.19442233001482
30
0
41
1
10
33.2002867027543
20
-5.11822225322686
30
0
41
1
10
32.7378543180762
20
-4.96168379700896
30
0
41
1
10
32.5066103424383
20
-4.8814861713434
30
0
41
1
10
31.8122063742302
20
-4.63478440187941
30
0
41
1
10
31.3478577129229
20
-4.46194478654684
30
0
41
1
10
30.6525850109554
20
-4.19043730494184
30
0
41
1
10
30.4211460508783
20
-4.09785634835535
30
0
41
1
10
29.9585848252058
20
-3.90842308569935
30
0
41
1
10
29.7274090728358
20
-3.81143783732327
30
0
41
1
10
29.0337293346064
20
-3.51680492185631
30
0
41
1
10
28.5711062888065
20
-3.31514948051003
30
0
41
1
10
27.6461876535237
20
-2.89908237198762
30
0
41
1
10
27.183640819832
20
-2.685061855904
30
0
41
1
10
26.488076737697
20
-2.3573053876018
30
0
41
1
10
26.2559725734443
20
-2.24670276289541
30
0
41
1
10
25.7925813844624
20
-2.02345082839389
30
0
41
1
10
25.5611118405978
20
-1.910902568273
30
0
41
1
10
24.867226576
20
-1.57079954007656
30
0
41
1
10
24.4048952782719
20
-1.34141177034528
30
0
41
1
10
23.479805544914
20
-0.879338154116596
30
0
41
1
10
23.0174113995089
20
-0.64595598162083
30
0
41
1
10
22.0917399617027
20
-0.176452770864472
30
0
41
1
10
21.6274393530257
20
0.0589974833470421
30
0
41
1
10
20.700413208297
20
0.528084739124893
30
0
41
1
10
20.2380260677026
20
0.762370966434759
30
0
41
1
10
19.3127265037394
20
1.22651749712853
30
0
41
1
10
18.849863989161
20
1.45630178826426
30
0
41
1
10
17.92379305123
20
1.91092580926124
30
0
41
1
10
17.4603221162721
20
2.13651593207706
30
0
41
1
10
16.5330844430498
20
2.5760985763952
30
0
41
1
10
16.0698591140226
20
2.79050069754385
30
0
41
1
10
15.1445934458006
20
3.21003697897135
30
0
41
1
10
14.6822726379265
20
3.41421862171106
30
0
41
1
10
13.7564834013497
20
3.8097887871472
30
0
41
1
10
13.2930654372504
20
4.00104962040359
30
0
41
1
10
12.8291752035902
20
4.18530187936054
30
0
0
SPLINE
5
B4
100
AcDbEntity
8
1
62
256
6
ByLayer
370
18
48
1
60
0
100
AcDbSpline
70
4
71
3
72
26
73
22
40
0
40
0
40
0
40
0
40
0.25
40
0.25
40
0.499999999999999
40
0.499999999999999
40
0.624999999999999
40
0.624999999999999
40
0.687499999999999
40
0.687499999999999
40
0.749999999999999
40
0.749999999999999
40
0.812499999999999
40
0.812499999999999
40
0.874999999999999
40
0.874999999999999
40
0.906249999999999
40
0.906249999999999
40
0.937499999999999
40
0.937499999999999
40
1
40
1
40
1
40
1
41
1
10
63.6268856292183
20
2.03161646951389
30
0
41
1
10
63.8690465919787
20
2.07430789367913
30
0
41
1
10
64.1102082722248
20
2.12304283316726
30
0
41
1
10
64.5890907667027
20
2.24203231810304
30
0
41
1
10
64.8266909766188
20
2.31164282540431
30
0
41
1
10
65.1700952083799
20
2.44821335425951
30
0
41
1
10
65.2817792592917
20
2.49896066084915
30
0
41
1
10
65.4423240795705
20
2.58837942010814
30
0
41
1
10
65.4946592049646
20
2.62043393250701
30
0
41
1
10
65.5960374377532
20
2.6908671486363
30
0
41
1
10
65.6449299131363
20
2.72918949444704
30
0
41
1
10
65.7354868921824
20
2.81280678427837
30
0
41
1
10
65.7778338446534
20
2.85882193047158
30
0
41
1
10
65.8506133947473
20
2.95850951700575
30
0
41
1
10
65.8809257766313
20
3.01180923783173
30
0
41
1
10
65.9148626096062
20
3.0983655961083
30
0
41
1
10
65.9242629630193
20
3.12857116062511
30
0
41
1
10
65.9382457876161
20
3.18908323002219
30
0
41
1
10
65.9429480808305
20
3.21960255137643
30
0
41
1
10
65.9505177053157
20
3.31191541061662
30
0
41
1
10
65.9465849486984
20
3.3752791814504
30
0
41
1
10
65.9355478548839
20
3.43635574435419
30
0
0
SPLINE
5
B5
100
AcDbEntity
8
1
62
256
6
ByLayer
370
18
48
1
60
0
100
AcDbSpline
70
4
71
3
72
16
73
12
40
0
40
0
40
0
40
0
40
0.249999999999998
40
0.249999999999998
40
0.499999999999995
40
0.499999999999995
40
0.624999999999996
40
0.624999999999996
40
0.749999999999996
40
0.749999999999996
40
1
40
1
40
1
40
1
41
1
10
3.99999983391462
20
6.90791192576896
30
0
41
1
10
3.99999983391462
20
6.88527010101373
30
0
41
1
10
4.00385835779843
20
6.86143141444032
30
0
41
1
10
4.02362083625903
20
6.8097469125056
30
0
41
1
10
4.03993087162144
20
6.78178985204289
30
0
41
1
10
4.07724630813215
20
6.74235329929797
30
0
41
1
10
4.09186151964425
20
6.72971744335095
30
0
41
1
10
4.12328824933368
20
6.70780000342694
30
0
41
1
10
4.14017716760509
20
6.69844048145566
30
0
41
1
10
4.19026995303031
20
6.67628094683639
30
0
41
1
10
4.22179537982817
20
6.6692806975777
30
0
41
1
10
4.25055232280658
20
6.66649764456795
30
0
0
SPLINE
5
B6
100
AcDbEntity
8
1
62
256
6
ByLayer
370
18
48
1
60
0
100
AcDbSpline
70
4
71
3
72
8
73
4
40
0
40
0
40
0
40
0
40
1
40
1
40
1
40
1
41
1
10
64.5300967411127
20
-7.00008880660215
30
0
41
1
10
64.5561979129239
20
-6.92981368254704
30
0
41
1
10
64.5822742393941
20
-6.85949599902003
30
0
41
1
10
64.6083256911929
20
-6.78913570577879
30
0
0
SPLINE
5
B7
100
AcDbEntity
8
1
62
256
6
ByLayer
370
18
48
1
60
0
100
AcDbSpline
70
4
71
3
72
18
73
14
40
0
40
0
40
0
40
0
40
0.146450435933955
40
0.146450435933955
40
0.228129434966873
40
0.228129434966873
40
0.309808433999791
40
0.309808433999791
40
0.63652443013147
40
0.63652443013147
40
0.96324042626315
40
0.96324042626315
40
1
40
1
40
1
40
1
41
1
10
42.1736411963996
20
-0.0098413245626432
30
0
41
1
10
42.7397723597505
20
-0.301857832714404
30
0
41
1
10
43.306236256852
20
-0.593843374626346
30
0
41
1
10
44.1904008415862
20
-1.04619571646666
30
0
41
1
10
44.507257962017
20
-1.20754987782638
30
0
41
1
10
45.138690916575
20
-1.52677837475667
30
0
41
1
10
45.4536877439443
20
-1.68486915178497
30
0
41
1
10
47.025923508071
20
-2.46615644280402
30
0
41
1
10
48.2747937430135
20
-3.06220490838558
30
0
41
1
10
50.776086974766
20
-4.15858858550507
30
0
41
1
10
52.0281487370161
20
-4.65962724015819
30
0
41
1
10
53.4346533118751
20
-5.14425608931433
30
0
41
1
10
53.5771117748021
20
-5.19245754670445
30
0
41
1
10
53.7195729986825
20
-5.2397563208782
30
0
0
SPLINE
5
B8
100
AcDbEntity
8
1
62
256
6
ByLayer
370
13
48
1
60
0
100
AcDbSpline
70
4
71
3
72
20
73
16
40
0
40
0
40
0
40
0
40
0.0476149850539132
40
0.0476149850539132
40
0.134195440958101
40
0.134195440958101
40
0.30735635276648
40
0.30735635276648
40
0.65367817638324
40
0.65367817638324
40
0.826839088191618
40
0.826839088191618
40
0.91341954409581
40
0.91341954409581
40
1
40
1
40
1
40
1
41
1
10
53.7195729990742
20
-5.23975632100826
30
0
41
1
10
53.893657615634
20
-5.29755442733656
30
0
41
1
10
54.0677463549388
20
-5.35400461770328
30
0
41
1
10
54.5573154441717
20
-5.50882918255735
30
0
41
1
10
54.8724267640328
20
-5.60388431383913
30
0
41
1
10
55.8160789820117
20
-5.87401603757942
30
0
41
1
10
56.442898746243
20
-6.03415752778582
30
0
41
1
10
58.3203098069382
20
-6.45217607236921
30
0
41
1
10
59.5679864950606
20
-6.64698951433905
30
0
41
1
10
61.449105129618
20
-6.80403047909533
30
0
41
1
10
62.0777920135967
20
-6.83388420695451
30
0
41
1
10
63.0252153731013
20
-6.84359912851954
30
0
41
1
10
63.3420621561327
20
-6.84097590090423
30
0
41
1
10
63.9752589226996
20
-6.82390339117831
30
0
41
1
10
64.2917684876992
20
-6.80913694790564
30
0
41
1
10
64.6083256911781
20
-6.78913570577259
30
0
0
SPLINE
5
B9
100
AcDbEntity
8
1
62
256
6
ByLayer
370
18
48
1
60
0
100
AcDbSpline
70
4
71
3
72
28
73
24
40
0
40
0
40
0
40
0
40
0.0624999999999998
40
0.0624999999999998
40
0.125
40
0.125
40
0.249999999999999
40
0.249999999999999
40
0.312499999999999
40
0.312499999999999
40
0.374999999999999
40
0.374999999999999
40
0.500000000000001
40
0.500000000000001
40
0.562500000000002
40
0.562500000000002
40
0.625000000000003
40
0.625000000000003
40
0.750000000000002
40
0.750000000000002
40
0.875000000000001
40
0.875000000000001
40
1
40
1
40
1
40
1
41
1
10
57.2738351430756
20
2.97896080537444
30
0
41
1
10
57.307721236083
20
2.79847750615141
30
0
41
1
10
57.3541524415168
20
2.61674796703076
30
0
41
1
10
57.4702236687311
20
2.25098330937806
30
0
41
1
10
57.5404840546911
20
2.06575160075218
30
0
41
1
10
57.7773813912698
20
1.52134331200244
30
0
41
1
10
57.9702846819846
20
1.16980939937304
30
0
41
1
10
58.2992030913304
20
0.655410930706267
30
0
41
1
10
58.4159496223505
20
0.485634712589132
30
0
41
1
10
58.65710197354
20
0.155754537011205
30
0
41
1
10
58.78192582774
20
-0.0050838732703653
30
0
41
1
10
59.1673354279546
20
-0.477037028443988
30
0
41
1
10
59.4393128853411
20
-0.7771516175697
30
0
41
1
10
59.8664058216379
20
-1.20885417519958
30
0
41
1
10
60.0119339701002
20
-1.34988440285537
30
0
41
1
10
60.3081861856899
20
-1.62616572600044
30
0
41
1
10
60.4578424952339
20
-1.76042282287398
30
0
41
1
10
60.9108815046656
20
-2.15286448073621
30
0
41
1
10
61.2183098454205
20
-2.40078143612033
30
0
41
1
10
61.8420598170812
20
-2.87404468409451
30
0
41
1
10
62.1583939717137
20
-3.09935919218122
30
0
41
1
10
62.79876997581
20
-3.5304265188112
30
0
41
1
10
63.1228038585117
20
-3.73619955654135
30
0
41
1
10
63.4503915187429
20
-3.93295330974368
30
0
0
SPLINE
5
BA
100
AcDbEntity
8
1
62
256
6
ByLayer
370
18
48
1
60
0
100
AcDbSpline
70
4
71
3
72
12
73
8
40
0
40
0
40
0
40
0
40
0.499999999999984
40
0.499999999999984
40
0.749999999999992
40
0.749999999999992
40
1
40
1
40
1
40
1
41
1
10
3.99999983391464
20
-1.64351309630752
30
0
41
1
10
3.99999983391464
20
-1.67871563047205
30
0
41
1
10
4.01185996343949
20
-1.7148650138478
30
0
41
1
10
4.04600662511115
20
-1.76160092152801
30
0
41
1
10
4.06032303660402
20
-1.77634788568582
30
0
41
1
10
4.09427627369067
20
-1.80249138953309
30
0
41
1
10
4.11355491847755
20
-1.81373158503069
30
0
41
1
10
4.1355227996695
20
-1.82284422151991
30
0
0
SPLINE
5
BB
100
AcDbEntity
8
1
62
256
6
ByLayer
370
18
48
1
60
0
100
AcDbSpline
70
4
71
3
72
10
73
6
40
0
40
0
40
0
40
0
40
0.570369871410265
40
0.570369871410265
40
1
40
1
40
1
40
1
41
1
10
4.20442630230784
20
-1.85248426532874
30
0
41
1
10
5.4713651796842
20
-2.47914720698626
30
0
41
1
10
6.7261610623282
20
-3.07485880383078
30
0
41
1
10
8.92439586162811
20
-4.03244349807332
30
0
41
1
10
9.86791275062711
20
-4.41627737518283
30
0
41
1
10
10.8152935089295
20
-4.76483551416493
30
0
0
SPLINE
5
BC
100
AcDbEntity
8
1
62
256
6
ByLayer
370
13
48
1
60
0
100
AcDbSpline
70
4
71
3
72
24
73
20
40
0
40
0
40
0
40
0
40
0.0745191925245732
40
0.0745191925245732
40
0.150019334279846
40
0.150019334279846
40
0.225519476035119
40
0.225519476035119
40
0.376519759545664
40
0.376519759545664
40
0.678520326566754
40
0.678520326566754
40
0.829520610077299
40
0.829520610077299
40
0.905020751832573
40
0.905020751832573
40
0.980520893587847
40
0.980520893587847
40
1
40
1
40
1
40
1
41
1
10
10.8152930681212
20
-4.76483535198378
30
0
41
1
10
11.1256395228118
20
-4.87901730604125
30
0
41
1
10
11.4364006133085
20
-4.98941378360496
30
0
41
1
10
12.0631862093181
20
-5.20349408917764
30
0
41
1
10
12.3791994876858
20
-5.3070971025152
30
0
41
1
10
13.0126890125432
20
-5.50554991187565
30
0
41
1
10
13.3294791261831
20
-5.60017046101154
30
0
41
1
10
14.276555552173
20
-5.86858875842387
30
0
41
1
10
14.9052132395337
20
-6.02740888636194
30
0
41
1
10
16.7865994736211
20
-6.44056155936116
30
0
41
1
10
18.0352775315963
20
-6.6314915796392
30
0
41
1
10
19.914665359787
20
-6.78299206425118
30
0
41
1
10
20.5422883911094
20
-6.81106794085795
30
0
41
1
10
21.487492649563
20
-6.81835178465934
30
0
41
1
10
21.8031654775465
20
-6.81496784048142
30
0
41
1
10
22.4360685605312
20
-6.79648655388812
30
0
41
1
10
22.7531877981407
20
-6.78136780704216
30
0
41
1
10
23.1505221783758
20
-6.75517673251224
30
0
41
1
10
23.2319623822334
20
-6.74942377237707
30
0
41
1
10
23.3133572044454
20
-6.74329158985805
30
0
0
SPLINE
5
BD
100
AcDbEntity
8
1
62
256
6
ByLayer
370
18
48
1
60
0
100
AcDbSpline
70
4
71
3
72
62
73
58
40
0
40
0
40
0
40
0
40
0.0437082043321658
40
0.0437082043321658
40
0.0874164086643315
40
0.0874164086643315
40
0.131124612996497
40
0.131124612996497
40
0.174832817328663
40
0.174832817328663
40
0.218541021660829
40
0.218541021660829
40
0.240395123826912
40
0.240395123826912
40
0.262249225992995
40
0.262249225992995
40
0.349665634657326
40
0.349665634657326
40
0.371519736823409
40
0.371519736823409
40
0.393373838989492
40
0.393373838989492
40
0.437082043321657
40
0.437082043321657
40
0.458936145487739
40
0.458936145487739
40
0.480790247653822
40
0.480790247653822
40
0.524498451985985
40
0.524498451985985
40
0.568206656318149
40
0.568206656318149
40
0.590060758484231
40
0.590060758484231
40
0.611914860650312
40
0.611914860650312
40
0.655623064982477
40
0.655623064982477
40
0.677477167148559
40
0.677477167148559
40
0.699331269314641
40
0.699331269314641
40
0.786747677978969
40
0.786747677978969
40
0.808601780145051
40
0.808601780145051
40
0.830455882311134
40
0.830455882311134
40
0.874164086643299
40
0.874164086643299
40
0.896018188809382
40
0.896018188809382
40
0.917872290975464
40
0.917872290975464
40
0.961580495307629
40
0.961580495307629
40
1
40
1
40
1
40
1
41
1
10
64.5300967411127
20
-7.00008880660215
30
0
41
1
10
63.9002037796887
20
-7.03958463376495
30
0
41
1
10
63.2704893738643
20
-7.05517573812827
30
0
41
1
10
62.0096771821614
20
-7.0384469983579
30
0
41
1
10
61.3809253547235
20
-7.00616194787287
30
0
41
1
10
60.1240949035558
20
-6.89466454871763
30
0
41
1
10
59.49592682593
20
-6.8154786306321
30
0
41
1
10
58.2374280927387
20
-6.61124015109664
30
0
41
1
10
57.6064203850303
20
-6.4859939867514
30
0
41
1
10
56.3483390838992
20
-6.19330644514918
30
0
41
1
10
55.7201976284247
20
-6.02577109922413
30
0
41
1
10
54.7773370036215
20
-5.74464146468108
30
0
41
1
10
54.4629497321149
20
-5.64595089614411
30
0
41
1
10
53.83357446293
20
-5.43901347130512
30
0
41
1
10
53.5183486767732
20
-5.33068312737097
30
0
41
1
10
51.9426752434416
20
-4.76709821368041
30
0
41
1
10
50.6885189205494
20
-4.24761439694029
30
0
41
1
10
49.1145769668592
20
-3.53355852607987
30
0
41
1
10
48.7992071061166
20
-3.38737450720282
30
0
41
1
10
48.1689863190012
20
-3.08971094834419
30
0
41
1
10
47.854271158077
20
-2.93830309946057
30
0
41
1
10
46.9107799760936
20
-2.47729531501719
30
0
41
1
10
46.2825909664067
20
-2.16102771561344
30
0
41
1
10
45.3394349231411
20
-1.67697345829927
30
0
41
1
10
45.0249035971553
20
-1.51401454291818
30
0
41
1
10
44.3952110555599
20
-1.18549113571612
30
0
41
1
10
44.0797606922892
20
-1.01977397030356
30
0
41
1
10
43.1345517776927
20
-0.521010093720747
30
0
41
1
10
42.5058417860059
20
-0.18654596433052
30
0
41
1
10
41.2487335326605
20
0.481475485988852
30
0
41
1
10
40.6201855028663
20
0.814749392369635
30
0
41
1
10
39.6753924700263
20
1.30981342626919
30
0
41
1
10
39.3598564559421
20
1.474167472678
30
0
41
1
10
38.729739724893
20
1.79961806198131
30
0
41
1
10
38.4150451622245
20
1.96076435284561
30
0
41
1
10
37.4715231704624
20
2.43852809166776
30
0
41
1
10
36.8432618795758
20
2.74947587920153
30
0
41
1
10
35.8998471959757
20
3.20077632353201
30
0
41
1
10
35.5851952340408
20
3.34867334245894
30
0
41
1
10
34.9551892007914
20
3.63880254037522
30
0
41
1
10
34.639597842888
20
3.7811348574067
30
0
41
1
10
33.0643221456424
20
4.47486292978934
30
0
41
1
10
31.8098714919756
20
4.97427242479972
30
0
41
1
10
30.2344560198289
20
5.50861467174971
30
0
41
1
10
29.9188534805438
20
5.61106541093409
30
0
41
1
10
29.2888769318794
20
5.80593703354583
30
0
41
1
10
28.9742462527674
20
5.8984377697532
30
0
41
1
10
28.030755040345
20
6.16050391040014
30
0
41
1
10
27.4022955613422
20
6.31464350142011
30
0
41
1
10
26.4584180331216
20
6.51331402619329
30
0
41
1
10
26.143619478575
20
6.57413388652236
30
0
41
1
10
25.513367994761
20
6.68467610434018
30
0
41
1
10
25.1978085165742
20
6.73437958522891
30
0
41
1
10
24.252867025558
20
6.86587634014307
30
0
41
1
10
23.6241302530655
20
6.93030192063529
30
0
41
1
10
22.4425734512972
20
7.00707164182802
30
0
41
1
10
21.8897481283827
20
7.02476056543171
30
0
41
1
10
21.335863132354
20
7.02401876685821
30
0
0
SPLINE
5
BE
100
AcDbEntity
8
1
62
256
6
ByLayer
370
18
48
1
60
0
100
AcDbSpline
70
4
71
3
72
8
73
4
40
0
40
0
40
0
40
0
40
1
40
1
40
1
40
1
41
1
10
64.5300967411127
20
7.00008880660215
30
0
41
1
10
64.0042209045104
20
7.03306250598212
30
0
41
1
10
63.477997811796
20
7.0493749119259
30
0
41
1
10
62.9518873337965
20
7.04899287450584
30
0
0
SPLINE
5
BF
100
AcDbEntity
8
1
62
256
6
ByLayer
370
18
48
1
60
0
100
AcDbSpline
70
4
71
3
72
24
73
20
40
0
40
0
40
0
40
0
40
0.0124333668818727
40
0.0124333668818727
40
0.102212151710793
40
0.102212151710793
40
0.191990936539713
40
0.191990936539713
40
0.281769721368634
40
0.281769721368634
40
0.371548506197554
40
0.371548506197554
40
0.461327291026474
40
0.461327291026474
40
0.640884860684316
40
0.640884860684316
40
0.820442430342158
40
0.820442430342158
40
1
40
1
40
1
40
1
41
1
10
25.1653186288986
20
-6.73735156394204
30
0
41
1
10
25.0781086954348
20
-6.75044266794154
30
0
41
1
10
24.9909206520677
20
-6.76309054156806
30
0
41
1
10
24.2744211913002
20
-6.86337942789012
30
0
41
1
10
23.6461314001708
20
-6.92830559696884
30
0
41
1
10
22.3890541887044
20
-7.01109605584551
30
0
41
1
10
21.7602338686572
20
-7.02894173385576
30
0
41
1
10
20.4991755810576
20
-7.01684157659554
30
0
41
1
10
19.8699713537865
20
-6.98689554851265
30
0
41
1
10
18.6127896361668
20
-6.88016577313169
30
0
41
1
10
17.9844704149001
20
-6.80342274677483
30
0
41
1
10
16.7257824364993
20
-6.60425532447948
30
0
41
1
10
16.0946547891999
20
-6.48147737678553
30
0
41
1
10
14.2067505662053
20
-6.04973150073675
30
0
41
1
10
12.9518007068332
20
-5.67685096829024
30
0
41
1
10
10.428919722798
20
-4.78460596556636
30
0
41
1
10
9.17329782083561
20
-4.26888853785709
30
0
41
1
10
6.6500287046326
20
-3.13257019234223
30
0
41
1
10
5.39428795165963
20
-2.51649867587159
30
0
41
1
10
4.13299306132393
20
-1.87254520536072
30
0
0
SPLINE
5
C0
100
AcDbEntity
8
1
62
256
6
ByLayer
370
18
48
1
60
0
100
AcDbSpline
70
4
71
3
72
14
73
10
40
0
40
0
40
0
40
0
40
0.0635968805735898
40
0.0635968805735898
40
0.30543656409083
40
0.30543656409083
40
0.789115931125316
40
0.789115931125316
40
1
40
1
40
1
40
1
41
1
10
63.2302943975612
20
-6.74230548484289
30
0
41
1
10
63.0639078035704
20
-6.74257415974014
30
0
41
1
10
62.8976261441971
20
-6.74124135323851
30
0
41
1
10
62.1003852231942
20
-6.72719237691547
30
0
41
1
10
61.4719993305558
20
-6.69309681599543
30
0
41
1
10
59.5916184757593
20
-6.52451399119386
30
0
41
1
10
58.3441519854958
20
-6.3236174693574
30
0
41
1
10
56.5472788499958
20
-5.91730042066811
30
0
41
1
10
56.000941801425
20
-5.77845810493466
30
0
41
1
10
55.4530167612437
20
-5.62472996756696
30
0
0
SPLINE
5
C1
100
AcDbEntity
8
1
62
256
6
ByLayer
370
13
48
1
60
0
100
AcDbSpline
70
4
71
3
72
28
73
24
40
0
40
0
40
0
40
0
40
0.0135953338215403
40
0.0135953338215403
40
0.0667020866043385
40
0.0667020866043385
40
0.119808839387137
40
0.119808839387137
40
0.332235850518327
40
0.332235850518327
40
0.544662861649518
40
0.544662861649518
40
0.597769614432316
40
0.597769614432316
40
0.650876367215113
40
0.650876367215113
40
0.757089872780709
40
0.757089872780709
40
0.863303378346304
40
0.863303378346304
40
0.9695168839119
40
0.9695168839119
40
1
40
1
40
1
40
1
41
1
10
55.45301579845
20
-5.6247296974415
30
0
41
1
10
55.3725863527092
20
-5.60216407379397
30
0
41
1
10
55.2921226904207
20
-5.57927770458642
30
0
41
1
10
54.8971673748716
20
-5.4654269887717
30
0
41
1
10
54.582162629561
20
-5.36989162699649
30
0
41
1
10
53.9506762307822
20
-5.16941105632705
30
0
41
1
10
53.6337224946978
20
-5.06430150373541
30
0
41
1
10
52.0543282275785
20
-4.51939056355175
30
0
41
1
10
50.8026951516495
20
-4.01986359689198
30
0
41
1
10
48.3020299984348
20
-2.93013444516208
30
0
41
1
10
47.053402041747
20
-2.33918390900888
30
0
41
1
10
45.4816415378099
20
-1.56651542847356
30
0
41
1
10
45.1667548144471
20
-1.41025301016947
30
0
41
1
10
44.5355733013901
20
-1.09489613565927
30
0
41
1
10
44.2188640714628
20
-0.935590281057216
30
0
41
1
10
43.2697326896036
20
-0.456189179288572
30
0
41
1
10
42.6383206155509
20
-0.134999266293875
30
0
41
1
10
41.3760715921493
20
0.506418266102855
30
0
41
1
10
40.7450779832618
20
0.82632334108564
30
0
41
1
10
39.4806934791089
20
1.45928227139697
30
0
41
1
10
38.8468759640327
20
1.77253773307547
30
0
41
1
10
38.0338242784435
20
2.1652454900798
30
0
41
1
10
37.852595324228
20
2.25219762826285
30
0
41
1
10
37.6714142953973
20
2.33847045657416
30
0
0
SPLINE
5
C2
100
AcDbEntity
8
1
62
256
6
ByLayer
370
18
48
1
60
0
100
AcDbSpline
70
4
71
3
72
22
73
18
40
0
40
0
40
0
40
0
40
0.129826556713512
40
0.129826556713512
40
0.319026678637989
40
0.319026678637989
40
0.413626739600228
40
0.413626739600228
40
0.508226800562467
40
0.508226800562467
40
0.697426922486944
40
0.697426922486944
40
0.792026983449183
40
0.792026983449183
40
0.886627044411422
40
0.886627044411422
40
1
40
1
40
1
40
1
41
1
10
21.2101055751941
20
7.00532127817678
30
0
41
1
10
20.9194377466178
20
6.91290599905477
30
0
41
1
10
20.6296560019532
20
6.81025846009567
30
0
41
1
10
19.9187187287185
20
6.53046879748325
30
0
41
1
10
19.4981114863767
20
6.34062495765585
30
0
41
1
10
18.8643327508309
20
6.02006807039976
30
0
41
1
10
18.6523711745899
20
5.9071489565037
30
0
41
1
10
18.2339063779475
20
5.67466850266294
30
0
41
1
10
18.0264706306631
20
5.5546617323462
30
0
41
1
10
17.4078152984131
20
5.18612548452751
30
0
41
1
10
17.0002467747216
20
4.9290753229165
30
0
41
1
10
16.3888432915163
20
4.53841045204604
30
0
41
1
10
16.1850321079645
20
4.40734494194859
30
0
41
1
10
15.7761723646678
20
4.14551807270718
30
0
41
1
10
15.5705475265365
20
4.01439617152002
30
0
41
1
10
15.1190794989545
20
3.73067719888067
30
0
41
1
10
14.8738641316947
20
3.57933099879062
30
0
41
1
10
14.6285762304647
20
3.43264306855738
30
0
0
SPLINE
5
C3
100
AcDbEntity
8
1
62
256
6
ByLayer
370
18
48
1
60
0
100
AcDbSpline
70
4
71
3
72
18
73
14
40
0
40
0
40
0
40
0
40
0.228728266526747
40
0.228728266526747
40
0.343092399790121
40
0.343092399790121
40
0.457456533053495
40
0.457456533053495
40
0.686184799580241
40
0.686184799580241
40
0.914913066106987
40
0.914913066106987
40
1
40
1
40
1
40
1
41
1
10
21.2100887479338
20
7.00532149496979
30
0
41
1
10
20.2732116257465
20
7.04110315301804
30
0
41
1
10
19.3264283090423
20
7.02199859560494
30
0
41
1
10
17.8845691779287
20
6.93328586554702
30
0
41
1
10
17.4014612512977
20
6.89376389218134
30
0
41
1
10
16.4324577053843
20
6.79974646757341
30
0
41
1
10
15.9460382239941
20
6.7452213255597
30
0
41
1
10
14.4792421137896
20
6.56674834963786
30
0
41
1
10
13.4912365639909
20
6.42790238158824
30
0
41
1
10
11.4869325791702
20
6.15364211841043
30
0
41
1
10
10.470643989534
20
6.01849695740682
30
0
41
1
10
9.05326709236726
20
5.86291503292912
30
0
41
1
10
8.66665265662024
20
5.82370900622536
30
0
41
1
10
8.27761925518308
20
5.78832243365912
30
0
0
SPLINE
5
C4
100
AcDbEntity
8
1
62
256
6
ByLayer
370
18
48
1
60
0
100
AcDbSpline
70
4
71
3
72
12
73
8
40
0
40
0
40
0
40
0
40
0.0825249535479079
40
0.0825249535479079
40
0.388349969031937
40
0.388349969031937
40
1
40
1
40
1
40
1
41
1
10
3.08026878832604
20
7.01304824219474
30
0
41
1
10
3.10401784407546
20
7.01299526944533
30
0
41
1
10
3.12792523191354
20
7.01279789953691
30
0
41
1
10
3.24103525083575
20
7.01121893973888
30
0
41
1
10
3.33215159507714
20
7.00808733612155
30
0
41
1
10
3.61055692986423
20
6.99378933770578
30
0
41
1
10
3.80284791594923
20
6.97775909090029
30
0
41
1
10
3.99999983391288
20
6.95652146482334
30
0
0
SPLINE
5
C5
100
AcDbEntity
8
1
62
256
6
ByLayer
370
18
48
1
60
0
100
AcDbSpline
70
4
71
3
72
26
73
22
40
0
40
0
40
0
40
0
40
0.115268208834394
40
0.115268208834394
40
0.178463336774793
40
0.178463336774793
40
0.241658464715193
40
0.241658464715193
40
0.494438976476795
40
0.494438976476795
40
0.557634104417196
40
0.557634104417196
40
0.620829232357596
40
0.620829232357596
40
0.747219488238398
40
0.747219488238398
40
0.873609744119199
40
0.873609744119199
40
0.936804872059599
40
0.936804872059599
40
1
40
1
40
1
40
1
41
1
10
64.5200485729921
20
-6.74254200280777
30
0
41
1
10
64.431528064544
20
-6.74013082938598
30
0
41
1
10
64.3469494877124
20
-6.7258244090531
30
0
41
1
10
64.2223721654946
20
-6.68444941923246
30
0
41
1
10
64.1794983984316
20
-6.6660565691754
30
0
41
1
10
64.0963303375003
20
-6.62148700228272
30
0
41
1
10
64.0559141950962
20
-6.59519576708658
30
0
41
1
10
63.863011712656
20
-6.44533417473269
30
0
41
1
10
63.7363155258282
20
-6.26710764558106
30
0
41
1
10
63.6142153244505
20
-5.96773324726823
30
0
41
1
10
63.5916326432619
20
-5.90397842604833
30
0
41
1
10
63.5502903269098
20
-5.76839567734825
30
0
41
1
10
63.5315060834869
20
-5.69635678883046
30
0
41
1
10
63.4819134295561
20
-5.47137253648745
30
0
41
1
10
63.4574939692377
20
-5.30866274332692
30
0
41
1
10
63.4256917384099
20
-4.95816748995614
30
0
41
1
10
63.4183081176009
20
-4.77038328127006
30
0
41
1
10
63.4203868560054
20
-4.46934583756612
30
0
41
1
10
63.4232955670399
20
-4.36544529651454
30
0
41
1
10
63.4335643562009
20
-4.15257075922747
30
0
41
1
10
63.4408966915158
20
-4.04387370442583
30
0
41
1
10
63.4503915187429
20
-3.93295330974368
30
0
0
SPLINE
5
C6
100
AcDbEntity
8
1
62
256
6
ByLayer
370
18
48
1
60
0
100
AcDbSpline
70
4
71
3
72
8
73
4
40
0
40
0
40
0
40
0
40
1
40
1
40
1
40
1
41
1
10
3.99999983391467
20
-6.90791192576893
30
0
41
1
10
3.99999983391467
20
-6.923983430123
30
0
41
1
10
3.99999983391462
20
-6.94018637754496
30
0
41
1
10
3.99999983391462
20
-6.95652146482317
30
0
0
SPLINE
5
C7
100
AcDbEntity
8
1
62
256
6
ByLayer
370
13
48
1
60
0
100
AcDbSpline
70
4
71
3
72
8
73
4
40
0
40
0
40
0
40
0
40
1
40
1
40
1
40
1
41
1
10
4.25021334723496
20
-1.74093737600282
30
0
41
1
10
4.2103015961566
20
-1.72921943311133
30
0
41
1
10
4.17135232234793
20
-1.72027305937888
30
0
41
1
10
4.1355227996695
20
-1.71454110812513
30
0
0
SPLINE
5
C8
100
AcDbEntity
8
1
62
256
6
ByLayer
370
18
48
1
60
0
100
AcDbSpline
70
4
71
3
72
20
73
16
40
0
40
0
40
0
40
0
40
0.125
40
0.125
40
0.25
40
0.25
40
0.375
40
0.375
40
0.5
40
0.5
40
0.75
40
0.75
40
0.875
40
0.875
40
1
40
1
40
1
40
1
41
1
10
4.2505523334188
20
6.66649764354102
30
0
41
1
10
4.56654791292493
20
6.63591607377376
30
0
41
1
10
4.89571949011903
20
6.58958902378419
30
0
41
1
10
5.57013724680729
20
6.47422029556725
30
0
41
1
10
5.91554643105542
20
6.40506351772169
30
0
41
1
10
6.61800832943501
20
6.24816021843355
30
0
41
1
10
6.97603520384635
20
6.15987065327633
30
0
41
1
10
7.69353139875307
20
5.96959468172406
30
0
41
1
10
8.05386446104154
20
5.86741639086318
30
0
41
1
10
9.13917918529117
20
5.53896514048188
30
0
41
1
10
9.8681202166691
20
5.29291796207471
30
0
41
1
10
10.9704050665618
20
4.89652855731066
30
0
41
1
10
11.3392962022965
20
4.76034409322324
30
0
41
1
10
12.080927502254
20
4.47899051338658
30
0
41
1
10
12.4536962253255
20
4.33369311224124
30
0
41
1
10
12.8287948825885
20
4.18545293713481
30
0
0
SPLINE
5
C9
100
AcDbEntity
8
1
62
256
6
ByLayer
370
18
48
1
60
0
100
AcDbSpline
70
4
71
3
72
18
73
14
40
0
40
0
40
0
40
0
40
0.124999999999999
40
0.124999999999999
40
0.249999999999999
40
0.249999999999999
40
0.499999999999998
40
0.499999999999998
40
0.749999999999997
40
0.749999999999997
40
0.874999999999999
40
0.874999999999999
40
1
40
1
40
1
40
1
41
1
10
65.9355478548908
20
-3.4363557443354
30
0
41
1
10
65.8813074490496
20
-3.58181841076183
30
0
41
1
10
65.826993906146
20
-3.72713820786856
30
0
41
1
10
65.7182933498377
20
-4.01763083679216
30
0
41
1
10
65.6639277230715
20
-4.16283111808204
30
0
41
1
10
65.5007252121783
20
-4.59811515732758
30
0
41
1
10
65.391772371692
20
-4.88787117437542
30
0
41
1
10
65.1734292060602
20
-5.46536595400312
30
0
41
1
10
65.0641994285623
20
-5.75389361972373
30
0
41
1
10
64.9000362936883
20
-6.18453099620541
30
0
41
1
10
64.8452646319707
20
-6.32743882375624
30
0
41
1
10
64.7357142821544
20
-6.61264508824863
30
0
41
1
10
64.6809266552167
20
-6.75496632394987
30
0
41
1
10
64.6261041760408
20
-6.8964985536881
30
0
0
SPLINE
5
CA
100
AcDbEntity
8
1
62
256
6
ByLayer
370
18
48
1
60
0
100
AcDbSpline
70
4
71
3
72
8
73
4
40
0
40
0
40
0
40
0
40
1
40
1
40
1
40
1
41
1
10
64.6295532046228
20
-6.70220303950393
30
0
41
1
10
64.5968259108319
20
-6.72932067879086
30
0
41
1
10
64.5688775284439
20
-6.74295870309393
30
0
41
1
10
64.5457821271751
20
-6.74290818800856
30
0
0
SPLINE
5
CB
100
AcDbEntity
8
1
62
256
6
ByLayer
370
18
48
1
60
0
100
AcDbSpline
70
4
71
3
72
16
73
12
40
0
40
0
40
0
40
0
40
0.226803087316567
40
0.226803087316567
40
0.484535391544378
40
0.484535391544378
40
0.613401543658284
40
0.613401543658284
40
0.742267695772189
40
0.742267695772189
40
1
40
1
40
1
40
1
41
1
10
8.28955470013395
20
-5.79581035941865
30
0
41
1
10
7.97260405102872
20
-5.8903323883759
30
0
41
1
10
7.65698260144595
20
-5.97920340337808
30
0
41
1
10
6.98573853289551
20
-6.1573903768338
30
0
41
1
10
6.6305042856124
20
-6.24519520726776
30
0
41
1
10
6.10152604950957
20
-6.36360564774077
30
0
41
1
10
5.92568357604944
20
-6.40092258005978
30
0
41
1
10
5.57831797104333
20
-6.47017379522669
30
0
41
1
10
5.40649317562776
20
-6.50217330076364
30
0
41
1
10
4.89770841768382
20
-6.58932864988969
30
0
41
1
10
4.56715222739484
20
-6.63585758902178
30
0
41
1
10
4.25055233726761
20
-6.66649764316841
30
0
0
SPLINE
5
CC
100
AcDbEntity
8
1
62
256
6
ByLayer
370
13
48
1
60
0
100
AcDbSpline
70
4
71
3
72
8
73
4
40
0
40
0
40
0
40
0
40
1
40
1
40
1
40
1
41
1
10
4.1355227996695
20
-1.82284422151991
30
0
41
1
10
4.1572141489504
20
-1.83063227315196
30
0
41
1
10
4.18057577623642
20
-1.84068713675774
30
0
41
1
10
4.20442630230787
20
-1.85248426532874
30
0
0
SPLINE
5
CD
100
AcDbEntity
8
1
62
256
6
ByLayer
370
18
48
1
60
0
100
AcDbSpline
70
2053
71
3
72
70
73
66
40
0
40
0
40
0
40
0
40
0.0312500000000046
40
0.0312500000000046
40
0.0625000000000093
40
0.0625000000000093
40
0.093750000000014
40
0.093750000000014
40
0.109375000000015
40
0.109375000000015
40
0.125000000000017
40
0.125000000000017
40
0.156250000000018
40
0.156250000000018
40
0.171875000000018
40
0.171875000000018
40
0.187500000000018
40
0.187500000000018
40
0.218750000000018
40
0.218750000000018
40
0.250000000000018
40
0.250000000000018
40
0.281250000000018
40
0.281250000000018
40
0.312500000000018
40
0.312500000000018
40
0.375000000000018
40
0.375000000000018
40
0.437500000000018
40
0.437500000000018
40
0.468750000000017
40
0.468750000000017
40
0.500000000000016
40
0.500000000000016
40
0.531250000000015
40
0.531250000000015
40
0.562500000000013
40
0.562500000000013
40
0.578125000000013
40
0.578125000000013
40
0.593750000000012
40
0.593750000000012
40
0.625000000000011
40
0.625000000000011
40
0.656250000000009
40
0.656250000000009
40
0.687500000000008
40
0.687500000000008
40
0.718750000000007
40
0.718750000000007
40
0.750000000000006
40
0.750000000000006
40
0.781250000000005
40
0.781250000000005
40
0.812500000000004
40
0.812500000000004
40
0.843750000000003
40
0.843750000000003
40
0.875000000000002
40
0.875000000000002
40
0.906250000000001
40
0.906250000000001
40
0.9375
40
0.9375
40
1
40
1
40
1
40
1
41
1
10
65.0096535712483
20
-4.08491426689383
30
0
41
1
10
65.0439432890003
20
-4.03591184065169
30
0
41
1
10
65.0775206219574
20
-3.98340494101947
30
0
41
1
10
65.1431270797779
20
-3.87077487534145
30
0
41
1
10
65.1755130543982
20
-3.80990611479046
30
0
41
1
10
65.236431950923
20
-3.68299631459345
30
0
41
1
10
65.2648904075849
20
-3.61728989386859
30
0
41
1
10
65.3041106615336
20
-3.51482870091945
30
0
41
1
10
65.3165587420917
20
-3.48008331426385
30
0
41
1
10
65.3394540104691
20
-3.41135914501029
30
0
41
1
10
65.3500038039544
20
-3.37712108712958
30
0
41
1
10
65.3788874588763
20
-3.27478896782878
30
0
41
1
10
65.3946131729776
20
-3.2059957653052
30
0
41
1
10
65.4109549131139
20
-3.10959923393492
30
0
41
1
10
65.4152581875049
20
-3.07845722005206
30
0
41
1
10
65.4216160198717
20
-3.018119564844
30
0
41
1
10
65.4236721963557
20
-2.9887245267212
30
0
41
1
10
65.4263755091413
20
-2.90526339306666
30
0
41
1
10
65.4236862338382
20
-2.85583747281817
30
0
41
1
10
65.4102849620973
20
-2.76808661680724
30
0
41
1
10
65.3997245896826
20
-2.73096165728501
30
0
41
1
10
65.3722631725561
20
-2.66896067478595
30
0
41
1
10
65.355211237284
20
-2.64399830910568
30
0
41
1
10
65.3165289602461
20
-2.60636601187972
30
0
41
1
10
65.2947860079308
20
-2.59338908116189
30
0
41
1
10
65.2229306198474
20
-2.57057810767279
30
0
41
1
10
65.1683360210621
20
-2.577060714276
30
0
41
1
10
65.0481049672878
20
-2.62826123616995
30
0
41
1
10
64.9846703055908
20
-2.67201007888892
30
0
41
1
10
64.8844632424435
20
-2.76527378767429
30
0
41
1
10
64.8504032865894
20
-2.80095699628541
30
0
41
1
10
64.7827528432559
20
-2.8799142039239
30
0
41
1
10
64.7489077729182
20
-2.92340816745545
30
0
41
1
10
64.681173705378
20
-3.01928244061017
30
0
41
1
10
64.6469050095046
20
-3.07232907006195
30
0
41
1
10
64.5807448744309
20
-3.18513356252257
30
0
41
1
10
64.5487824095332
20
-3.24485245886731
30
0
41
1
10
64.5027835225414
20
-3.34020231399097
30
0
41
1
10
64.4877280458988
20
-3.37309166047871
30
0
41
1
10
64.4590765109174
20
-3.43933458596527
30
0
41
1
10
64.4453911073241
20
-3.47285996422633
30
0
41
1
10
64.4063511629446
20
-3.5747078778999
30
0
41
1
10
64.3827420100239
20
-3.64533970176674
30
0
41
1
10
64.3441133002777
20
-3.78255121422146
30
0
41
1
10
64.328686346983
20
-3.85020366308166
30
0
41
1
10
64.3067203412014
20
-3.98020494084008
30
0
41
1
10
64.3004717584404
20
-4.04045517687032
30
0
41
1
10
64.2967716217503
20
-4.15212892259771
30
0
41
1
10
64.2994349273117
20
-4.20226449503036
30
0
41
1
10
64.312526713628
20
-4.28998472803411
30
0
41
1
10
64.3230658911468
20
-4.32797082060236
30
0
41
1
10
64.3502296386342
20
-4.39061142082045
30
0
41
1
10
64.36706101257
20
-4.41590291758763
30
0
41
1
10
64.4057177158752
20
-4.45447191930256
30
0
41
1
10
64.4273670174445
20
-4.46771567813022
30
0
41
1
10
64.474812802625
20
-4.48340931493397
30
0
41
1
10
64.5007656941394
20
-4.48576885798101
30
0
41
1
10
64.5551736197681
20
-4.48016256115207
30
0
41
1
10
64.5837683752238
20
-4.47228877633989
30
0
41
1
10
64.643635088536
20
-4.44678049937784
30
0
41
1
10
64.6750944228014
20
-4.42896903771279
30
0
41
1
10
64.7389746843144
20
-4.38451040408714
30
0
41
1
10
64.7715623675346
20
-4.35783661296443
30
0
41
1
10
64.8713008956753
20
-4.2642565492219
30
0
41
1
10
64.9410741357443
20
-4.18291911937808
30
0
41
1
10
65.0096535712483
20
-4.08491426689383
30
0
0
SPLINE
5
CE
100
AcDbEntity
8
1
62
256
6
ByLayer
370
13
48
1
60
0
100
AcDbSpline
70
4
71
3
72
8
73
4
40
0
40
0
40
0
40
0
40
1
40
1
40
1
40
1
41
1
10
4.13299306132393
20
-1.87254520536072
30
0
41
1
10
4.13382879480716
20
-1.85598616675998
30
0
41
1
10
4.13467203654477
20
-1.83941927456738
30
0
41
1
10
4.1355227996695
20
-1.82284422151994
30
0
0
SPLINE
5
CF
100
AcDbEntity
8
1
62
256
6
ByLayer
370
18
48
1
60
0
100
AcDbSpline
70
4
71
3
72
18
73
14
40
0
40
0
40
0
40
0
40
0.125
40
0.125
40
0.25
40
0.25
40
0.5
40
0.5
40
0.75
40
0.75
40
0.875
40
0.875
40
1
40
1
40
1
40
1
41
1
10
65.9355478548838
20
3.43635574435419
30
0
41
1
10
65.8813074490429
20
3.58181841077982
30
0
41
1
10
65.8269939061396
20
3.72713820788576
30
0
41
1
10
65.7182933498319
20
4.01763083680777
30
0
41
1
10
65.6639277230659
20
4.16283111809685
30
0
41
1
10
65.5007252121736
20
4.59811515734003
30
0
41
1
10
65.3917723716879
20
4.88787117438631
30
0
41
1
10
65.1734292060572
20
5.46536595401085
30
0
41
1
10
65.06419942856
20
5.75389361972992
30
0
41
1
10
64.9000362936869
20
6.18453099620925
30
0
41
1
10
64.8452646319695
20
6.32743882375928
30
0
41
1
10
64.7357142821538
20
6.61264508825016
30
0
41
1
10
64.6809266552165
20
6.75496632395064
30
0
41
1
10
64.6261041760408
20
6.8964985536881
30
0
0
SPLINE
5
D0
100
AcDbEntity
8
1
62
256
6
ByLayer
370
13
48
1
60
0
100
AcDbSpline
70
4
71
3
72
12
73
8
40
0
40
0
40
0
40
0
40
0.500000000000016
40
0.500000000000016
40
0.750000000000008
40
0.750000000000008
40
1
40
1
40
1
40
1
41
1
10
3.99999983391462
20
-1.64351309630752
30
0
41
1
10
3.99999983391464
20
-1.6577945921033
30
0
41
1
10
4.01183978393192
20
-1.67225599887141
30
0
41
1
10
4.04598893242675
20
-1.69070779980396
30
0
41
1
10
4.06031093069615
20
-1.69648786069183
30
0
41
1
10
4.09427647368662
20
-1.70667775073659
30
0
41
1
10
4.11356001278503
20
-1.71102753567396
30
0
41
1
10
4.1355227996695
20
-1.71454110812513
30
0
0
SPLINE
5
D1
100
AcDbEntity
8
1
62
256
6
ByLayer
370
18
48
1
60
0
100
AcDbSpline
70
4
71
3
72
16
73
12
40
0
40
0
40
0
40
0
40
0.0762423711626458
40
0.0762423711626458
40
0.284554841187471
40
0.284554841187471
40
0.701179781237127
40
0.701179781237127
40
0.909492251261955
40
0.909492251261955
40
1
40
1
40
1
40
1
41
1
10
21.9037000168423
20
-6.71546931517113
30
0
41
1
10
21.6724780192707
20
-6.71827373728823
30
0
41
1
10
21.4416384654037
20
-6.71799458370316
30
0
41
1
10
20.5812647124826
20
-6.70550681797985
30
0
41
1
10
19.9538379306146
20
-6.67352642908563
30
0
41
1
10
18.0750252886115
20
-6.51157549519547
30
0
41
1
10
16.8266044321842
20
-6.31522219067014
30
0
41
1
10
14.9457701956444
20
-5.89662073050559
30
0
41
1
10
14.3173276034727
20
-5.73643672513856
30
0
41
1
10
13.4120331142478
20
-5.47848255793033
30
0
41
1
10
13.1370187656198
20
-5.3965563001388
30
0
41
1
10
12.8619414364172
20
-5.31119192031261
30
0
0
SPLINE
5
D2
100
AcDbEntity
8
1
62
256
6
ByLayer
370
13
48
1
60
0
100
AcDbSpline
70
4
71
3
72
14
73
10
40
0
40
0
40
0
40
0
40
0.0143508966616289
40
0.0143508966616289
40
0.123867463699225
40
0.123867463699225
40
0.561933731849612
40
0.561933731849612
40
1
40
1
40
1
40
1
41
1
10
12.8619414366918
20
-5.31119192039785
30
0
41
1
10
12.8204600252917
20
-5.29831904945405
30
0
41
1
10
12.7789771816903
20
-5.28536799435659
30
0
41
1
10
12.4209345792158
20
-5.17291880239435
30
0
41
1
10
12.1050906805447
20
-5.06923353732182
30
0
41
1
10
10.5286576123103
20
-4.53070325764907
30
0
41
1
10
9.27690179223276
20
-4.03512372892922
30
0
41
1
10
6.77035682432924
20
-2.95032573707155
30
0
41
1
10
5.51618453144033
20
-2.36022331595072
30
0
41
1
10
4.2502133472351
20
-1.7409373760029
30
0
0
SPLINE
5
D3
100
AcDbEntity
8
1
62
256
6
ByLayer
370
18
48
1
60
0
100
AcDbSpline
70
4
71
3
72
34
73
30
40
0
40
0
40
0
40
0
40
0.0429604255623908
40
0.0429604255623908
40
0.149298156055461
40
0.149298156055461
40
0.255635886548531
40
0.255635886548531
40
0.308804751795065
40
0.308804751795065
40
0.361973617041598
40
0.361973617041598
40
0.468311347534663
40
0.468311347534663
40
0.521480212781197
40
0.521480212781197
40
0.57464907802773
40
0.57464907802773
40
0.627817943274264
40
0.627817943274264
40
0.680986808520798
40
0.680986808520798
40
0.787324539013865
40
0.787324539013865
40
0.893662269506932
40
0.893662269506932
40
0.946831134753466
40
0.946831134753466
40
1
40
1
40
1
40
1
41
1
10
51.8664713714785
20
5.13254706543782
30
0
41
1
10
52.0491947506286
20
5.19908491353172
30
0
41
1
10
52.2318084491759
20
5.26399949570521
30
0
41
1
10
52.8659303670536
20
5.48418470476403
30
0
41
1
10
53.3165514254944
20
5.63166352581536
30
0
41
1
10
54.2158510268938
20
5.90759563242631
30
0
41
1
10
54.6658117205843
20
6.03464807363238
30
0
41
1
10
55.3408865975782
20
6.209483153078
30
0
41
1
10
55.5659144756578
20
6.26514931941281
30
0
41
1
10
56.0158473721903
20
6.37131883078283
30
0
41
1
10
56.24065534441
20
6.42189053581293
30
0
41
1
10
56.9159293324053
20
6.56491997049483
30
0
41
1
10
57.3675599812254
20
6.64855762609429
30
0
41
1
10
58.0462509112985
20
6.75708985995198
30
0
41
1
10
58.2727068868318
20
6.79042399437063
30
0
41
1
10
58.7259205644984
20
6.8513715001134
30
0
41
1
10
58.952726625039
20
6.87894322744901
30
0
41
1
10
59.4076991142011
20
6.92781919699337
30
0
41
1
10
59.6360217440697
20
6.94920380198522
30
0
41
1
10
60.0920501079585
20
6.98575095141129
30
0
41
1
10
60.3197719545639
20
7.00091940818317
30
0
41
1
10
61.0018935608153
20
7.03717931649237
30
0
41
1
10
61.4547632465544
20
7.04898074993719
30
0
41
1
10
62.3613987197111
20
7.04765108645242
30
0
41
1
10
62.8146710797026
20
7.03469799043197
30
0
41
1
10
63.4938153618645
20
6.99673059582591
30
0
41
1
10
63.7199625200097
20
6.98093652096514
30
0
41
1
10
64.1726223595799
20
6.94322804848446
30
0
41
1
10
64.3992595816386
20
6.92136774284495
30
0
41
1
10
64.6261041760274
20
6.89649855368967
30
0
0
SPLINE
5
D4
100
AcDbEntity
8
1
62
256
6
ByLayer
370
18
48
1
60
0
100
AcDbSpline
70
4
71
3
72
64
73
60
40
0
40
0
40
0
40
0
40
0.0845617285081296
40
0.0845617285081296
40
0.149950176471837
40
0.149950176471837
40
0.215338624435544
40
0.215338624435544
40
0.346115520362957
40
0.346115520362957
40
0.476892416290371
40
0.476892416290371
40
0.542280864254077
40
0.542280864254077
40
0.607669312217784
40
0.607669312217784
40
0.673057760181491
40
0.673057760181491
40
0.705751984163345
40
0.705751984163345
40
0.713925540158807
40
0.713925540158807
40
0.718012318156539
40
0.718012318156539
40
0.720055707155404
40
0.720055707155404
40
0.722099096154269
40
0.722099096154269
40
0.738446208145195
40
0.738446208145195
40
0.75479332013612
40
0.75479332013612
40
0.771140432127045
40
0.771140432127045
40
0.78748754411797
40
0.78748754411797
40
0.803834656108895
40
0.803834656108895
40
0.82018176809982
40
0.82018176809982
40
0.828355324095283
40
0.828355324095283
40
0.836528880090746
40
0.836528880090746
40
0.852875992081671
40
0.852875992081671
40
0.869223104072596
40
0.869223104072596
40
0.885570216063522
40
0.885570216063522
40
0.901917328054447
40
0.901917328054447
40
0.934611552036298
40
0.934611552036298
40
0.950958664027224
40
0.950958664027224
40
0.967305776018149
40
0.967305776018149
40
1
40
1
40
1
40
1
41
1
10
20.2129292678577
20
-7.02334815388292
30
0
41
1
10
19.602239932117
20
-7.02260044132038
30
0
41
1
10
18.9867364969329
20
-7.00109850392451
30
0
41
1
10
17.8845691779287
20
-6.93328586554702
30
0
41
1
10
17.4014612512978
20
-6.89376389218134
30
0
41
1
10
16.4324577053844
20
-6.79974646757341
30
0
41
1
10
15.9460382239943
20
-6.74522132555973
30
0
41
1
10
14.4792421137897
20
-6.56674834963789
30
0
41
1
10
13.4912365639911
20
-6.42790238158827
30
0
41
1
10
11.4869325791705
20
-6.15364211841046
30
0
41
1
10
10.4706439895343
20
-6.01849695740685
30
0
41
1
10
8.92103377178344
20
-5.84840011135981
30
0
41
1
10
8.400322026639
20
-5.79708111826682
30
0
41
1
10
7.3500242872189
20
-5.70928944575707
30
0
41
1
10
6.81986841216749
20
-5.67282761736786
30
0
41
1
10
5.7595206835704
20
-5.61850935264437
30
0
41
1
10
5.22826934694891
20
-5.6005388299676
30
0
41
1
10
4.42969006722751
20
-5.58886503952073
30
0
41
1
10
4.16321996198451
20
-5.58751792204424
30
0
41
1
10
3.83025650651987
20
-5.58912373015477
30
0
41
1
10
3.7636562397972
20
-5.58960925797359
30
0
41
1
10
3.6637864931476
20
-5.59058531317592
30
0
41
1
10
3.63069431853177
20
-5.59221219935517
30
0
41
1
10
3.58175742693828
20
-5.59923969799806
30
0
41
1
10
3.56567224431956
20
-5.60230047219747
30
0
41
1
10
3.53546362631937
20
-5.61009475282955
30
0
41
1
10
3.52152705661206
20
-5.61521412540847
30
0
41
1
10
3.39991592453413
20
-5.66515021899767
30
0
41
1
10
3.29403155227675
20
-5.71067318568285
30
0
41
1
10
3.08871921309196
20
-5.80368628038772
30
0
41
1
10
2.98885497778613
20
-5.85137995430247
30
0
41
1
10
2.79800911798748
20
-5.94835850709438
30
0
41
1
10
2.70728942262844
20
-5.99749226252777
30
0
41
1
10
2.53713899704906
20
-6.0969809118148
30
0
41
1
10
2.45769131262779
20
-6.14733620536958
30
0
41
1
10
2.3128580344476
20
-6.2491885776048
30
0
41
1
10
2.24740377401221
20
-6.30089137407415
30
0
41
1
10
2.13841147387444
20
-6.40146310045506
30
0
41
1
10
2.09420671659942
20
-6.45074810950192
30
0
41
1
10
2.04563615915927
20
-6.52258651095431
30
0
41
1
10
2.03244918743394
20
-6.5461942223323
30
0
41
1
10
2.01278663474011
20
-6.59151213181059
30
0
41
1
10
2.0062000764371
20
-6.61336792344932
30
0
41
1
10
1.99594037113562
20
-6.67649630353591
30
0
41
1
10
2.00179510608612
20
-6.715406655186
30
0
41
1
10
2.03770374776369
20
-6.78622337064073
30
0
41
1
10
2.06712052959674
20
-6.81713497448942
30
0
41
1
10
2.14448872377304
20
-6.87132334051034
30
0
41
1
10
2.19246362012166
20
-6.89459325690422
30
0
41
1
10
2.30396140565378
20
-6.93442517582668
30
0
41
1
10
2.36637287410326
20
-6.95060691294961
30
0
41
1
10
2.56865484266248
20
-6.99007273673675
30
0
41
1
10
2.72349020087313
20
-7.00444553160091
30
0
41
1
10
2.97558029298941
20
-7.01305181048093
30
0
41
1
10
3.06288731187948
20
-7.01370579666272
30
0
41
1
10
3.24103525083538
20
-7.01121893973891
30
0
41
1
10
3.3321515950768
20
-7.00808733612152
30
0
41
1
10
3.61055692986392
20
-6.99378933770578
30
0
41
1
10
3.80284791594889
20
-6.97775909090032
30
0
41
1
10
3.99999983391248
20
-6.95652146482337
30
0
0
SPLINE
5
D5
100
AcDbEntity
8
1
62
256
6
ByLayer
370
18
48
1
60
0
100
AcDbSpline
70
4
71
3
72
12
73
8
40
0
40
0
40
0
40
0
40
0.24999999999999
40
0.24999999999999
40
0.499999999999979
40
0.499999999999979
40
1
40
1
40
1
40
1
41
1
10
4.13299306132399
20
-1.87254520536072
30
0
41
1
10
4.11285873456319
20
-1.86226563498164
30
0
41
1
10
4.09461562630733
20
-1.84961101453905
30
0
41
1
10
4.06181010177104
20
-1.8196577960361
30
0
41
1
10
4.04746668432452
20
-1.80242138670474
30
0
41
1
10
4.01267154559662
20
-1.74656378656388
30
0
41
1
10
3.99999983391462
20
-1.70296011492846
30
0
41
1
10
3.99999983391464
20
-1.65868529469819
30
0
0
SPLINE
5
D6
100
AcDbEntity
8
1
62
256
6
ByLayer
370
18
48
1
60
0
100
AcDbSpline
70
4
71
3
72
88
73
84
40
0
40
0
40
0
40
0
40
0.0333795104036144
40
0.0333795104036144
40
0.0500692656054211
40
0.0500692656054211
40
0.0667590208072279
40
0.0667590208072279
40
0.100138531210842
40
0.100138531210842
40
0.116828286412649
40
0.116828286412649
40
0.133518041614456
40
0.133518041614456
40
0.16689755201807
40
0.16689755201807
40
0.200277062421684
40
0.200277062421684
40
0.233656572825299
40
0.233656572825299
40
0.250346328027106
40
0.250346328027106
40
0.267036083228914
40
0.267036083228914
40
0.300415593632528
40
0.300415593632528
40
0.317105348834335
40
0.317105348834335
40
0.333795104036143
40
0.333795104036143
40
0.367174614439757
40
0.367174614439757
40
0.400554124843371
40
0.400554124843371
40
0.433933635246986
40
0.433933635246986
40
0.4673131456506
40
0.4673131456506
40
0.484002900852407
40
0.484002900852407
40
0.500692656054215
40
0.500692656054215
40
0.534072166457831
40
0.534072166457831
40
0.567451676861447
40
0.567451676861447
40
0.600831187265063
40
0.600831187265063
40
0.634210697668678
40
0.634210697668678
40
0.667590208072294
40
0.667590208072294
40
0.684279963274102
40
0.684279963274102
40
0.70096971847591
40
0.70096971847591
40
0.717659473677718
40
0.717659473677718
40
0.734349228879526
40
0.734349228879526
40
0.751038984081334
40
0.751038984081334
40
0.767728739283142
40
0.767728739283142
40
0.801108249686758
40
0.801108249686758
40
0.834487760090374
40
0.834487760090374
40
0.851177515292181
40
0.851177515292181
40
0.867867270493989
40
0.867867270493989
40
0.901246780897603
40
0.901246780897603
40
0.91793653609941
40
0.91793653609941
40
0.934626291301217
40
0.934626291301217
40
0.951316046503024
40
0.951316046503024
40
0.968005801704832
40
0.968005801704832
40
1
40
1
40
1
40
1
41
1
10
21.2101107344472
20
7.00532291851482
30
0
41
1
10
21.666075932246
20
6.98789356866524
30
0
41
1
10
22.1211357838834
20
6.95814631261982
30
0
41
1
10
22.8016142184013
20
6.89558457391672
30
0
41
1
10
23.0280940515518
20
6.8717290744234
30
0
41
1
10
23.4802374565438
20
6.8179604985863
30
0
41
1
10
23.705803925726
20
6.78798868178149
30
0
41
1
10
24.3823151945776
20
6.68946507713613
30
0
41
1
10
24.833366922752
20
6.61257802485611
30
0
41
1
10
25.5090847537758
20
6.48018247031777
30
0
41
1
10
25.7341981543398
20
6.43320654940359
30
0
41
1
10
26.1840102837072
20
6.33337727994291
30
0
41
1
10
26.4087562446372
20
6.28054505603257
30
0
41
1
10
27.0839767734987
20
6.11457877507249
30
0
41
1
10
27.5349664562827
20
5.9936669954366
30
0
41
1
10
28.4375993215236
20
5.73024722870727
30
0
41
1
10
28.8887744819637
20
5.58706663214079
30
0
41
1
10
29.7953686235362
20
5.28273217848439
30
0
41
1
10
30.2503252328927
20
5.12116578734469
30
0
41
1
10
30.9346337002061
20
4.86345982663693
30
0
41
1
10
31.1624042549964
20
4.775028601874
30
0
41
1
10
31.6169651319356
20
4.59466041683245
30
0
41
1
10
31.8440581584356
20
4.50286889763194
30
0
41
1
10
32.5245456880413
20
4.22241265185988
30
0
41
1
10
32.9771597374434
20
4.02870279887884
30
0
41
1
10
33.6537510658574
20
3.72683010847399
30
0
41
1
10
33.8788886893879
20
3.62430091408643
30
0
41
1
10
34.3294047401531
20
3.41715219106447
30
0
41
1
10
34.5547034505393
20
3.31240725437814
30
0
41
1
10
35.2304174702984
20
2.994189157573
30
0
41
1
10
35.6806466994461
20
2.77673734087344
30
0
41
1
10
36.5800527090336
20
2.33008109809958
30
0
41
1
10
37.0304577891278
20
2.10306933648025
30
0
41
1
10
37.9330776034297
20
1.64252413548431
30
0
41
1
10
38.3848063659113
20
1.40807401249964
30
0
41
1
10
39.2899801947774
20
0.932203097256291
30
0
41
1
10
39.7446012165522
20
0.693109823311516
30
0
41
1
10
40.4289030850599
20
0.331335701542571
30
0
41
1
10
40.657165855344
20
0.210353819012994
30
0
41
1
10
41.1119733941591
20
-0.0317072554828144
30
0
41
1
10
41.3387420268417
20
-0.153016511181107
30
0
41
1
10
42.0187140364585
20
-0.514649743305938
30
0
41
1
10
42.4713736269754
20
-0.753141060586785
30
0
41
1
10
43.3742536438388
20
-1.22732025406626
30
0
41
1
10
43.8239376912893
20
-1.46398728374177
30
0
41
1
10
44.7241832471365
20
-1.92816441205989
30
0
41
1
10
45.1744468969086
20
-2.15628494427858
30
0
41
1
10
46.0743486788662
20
-2.60626761873914
30
0
41
1
10
46.5236638316391
20
-2.82866136372812
30
0
41
1
10
47.4254680633955
20
-3.26031168140312
30
0
41
1
10
47.8773820235562
20
-3.47063003215246
30
0
41
1
10
48.5560885783652
20
-3.77890856304543
30
0
41
1
10
48.782378420233
20
-3.88060214032794
30
0
41
1
10
49.236040130638
20
-4.08020518944841
30
0
41
1
10
49.4634544637822
20
-4.17805097269138
30
0
41
1
10
49.9191937865389
20
-4.37025490491317
30
0
41
1
10
50.1476974049011
20
-4.46464451425399
30
0
41
1
10
50.6031622621627
20
-4.64905475264851
30
0
41
1
10
50.8303930495035
20
-4.73920573725653
30
0
41
1
10
51.2837555081987
20
-4.91552507770501
30
0
41
1
10
51.509989857946
20
-5.0015298771695
30
0
41
1
10
51.9623996351263
20
-5.16814646719922
30
0
41
1
10
52.1884496058936
20
-5.24894406913262
30
0
41
1
10
52.8659303670556
20
-5.48418470476469
30
0
41
1
10
53.3165514254964
20
-5.63166352581601
30
0
41
1
10
54.2158510268959
20
-5.9075956324269
30
0
41
1
10
54.6658117205862
20
-6.03464807363295
30
0
41
1
10
55.3408865975803
20
-6.20948315307851
30
0
41
1
10
55.5659144756601
20
-6.26514931941335
30
0
41
1
10
56.0158473721925
20
-6.37131883078331
30
0
41
1
10
56.2406553444122
20
-6.42189053581342
30
0
41
1
10
56.9159293324076
20
-6.56491997049525
30
0
41
1
10
57.3675599812278
20
-6.64855762609471
30
0
41
1
10
58.0462509113008
20
-6.75708985995232
30
0
41
1
10
58.2727068868342
20
-6.79042399437097
30
0
41
1
10
58.7259205645008
20
-6.85137150011369
30
0
41
1
10
58.9527266250414
20
-6.8789432274493
30
0
41
1
10
59.4076991142036
20
-6.92781919699362
30
0
41
1
10
59.6360217440722
20
-6.94920380198545
30
0
41
1
10
60.092050107961
20
-6.98575095141146
30
0
41
1
10
60.3197719545663
20
-7.00091940818331
30
0
41
1
10
60.9830206792378
20
-7.03617608048677
30
0
41
1
10
61.4171701339516
20
-7.04797987749919
30
0
41
1
10
61.8516425304317
20
-7.04833428434566
30
0
0
SPLINE
5
D7
100
AcDbEntity
8
1
62
256
6
ByLayer
370
18
48
1
60
0
100
AcDbSpline
70
4
71
3
72
44
73
40
40
0
40
0
40
0
40
0
40
0.250000000000006
40
0.250000000000006
40
0.37500000000001
40
0.37500000000001
40
0.437500000000011
40
0.437500000000011
40
0.500000000000013
40
0.500000000000013
40
0.62500000000002
40
0.62500000000002
40
0.687500000000025
40
0.687500000000025
40
0.718750000000026
40
0.718750000000026
40
0.734375000000025
40
0.734375000000025
40
0.750000000000023
40
0.750000000000023
40
0.78125000000002
40
0.78125000000002
40
0.812500000000018
40
0.812500000000018
40
0.843750000000015
40
0.843750000000015
40
0.875000000000012
40
0.875000000000012
40
0.89062500000001
40
0.89062500000001
40
0.906250000000009
40
0.906250000000009
40
0.921875000000007
40
0.921875000000007
40
0.937500000000006
40
0.937500000000006
40
0.968750000000003
40
0.968750000000003
40
1
40
1
40
1
40
1
41
1
10
57.2738351430762
20
2.97896080537461
30
0
41
1
10
57.8553136671641
20
2.56171579478115
30
0
41
1
10
58.4453617996015
20
2.18292163553269
30
0
41
1
10
59.3467503436317
20
1.68793996994427
30
0
41
1
10
59.6499123714616
20
1.53505699217877
30
0
41
1
10
60.1092644298624
20
1.32641265548014
30
0
41
1
10
60.2631504555064
20
1.26031349027502
30
0
41
1
10
60.5725984905312
20
1.13563510697296
30
0
41
1
10
60.7281322368569
20
1.07709207326519
30
0
41
1
10
61.1921114078285
20
0.915574709173399
30
0
41
1
10
61.4996435836251
20
0.825901104307263
30
0
41
1
10
61.957872034664
20
0.722315413610289
30
0
41
1
10
62.1101029871618
20
0.692943277112079
30
0
41
1
10
62.3376085806251
20
0.657355489212875
30
0
41
1
10
62.4133601412931
20
0.646905328850096
30
0
41
1
10
62.5265533954672
20
0.633484747824809
30
0
41
1
10
62.5641985136435
20
0.629388454764353
30
0
41
1
10
62.6393129826627
20
0.621965014216698
30
0
41
1
10
62.6768020326804
20
0.618554235215385
30
0
41
1
10
62.7881819166195
20
0.612347083463419
30
0
41
1
10
62.861071724842
20
0.612496138237049
30
0
41
1
10
63.0030780298665
20
0.623014711330683
30
0
41
1
10
63.0726520184824
20
0.633443449252184
30
0
41
1
10
63.2042645049936
20
0.666517353574534
30
0
41
1
10
63.2665868130748
20
0.689034270273851
30
0
41
1
10
63.3805121345197
20
0.752467126350126
30
0
41
1
10
63.432370327518
20
0.794424431573901
30
0
41
1
10
63.4947119589709
20
0.871062269960618
30
0
41
1
10
63.5131264033775
20
0.89897233790748
30
0
41
1
10
63.544885783886
20
0.95985774499556
30
0
41
1
10
63.5580847220602
20
0.992700202781066
30
0
41
1
10
63.5785291255171
20
1.06123634204826
30
0
41
1
10
63.5859236481115
20
1.09716524807251
30
0
41
1
10
63.595162479531
20
1.17228297631627
30
0
41
1
10
63.596966860548
20
1.21174976559735
30
0
41
1
10
63.5943324827748
20
1.33172822920011
30
0
41
1
10
63.5819214189336
20
1.41491201144473
30
0
41
1
10
63.54154478573
20
1.58351702932288
30
0
41
1
10
63.5143714979132
20
1.66714058530997
30
0
41
1
10
63.4827741604178
20
1.7503341149596
30
0
0
SPLINE
5
D8
100
AcDbEntity
8
1
62
256
6
ByLayer
370
13
48
1
60
0
100
AcDbSpline
70
4
71
3
72
33
73
29
40
0
40
0
40
0
40
0
40
0.125
40
0.125
40
0.15625
40
0.15625
40
0.1875
40
0.1875
40
0.250000000000001
40
0.312500000000001
40
0.312500000000001
40
0.375000000000001
40
0.375000000000001
40
0.500000000000001
40
0.500000000000001
40
0.562500000000001
40
0.562500000000001
40
0.593750000000002
40
0.593750000000002
40
0.625000000000002
40
0.625000000000002
40
0.750000000000001
40
0.750000000000001
40
0.812500000000001
40
0.812500000000001
40
0.875000000000001
40
0.875000000000001
40
1
40
1
40
1
40
1
41
1
10
4.25021334723496
20
-1.74093737600285
30
0
41
1
10
4.25023019967983
20
-1.27200151842479
30
0
41
1
10
4.25023805860673
20
-0.796008438061051
30
0
41
1
10
4.25024182910386
20
-0.192310275254897
30
0
41
1
10
4.25024227861343
20
-0.0708173762519948
30
0
41
1
10
4.2502426909187
20
0.171407528578328
30
0
41
1
10
4.2502426554054
20
0.291984882595784
30
0
41
1
10
4.25024203620899
20
0.652144675632883
30
0
41
1
10
4.25023984995693
20
1.1281738914908
30
0
41
1
10
4.25023700199426
20
1.5959613359183
30
0
41
1
10
4.2502347674583
20
2.05954713659668
30
0
41
1
10
4.25023396279551
20
2.29026992604585
30
0
41
1
10
4.25023380772072
20
2.96041668190335
30
0
41
1
10
4.25023673514912
20
3.38243441878652
30
0
41
1
10
4.25024912904087
20
3.97853231854458
30
0
41
1
10
4.25025461365459
20
4.17178905822021
30
0
41
1
10
4.25026498480509
20
4.44822632438371
30
0
41
1
10
4.25026879528079
20
4.53817575917213
30
0
41
1
10
4.25027713716577
20
4.71368127820477
30
0
41
1
10
4.25028167940022
20
4.7994107293238
30
0
41
1
10
4.25030605113761
20
5.21442210962454
30
0
41
1
10
4.25033089688671
20
5.50328843649072
30
0
41
1
10
4.25037428345274
20
5.87368599536813
30
0
41
1
10
4.25038976443091
20
5.98666463653404
30
0
41
1
10
4.25042214903138
20
6.1902986833976
30
0
41
1
10
4.25043877617162
20
6.27927296187951
30
0
41
1
10
4.25048877998589
20
6.50904642116771
30
0
41
1
10
4.25052235971262
20
6.61312071486915
30
0
41
1
10
4.25055232280315
20
6.66649764456761
30
0
0
SPLINE
5
D9
100
AcDbEntity
8
1
62
256
6
ByLayer
370
18
48
1
60
0
100
AcDbSpline
70
4
71
3
72
12
73
8
40
0
40
0
40
0
40
0
40
0.249999999999992
40
0.249999999999992
40
0.499999999999983
40
0.499999999999983
40
1
40
1
40
1
40
1
41
1
10
64.6083256911956
20
-6.78913570577149
30
0
41
1
10
64.6131640887975
20
-6.77606806268133
30
0
41
1
10
64.6177934293623
20
-6.76279353788664
30
0
41
1
10
64.625488963599
20
-6.73881206842302
30
0
41
1
10
64.6285383942077
20
-6.72813543914626
30
0
41
1
10
64.6341780220627
20
-6.70400389627534
30
0
41
1
10
64.6332155991812
20
-6.69916840134542
30
0
41
1
10
64.6295532046228
20
-6.70220303950393
30
0
0
SPLINE
5
DA
100
AcDbEntity
8
SK1
62
256
6
ByLayer
370
18
48
1
60
0
100
AcDbSpline
70
4
71
3
72
14
73
10
40
0
40
0
40
0
40
0
40
0.125
40
0.125
40
0.250000000000001
40
0.250000000000001
40
0.5
40
0.5
40
1
40
1
40
1
40
1
41
1
10
-46
20
7.5659014345039
30
0
41
1
10
-46
20
7.56925915611049
30
0
41
1
10
-46.0017055870951
20
7.56972538408706
30
0
41
1
10
-46.0068924291627
20
7.56705395917072
30
0
41
1
10
-46.0102440228914
20
7.56408482345032
30
0
41
1
10
-46.0215656644542
20
7.55245077969906
30
0
41
1
10
-46.030416522685
20
7.5414867905572
30
0
41
1
10
-46.0585951172059
20
7.50425382602825
30
0
41
1
10
-46.0788864676936
20
7.47452867309693
30
0
41
1
10
-46.1
20
7.44172192648651
30
0
0
SPLINE
5
DB
100
AcDbEntity
8
SK1
62
256
6
ByLayer
370
18
48
1
60
0
100
AcDbSpline
70
4
71
3
72
10
73
6
40
0
40
0
40
0
40
0
40
0.5
40
0.5
40
1
40
1
40
1
40
1
41
1
10
-46.1
20
7.44172192648651
30
0
41
1
10
-46.3919592969999
20
6.98806810209391
30
0
41
1
10
-46.6831432866858
20
6.53401926808797
30
0
41
1
10
-47.2624202546638
20
5.62442975620161
30
0
41
1
10
-47.5506164463959
20
5.16893473824624
30
0
41
1
10
-47.8353426324043
20
4.71175496244868
30
0
0
SPLINE
5
DC
100
AcDbEntity
8
SK1
62
256
6
ByLayer
370
18
48
1
60
0
100
AcDbSpline
70
4
71
3
72
10
73
6
40
0
40
0
40
0
40
0
40
0.5
40
0.5
40
1
40
1
40
1
40
1
41
1
10
-48
20
3.02329268681254
30
0
41
1
10
-47.6894982961794
20
3.52545042820603
30
0
41
1
10
-47.373948578408
20
4.02533200521108
30
0
41
1
10
-46.7393979237749
20
5.02316161015111
30
0
41
1
10
-46.420159514285
20
5.5210944185194
30
0
41
1
10
-46.1
20
6.01856646192931
30
0
0
SPLINE
5
DD
100
AcDbEntity
8
SK1
62
256
6
ByLayer
370
18
48
1
60
0
100
AcDbSpline
70
4
71
4
72
13
73
8
40
0
40
0
40
0
40
0
40
0
40
0.373311762320397
40
0.373311762320397
40
0.373311762320397
40
1
40
1
40
1
40
1
40
1
41
1.01084944546408
10
-47.9999996676867
20
4.46685016965742
30
0
41
1.01321629577613
10
-47.9999997071624
20
4.41735868029593
30
0
41
1.01527787986061
10
-47.9999997526979
20
4.36643551053089
30
0
41
1.0166117137858
10
-47.9999998031961
20
4.31490034101468
30
0
41
1.0166117137858
10
-47.9999999476519
20
4.17776916165707
30
0
41
1.01285280749957
10
-48.0000000579615
20
4.08321516937129
30
0
41
1.00820228915385
10
-48.0000001873725
20
3.98311213558615
30
0
41
1.00406933802446
10
-48.0000003323131
20
3.88095142783315
30
0
0
SPLINE
5
DE
100
AcDbEntity
8
SK1
62
256
6
ByLayer
370
18
48
1
60
0
100
AcDbSpline
70
4
71
3
72
22
73
18
40
0
40
0
40
0
40
0
40
0.25
40
0.25
40
0.375
40
0.375
40
0.5
40
0.5
40
0.5625
40
0.5625
40
0.625000000000001
40
0.625000000000001
40
0.750000000000001
40
0.750000000000001
40
0.875
40
0.875
40
1
40
1
40
1
40
1
41
1
10
-48.0000000000026
20
3.88095143174567
30
0
41
1
10
-47.909126203326
20
3.92674584898379
30
0
41
1
10
-47.8218421884562
20
3.97765544910277
30
0
41
1
10
-47.7043575804757
20
4.0700704957506
30
0
41
1
10
-47.6681369348795
20
4.10312834164574
30
0
41
1
10
-47.6053027586579
20
4.17660343729699
30
0
41
1
10
-47.5787512778624
20
4.21723066289098
30
0
41
1
10
-47.554385562843
20
4.28317055560166
30
0
41
1
10
-47.5489003496009
20
4.30606638347547
30
0
41
1
10
-47.5444079262239
20
4.35161846118496
30
0
41
1
10
-47.5452987485788
20
4.37466410314607
30
0
41
1
10
-47.5578944412579
20
4.44361824379851
30
0
41
1
10
-47.5792753578908
20
4.48686130821045
30
0
41
1
10
-47.6363111697981
20
4.56384656623155
30
0
41
1
10
-47.672090412905
20
4.59829333520119
30
0
41
1
10
-47.7497405226403
20
4.65979393799716
30
0
41
1
10
-47.7915794939137
20
4.68692860916721
30
0
41
1
10
-47.8353426324043
20
4.71175496244868
30
0
0
SPLINE
5
DF
100
AcDbEntity
8
SK1
62
256
6
ByLayer
370
18
48
1
60
0
100
AcDbSpline
70
4
71
3
72
14
73
10
40
0
40
0
40
0
40
0
40
0.499999999999994
40
0.499999999999994
40
0.74999999999999
40
0.74999999999999
40
0.874999999999995
40
0.874999999999995
40
1
40
1
40
1
40
1
41
1
10
-46.1
20
6.01856646192928
30
0
41
1
10
-46.078998416482
20
6.05119925964848
30
0
41
1
10
-46.0586701890239
20
6.08663289951343
30
0
41
1
10
-46.0304433385198
20
6.14410009425526
30
0
41
1
10
-46.0214721393577
20
6.16391839901658
30
0
41
1
10
-46.0103047485395
20
6.19323101203449
30
0
41
1
10
-46.006895500949
20
6.20313265615656
30
0
41
1
10
-46.001721316688
20
6.22198215266863
30
0
41
1
10
-46
20
6.23088955715019
30
0
41
1
10
-46
20
6.23762300091718
30
0
0
SPLINE
5
E0
100
AcDbEntity
8
SK1
62
256
6
ByLayer
370
18
48
1
60
0
100
AcDbSpline
70
4
71
3
72
10
73
6
40
0
40
0
40
0
40
0
40
0.5
40
0.5
40
1
40
1
40
1
40
1
41
1
10
-47.8353426324043
20
4.71175496244868
30
0
41
1
10
-47.859916273794
20
4.67823477810842
30
0
41
1
10
-47.8861591384187
20
4.64057611948118
30
0
41
1
10
-47.9412638460653
20
4.55845198020762
30
0
41
1
10
-47.9699852767962
20
4.51421453533339
30
0
41
1
10
-48.0000000000001
20
4.46685022436353
30
0
0
LINE
5
76
100
AcDbEntity
8
81
62
256
6
ByLayer
370
18
48
1
60
0
100
AcDbLine
10
67
20
0
30
0
11
72
21
0
31
0
39
0
210
0
220
0
230
1
0
LINE
5
77
100
AcDbEntity
8
1
62
256
6
ByLayer
370
18
48
1
60
0
100
AcDbLine
10
3.071367
20
7.013067
30
0
11
1.478763
21
7.012112
31
0
39
0
210
0
220
0
230
1
0
LINE
5
79
100
AcDbEntity
8
1
62
256
6
ByLayer
370
18
48
1
60
0
100
AcDbLine
10
21.353635
20
7.024037
30
0
11
20.21814
21
7.023355
31
0
39
0
210
0
220
0
230
1
0
LINE
5
7A
100
AcDbEntity
8
1
62
256
6
ByLayer
370
18
48
1
60
0
100
AcDbLine
10
62.955284
20
7.048998
30
0
11
61.857437
21
7.048339
31
0
39
0
210
0
220
0
230
1
0
LINE
5
7B
100
AcDbEntity
8
1
62
256
6
ByLayer
370
18
48
1
60
0
100
AcDbLine
10
61.857437
20
-7.048339
30
0
11
62.95487
21
-7.048997
31
0
39
0
210
0
220
0
230
1
0
LINE
5
7C
100
AcDbEntity
8
1
62
256
6
ByLayer
370
18
48
1
60
0
100
AcDbLine
10
20.21814
20
-7.023355
30
0
11
21.35377
21
-7.024037
31
0
39
0
210
0
220
0
230
1
0
LINE
5
7D
100
AcDbEntity
8
1
62
256
6
ByLayer
370
18
48
1
60
0
100
AcDbLine
10
1.478763
20
-7.012112
30
0
11
3.071367
21
-7.013067
31
0
39
0
210
0
220
0
230
1
0
LINE
5
7E
100
AcDbEntity
8
SK1
62
256
6
ByLayer
370
18
48
1
60
0
100
AcDbLine
10
0
20
8
30
0
11
-45.979274
21
8
31
0
39
0
210
0
220
0
230
1
0
LINE
5
80
100
AcDbEntity
8
SK1
62
256
6
ByLayer
370
18
48
1
60
0
100
AcDbLine
10
-45.979274
20
-8
30
0
11
0
21
-8
31
0
39
0
210
0
220
0
230
1
0
LINE
5
81
100
AcDbEntity
8
SK1
62
256
6
ByLayer
370
18
48
1
60
0
100
AcDbLine
10
-45.979274
20
8
30
0
11
-48
21
4.5
31
0
39
0
210
0
220
0
230
1
0
LINE
5
82
100
AcDbEntity
8
SK1
62
256
6
ByLayer
370
18
48
1
60
0
100
AcDbLine
10
-48
20
-4.5
30
0
11
-45.979274
21
-8
31
0
39
0
210
0
220
0
230
1
0
LINE
5
83
100
AcDbEntity
8
SK4
62
256
6
ByLayer
370
18
48
0.05
60
0
100
AcDbLine
10
72
20
0
30
0
11
-53
21
0
31
0
39
0
210
0
220
0
230
1
0
LINE
5
85
100
AcDbEntity
8
4
62
256
6
ByLayer
370
18
48
0.05
60
0
100
AcDbLine
10
67
20
0
30
0
11
0
21
0
31
0
39
0
210
0
220
0
230
1
0
LINE
5
87
100
AcDbEntity
8
80
62
256
6
ByLayer
370
18
48
1
60
0
100
AcDbLine
10
0
20
0
30
0
11
-5
21
0
31
0
39
0
210
0
220
0
230
1
0
LINE
5
88
100
AcDbEntity
8
1
62
256
6
ByLayer
370
18
48
1
60
0
100
AcDbLine
10
66.904044
20
0.329951
30
0
11
66.666394
21
1.20732
31
0
39
0
210
0
220
0
230
1
0
LINE
5
89
100
AcDbEntity
8
1
62
256
6
ByLayer
370
18
48
1
60
0
100
AcDbLine
10
66.904044
20
-0.329951
30
0
11
66.666394
21
-1.20732
31
0
39
0
210
0
220
0
230
1
0
LINE
5
8A
100
AcDbEntity
8
1
62
256
6
ByLayer
370
13
48
1
60
0
100
AcDbLine
10
1.478763
20
7.012112
30
0
11
1.478763
21
-7.012112
31
0
39
0
210
0
220
0
230
1
0
LINE
5
8B
100
AcDbEntity
8
1
62
256
6
ByLayer
370
13
48
1
60
0
100
AcDbLine
10
0.739141
20
7.506056
30
0
11
0.739141
21
-7.506056
31
0
39
0
210
0
220
0
230
1
0
LINE
5
8C
100
AcDbEntity
8
1
62
256
6
ByLayer
370
13
48
1
60
0
100
AcDbLine
10
64.962556
20
0.860896
30
0
11
66.893821
21
-0.095314
31
0
39
0
210
0
220
0
230
1
0
LINE
5
8D
100
AcDbEntity
8
1
62
256
6
ByLayer
370
18
48
1
60
0
100
AcDbLine
10
0
20
-8
30
0
11
0
21
8
31
0
39
0
210
0
220
0
230
1
0
LINE
5
8E
100
AcDbEntity
8
1
62
256
6
ByLayer
370
13
48
1
60
0
100
AcDbLine
10
66.666394
20
1.20732
30
0
11
65.132015
21
1.20732
31
0
39
0
210
0
220
0
230
1
0
LINE
5
8F
100
AcDbEntity
8
1
62
256
6
ByLayer
370
18
48
1
60
0
100
AcDbLine
10
67
20
0
30
0
11
64.545782
21
-6.742908
31
0
39
0
210
0
220
0
230
1
0
LINE
5
90
100
AcDbEntity
8
1
62
256
6
ByLayer
370
18
48
1
60
0
100
AcDbLine
10
63.450392
20
-3.932953
30
0
11
66.893821
21
-0.095314
31
0
39
0
210
0
220
0
230
1
0
LINE
5
91
100
AcDbEntity
8
1
62
256
6
ByLayer
370
18
48
1
60
0
100
AcDbLine
10
66.985138
20
0.066677
30
0
11
67
21
0
31
0
39
0
210
0
220
0
230
1
0
LINE
5
92
100
AcDbEntity
8
1
62
256
6
ByLayer
370
18
48
1
60
0
100
AcDbLine
10
4
20
-1.658685
30
0
11
4
21
6.956521
31
0
39
0
210
0
220
0
230
1
0
LINE
5
93
100
AcDbEntity
8
1
62
256
6
ByLayer
370
18
48
1
60
0
100
AcDbLine
10
67
20
0
30
0
11
66.985138
21
-0.066677
31
0
39
0
210
0
220
0
230
1
0
LINE
5
94
100
AcDbEntity
8
1
62
256
6
ByLayer
370
13
48
1
60
0
100
AcDbLine
10
65.132015
20
1.20732
30
0
11
66.904044
21
0.329951
31
0
39
0
210
0
220
0
230
1
0
LINE
5
95
100
AcDbEntity
8
SK1
62
256
6
ByLayer
370
18
48
1
60
0
100
AcDbLine
10
-45.979274
20
8
30
0
11
-45.979274
21
-8
31
0
39
0
210
0
220
0
230
1
0
LINE
5
96
100
AcDbEntity
8
SK1
62
256
6
ByLayer
370
18
48
1
60
0
100
AcDbLine
10
-46
20
6.237623
30
0
11
-46
21
7.565901
31
0
39
0
210
0
220
0
230
1
0
LINE
5
97
100
AcDbEntity
8
SK1
62
256
6
ByLayer
370
18
48
1
60
0
100
AcDbLine
10
-48
20
3.023293
30
0
11
-48
21
-4.5
31
0
39
0
210
0
220
0
230
1
0
LINE
5
98
100
AcDbEntity
8
SK1
62
256
6
ByLayer
370
18
48
1
60
0
100
AcDbLine
10
-48
20
4.5
30
0
11
-48
21
4.46685
31
0
39
0
210
0
220
0
230
1
0
LINE
5
99
100
AcDbEntity
8
SK1
62
256
6
ByLayer
370
18
48
1
60
0
100
AcDbLine
10
0
20
-8
30
0
11
0
21
8
31
0
39
0
210
0
220
0
230
1
0
LINE
5
9A
100
AcDbEntity
8
SK1
62
256
6
ByLayer
370
13
48
1
60
0
100
AcDbLine
10
-46.1
20
7.441722
30
0
11
-46.1
21
6.018507
31
0
39
0
210
0
220
0
230
1
0
LINE
5
9B
100
AcDbEntity
8
SK1
62
256
6
ByLayer
370
18
48
1
60
0
100
AcDbLine
10
-48
20
3.880951
30
0
11
-48
21
3.023207
31
0
39
0
210
0
220
0
230
1
0
MTEXT
5
E1
100
AcDbEntity
8
SK6
62
256
6
ByLayer
370
13
48
1
60
0
100
AcDbMText
10
11.629169
20
39.432694
30
0
210
0
220
0
230
1
1
\W0.7343;R840-1410-30-A1A1220
40
3.5
41
0
44
1.084337
50
0
71
8
72
5
7
iso_b_vert
0
DIMENSION
5
EE
100
AcDbEntity
8
SK2
62
256
6
ByLayer
370
13
48
1
60
0
100
AcDbDimension
2
DimnDraft3D1
10
64.58
20
-17.263398
30
0
11
30.330059
21
-17.263398
31
0
70
32
71
5
72
1
41
1
210
0
220
0
230
1
3
Standard
100
AcDbAlignedDimension
13
0
23
-1.5875
33
0
14
64.58
24
-8.6375
34
0
50
0
100
AcDbRotatedDimension
1001
ACAD
1000
DSTYLE
1002
{
1070
   279
1070
     0
1070
   172
1070
     1
1070
   173
1070
     1
1070
   340
1005
E2
1070
   271
1070
     2
1070
   272
1070
     2
1070
    77
1070
     1
1070
    73
1070
     0
1070
   171
1070
     3
1070
   274
1070
     4
1070
   177
1070
    35
1070
   176
1070
    35
1070
   178
1070
    35
1070
    48
1040
-0.005
1070
    41
1041
3.5
1070
   147
1041
1.75
1070
    42
1041
1.5875
1070
    44
1041
2.0
1070
   140
1041
3.5
1070
   343
1005
0
1070
   344
1005
0
1002
}
0
DIMENSION
5
F8
100
AcDbEntity
8
SK2
62
256
6
ByLayer
370
13
48
1
60
0
100
AcDbDimension
2
DimnDraft3D2
10
67
20
-36.692985
30
0
11
8.4213
21
-36.692985
31
0
70
32
71
5
72
1
41
1
210
0
220
0
230
1
3
Standard
100
AcDbAlignedDimension
13
-48
23
-9.5875
33
0
14
67
24
-1.5875
34
0
50
0
100
AcDbRotatedDimension
1001
ACAD
1000
DSTYLE
1002
{
1070
   279
1070
     0
1070
   172
1070
     1
1070
   173
1070
     1
1070
   340
1005
E2
1070
   271
1070
     2
1070
   272
1070
     2
1070
    77
1070
     1
1070
    73
1070
     0
1070
   171
1070
     3
1070
   274
1070
     4
1070
   177
1070
    35
1070
   176
1070
    35
1070
   178
1070
    35
1070
    48
1040
-0.005
1070
    41
1041
3.5
1070
   147
1041
1.75
1070
    42
1041
1.5875
1070
    44
1041
2.0
1070
   140
1041
3.5
1070
   343
1005
0
1070
   344
1005
0
1002
}
0
DIMENSION
5
102
100
AcDbEntity
8
SK2
62
256
6
ByLayer
370
13
48
1
60
0
100
AcDbDimension
2
DimnDraft3D3
10
67
20
18.659119
30
0
11
44.64
21
18.659119
31
0
70
32
71
5
72
1
41
1
210
0
220
0
230
1
3
Standard
100
AcDbAlignedDimension
13
22.28
23
8.6375
33
0
14
67
24
1.5875
34
0
50
0
100
AcDbRotatedDimension
1001
ACAD
1000
DSTYLE
1002
{
1070
   279
1070
     0
1070
   172
1070
     1
1070
   173
1070
     1
1070
   340
1005
E2
1070
   271
1070
     2
1070
   272
1070
     2
1070
    77
1070
     1
1070
    73
1070
     0
1070
   171
1070
     3
1070
   274
1070
     4
1070
   177
1070
    35
1070
   176
1070
    35
1070
   178
1070
    35
1070
    48
1040
-0.005
1070
    41
1041
3.5
1070
   147
1041
1.75
1070
    42
1041
1.5875
1070
    44
1041
2.0
1070
   140
1041
3.5
1070
   343
1005
0
1070
   344
1005
0
1002
}
0
DIMENSION
5
10C
100
AcDbEntity
8
SK2
62
256
6
ByLayer
370
13
48
1
60
0
100
AcDbDimension
2
DimnDraft3D4
10
64.58
20
-19.852503
30
0
11
76.981425
21
-19.852503
31
0
70
32
71
5
72
1
41
1
210
0
220
0
230
1
3
Standard
100
AcDbAlignedDimension
13
67
23
-1.5875
33
0
14
64.58
24
-8.6375
34
0
50
0
100
AcDbRotatedDimension
1001
ACAD
1000
DSTYLE
1002
{
1070
   279
1070
     0
1070
   172
1070
     1
1070
   173
1070
     1
1070
   340
1005
E2
1070
   271
1070
     2
1070
   272
1070
     2
1070
    77
1070
     1
1070
    73
1070
     0
1070
   171
1070
     3
1070
   274
1070
     4
1070
   177
1070
    35
1070
   176
1070
    35
1070
   178
1070
    35
1070
    48
1040
-0.005
1070
    41
1041
3.5
1070
   147
1041
1.75
1070
    42
1041
1.5875
1070
    44
1041
2.0
1070
   140
1041
3.5
1070
   343
1005
0
1070
   344
1005
0
1002
}
0
DIMENSION
5
116
100
AcDbEntity
8
SK2
62
256
6
ByLayer
370
13
48
1
60
0
100
AcDbDimension
2
DimnDraft3D5
10
64.58
20
-26.343428
30
0
11
5.340676
21
-26.343428
31
0
70
32
71
5
72
1
41
1
210
0
220
0
230
1
3
Standard
100
AcDbAlignedDimension
13
-48
23
-9.5875
33
0
14
64.58
24
-8.6375
34
0
50
0
100
AcDbRotatedDimension
1001
ACAD
1000
DSTYLE
1002
{
1070
   279
1070
     0
1070
   172
1070
     1
1070
   173
1070
     1
1070
   340
1005
E2
1070
   271
1070
     2
1070
   272
1070
     2
1070
    77
1070
     1
1070
    73
1070
     0
1070
   171
1070
     3
1070
   274
1070
     4
1070
   177
1070
    35
1070
   176
1070
    35
1070
   178
1070
    35
1070
    48
1040
-0.005
1070
    41
1041
3.5
1070
   147
1041
1.75
1070
    42
1041
1.5875
1070
    44
1041
2.0
1070
   140
1041
3.5
1070
   343
1005
0
1070
   344
1005
0
1002
}
0
DIMENSION
5
121
100
AcDbEntity
8
SK2
62
256
6
ByLayer
370
13
48
1
60
0
100
AcDbDimension
2
DimnDraft3D6
10
-58.625163
20
8
30
0
11
-59.250163
21
26.47418
31
0
70
33
71
5
72
1
41
1
210
0
220
0
230
1
3
Standard
100
AcDbAlignedDimension
13
-49.5875
23
-8
33
0
14
-49.5875
24
8
34
0
1001
ACAD
1000
DSTYLE
1002
{
1070
   279
1070
     0
1070
    74
1070
     0
1070
   173
1070
     1
1070
   340
1005
E2
1070
   271
1070
     3
1070
   272
1070
     2
1070
    77
1070
     1
1070
    73
1070
     0
1070
   171
1070
     3
1070
   274
1070
     4
1070
   177
1070
    35
1070
   176
1070
    35
1070
   178
1070
    35
1070
    48
1040
-0.005
1070
    41
1041
3.5
1070
   147
1041
1.75
1070
    42
1041
1.5875
1070
    44
1041
2.0
1070
   140
1041
3.5
1070
   343
1005
0
1070
   344
1005
0
1002
}
0
DIMENSION
5
12C
100
AcDbEntity
8
2
62
256
6
ByLayer
370
13
48
1
60
0
100
AcDbDimension
2
DimnDraft3D7
10
81.083343
20
7.05
30
0
11
76.458343
21
24.117266
31
0
70
33
71
5
72
1
41
1
210
0
220
0
230
1
3
Standard
100
AcDbAlignedDimension
13
66.1675
23
-7.05
33
0
14
66.1675
24
7.05
34
0
1001
ACAD
1000
DSTYLE
1002
{
1070
   279
1070
     0
1070
    74
1070
     0
1070
   173
1070
     1
1070
   340
1005
E2
1070
   271
1070
     3
1070
   272
1070
     2
1070
    77
1070
     1
1070
    73
1070
     0
1070
   171
1070
     3
1070
   274
1070
     4
1070
   177
1070
    35
1070
   176
1070
    35
1070
   178
1070
    35
1070
    48
1040
-0.005
1070
    41
1041
3.5
1070
   147
1041
1.75
1070
    42
1041
1.5875
1070
    44
1041
2.0
1070
   140
1041
3.5
1070
   343
1005
0
1070
   344
1005
0
1002
}
0
ENDSEC
0
SECTION
2
OBJECTS
0
DICTIONARY
5
197
330
0
100
AcDbDictionary
280
0
281
1
3
ACAD_GROUP
350
198
3
ACAD_MLINESTYLE
350
199
0
DICTIONARY
5
198
330
0
100
AcDbDictionary
280
0
281
1
0
DICTIONARY
5
199
330
0
100
AcDbDictionary
280
0
281
1
3
Standard
350
18
0
MLINESTYLE
5
18
330
199
100
AcDbMlineStyle
2
Standard
70
0
3

62
256
51
90
52
90
71
2
49
-0.5
62
256
6
ByLayer
49
0.5
62
256
6
ByLayer
0
RASTERVARIABLES
5
185
330

100
AcDbRasterVariables
90
0
70
1
71
1
72
1
0
ENDSEC
0
EOF
