0
SECTION
2
HEADER
9
$ACADVER
1
AC1015
9
$DWGCODEPAGE
3
ANSI_1252
9
$HANDSEED
5
1a9
9
$ANGBASE
50
0
9
$ANGDIR
70
0
9
$ATTMODE
70
1
9
$AUNITS
70
0
9
$AUPREC
70
0
9
$CECOLOR
62
256
9
$CELTSCALE
40
1
9
$CELTYPE
6
ByLayer
9
$CELWEIGHT
370
18
9
$CLAYER
8
0
9
$CMLJUST
70
0
9
$CMLSCALE
40
1
9
$CMLSTYLE
2
Standard
9
$DIMSTYLE
2
Standard
9
$TEXTSIZE
40
0.2
9
$TEXTSTYLE
7
Standard
9
$LUNITS
70
2
9
$LUPREC
70
4
9
$EXTNAMES
290
1
9
$INSUNITS
70
4
9
$LTSCALE
40
1
9
$LWDISPLAY
290
1
9
$PDMODE
70
0
9
$PDSIZE
40
0
9
$PLINEGEN
70
0
0
ENDSEC
0
SECTION
2
CLASSES
0
CLASS
1
RASTERVARIABLES
2
AcDbRasterVariables
3
ISM
90
0
280
0
281
0
0
ENDSEC
0
SECTION
2
TABLES
0
TABLE
2
VPORT
5
19f
100
AcDbSymbolTable
0
VPORT
5
1
100
AcDbSymbolTableRecord
100
AcDbViewportTableRecord
2
*Active
70
0
10
0
20
0
11
1
21
1
12
-1
22
1
13
0
23
0
14
0.5
24
0.5
15
10
25
10
16
0
26
0
36
1
17
0
27
0
37
0
0
ENDTAB
0
TABLE
2
LTYPE
5
1a0
100
AcDbSymbolTable
0
LTYPE
5
14
100
AcDbSymbolTableRecord
100
AcDbLinetypeTableRecord
70
0
2
ByBlock
3

72
65
73
0
40
0
0
LTYPE
5
15
100
AcDbSymbolTableRecord
100
AcDbLinetypeTableRecord
70
0
2
ByLayer
3

72
65
73
0
40
0
0
LTYPE
5
16
100
AcDbSymbolTableRecord
100
AcDbLinetypeTableRecord
70
0
2
CONTINUOUS
3
Solid line
72
65
73
0
40
0
0
LTYPE
5
6A
100
AcDbSymbolTableRecord
100
AcDbLinetypeTableRecord
70
0
2
CENTER
3
____ _ ____ _ ____ _ ____
72
65
73
4
40
47.5
49
22
74
0
49
-8.5
74
0
49
8.5
74
0
49
-8.5
74
0
0
LTYPE
5
6B
100
AcDbSymbolTableRecord
100
AcDbLinetypeTableRecord
70
0
2
DASHED
3
__ __ __ __ __ __ __ __ __
72
65
73
2
40
25.72
49
12.86
74
0
49
-12.86
74
0
0
ENDTAB
0
TABLE
2
LAYER
5
1a1
100
AcDbSymbolTable
0
LAYER
5
10
100
AcDbSymbolTableRecord
100
AcDbLayerTableRecord
2
0
70
0
62
7
6
CONTINUOUS
290
1
370
-3
390
0
0
LAYER
5
6D
100
AcDbSymbolTableRecord
100
AcDbLayerTableRecord
2
81
70
0
62
-3
6
CONTINUOUS
290
1
370
-3
390
0
0
LAYER
5
6F
100
AcDbSymbolTableRecord
100
AcDbLayerTableRecord
2
80
70
0
62
-6
6
CONTINUOUS
290
1
370
-3
390
0
0
LAYER
5
74
100
AcDbSymbolTableRecord
100
AcDbLayerTableRecord
2
2
70
0
62
7
6
CONTINUOUS
290
1
370
-3
390
0
0
LAYER
5
78
100
AcDbSymbolTableRecord
100
AcDbLayerTableRecord
2
1
70
0
62
4
6
CONTINUOUS
290
1
370
-3
390
0
0
LAYER
5
8A
100
AcDbSymbolTableRecord
100
AcDbLayerTableRecord
2
4
70
0
62
-2
6
CENTER
290
1
370
-3
390
0
0
LAYER
5
18b
100
AcDbSymbolTableRecord
100
AcDbLayerTableRecord
2
SK2
70
0
62
7
6
CONTINUOUS
290
1
370
-3
390
0
0
LAYER
5
18c
100
AcDbSymbolTableRecord
100
AcDbLayerTableRecord
2
SK1
70
0
62
4
6
CONTINUOUS
290
1
370
-3
390
0
0
LAYER
5
18d
100
AcDbSymbolTableRecord
100
AcDbLayerTableRecord
2
SK4
70
0
62
2
6
CENTER
290
1
370
-3
390
0
0
LAYER
5
18e
100
AcDbSymbolTableRecord
100
AcDbLayerTableRecord
2
SK6
70
0
62
5
6
CONTINUOUS
290
1
370
-3
390
0
0
ENDTAB
0
TABLE
2
STYLE
5
1a2
100
AcDbSymbolTable
0
STYLE
5
11
100
AcDbSymbolTableRecord
100
AcDbTextStyleTableRecord
2
Standard
3
txt
70
0
71
0
40
0
41
1
42
0
50
0
0
STYLE
5
E7
100
AcDbSymbolTableRecord
100
AcDbTextStyleTableRecord
2
iso_b_vert
3
simplex.shx
70
0
71
0
40
0
41
1
42
0
50
0
0
STYLE
5
E8
100
AcDbSymbolTableRecord
100
AcDbTextStyleTableRecord
2
DWGDirectTextStyle
3
simplex
70
0
71
0
40
0
41
1
42
0
50
0
0
ENDTAB
0
TABLE
2
DIMSTYLE
5
1a3
100
AcDbSymbolTable
100
AcDbDimStyleTable
0
DIMSTYLE
105
27
100
AcDbSymbolTableRecord
100
AcDbDimStyleTableRecord
2
Standard
70
0
3
<>
41
0.18
42
0.0625
44
0.18
140
0.18
147
0.09
73
0
74
0
77
1
271
2
275
0
278
52
280
0
340
11
0
ENDTAB
0
TABLE
2
VIEW
5
1a4
100
AcDbSymbolTable
0
ENDTAB
0
TABLE
2
UCS
5
1a5
100
AcDbSymbolTable
0
ENDTAB
0
TABLE
2
APPID
5
1a6
100
AcDbSymbolTable
0
APPID
5
12
100
AcDbSymbolTableRecord
100
AcDbRegAppTableRecord
2
ACAD
70
0
0
ENDTAB
0
TABLE
2
BLOCK_RECORD
5
1a7
100
AcDbSymbolTable
0
BLOCK_RECORD
5
1F
100
AcDbSymbolTableRecord
100
AcDbBlockTableRecord
2
*Model_Space
340
0
70
0
0
BLOCK_RECORD
5
1B
100
AcDbSymbolTableRecord
100
AcDbBlockTableRecord
2
*Paper_Space
340
0
70
0
0
BLOCK_RECORD
5
23
100
AcDbSymbolTableRecord
100
AcDbBlockTableRecord
2
*Paper_Space0
340
0
70
0
0
BLOCK_RECORD
5
EA
100
AcDbSymbolTableRecord
100
AcDbBlockTableRecord
2
DimnDraft3D1
340
0
70
0
0
BLOCK_RECORD
5
F4
100
AcDbSymbolTableRecord
100
AcDbBlockTableRecord
2
DimnDraft3D2
340
0
70
0
0
BLOCK_RECORD
5
FE
100
AcDbSymbolTableRecord
100
AcDbBlockTableRecord
2
DimnDraft3D3
340
0
70
0
0
BLOCK_RECORD
5
108
100
AcDbSymbolTableRecord
100
AcDbBlockTableRecord
2
DimnDraft3D4
340
0
70
0
0
BLOCK_RECORD
5
112
100
AcDbSymbolTableRecord
100
AcDbBlockTableRecord
2
DimnDraft3D5
340
0
70
0
0
BLOCK_RECORD
5
11C
100
AcDbSymbolTableRecord
100
AcDbBlockTableRecord
2
DimnDraft3D6
340
0
70
0
0
BLOCK_RECORD
5
127
100
AcDbSymbolTableRecord
100
AcDbBlockTableRecord
2
DimnDraft3D7
340
0
70
0
0
ENDTAB
0
ENDSEC
0
SECTION
2
BLOCKS
0
BLOCK
5
20
100
AcDbEntity
8
0
100
AcDbBlockBegin
2
*Model_Space
70
0
10
0
20
0
30
0
3
*Model_Space
0
ENDBLK
5
21
100
AcDbEntity
8
0
100
AcDbBlockEnd
0
BLOCK
5
1C
100
AcDbEntity
8
0
100
AcDbBlockBegin
2
*Paper_Space
70
0
10
0
20
0
30
0
3
*Paper_Space
0
ENDBLK
5
1D
100
AcDbEntity
8
0
100
AcDbBlockEnd
0
BLOCK
5
24
100
AcDbEntity
8
0
100
AcDbBlockBegin
2
*Paper_Space0
70
0
10
0
20
0
30
0
3
*Paper_Space0
0
ENDBLK
5
25
100
AcDbEntity
8
0
100
AcDbBlockEnd
0
BLOCK
5
F1
100
AcDbEntity
8
0
100
AcDbBlockBegin
2
DimnDraft3D1
70
0
10
0
20
0
30
0
3
DimnDraft3D1
0
MTEXT
5
EB
100
AcDbEntity
8
SK2
62
256
6
ByLayer
370
13
48
1
60
0
100
AcDbMText
10
49.46848
20
-16.338398
30
0
210
0
220
0
230
1
1
\W0.6440;112,60
40
3.5
41
0
44
1.084337
50
0
71
7
72
5
7
iso_b_vert
0
LINE
5
EC
100
AcDbEntity
8
SK2
62
256
6
ByLayer
370
13
48
1
60
0
100
AcDbLine
10
0
20
-1.5875
30
0
11
0
21
-19.213398
31
0
39
0
210
0
220
0
230
1
0
LINE
5
ED
100
AcDbEntity
8
SK2
62
256
6
ByLayer
370
13
48
1
60
0
100
AcDbLine
10
112.6
20
-8.5875
30
0
11
112.6
21
-19.213398
31
0
39
0
210
0
220
0
230
1
0
LINE
5
EE
100
AcDbEntity
8
SK2
62
256
6
ByLayer
370
13
48
1
60
0
100
AcDbLine
10
0
20
-17.213398
30
0
11
112.6
21
-17.213398
31
0
39
0
210
0
220
0
230
1
0
SOLID
5
EF
100
AcDbEntity
8
SK2
62
256
6
ByLayer
370
13
48
1
60
0
100
AcDbTrace
10
0
20
-17.213398
30
0
11
3.499998
21
-16.752615
31
0
12
3.500002
22
-17.674182
32
0
13
0
23
-17.213398
33
0
39
0
210
0
220
0
230
1
0
SOLID
5
F0
100
AcDbEntity
8
SK2
62
256
6
ByLayer
370
13
48
1
60
0
100
AcDbTrace
10
112.6
20
-17.213398
30
0
11
109.100002
21
-17.674182
31
0
12
109.099998
22
-16.752615
32
0
13
112.6
23
-17.213398
33
0
39
0
210
0
220
0
230
1
0
ENDBLK
5
F2
100
AcDbEntity
8
0
100
AcDbBlockEnd
0
BLOCK
5
FB
100
AcDbEntity
8
0
100
AcDbBlockBegin
2
DimnDraft3D2
70
0
10
0
20
0
30
0
3
DimnDraft3D2
0
MTEXT
5
F5
100
AcDbEntity
8
SK2
62
256
6
ByLayer
370
13
48
1
60
0
100
AcDbMText
10
28.622221
20
-34.817985
30
0
210
0
220
0
230
1
1
\W0.6930;160,00
40
3.5
41
0
44
1.084337
50
0
71
7
72
5
7
iso_b_vert
0
LINE
5
F6
100
AcDbEntity
8
SK2
62
256
6
ByLayer
370
13
48
1
60
0
100
AcDbLine
10
-45
20
-8.5875
30
0
11
-45
21
-37.692985
31
0
39
0
210
0
220
0
230
1
0
LINE
5
F7
100
AcDbEntity
8
SK2
62
256
6
ByLayer
370
13
48
1
60
0
100
AcDbLine
10
115
20
-1.5875
30
0
11
115
21
-37.692985
31
0
39
0
210
0
220
0
230
1
0
LINE
5
F8
100
AcDbEntity
8
SK2
62
256
6
ByLayer
370
13
48
1
60
0
100
AcDbLine
10
-45
20
-35.692985
30
0
11
115
21
-35.692985
31
0
39
0
210
0
220
0
230
1
0
SOLID
5
F9
100
AcDbEntity
8
SK2
62
256
6
ByLayer
370
13
48
1
60
0
100
AcDbTrace
10
-45
20
-35.692985
30
0
11
-41.500002
21
-35.232202
31
0
12
-41.499998
22
-36.153769
32
0
13
-45
23
-35.692985
33
0
39
0
210
0
220
0
230
1
0
SOLID
5
FA
100
AcDbEntity
8
SK2
62
256
6
ByLayer
370
13
48
1
60
0
100
AcDbTrace
10
115
20
-35.692985
30
0
11
111.500002
21
-36.153769
31
0
12
111.499998
22
-35.232202
32
0
13
115
23
-35.692985
33
0
39
0
210
0
220
0
230
1
0
ENDBLK
5
FC
100
AcDbEntity
8
0
100
AcDbBlockEnd
0
BLOCK
5
105
100
AcDbEntity
8
0
100
AcDbBlockBegin
2
DimnDraft3D3
70
0
10
0
20
0
30
0
3
DimnDraft3D3
0
MTEXT
5
FF
100
AcDbEntity
8
SK2
62
256
6
ByLayer
370
13
48
1
60
0
100
AcDbMText
10
52.55
20
19.484119
30
0
210
0
220
0
230
1
1
\W0.6838;114,40
40
3.5
41
0
44
1.084337
50
0
71
7
72
5
7
iso_b_vert
0
LINE
5
100
100
AcDbEntity
8
SK2
62
256
6
ByLayer
370
13
48
1
60
0
100
AcDbLine
10
0.6
20
8.5875
30
0
11
0.6
21
20.609119
31
0
39
0
210
0
220
0
230
1
0
LINE
5
101
100
AcDbEntity
8
SK2
62
256
6
ByLayer
370
13
48
1
60
0
100
AcDbLine
10
115
20
1.5875
30
0
11
115
21
20.609119
31
0
39
0
210
0
220
0
230
1
0
LINE
5
102
100
AcDbEntity
8
SK2
62
256
6
ByLayer
370
13
48
1
60
0
100
AcDbLine
10
0.6
20
18.609119
30
0
11
115
21
18.609119
31
0
39
0
210
0
220
0
230
1
0
SOLID
5
103
100
AcDbEntity
8
SK2
62
256
6
ByLayer
370
13
48
1
60
0
100
AcDbTrace
10
0.6
20
18.609119
30
0
11
4.099998
21
19.069903
31
0
12
4.100002
22
18.148335
32
0
13
0.6
23
18.609119
33
0
39
0
210
0
220
0
230
1
0
SOLID
5
104
100
AcDbEntity
8
SK2
62
256
6
ByLayer
370
13
48
1
60
0
100
AcDbTrace
10
115
20
18.609119
30
0
11
111.500002
21
18.148335
31
0
12
111.499998
22
19.069903
32
0
13
115
23
18.609119
33
0
39
0
210
0
220
0
230
1
0
ENDBLK
5
106
100
AcDbEntity
8
0
100
AcDbBlockEnd
0
BLOCK
5
10F
100
AcDbEntity
8
0
100
AcDbBlockBegin
2
DimnDraft3D4
70
0
10
0
20
0
30
0
3
DimnDraft3D4
0
MTEXT
5
109
100
AcDbEntity
8
SK2
62
256
6
ByLayer
370
13
48
1
60
0
100
AcDbMText
10
121.656425
20
-18.927503
30
0
210
0
220
0
230
1
1
\W0.7493;2,40
40
3.5
41
0
44
1.084337
50
0
71
7
72
5
7
iso_b_vert
0
LINE
5
10A
100
AcDbEntity
8
SK2
62
256
6
ByLayer
370
13
48
1
60
0
100
AcDbLine
10
115
20
-1.5875
30
0
11
115
21
-21.802503
31
0
39
0
210
0
220
0
230
1
0
LINE
5
10B
100
AcDbEntity
8
SK2
62
256
6
ByLayer
370
13
48
1
60
0
100
AcDbLine
10
112.6
20
-8.5875
30
0
11
112.6
21
-21.802503
31
0
39
0
210
0
220
0
230
1
0
LINE
5
10C
100
AcDbEntity
8
SK2
62
256
6
ByLayer
370
13
48
1
60
0
100
AcDbLine
10
103.85
20
-19.802503
30
0
11
129.181425
21
-19.802503
31
0
39
0
210
0
220
0
230
1
0
SOLID
5
10D
100
AcDbEntity
8
SK2
62
256
6
ByLayer
370
13
48
1
60
0
100
AcDbTrace
10
115
20
-19.802503
30
0
11
118.499998
21
-19.341719
31
0
12
118.500002
22
-20.263287
32
0
13
115
23
-19.802503
33
0
39
0
210
0
220
0
230
1
0
SOLID
5
10E
100
AcDbEntity
8
SK2
62
256
6
ByLayer
370
13
48
1
60
0
100
AcDbTrace
10
112.6
20
-19.802503
30
0
11
109.100002
21
-20.263287
31
0
12
109.099998
22
-19.341719
32
0
13
112.6
23
-19.802503
33
0
39
0
210
0
220
0
230
1
0
ENDBLK
5
110
100
AcDbEntity
8
0
100
AcDbBlockEnd
0
BLOCK
5
119
100
AcDbEntity
8
0
100
AcDbBlockBegin
2
DimnDraft3D5
70
0
10
0
20
0
30
0
3
DimnDraft3D5
0
MTEXT
5
113
100
AcDbEntity
8
SK2
62
256
6
ByLayer
370
13
48
1
60
0
100
AcDbMText
10
25.541597
20
-24.468428
30
0
210
0
220
0
230
1
1
\W0.6930;157,60
40
3.5
41
0
44
1.084337
50
0
71
7
72
5
7
iso_b_vert
0
LINE
5
114
100
AcDbEntity
8
SK2
62
256
6
ByLayer
370
13
48
1
60
0
100
AcDbLine
10
-45
20
-8.5875
30
0
11
-45
21
-27.343428
31
0
39
0
210
0
220
0
230
1
0
LINE
5
115
100
AcDbEntity
8
SK2
62
256
6
ByLayer
370
13
48
1
60
0
100
AcDbLine
10
112.6
20
-8.5875
30
0
11
112.6
21
-27.343428
31
0
39
0
210
0
220
0
230
1
0
LINE
5
116
100
AcDbEntity
8
SK2
62
256
6
ByLayer
370
13
48
1
60
0
100
AcDbLine
10
-45
20
-25.343428
30
0
11
112.6
21
-25.343428
31
0
39
0
210
0
220
0
230
1
0
SOLID
5
117
100
AcDbEntity
8
SK2
62
256
6
ByLayer
370
13
48
1
60
0
100
AcDbTrace
10
-45
20
-25.343428
30
0
11
-41.500002
21
-24.882645
31
0
12
-41.499998
22
-25.804212
32
0
13
-45
23
-25.343428
33
0
39
0
210
0
220
0
230
1
0
SOLID
5
118
100
AcDbEntity
8
SK2
62
256
6
ByLayer
370
13
48
1
60
0
100
AcDbTrace
10
112.6
20
-25.343428
30
0
11
109.100002
21
-25.804212
31
0
12
109.099998
22
-24.882645
32
0
13
112.6
23
-25.343428
33
0
39
0
210
0
220
0
230
1
0
ENDBLK
5
11A
100
AcDbEntity
8
0
100
AcDbBlockEnd
0
BLOCK
5
124
100
AcDbEntity
8
0
100
AcDbBlockBegin
2
DimnDraft3D6
70
0
10
0
20
0
30
0
3
DimnDraft3D6
0
MTEXT
5
11D
100
AcDbEntity
8
SK2
62
256
6
ByLayer
370
13
48
1
60
0
100
AcDbMText
10
-55.375163
20
26.34918
30
0
210
0
220
0
230
1
1
\W0.7145;14,000
40
3.5
41
0
44
1.084337
50
90
71
7
72
5
7
iso_b_vert
0
MTEXT
5
11E
100
AcDbEntity
8
SK2
62
256
6
ByLayer
370
13
48
1
60
0
100
AcDbMText
10
-55.375163
20
21.126524
30
0
210
0
220
0
230
1
1
%%c
40
3.5
41
0
44
1.084337
50
90
71
7
72
5
7
iso_b_vert
0
LINE
5
11F
100
AcDbEntity
8
SK2
62
256
6
ByLayer
370
13
48
1
60
0
100
AcDbLine
10
-46.5875
20
-7
30
0
11
-55.625163
21
-7
31
0
39
0
210
0
220
0
230
1
0
LINE
5
120
100
AcDbEntity
8
SK2
62
256
6
ByLayer
370
13
48
1
60
0
100
AcDbLine
10
-46.5875
20
7
30
0
11
-55.625163
21
7
31
0
39
0
210
0
220
0
230
1
0
LINE
5
121
100
AcDbEntity
8
SK2
62
256
6
ByLayer
370
13
48
1
60
0
100
AcDbLine
10
-53.625163
20
-7
30
0
11
-53.625163
21
38.230759
31
0
39
0
210
0
220
0
230
1
0
SOLID
5
122
100
AcDbEntity
8
SK2
62
256
6
ByLayer
370
13
48
1
60
0
100
AcDbTrace
10
-53.625163
20
-7
30
0
11
-54.085946
21
-3.500002
31
0
12
-53.164379
22
-3.499998
32
0
13
-53.625163
23
-7
33
0
39
0
210
0
220
0
230
1
0
SOLID
5
123
100
AcDbEntity
8
SK2
62
256
6
ByLayer
370
13
48
1
60
0
100
AcDbTrace
10
-53.625163
20
7
30
0
11
-53.164379
21
3.500002
31
0
12
-54.085946
22
3.499998
32
0
13
-53.625163
23
7
33
0
39
0
210
0
220
0
230
1
0
ENDBLK
5
125
100
AcDbEntity
8
0
100
AcDbBlockEnd
0
BLOCK
5
12F
100
AcDbEntity
8
0
100
AcDbBlockBegin
2
DimnDraft3D7
70
0
10
0
20
0
30
0
3
DimnDraft3D7
0
MTEXT
5
128
100
AcDbEntity
8
2
62
256
6
ByLayer
370
13
48
1
60
0
100
AcDbMText
10
125.333343
20
24.942266
30
0
210
0
220
0
230
1
1
\W0.7145;14,000
40
3.5
41
0
44
1.084337
50
90
71
7
72
5
7
iso_b_vert
0
MTEXT
5
129
100
AcDbEntity
8
2
62
256
6
ByLayer
370
13
48
1
60
0
100
AcDbMText
10
125.333343
20
19.71961
30
0
210
0
220
0
230
1
1
%%c
40
3.5
41
0
44
1.084337
50
90
71
7
72
5
7
iso_b_vert
0
LINE
5
12A
100
AcDbEntity
8
2
62
256
6
ByLayer
370
13
48
1
60
0
100
AcDbLine
10
114.1875
20
-7
30
0
11
129.083343
21
-7
31
0
39
0
210
0
220
0
230
1
0
LINE
5
12B
100
AcDbEntity
8
2
62
256
6
ByLayer
370
13
48
1
60
0
100
AcDbLine
10
114.1875
20
7
30
0
11
129.083343
21
7
31
0
39
0
210
0
220
0
230
1
0
LINE
5
12C
100
AcDbEntity
8
2
62
256
6
ByLayer
370
13
48
1
60
0
100
AcDbLine
10
127.083343
20
-7
30
0
11
127.083343
21
36.823845
31
0
39
0
210
0
220
0
230
1
0
SOLID
5
12D
100
AcDbEntity
8
2
62
256
6
ByLayer
370
13
48
1
60
0
100
AcDbTrace
10
127.083343
20
-7
30
0
11
126.622559
21
-3.500002
31
0
12
127.544126
22
-3.499998
32
0
13
127.083343
23
-7
33
0
39
0
210
0
220
0
230
1
0
SOLID
5
12E
100
AcDbEntity
8
2
62
256
6
ByLayer
370
13
48
1
60
0
100
AcDbTrace
10
127.083343
20
7
30
0
11
127.544126
21
3.500002
31
0
12
126.622559
22
3.499998
32
0
13
127.083343
23
7
33
0
39
0
210
0
220
0
230
1
0
ENDBLK
5
130
100
AcDbEntity
8
0
100
AcDbBlockEnd
0
ENDSEC
0
SECTION
2
ENTITIES
0
ELLIPSE
5
A0
100
AcDbEntity
8
1
62
256
6
ByLayer
370
18
48
1
60
0
100
AcDbEllipse
10
10.25
20
-6.883841
30
0
11
-0.25
21
3.06151588455594E-17
31
0
210
0
220
0
230
1
40
1
41
-1.5653433635182
42
-0.000301831025932741
0
ELLIPSE
5
A1
100
AcDbEntity
8
1
62
256
6
ByLayer
370
18
48
1
60
0
100
AcDbEllipse
10
10.25
20
6.883841
30
0
11
-0.25
21
3.06151588455594E-17
31
0
210
0
220
0
230
1
40
1
41
0.00030183102599669
42
1.57969132235951
0
ELLIPSE
5
A2
100
AcDbEntity
8
1
62
256
6
ByLayer
370
18
48
1
60
0
100
AcDbEllipse
10
115.000593
20
-0.001529
30
0
11
2.5667800312301
21
-6.99823959975896
31
0
210
0
220
0
230
-1
40
0.082138
41
-2.99370290874755
42
-2.9031040067004
0
ELLIPSE
5
A3
100
AcDbEntity
8
1
62
256
6
ByLayer
370
18
48
1
60
0
100
AcDbEllipse
10
113.722138
20
3.26424
30
0
11
1.07782978843535
21
-2.93866674240436
31
0
210
0
220
0
230
-1
40
0.082138
41
-1.59101346727547
42
-0.755280950344807
0
ELLIPSE
5
A4
100
AcDbEntity
8
1
62
256
6
ByLayer
370
13
48
1
60
0
100
AcDbEllipse
10
113.174951
20
0.973214
30
0
11
0.133113781883907
21
0.268850741253513
31
0
210
0
220
0
230
1
40
0.40558
41
0.884485917130962
42
2.28074931872655
0
ELLIPSE
5
A5
100
AcDbEntity
8
1
62
256
6
ByLayer
370
18
48
1
60
0
100
AcDbEllipse
10
115.000593
20
0.001529
30
0
11
2.56678002893604
21
6.99823959297533
31
0
210
0
220
0
230
-1
40
0.082138
41
2.90310400658575
42
2.99370290867826
0
ELLIPSE
5
A6
100
AcDbEntity
8
1
62
256
6
ByLayer
370
13
48
1
60
0
100
AcDbEllipse
10
114.001522
20
3.129948
30
0
11
4.59376123392459
21
-2.36160360990835
31
0
210
0
220
0
230
-1
40
0.482873
41
1.53949524917701
42
1.86648776133793
0
ELLIPSE
5
A7
100
AcDbEntity
8
1
62
256
6
ByLayer
370
13
48
1
60
0
100
AcDbEllipse
10
114.170981
20
3.26424
30
0
11
4.64073975127173
21
-2.04947412097345
31
0
210
0
220
0
230
-1
40
0.454217
41
1.5848497097049
42
1.90936267687445
0
ELLIPSE
5
A8
100
AcDbEntity
8
1
62
256
6
ByLayer
370
18
48
1
60
0
100
AcDbEllipse
10
113.722138
20
-3.26424
30
0
11
1.07782978842507
21
2.93866674238092
31
0
210
0
220
0
230
-1
40
0.082138
41
0.755280950346034
42
1.59101346728246
0
ELLIPSE
5
A9
100
AcDbEntity
8
1
62
256
6
ByLayer
370
18
48
1
60
0
100
AcDbEllipse
10
114.859812
20
0.139004
30
0
11
0.0868803724515639
21
0.290676908870799
31
0
210
0
220
0
230
-1
40
0.467765
41
1.68254481428819
42
2.36053717392918
0
ELLIPSE
5
AA
100
AcDbEntity
8
1
62
256
6
ByLayer
370
18
48
1
60
0
100
AcDbEllipse
10
115.016245
20
0.06155
30
0
11
0.135658546023534
21
-0.40120080620464
31
0
210
0
220
0
230
-1
40
0.065863
41
1.60465672073462
42
2.32292776271865
0
ELLIPSE
5
AB
100
AcDbEntity
8
1
62
256
6
ByLayer
370
18
48
1
60
0
100
AcDbEllipse
10
115.016245
20
-0.06155
30
0
11
0.135658546021852
21
0.401200806199881
31
0
210
0
220
0
230
-1
40
0.065863
41
-2.32292776272521
42
-1.60465672073244
0
POINT
5
6C
100
AcDbEntity
8
81
62
256
6
ByLayer
370
18
48
1
60
0
100
AcDbPoint
10
115
20
0
30
0
39
0
210
0
220
0
230
1
50
360
0
POINT
5
6E
100
AcDbEntity
8
80
62
256
6
ByLayer
370
18
48
1
60
0
100
AcDbPoint
10
0
20
0
30
0
39
0
210
0
220
0
230
1
50
360
0
POINT
5
70
100
AcDbEntity
8
SK2
62
256
6
ByLayer
370
18
48
1
60
1
100
AcDbPoint
10
-45
20
-7
30
0
39
0
210
0
220
0
230
1
50
360
0
POINT
5
72
100
AcDbEntity
8
SK2
62
256
6
ByLayer
370
18
48
1
60
1
100
AcDbPoint
10
-45
20
7
30
0
39
0
210
0
220
0
230
1
50
360
0
POINT
5
73
100
AcDbEntity
8
2
62
256
6
ByLayer
370
18
48
1
60
1
100
AcDbPoint
10
112.6
20
-7
30
0
39
0
210
0
220
0
230
1
50
360
0
POINT
5
75
100
AcDbEntity
8
2
62
256
6
ByLayer
370
18
48
1
60
1
100
AcDbPoint
10
112.6
20
7
30
0
39
0
210
0
220
0
230
1
50
360
0
SPLINE
5
AC
100
AcDbEntity
8
1
62
256
6
ByLayer
370
18
48
1
60
0
100
AcDbSpline
70
4
71
3
72
29
73
25
40
0
40
0
40
0
40
0
40
0.0560086395215265
40
0.114770522116127
40
0.157783495648403
40
0.186145718603087
40
0.210418815370849
40
0.240797947725369
40
0.273933309298704
40
0.31864203775351
40
0.389589554296428
40
0.451572760637488
40
0.504485965447919
40
0.555947239194578
40
0.608127724596814
40
0.659291041757923
40
0.709734386072719
40
0.760604789563653
40
0.81577034232108
40
0.865627279392352
40
0.923474662438026
40
0.974703176064283
40
0.997928125447609
40
1
40
1
40
1
40
1
41
1
10
10.2503977018083
20
-6.63384729005767
30
0
41
1
10
10.4973443673867
20
-6.63429154776475
30
0
41
1
10
11.0033866498214
20
-6.63515001747877
30
0
41
1
10
11.6991675510916
20
-6.6363297010042
30
0
41
1
10
12.2729697271823
20
-6.63698772180604
30
0
41
1
10
12.694741321269
20
-6.63731949004733
30
0
41
1
10
13.0607974184139
20
-6.63751581467685
30
0
41
1
10
13.4479011697578
20
-6.63763225930998
30
0
41
1
10
13.925123019663
20
-6.63762106730118
30
0
41
1
10
14.5810982008423
20
-6.63759340027164
30
0
41
1
10
15.3639375362794
20
-6.637189057082
30
0
41
1
10
16.1836896382687
20
-6.64040493445458
30
0
41
1
10
16.9167315707404
20
-6.64155337937146
30
0
41
1
10
17.6070127056197
20
-6.64094304844502
30
0
41
1
10
18.2896501327135
20
-6.64111844259006
30
0
41
1
10
18.9677787846642
20
-6.64240149328501
30
0
41
1
10
19.6401344966176
20
-6.64343425808124
30
0
41
1
10
20.3301392837471
20
-6.64339082540462
30
0
41
1
10
21.0175385859532
20
-6.64350518606449
30
0
41
1
10
21.7357295420003
20
-6.64364723468896
30
0
41
1
10
22.4365229824376
20
-6.64618052687251
30
0
41
1
10
23.0199602958112
20
-6.64685125281051
30
0
41
1
10
23.3571442008326
20
-6.64641375724923
30
0
41
1
10
23.4686831858093
20
-6.6463060764753
30
0
41
1
10
23.4778186787552
20
-6.64629708865715
30
0
0
SPLINE
5
AD
100
AcDbEntity
8
1
62
256
6
ByLayer
370
18
48
1
60
0
100
AcDbSpline
70
4
71
3
72
38
73
34
40
0
40
0
40
0
40
0
40
0.0497762015438506
40
0.100719879897637
40
0.147232752613478
40
0.183314941488281
40
0.210958553446666
40
0.252194746790829
40
0.301867357126772
40
0.337929690308095
40
0.371087173947395
40
0.400419325868254
40
0.425873399099018
40
0.454538359000812
40
0.491427266218874
40
0.526761016487109
40
0.555415538875822
40
0.583463831165047
40
0.615327819456215
40
0.65096432187419
40
0.683841392733128
40
0.709071940213375
40
0.726918702543653
40
0.74729983646955
40
0.77540527378348
40
0.810665498657982
40
0.843655324228163
40
0.871049193960202
40
0.886251649957462
40
0.905320729728211
40
0.934696431512254
40
0.97438590639888
40
1
40
1
40
1
40
1
41
1
10
40.5892470880942
20
-6.65160775375457
30
0
41
1
10
40.8881543305121
20
-6.65148361984467
30
0
41
1
10
41.4941347809727
20
-6.65151747985348
30
0
41
1
10
42.3916951835425
20
-6.65190020653219
30
0
41
1
10
43.1943395801953
20
-6.65387196024372
30
0
41
1
10
43.8620661318529
20
-6.65446685961041
30
0
41
1
10
44.4991766921079
20
-6.6565043152834
30
0
41
1
10
45.2184779757529
20
-6.65628157685063
30
0
41
1
10
45.9889503909497
20
-6.65529481884073
30
0
41
1
10
46.7103895540259
20
-6.65514005502067
30
0
41
1
10
47.3083661958797
20
-6.65793694642025
30
0
41
1
10
47.8420047939996
20
-6.659812505552
30
0
41
1
10
48.3483861940042
20
-6.65958054252599
30
0
41
1
10
48.9006168704471
20
-6.65880959356824
30
0
41
1
10
49.5128039431883
20
-6.65777893083117
30
0
41
1
10
50.1249202328556
20
-6.6579393182073
30
0
41
1
10
50.6833894018835
20
-6.66175969215738
30
0
41
1
10
51.2208149397734
20
-6.66197314213588
30
0
41
1
10
51.8006049290473
20
-6.6615695372048
30
0
41
1
10
52.4096946206291
20
-6.6610778650373
30
0
41
1
10
52.9785349511
20
-6.66138624846687
30
0
41
1
10
53.4394212257177
20
-6.6629726386108
30
0
41
1
10
53.8244921721273
20
-6.66463598937008
30
0
41
1
10
54.2269668269831
20
-6.66489434509921
30
0
41
1
10
54.7349765544342
20
-6.66420682053948
30
0
41
1
10
55.3192554653925
20
-6.66299922643904
30
0
41
1
10
55.8995619079907
20
-6.66265641974084
30
0
41
1
10
56.3585695558321
20
-6.66371788473697
30
0
41
1
10
56.7307877491163
20
-6.66581840734844
30
0
41
1
10
57.1157884752659
20
-6.66674342035964
30
0
41
1
10
57.6506106374777
20
-6.6665866094595
30
0
41
1
10
58.2250957225752
20
-6.66537904542596
30
0
41
1
10
58.6213199251837
20
-6.66539443771714
30
0
41
1
10
58.7767276260765
20
-6.66544223570895
30
0
0
SPLINE
5
AE
100
AcDbEntity
8
1
62
256
6
ByLayer
370
18
48
1
60
0
100
AcDbSpline
70
4
71
2
72
6
73
3
40
0
40
0
40
0
40
1
40
1
40
1
41
1
10
111.410001120883
20
-6.69452845112062
30
0
41
1
10
111.986206417045
20
-6.68973922800521
30
0
41
1
10
112.562291114246
20
-6.69866689110003
30
0
0
SPLINE
5
AF
100
AcDbEntity
8
1
62
256
6
ByLayer
370
18
48
1
60
0
100
AcDbSpline
70
4
71
3
72
30
73
26
40
0
40
0
40
0
40
0
40
0.0071522383401553
40
0.033789616977953
40
0.0664504810376229
40
0.104052513402554
40
0.158377423364318
40
0.204395895238044
40
0.243032430979543
40
0.342503355425364
40
0.444042911830743
40
0.48145409347616
40
0.518952599598037
40
0.558910157915344
40
0.604333507736564
40
0.655372742173368
40
0.704594739567003
40
0.742697454035549
40
0.765935717606689
40
0.789317767197216
40
0.813635087743221
40
0.841983289705487
40
0.885005582084855
40
0.943844566010548
40
1
40
1
40
1
40
1
41
1
10
23.4776233176301
20
6.64629901230344
30
0
41
1
10
23.4460912072864
20
6.64633214908721
30
0
41
1
10
23.297124825723
20
6.64647769276982
30
0
41
1
10
23.0042675288813
20
6.64678074368709
30
0
41
1
10
22.5770034835135
20
6.64657443114248
30
0
41
1
10
22.0276581656711
20
6.64419719663252
30
0
41
1
10
21.4193790716584
20
6.64363856483732
30
0
41
1
10
20.8065577093726
20
6.64341956430869
30
0
41
1
10
19.9946723438344
20
6.6434901254307
30
0
41
1
10
18.9379457511611
20
6.64238396907373
30
0
41
1
10
17.8866175313272
20
6.64093579670487
30
0
41
1
10
17.1085874918305
20
6.64111994859382
30
0
41
1
10
16.602392894969
20
6.64175639466345
30
0
41
1
10
16.0607080862222
20
6.63937726138312
30
0
41
1
10
15.4590810722962
20
6.63770955915658
30
0
41
1
10
14.8169223633331
20
6.63753051839834
30
0
41
1
10
14.2070760275252
20
6.63758525853854
30
0
41
1
10
13.7195775124356
20
6.63764255047147
30
0
41
1
10
13.3459892946009
20
6.63760209420158
30
0
41
1
10
13.0331907568685
20
6.63750107159044
30
0
41
1
10
12.697860629998
20
6.63732144117472
30
0
41
1
10
12.2759210288755
20
6.63699064313678
30
0
41
1
10
11.7018083543009
20
6.6363336645536
30
0
41
1
10
11.0050097922598
20
6.63515292513108
30
0
41
1
10
10.4979878831822
20
6.63429284669192
30
0
41
1
10
10.2503976561177
20
6.6338472863826
30
0
0
SPLINE
5
B0
100
AcDbEntity
8
1
62
256
6
ByLayer
370
18
48
1
60
0
100
AcDbSpline
70
4
71
3
72
30
73
26
40
0
40
0
40
0
40
0
40
0.0631887508596926
40
0.117441998798522
40
0.156540044149578
40
0.184000964909453
40
0.223166002361822
40
0.276913908217824
40
0.332956495332652
40
0.379577610958922
40
0.422461643593418
40
0.46544034257651
40
0.512872916720436
40
0.552869780247831
40
0.598593676805784
40
0.641202676945162
40
0.674468887416747
40
0.699460996918866
40
0.725556598181333
40
0.761902755019838
40
0.802598392661262
40
0.838702915640043
40
0.870152977656889
40
0.939395107459817
40
1
40
1
40
1
40
1
41
1
10
94.4698868942187
20
6.68348093881951
30
0
41
1
10
94.1457218809124
20
6.68391068660188
30
0
41
1
10
93.544512284143
20
6.68480315622432
30
0
41
1
10
92.7495970341379
20
6.68841159958907
30
0
41
1
10
92.1337077613721
20
6.68843522678347
30
0
41
1
10
91.5925468988932
20
6.68730888589667
30
0
41
1
10
90.9768660063572
20
6.68517199761692
30
0
41
1
10
90.214824571293
20
6.67973653666976
30
0
41
1
10
89.4146710628319
20
6.68200106880755
30
0
41
1
10
88.6700724954217
20
6.6831778207391
30
0
41
1
10
87.9925103531183
20
6.68406452399409
30
0
41
1
10
87.3101776900641
20
6.68013186498655
30
0
41
1
10
86.6446898695351
20
6.68054375625334
30
0
41
1
10
85.9630957708674
20
6.6815089691267
30
0
41
1
10
85.3069367485015
20
6.68237662315096
30
0
41
1
10
84.6851557294377
20
6.6811521839027
30
0
41
1
10
84.1692163920364
20
6.678768088021
30
0
41
1
10
83.73763631926
20
6.67836710190309
30
0
41
1
10
83.2904943075883
20
6.67840496202933
30
0
41
1
10
82.7633930999123
20
6.67867446728323
30
0
41
1
10
82.1849119838997
20
6.67878804515397
30
0
41
1
10
81.6310009556136
20
6.67780938536339
30
0
41
1
10
80.9314548570273
20
6.6761088161945
30
0
41
1
10
80.107087293261
20
6.6762401419613
30
0
41
1
10
79.442628368985
20
6.67644215054898
30
0
41
1
10
79.1325819471103
20
6.67627087547504
30
0
0
SPLINE
5
B1
100
AcDbEntity
8
1
62
256
6
ByLayer
370
18
48
1
60
0
100
AcDbSpline
70
4
71
3
72
38
73
34
40
0
40
0
40
0
40
0
40
0.0519865066877605
40
0.097811962880077
40
0.131498243131763
40
0.154888666878014
40
0.176532937257031
40
0.197486325856676
40
0.218141663793797
40
0.256292188932518
40
0.296915858945034
40
0.347587833486783
40
0.389484423964949
40
0.418797234336305
40
0.439605181528115
40
0.467255227812505
40
0.502704511674108
40
0.54080165529997
40
0.574122906802551
40
0.605891069940999
40
0.634942646644693
40
0.662916103501054
40
0.691506897639084
40
0.722696686284025
40
0.758957176376912
40
0.799327962467933
40
0.832826617877805
40
0.854366546612311
40
0.872186839430932
40
0.897360163403437
40
0.930459684294637
40
0.970346173779068
40
1
40
1
40
1
40
1
41
1
10
76.0074835429081
20
-6.67316062539456
30
0
41
1
10
76.3274469612061
20
-6.67343240753715
30
0
41
1
10
76.929465194028
20
-6.67397062738527
30
0
41
1
10
77.7388271838541
20
-6.67423452252353
30
0
41
1
10
78.3722250482464
20
-6.67520067786583
30
0
41
1
10
78.8566718903334
20
-6.6761375658738
30
0
41
1
10
79.2628233900223
20
-6.67635701306364
30
0
41
1
10
79.6521481285779
20
-6.67636229237684
30
0
41
1
10
80.1430900033938
20
-6.67626025799493
30
0
41
1
10
80.7549560027587
20
-6.67609404295146
30
0
41
1
10
81.5506732824855
20
-6.67755402641757
30
0
41
1
10
82.3710405271534
20
-6.67902219005563
30
0
41
1
10
83.1203056357825
20
-6.67845026050392
30
0
41
1
10
83.6864331678096
20
-6.67832747553186
30
0
41
1
10
84.1651691449421
20
-6.67875642471344
30
0
41
1
10
84.6815489204585
20
-6.68113381222454
30
0
41
1
10
85.3041332119814
20
-6.68238327822732
30
0
41
1
10
85.9615463955785
20
-6.68150014165079
30
0
41
1
10
86.5970988328311
20
-6.68064561020188
30
0
41
1
10
87.1751412928496
20
-6.68008537879103
30
0
41
1
10
87.7217432916793
20
-6.68272470115522
30
0
41
1
10
88.2486310967211
20
-6.68372320114119
30
0
41
1
10
88.7887284913628
20
-6.68303551280138
30
0
41
1
10
89.3798418617374
20
-6.68196814534363
30
0
41
1
10
90.0434881196334
20
-6.68040561255418
30
0
41
1
10
90.7213431446336
20
-6.6827335885861
30
0
41
1
10
91.3085725679287
20
-6.68653850400261
30
0
41
1
10
91.7569981629856
20
-6.68766112488575
30
0
41
1
10
92.1542817364901
20
-6.68839713010897
30
0
41
1
10
92.6212933943598
20
-6.68837647614589
30
0
41
1
10
93.2203068350905
20
-6.6865978219061
30
0
41
1
10
93.8524743818519
20
-6.68396855260886
30
0
41
1
10
94.279753074042
20
-6.68364555968046
30
0
41
1
10
94.4620860927403
20
-6.68364343407976
30
0
0
SPLINE
5
B2
100
AcDbEntity
8
1
62
256
6
ByLayer
370
18
48
1
60
0
100
AcDbSpline
70
4
71
3
72
34
73
30
40
0
40
0
40
0
40
0
40
0.0420030077529021
40
0.0856928596430465
40
0.116032024434307
40
0.146008803779671
40
0.198746967195159
40
0.249442066805973
40
0.290880093380088
40
0.330631116157712
40
0.380714589461325
40
0.418539037526738
40
0.452178805299086
40
0.486128370341592
40
0.529532043327684
40
0.582245076309889
40
0.621241512804606
40
0.647929604876935
40
0.66797917767943
40
0.693288549063181
40
0.724229829477716
40
0.771591066566522
40
0.815596732671073
40
0.854115186726401
40
0.878771992234951
40
0.908279594679577
40
0.943197618349692
40
0.978680080585325
40
1
40
1
40
1
40
1
41
1
10
58.8840502230016
20
6.66553387207733
30
0
41
1
10
58.6722405095049
20
6.66551812226277
30
0
41
1
10
58.2401050769465
20
6.66560062771083
30
0
41
1
10
57.6548390914579
20
6.66660526267961
30
0
41
1
10
57.1303769436838
20
6.66687580644324
30
0
41
1
10
56.5602998849861
20
6.66510331549804
30
0
41
1
10
55.8874605603836
20
6.66232254935119
30
0
41
1
10
55.1567680270056
20
6.66342088711511
30
0
41
1
10
54.491585423605
20
6.66463140699571
30
0
41
1
10
53.8294806959208
20
6.66512006809833
30
0
41
1
10
53.1856088802271
20
6.66165467978857
30
0
41
1
10
52.5725589880647
20
6.66110264716258
30
0
41
1
10
52.0408815295971
20
6.66137140608663
30
0
41
1
10
51.4810640646709
20
6.66172396764372
30
0
41
1
10
50.8250444805551
20
6.66259892024795
30
0
41
1
10
50.1435799158431
20
6.65788727657011
30
0
41
1
10
49.5464118766118
20
6.65785303947004
30
0
41
1
10
49.1139933167154
20
6.65841508227473
30
0
41
1
10
48.7506070954435
20
6.6590406717014
30
0
41
1
10
48.365776721499
20
6.65952809867542
30
0
41
1
10
47.8431911509068
20
6.65993515162452
30
0
41
1
10
47.2263042673163
20
6.65724858930565
30
0
41
1
10
46.571198812182
20
6.65507627571245
30
0
41
1
10
46.0306176929058
20
6.65536432876769
30
0
41
1
10
45.563153664231
20
6.65582170939015
30
0
41
1
10
45.11384917381
20
6.65628319824447
30
0
41
1
10
44.6099522449919
20
6.6564647361902
30
0
41
1
10
44.1473725221689
20
6.6553742886733
30
0
41
1
10
43.8608661384715
20
6.65468103907551
30
0
41
1
10
43.7533617919883
20
6.65446636103502
30
0
0
SPLINE
5
B3
100
AcDbEntity
8
1
62
256
6
ByLayer
370
18
48
1
60
0
100
AcDbSpline
70
4
71
3
72
8
73
4
40
0
40
0
40
0
40
0
40
1
40
1
40
1
40
1
41
1
10
112.645928761077
20
-6.65490619450685
30
0
41
1
10
112.613652953851
20
-6.68154590172409
30
0
41
1
10
112.586057116215
20
-6.69498395751168
30
0
41
1
10
112.563222532502
20
-6.6949910681852
30
0
0
SPLINE
5
B4
100
AcDbEntity
8
1
62
256
6
ByLayer
370
18
48
1
60
0
100
AcDbSpline
70
4
71
3
72
18
73
14
40
0
40
0
40
0
40
0
40
0.0492697220175114
40
0.0492697220175114
40
0.267277325739333
40
0.267277325739333
40
0.703292533182969
40
0.703292533182969
40
0.812296335043877
40
0.812296335043877
40
0.921300136904786
40
0.921300136904786
40
1
40
1
40
1
40
1
41
1
10
111.405510801963
20
-6.69452424488537
30
0
41
1
10
111.285085417844
20
-6.69442350772226
30
0
41
1
10
111.164734630771
20
-6.69317311497412
30
0
41
1
10
110.512194597963
20
-6.68018035855369
30
0
41
1
10
109.981164800518
20
-6.64716701026455
30
0
41
1
10
108.388241024719
20
-6.48224605859176
30
0
41
1
10
107.32663796482
20
-6.28446186302955
30
0
41
1
10
105.986077392693
20
-5.93192561523583
30
0
41
1
10
105.717230848045
20
-5.8561124673603
30
0
41
1
10
105.181940514778
20
-5.69536954733613
30
0
41
1
10
104.914979052289
20
-5.61031302197517
30
0
41
1
10
104.45614337456
20
-5.4561811339442
30
0
41
1
10
104.264020566181
20
-5.38924172264797
30
0
41
1
10
104.072096568597
20
-5.32006560624274
30
0
0
SPLINE
5
B5
100
AcDbEntity
8
1
62
256
6
ByLayer
370
13
48
1
60
0
100
AcDbSpline
70
4
71
3
72
24
73
20
40
0
40
0
40
0
40
0
40
0.0687765771086908
40
0.0687765771086908
40
0.284038565272951
40
0.284038565272951
40
0.337854062314017
40
0.337854062314017
40
0.391669559355083
40
0.391669559355083
40
0.499300553437215
40
0.499300553437215
40
0.714562541601478
40
0.714562541601478
40
0.82219353568361
40
0.82219353568361
40
0.929824529765742
40
0.929824529765742
40
1
40
1
40
1
40
1
41
1
10
104.072095627891
20
-5.3200652671793
30
0
41
1
10
103.732368560325
20
-5.19761574533595
30
0
41
1
10
103.393264425988
20
-5.06815795959983
30
0
41
1
10
101.994058013541
20
-4.50637362168962
30
0
41
1
10
100.936419341851
20
-4.01627974231874
30
0
41
1
10
99.6041399752421
20
-3.34045063080848
30
0
41
1
10
99.3371826824622
20
-3.20211523074738
30
0
41
1
10
98.8018928161787
20
-2.91955181368707
30
0
41
1
10
98.5330171097859
20
-2.7750264883484
30
0
41
1
10
97.7284070650125
20
-2.33589131458174
30
0
41
1
10
97.1949378908886
20
-2.0359960561083
30
0
41
1
10
95.5997909944732
20
-1.12107290416912
30
0
41
1
10
94.5427515139472
20
-0.491814858920179
30
0
41
1
10
92.9500478095543
20
0.452370872988098
30
0
41
1
10
92.4180189337915
20
0.767254039164811
30
0
41
1
10
91.3489342149321
20
1.39263141806558
30
0
41
1
10
90.8100911192237
20
1.7039078441727
30
0
41
1
10
89.9269455265454
20
2.20354304895338
30
0
41
1
10
89.5794333163884
20
2.3971872285484
30
0
41
1
10
89.2325930787516
20
2.58674642501842
30
0
0
SPLINE
5
B6
100
AcDbEntity
8
1
62
256
6
ByLayer
370
18
48
1
60
0
100
AcDbSpline
70
4
71
3
72
20
73
16
40
0
40
0
40
0
40
0
40
0.211867730382106
40
0.211867730382106
40
0.423102588737028
40
0.423102588737028
40
0.52872001791449
40
0.52872001791449
40
0.634337447091953
40
0.634337447091953
40
0.845572305446875
40
0.845572305446875
40
0.951189734624334
40
0.951189734624334
40
1
40
1
40
1
40
1
41
1
10
40.6601305110269
20
-6.65163425774048
30
0
41
1
10
40.1278814156885
20
-6.65264610524812
30
0
41
1
10
39.5956468286353
20
-6.63139878278832
30
0
41
1
10
38.5300872704001
20
-6.54437174694448
30
0
41
1
10
37.9967541317081
20
-6.47890761501921
30
0
41
1
10
37.1926944987141
20
-6.34746732204627
30
0
41
1
10
36.9235907486327
20
-6.29801849664256
30
0
41
1
10
36.3859130431084
20
-6.18852185939264
30
0
41
1
10
36.117427046491
20
-6.12850844506784
30
0
41
1
10
35.3124744396536
20
-5.93311572261808
30
0
41
1
10
34.7764578861355
20
-5.78252737199767
30
0
41
1
10
33.9713780729587
20
-5.52759453586506
30
0
41
1
10
33.7028419924931
20
-5.43777753836881
30
0
41
1
10
33.3096831821209
20
-5.2995957110893
30
0
41
1
10
33.1853791672858
20
-5.25492715150278
30
0
41
1
10
33.0611585616553
20
-5.20934127312577
30
0
0
SPLINE
5
B7
100
AcDbEntity
8
1
62
256
6
ByLayer
370
13
48
1
60
0
100
AcDbSpline
70
4
71
3
72
24
73
20
40
0
40
0
40
0
40
0
40
0.0299513245034868
40
0.0299513245034868
40
0.252696603250964
40
0.252696603250964
40
0.475441881998443
40
0.475441881998443
40
0.531128201685313
40
0.531128201685313
40
0.586814521372183
40
0.586814521372183
40
0.698187160745925
40
0.698187160745925
40
0.920932439493411
40
0.920932439493411
40
0.976618759180284
40
0.976618759180284
40
1
40
1
40
1
40
1
41
1
10
33.0611585631013
20
-5.20934127365643
30
0
41
1
10
32.9165860994839
20
-5.15628676866015
30
0
41
1
10
32.7721266149002
20
-5.10198974142986
30
0
41
1
10
31.5558968602973
20
-4.63441628109959
30
0
41
1
10
30.4943434203654
20
-4.15830437104324
30
0
41
1
10
28.3708724147011
20
-3.10889625870632
30
0
41
1
10
27.3088207806799
20
-2.53591522204346
30
0
41
1
10
25.9671081210092
20
-1.77882825979569
30
0
41
1
10
25.6975744696942
20
-1.6251662983336
30
0
41
1
10
25.160667875743
20
-1.31648691191731
30
0
41
1
10
24.8929687076442
20
-1.16126390578722
30
0
41
1
10
24.091477420126
20
-0.694091577470857
30
0
41
1
10
23.5593136984381
20
-0.380595027101549
30
0
41
1
10
21.9651035794656
20
0.558773259468211
30
0
41
1
10
20.9057163284881
20
1.18422661796333
30
0
41
1
10
19.571705146901
20
1.94078398110386
30
0
41
1
10
19.3044345778853
20
2.09086936469953
30
0
41
1
10
18.9240436985917
20
2.30182686574113
30
0
41
1
10
18.8113811856259
20
2.3639728881098
30
0
41
1
10
18.6986119571754
20
2.42581049446631
30
0
0
SPLINE
5
B8
100
AcDbEntity
8
1
62
256
6
ByLayer
370
18
48
1
60
0
100
AcDbSpline
70
4
71
3
72
60
73
56
40
0
40
0
40
0
40
0
40
0.0435388368323087
40
0.0435388368323087
40
0.0870776736646174
40
0.0870776736646174
40
0.130616510496926
40
0.130616510496926
40
0.15238592891308
40
0.15238592891308
40
0.174155347329235
40
0.174155347329235
40
0.217694184161544
40
0.217694184161544
40
0.239463602577699
40
0.239463602577699
40
0.261233020993854
40
0.261233020993854
40
0.304771857826164
40
0.304771857826164
40
0.348310694658475
40
0.348310694658475
40
0.391849531490785
40
0.391849531490785
40
0.41361894990694
40
0.41361894990694
40
0.435388368323095
40
0.435388368323095
40
0.522466041987713
40
0.522466041987713
40
0.566004878820022
40
0.566004878820022
40
0.60954371565233
40
0.60954371565233
40
0.631313134068484
40
0.631313134068484
40
0.653082552484638
40
0.653082552484638
40
0.696621389316945
40
0.696621389316945
40
0.740160226149252
40
0.740160226149252
40
0.783699062981559
40
0.783699062981559
40
0.805468481397713
40
0.805468481397713
40
0.827237899813866
40
0.827237899813866
40
0.870776736646172
40
0.870776736646172
40
0.914315573478477
40
0.914315573478477
40
0.957854410310782
40
0.957854410310782
40
1
40
1
40
1
40
1
41
1
10
112.546532436253
20
-6.95138538263316
30
0
41
1
10
112.01366508185
20
-6.99013970803722
30
0
41
1
10
111.480227015883
20
-7.00529741707416
30
0
41
1
10
110.412408005711
20
-6.98851742754439
30
0
41
1
10
109.879856903896
20
-6.95663893098009
30
0
41
1
10
108.81491690147
20
-6.84679482346817
30
0
41
1
10
108.282524335708
20
-6.76881751075697
30
0
41
1
10
107.481885772801
20
-6.617762173578
30
0
41
1
10
107.214734601099
20
-6.56173574951259
30
0
41
1
10
106.681591182478
20
-6.43896545228569
30
0
41
1
10
106.415337093399
20
-6.37216477696504
30
0
41
1
10
105.616812080058
20
-6.15603966457715
30
0
41
1
10
105.084834171488
20
-5.99095775282973
30
0
41
1
10
104.285082535025
20
-5.71363696204276
30
0
41
1
10
104.017942615049
20
-5.61613928223716
30
0
41
1
10
103.484105484355
20
-5.41205820809657
30
0
41
1
10
103.217548188789
20
-5.30552777362226
30
0
41
1
10
102.418466346275
20
-4.97305334902131
30
0
41
1
10
101.886462242461
20
-4.73429939614959
30
0
41
1
10
100.820836659099
20
-4.22614726947415
30
0
41
1
10
100.286161340177
20
-3.95616570531814
30
0
41
1
10
99.2198181600533
20
-3.39290792360933
30
0
41
1
10
98.68771898477
20
-3.09948656523858
30
0
41
1
10
97.888850912844
20
-2.64506290076389
30
0
41
1
10
97.6224395152639
20
-2.49121016908126
30
0
41
1
10
97.0890409762546
20
-2.1792267412938
30
0
41
1
10
96.8218021663441
20
-2.02089270970308
30
0
41
1
10
95.4876720425893
20
-1.22237077340589
30
0
41
1
10
94.4257257443259
20
-0.56222763834387
30
0
41
1
10
92.8229457651856
20
0.431225992999032
30
0
41
1
10
92.2898118448023
20
0.761285886679048
30
0
41
1
10
91.2246073773843
20
1.41348030570981
30
0
41
1
10
90.6922544221891
20
1.73579360866825
30
0
41
1
10
89.8920052521671
20
2.21023348427875
30
0
41
1
10
89.6246827232689
20
2.36693603768319
30
0
41
1
10
89.0909709346511
20
2.67541092611606
30
0
41
1
10
88.824425139068
20
2.8273035824551
30
0
41
1
10
88.0252311837563
20
3.27526691146449
30
0
41
1
10
87.4930843559853
20
3.56370170831951
30
0
41
1
10
86.4267971191892
20
4.11546229708921
30
0
41
1
10
85.8918415528553
20
4.3791424317281
30
0
41
1
10
84.8254709032468
20
4.87368622403525
30
0
41
1
10
84.2932724709974
20
5.10508483572141
30
0
41
1
10
83.4940142522254
20
5.42564070680495
30
0
41
1
10
83.2274404136868
20
5.5280764893555
30
0
41
1
10
82.6936180772325
20
5.72370471265307
30
0
41
1
10
82.4262129155417
20
5.81693756554796
30
0
41
1
10
81.6256757087679
20
6.08114309459657
30
0
41
1
10
81.0932905445512
20
6.23704184915212
30
0
41
1
10
80.0278812180676
20
6.50611225316601
30
0
41
1
10
79.4946081807646
20
6.6193867494647
30
0
41
1
10
78.4257618678934
20
6.80092930110231
30
0
41
1
10
77.8929551025377
20
6.86883126316306
30
0
41
1
10
76.8447688278371
20
6.95684745222479
30
0
41
1
10
76.3291874281288
20
6.9783756225379
30
0
41
1
10
75.8122605486346
20
6.97790047509747
30
0
0
SPLINE
5
B9
100
AcDbEntity
8
1
62
256
6
ByLayer
370
18
48
1
60
0
100
AcDbSpline
70
4
71
3
72
56
73
52
40
0
40
0
40
0
40
0
40
0.0222731241618075
40
0.0222731241618075
40
0.046120121133472
40
0.046120121133472
40
0.0938141150768004
40
0.0938141150768004
40
0.141508109020129
40
0.141508109020129
40
0.189202102963457
40
0.189202102963457
40
0.21304909993512
40
0.21304909993512
40
0.236896096906784
40
0.236896096906784
40
0.284590090850111
40
0.284590090850111
40
0.308437087821774
40
0.308437087821774
40
0.332284084793438
40
0.332284084793438
40
0.427672072680091
40
0.427672072680091
40
0.451519069651753
40
0.451519069651753
40
0.475366066623416
40
0.475366066623416
40
0.52306006056674
40
0.52306006056674
40
0.546907057538403
40
0.546907057538403
40
0.570754054510065
40
0.570754054510065
40
0.61844804845339
40
0.61844804845339
40
0.666142042396716
40
0.666142042396716
40
0.713836036340041
40
0.713836036340041
40
0.737683033311705
40
0.737683033311705
40
0.761530030283368
40
0.761530030283368
40
0.809224024226695
40
0.809224024226695
40
0.856918018170021
40
0.856918018170021
40
0.904612012113348
40
0.904612012113348
40
1
40
1
40
1
40
1
41
1
10
43.6956790308507
20
-6.66631023913283
30
0
41
1
10
43.44608030869
20
-6.71037001156495
30
0
41
1
10
43.1961443859648
20
-6.74956985955021
30
0
41
1
10
42.6796313307637
20
-6.82024288718185
30
0
41
1
10
42.4128620743938
20
-6.85102647448929
30
0
41
1
10
41.612917807188
20
-6.92601766077473
30
0
41
1
10
41.0801021478824
20
-6.95286261542185
30
0
41
1
10
40.0123690688671
20
-6.95972066453189
30
0
41
1
10
39.4768981019464
20
-6.93960482079362
30
0
41
1
10
38.4096415330785
20
-6.85299685637997
30
0
41
1
10
37.8768269385675
20
-6.78655988689343
30
0
41
1
10
37.076554051564
20
-6.65297577846812
30
0
41
1
10
36.8096217287528
20
-6.60279293697147
30
0
41
1
10
36.2750471711393
20
-6.49123030105795
30
0
41
1
10
36.0074443336239
20
-6.42984295936409
30
0
41
1
10
35.2063180019652
20
-6.22997410259723
30
0
41
1
10
34.6733405660613
20
-6.07559626917447
30
0
41
1
10
33.8733096228894
20
-5.8141878160996
30
0
41
1
10
33.6065427573693
20
-5.72207401518205
30
0
41
1
10
33.0724705257102
20
-5.52817793892129
30
0
41
1
10
32.8049154067769
20
-5.42628942281709
30
0
41
1
10
31.4680717676768
20
-4.89473391920569
30
0
41
1
10
30.404347419849
20
-4.40024416884214
30
0
41
1
10
29.0673789717035
20
-3.71317064425514
30
0
41
1
10
28.7998132093101
20
-3.57247460932459
30
0
41
1
10
28.2657200978604
20
-3.28581153456321
30
0
41
1
10
27.9989538647409
20
-3.13971884298968
30
0
41
1
10
27.1988531300904
20
-2.69411548819139
30
0
41
1
10
26.6657528676572
20
-2.38722950473476
30
0
41
1
10
25.8643502360914
20
-1.91545783818935
30
0
41
1
10
25.5966332525214
20
-1.75615024642443
30
0
41
1
10
25.0619549558197
20
-1.43519402441646
30
0
41
1
10
24.7949779052875
20
-1.2735661969092
30
0
41
1
10
23.9944865379884
20
-0.786281715437951
30
0
41
1
10
23.4614401643441
20
-0.45817965365535
30
0
41
1
10
22.3936869965522
20
0.199828803311362
30
0
41
1
10
21.858059568294
20
0.530443489067153
30
0
41
1
10
20.7899444979046
20
1.18379291644385
30
0
41
1
10
20.2568150101133
20
1.50684534630844
30
0
41
1
10
19.456383903757
20
1.98261553621822
30
0
41
1
10
19.1894663781122
20
2.13976169363346
30
0
41
1
10
18.6550295607658
20
2.45054740794333
30
0
41
1
10
18.3872480823562
20
2.60430904377586
30
0
41
1
10
17.5852649339146
20
3.05769024016482
30
0
41
1
10
17.0518369269824
20
3.34972283377826
30
0
41
1
10
15.9848073259063
20
3.90970580122752
30
0
41
1
10
15.4513638904264
20
4.17785469907227
30
0
41
1
10
14.3808990528835
20
4.68525090235477
30
0
41
1
10
13.8476892699504
20
4.9227544410534
30
0
41
1
10
12.2504742960023
20
5.58237035462182
30
0
41
1
10
11.1882179058653
20
5.95154368775883
30
0
41
1
10
10.1187101968842
20
6.23963457141375
30
0
0
SPLINE
5
BA
100
AcDbEntity
8
1
62
256
6
ByLayer
370
18
48
1
60
0
100
AcDbSpline
70
4
71
3
72
108
73
104
40
0
40
0
40
0
40
0
40
0.0188161295780856
40
0.0188161295780856
40
0.0346009429713027
40
0.0346009429713027
40
0.0503857563645197
40
0.0503857563645197
40
0.0819553831509524
40
0.0819553831509524
40
0.0977401965441687
40
0.0977401965441687
40
0.113525009937385
40
0.113525009937385
40
0.145094636723818
40
0.145094636723818
40
0.160879450117035
40
0.160879450117035
40
0.176664263510252
40
0.176664263510252
40
0.208233890296686
40
0.208233890296686
40
0.224018703689902
40
0.224018703689902
40
0.239803517083118
40
0.239803517083118
40
0.255588330476335
40
0.255588330476335
40
0.271373143869551
40
0.271373143869551
40
0.302942770655982
40
0.302942770655982
40
0.334512397442414
40
0.334512397442414
40
0.366082024228845
40
0.366082024228845
40
0.38186683762206
40
0.38186683762206
40
0.397651651015276
40
0.397651651015276
40
0.413436464408492
40
0.413436464408492
40
0.429221277801707
40
0.429221277801707
40
0.460790904588138
40
0.460790904588138
40
0.49236053137457
40
0.49236053137457
40
0.508145344767785
40
0.508145344767785
40
0.523930158161001
40
0.523930158161001
40
0.539714971554216
40
0.539714971554216
40
0.555499784947432
40
0.555499784947432
40
0.571284598340647
40
0.571284598340647
40
0.587069411733863
40
0.587069411733863
40
0.618639038520294
40
0.618639038520294
40
0.63442385191351
40
0.63442385191351
40
0.650208665306726
40
0.650208665306726
40
0.665993478699941
40
0.665993478699941
40
0.681778292093157
40
0.681778292093157
40
0.697563105486372
40
0.697563105486372
40
0.713347918879588
40
0.713347918879588
40
0.744917545666019
40
0.744917545666019
40
0.760702359059235
40
0.760702359059235
40
0.77648717245245
40
0.77648717245245
40
0.792271985845666
40
0.792271985845666
40
0.808056799238881
40
0.808056799238881
40
0.839626426025313
40
0.839626426025313
40
0.855411239418528
40
0.855411239418528
40
0.871196052811744
40
0.871196052811744
40
0.902765679598176
40
0.902765679598176
40
0.918550492991392
40
0.918550492991392
40
0.934335306384609
40
0.934335306384609
40
0.965904933171041
40
0.965904933171041
40
0.981689746564258
40
0.981689746564258
40
0.997474559957474
40
0.997474559957474
40
1
40
1
40
1
40
1
41
1
10
101.998445729024
20
-5.17315315675654
30
0
41
1
10
101.727577008359
20
-5.27489388556765
30
0
41
1
10
101.456688521658
20
-5.37239117877221
30
0
41
1
10
100.959813003222
20
-5.54312859564919
30
0
41
1
10
100.73363266797
20
-5.61792791970277
30
0
41
1
10
100.28097323336
20
-5.76004001048719
30
0
41
1
10
100.05456002668
20
-5.82744962446475
30
0
41
1
10
99.3749344521765
20
-6.01878294268542
30
0
41
1
10
98.9213952298912
20
-6.13182767443126
30
0
41
1
10
98.2400737329601
20
-6.27891261507654
30
0
41
1
10
98.0129310929403
20
-6.32426216084079
30
0
41
1
10
97.5596756860315
20
-6.4065417568342
30
0
41
1
10
97.3331158100938
20
-6.44333780621082
30
0
41
1
10
96.6533206751315
20
-6.54084944108101
30
0
41
1
10
96.2000061667557
20
-6.59040068458398
30
0
41
1
10
95.5198541449116
20
-6.64287687561966
30
0
41
1
10
95.2930976975618
20
-6.65662274950387
30
0
41
1
10
94.8396744787694
20
-6.67639118316791
30
0
41
1
10
94.6127166443612
20
-6.68238266911263
30
0
41
1
10
93.9317814459109
20
-6.68838613844167
30
0
41
1
10
93.4782949713809
20
-6.67650040881654
30
0
41
1
10
92.7985508715901
20
-6.63362955657186
30
0
41
1
10
92.5720271592557
20
-6.61517024309868
30
0
41
1
10
92.1191226859792
20
-6.56959685773211
30
0
41
1
10
91.8928981773433
20
-6.54239121398649
30
0
41
1
10
91.4396306019736
20
-6.47958291027979
30
0
41
1
10
91.2125048484368
20
-6.44408039759671
30
0
41
1
10
90.7578970539085
20
-6.36430279612878
30
0
41
1
10
90.5307424856684
20
-6.32043154723507
30
0
41
1
10
89.8496486365902
20
-6.18081629237162
30
0
41
1
10
89.3962366443579
20
-6.07481840083531
30
0
41
1
10
88.490699344806
20
-5.83112843251439
30
0
41
1
10
88.0370689098647
20
-5.69446405931808
30
0
41
1
10
87.1268799159093
20
-5.39043966081707
30
0
41
1
10
86.6730984091477
20
-5.2282396959975
30
0
41
1
10
85.9961084168258
20
-4.96580342608229
30
0
41
1
10
85.7709889660717
20
-4.8751734457353
30
0
41
1
10
85.3207656880639
20
-4.68856810063491
30
0
41
1
10
85.0957787565524
20
-4.59243287970017
30
0
41
1
10
84.6459586974078
20
-4.39440600046288
30
0
41
1
10
84.4211249496217
20
-4.29238860889541
30
0
41
1
10
83.9715342696002
20
-4.08440833346412
30
0
41
1
10
83.7467809727162
20
-3.97835948810737
30
0
41
1
10
83.0728004191858
20
-3.65290871852193
30
0
41
1
10
82.624041588131
20
-3.42592084108409
30
0
41
1
10
81.7223377075033
20
-2.95653392708482
30
0
41
1
10
81.269706772963
20
-2.7128955506918
30
0
41
1
10
80.5887127789893
20
-2.33806690696076
30
0
41
1
10
80.361117431697
20
-2.21121870938046
30
0
41
1
10
79.9070620518508
20
-1.95454355918375
30
0
41
1
10
79.6801776677203
20
-1.82527994751038
30
0
41
1
10
79.2264519598194
20
-1.56521747879853
30
0
41
1
10
78.9996278389385
20
-1.43438791004399
30
0
41
1
10
78.5459866107137
20
-1.17109960264881
30
0
41
1
10
78.3191491151691
20
-1.03861248032325
30
0
41
1
10
77.8654256970471
20
-0.772625391070164
30
0
41
1
10
77.6385395738562
20
-0.639056797925889
30
0
41
1
10
77.1848591007478
20
-0.370429459096499
30
0
41
1
10
76.9581131559228
20
-0.23529187991906
30
0
41
1
10
76.2762524315899
20
0.169475695746741
30
0
41
1
10
75.8217346296228
20
0.438316644595233
30
0
41
1
10
75.1410546136883
20
0.838007765801649
30
0
41
1
10
74.9142313562709
20
0.970762326241243
30
0
41
1
10
74.4608280237077
20
1.2355753670727
30
0
41
1
10
74.2344074461292
20
1.36784661773714
30
0
41
1
10
73.7811426528529
20
1.63047971257561
30
0
41
1
10
73.5542542590476
20
1.76077531905528
30
0
41
1
10
73.0998067085255
20
2.01894638459385
30
0
41
1
10
72.8720875281739
20
2.1469328196527
30
0
41
1
10
72.4174350452546
20
2.39933922472616
30
0
41
1
10
72.1903534185621
20
2.52365769825093
30
0
41
1
10
71.7365319358031
20
2.76956358442447
30
0
41
1
10
71.5098197619462
20
2.89120883316434
30
0
41
1
10
70.8305538024682
20
3.2518982039264
30
0
41
1
10
70.3772464661699
20
3.48452369265564
30
0
41
1
10
69.6957509691035
20
3.81952856135007
30
0
41
1
10
69.4682085804398
20
3.92896245237205
30
0
41
1
10
69.0131589015731
20
4.14221186000145
30
0
41
1
10
68.7859280933384
20
4.24608375124464
30
0
41
1
10
68.3321225330609
20
4.44995039233584
30
0
41
1
10
68.1056416778796
20
4.54966111912185
30
0
41
1
10
67.6522716173201
20
4.74286522399922
30
0
41
1
10
67.4255010338844
20
4.83654787461538
30
0
41
1
10
66.7448515981741
20
5.10834340894635
30
0
41
1
10
66.2906438018813
20
5.27683110250197
30
0
41
1
10
65.6081783534217
20
5.50924125867706
30
0
41
1
10
65.3809169647521
20
5.58421374324502
30
0
41
1
10
64.9269081126296
20
5.72709783535646
30
0
41
1
10
64.6999466745253
20
5.79502235059715
30
0
41
1
10
64.0190281745637
20
5.98798167069791
30
0
41
1
10
63.5651456849125
20
6.10226959638436
30
0
41
1
10
62.8838883345998
20
6.24901553993911
30
0
41
1
10
62.6567000337672
20
6.29360101939278
30
0
41
1
10
62.2024998077853
20
6.37709068369557
30
0
41
1
10
61.9749735253713
20
6.41538003621793
30
0
41
1
10
61.2929679103374
20
6.5182321435685
30
0
41
1
10
60.8387622708708
20
6.57146605012548
30
0
41
1
10
60.1578928399586
20
6.62536795040205
30
0
41
1
10
59.9309817098593
20
6.63894848712977
30
0
41
1
10
59.4773007762809
20
6.65729129148238
30
0
41
1
10
59.2506435148076
20
6.6627762924403
30
0
41
1
10
58.9872215876323
20
6.66496568478493
30
0
41
1
10
58.9508783024638
20
6.6651699322768
30
0
41
1
10
58.914525801814
20
6.66527578562329
30
0
0
SPLINE
5
BB
100
AcDbEntity
8
1
62
256
6
ByLayer
370
18
48
1
60
0
100
AcDbSpline
70
4
71
3
72
34
73
30
40
0
40
0
40
0
40
0
40
0.0614280947776276
40
0.0614280947776276
40
0.165713862024553
40
0.165713862024553
40
0.217856745648017
40
0.217856745648017
40
0.26999962927148
40
0.26999962927148
40
0.37428539651841
40
0.37428539651841
40
0.426428280141876
40
0.426428280141876
40
0.478571163765341
40
0.478571163765341
40
0.530714047388807
40
0.530714047388807
40
0.582856931012273
40
0.582856931012273
40
0.634999814635739
40
0.634999814635739
40
0.687142698259204
40
0.687142698259204
40
0.791428465506137
40
0.791428465506137
40
0.895714232753068
40
0.895714232753068
40
1
40
1
40
1
40
1
41
1
10
31.198120987467
20
-5.14182357543709
30
0
41
1
10
30.9304302121535
20
-5.241471306363
30
0
41
1
10
30.6626993816483
20
-5.33708392928872
30
0
41
1
10
29.9403340592639
20
-5.58386732473107
30
0
41
1
10
29.4853072700926
20
-5.72779110009589
30
0
41
1
10
28.8031151416176
20
-5.91752775667979
30
0
41
1
10
28.575809892282
20
-5.97640229638415
30
0
41
1
10
28.1213102503571
20
-6.08767876351584
30
0
41
1
10
27.8941198693971
20
-6.13995733842995
30
0
41
1
10
27.2127074659026
20
-6.28634010651692
30
0
41
1
10
26.7593389834676
20
-6.3703187333133
30
0
41
1
10
26.0769285600552
20
-6.47145369154822
30
0
41
1
10
25.8489275750657
20
-6.50083520492666
30
0
41
1
10
25.3937149495674
20
-6.55026831522383
30
0
41
1
10
25.1662956460326
20
-6.57107689224261
30
0
41
1
10
24.7117741304429
20
-6.60560130611236
30
0
41
1
10
24.4846693304388
20
-6.61913827236828
30
0
41
1
10
24.0309036249929
20
-6.63842672562748
30
0
41
1
10
23.8043669894702
20
-6.64416854187539
30
0
41
1
10
23.3506767297046
20
-6.6474906200628
30
0
41
1
10
23.1236225609058
20
-6.64516189507231
30
0
41
1
10
22.6689547241952
20
-6.63165517043632
30
0
41
1
10
22.4413233458597
20
-6.62013150927055
30
0
41
1
10
21.7575708398371
20
-6.57368818327097
30
0
41
1
10
21.3025178836003
20
-6.52813699796187
30
0
41
1
10
20.3950553810358
20
-6.40500613027859
30
0
41
1
10
19.9413414124278
20
-6.32791596206931
30
0
41
1
10
19.0326186429624
20
-6.14251497465332
30
0
41
1
10
18.5775374790303
20
-6.03427327985366
30
0
41
1
10
18.1218800573589
20
-5.91152285639822
30
0
0
SPLINE
5
BC
100
AcDbEntity
8
1
62
256
6
ByLayer
370
18
48
1
60
0
100
AcDbSpline
70
4
71
3
72
20
73
16
40
0
40
0
40
0
40
0
40
0.0147005651412773
40
0.0147005651412773
40
0.193976233359855
40
0.193976233359855
40
0.373251901578432
40
0.373251901578432
40
0.731803238015587
40
0.731803238015587
40
0.821441072124876
40
0.821441072124876
40
0.911078906234165
40
0.911078906234165
40
1
40
1
40
1
40
1
41
1
10
58.0868138337346
20
0.0189353551901092
30
0
41
1
10
58.1306272884461
20
-0.0073656829916331
30
0
41
1
10
58.1744557173016
20
-0.0336780188945909
30
0
41
1
10
58.7529857201788
20
-0.381006885471237
30
0
41
1
10
59.291429253543
20
-0.70412325957966
30
0
41
1
10
60.3664587777761
20
-1.34150870168409
30
0
41
1
10
60.9035751453505
20
-1.65673533946492
30
0
41
1
10
62.5170860747798
20
-2.58423321203989
30
0
41
1
10
63.5867034556225
20
-3.17139293459766
30
0
41
1
10
64.9294083268611
20
-3.84627001793495
30
0
41
1
10
65.1984903836881
20
-3.97837316479823
30
0
41
1
10
65.7357618224718
20
-4.23500870200931
30
0
41
1
10
66.0041381099365
20
-4.35960639528668
30
0
41
1
10
66.5384200309027
20
-4.60012013189109
30
0
41
1
10
66.8043238181915
20
-4.71611486586167
30
0
41
1
10
67.0702442627335
20
-4.82812162684877
30
0
0
SPLINE
5
BD
100
AcDbEntity
8
1
62
256
6
ByLayer
370
13
48
1
60
0
100
AcDbSpline
70
4
71
3
72
22
73
18
40
0
40
0
40
0
40
0
40
0.0762825460487285
40
0.0762825460487285
40
0.227637238948517
40
0.227637238948517
40
0.378991931848306
40
0.378991931848306
40
0.681701317647883
40
0.681701317647883
40
0.833056010547671
40
0.833056010547671
40
0.908733356997563
40
0.908733356997563
40
0.984410703447456
40
0.984410703447456
40
1
40
1
40
1
40
1
41
1
10
67.0702433411293
20
-4.82812123866535
30
0
41
1
10
67.3404509476771
20
-4.94193377891486
30
0
41
1
10
67.6106757526866
20
-5.05162872190363
30
0
41
1
10
68.4176820495653
20
-5.36603259197
30
0
41
1
10
68.9564943101606
20
-5.55818029660855
30
0
41
1
10
70.0265068371401
20
-5.90075932740478
30
0
41
1
10
70.5588183102815
20
-6.05191866744221
30
0
41
1
10
72.1521537375672
20
-6.44298929829276
30
0
41
1
10
73.2103635044605
20
-6.61999121156336
30
0
41
1
10
74.8063093974874
20
-6.75195397439111
30
0
41
1
10
75.3400962387395
20
-6.77378884268538
30
0
41
1
10
76.1453697802165
20
-6.77176416439747
30
0
41
1
10
76.4144922122801
20
-6.76527600125488
30
0
41
1
10
76.9501670528531
20
-6.74089197112079
30
0
41
1
10
77.2172665607314
20
-6.72299412201423
30
0
41
1
10
77.5387573274857
20
-6.69469283099357
30
0
41
1
10
77.5936505332613
20
-6.68962232125958
30
0
41
1
10
77.6485243701065
20
-6.68431634815209
30
0
0
SPLINE
5
BE
100
AcDbEntity
8
1
62
256
6
ByLayer
370
18
48
1
60
0
100
AcDbSpline
70
4
71
3
72
16
73
12
40
0
40
0
40
0
40
0
40
0.0295166163434682
40
0.0295166163434682
40
0.244937575678808
40
0.244937575678808
40
0.675779494349488
40
0.675779494349488
40
0.891200453684826
40
0.891200453684826
40
1
40
1
40
1
40
1
41
1
10
76.1185718352617
20
-6.67295296082966
30
0
41
1
10
76.0449666926094
20
-6.67332110583803
30
0
41
1
10
75.9713789562707
20
-6.6732610664221
30
0
41
1
10
75.3612220479499
20
-6.66919593042405
30
0
41
1
10
74.8275454602612
20
-6.64281286681612
30
0
41
1
10
73.2317569296969
20
-6.49849779552707
30
0
41
1
10
72.1734370898087
20
-6.31469481198562
30
0
41
1
10
70.5799087947387
20
-5.91614525250685
30
0
41
1
10
70.0475414942675
20
-5.76291735404087
30
0
41
1
10
69.2422686057233
20
-5.50269192392781
30
0
41
1
10
68.9711079136107
20
-5.41018030239243
30
0
41
1
10
68.699776365648
20
-5.31299125052169
30
0
0
SPLINE
5
BF
100
AcDbEntity
8
1
62
256
6
ByLayer
370
13
48
1
60
0
100
AcDbSpline
70
4
71
3
72
26
73
22
40
0
40
0
40
0
40
0
40
0.0542824533746148
40
0.0542824533746148
40
0.163956278265114
40
0.163956278265114
40
0.218793190710363
40
0.218793190710363
40
0.273630103155613
40
0.273630103155613
40
0.492977752936612
40
0.492977752936612
40
0.602651577827113
40
0.602651577827113
40
0.657488490272363
40
0.657488490272363
40
0.712325402717613
40
0.712325402717613
40
0.931673052498613
40
0.931673052498613
40
1
40
1
40
1
40
1
41
1
10
68.69977636564
20
-5.31299125051885
30
0
41
1
10
68.4338767914209
20
-5.21774789343317
30
0
41
1
10
68.1678131338373
20
-5.1180125127739
30
0
41
1
10
67.3658580270268
20
-4.80464980448824
30
0
41
1
10
66.8301937638718
20
-4.57842593042065
30
0
41
1
10
66.025652692657
20
-4.21677040373561
30
0
41
1
10
65.7573019434292
20
-4.09248391595017
30
0
41
1
10
65.2200928614718
20
-3.83671744235932
30
0
41
1
10
64.9510867463252
20
-3.70519686749717
30
0
41
1
10
63.6087673609993
20
-3.03382719870058
30
0
41
1
10
62.5392326739733
20
-2.4512791546253
30
0
41
1
10
60.9259321855928
20
-1.53337733712741
30
0
41
1
10
60.3890320925994
20
-1.22185582322504
30
0
41
1
10
59.5829008359639
20
-0.749904717191868
30
0
41
1
10
59.3138219618194
20
-0.591570667459933
30
0
41
1
10
58.7765318321111
20
-0.274417764054675
30
0
41
1
10
58.5086849713374
20
-0.115882373189777
30
0
41
1
10
57.1723286503164
20
0.674673550596737
30
0
41
1
10
56.1122434461811
20
1.29992365161473
30
0
41
1
10
54.7204271238488
20
2.08851004560009
30
0
41
1
10
54.3896714986419
20
2.27336776086045
30
0
41
1
10
54.0584257200746
20
2.45526212796378
30
0
0
SPLINE
5
C0
100
AcDbEntity
8
1
62
256
6
ByLayer
370
18
48
1
60
0
100
AcDbSpline
70
4
71
3
72
26
73
22
40
0
40
0
40
0
40
0
40
0.249999999999998
40
0.249999999999998
40
0.37500000000001
40
0.37500000000001
40
0.500000000000022
40
0.500000000000022
40
0.625000000000035
40
0.625000000000035
40
0.687500000000029
40
0.687500000000029
40
0.750000000000023
40
0.750000000000023
40
0.812500000000017
40
0.812500000000017
40
0.875000000000012
40
0.875000000000012
40
0.937500000000006
40
0.937500000000006
40
1
40
1
40
1
40
1
41
1
10
111.751568045194
20
1.95670148977894
30
0
41
1
10
111.990477294121
20
1.99944039466715
30
0
41
1
10
112.227670280537
20
2.04896431068019
30
0
41
1
10
112.578937655166
20
2.14146763753706
30
0
41
1
10
112.695194780097
20
2.17538543774532
30
0
41
1
10
112.924011349499
20
2.25152348241414
30
0
41
1
10
113.036738007822
20
2.29373945914452
30
0
41
1
10
113.257173430291
20
2.39079491021519
30
0
41
1
10
113.365615098878
20
2.44588993917324
30
0
41
1
10
113.518499554371
20
2.54265976016731
30
0
41
1
10
113.567850426562
20
2.5773018609334
30
0
41
1
10
113.662175094762
20
2.65312782822954
30
0
41
1
10
113.706934345238
20
2.69421543491507
30
0
41
1
10
113.78786135213
20
2.78256127428602
30
0
41
1
10
113.824350011353
20
2.83002458861355
30
0
41
1
10
113.886705559471
20
2.93382206521159
30
0
41
1
10
113.912279922151
20
2.99037743769219
30
0
41
1
10
113.947066917679
20
3.10686357185054
30
0
41
1
10
113.956732602267
20
3.1684950260296
30
0
41
1
10
113.960020799376
20
3.29067802077677
30
0
41
1
10
113.953946443377
20
3.35189634104819
30
0
41
1
10
113.941676789087
20
3.41216088883974
30
0
0
SPLINE
5
C1
100
AcDbEntity
8
1
62
256
6
ByLayer
370
18
48
1
60
0
100
AcDbSpline
70
4
71
3
72
104
73
100
40
0
40
0
40
0
40
0
40
0.0087774335323419
40
0.0087774335323419
40
0.0245076291488504
40
0.0245076291488504
40
0.0402378247653588
40
0.0402378247653588
40
0.0716982159983758
40
0.0716982159983758
40
0.103158607231393
40
0.103158607231393
40
0.118888802847901
40
0.118888802847901
40
0.13461899846441
40
0.13461899846441
40
0.166079389697427
40
0.166079389697427
40
0.181809585313936
40
0.181809585313936
40
0.197539780930444
40
0.197539780930444
40
0.229000172163462
40
0.229000172163462
40
0.260460563396479
40
0.260460563396479
40
0.291920954629497
40
0.291920954629497
40
0.323381345862515
40
0.323381345862515
40
0.339111541479023
40
0.339111541479023
40
0.354841737095532
40
0.354841737095532
40
0.38630212832855
40
0.38630212832855
40
0.402032323945059
40
0.402032323945059
40
0.417762519561568
40
0.417762519561568
40
0.433492715178076
40
0.433492715178076
40
0.449222910794585
40
0.449222910794585
40
0.464953106411094
40
0.464953106411094
40
0.480683302027603
40
0.480683302027603
40
0.51214369326062
40
0.51214369326062
40
0.527873888877128
40
0.527873888877128
40
0.543604084493637
40
0.543604084493637
40
0.575064475726653
40
0.575064475726653
40
0.590794671343161
40
0.590794671343161
40
0.606524866959669
40
0.606524866959669
40
0.637985258192685
40
0.637985258192685
40
0.653715453809194
40
0.653715453809194
40
0.669445649425702
40
0.669445649425702
40
0.70090604065872
40
0.70090604065872
40
0.732366431891738
40
0.732366431891738
40
0.748096627508246
40
0.748096627508246
40
0.763826823124755
40
0.763826823124755
40
0.795287214357772
40
0.795287214357772
40
0.811017409974281
40
0.811017409974281
40
0.826747605590789
40
0.826747605590789
40
0.842477801207298
40
0.842477801207298
40
0.858207996823806
40
0.858207996823806
40
0.873938192440314
40
0.873938192440314
40
0.889668388056823
40
0.889668388056823
40
0.905398583673331
40
0.905398583673331
40
0.921128779289839
40
0.921128779289839
40
0.952589170522857
40
0.952589170522857
40
0.984049561755875
40
0.984049561755875
40
0.999779757372384
40
0.999779757372384
40
1
40
1
40
1
40
1
41
1
10
31.1442405315518
20
5.13812774858533
30
0
41
1
10
31.2718763370161
20
5.19124131333692
30
0
41
1
10
31.3997525525672
20
5.24332011788107
30
0
41
1
10
31.7573881432785
20
5.38594306462076
30
0
41
1
10
31.9879227384971
20
5.47437560195806
30
0
41
1
10
32.4481830226136
20
5.64420843037931
30
0
41
1
10
32.6779954940292
20
5.7256504080587
30
0
41
1
10
33.3662496165785
20
5.95970882730333
30
0
41
1
10
33.8227064684936
20
6.10253829924642
30
0
41
1
10
34.74027864859
20
6.35426168290209
30
0
41
1
10
35.2006502615572
20
6.46433697836983
30
0
41
1
10
35.8908297202112
20
6.60591275114476
30
0
41
1
10
36.1204093926723
20
6.64907783010668
30
0
41
1
10
36.5784730420542
20
6.72730256211182
30
0
41
1
10
36.8070702129812
20
6.76227681515374
30
0
41
1
10
37.4945543841257
20
6.8537849838614
30
0
41
1
10
37.9538757372967
20
6.89757429951248
30
0
41
1
10
38.6430951191257
20
6.93793490069882
30
0
41
1
10
38.8728850248537
20
6.94714335594861
30
0
41
1
10
39.3324320880976
20
6.95689428202615
30
0
41
1
10
39.5613759512516
20
6.95739541378035
30
0
41
1
10
40.2490122359197
20
6.94580046064294
30
0
41
1
10
40.7082335074806
20
6.92086352996222
30
0
41
1
10
41.6263039790045
20
6.83712051707073
30
0
41
1
10
42.0848873262054
20
6.77815683880721
30
0
41
1
10
43.0020987842174
20
6.62503748938045
30
0
41
1
10
43.4621283383277
20
6.53250419152727
30
0
41
1
10
44.3804702468973
20
6.31622585443606
30
0
41
1
10
44.8392096695624
20
6.19238977483926
30
0
41
1
10
45.5258108891488
20
5.98178422782033
30
0
41
1
10
45.7547201096616
20
5.90763359321375
30
0
41
1
10
46.2141709136726
20
5.7528342201357
30
0
41
1
10
46.4444903774271
20
5.67194758604887
30
0
41
1
10
47.1342997207543
20
5.41952216144142
30
0
41
1
10
47.59343980235
20
5.23800542715142
30
0
41
1
10
48.2801321666646
20
4.94464547207696
30
0
41
1
10
48.5084763758256
20
4.84305496804751
30
0
41
1
10
48.9665637909242
20
4.63516206042794
30
0
41
1
10
49.1961153404767
20
4.52866474728052
30
0
41
1
10
49.6559188751008
20
4.31025880869592
30
0
41
1
10
49.886355762172
20
4.1982679911211
30
0
41
1
10
50.3463115179565
20
3.96934787332876
30
0
41
1
10
50.575951010779
20
3.85236778717723
30
0
41
1
10
51.0344036297653
20
3.61313327233376
30
0
41
1
10
51.2630246114276
20
3.49060328458742
30
0
41
1
10
51.7203042644256
20
3.24141177621243
30
0
41
1
10
51.9494088066318
20
3.11539797845486
30
0
41
1
10
52.6375850703747
20
2.73246792243412
30
0
41
1
10
53.0980386543762
20
2.47035135885423
30
0
41
1
10
53.7875425007638
20
2.06671764246562
30
0
41
1
10
54.0168750869458
20
1.93060177674667
30
0
41
1
10
54.4744457586249
20
1.65506076008569
30
0
41
1
10
54.7031569946522
20
1.51637748783804
30
0
41
1
10
55.3906090676669
20
1.10008070424226
30
0
41
1
10
55.8497997906432
20
0.82086682017021
30
0
41
1
10
56.5387512213958
20
0.397647527091465
30
0
41
1
10
56.7685466114707
20
0.255781635250827
30
0
41
1
10
57.2276015729411
20
-0.029346449429454
30
0
41
1
10
57.4563408567072
20
-0.172606000460831
30
0
41
1
10
58.1438978950123
20
-0.598438740595441
30
0
41
1
10
58.6029442380879
20
-0.878909612831222
30
0
41
1
10
59.2911700129977
20
-1.2967416184604
30
0
41
1
10
59.5205346825051
20
-1.43551523993159
30
0
41
1
10
59.979033098533
20
-1.712263586755
30
0
41
1
10
60.2079202285146
20
-1.85062553313796
30
0
41
1
10
60.8961206796253
20
-2.2614941609574
30
0
41
1
10
61.3557346642759
20
-2.52710585220831
30
0
41
1
10
62.2735654897065
20
-3.04496404865804
30
0
41
1
10
62.7319263238837
20
-3.2972876556162
30
0
41
1
10
63.4181127050589
20
-3.66624986362115
30
0
41
1
10
63.6472289674563
20
-3.78677771477277
30
0
41
1
10
64.1068008429139
20
-4.02219439746494
30
0
41
1
10
64.3369685716696
20
-4.1372127635326
30
0
41
1
10
65.0263317079327
20
-4.47375569648713
30
0
41
1
10
65.4851177173933
20
-4.68721385479688
30
0
41
1
10
66.1712222663257
20
-4.991793769575
30
0
41
1
10
66.3995390042767
20
-5.09072254651511
30
0
41
1
10
66.8577259215655
20
-5.28081090947089
30
0
41
1
10
67.0872964330246
20
-5.37232657125997
30
0
41
1
10
67.5471111838973
20
-5.54865218631221
30
0
41
1
10
67.7774371767328
20
-5.63347546229528
30
0
41
1
10
68.2369995273327
20
-5.79597177536917
30
0
41
1
10
68.4664304052232
20
-5.87372100341747
30
0
41
1
10
68.9244469005731
20
-6.02227406222406
30
0
41
1
10
69.1527603448388
20
-6.0932759733478
30
0
41
1
10
69.6101061303122
20
-6.22698725672544
30
0
41
1
10
69.8392191781111
20
-6.28967116937295
30
0
41
1
10
70.2979753952901
20
-6.40708782327599
30
0
41
1
10
70.5276272200204
20
-6.46181246007833
30
0
41
1
10
70.987284715284
20
-6.56340610754467
30
0
41
1
10
71.2174797761715
20
-6.61030466740874
30
0
41
1
10
71.9062534052482
20
-6.73874181009603
30
0
41
1
10
72.362591126558
20
-6.80826792077258
30
0
41
1
10
73.2790668937249
20
-6.91173278123577
30
0
41
1
10
73.7381205129273
20
-6.94634623278552
30
0
41
1
10
74.4268222648783
20
-6.97271778884018
30
0
41
1
10
74.6566110963145
20
-6.97722670746421
30
0
41
1
10
74.8890613683317
20
-6.97734714140063
30
0
41
1
10
74.8922709156298
20
-6.97734793833809
30
0
41
1
10
74.8954803546126
20
-6.97734786961499
30
0
0
SPLINE
5
C2
100
AcDbEntity
8
1
62
256
6
ByLayer
370
18
48
1
60
0
100
AcDbSpline
70
4
71
3
72
32
73
28
40
0
40
0
40
0
40
0
40
0.0338816083548426
40
0.0338816083548426
40
0.0982895011311876
40
0.0982895011311876
40
0.227105286683872
40
0.227105286683872
40
0.291513179460215
40
0.291513179460215
40
0.355921072236558
40
0.355921072236558
40
0.420328965012901
40
0.420328965012901
40
0.484736857789243
40
0.484736857789243
40
0.549144750565587
40
0.549144750565587
40
0.613552643341929
40
0.613552643341929
40
0.742368428894613
40
0.742368428894613
40
0.806776321670959
40
0.806776321670959
40
0.871184214447304
40
0.871184214447304
40
1
40
1
40
1
40
1
41
1
10
101.973871273398
20
5.17515232358031
30
0
41
1
10
102.094063958009
20
5.22570686431317
30
0
41
1
10
102.214342990152
20
5.27531052505049
30
0
41
1
10
102.563816552919
20
5.41614593906169
30
0
41
1
10
102.793250174858
20
5.5049049991614
30
0
41
1
10
103.482475130202
20
5.76101692260355
30
0
41
1
10
103.942219451333
20
5.91787053261956
30
0
41
1
10
104.628196528408
20
6.13175545365678
30
0
41
1
10
104.85620089434
20
6.1996514958245
30
0
41
1
10
105.313402266783
20
6.32675372249614
30
0
41
1
10
105.542390774605
20
6.38615151430764
30
0
41
1
10
106.00083300015
20
6.4969648756674
30
0
41
1
10
106.230295048142
20
6.54837332097455
30
0
41
1
10
106.689520127701
20
6.64326856975507
30
0
41
1
10
106.919451391995
20
6.68677760133508
30
0
41
1
10
107.377877034129
20
6.76552340287299
30
0
41
1
10
107.606327125599
20
6.80086339060225
30
0
41
1
10
108.06301199987
20
6.8628779254168
30
0
41
1
10
108.291674193895
20
6.88943064450743
30
0
41
1
10
108.978081175109
20
6.95621550953808
30
0
41
1
10
109.436238163386
20
6.98364461893851
30
0
41
1
10
110.123256679312
20
6.99913134593143
30
0
41
1
10
110.352225799478
20
6.99999594214506
30
0
41
1
10
110.81001197299
20
6.99288838293464
30
0
41
1
10
111.039144734237
20
6.98490996896371
30
0
41
1
10
111.726538922779
20
6.94822280878338
30
0
41
1
10
112.18478624874
20
6.90679512315296
30
0
41
1
10
112.642256038545
20
6.84843854473328
30
0
0
SPLINE
5
C3
100
AcDbEntity
8
1
62
256
6
ByLayer
370
18
48
1
60
0
100
AcDbSpline
70
4
71
3
72
64
73
60
40
0
40
0
40
0
40
0
40
0.124999999999988
40
0.124999999999988
40
0.249999999999976
40
0.249999999999976
40
0.374999999999965
40
0.374999999999965
40
0.499999999999954
40
0.499999999999954
40
0.531249999999951
40
0.531249999999951
40
0.562499999999948
40
0.562499999999948
40
0.624999999999944
40
0.624999999999944
40
0.687499999999939
40
0.687499999999939
40
0.695312499999939
40
0.695312499999939
40
0.697265624999939
40
0.697265624999939
40
0.699218749999939
40
0.699218749999939
40
0.703124999999939
40
0.703124999999939
40
0.705078124999939
40
0.705078124999939
40
0.707031249999939
40
0.707031249999939
40
0.71093749999994
40
0.71093749999994
40
0.718749999999942
40
0.718749999999942
40
0.749999999999949
40
0.749999999999949
40
0.781249999999955
40
0.781249999999955
40
0.796874999999958
40
0.796874999999958
40
0.812499999999962
40
0.812499999999962
40
0.828124999999965
40
0.828124999999965
40
0.843749999999968
40
0.843749999999968
40
0.874999999999974
40
0.874999999999974
40
0.890624999999977
40
0.890624999999977
40
0.90624999999998
40
0.90624999999998
40
0.937499999999987
40
0.937499999999987
40
0.95312499999999
40
0.95312499999999
40
0.968749999999994
40
0.968749999999994
40
1
40
1
40
1
40
1
41
1
10
24.6941203489001
20
-1.78123243117489
30
0
41
1
10
23.8708852091836
20
-1.28863025706426
30
0
41
1
10
23.0389484398043
20
-0.800782635838914
30
0
41
1
10
21.3439479760916
20
0.13819851290549
30
0
41
1
10
20.4898947595826
20
0.583548421112766
30
0
41
1
10
18.7568148001139
20
1.39443797314019
30
0
41
1
10
17.8772338167768
20
1.75995145999355
30
0
41
1
10
16.079964206789
20
2.38915288697774
30
0
41
1
10
15.1622935078401
20
2.65295664858877
30
0
41
1
10
13.9864579556269
20
2.91205532713306
30
0
41
1
10
13.7495946807691
20
2.96040772634939
30
0
41
1
10
13.2744224978861
20
3.04967464722731
30
0
41
1
10
13.0361668736487
20
3.09059061661577
30
0
41
1
10
12.3193322527167
20
3.20219468711312
30
0
41
1
10
11.8381736155449
20
3.26180015559817
30
0
41
1
10
10.8730369541388
20
3.35079330952596
30
0
41
1
10
10.3891109681113
20
3.38024125411542
30
0
41
1
10
9.8430882259191
20
3.39599822157302
30
0
41
1
10
9.78240833019706
20
3.39750641877743
30
0
41
1
10
9.70655235778321
20
3.39908663398632
30
0
41
1
10
9.69138074035871
20
3.39938742778423
30
0
41
1
10
9.6610366581674
20
3.3999584724655
30
0
41
1
10
9.64582663348625
20
3.40028906067059
30
0
41
1
10
9.6003846433949
20
3.39832617463063
30
0
41
1
10
9.57057724728185
20
3.39419148051004
30
0
41
1
10
9.52735617362146
20
3.38122141473735
30
0
41
1
10
9.51364391077982
20
3.37586210270649
30
0
41
1
10
9.48817009714818
20
3.36222466031589
30
0
41
1
10
9.47601032567329
20
3.3545387767642
30
0
41
1
10
9.43890530212241
20
3.3323908563822
30
0
41
1
10
9.41428760359108
20
3.31742035112259
30
0
41
1
10
9.34090510941252
20
3.27192744204558
30
0
41
1
10
9.29257675861467
20
3.24080449711158
30
0
41
1
10
9.05413865227277
20
3.08086302404445
30
0
41
1
10
8.8727931283704
20
2.93845370103813
30
0
41
1
10
8.54826946723946
20
2.62253762047342
30
0
41
1
10
8.40375551849633
20
2.44872754680836
30
0
41
1
10
8.22645833405809
20
2.15169817037705
30
0
41
1
10
8.17509937278612
20
2.04800624622988
30
0
41
1
10
8.09137004892969
20
1.83391402819041
30
0
41
1
10
8.05867247857589
20
1.72298954418409
30
0
41
1
10
8.01353748317197
20
1.49243185744092
30
0
41
1
10
8.00175690792821
20
1.3757698407743
30
0
41
1
10
7.99861113281079
20
1.14179304756175
30
0
41
1
10
8.00719129097934
20
1.02407120095847
30
0
41
1
10
8.06147947939681
20
0.669311908497519
30
0
41
1
10
8.13304665837623
20
0.443258146209189
30
0
41
1
10
8.27646082139356
20
0.114701858230603
30
0
41
1
10
8.33054951010342
20
0.0068494335196476
30
0
41
1
10
8.44656007406357
20
-0.201455614321844
30
0
41
1
10
8.50874855826987
20
-0.302562318417642
30
0
41
1
10
8.70542981202172
20
-0.59849338074639
30
0
41
1
10
8.84991421212754
20
-0.78601803922075
30
0
41
1
10
9.08075018575664
20
-1.05692354290926
30
0
41
1
10
9.16011207712293
20
-1.14547134848095
30
0
41
1
10
9.32134830185288
20
-1.31786641172872
30
0
41
1
10
9.40342854876528
20
-1.40195869988307
30
0
41
1
10
9.65335830172182
20
-1.64885132692831
30
0
41
1
10
9.82486241921021
20
-1.80631370401207
30
0
41
1
10
10.0000002091374
20
-1.95830913287031
30
0
0
SPLINE
5
C4
100
AcDbEntity
8
1
62
256
6
ByLayer
370
18
48
1
60
0
100
AcDbSpline
70
4
71
3
72
26
73
22
40
0
40
0
40
0
40
0
40
0.124999999999998
40
0.124999999999998
40
0.187499999999997
40
0.187499999999997
40
0.249999999999996
40
0.249999999999996
40
0.5
40
0.5
40
0.5625
40
0.5625
40
0.625
40
0.625
40
0.75
40
0.75
40
0.875
40
0.875
40
0.9375
40
0.9375
40
1
40
1
40
1
40
1
41
1
10
112.563222532497
20
-6.69499106818523
30
0
41
1
10
112.465936628085
20
-6.69498722990966
30
0
41
1
10
112.37331609315
20
-6.68091976604939
30
0
41
1
10
112.241741670873
20
-6.63764296846057
30
0
41
1
10
112.199112550227
20
-6.6195125225658
30
0
41
1
10
112.116413043649
20
-6.57553839666065
30
0
41
1
10
112.076211214629
20
-6.54957736195701
30
0
41
1
10
111.884204130488
20
-6.40139544947692
30
0
41
1
10
111.75811676413
20
-6.22490548790754
30
0
41
1
10
111.636568399093
20
-5.92836083910257
30
0
41
1
10
111.614085087079
20
-5.86520619772617
30
0
41
1
10
111.572915400556
20
-5.73090182160325
30
0
41
1
10
111.554180063908
20
-5.65946224145648
30
0
41
1
10
111.504664215051
20
-5.43610599152294
30
0
41
1
10
111.480272736606
20
-5.27458060407187
30
0
41
1
10
111.448437507167
20
-4.92671269954707
30
0
41
1
10
111.440993062929
20
-4.74037119761314
30
0
41
1
10
111.442882070813
20
-4.44174108004054
30
0
41
1
10
111.445705770008
20
-4.33876519652017
30
0
41
1
10
111.455796760025
20
-4.12730968884296
30
0
41
1
10
111.463029929854
20
-4.01933529658888
30
0
41
1
10
111.472415426768
20
-3.9091505663701
30
0
0
SPLINE
5
C5
100
AcDbEntity
8
1
62
256
6
ByLayer
370
18
48
1
60
0
100
AcDbSpline
70
4
71
3
72
16
73
12
40
0
40
0
40
0
40
0
40
0.25
40
0.25
40
0.375
40
0.375
40
0.500000000000001
40
0.500000000000001
40
0.75
40
0.75
40
1
40
1
40
1
40
1
41
1
10
111.572029683195
20
1.69618694136989
30
0
41
1
10
111.564888808181
20
1.72398212126004
30
0
41
1
10
111.561983453537
20
1.75296381300663
30
0
41
1
10
111.566954440021
20
1.79645867902988
30
0
41
1
10
111.570138151097
20
1.81071896788421
30
0
41
1
10
111.580096398263
20
1.83866281330111
30
0
41
1
10
111.586998747929
20
1.85244975082139
30
0
41
1
10
111.612337598487
20
1.89002907950655
30
0
41
1
10
111.636490955701
20
1.91140884387775
30
0
41
1
10
111.690805375453
20
1.94189164283728
30
0
41
1
10
111.720914819067
20
1.9512178790697
30
0
41
1
10
111.751568045194
20
1.95670148977894
30
0
0
SPLINE
5
C6
100
AcDbEntity
8
1
62
256
6
ByLayer
370
18
48
1
60
0
100
AcDbSpline
70
4
71
3
72
20
73
16
40
0
40
0
40
0
40
0
40
0.250000000000006
40
0.250000000000006
40
0.375000000000009
40
0.375000000000009
40
0.500000000000012
40
0.500000000000012
40
0.75000000000001
40
0.75000000000001
40
0.875000000000005
40
0.875000000000005
40
0.937500000000002
40
0.937500000000002
40
1
40
1
40
1
40
1
41
1
10
113.941676789087
20
-3.41216088883979
30
0
41
1
10
113.833905374095
20
-3.70071529030713
30
0
41
1
10
113.726021844075
20
-3.98911206295077
30
0
41
1
10
113.564008485206
20
-4.42092030093184
30
0
41
1
10
113.509969482892
20
-4.56472403969968
30
0
41
1
10
113.401779583653
20
-4.8519029073845
30
0
41
1
10
113.347603378152
20
-4.99518109234882
30
0
41
1
10
113.185065088025
20
-5.42497859264964
30
0
41
1
10
113.07671236732
20
-5.71166122855607
30
0
41
1
10
112.914019751969
20
-6.14010970537043
30
0
41
1
10
112.859759558472
20
-6.28264908423216
30
0
41
1
10
112.778238435623
20
-6.49522316813085
30
0
41
1
10
112.751043023389
20
-6.56587631700708
30
0
41
1
10
112.696657369476
20
-6.70723142182862
30
0
41
1
10
112.669461607761
20
-6.77788127179969
30
0
41
1
10
112.642256038557
20
-6.84843854473334
30
0
0
SPLINE
5
C7
100
AcDbEntity
8
1
62
256
6
ByLayer
370
13
48
1
60
0
100
AcDbSpline
70
4
71
3
72
30
73
26
40
0
40
0
40
0
40
0
40
0.0746071149163177
40
0.0746071149163177
40
0.116670427874667
40
0.116670427874667
40
0.158733740833016
40
0.158733740833016
40
0.326986992666412
40
0.326986992666412
40
0.41111361858311
40
0.41111361858311
40
0.453176931541459
40
0.453176931541459
40
0.495240244499809
40
0.495240244499809
40
0.663493496333205
40
0.663493496333205
40
0.705556809291554
40
0.705556809291554
40
0.747620122249904
40
0.747620122249904
40
0.831746748166602
40
0.831746748166602
40
1
40
1
40
1
40
1
41
1
10
10.2504341020039
20
-6.63384304300328
30
0
41
1
10
10.2504347660441
20
-6.63372189840555
30
0
41
1
10
10.250435244084
20
-6.62343519504404
30
0
41
1
10
10.2504365981082
20
-6.59136979905239
30
0
41
1
10
10.2504372081652
20
-6.57655419554877
30
0
41
1
10
10.2504388645955
20
-6.5403063853372
30
0
41
1
10
10.2504399150029
20
-6.51880153066898
30
0
41
1
10
10.2504466736508
20
-6.39522180367456
30
0
41
1
10
10.2504570058241
20
-6.24676489270641
30
0
41
1
10
10.2504852317335
20
-5.95197657270609
30
0
41
1
10
10.2504967311777
20
-5.84156246102222
30
0
41
1
10
10.2505175016274
20
-5.65714105905923
30
0
41
1
10
10.2505249712567
20
-5.59287289672668
30
0
41
1
10
10.2505410063576
20
-5.45876123087524
30
0
41
1
10
10.2505495885783
20
-5.38878769711329
30
0
41
1
10
10.2505948770051
20
-5.02746839721985
30
0
41
1
10
10.2506389894522
20
-4.70111563905388
30
0
41
1
10
10.2507004408522
20
-4.24762575792082
30
0
41
1
10
10.2507130363982
20
-4.15462495591709
30
0
41
1
10
10.2507387048063
20
-3.96394170241445
30
0
41
1
10
10.2507518157032
20
-3.86597139162632
30
0
41
1
10
10.2507913403281
20
-3.56706318802819
30
0
41
1
10
10.2508178398047
20
-3.36199680325035
30
0
41
1
10
10.2508955346958
20
-2.72998122833658
30
0
41
1
10
10.2509451122198
20
-2.28616622160086
30
0
41
1
10
10.2509849402566
20
-1.81970907570434
30
0
0
SPLINE
5
C8
100
AcDbEntity
8
1
62
256
6
ByLayer
370
18
48
1
60
0
100
AcDbSpline
70
4
71
3
72
32
73
28
40
0
40
0
40
0
40
0
40
0.0624999999999997
40
0.0624999999999997
40
0.0937499999999992
40
0.0937499999999992
40
0.124999999999999
40
0.124999999999999
40
0.187499999999998
40
0.187499999999998
40
0.249999999999996
40
0.249999999999996
40
0.374999999999998
40
0.374999999999998
40
0.437499999999998
40
0.437499999999998
40
0.499999999999999
40
0.499999999999999
40
0.624999999999995
40
0.624999999999995
40
0.687499999999996
40
0.687499999999996
40
0.749999999999997
40
0.749999999999997
40
0.874999999999998
40
0.874999999999998
40
1
40
1
40
1
40
1
41
1
10
105.268219053121
20
3.74578377701664
30
0
41
1
10
105.261685136398
20
3.56291543963093
30
0
41
1
10
105.271023613467
20
3.37430933126845
30
0
41
1
10
105.308905228795
20
3.08276990345175
30
0
41
1
10
105.325632065597
20
2.98364386004491
30
0
41
1
10
105.366546993219
20
2.78524691116354
30
0
41
1
10
105.390652410587
20
2.68613955364404
30
0
41
1
10
105.473159732442
20
2.38907202898338
30
0
41
1
10
105.541717020652
20
2.19136551838926
30
0
41
1
10
105.703001085414
20
1.79655619166647
30
0
41
1
10
105.796436022942
20
1.59832852887229
30
0
41
1
10
106.10178209861
20
1.01943108948629
30
0
41
1
10
106.339487706654
20
0.650141178964248
30
0
41
1
10
106.734422599252
20
0.114912269348309
30
0
41
1
10
106.873194943943
20
-0.0608892424519354
30
0
41
1
10
107.157888188392
20
-0.400985202012123
30
0
41
1
10
107.304168804146
20
-0.565989899597525
30
0
41
1
10
107.752837296439
20
-1.04840647698802
30
0
41
1
10
108.065060198756
20
-1.35321009752215
30
0
41
1
10
108.54896578071
20
-1.79045359936825
30
0
41
1
10
108.712889093412
20
-1.93284079676368
30
0
41
1
10
109.045534322362
20
-2.21146350074949
30
0
41
1
10
109.214217972331
20
-2.34765015417068
30
0
41
1
10
109.722911440094
20
-2.74450974652871
30
0
41
1
10
110.066930077891
20
-2.99471821749788
30
0
41
1
10
110.763452088876
20
-3.47020913839978
30
0
41
1
10
111.115941131738
20
-3.69553368723007
30
0
41
1
10
111.472415426768
20
-3.90915056637007
30
0
0
SPLINE
5
C9
100
AcDbEntity
8
1
62
256
6
ByLayer
370
18
48
1
60
0
100
AcDbSpline
70
4
71
3
72
104
73
100
40
0
40
0
40
0
40
0
40
0.0022121019696623
40
0.0022121019696623
40
0.0180128859005996
40
0.0180128859005996
40
0.0338136698315368
40
0.0338136698315368
40
0.049614453762474
40
0.049614453762474
40
0.0654152376934113
40
0.0654152376934113
40
0.0970168055552857
40
0.0970168055552857
40
0.112817589486223
40
0.112817589486223
40
0.12861837341716
40
0.12861837341716
40
0.160219941279035
40
0.160219941279035
40
0.191821509140909
40
0.191821509140909
40
0.207622293071847
40
0.207622293071847
40
0.223423077002784
40
0.223423077002784
40
0.25502464486466
40
0.25502464486466
40
0.270825428795597
40
0.270825428795597
40
0.286626212726535
40
0.286626212726535
40
0.318227780588409
40
0.318227780588409
40
0.349829348450284
40
0.349829348450284
40
0.381430916312158
40
0.381430916312158
40
0.397231700243096
40
0.397231700243096
40
0.413032484174033
40
0.413032484174033
40
0.42883326810497
40
0.42883326810497
40
0.444634052035907
40
0.444634052035907
40
0.476235619897782
40
0.476235619897782
40
0.492036403828719
40
0.492036403828719
40
0.507837187759656
40
0.507837187759656
40
0.539438755621531
40
0.539438755621531
40
0.555239539552468
40
0.555239539552468
40
0.571040323483405
40
0.571040323483405
40
0.60264189134528
40
0.60264189134528
40
0.618442675276217
40
0.618442675276217
40
0.634243459207155
40
0.634243459207155
40
0.665845027069028
40
0.665845027069028
40
0.697446594930902
40
0.697446594930902
40
0.729048162792776
40
0.729048162792776
40
0.76064973065465
40
0.76064973065465
40
0.776450514585587
40
0.776450514585587
40
0.792251298516524
40
0.792251298516524
40
0.808052082447461
40
0.808052082447461
40
0.823852866378398
40
0.823852866378398
40
0.839653650309334
40
0.839653650309334
40
0.855454434240271
40
0.855454434240271
40
0.887056002102144
40
0.887056002102144
40
0.902856786033081
40
0.902856786033081
40
0.918657569964018
40
0.918657569964018
40
0.950259137825891
40
0.950259137825891
40
0.966059921756828
40
0.966059921756828
40
0.981860705687764
40
0.981860705687764
40
0.997661489618701
40
0.997661489618701
40
1
40
1
40
1
40
1
41
1
10
23.4849280906961
20
6.64628502842075
30
0
41
1
10
23.516708789865
20
6.64620552481929
30
0
41
1
10
23.5484863942864
20
6.64604656788097
30
0
41
1
10
23.8072239196494
20
6.64411473665251
30
0
41
1
10
24.0339411710185
20
6.63833481712189
30
0
41
1
10
24.4881912884154
20
6.61895081139437
30
0
41
1
10
24.7155973768784
20
6.60535609223993
30
0
41
1
10
25.1708356303821
20
6.57068601629743
30
0
41
1
10
25.3988253747221
20
6.54977939643547
30
0
41
1
10
25.8545496301464
20
6.50015707387948
30
0
41
1
10
26.0820391317542
20
6.47075604348018
30
0
41
1
10
26.763585320408
20
6.3695679888055
30
0
41
1
10
27.2166983219303
20
6.28556452345043
30
0
41
1
10
27.8981415960608
20
6.13905196552818
30
0
41
1
10
28.1254111500142
20
6.08671667330344
30
0
41
1
10
28.5802033914397
20
5.97528388749242
30
0
41
1
10
28.8077193787868
20
5.91630779907021
30
0
41
1
10
29.4908087134108
20
5.72613779762344
30
0
41
1
10
29.9446648844836
20
5.58245723276917
30
0
41
1
10
30.852956075777
20
5.27201602445007
30
0
41
1
10
31.3072385415476
20
5.10482945024893
30
0
41
1
10
31.988862384016
20
4.83673295749023
30
0
41
1
10
32.2160951133997
20
4.74403675302986
30
0
41
1
10
32.6707788846176
20
4.55145541317341
30
0
41
1
10
32.8982712911139
20
4.45155920928565
30
0
41
1
10
33.5805215117264
20
4.14567432843316
30
0
41
1
10
34.0351279551483
20
3.93241435123863
30
0
41
1
10
34.7166563406797
20
3.60032440585741
30
0
41
1
10
34.9437635514618
20
3.48757886713813
30
0
41
1
10
35.3978386495901
20
3.25690602587483
30
0
41
1
10
35.6247575069886
20
3.1388105819303
30
0
41
1
10
36.3061615747714
20
2.77838825871677
30
0
41
1
10
36.7625373585389
20
2.53146223555513
30
0
41
1
10
37.6723543248551
20
2.02838395758661
30
0
41
1
10
38.1265794476586
20
1.77218541733629
30
0
41
1
10
39.0339022497191
20
1.24822958047074
30
0
41
1
10
39.4883164091956
20
0.982874595719068
30
0
41
1
10
40.1719488487546
20
0.582376032668918
30
0
41
1
10
40.3998745204196
20
0.448497740994867
30
0
41
1
10
40.8549790274794
20
0.180522528906891
30
0
41
1
10
41.0822737653751
20
0.0463104480170102
30
0
41
1
10
41.5362990760993
20
-0.222509844471205
30
0
41
1
10
41.7629419037876
20
-0.35726606260846
30
0
41
1
10
42.216878406249
20
-0.625122347819229
30
0
41
1
10
42.4440579678267
20
-0.758423759332516
30
0
41
1
10
43.1260893654805
20
-1.15676887156329
30
0
41
1
10
43.582157289558
20
-1.42043645616962
30
0
41
1
10
44.2646725840514
20
-1.81187392693218
30
0
41
1
10
44.4916695313887
20
-1.94145538790926
30
0
41
1
10
44.9453264015502
20
-2.19735477780935
30
0
41
1
10
45.1722944746233
20
-2.32335528988935
30
0
41
1
10
45.8533974012876
20
-2.69642722393064
30
0
41
1
10
46.3078094523903
20
-2.93846177269182
30
0
41
1
10
46.9899056624585
20
-3.29314918146932
30
0
41
1
10
47.2174498483668
20
-3.41036380945553
30
0
41
1
10
47.6720194435581
20
-3.64066564171327
30
0
41
1
10
47.8988965464571
20
-3.75290264531307
30
0
41
1
10
48.579860782824
20
-4.08065261562902
30
0
41
1
10
49.0336313172205
20
-4.28777818104805
30
0
41
1
10
49.7143858113262
20
-4.58399070406688
30
0
41
1
10
49.9413009622533
20
-4.68035850310287
30
0
41
1
10
50.3950900805667
20
-4.86878799768675
30
0
41
1
10
50.6218228761439
20
-4.96123511659854
30
0
41
1
10
51.303846235376
20
-5.22586100051927
30
0
41
1
10
51.7582599657391
20
-5.38736840404474
30
0
41
1
10
52.6658876694901
20
-5.68459254823958
30
0
41
1
10
53.1191393440619
20
-5.82063320564822
30
0
41
1
10
54.0256006402373
20
-6.06723464887662
30
0
41
1
10
54.4811432685991
20
-6.17349938784457
30
0
41
1
10
55.3902703879217
20
-6.35508959144116
30
0
41
1
10
55.8440374079472
20
-6.43047164490969
30
0
41
1
10
56.5236987946732
20
-6.52328667237182
30
0
41
1
10
56.750182357886
20
-6.55097538026749
30
0
41
1
10
57.2039159123455
20
-6.59652305742091
30
0
41
1
10
57.4310192736692
20
-6.61476446553721
30
0
41
1
10
57.8857085755624
20
-6.64287686495715
30
0
41
1
10
58.1135604230578
20
-6.65273256816351
30
0
41
1
10
58.5678782147851
20
-6.66456227852598
30
0
41
1
10
58.7944759418542
20
-6.66653352773528
30
0
41
1
10
59.2466141621995
20
-6.66284346444016
30
0
41
1
10
59.4720692913318
20
-6.65742192419603
30
0
41
1
10
59.9229329706081
20
-6.63935243827609
30
0
41
1
10
60.1481979462968
20
-6.62598582566707
30
0
41
1
10
60.82341731684
20
-6.57296886480103
30
0
41
1
10
61.2729145475913
20
-6.52066480455323
30
0
41
1
10
61.9466091188286
20
-6.41992882156973
30
0
41
1
10
62.1710510682097
20
-6.38251922978438
30
0
41
1
10
62.6199070078896
20
-6.30066699769833
30
0
41
1
10
62.8446588743017
20
-6.25692177020233
30
0
41
1
10
63.5198478189946
20
-6.11297798636809
30
0
41
1
10
63.9711918760834
20
-6.00044234607626
30
0
41
1
10
64.6503385962647
20
-5.80954363999993
30
0
41
1
10
64.8770498057774
20
-5.74222066826945
30
0
41
1
10
65.331217743985
20
-5.60031106763054
30
0
41
1
10
65.5585526585672
20
-5.52568336836947
30
0
41
1
10
66.0129556658033
20
-5.37176280658878
30
0
41
1
10
66.2400735263057
20
-5.29178950173534
30
0
41
1
10
66.5006512310691
20
-5.19578237385917
30
0
41
1
10
66.534242686942
20
-5.18333095538583
30
0
41
1
10
66.5678322131288
20
-5.17080626054641
30
0
0
SPLINE
5
CA
100
AcDbEntity
8
1
62
256
6
ByLayer
370
18
48
1
60
0
100
AcDbSpline
70
4
71
3
72
26
73
22
40
0
40
0
40
0
40
0
40
0.0551772524974917
40
0.0551772524974917
40
0.118165435664329
40
0.118165435664329
40
0.244141801997997
40
0.244141801997997
40
0.370118168331665
40
0.370118168331665
40
0.496094534665333
40
0.496094534665333
40
0.559082717832165
40
0.559082717832165
40
0.622070900998996
40
0.622070900998996
40
0.748047267332664
40
0.748047267332664
40
0.874023633666333
40
0.874023633666333
40
1
40
1
40
1
40
1
41
1
10
94.4638801021536
20
6.68353762165526
30
0
41
1
10
94.662799362765
20
6.68098343678301
30
0
41
1
10
94.8613877887308
20
6.67537958470513
30
0
41
1
10
95.2866391615893
20
6.65697624515991
30
0
41
1
10
95.5134203736264
20
6.643302105386
30
0
41
1
10
96.1938024035698
20
6.59101869488467
30
0
41
1
10
96.6474717563588
20
6.54155810029798
30
0
41
1
10
97.5550032288675
20
6.41163849773798
30
0
41
1
10
98.0091394778802
20
6.32867329652817
30
0
41
1
10
98.9167774810772
20
6.13291752479603
30
0
41
1
10
99.3702428094439
20
6.02000710375057
30
0
41
1
10
100.050226789761
20
5.82871717417163
30
0
41
1
10
100.276837757452
20
5.76129626541666
30
0
41
1
10
100.730050361041
20
5.61909394648245
30
0
41
1
10
100.956584229705
20
5.54421254995214
30
0
41
1
10
101.637898767549
20
5.31017390950609
30
0
41
1
10
102.092523328336
20
5.14156668070956
30
0
41
1
10
102.999818839385
20
4.78176720131637
30
0
41
1
10
103.452598548465
20
4.58962813952419
30
0
41
1
10
104.358726534133
20
4.18238894602993
30
0
41
1
10
104.813891122927
20
3.96849011542676
30
0
41
1
10
105.268219053105
20
3.74578377702449
30
0
0
SPLINE
5
CB
100
AcDbEntity
8
1
62
256
6
ByLayer
370
18
48
1
60
0
100
AcDbSpline
70
4
71
3
72
12
73
8
40
0
40
0
40
0
40
0
40
0.25
40
0.25
40
0.5
40
0.5
40
1
40
1
40
1
40
1
41
1
10
112.62502104152
20
-6.74162490369213
30
0
41
1
10
112.629985054892
20
-6.72833491637627
30
0
41
1
10
112.634765056835
20
-6.71470860271455
30
0
41
1
10
112.642606636112
20
-6.69025059465278
30
0
41
1
10
112.645644899845
20
-6.6794461577241
30
0
41
1
10
112.650919815234
20
-6.65598632102066
30
0
41
1
10
112.649655643626
20
-6.65183011156685
30
0
41
1
10
112.645928761076
20
-6.65490619450765
30
0
0
SPLINE
5
CC
100
AcDbEntity
8
1
62
256
6
ByLayer
370
18
48
1
60
0
100
AcDbSpline
70
4
71
3
72
14
73
10
40
0
40
0
40
0
40
0
40
0.25
40
0.25
40
0.5
40
0.5
40
0.75
40
0.75
40
1
40
1
40
1
40
1
41
1
10
10.1187101968842
20
6.23963457141375
30
0
41
1
10
10.1004860809241
20
6.24454356049975
30
0
41
1
10
10.08407586675
20
6.25033131438704
30
0
41
1
10
10.0547694914187
20
6.26354503403209
30
0
41
1
10
10.041957053225
20
6.27099443206822
30
0
41
1
10
10.0213893176632
20
6.2866747544129
30
0
41
1
10
10.0133441416731
20
6.29512984980428
30
0
41
1
10
10.0027046420478
20
6.31224931638744
30
0
41
1
10
10.0000002091377
20
6.32091736047812
30
0
41
1
10
10.0000002091378
20
6.32968875236688
30
0
0
SPLINE
5
CD
100
AcDbEntity
8
1
62
256
6
ByLayer
370
18
48
1
60
0
100
AcDbSpline
70
4
71
3
72
38
73
34
40
0
40
0
40
0
40
0
40
0.0930402172848097
40
0.0930402172848097
40
0.186080434569619
40
0.186080434569619
40
0.232600543212023
40
0.232600543212023
40
0.279120651854427
40
0.279120651854427
40
0.372160869139233
40
0.372160869139233
40
0.418680977781636
40
0.418680977781636
40
0.46520108642404
40
0.46520108642404
40
0.511721195066444
40
0.511721195066444
40
0.558241303708848
40
0.558241303708848
40
0.651281520993655
40
0.651281520993655
40
0.744321738278463
40
0.744321738278463
40
0.790841846920868
40
0.790841846920868
40
0.837361955563273
40
0.837361955563273
40
0.930402172848082
40
0.930402172848082
40
0.976922281490487
40
0.976922281490487
40
1
40
1
40
1
40
1
41
1
10
24.6941248743565
20
-1.78117961089879
30
0
41
1
10
25.1530187521133
20
-2.05759971053413
30
0
41
1
10
25.6113221291807
20
-2.32489417050758
30
0
41
1
10
26.5249616165678
20
-2.84530555709824
30
0
41
1
10
26.9803099295102
20
-3.09838146692263
30
0
41
1
10
27.6602906165857
20
-3.46839769046912
30
0
41
1
10
27.8864914919937
20
-3.59003744259152
30
0
41
1
10
28.340034747902
20
-3.82704765110759
30
0
41
1
10
28.5670842980056
20
-3.94284784774697
30
0
41
1
10
29.2486768982764
20
-4.28275693369375
30
0
41
1
10
29.7036625068187
20
-4.49941460098728
30
0
41
1
10
30.3861424998039
20
-4.81024322515955
30
0
41
1
10
30.6133765184173
20
-4.9117805457507
30
0
41
1
10
31.0694228757793
20
-5.10810985941043
30
0
41
1
10
31.2982920987654
20
-5.20285829228374
30
0
41
1
10
31.7573881432784
20
-5.38594306462076
30
0
41
1
10
31.9879227384971
20
-5.47437560195803
30
0
41
1
10
32.4481830226136
20
-5.64420843037928
30
0
41
1
10
32.6779954940291
20
-5.72565040805867
30
0
41
1
10
33.3662496165785
20
-5.95970882730333
30
0
41
1
10
33.8227064684936
20
-6.10253829924639
30
0
41
1
10
34.7402786485899
20
-6.35426168290206
30
0
41
1
10
35.2006502615571
20
-6.4643369783698
30
0
41
1
10
35.8908297202112
20
-6.60591275114476
30
0
41
1
10
36.1204093926724
20
-6.64907783010668
30
0
41
1
10
36.5784730420542
20
-6.72730256211179
30
0
41
1
10
36.8070702129812
20
-6.76227681515374
30
0
41
1
10
37.4945543841257
20
-6.8537849838614
30
0
41
1
10
37.9538757372968
20
-6.89757429951248
30
0
41
1
10
38.6430951191258
20
-6.93793490069882
30
0
41
1
10
38.8728850248536
20
-6.94714335594861
30
0
41
1
10
39.216644723715
20
-6.95443744110361
30
0
41
1
10
39.3304267129816
20
-6.95577955841256
30
0
41
1
10
39.4441385596152
20
-6.9560461738474
30
0
0
SPLINE
5
CE
100
AcDbEntity
8
1
62
256
6
ByLayer
370
18
48
1
60
0
100
AcDbSpline
70
4
71
3
72
106
73
102
40
0
40
0
40
0
40
0
40
0.0010999449164973
40
0.0010999449164973
40
0.0168128373973233
40
0.0168128373973233
40
0.0325257298781491
40
0.0325257298781491
40
0.0482386223589751
40
0.0482386223589751
40
0.0639515148398011
40
0.0639515148398011
40
0.0796644073206268
40
0.0796644073206268
40
0.0953772998014528
40
0.0953772998014528
40
0.111090192282279
40
0.111090192282279
40
0.142515977243931
40
0.142515977243931
40
0.173941762205582
40
0.173941762205582
40
0.189654654686408
40
0.189654654686408
40
0.205367547167234
40
0.205367547167234
40
0.236793332128884
40
0.236793332128884
40
0.252506224609709
40
0.252506224609709
40
0.268219117090534
40
0.268219117090534
40
0.299644902052184
40
0.299644902052184
40
0.331070687013834
40
0.331070687013834
40
0.362496471975484
40
0.362496471975484
40
0.393922256937134
40
0.393922256937134
40
0.409635149417959
40
0.409635149417959
40
0.425348041898785
40
0.425348041898785
40
0.441060934379611
40
0.441060934379611
40
0.456773826860436
40
0.456773826860436
40
0.472486719341262
40
0.472486719341262
40
0.488199611822088
40
0.488199611822088
40
0.519625396783739
40
0.519625396783739
40
0.535338289264564
40
0.535338289264564
40
0.551051181745389
40
0.551051181745389
40
0.58247696670704
40
0.58247696670704
40
0.598189859187867
40
0.598189859187867
40
0.613902751668693
40
0.613902751668693
40
0.645328536630345
40
0.645328536630345
40
0.661041429111171
40
0.661041429111171
40
0.676754321591997
40
0.676754321591997
40
0.708180106553648
40
0.708180106553648
40
0.723892999034474
40
0.723892999034474
40
0.739605891515299
40
0.739605891515299
40
0.77103167647695
40
0.77103167647695
40
0.802457461438602
40
0.802457461438602
40
0.818170353919428
40
0.818170353919428
40
0.833883246400254
40
0.833883246400254
40
0.865309031361908
40
0.865309031361908
40
0.881021923842735
40
0.881021923842735
40
0.896734816323562
40
0.896734816323562
40
0.912447708804389
40
0.912447708804389
40
0.928160601285216
40
0.928160601285216
40
0.943873493766044
40
0.943873493766044
40
0.95958638624687
40
0.95958638624687
40
0.991012171208525
40
0.991012171208525
40
1
40
1
40
1
40
1
41
1
10
66.5805320003952
20
5.16575001313811
30
0
41
1
10
66.5965619473056
20
5.1724409931426
30
0
41
1
10
66.6125953020008
20
5.1791133785612
30
0
41
1
10
66.8577259215655
20
5.28081090947086
30
0
41
1
10
67.0872964330246
20
5.37232657125995
30
0
41
1
10
67.5471111838973
20
5.54865218631218
30
0
41
1
10
67.7774371767329
20
5.63347546229525
30
0
41
1
10
68.2369995273327
20
5.79597177536917
30
0
41
1
10
68.4664304052232
20
5.87372100341747
30
0
41
1
10
68.9244469005731
20
6.02227406222403
30
0
41
1
10
69.1527603448388
20
6.09327597334777
30
0
41
1
10
69.6101061303121
20
6.22698725672544
30
0
41
1
10
69.839219178111
20
6.28967116937295
30
0
41
1
10
70.2979753952899
20
6.40708782327599
30
0
41
1
10
70.5276272200203
20
6.46181246007833
30
0
41
1
10
70.987284715284
20
6.56340610754464
30
0
41
1
10
71.2174797761714
20
6.61030466740871
30
0
41
1
10
71.9062534052482
20
6.738741810096
30
0
41
1
10
72.362591126558
20
6.80826792077258
30
0
41
1
10
73.2790668937247
20
6.91173278123577
30
0
41
1
10
73.7381205129272
20
6.94634623278552
30
0
41
1
10
74.4268222648782
20
6.97271778884018
30
0
41
1
10
74.6566110963144
20
6.97722670746418
30
0
41
1
10
75.1150923234728
20
6.97746424944884
30
0
41
1
10
75.3437659993792
20
6.97316541731325
30
0
41
1
10
76.0311734772836
20
6.94739438036055
30
0
41
1
10
76.4900294290159
20
6.91315824694888
30
0
41
1
10
77.177932100778
20
6.83630134279053
30
0
41
1
10
77.407179578275
20
6.80641185057792
30
0
41
1
10
77.8654309442829
20
6.73788036382132
30
0
41
1
10
78.0943161435001
20
6.69906252578841
30
0
41
1
10
78.7823649972225
20
6.570650800241
30
0
41
1
10
79.2401815682426
20
6.46969703533696
30
0
41
1
10
80.1522836210168
20
6.23737761192439
30
0
41
1
10
80.6063930332024
20
6.10582092278267
30
0
41
1
10
81.5110690260245
20
5.81169231106205
30
0
41
1
10
81.9645820986652
20
5.65170221784803
30
0
41
1
10
82.8724114699032
20
5.30529366043857
30
0
41
1
10
83.3266775845188
20
5.11881365440564
30
0
41
1
10
84.0078025963571
20
4.81752714510944
30
0
41
1
10
84.2348819658019
20
4.71355664780603
30
0
41
1
10
84.691121939778
20
4.50100012900128
30
0
41
1
10
84.9199862946635
20
4.39207039063029
30
0
41
1
10
85.3789538136286
20
4.16858317719411
30
0
41
1
10
85.6092527829284
20
4.05392736992644
30
0
41
1
10
86.068587142121
20
3.8198931965249
30
0
41
1
10
86.2978824330278
20
3.70039252812452
30
0
41
1
10
86.755587098326
20
3.45618729580585
30
0
41
1
10
86.9837256645406
20
3.33108617364414
30
0
41
1
10
87.4408964831825
20
3.07816841036282
30
0
41
1
10
87.6698925432576
20
2.95031966227708
30
0
41
1
10
88.3576061900523
20
2.56196632096248
30
0
41
1
10
88.8176614027737
20
2.29634475915256
30
0
41
1
10
89.5061411923347
20
1.88786802704934
30
0
41
1
10
89.7349975367086
20
1.75002664285071
30
0
41
1
10
90.1920352786886
20
1.47190218900934
30
0
41
1
10
90.4208265918719
20
1.33258485570909
30
0
41
1
10
91.1078953376725
20
0.913725400323756
30
0
41
1
10
91.5666523134517
20
0.63294615591721
30
0
41
1
10
92.2547734060765
20
0.207708376692921
30
0
41
1
10
92.4842915132026
20
0.0652016834710878
30
0
41
1
10
92.9425707460924
20
-0.220985353841513
30
0
41
1
10
93.1712359003805
20
-0.364147669487807
30
0
41
1
10
93.8584834557058
20
-0.789529640560971
30
0
41
1
10
94.3171194846648
20
-1.06961937819412
30
0
41
1
10
95.0045599582733
20
-1.48651155761985
30
0
41
1
10
95.2336299890047
20
-1.62491761494539
30
0
41
1
10
95.6914818213299
20
-1.90079982703486
30
0
41
1
10
95.9200147403513
20
-2.03866039141232
30
0
41
1
10
96.6081358037847
20
-2.44619406190833
30
0
41
1
10
97.0672557290257
20
-2.70944718849731
30
0
41
1
10
97.7548805941703
20
-3.09405767047599
30
0
41
1
10
97.9839392630352
20
-3.22052137896196
30
0
41
1
10
98.4416075278858
20
-3.47013971285079
30
0
41
1
10
98.6700660137405
20
-3.59350110699341
30
0
41
1
10
99.3557118831894
20
-3.95716869407366
30
0
41
1
10
99.8160881275076
20
-4.18853144883602
30
0
41
1
10
100.734270395819
20
-4.62880209561143
30
0
41
1
10
101.192446976019
20
-4.83787397709011
30
0
41
1
10
101.877481843925
20
-5.1354669646127
30
0
41
1
10
102.105805158013
20
-5.23157053395019
30
0
41
1
10
102.563816552919
20
-5.41614593906166
30
0
41
1
10
102.793250174858
20
-5.50490499916137
30
0
41
1
10
103.482475130202
20
-5.76101692260352
30
0
41
1
10
103.942219451333
20
-5.91787053261947
30
0
41
1
10
104.628196528408
20
-6.13175545365675
30
0
41
1
10
104.85620089434
20
-6.19965149582447
30
0
41
1
10
105.313402266783
20
-6.32675372249611
30
0
41
1
10
105.542390774605
20
-6.38615151430761
30
0
41
1
10
106.00083300015
20
-6.49696487566737
30
0
41
1
10
106.230295048141
20
-6.54837332097452
30
0
41
1
10
106.6895201277
20
-6.64326856975504
30
0
41
1
10
106.919451391995
20
-6.68677760133505
30
0
41
1
10
107.377877034129
20
-6.76552340287296
30
0
41
1
10
107.606327125599
20
-6.80086339060225
30
0
41
1
10
108.06301199987
20
-6.86287792541677
30
0
41
1
10
108.291674193895
20
-6.8894306445074
30
0
41
1
10
108.978081175108
20
-6.95621550953808
30
0
41
1
10
109.436238163386
20
-6.98364461893848
30
0
41
1
10
110.025242828987
20
-6.99692192405078
30
0
41
1
10
110.156223027731
20
-6.99846860646588
30
0
41
1
10
110.287183808061
20
-6.99858655596344
30
0
0
SPLINE
5
CF
100
AcDbEntity
8
1
62
256
6
ByLayer
370
18
48
1
60
0
100
AcDbSpline
70
4
71
3
72
20
73
16
40
0
40
0
40
0
40
0
40
0.0293399832090574
40
0.0293399832090574
40
0.182152626975448
40
0.182152626975448
40
0.258558948858642
40
0.258558948858642
40
0.334965270741836
40
0.334965270741836
40
0.640590558274615
40
0.640590558274615
40
0.946215845807393
40
0.946215845807393
40
1
40
1
40
1
40
1
41
1
10
22.696864409721
20
0.0128455600160748
30
0
41
1
10
22.7988381538423
20
-0.048147605760704
30
0
41
1
10
22.9008350413291
20
-0.109153549386605
30
0
41
1
10
23.5342736090348
20
-0.487870683425314
30
0
41
1
10
24.0664885051963
20
-0.805636194339655
30
0
41
1
10
24.8681462410177
20
-1.27874691798127
30
0
41
1
10
25.1359167863133
20
-1.43587005517946
30
0
41
1
10
25.6730068553589
20
-1.74818930142206
30
0
41
1
10
25.9425908088824
20
-1.90354942015605
30
0
41
1
10
27.2843115735822
20
-2.66831248544969
30
0
41
1
10
28.3461895195991
20
-3.2456298455424
30
0
41
1
10
30.4695304136005
20
-4.3000128734956
30
0
41
1
10
31.5310831407055
20
-4.7768585571732
30
0
41
1
10
32.7922543893884
20
-5.26018025705369
30
0
41
1
10
32.9815264882387
20
-5.33052888110706
30
0
41
1
10
33.1708643535664
20
-5.39861791888964
30
0
0
SPLINE
5
D0
100
AcDbEntity
8
1
62
256
6
ByLayer
370
13
48
1
60
0
100
AcDbSpline
70
4
71
3
72
22
73
18
40
0
40
0
40
0
40
0
40
0.0259669486871035
40
0.0259669486871035
40
0.113670261106605
40
0.113670261106605
40
0.289076885945612
40
0.289076885945612
40
0.376780198365118
40
0.376780198365118
40
0.464483510784623
40
0.464483510784623
40
0.639890135623633
40
0.639890135623633
40
0.990703385301657
40
0.990703385301657
40
1
40
1
40
1
40
1
41
1
10
33.1708643536703
20
-5.39861791892696
30
0
41
1
10
33.2505018045526
20
-5.4272568675735
30
0
41
1
10
33.3301508903797
20
-5.45549606603359
30
0
41
1
10
33.6787100773486
20
-5.5772716278934
30
0
41
1
10
33.9472842900227
20
-5.66642268349119
30
0
41
1
10
34.7524715923871
20
-5.91900564714325
30
0
41
1
10
35.288543376164
20
-6.06755980979787
30
0
41
1
10
36.0936881457043
20
-6.25920450467973
30
0
41
1
10
36.3622504825618
20
-6.3178579214206
30
0
41
1
10
36.9001029927177
20
-6.42442023257772
30
0
41
1
10
37.1692050109907
20
-6.47227406800218
30
0
41
1
10
37.9732310251326
20
-6.5986297192056
30
0
41
1
10
38.5064851121121
20
-6.66029026155451
30
0
41
1
10
40.1022956461876
20
-6.77813361371531
30
0
41
1
10
41.1607400461063
20
-6.76652059881266
30
0
41
1
10
42.2530945319419
20
-6.66279811887492
30
0
41
1
10
42.2812987933518
20
-6.66005743521009
30
0
41
1
10
42.3095072532771
20
-6.65725374873554
30
0
0
SPLINE
5
D1
100
AcDbEntity
8
1
62
256
6
ByLayer
370
18
48
1
60
0
100
AcDbSpline
70
4
71
3
72
16
73
12
40
0
40
0
40
0
40
0
40
0.355470330981143
40
0.355470330981143
40
0.536925315568038
40
0.536925315568038
40
0.627652807861485
40
0.627652807861485
40
0.718380300154931
40
0.718380300154931
40
1
40
1
40
1
40
1
41
1
10
93.5255516330006
20
-0.0039299988212065
30
0
41
1
10
94.5653015453595
20
-0.629601308388544
30
0
41
1
10
95.60070696924
20
-1.25338347397943
30
0
41
1
10
97.1742013864754
20
-2.16552639807597
30
0
41
1
10
97.7077958338543
20
-2.4683103298797
30
0
41
1
10
98.512747999094
20
-2.91116562067879
30
0
41
1
10
98.7816146693118
20
-3.05675080403651
30
0
41
1
10
99.3168799525865
20
-3.34118696953487
30
0
41
1
10
99.5838173973237
20
-3.48033472089776
30
0
41
1
10
100.677259117089
20
-4.0378945059943
30
0
41
1
10
101.499301603183
20
-4.42799456184361
30
0
41
1
10
102.321593621998
20
-4.78009953567681
30
0
0
SPLINE
5
D2
100
AcDbEntity
8
1
62
256
6
ByLayer
370
13
48
1
60
0
100
AcDbSpline
70
4
71
3
72
22
73
18
40
0
40
0
40
0
40
0
40
0.0694776646427503
40
0.0694776646427503
40
0.224564720535627
40
0.224564720535627
40
0.302108248482061
40
0.302108248482061
40
0.379651776428496
40
0.379651776428496
40
0.689825888214248
40
0.689825888214248
40
0.844912944107124
40
0.844912944107124
40
0.922456472053562
40
0.922456472053562
40
1
40
1
40
1
40
1
41
1
10
102.321593620645
20
-4.78009953509749
30
0
41
1
10
102.558950381695
20
-4.88173556492208
30
0
41
1
10
102.796327933898
20
-4.98020583137262
30
0
41
1
10
103.564049013837
20
-5.28775076941386
30
0
41
1
10
104.095033119322
20
-5.48357824654673
30
0
41
1
10
104.894567317958
20
-5.74999925006182
30
0
41
1
10
105.161601774629
20
-5.83424115067805
30
0
41
1
10
105.697080816768
20
-5.99312271065665
30
0
41
1
10
105.96604074821
20
-6.06788839011782
30
0
41
1
10
107.306542226941
20
-6.41442586528399
30
0
41
1
10
108.367967223292
20
-6.60555094816868
30
0
41
1
10
109.960582564565
20
-6.75830677565432
30
0
41
1
10
110.491506780608
20
-6.78689300965166
30
0
41
1
10
111.289759890969
20
-6.79564304938751
30
0
41
1
10
111.556154213948
20
-6.79287269884756
30
0
41
1
10
112.089845894148
20
-6.77586137164298
30
0
41
1
10
112.357199349228
20
-6.76117276020688
30
0
41
1
10
112.62502104152
20
-6.74162490369213
30
0
0
SPLINE
5
D3
100
AcDbEntity
8
1
62
256
6
ByLayer
370
18
48
1
60
0
100
AcDbSpline
70
4
71
3
72
20
73
16
40
0
40
0
40
0
40
0
40
0.250000000000002
40
0.250000000000002
40
0.375000000000003
40
0.375000000000003
40
0.500000000000004
40
0.500000000000004
40
0.749999999999999
40
0.749999999999999
40
0.875
40
0.875
40
0.9375
40
0.9375
40
1
40
1
40
1
40
1
41
1
10
113.941676789087
20
3.41216088883971
30
0
41
1
10
113.833905374095
20
3.70071529030707
30
0
41
1
10
113.726021844075
20
3.98911206295071
30
0
41
1
10
113.564008485206
20
4.42092030093178
30
0
41
1
10
113.509969482892
20
4.56472403969963
30
0
41
1
10
113.401779583653
20
4.85190290738444
30
0
41
1
10
113.347603378152
20
4.99518109234876
30
0
41
1
10
113.185065088025
20
5.42497859264958
30
0
41
1
10
113.07671236732
20
5.71166122855601
30
0
41
1
10
112.914019751968
20
6.14010970537038
30
0
41
1
10
112.859759558472
20
6.28264908423213
30
0
41
1
10
112.778238435623
20
6.49522316813082
30
0
41
1
10
112.751043023389
20
6.56587631700708
30
0
41
1
10
112.696657369476
20
6.7072314218286
30
0
41
1
10
112.66946160776
20
6.77788127179966
30
0
41
1
10
112.642256038557
20
6.84843854473331
30
0
0
SPLINE
5
D4
100
AcDbEntity
8
1
62
256
6
ByLayer
370
13
48
1
60
0
100
AcDbSpline
70
4
71
3
72
16
73
12
40
0
40
0
40
0
40
0
40
0.355711622349378
40
0.355711622349378
40
0.508158500297969
40
0.508158500297969
40
0.66060537824656
40
0.66060537824656
40
0.965499134143742
40
0.965499134143742
40
1
40
1
40
1
40
1
41
1
10
10.2503871118206
20
6.21765421183511
30
0
41
1
10
10.2504011785452
20
6.31542631780715
30
0
41
1
10
10.2504108373958
20
6.39607308123894
30
0
41
1
10
10.2504205134464
20
6.48721756115464
30
0
41
1
10
10.2504228805299
20
6.51143192145855
30
0
41
1
10
10.2504267671291
20
6.55350654585052
30
0
41
1
10
10.2504282886605
20
6.57139440831838
30
0
41
1
10
10.2504318859632
20
6.61490298782249
30
0
41
1
10
10.2504330247178
20
6.63060543436839
30
0
41
1
10
10.2504339295192
20
6.63370845738066
30
0
41
1
10
10.2504340172758
20
6.63385850067843
30
0
41
1
10
10.2504341020042
20
6.63384304297176
30
0
0
SPLINE
5
D5
100
AcDbEntity
8
1
62
256
6
ByLayer
370
18
48
1
60
0
100
AcDbSpline
70
4
71
3
72
42
73
38
40
0
40
0
40
0
40
0
40
0.125000000000005
40
0.125000000000005
40
0.187500000000004
40
0.187500000000004
40
0.250000000000002
40
0.250000000000002
40
0.312500000000001
40
0.312500000000001
40
0.375
40
0.375
40
0.499999999999997
40
0.499999999999997
40
0.624999999999995
40
0.624999999999995
40
0.687499999999997
40
0.687499999999997
40
0.75
40
0.75
40
0.781250000000001
40
0.781250000000001
40
0.812500000000003
40
0.812500000000003
40
0.843750000000004
40
0.843750000000004
40
0.875000000000005
40
0.875000000000005
40
0.890625000000006
40
0.890625000000006
40
0.906250000000007
40
0.906250000000007
40
0.937500000000004
40
0.937500000000004
40
0.968750000000002
40
0.968750000000002
40
1
40
1
40
1
40
1
41
1
10
105.268219053121
20
3.74578377701661
30
0
41
1
10
105.539434498188
20
3.50093596478837
30
0
41
1
10
105.816335399883
20
3.26592647721603
30
0
41
1
10
106.241043809408
20
2.92960404370612
30
0
41
1
10
106.384322519689
20
2.82007555103164
30
0
41
1
10
106.672708661344
20
2.60761693998819
30
0
41
1
10
106.817934359803
20
2.50457518525255
30
0
41
1
10
107.110509077705
20
2.30504601662795
30
0
41
1
10
107.257863889338
20
2.20857648227349
30
0
41
1
10
107.554747779381
20
2.02234901565331
30
0
41
1
10
107.704528345092
20
1.93248664480765
30
0
41
1
10
108.155688999135
20
1.67457097991931
30
0
41
1
10
108.456939514214
20
1.51911003914449
30
0
41
1
10
109.060463040318
20
1.24353956667275
30
0
41
1
10
109.362736142057
20
1.12343317122549
30
0
41
1
10
109.817035940231
20
0.974049152378569
30
0
41
1
10
109.968617530502
20
0.929382587722216
30
0
41
1
10
110.272110692838
20
0.851458130823062
30
0
41
1
10
110.424580684691
20
0.818132570150823
30
0
41
1
10
110.651408181547
20
0.778584178031622
30
0
41
1
10
110.725795344515
20
0.770689245250907
30
0
41
1
10
110.872853704257
20
0.762324729279555
30
0
41
1
10
110.945609635051
20
0.762414909976883
30
0
41
1
10
111.086647596738
20
0.773646837790238
30
0
41
1
10
111.155431612429
20
0.784979342902005
30
0
41
1
10
111.283674212807
20
0.822155297573119
30
0
41
1
10
111.343572620511
20
0.847753713321623
30
0
41
1
10
111.424519451466
20
0.900927553589071
30
0
41
1
10
111.450208307797
20
0.921413782645402
30
0
41
1
10
111.496365706775
20
0.967468643382915
30
0
41
1
10
111.516908477669
20
0.992888767534765
30
0
41
1
10
111.568732649029
20
1.07839952189002
30
0
41
1
10
111.592843610887
20
1.14583317458201
30
0
41
1
10
111.619085790589
20
1.29055246040403
30
0
41
1
10
111.621485890975
20
1.36961988218559
30
0
41
1
10
111.608611754476
20
1.53013714649228
30
0
41
1
10
111.593553469014
20
1.61240764295283
30
0
41
1
10
111.572029683195
20
1.69618694136986
30
0
0
SPLINE
5
D6
100
AcDbEntity
8
1
62
256
6
ByLayer
370
18
48
1
60
0
100
AcDbSpline
70
4
71
3
72
8
73
4
40
0
40
0
40
0
40
0
40
1
40
1
40
1
40
1
41
1
10
112.546532436253
20
-6.95138538263316
30
0
41
1
10
112.572717879463
20
-6.88152959574973
30
0
41
1
10
112.598880748472
20
-6.81160943777701
30
0
41
1
10
112.62502104152
20
-6.74162490369213
30
0
0
SPLINE
5
D7
100
AcDbEntity
8
1
62
256
6
ByLayer
370
18
48
1
60
0
100
AcDbSpline
70
4
71
3
72
20
73
16
40
0
40
0
40
0
40
0
40
0.125000000000001
40
0.125000000000001
40
0.250000000000001
40
0.250000000000001
40
0.375000000000001
40
0.375000000000001
40
0.500000000000002
40
0.500000000000002
40
0.750000000000001
40
0.750000000000001
40
0.875000000000001
40
0.875000000000001
40
1
40
1
40
1
40
1
41
1
10
10.2509849486385
20
-1.81970908331257
30
0
41
1
10
10.5436465387178
20
-2.08533914254738
30
0
41
1
10
10.8469703524173
20
-2.33173817864775
30
0
41
1
10
11.4672678890152
20
-2.7980664847818
30
0
41
1
10
11.7843698891592
20
-3.01778137416107
30
0
41
1
10
12.428913241014
20
-3.43580804754822
30
0
41
1
10
12.7571513955442
20
-3.63448510958125
30
0
41
1
10
13.414488199666
20
-4.00899800516299
30
0
41
1
10
13.7444355398104
20
-4.18537033282178
30
0
41
1
10
14.7377026334943
20
-4.68552264163995
30
0
41
1
10
15.4042818201729
20
-4.98036722142226
30
0
41
1
10
16.4136883112246
20
-5.37290514044557
30
0
41
1
10
16.7518991757258
20
-5.49408170507996
30
0
41
1
10
17.4330370043148
20
-5.71685220745479
30
0
41
1
10
17.7759338926201
20
-5.81880888396384
30
0
41
1
10
18.1218593889161
20
-5.91151721194979
30
0
0
SPLINE
5
D8
100
AcDbEntity
8
1
62
256
6
ByLayer
370
18
48
1
60
0
100
AcDbSpline
70
4
71
3
72
10
73
6
40
0
40
0
40
0
40
0
40
0.602396534259027
40
0.602396534259027
40
1
40
1
40
1
40
1
41
1
10
112.546532436253
20
6.95138538263316
30
0
41
1
10
112.280123240651
20
6.97076076483984
30
0
41
1
10
112.01360105928
20
6.98423957027819
30
0
41
1
10
111.570738968458
20
6.99683465188178
30
0
41
1
10
111.394485075798
20
6.99927090366668
30
0
41
1
10
111.218306813175
20
6.99914285216639
30
0
0
SPLINE
5
D9
100
AcDbEntity
8
1
62
256
6
ByLayer
370
18
48
1
60
0
100
AcDbSpline
70
4
71
3
72
68
73
64
40
0
40
0
40
0
40
0
40
0.0034341904195781
40
0.0034341904195781
40
0.0448129518232584
40
0.0448129518232584
40
0.0861917132269386
40
0.0861917132269386
40
0.127570474630619
40
0.127570474630619
40
0.168949236034299
40
0.168949236034299
40
0.189638616736139
40
0.189638616736139
40
0.21032799743798
40
0.21032799743798
40
0.25170675884166
40
0.25170675884166
40
0.29308552024534
40
0.29308552024534
40
0.334464281649021
40
0.334464281649021
40
0.355153662350861
40
0.355153662350861
40
0.375843043052701
40
0.375843043052701
40
0.417221804456382
40
0.417221804456382
40
0.437911185158222
40
0.437911185158222
40
0.458600565860062
40
0.458600565860062
40
0.541358088667422
40
0.541358088667422
40
0.562047469369262
40
0.562047469369262
40
0.582736850071103
40
0.582736850071103
40
0.624115611474784
40
0.624115611474784
40
0.644804992176624
40
0.644804992176624
40
0.665494372878465
40
0.665494372878465
40
0.706873134282145
40
0.706873134282145
40
0.748251895685826
40
0.748251895685826
40
0.789630657089507
40
0.789630657089507
40
0.810320037791347
40
0.810320037791347
40
0.831009418493188
40
0.831009418493188
40
0.872388179896869
40
0.872388179896869
40
0.913766941300551
40
0.913766941300551
40
0.955145702704232
40
0.955145702704232
40
0.996524464107914
40
0.996524464107914
40
1
40
1
40
1
40
1
41
1
10
79.0917977427692
20
-6.68734497219583
30
0
41
1
10
79.0474643711804
20
-6.69518370914275
30
0
41
1
10
79.0031398400905
20
-6.7028653200843
30
0
41
1
10
78.424924525541
20
-6.80103317116868
30
0
41
1
10
77.8923570932006
20
-6.86889991516992
30
0
41
1
10
76.8270533102616
20
-6.95831656486632
30
0
41
1
10
76.2940311208072
20
-6.97981741252596
30
0
41
1
10
75.2247962357115
20
-6.97573309127213
30
0
41
1
10
74.6918727178987
20
-6.95016913960996
30
0
41
1
10
73.6265382487906
20
-6.85270293588354
30
0
41
1
10
73.093891462211
20
-6.7808551481541
30
0
41
1
10
72.2927730791519
20
-6.63905922669574
30
0
41
1
10
72.0252388626593
20
-6.58608731473274
30
0
41
1
10
71.4914221484986
20
-6.46930719821415
30
0
41
1
10
71.2248691582379
20
-6.40546356412568
30
0
41
1
10
70.4255434606138
20
-6.19808847753163
30
0
41
1
10
69.8930508459437
20
-6.03876023164293
30
0
41
1
10
68.8259018948543
20
-5.68023241346862
30
0
41
1
10
68.2908193690986
20
-5.48057390392898
30
0
41
1
10
67.2243657157093
20
-5.04704862931777
30
0
41
1
10
66.6918643348008
20
-4.81303738126266
30
0
41
1
10
65.8919990468537
20
-4.43875685230009
30
0
41
1
10
65.6252101072446
20
-4.31009748909651
30
0
41
1
10
65.0910242122575
20
-4.04526799350742
30
0
41
1
10
64.823617869165
20
-3.9091153967978
30
0
41
1
10
64.023046973865
20
-3.49206582907036
30
0
41
1
10
63.4903924428752
20
-3.20208680331885
30
0
41
1
10
62.6907899081526
20
-2.75246068385692
30
0
41
1
10
62.4241845241599
20
-2.60009494121084
30
0
41
1
10
61.890528402105
20
-2.29080836686566
30
0
41
1
10
61.6232129391408
20
-2.13376959871141
30
0
41
1
10
60.2873289675842
20
-1.34084330641821
30
0
41
1
10
59.2241596743448
20
-0.684164074029184
30
0
41
1
10
57.8881887582485
20
0.142212735945719
30
0
41
1
10
57.6208029595647
20
0.307578125260477
30
0
41
1
10
57.0870087468475
20
0.636759773321472
30
0
41
1
10
56.8203330069629
20
0.800702782160442
30
0
41
1
10
56.0206337862452
20
1.29005806516986
30
0
41
1
10
55.4880004985792
20
1.6130922050254
30
0
41
1
10
54.6872257733947
20
2.08871138910354
30
0
41
1
10
54.4197233171799
20
2.24592545492698
30
0
41
1
10
53.885321014051
20
2.55581198760211
30
0
41
1
10
53.6184297429167
20
2.70845349833752
30
0
41
1
10
52.8183395631605
20
3.1590022789577
30
0
41
1
10
52.2857546000496
20
3.44956907271526
30
0
41
1
10
51.2189105959566
20
4.00634267566278
30
0
41
1
10
50.6835321659088
20
4.27284243672673
30
0
41
1
10
49.6159704545994
20
4.77380018375419
30
0
41
1
10
49.0832618277653
20
5.0086453645817
30
0
41
1
10
48.2833302978471
20
5.33468194654634
30
0
41
1
10
48.0165621016624
20
5.43901415301386
30
0
41
1
10
47.482506632647
20
5.63865565854434
30
0
41
1
10
47.2149217504149
20
5.73400645915765
30
0
41
1
10
46.413458803225
20
6.00473283809387
30
0
41
1
10
45.880439222847
20
6.16506477983026
30
0
41
1
10
44.8141843270931
20
6.4435023157715
30
0
41
1
10
44.2808414006407
20
6.56153520951747
30
0
41
1
10
43.2109642101034
20
6.75322124903977
30
0
41
1
10
42.6774602549824
20
6.82627762566307
30
0
41
1
10
41.6110774737181
20
6.92613393541217
30
0
41
1
10
41.0780900840371
20
6.95294747556957
30
0
41
1
10
40.4988935334242
20
6.9565894957681
30
0
41
1
10
40.4539995887493
20
6.95670577095316
30
0
41
1
10
40.4090957854884
20
6.95665626078701
30
0
0
SPLINE
5
DA
100
AcDbEntity
8
1
62
256
6
ByLayer
370
18
48
1
60
0
100
AcDbSpline
70
4
71
3
72
81
73
77
40
0
40
0
40
0
40
0
40
0.0559422798299793
40
0.0559422798299793
40
0.0924154404542009
40
0.0924154404542009
40
0.128888601078423
40
0.128888601078423
40
0.201834922326866
40
0.201834922326866
40
0.238308082951087
40
0.238308082951087
40
0.274781243575309
40
0.274781243575309
40
0.347727564823753
40
0.347727564823753
40
0.384200725447974
40
0.384200725447974
40
0.420673886072196
40
0.420673886072196
40
0.425233031150224
40
0.425802924284977
40
0.426087870852354
40
0.426087870852354
40
0.426230344136042
40
0.426230344136042
40
0.426372817419731
40
0.426372817419731
40
0.426942710554484
40
0.426942710554484
40
0.427512603689237
40
0.427512603689237
40
0.429792176228251
40
0.429792176228251
40
0.438910466384305
40
0.438910466384305
40
0.457147046696414
40
0.457147046696414
40
0.493620207320632
40
0.493620207320632
40
0.566566528569068
40
0.566566528569068
40
0.639512849817504
40
0.639512849817504
40
0.675986010441721
40
0.675986010441721
40
0.69422259075383
40
0.69422259075383
40
0.703340880909885
40
0.703340880909885
40
0.707900025987912
40
0.707900025987912
40
0.710179598526926
40
0.710179598526926
40
0.711319384796432
40
0.711319384796432
40
0.711889277931186
40
0.711889277931186
40
0.712031751214874
40
0.712031751214874
40
0.712174224498562
40
0.712174224498562
40
0.712459171065939
40
0.785405492314373
40
0.785405492314373
40
0.858351813562807
40
0.858351813562807
40
0.894824974187024
40
0.894824974187024
40
0.931298134811241
40
0.931298134811241
40
0.967771295435457
40
0.967771295435457
40
0.986007875747566
40
0.986007875747566
40
1
40
1
40
1
40
1
41
1
10
23.8315808471165
20
-1.27098763225689
30
0
41
1
10
23.5553098880158
20
-1.11486368329972
30
0
41
1
10
23.2794776038359
20
-0.967424828117402
30
0
41
1
10
22.8216786668868
20
-0.744262058048633
30
0
41
1
10
22.6398940870893
20
-0.661342158632294
30
0
41
1
10
22.2821652461719
20
-0.51171393383558
30
0
41
1
10
22.105207774427
20
-0.444475244527808
30
0
41
1
10
21.5775429596972
20
-0.266616586917365
30
0
41
1
10
21.2300052648519
20
-0.179892708497448
30
0
41
1
10
20.7051189550807
20
-0.100745352690126
30
0
41
1
10
20.5289609215735
20
-0.0828577258993164
30
0
41
1
10
20.1793917306952
20
-0.06459903928004
30
0
41
1
10
20.0054595993935
20
-0.0640861110972253
30
0
41
1
10
19.4840377442224
20
-0.0873051401447924
30
0
41
1
10
19.1368625514496
20
-0.135698130013964
30
0
41
1
10
18.6097504826577
20
-0.254940278621348
30
0
41
1
10
18.432597404352
20
-0.302630610661509
30
0
41
1
10
18.0780648817846
20
-0.412483294096802
30
0
41
1
10
17.9004075054484
20
-0.474693072249323
30
0
41
1
10
17.7001231931036
20
-0.552325788545573
30
0
41
1
10
17.6750826432346
20
-0.562148722382091
30
0
41
1
10
17.6486449141931
20
-0.572657203543258
30
0
41
1
10
17.6444703899961
20
-0.574320107557327
30
0
41
1
10
17.6423831027439
20
-0.575152171218093
30
0
41
1
10
17.6415395629808
20
-0.575397256582988
30
0
41
1
10
17.6411743747495
20
-0.576518785207782
30
0
41
1
10
17.641453877799
20
-0.577145244073222
30
0
41
1
10
17.6430732596844
20
-0.579991087909775
30
0
41
1
10
17.6453801791129
20
-0.581985637751217
30
0
41
1
10
17.6498148614164
20
-0.585891971658128
30
0
41
1
10
17.6521655876603
20
-0.587784547478293
30
0
41
1
10
17.6641134577528
20
-0.59707879735538
30
0
41
1
10
17.6743071836253
20
-0.60408572056005
30
0
41
1
10
17.7257091468698
20
-0.638837775527207
30
0
41
1
10
17.768625484135
20
-0.665273637140132
30
0
41
1
10
17.8975369880995
20
-0.744482344648247
30
0
41
1
10
17.98468588726
20
-0.796410685312793
30
0
41
1
10
18.2468378458088
20
-0.9518964353596
30
0
41
1
10
18.4229340278603
20
-1.05492783931677
30
0
41
1
10
18.9523291096134
20
-1.3645524816821
30
0
41
1
10
19.3067888358086
20
-1.57151555367494
30
0
41
1
10
20.0150742966466
20
-1.99139323295117
30
0
41
1
10
20.3699176785906
20
-2.20293263937236
30
0
41
1
10
20.8999156159546
20
-2.52683994461359
30
0
41
1
10
21.0762900591071
20
-2.63581517809655
30
0
41
1
10
21.3395065739092
20
-2.80230438283979
30
0
41
1
10
21.4270270537257
20
-2.85825776264537
30
0
41
1
10
21.557307202553
20
-2.94394997687706
30
0
41
1
10
21.6005921362012
20
-2.97278392240423
30
0
41
1
10
21.664744866367
20
-3.01719544919123
30
0
41
1
10
21.6860175830475
20
-3.0321690592516
30
0
41
1
10
21.7173437898933
20
-3.05549355934679
30
0
41
1
10
21.727716176448
20
-3.06339423254394
30
0
41
1
10
21.7427552510434
20
-3.07593637101931
30
0
41
1
10
21.7477077406482
20
-3.08018872631806
30
0
41
1
10
21.7545593602769
20
-3.08724761456156
30
0
41
1
10
21.7569764467208
20
-3.08963400004797
30
0
41
1
10
21.7586372806613
20
-3.09342301728765
30
0
41
1
10
21.7589289078026
20
-3.09430400714285
30
0
41
1
10
21.7583180216499
20
-3.0959181272392
30
0
41
1
10
21.7575362415015
20
-3.09642913989893
30
0
41
1
10
21.7557475910858
20
-3.09828568214218
30
0
41
1
10
21.4493063492932
20
-3.41636015288114
30
0
41
1
10
21.1459073730877
20
-3.73245995600624
30
0
41
1
10
20.5516093734369
20
-4.32898822099617
30
0
41
1
10
20.258500097843
20
-4.61223755433289
30
0
41
1
10
19.8097327825144
20
-4.99928940169366
30
0
41
1
10
19.6577343313422
20
-5.1224413897601
30
0
41
1
10
19.3527431849646
20
-5.34748917002543
30
0
41
1
10
19.1993560502004
20
-5.44980161565161
30
0
41
1
10
18.8870432372146
20
-5.6306065861726
30
0
41
1
10
18.7281074485841
20
-5.7090800515181
30
0
41
1
10
18.4824631567444
20
-5.80626592995273
30
0
41
1
10
18.3990379974215
20
-5.83532572809915
30
0
41
1
10
18.2511010452095
20
-5.87972584477836
30
0
41
1
10
18.1866368036147
20
-5.89673290070741
30
0
41
1
10
18.1218717320886
20
-5.9115247578402
30
0
0
SPLINE
5
DB
100
AcDbEntity
8
1
62
256
6
ByLayer
370
18
48
1
60
0
100
AcDbSpline
70
2053
71
3
72
60
73
56
40
0
40
0
40
0
40
0
40
0.0312499999999988
40
0.0312499999999988
40
0.0624999999999977
40
0.0624999999999977
40
0.0937499999999965
40
0.0937499999999965
40
0.124999999999995
40
0.124999999999995
40
0.156249999999994
40
0.156249999999994
40
0.187499999999993
40
0.187499999999993
40
0.249999999999991
40
0.249999999999991
40
0.281249999999991
40
0.281249999999991
40
0.312499999999991
40
0.312499999999991
40
0.374999999999992
40
0.374999999999992
40
0.437499999999993
40
0.437499999999993
40
0.468749999999993
40
0.468749999999993
40
0.499999999999994
40
0.499999999999994
40
0.531249999999994
40
0.531249999999994
40
0.562499999999994
40
0.562499999999994
40
0.593749999999995
40
0.593749999999995
40
0.624999999999995
40
0.624999999999995
40
0.656249999999996
40
0.656249999999996
40
0.687499999999996
40
0.687499999999996
40
0.749999999999997
40
0.749999999999997
40
0.781249999999997
40
0.781249999999997
40
0.812499999999998
40
0.812499999999998
40
0.843749999999998
40
0.843749999999998
40
0.874999999999999
40
0.874999999999999
40
0.906249999999999
40
0.906249999999999
40
0.937499999999999
40
0.937499999999999
40
1
40
1
40
1
40
1
41
1
10
113.294200623281
20
-3.48932801311901
30
0
41
1
10
113.323093532096
20
-3.44808760184651
30
0
41
1
10
113.351389130697
20
-3.40389067905565
30
0
41
1
10
113.406681604496
20
-3.30906853108584
30
0
41
1
10
113.433979582702
20
-3.2578147843808
30
0
41
1
10
113.485331388412
20
-3.15093652814502
30
0
41
1
10
113.509323459485
20
-3.09559208629483
30
0
41
1
10
113.553414447868
20
-2.98049796484921
30
0
41
1
10
113.57296494759
20
-2.92199964814824
30
0
41
1
10
113.605433429825
20
-2.80703542430055
30
0
41
1
10
113.618690175471
20
-2.74906635728715
30
0
41
1
10
113.637050868901
20
-2.64077939644858
30
0
41
1
10
113.642415366266
20
-2.58943766953354
30
0
41
1
10
113.646954354352
20
-2.44883789190129
30
0
41
1
10
113.634535834537
20
-2.37500125330698
30
0
41
1
10
113.59981747716
20
-2.29665583994196
30
0
41
1
10
113.585450728979
20
-2.27562902749497
30
0
41
1
10
113.552863662221
20
-2.24391648417856
30
0
41
1
10
113.534539926784
20
-2.23297002310176
30
0
41
1
10
113.474026646907
20
-2.21370951530895
30
0
41
1
10
113.428031699848
20
-2.21911744303861
30
0
41
1
10
113.326786380985
20
-2.26209695070085
30
0
41
1
10
113.273359204799
20
-2.29885935920893
30
0
41
1
10
113.188942137331
20
-2.37729058534722
30
0
41
1
10
113.160256284103
20
-2.40729565926938
30
0
41
1
10
113.103266931622
20
-2.47371083807829
30
0
41
1
10
113.074751801468
20
-2.51030360603704
30
0
41
1
10
113.017676243019
20
-2.59098610804685
30
0
41
1
10
112.988796064561
20
-2.63563674138334
30
0
41
1
10
112.933037855106
20
-2.73059799586798
30
0
41
1
10
112.906096249981
20
-2.78088155302734
30
0
41
1
10
112.854390235427
20
-2.88795803219455
30
0
41
1
10
112.829906324788
20
-2.94432121656055
30
0
41
1
10
112.786019361423
20
-3.05872469121877
30
0
41
1
10
112.766113749925
20
-3.11823759127367
30
0
41
1
10
112.733551826821
20
-3.23383850731588
30
0
41
1
10
112.720543113525
20
-3.29087041697216
30
0
41
1
10
112.702039145396
20
-3.4003787839201
30
0
41
1
10
112.69677648568
20
-3.45114057221176
30
0
41
1
10
112.692115093354
20
-3.59229078542603
30
0
41
1
10
112.704399122413
20
-3.66696182797713
30
0
41
1
10
112.73873311594
20
-3.74611856231846
30
0
41
1
10
112.752918731322
20
-3.7674352087744
30
0
41
1
10
112.785477386672
20
-3.79993852985558
30
0
41
1
10
112.803712280755
20
-3.8111104610978
30
0
41
1
10
112.843679077707
20
-3.82437058297248
30
0
41
1
10
112.865536731732
20
-3.82638154472491
30
0
41
1
10
112.911355973168
20
-3.8217161436464
30
0
41
1
10
112.935439386281
20
-3.81511651917802
30
0
41
1
10
112.985867352635
20
-3.7936976626147
30
0
41
1
10
113.012363234101
20
-3.77873261975938
30
0
41
1
10
113.066161767786
20
-3.74136825519454
30
0
41
1
10
113.093610297565
20
-3.71894272691864
30
0
41
1
10
113.177632830086
20
-3.64023741071094
30
0
41
1
10
113.236414805651
20
-3.571808835664
30
0
41
1
10
113.294200623281
20
-3.48932801311901
30
0
0
SPLINE
5
DC
100
AcDbEntity
8
1
62
256
6
ByLayer
370
18
48
1
60
0
100
AcDbSpline
70
4
71
3
72
14
73
10
40
0
40
0
40
0
40
0
40
0.25
40
0.25
40
0.5
40
0.5
40
0.75
40
0.75
40
1
40
1
40
1
40
1
41
1
10
10.0000002091377
20
-1.89598756452645
30
0
41
1
10
10.0000002091377
20
-1.86369201325661
30
0
41
1
10
10.0043779411062
20
-1.83298595625433
30
0
41
1
10
10.026965400631
20
-1.77979675334768
30
0
41
1
10
10.0457780007451
20
-1.75796354546381
30
0
41
1
10
10.0989219425712
20
-1.73987085563579
30
0
41
1
10
10.1316729536427
20
-1.74493034579811
30
0
41
1
10
10.193847119604
20
-1.77296914350646
30
0
41
1
10
10.223474021474
20
-1.79473918813073
30
0
41
1
10
10.2509849402566
20
-1.81970907570434
30
0
0
SPLINE
5
DD
100
AcDbEntity
8
1
62
256
6
ByLayer
370
18
48
1
60
0
100
AcDbSpline
70
4
71
3
72
8
73
4
40
0
40
0
40
0
40
0
40
1
40
1
40
1
40
1
41
1
10
10.0000002091377
20
-1.95830913287048
30
0
41
1
10
10.0000002091377
20
-1.93760185835075
30
0
41
1
10
10.0000002091377
20
-1.91682789794388
30
0
41
1
10
10.0000002091377
20
-1.89598756452651
30
0
0
SPLINE
5
DE
100
AcDbEntity
8
SK1
62
256
6
ByLayer
370
18
48
1
60
0
100
AcDbSpline
70
4
71
3
72
14
73
10
40
0
40
0
40
0
40
0
40
0.25
40
0.25
40
0.5
40
0.5
40
0.75
40
0.75
40
1
40
1
40
1
40
1
41
1
10
-45
20
2.43111693798008
30
0
41
1
10
-45
20
2.42960534948489
30
0
41
1
10
-45
20
2.42147662840225
30
0
41
1
10
-45
20
2.39190519920541
30
0
41
1
10
-45
20
2.37088491139804
30
0
41
1
10
-45
20
2.31668101788492
30
0
41
1
10
-45
20
2.28308173830914
30
0
41
1
10
-45
20
2.20651088900999
30
0
41
1
10
-45
20
2.16332429474593
30
0
41
1
10
-45
20
2.11505147901576
30
0
0
SPLINE
5
DF
100
AcDbEntity
8
SK1
62
256
6
ByLayer
370
18
48
1
60
0
100
AcDbSpline
70
4
71
3
72
8
73
4
40
0
40
0
40
0
40
0
40
1
40
1
40
1
40
1
41
1
10
-45
20
0.0426193548180152
30
0
41
1
10
-44.9861720353187
20
0.0349957791889608
30
0
41
1
10
-44.9723342692865
20
0.0273737163805947
30
0
41
1
10
-44.9584870316789
20
0.0197531222735279
30
0
0
SPLINE
5
E0
100
AcDbEntity
8
SK1
62
256
6
ByLayer
370
18
48
1
60
0
100
AcDbSpline
70
4
71
3
72
10
73
6
40
0
40
0
40
0
40
0
40
0.5
40
0.5
40
1
40
1
40
1
40
1
41
1
10
-43.4
20
3.20367561272957
30
0
41
1
10
-43.6546302957082
20
3.06799256861959
30
0
41
1
10
-43.908637868078
20
2.93220155207558
30
0
41
1
10
-44.4141736669069
20
2.66020598291053
30
0
41
1
10
-44.6657859193823
20
2.52401432462565
30
0
41
1
10
-44.9146041230418
20
2.3873539309769
30
0
0
SPLINE
5
E1
100
AcDbEntity
8
SK1
62
256
6
ByLayer
370
18
48
1
60
0
100
AcDbSpline
70
4
71
3
72
26
73
22
40
0
40
0
40
0
40
0
40
0.125
40
0.125
40
0.25
40
0.25
40
0.374999999999999
40
0.374999999999999
40
0.437499999999999
40
0.437499999999999
40
0.499999999999999
40
0.499999999999999
40
0.562499999999999
40
0.562499999999999
40
0.624999999999999
40
0.624999999999999
40
0.75
40
0.75
40
0.875
40
0.875
40
1
40
1
40
1
40
1
41
1
10
-44.9999999999996
20
2.11505147901562
30
0
41
1
10
-44.954092233972
20
2.12230826248341
30
0
41
1
10
-44.9089960485943
20
2.13005998440957
30
0
41
1
10
-44.821182698761
20
2.14701426244275
30
0
41
1
10
-44.778431603551
20
2.15619612604655
30
0
41
1
10
-44.6969149451062
20
2.17699041028086
30
0
41
1
10
-44.6588279071157
20
2.18841552724737
30
0
41
1
10
-44.6108930326089
20
2.2078484640881
30
0
41
1
10
-44.596718117707
20
2.21461896676067
30
0
41
1
10
-44.5731700322999
20
2.22893974530655
30
0
41
1
10
-44.5637045878649
20
2.23661727785478
30
0
41
1
10
-44.5521015780944
20
2.25236870074039
30
0
41
1
10
-44.5499234157519
20
2.26047713654359
30
0
41
1
10
-44.5537617083829
20
2.27666225667176
30
0
41
1
10
-44.5596338073056
20
2.28450446631541
30
0
41
1
10
-44.5876808846858
20
2.30737048770288
30
0
41
1
10
-44.6189463504375
20
2.32076249154645
30
0
41
1
10
-44.6918532646972
20
2.34421228681566
30
0
41
1
10
-44.7331637560982
20
2.35424151740764
30
0
41
1
10
-44.8213463658135
20
2.37235832717752
30
0
41
1
10
-44.8675272700891
20
2.38025575675519
30
0
41
1
10
-44.9146041230418
20
2.38735393097693
30
0
0
SPLINE
5
E2
100
AcDbEntity
8
SK1
62
256
6
ByLayer
370
18
48
1
60
0
100
AcDbSpline
70
4
71
3
72
14
73
10
40
0
40
0
40
0
40
0
40
0.125
40
0.125
40
0.250000000000001
40
0.250000000000001
40
0.500000000000003
40
0.500000000000003
40
1
40
1
40
1
40
1
41
1
10
-43.3
20
3.16692384284869
30
0
41
1
10
-43.3
20
3.17646218157023
30
0
41
1
10
-43.3017012565589
20
3.18445503160717
30
0
41
1
10
-43.3069010451286
20
3.19714609663904
30
0
41
1
10
-43.3102603620514
20
3.20179776810809
30
0
41
1
10
-43.3216024497887
20
3.21293640702899
30
0
41
1
10
-43.3304674144333
20
3.21631368849427
30
0
41
1
10
-43.3586594529452
20
3.22036633370251
30
0
41
1
10
-43.3789281721554
20
3.21490400854543
30
0
41
1
10
-43.4
20
3.20367561272957
30
0
0
SPLINE
5
E3
100
AcDbEntity
8
SK1
62
256
6
ByLayer
370
18
48
1
60
0
100
AcDbSpline
70
4
71
3
72
8
73
4
40
0
40
0
40
0
40
0
40
1
40
1
40
1
40
1
41
1
10
-44.9146041230418
20
2.38735393097693
30
0
41
1
10
-44.9406545363152
20
2.40946042613757
30
0
41
1
10
-44.969275861472
20
2.42407610511077
30
0
41
1
10
-45
20
2.43111693798008
30
0
0
SPLINE
5
E4
100
AcDbEntity
8
SK1
62
256
6
ByLayer
370
18
48
1
60
0
100
AcDbSpline
70
4
71
3
72
10
73
6
40
0
40
0
40
0
40
0
40
0.5
40
0.5
40
1
40
1
40
1
40
1
41
1
10
-45
20
-0.0426193548180152
30
0
41
1
10
-44.737713827477
20
0.101983160357975
30
0
41
1
10
-44.4719013472695
20
0.246041396348488
30
0
41
1
10
-43.9377246739738
20
0.533671468803107
30
0
41
1
10
-43.6692078212184
20
0.677241057797886
30
0
41
1
10
-43.4
20
0.820691924787326
30
0
0
SPLINE
5
E5
100
AcDbEntity
8
SK1
62
256
6
ByLayer
370
18
48
1
60
0
100
AcDbSpline
70
4
71
3
72
14
73
10
40
0
40
0
40
0
40
0
40
0.499999999999999
40
0.499999999999999
40
0.750000000000003
40
0.750000000000003
40
0.875000000000001
40
0.875000000000001
40
1
40
1
40
1
40
1
41
1
10
-43.4
20
0.820691924787241
30
0
41
1
10
-43.3790445776494
20
0.831858292431093
30
0
41
1
10
-43.3587362712602
20
0.84865436075728
30
0
41
1
10
-43.3304966181166
20
0.885089045086346
30
0
41
1
10
-43.3215144183093
20
0.89913181141057
30
0
41
1
10
-43.3103236218556
20
0.924019399158055
30
0
41
1
10
-43.3069030532022
20
0.933146655221691
30
0
41
1
10
-43.3017205322972
20
0.95306420362283
30
0
41
1
10
-43.3
20
0.963880758573566
30
0
41
1
10
-43.3
20
0.974578849941821
30
0
0
LINE
5
76
100
AcDbEntity
8
81
62
256
6
ByLayer
370
18
48
1
60
0
100
AcDbLine
10
115
20
0
30
0
11
120
21
0
31
0
39
0
210
0
220
0
230
1
0
LINE
5
77
100
AcDbEntity
8
1
62
256
6
ByLayer
370
18
48
1
60
0
100
AcDbLine
10
10
20
6.938414
30
0
11
0.8
21
6.932894
31
0
39
0
210
0
220
0
230
1
0
LINE
5
79
100
AcDbEntity
8
1
62
256
6
ByLayer
370
18
48
1
60
0
100
AcDbLine
10
40.417643
20
6.956665
30
0
11
39.476996
21
6.9561
31
0
39
0
210
0
220
0
230
1
0
LINE
5
7A
100
AcDbEntity
8
1
62
256
6
ByLayer
370
18
48
1
60
0
100
AcDbLine
10
75.817496
20
6.977905
30
0
11
74.884734
21
6.977345
31
0
39
0
210
0
220
0
230
1
0
LINE
5
7B
100
AcDbEntity
8
1
62
256
6
ByLayer
370
18
48
1
60
0
100
AcDbLine
10
111.220805
20
6.999147
30
0
11
110.289595
21
6.998588
31
0
39
0
210
0
220
0
230
1
0
LINE
5
7C
100
AcDbEntity
8
1
62
256
6
ByLayer
370
18
48
1
60
0
100
AcDbLine
10
110.289595
20
-6.998588
30
0
11
111.220356
21
-6.999146
31
0
39
0
210
0
220
0
230
1
0
LINE
5
7D
100
AcDbEntity
8
1
62
256
6
ByLayer
370
18
48
1
60
0
100
AcDbLine
10
74.884734
20
-6.977345
30
0
11
75.817959
21
-6.977905
31
0
39
0
210
0
220
0
230
1
0
LINE
5
7E
100
AcDbEntity
8
1
62
256
6
ByLayer
370
18
48
1
60
0
100
AcDbLine
10
39.476996
20
-6.9561
30
0
11
40.41763
21
-6.956665
31
0
39
0
210
0
220
0
230
1
0
LINE
5
7F
100
AcDbEntity
8
1
62
256
6
ByLayer
370
18
48
1
60
0
100
AcDbLine
10
0.8
20
-6.932894
30
0
11
10
21
-6.938414
31
0
39
0
210
0
220
0
230
1
0
LINE
5
80
100
AcDbEntity
8
1
62
256
6
ByLayer
370
18
48
1
60
0
100
AcDbLine
10
0
20
-7
30
0
11
0.8
21
-6.932894
31
0
39
0
210
0
220
0
230
1
0
LINE
5
81
100
AcDbEntity
8
1
62
256
6
ByLayer
370
18
48
1
60
0
100
AcDbLine
10
0.8
20
6.932894
30
0
11
0
21
7
31
0
39
0
210
0
220
0
230
1
0
LINE
5
82
100
AcDbEntity
8
SK1
62
256
6
ByLayer
370
18
48
1
60
0
100
AcDbLine
10
0
20
7
30
0
11
-43.267949
21
7
31
0
39
0
210
0
220
0
230
1
0
LINE
5
84
100
AcDbEntity
8
SK1
62
256
6
ByLayer
370
18
48
1
60
0
100
AcDbLine
10
-43.267949
20
-7
30
0
11
0
21
-7
31
0
39
0
210
0
220
0
230
1
0
LINE
5
85
100
AcDbEntity
8
SK1
62
256
6
ByLayer
370
18
48
1
60
0
100
AcDbLine
10
-43.267949
20
7
30
0
11
-45
21
4
31
0
39
0
210
0
220
0
230
1
0
LINE
5
86
100
AcDbEntity
8
SK1
62
256
6
ByLayer
370
18
48
1
60
0
100
AcDbLine
10
-45
20
-4
30
0
11
-43.267949
21
-7
31
0
39
0
210
0
220
0
230
1
0
LINE
5
87
100
AcDbEntity
8
SK4
62
256
6
ByLayer
370
18
48
0.05
60
0
100
AcDbLine
10
120
20
0
30
0
11
-50
21
0
31
0
39
0
210
0
220
0
230
1
0
LINE
5
89
100
AcDbEntity
8
4
62
256
6
ByLayer
370
18
48
0.05
60
0
100
AcDbLine
10
115
20
0
30
0
11
0
21
0
31
0
39
0
210
0
220
0
230
1
0
LINE
5
8B
100
AcDbEntity
8
80
62
256
6
ByLayer
370
18
48
1
60
0
100
AcDbLine
10
0
20
0
30
0
11
-5
21
0
31
0
39
0
210
0
220
0
230
1
0
LINE
5
8C
100
AcDbEntity
8
1
62
256
6
ByLayer
370
18
48
1
60
0
100
AcDbLine
10
115
20
0
30
0
11
112.563223
21
-6.694991
31
0
39
0
210
0
220
0
230
1
0
LINE
5
8D
100
AcDbEntity
8
1
62
256
6
ByLayer
370
18
48
1
60
0
100
AcDbLine
10
114.985243
20
0.066203
30
0
11
115
21
0
31
0
39
0
210
0
220
0
230
1
0
LINE
5
8E
100
AcDbEntity
8
1
62
256
6
ByLayer
370
13
48
1
60
0
100
AcDbLine
10
114.672346
20
1.185346
30
0
11
113.174951
21
1.185346
31
0
39
0
210
0
220
0
230
1
0
LINE
5
8F
100
AcDbEntity
8
1
62
256
6
ByLayer
370
18
48
1
60
0
100
AcDbLine
10
10
20
6.938414
30
0
11
10
21
6.329689
31
0
39
0
210
0
220
0
230
1
0
LINE
5
90
100
AcDbEntity
8
1
62
256
6
ByLayer
370
13
48
1
60
0
100
AcDbLine
10
113.005492
20
0.838922
30
0
11
114.893837
21
-0.096038
31
0
39
0
210
0
220
0
230
1
0
LINE
5
91
100
AcDbEntity
8
1
62
256
6
ByLayer
370
18
48
1
60
0
100
AcDbLine
10
115
20
0
30
0
11
114.985243
21
-0.066203
31
0
39
0
210
0
220
0
230
1
0
LINE
5
92
100
AcDbEntity
8
1
62
256
6
ByLayer
370
18
48
1
60
0
100
AcDbLine
10
0.8
20
6.932894
30
0
11
0.8
21
-6.932894
31
0
39
0
210
0
220
0
230
1
0
LINE
5
93
100
AcDbEntity
8
1
62
256
6
ByLayer
370
18
48
1
60
0
100
AcDbLine
10
10
20
-6.938414
30
0
11
10
21
-1.958309
31
0
39
0
210
0
220
0
230
1
0
LINE
5
94
100
AcDbEntity
8
1
62
256
6
ByLayer
370
18
48
1
60
0
100
AcDbLine
10
111.472415
20
-3.909151
30
0
11
114.893837
21
-0.096038
31
0
39
0
210
0
220
0
230
1
0
LINE
5
95
100
AcDbEntity
8
1
62
256
6
ByLayer
370
18
48
1
60
0
100
AcDbLine
10
114.904268
20
0.329125
30
0
11
114.672346
21
1.185346
31
0
39
0
210
0
220
0
230
1
0
LINE
5
96
100
AcDbEntity
8
1
62
256
6
ByLayer
370
13
48
1
60
0
100
AcDbLine
10
113.174951
20
1.185346
30
0
11
114.904268
21
0.329125
31
0
39
0
210
0
220
0
230
1
0
LINE
5
97
100
AcDbEntity
8
1
62
256
6
ByLayer
370
18
48
1
60
0
100
AcDbLine
10
0
20
-7
30
0
11
0
21
7
31
0
39
0
210
0
220
0
230
1
0
LINE
5
98
100
AcDbEntity
8
1
62
256
6
ByLayer
370
18
48
1
60
0
100
AcDbLine
10
114.904268
20
-0.329125
30
0
11
114.672346
21
-1.185346
31
0
39
0
210
0
220
0
230
1
0
LINE
5
99
100
AcDbEntity
8
SK1
62
256
6
ByLayer
370
18
48
1
60
0
100
AcDbLine
10
-45
20
4
30
0
11
-45
21
2.431117
31
0
39
0
210
0
220
0
230
1
0
LINE
5
9A
100
AcDbEntity
8
SK1
62
256
6
ByLayer
370
18
48
1
60
0
100
AcDbLine
10
-43.267949
20
7
30
0
11
-43.267949
21
-7
31
0
39
0
210
0
220
0
230
1
0
LINE
5
9B
100
AcDbEntity
8
SK1
62
256
6
ByLayer
370
18
48
1
60
0
100
AcDbLine
10
-45
20
-0.042619
30
0
11
-45
21
-4
31
0
39
0
210
0
220
0
230
1
0
LINE
5
9C
100
AcDbEntity
8
SK1
62
256
6
ByLayer
370
18
48
1
60
0
100
AcDbLine
10
-45
20
2.115051
30
0
11
-45
21
0.042619
31
0
39
0
210
0
220
0
230
1
0
LINE
5
9D
100
AcDbEntity
8
SK1
62
256
6
ByLayer
370
13
48
1
60
0
100
AcDbLine
10
-43.4
20
3.203676
30
0
11
-43.4
21
0.820747
31
0
39
0
210
0
220
0
230
1
0
LINE
5
9E
100
AcDbEntity
8
SK1
62
256
6
ByLayer
370
18
48
1
60
0
100
AcDbLine
10
0
20
-7
30
0
11
0
21
7
31
0
39
0
210
0
220
0
230
1
0
LINE
5
9F
100
AcDbEntity
8
SK1
62
256
6
ByLayer
370
18
48
1
60
0
100
AcDbLine
10
-43.3
20
0.974579
30
0
11
-43.3
21
3.166924
31
0
39
0
210
0
220
0
230
1
0
MTEXT
5
E6
100
AcDbEntity
8
SK6
62
256
6
ByLayer
370
13
48
1
60
0
100
AcDbMText
10
37.129169
20
39.382694
30
0
210
0
220
0
230
1
1
\W0.7470;R840-1400-70-A1A1220
40
3.5
41
0
44
1.084337
50
0
71
8
72
5
7
iso_b_vert
0
DIMENSION
5
F3
100
AcDbEntity
8
SK2
62
256
6
ByLayer
370
13
48
1
60
0
100
AcDbDimension
2
DimnDraft3D1
10
112.6
20
-17.213398
30
0
11
54.350059
21
-17.213398
31
0
70
32
71
5
72
1
41
1
210
0
220
0
230
1
3
Standard
100
AcDbAlignedDimension
13
0
23
-1.5875
33
0
14
112.6
24
-8.5875
34
0
50
0
100
AcDbRotatedDimension
1001
ACAD
1000
DSTYLE
1002
{
1070
   279
1070
     0
1070
   172
1070
     1
1070
   173
1070
     1
1070
   340
1005
E7
1070
   271
1070
     2
1070
   272
1070
     2
1070
    77
1070
     1
1070
    73
1070
     0
1070
   171
1070
     3
1070
   274
1070
     4
1070
   177
1070
    35
1070
   176
1070
    35
1070
   178
1070
    35
1070
    48
1040
-0.005
1070
    41
1041
3.5
1070
   147
1041
1.75
1070
    42
1041
1.5875
1070
    44
1041
2.0
1070
   140
1041
3.5
1070
   343
1005
0
1070
   344
1005
0
1002
}
0
DIMENSION
5
FD
100
AcDbEntity
8
SK2
62
256
6
ByLayer
370
13
48
1
60
0
100
AcDbDimension
2
DimnDraft3D2
10
115
20
-35.692985
30
0
11
33.9413
21
-35.692985
31
0
70
32
71
5
72
1
41
1
210
0
220
0
230
1
3
Standard
100
AcDbAlignedDimension
13
-45
23
-8.5875
33
0
14
115
24
-1.5875
34
0
50
0
100
AcDbRotatedDimension
1001
ACAD
1000
DSTYLE
1002
{
1070
   279
1070
     0
1070
   172
1070
     1
1070
   173
1070
     1
1070
   340
1005
E7
1070
   271
1070
     2
1070
   272
1070
     2
1070
    77
1070
     1
1070
    73
1070
     0
1070
   171
1070
     3
1070
   274
1070
     4
1070
   177
1070
    35
1070
   176
1070
    35
1070
   178
1070
    35
1070
    48
1040
-0.005
1070
    41
1041
3.5
1070
   147
1041
1.75
1070
    42
1041
1.5875
1070
    44
1041
2.0
1070
   140
1041
3.5
1070
   343
1005
0
1070
   344
1005
0
1002
}
0
DIMENSION
5
107
100
AcDbEntity
8
SK2
62
256
6
ByLayer
370
13
48
1
60
0
100
AcDbDimension
2
DimnDraft3D3
10
115
20
18.609119
30
0
11
57.8
21
18.609119
31
0
70
32
71
5
72
1
41
1
210
0
220
0
230
1
3
Standard
100
AcDbAlignedDimension
13
0.6
23
8.5875
33
0
14
115
24
1.5875
34
0
50
0
100
AcDbRotatedDimension
1001
ACAD
1000
DSTYLE
1002
{
1070
   279
1070
     0
1070
   172
1070
     1
1070
   173
1070
     1
1070
   340
1005
E7
1070
   271
1070
     2
1070
   272
1070
     2
1070
    77
1070
     1
1070
    73
1070
     0
1070
   171
1070
     3
1070
   274
1070
     4
1070
   177
1070
    35
1070
   176
1070
    35
1070
   178
1070
    35
1070
    48
1040
-0.005
1070
    41
1041
3.5
1070
   147
1041
1.75
1070
    42
1041
1.5875
1070
    44
1041
2.0
1070
   140
1041
3.5
1070
   343
1005
0
1070
   344
1005
0
1002
}
0
DIMENSION
5
111
100
AcDbEntity
8
SK2
62
256
6
ByLayer
370
13
48
1
60
0
100
AcDbDimension
2
DimnDraft3D4
10
112.6
20
-19.802503
30
0
11
124.981425
21
-19.802503
31
0
70
32
71
5
72
1
41
1
210
0
220
0
230
1
3
Standard
100
AcDbAlignedDimension
13
115
23
-1.5875
33
0
14
112.6
24
-8.5875
34
0
50
0
100
AcDbRotatedDimension
1001
ACAD
1000
DSTYLE
1002
{
1070
   279
1070
     0
1070
   172
1070
     1
1070
   173
1070
     1
1070
   340
1005
E7
1070
   271
1070
     2
1070
   272
1070
     2
1070
    77
1070
     1
1070
    73
1070
     0
1070
   171
1070
     3
1070
   274
1070
     4
1070
   177
1070
    35
1070
   176
1070
    35
1070
   178
1070
    35
1070
    48
1040
-0.005
1070
    41
1041
3.5
1070
   147
1041
1.75
1070
    42
1041
1.5875
1070
    44
1041
2.0
1070
   140
1041
3.5
1070
   343
1005
0
1070
   344
1005
0
1002
}
0
DIMENSION
5
11B
100
AcDbEntity
8
SK2
62
256
6
ByLayer
370
13
48
1
60
0
100
AcDbDimension
2
DimnDraft3D5
10
112.6
20
-25.343428
30
0
11
30.860676
21
-25.343428
31
0
70
32
71
5
72
1
41
1
210
0
220
0
230
1
3
Standard
100
AcDbAlignedDimension
13
-45
23
-8.5875
33
0
14
112.6
24
-8.5875
34
0
50
0
100
AcDbRotatedDimension
1001
ACAD
1000
DSTYLE
1002
{
1070
   279
1070
     0
1070
   172
1070
     1
1070
   173
1070
     1
1070
   340
1005
E7
1070
   271
1070
     2
1070
   272
1070
     2
1070
    77
1070
     1
1070
    73
1070
     0
1070
   171
1070
     3
1070
   274
1070
     4
1070
   177
1070
    35
1070
   176
1070
    35
1070
   178
1070
    35
1070
    48
1040
-0.005
1070
    41
1041
3.5
1070
   147
1041
1.75
1070
    42
1041
1.5875
1070
    44
1041
2.0
1070
   140
1041
3.5
1070
   343
1005
0
1070
   344
1005
0
1002
}
0
DIMENSION
5
126
100
AcDbEntity
8
SK2
62
256
6
ByLayer
370
13
48
1
60
0
100
AcDbDimension
2
DimnDraft3D6
10
-55.625163
20
7
30
0
11
-56.250163
21
25.47418
31
0
70
33
71
5
72
1
41
1
210
0
220
0
230
1
3
Standard
100
AcDbAlignedDimension
13
-46.5875
23
-7
33
0
14
-46.5875
24
7
34
0
1001
ACAD
1000
DSTYLE
1002
{
1070
   279
1070
     0
1070
    74
1070
     0
1070
   173
1070
     1
1070
   340
1005
E7
1070
   271
1070
     3
1070
   272
1070
     2
1070
    77
1070
     1
1070
    73
1070
     0
1070
   171
1070
     3
1070
   274
1070
     4
1070
   177
1070
    35
1070
   176
1070
    35
1070
   178
1070
    35
1070
    48
1040
-0.005
1070
    41
1041
3.5
1070
   147
1041
1.75
1070
    42
1041
1.5875
1070
    44
1041
2.0
1070
   140
1041
3.5
1070
   343
1005
0
1070
   344
1005
0
1002
}
0
DIMENSION
5
131
100
AcDbEntity
8
2
62
256
6
ByLayer
370
13
48
1
60
0
100
AcDbDimension
2
DimnDraft3D7
10
129.083343
20
7
30
0
11
124.458343
21
24.067266
31
0
70
33
71
5
72
1
41
1
210
0
220
0
230
1
3
Standard
100
AcDbAlignedDimension
13
114.1875
23
-7
33
0
14
114.1875
24
7
34
0
1001
ACAD
1000
DSTYLE
1002
{
1070
   279
1070
     0
1070
    74
1070
     0
1070
   173
1070
     1
1070
   340
1005
E7
1070
   271
1070
     3
1070
   272
1070
     2
1070
    77
1070
     1
1070
    73
1070
     0
1070
   171
1070
     3
1070
   274
1070
     4
1070
   177
1070
    35
1070
   176
1070
    35
1070
   178
1070
    35
1070
    48
1040
-0.005
1070
    41
1041
3.5
1070
   147
1041
1.75
1070
    42
1041
1.5875
1070
    44
1041
2.0
1070
   140
1041
3.5
1070
   343
1005
0
1070
   344
1005
0
1002
}
0
ENDSEC
0
SECTION
2
OBJECTS
0
DICTIONARY
5
19c
330
0
100
AcDbDictionary
280
0
281
1
3
ACAD_GROUP
350
19d
3
ACAD_MLINESTYLE
350
19e
0
DICTIONARY
5
19d
330
0
100
AcDbDictionary
280
0
281
1
0
DICTIONARY
5
19e
330
0
100
AcDbDictionary
280
0
281
1
3
Standard
350
18
0
MLINESTYLE
5
18
330
19e
100
AcDbMlineStyle
2
Standard
70
0
3

62
256
51
90
52
90
71
2
49
-0.5
62
256
6
ByLayer
49
0.5
62
256
6
ByLayer
0
RASTERVARIABLES
5
18a
330

100
AcDbRasterVariables
90
0
70
1
71
1
72
1
0
ENDSEC
0
EOF
