0
SECTION
2
HEADER
9
$ACADVER
1
AC1015
9
$DWGCODEPAGE
3
ANSI_1252
9
$HANDSEED
5
1a5
9
$ANGBASE
50
0
9
$ANGDIR
70
0
9
$ATTMODE
70
1
9
$AUNITS
70
0
9
$AUPREC
70
0
9
$CECOLOR
62
256
9
$CELTSCALE
40
1
9
$CELTYPE
6
ByLayer
9
$CELWEIGHT
370
18
9
$CLAYER
8
0
9
$CMLJUST
70
0
9
$CMLSCALE
40
1
9
$CMLSTYLE
2
Standard
9
$DIMSTYLE
2
Standard
9
$TEXTSIZE
40
0.2
9
$TEXTSTYLE
7
Standard
9
$LUNITS
70
2
9
$LUPREC
70
4
9
$EXTNAMES
290
1
9
$INSUNITS
70
4
9
$LTSCALE
40
1
9
$LWDISPLAY
290
1
9
$PDMODE
70
0
9
$PDSIZE
40
0
9
$PLINEGEN
70
0
0
ENDSEC
0
SECTION
2
CLASSES
0
CLASS
1
RASTERVARIABLES
2
AcDbRasterVariables
3
ISM
90
0
280
0
281
0
0
ENDSEC
0
SECTION
2
TABLES
0
TABLE
2
VPORT
5
19b
100
AcDbSymbolTable
0
VPORT
5
1
100
AcDbSymbolTableRecord
100
AcDbViewportTableRecord
2
*Active
70
0
10
0
20
0
11
1
21
1
12
-1
22
1
13
0
23
0
14
0.5
24
0.5
15
10
25
10
16
0
26
0
36
1
17
0
27
0
37
0
0
ENDTAB
0
TABLE
2
LTYPE
5
19c
100
AcDbSymbolTable
0
LTYPE
5
14
100
AcDbSymbolTableRecord
100
AcDbLinetypeTableRecord
70
0
2
ByBlock
3

72
65
73
0
40
0
0
LTYPE
5
15
100
AcDbSymbolTableRecord
100
AcDbLinetypeTableRecord
70
0
2
ByLayer
3

72
65
73
0
40
0
0
LTYPE
5
16
100
AcDbSymbolTableRecord
100
AcDbLinetypeTableRecord
70
0
2
CONTINUOUS
3
Solid line
72
65
73
0
40
0
0
LTYPE
5
6A
100
AcDbSymbolTableRecord
100
AcDbLinetypeTableRecord
70
0
2
CENTER
3
____ _ ____ _ ____ _ ____
72
65
73
4
40
47.5
49
22
74
0
49
-8.5
74
0
49
8.5
74
0
49
-8.5
74
0
0
LTYPE
5
6B
100
AcDbSymbolTableRecord
100
AcDbLinetypeTableRecord
70
0
2
DASHED
3
__ __ __ __ __ __ __ __ __
72
65
73
2
40
25.72
49
12.86
74
0
49
-12.86
74
0
0
ENDTAB
0
TABLE
2
LAYER
5
19d
100
AcDbSymbolTable
0
LAYER
5
10
100
AcDbSymbolTableRecord
100
AcDbLayerTableRecord
2
0
70
0
62
7
6
CONTINUOUS
290
1
370
-3
390
0
0
LAYER
5
6D
100
AcDbSymbolTableRecord
100
AcDbLayerTableRecord
2
81
70
0
62
-3
6
CONTINUOUS
290
1
370
-3
390
0
0
LAYER
5
6F
100
AcDbSymbolTableRecord
100
AcDbLayerTableRecord
2
80
70
0
62
-6
6
CONTINUOUS
290
1
370
-3
390
0
0
LAYER
5
74
100
AcDbSymbolTableRecord
100
AcDbLayerTableRecord
2
2
70
0
62
7
6
CONTINUOUS
290
1
370
-3
390
0
0
LAYER
5
78
100
AcDbSymbolTableRecord
100
AcDbLayerTableRecord
2
1
70
0
62
4
6
CONTINUOUS
290
1
370
-3
390
0
0
LAYER
5
88
100
AcDbSymbolTableRecord
100
AcDbLayerTableRecord
2
4
70
0
62
-2
6
CENTER
290
1
370
-3
390
0
0
LAYER
5
187
100
AcDbSymbolTableRecord
100
AcDbLayerTableRecord
2
SK2
70
0
62
7
6
CONTINUOUS
290
1
370
-3
390
0
0
LAYER
5
188
100
AcDbSymbolTableRecord
100
AcDbLayerTableRecord
2
SK1
70
0
62
4
6
CONTINUOUS
290
1
370
-3
390
0
0
LAYER
5
189
100
AcDbSymbolTableRecord
100
AcDbLayerTableRecord
2
SK4
70
0
62
2
6
CENTER
290
1
370
-3
390
0
0
LAYER
5
18a
100
AcDbSymbolTableRecord
100
AcDbLayerTableRecord
2
SK6
70
0
62
5
6
CONTINUOUS
290
1
370
-3
390
0
0
ENDTAB
0
TABLE
2
STYLE
5
19e
100
AcDbSymbolTable
0
STYLE
5
11
100
AcDbSymbolTableRecord
100
AcDbTextStyleTableRecord
2
Standard
3
txt
70
0
71
0
40
0
41
1
42
0
50
0
0
STYLE
5
E3
100
AcDbSymbolTableRecord
100
AcDbTextStyleTableRecord
2
iso_b_vert
3
simplex.shx
70
0
71
0
40
0
41
1
42
0
50
0
0
STYLE
5
E4
100
AcDbSymbolTableRecord
100
AcDbTextStyleTableRecord
2
DWGDirectTextStyle
3
simplex
70
0
71
0
40
0
41
1
42
0
50
0
0
ENDTAB
0
TABLE
2
DIMSTYLE
5
19f
100
AcDbSymbolTable
100
AcDbDimStyleTable
0
DIMSTYLE
105
27
100
AcDbSymbolTableRecord
100
AcDbDimStyleTableRecord
2
Standard
70
0
3
<>
41
0.18
42
0.0625
44
0.18
140
0.18
147
0.09
73
0
74
0
77
1
271
2
275
0
278
52
280
0
340
11
0
ENDTAB
0
TABLE
2
VIEW
5
1a0
100
AcDbSymbolTable
0
ENDTAB
0
TABLE
2
UCS
5
1a1
100
AcDbSymbolTable
0
ENDTAB
0
TABLE
2
APPID
5
1a2
100
AcDbSymbolTable
0
APPID
5
12
100
AcDbSymbolTableRecord
100
AcDbRegAppTableRecord
2
ACAD
70
0
0
ENDTAB
0
TABLE
2
BLOCK_RECORD
5
1a3
100
AcDbSymbolTable
0
BLOCK_RECORD
5
1F
100
AcDbSymbolTableRecord
100
AcDbBlockTableRecord
2
*Model_Space
340
0
70
0
0
BLOCK_RECORD
5
1B
100
AcDbSymbolTableRecord
100
AcDbBlockTableRecord
2
*Paper_Space
340
0
70
0
0
BLOCK_RECORD
5
23
100
AcDbSymbolTableRecord
100
AcDbBlockTableRecord
2
*Paper_Space0
340
0
70
0
0
BLOCK_RECORD
5
E6
100
AcDbSymbolTableRecord
100
AcDbBlockTableRecord
2
DimnDraft3D1
340
0
70
0
0
BLOCK_RECORD
5
F0
100
AcDbSymbolTableRecord
100
AcDbBlockTableRecord
2
DimnDraft3D2
340
0
70
0
0
BLOCK_RECORD
5
FA
100
AcDbSymbolTableRecord
100
AcDbBlockTableRecord
2
DimnDraft3D3
340
0
70
0
0
BLOCK_RECORD
5
104
100
AcDbSymbolTableRecord
100
AcDbBlockTableRecord
2
DimnDraft3D4
340
0
70
0
0
BLOCK_RECORD
5
10E
100
AcDbSymbolTableRecord
100
AcDbBlockTableRecord
2
DimnDraft3D5
340
0
70
0
0
BLOCK_RECORD
5
118
100
AcDbSymbolTableRecord
100
AcDbBlockTableRecord
2
DimnDraft3D6
340
0
70
0
0
BLOCK_RECORD
5
123
100
AcDbSymbolTableRecord
100
AcDbBlockTableRecord
2
DimnDraft3D7
340
0
70
0
0
ENDTAB
0
ENDSEC
0
SECTION
2
BLOCKS
0
BLOCK
5
20
100
AcDbEntity
8
0
100
AcDbBlockBegin
2
*Model_Space
70
0
10
0
20
0
30
0
3
*Model_Space
0
ENDBLK
5
21
100
AcDbEntity
8
0
100
AcDbBlockEnd
0
BLOCK
5
1C
100
AcDbEntity
8
0
100
AcDbBlockBegin
2
*Paper_Space
70
0
10
0
20
0
30
0
3
*Paper_Space
0
ENDBLK
5
1D
100
AcDbEntity
8
0
100
AcDbBlockEnd
0
BLOCK
5
24
100
AcDbEntity
8
0
100
AcDbBlockBegin
2
*Paper_Space0
70
0
10
0
20
0
30
0
3
*Paper_Space0
0
ENDBLK
5
25
100
AcDbEntity
8
0
100
AcDbBlockEnd
0
BLOCK
5
ED
100
AcDbEntity
8
0
100
AcDbBlockBegin
2
DimnDraft3D1
70
0
10
0
20
0
30
0
3
DimnDraft3D1
0
MTEXT
5
E7
100
AcDbEntity
8
SK2
62
256
6
ByLayer
370
13
48
1
60
0
100
AcDbMText
10
31.901375
20
-16.338398
30
0
210
0
220
0
230
1
1
\W0.7317;76,60
40
3.5
41
0
44
1.084337
50
0
71
7
72
5
7
iso_b_vert
0
LINE
5
E8
100
AcDbEntity
8
SK2
62
256
6
ByLayer
370
13
48
1
60
0
100
AcDbLine
10
0
20
-1.5875
30
0
11
0
21
-19.213398
31
0
39
0
210
0
220
0
230
1
0
LINE
5
E9
100
AcDbEntity
8
SK2
62
256
6
ByLayer
370
13
48
1
60
0
100
AcDbLine
10
76.6
20
-8.5875
30
0
11
76.6
21
-19.213398
31
0
39
0
210
0
220
0
230
1
0
LINE
5
EA
100
AcDbEntity
8
SK2
62
256
6
ByLayer
370
13
48
1
60
0
100
AcDbLine
10
0
20
-17.213398
30
0
11
76.6
21
-17.213398
31
0
39
0
210
0
220
0
230
1
0
SOLID
5
EB
100
AcDbEntity
8
SK2
62
256
6
ByLayer
370
13
48
1
60
0
100
AcDbTrace
10
0
20
-17.213398
30
0
11
3.499998
21
-16.752615
31
0
12
3.500002
22
-17.674182
32
0
13
0
23
-17.213398
33
0
39
0
210
0
220
0
230
1
0
SOLID
5
EC
100
AcDbEntity
8
SK2
62
256
6
ByLayer
370
13
48
1
60
0
100
AcDbTrace
10
76.6
20
-17.213398
30
0
11
73.100002
21
-17.674182
31
0
12
73.099998
22
-16.752615
32
0
13
76.6
23
-17.213398
33
0
39
0
210
0
220
0
230
1
0
ENDBLK
5
EE
100
AcDbEntity
8
0
100
AcDbBlockEnd
0
BLOCK
5
F7
100
AcDbEntity
8
0
100
AcDbBlockBegin
2
DimnDraft3D2
70
0
10
0
20
0
30
0
3
DimnDraft3D2
0
MTEXT
5
F1
100
AcDbEntity
8
SK2
62
256
6
ByLayer
370
13
48
1
60
0
100
AcDbMText
10
10.438011
20
-34.817985
30
0
210
0
220
0
230
1
1
\W0.7145;124,00
40
3.5
41
0
44
1.084337
50
0
71
7
72
5
7
iso_b_vert
0
LINE
5
F2
100
AcDbEntity
8
SK2
62
256
6
ByLayer
370
13
48
1
60
0
100
AcDbLine
10
-45
20
-8.5875
30
0
11
-45
21
-37.692985
31
0
39
0
210
0
220
0
230
1
0
LINE
5
F3
100
AcDbEntity
8
SK2
62
256
6
ByLayer
370
13
48
1
60
0
100
AcDbLine
10
79
20
-1.5875
30
0
11
79
21
-37.692985
31
0
39
0
210
0
220
0
230
1
0
LINE
5
F4
100
AcDbEntity
8
SK2
62
256
6
ByLayer
370
13
48
1
60
0
100
AcDbLine
10
-45
20
-35.692985
30
0
11
79
21
-35.692985
31
0
39
0
210
0
220
0
230
1
0
SOLID
5
F5
100
AcDbEntity
8
SK2
62
256
6
ByLayer
370
13
48
1
60
0
100
AcDbTrace
10
-45
20
-35.692985
30
0
11
-41.500002
21
-35.232202
31
0
12
-41.499998
22
-36.153769
32
0
13
-45
23
-35.692985
33
0
39
0
210
0
220
0
230
1
0
SOLID
5
F6
100
AcDbEntity
8
SK2
62
256
6
ByLayer
370
13
48
1
60
0
100
AcDbTrace
10
79
20
-35.692985
30
0
11
75.500002
21
-36.153769
31
0
12
75.499998
22
-35.232202
32
0
13
79
23
-35.692985
33
0
39
0
210
0
220
0
230
1
0
ENDBLK
5
F8
100
AcDbEntity
8
0
100
AcDbBlockEnd
0
BLOCK
5
101
100
AcDbEntity
8
0
100
AcDbBlockBegin
2
DimnDraft3D3
70
0
10
0
20
0
30
0
3
DimnDraft3D3
0
MTEXT
5
FB
100
AcDbEntity
8
SK2
62
256
6
ByLayer
370
13
48
1
60
0
100
AcDbMText
10
38.167105
20
19.484119
30
0
210
0
220
0
230
1
1
\W0.7581;72,40
40
3.5
41
0
44
1.084337
50
0
71
7
72
5
7
iso_b_vert
0
LINE
5
FC
100
AcDbEntity
8
SK2
62
256
6
ByLayer
370
13
48
1
60
0
100
AcDbLine
10
6.6
20
8.5875
30
0
11
6.6
21
20.609119
31
0
39
0
210
0
220
0
230
1
0
LINE
5
FD
100
AcDbEntity
8
SK2
62
256
6
ByLayer
370
13
48
1
60
0
100
AcDbLine
10
79
20
1.5875
30
0
11
79
21
20.609119
31
0
39
0
210
0
220
0
230
1
0
LINE
5
FE
100
AcDbEntity
8
SK2
62
256
6
ByLayer
370
13
48
1
60
0
100
AcDbLine
10
6.6
20
18.609119
30
0
11
79
21
18.609119
31
0
39
0
210
0
220
0
230
1
0
SOLID
5
FF
100
AcDbEntity
8
SK2
62
256
6
ByLayer
370
13
48
1
60
0
100
AcDbTrace
10
6.6
20
18.609119
30
0
11
10.099998
21
19.069903
31
0
12
10.100002
22
18.148335
32
0
13
6.6
23
18.609119
33
0
39
0
210
0
220
0
230
1
0
SOLID
5
100
100
AcDbEntity
8
SK2
62
256
6
ByLayer
370
13
48
1
60
0
100
AcDbTrace
10
79
20
18.609119
30
0
11
75.500002
21
18.148335
31
0
12
75.499998
22
19.069903
32
0
13
79
23
18.609119
33
0
39
0
210
0
220
0
230
1
0
ENDBLK
5
102
100
AcDbEntity
8
0
100
AcDbBlockEnd
0
BLOCK
5
10B
100
AcDbEntity
8
0
100
AcDbBlockBegin
2
DimnDraft3D4
70
0
10
0
20
0
30
0
3
DimnDraft3D4
0
MTEXT
5
105
100
AcDbEntity
8
SK2
62
256
6
ByLayer
370
13
48
1
60
0
100
AcDbMText
10
85.656425
20
-18.927503
30
0
210
0
220
0
230
1
1
\W0.7493;2,40
40
3.5
41
0
44
1.084337
50
0
71
7
72
5
7
iso_b_vert
0
LINE
5
106
100
AcDbEntity
8
SK2
62
256
6
ByLayer
370
13
48
1
60
0
100
AcDbLine
10
79
20
-1.5875
30
0
11
79
21
-21.802503
31
0
39
0
210
0
220
0
230
1
0
LINE
5
107
100
AcDbEntity
8
SK2
62
256
6
ByLayer
370
13
48
1
60
0
100
AcDbLine
10
76.6
20
-8.5875
30
0
11
76.6
21
-21.802503
31
0
39
0
210
0
220
0
230
1
0
LINE
5
108
100
AcDbEntity
8
SK2
62
256
6
ByLayer
370
13
48
1
60
0
100
AcDbLine
10
67.85
20
-19.802503
30
0
11
93.181425
21
-19.802503
31
0
39
0
210
0
220
0
230
1
0
SOLID
5
109
100
AcDbEntity
8
SK2
62
256
6
ByLayer
370
13
48
1
60
0
100
AcDbTrace
10
79
20
-19.802503
30
0
11
82.499998
21
-19.341719
31
0
12
82.500002
22
-20.263287
32
0
13
79
23
-19.802503
33
0
39
0
210
0
220
0
230
1
0
SOLID
5
10A
100
AcDbEntity
8
SK2
62
256
6
ByLayer
370
13
48
1
60
0
100
AcDbTrace
10
76.6
20
-19.802503
30
0
11
73.100002
21
-20.263287
31
0
12
73.099998
22
-19.341719
32
0
13
76.6
23
-19.802503
33
0
39
0
210
0
220
0
230
1
0
ENDBLK
5
10C
100
AcDbEntity
8
0
100
AcDbBlockEnd
0
BLOCK
5
115
100
AcDbEntity
8
0
100
AcDbBlockBegin
2
DimnDraft3D5
70
0
10
0
20
0
30
0
3
DimnDraft3D5
0
MTEXT
5
10F
100
AcDbEntity
8
SK2
62
256
6
ByLayer
370
13
48
1
60
0
100
AcDbMText
10
7.979097
20
-24.468428
30
0
210
0
220
0
230
1
1
\W0.6440;121,60
40
3.5
41
0
44
1.084337
50
0
71
7
72
5
7
iso_b_vert
0
LINE
5
110
100
AcDbEntity
8
SK2
62
256
6
ByLayer
370
13
48
1
60
0
100
AcDbLine
10
-45
20
-8.5875
30
0
11
-45
21
-27.343428
31
0
39
0
210
0
220
0
230
1
0
LINE
5
111
100
AcDbEntity
8
SK2
62
256
6
ByLayer
370
13
48
1
60
0
100
AcDbLine
10
76.6
20
-8.5875
30
0
11
76.6
21
-27.343428
31
0
39
0
210
0
220
0
230
1
0
LINE
5
112
100
AcDbEntity
8
SK2
62
256
6
ByLayer
370
13
48
1
60
0
100
AcDbLine
10
-45
20
-25.343428
30
0
11
76.6
21
-25.343428
31
0
39
0
210
0
220
0
230
1
0
SOLID
5
113
100
AcDbEntity
8
SK2
62
256
6
ByLayer
370
13
48
1
60
0
100
AcDbTrace
10
-45
20
-25.343428
30
0
11
-41.500002
21
-24.882645
31
0
12
-41.499998
22
-25.804212
32
0
13
-45
23
-25.343428
33
0
39
0
210
0
220
0
230
1
0
SOLID
5
114
100
AcDbEntity
8
SK2
62
256
6
ByLayer
370
13
48
1
60
0
100
AcDbTrace
10
76.6
20
-25.343428
30
0
11
73.100002
21
-25.804212
31
0
12
73.099998
22
-24.882645
32
0
13
76.6
23
-25.343428
33
0
39
0
210
0
220
0
230
1
0
ENDBLK
5
116
100
AcDbEntity
8
0
100
AcDbBlockEnd
0
BLOCK
5
120
100
AcDbEntity
8
0
100
AcDbBlockBegin
2
DimnDraft3D6
70
0
10
0
20
0
30
0
3
DimnDraft3D6
0
MTEXT
5
119
100
AcDbEntity
8
SK2
62
256
6
ByLayer
370
13
48
1
60
0
100
AcDbMText
10
-55.375163
20
26.34918
30
0
210
0
220
0
230
1
1
\W0.7145;14,000
40
3.5
41
0
44
1.084337
50
90
71
7
72
5
7
iso_b_vert
0
MTEXT
5
11A
100
AcDbEntity
8
SK2
62
256
6
ByLayer
370
13
48
1
60
0
100
AcDbMText
10
-55.375163
20
21.126524
30
0
210
0
220
0
230
1
1
%%c
40
3.5
41
0
44
1.084337
50
90
71
7
72
5
7
iso_b_vert
0
LINE
5
11B
100
AcDbEntity
8
SK2
62
256
6
ByLayer
370
13
48
1
60
0
100
AcDbLine
10
-46.5875
20
-7
30
0
11
-55.625163
21
-7
31
0
39
0
210
0
220
0
230
1
0
LINE
5
11C
100
AcDbEntity
8
SK2
62
256
6
ByLayer
370
13
48
1
60
0
100
AcDbLine
10
-46.5875
20
7
30
0
11
-55.625163
21
7
31
0
39
0
210
0
220
0
230
1
0
LINE
5
11D
100
AcDbEntity
8
SK2
62
256
6
ByLayer
370
13
48
1
60
0
100
AcDbLine
10
-53.625163
20
-7
30
0
11
-53.625163
21
38.230759
31
0
39
0
210
0
220
0
230
1
0
SOLID
5
11E
100
AcDbEntity
8
SK2
62
256
6
ByLayer
370
13
48
1
60
0
100
AcDbTrace
10
-53.625163
20
-7
30
0
11
-54.085946
21
-3.500002
31
0
12
-53.164379
22
-3.499998
32
0
13
-53.625163
23
-7
33
0
39
0
210
0
220
0
230
1
0
SOLID
5
11F
100
AcDbEntity
8
SK2
62
256
6
ByLayer
370
13
48
1
60
0
100
AcDbTrace
10
-53.625163
20
7
30
0
11
-53.164379
21
3.500002
31
0
12
-54.085946
22
3.499998
32
0
13
-53.625163
23
7
33
0
39
0
210
0
220
0
230
1
0
ENDBLK
5
121
100
AcDbEntity
8
0
100
AcDbBlockEnd
0
BLOCK
5
12B
100
AcDbEntity
8
0
100
AcDbBlockBegin
2
DimnDraft3D7
70
0
10
0
20
0
30
0
3
DimnDraft3D7
0
MTEXT
5
124
100
AcDbEntity
8
2
62
256
6
ByLayer
370
13
48
1
60
0
100
AcDbMText
10
89.333343
20
24.942266
30
0
210
0
220
0
230
1
1
\W0.7145;14,000
40
3.5
41
0
44
1.084337
50
90
71
7
72
5
7
iso_b_vert
0
MTEXT
5
125
100
AcDbEntity
8
2
62
256
6
ByLayer
370
13
48
1
60
0
100
AcDbMText
10
89.333343
20
19.71961
30
0
210
0
220
0
230
1
1
%%c
40
3.5
41
0
44
1.084337
50
90
71
7
72
5
7
iso_b_vert
0
LINE
5
126
100
AcDbEntity
8
2
62
256
6
ByLayer
370
13
48
1
60
0
100
AcDbLine
10
78.1875
20
-7
30
0
11
93.083343
21
-7
31
0
39
0
210
0
220
0
230
1
0
LINE
5
127
100
AcDbEntity
8
2
62
256
6
ByLayer
370
13
48
1
60
0
100
AcDbLine
10
78.1875
20
7
30
0
11
93.083343
21
7
31
0
39
0
210
0
220
0
230
1
0
LINE
5
128
100
AcDbEntity
8
2
62
256
6
ByLayer
370
13
48
1
60
0
100
AcDbLine
10
91.083343
20
-7
30
0
11
91.083343
21
36.823845
31
0
39
0
210
0
220
0
230
1
0
SOLID
5
129
100
AcDbEntity
8
2
62
256
6
ByLayer
370
13
48
1
60
0
100
AcDbTrace
10
91.083343
20
-7
30
0
11
90.622559
21
-3.500002
31
0
12
91.544126
22
-3.499998
32
0
13
91.083343
23
-7
33
0
39
0
210
0
220
0
230
1
0
SOLID
5
12A
100
AcDbEntity
8
2
62
256
6
ByLayer
370
13
48
1
60
0
100
AcDbTrace
10
91.083343
20
7
30
0
11
91.544126
21
3.500002
31
0
12
90.622559
22
3.499998
32
0
13
91.083343
23
7
33
0
39
0
210
0
220
0
230
1
0
ENDBLK
5
12C
100
AcDbEntity
8
0
100
AcDbBlockEnd
0
ENDSEC
0
SECTION
2
ENTITIES
0
ELLIPSE
5
9D
100
AcDbEntity
8
1
62
256
6
ByLayer
370
13
48
1
60
0
100
AcDbEllipse
10
77.170897
20
0.975222
30
0
11
0.133113781883896
21
0.268850741253519
31
0
210
0
220
0
230
1
40
0.40558
41
0.884485917130962
42
2.28074931872647
0
ELLIPSE
5
9E
100
AcDbEntity
8
1
62
256
6
ByLayer
370
13
48
1
60
0
100
AcDbEllipse
10
4.250169
20
-6.748203
30
0
11
0.00203271530854627
21
0.0999793382078237
31
0
210
0
220
0
230
1
40
0.513758
41
0.0373578471722735
42
1.59776177593916
0
ELLIPSE
5
9F
100
AcDbEntity
8
1
62
256
6
ByLayer
370
18
48
1
60
0
100
AcDbEllipse
10
79.000593
20
-0.001529
30
0
11
2.56677995186547
21
-6.99823937255553
31
0
210
0
220
0
230
-1
40
0.082138
41
-2.99368006689447
42
-2.9022331078203
0
ELLIPSE
5
A0
100
AcDbEntity
8
1
62
256
6
ByLayer
370
18
48
1
60
0
100
AcDbEllipse
10
79.016245
20
0.06155
30
0
11
0.135658546051503
21
-0.401200806276537
31
0
210
0
220
0
230
-1
40
0.065863
41
1.60465672087064
42
2.32292776272876
0
ELLIPSE
5
A1
100
AcDbEntity
8
1
62
256
6
ByLayer
370
18
48
1
60
0
100
AcDbEllipse
10
79.016245
20
-0.06155
30
0
11
0.135658546013069
21
0.401200806177875
31
0
210
0
220
0
230
-1
40
0.065863
41
-2.322927762708
42
-1.60465672069257
0
ELLIPSE
5
A2
100
AcDbEntity
8
1
62
256
6
ByLayer
370
18
48
1
60
0
100
AcDbEllipse
10
78.859812
20
0.139004
30
0
11
0.0868803724488415
21
0.290676908896527
31
0
210
0
220
0
230
-1
40
0.467765
41
1.68254481434341
42
2.36053717394848
0
ELLIPSE
5
A3
100
AcDbEntity
8
1
62
256
6
ByLayer
370
13
48
1
60
0
100
AcDbEllipse
10
77.997468
20
3.131956
30
0
11
4.59376123414685
21
-2.36160360997688
31
0
210
0
220
0
230
-1
40
0.482873
41
1.53949524919474
42
1.86562343135525
0
ELLIPSE
5
A4
100
AcDbEntity
8
1
62
256
6
ByLayer
370
18
48
1
60
0
100
AcDbEllipse
10
77.721594
20
3.266248
30
0
11
1.07782978842404
21
-2.93866674237854
31
0
210
0
220
0
230
-1
40
0.082138
41
-1.5892605672556
42
-0.755280950346433
0
ELLIPSE
5
A5
100
AcDbEntity
8
1
62
256
6
ByLayer
370
13
48
1
60
0
100
AcDbEllipse
10
78.166927
20
3.266248
30
0
11
4.64073975127634
21
-2.04947412096876
31
0
210
0
220
0
230
-1
40
0.454217
41
1.58484970970766
42
1.9085454825303
0
ELLIPSE
5
A6
100
AcDbEntity
8
1
62
256
6
ByLayer
370
18
48
1
60
0
100
AcDbEllipse
10
79.000593
20
0.001529
30
0
11
2.56677991523101
21
6.99823926737455
31
0
210
0
220
0
230
-1
40
0.082138
41
2.90223310601546
42
2.99368006578651
0
ELLIPSE
5
A7
100
AcDbEntity
8
1
62
256
6
ByLayer
370
13
48
1
60
0
100
AcDbEllipse
10
4.172709
20
-6.767996
30
0
11
-0.0500228019693015
21
0.0865893716522995
31
0
210
0
220
0
230
1
40
0.470981
41
0.0377778919441784
42
1.33018370466655
0
ELLIPSE
5
A8
100
AcDbEntity
8
1
62
256
6
ByLayer
370
18
48
1
60
0
100
AcDbEllipse
10
77.721594
20
-3.266248
30
0
11
1.07782978844099
21
2.93866674241827
31
0
210
0
220
0
230
-1
40
0.082138
41
0.755280950348194
42
1.5892605672465
0
POINT
5
6C
100
AcDbEntity
8
81
62
256
6
ByLayer
370
18
48
1
60
0
100
AcDbPoint
10
79
20
0
30
0
39
0
210
0
220
0
230
1
50
360
0
POINT
5
6E
100
AcDbEntity
8
80
62
256
6
ByLayer
370
18
48
1
60
0
100
AcDbPoint
10
0
20
0
30
0
39
0
210
0
220
0
230
1
50
360
0
POINT
5
70
100
AcDbEntity
8
SK2
62
256
6
ByLayer
370
18
48
1
60
1
100
AcDbPoint
10
-45
20
-7
30
0
39
0
210
0
220
0
230
1
50
360
0
POINT
5
72
100
AcDbEntity
8
SK2
62
256
6
ByLayer
370
18
48
1
60
1
100
AcDbPoint
10
-45
20
7
30
0
39
0
210
0
220
0
230
1
50
360
0
POINT
5
73
100
AcDbEntity
8
2
62
256
6
ByLayer
370
18
48
1
60
1
100
AcDbPoint
10
76.6
20
-7
30
0
39
0
210
0
220
0
230
1
50
360
0
POINT
5
75
100
AcDbEntity
8
2
62
256
6
ByLayer
370
18
48
1
60
1
100
AcDbPoint
10
76.6
20
7
30
0
39
0
210
0
220
0
230
1
50
360
0
SPLINE
5
A9
100
AcDbEntity
8
1
62
256
6
ByLayer
370
18
48
1
60
0
100
AcDbSpline
70
4
71
3
72
31
73
27
40
0
40
0
40
0
40
0
40
0.0093373733641233
40
0.0327633915968425
40
0.0755630726345027
40
0.114925866618745
40
0.150513434352135
40
0.183590103925874
40
0.214643905325206
40
0.256465144213659
40
0.301253653293262
40
0.342110065001936
40
0.379419125936708
40
0.435001789819241
40
0.499430904209877
40
0.551434671595913
40
0.595158603705299
40
0.650864709394243
40
0.706184458915487
40
0.76463550800131
40
0.825807846783353
40
0.871721340516593
40
0.903049110462804
40
0.942075830842733
40
0.979902499597022
40
1
40
1
40
1
40
1
41
1
10
58.7900738086632
20
6.6761121500694
30
0
41
1
10
58.7413983007848
20
6.67565864998983
30
0
41
1
10
58.5707200389078
20
6.67450241836016
30
0
41
1
10
58.1694995851598
20
6.676872386036
30
0
41
1
10
57.6451869769319
20
6.68413858579109
30
0
41
1
10
57.034975491269
20
6.68432074640603
30
0
41
1
10
56.465956346077
20
6.6821269951825
30
0
41
1
10
55.9417603670108
20
6.68178648686342
30
0
41
1
10
55.3845185491412
20
6.68207944352284
30
0
41
1
10
54.7656469681426
20
6.68178813578871
30
0
41
1
10
54.0956957794256
20
6.68018881646526
30
0
41
1
10
53.448833688405
20
6.68055275801578
30
0
41
1
10
52.7460804898136
20
6.68126996029284
30
0
41
1
10
51.9185834143415
20
6.67922815332966
30
0
41
1
10
51.0139729461065
20
6.67953366246726
30
0
41
1
10
50.1716741992263
20
6.67897413621631
30
0
41
1
10
49.3752607217735
20
6.67799103167502
30
0
41
1
10
48.5614152930032
20
6.6784055876075
30
0
41
1
10
47.6701079065856
20
6.67729981526153
30
0
41
1
10
46.7500534314323
20
6.67707867277119
30
0
41
1
10
45.8794738370891
20
6.67666631511909
30
0
41
1
10
45.1515530098382
20
6.67600578186858
30
0
41
1
10
44.5400751719214
20
6.6762153886479
30
0
41
1
10
43.9711568042512
20
6.67586574201042
30
0
41
1
10
43.4612649066461
20
6.6752059745597
30
0
41
1
10
43.1566439751809
20
6.67501019548942
30
0
41
1
10
43.0509514957234
20
6.67495924005155
30
0
0
SPLINE
5
AA
100
AcDbEntity
8
1
62
256
6
ByLayer
370
18
48
1
60
0
100
AcDbSpline
70
4
71
3
72
9
73
5
40
0
40
0
40
0
40
0
40
0.269134618991572
40
1
40
1
40
1
40
1
41
1
10
58.8549429236611
20
-1.40174770471012
30
0
41
1
10
58.8567613143249
20
-1.40290513881479
30
0
41
1
10
58.8988816522607
20
-1.42746434412348
30
0
41
1
10
58.9569027134772
20
-1.46288773139986
30
0
41
1
10
59.0222805413453
20
-1.50265494125728
30
0
0
SPLINE
5
AB
100
AcDbEntity
8
1
62
256
6
ByLayer
370
18
48
1
60
0
100
AcDbSpline
70
4
71
3
72
37
73
33
40
0
40
0
40
0
40
0
40
0.0355569782576615
40
0.0698724446029652
40
0.0990523615356544
40
0.124012882034086
40
0.146405305091379
40
0.165519712205501
40
0.182832863526238
40
0.209556374389211
40
0.242209749516037
40
0.273473049771052
40
0.298414339852157
40
0.325844827659051
40
0.361195021337947
40
0.398250863888324
40
0.427107717784317
40
0.454345877847864
40
0.489340106651209
40
0.536788126758098
40
0.580005017935486
40
0.632138611848623
40
0.690339110157319
40
0.74919031219155
40
0.806735652401887
40
0.85679545704276
40
0.902024701886232
40
0.94380421819542
40
0.960176492806657
40
0.976748028611912
40
0.993677269051932
40
1
40
1
40
1
40
1
41
1
10
4.62829941930411
20
-6.65195946995195
30
0
41
1
10
4.84163824506189
20
-6.65209454155485
30
0
41
1
10
5.26278099585082
20
-6.65232393716229
30
0
41
1
10
5.86484715787356
20
-6.65144301812651
30
0
41
1
10
6.40730331716119
20
-6.65240200394416
30
0
41
1
10
6.86191902491331
20
-6.65381731359261
30
0
41
1
10
7.26714138789154
20
-6.65370471978051
30
0
41
1
10
7.62835549903028
20
-6.65419457438523
30
0
41
1
10
7.99204431217953
20
-6.6528833231425
30
0
41
1
10
8.46597553916166
20
-6.65237900347032
30
0
41
1
10
9.01376309810567
20
-6.65520327954573
30
0
41
1
10
9.55057321971461
20
-6.65596807471366
30
0
41
1
10
10.0608027898344
20
-6.65620994780326
30
0
41
1
10
10.5956008139397
20
-6.65666332549614
30
0
41
1
10
11.2043749492925
20
-6.65700916914156
30
0
41
1
10
11.8220651523127
20
-6.65656990332985
30
0
41
1
10
12.3895411619296
20
-6.65646070074345
30
0
41
1
10
12.9445365808984
20
-6.65690296099163
30
0
41
1
10
13.6134168877314
20
-6.65785491446098
30
0
41
1
10
14.3789689701803
20
-6.65738528581858
30
0
41
1
10
15.2499332218164
20
-6.65860739076106
30
0
41
1
10
16.1862471486187
20
-6.65909049032527
30
0
41
1
10
17.2179607715945
20
-6.66171090479102
30
0
41
1
10
18.2826612075066
20
-6.66053964640133
30
0
41
1
10
19.2977323817545
20
-6.66250025077034
30
0
41
1
10
20.2297070241729
20
-6.66268566914059
30
0
41
1
10
21.0655702419674
20
-6.661998774621
30
0
41
1
10
21.6959824450392
20
-6.66463351297131
30
0
41
1
10
22.1516429131164
20
-6.66447284832617
30
0
41
1
10
22.4557998917297
20
-6.664160657129
30
0
41
1
10
22.6984810794781
20
-6.66393507821189
30
0
41
1
10
22.8401782601793
20
-6.66390352600231
30
0
41
1
10
22.8787065934059
20
-6.66389953112244
30
0
0
SPLINE
5
AC
100
AcDbEntity
8
1
62
256
6
ByLayer
370
18
48
1
60
0
100
AcDbSpline
70
4
71
3
72
42
73
38
40
0
40
0
40
0
40
0
40
0.0238049076418135
40
0.0335583655989276
40
0.0427588692275779
40
0.0524198766509525
40
0.0740222937777998
40
0.092446739939753
40
0.106715168689313
40
0.122316365226986
40
0.143713008133412
40
0.18680499898868
40
0.222722677969335
40
0.255787567286006
40
0.292557290634814
40
0.323433886691173
40
0.346959542468671
40
0.377348151092367
40
0.411937732001522
40
0.441682934940986
40
0.463947917754321
40
0.489898395165059
40
0.524156690946507
40
0.565152436311255
40
0.603969401179616
40
0.640362916100296
40
0.678982011421016
40
0.720521707262094
40
0.754249359155384
40
0.784975429633162
40
0.820053971032492
40
0.859589997451145
40
0.889618469350946
40
0.923221819572503
40
0.947658995633527
40
0.979419680072184
40
1
40
1
40
1
40
1
41
1
10
39.9124869125001
20
-6.67302205355625
30
0
41
1
10
39.9928433207962
20
-6.6711685555112
30
0
41
1
10
40.1370215578094
20
-6.66811893006283
30
0
41
1
10
40.3767260599128
20
-6.66053477854933
30
0
41
1
10
40.5574697244588
20
-6.65895249824703
30
0
41
1
10
40.8097469281392
20
-6.66270192351817
30
0
41
1
10
41.0631809856402
20
-6.67200731090404
30
0
41
1
10
41.3686151137439
20
-6.67403851424885
30
0
41
1
10
41.6649919891954
20
-6.67422119290245
30
0
41
1
10
41.9867945798916
20
-6.67451420885408
30
0
41
1
10
42.4865453044725
20
-6.67483560099117
30
0
41
1
10
43.1142411686298
20
-6.67479811577078
30
0
41
1
10
43.814398139052
20
-6.67570636827872
30
0
41
1
10
44.4752086907811
20
-6.67623117759172
30
0
41
1
10
45.1044565525635
20
-6.67598644733371
30
0
41
1
10
45.6741462551546
20
-6.67636621192707
30
0
41
1
10
46.2039255129366
20
-6.67700164917832
30
0
41
1
10
46.7569512548703
20
-6.6770407111261
30
0
41
1
10
47.3487159969653
20
-6.67707840104015
30
0
41
1
10
47.8898696284628
20
-6.67765773693682
30
0
41
1
10
48.3769014777208
20
-6.67815268029747
30
0
41
1
10
48.8922293354844
20
-6.67818842103199
30
0
41
1
10
49.5245907869463
20
-6.67809730893714
30
0
41
1
10
50.2373265566042
20
-6.67909309362881
30
0
41
1
10
50.9634436829334
20
-6.67945035820148
30
0
41
1
10
51.6746229367405
20
-6.67919992746965
30
0
41
1
10
52.4028454925521
20
-6.68055348643529
30
0
41
1
10
53.1144564020339
20
-6.68110012825522
30
0
41
1
10
53.7767298754359
20
-6.68033965375105
30
0
41
1
10
54.3986788561888
20
-6.68073604071768
30
0
41
1
10
55.0567307503131
20
-6.68226399182853
30
0
41
1
10
55.711155285803
20
-6.6819245641947
30
0
41
1
10
56.3532636132176
20
-6.68147643273551
30
0
41
1
10
56.9056059470683
20
-6.68399640091658
30
0
41
1
10
57.4557793740249
20
-6.68422691353385
30
0
41
1
10
57.9373241840121
20
-6.68310353660524
30
0
41
1
10
58.2637716587548
20
-6.68320537124993
30
0
41
1
10
58.392367351978
20
-6.68327994653964
30
0
0
SPLINE
5
AD
100
AcDbEntity
8
1
62
256
6
ByLayer
370
18
48
1
60
0
100
AcDbSpline
70
4
71
2
72
6
73
3
40
0
40
0
40
0
40
1
40
1
40
1
41
1
10
75.4152285449939
20
-6.69442882707548
30
0
41
1
10
75.9887796318242
20
-6.69192383726408
30
0
41
1
10
76.5623707944259
20
-6.69734437592967
30
0
0
SPLINE
5
AE
100
AcDbEntity
8
1
62
256
6
ByLayer
370
18
48
1
60
0
100
AcDbSpline
70
4
71
3
72
31
73
27
40
0
40
0
40
0
40
0
40
0.0130440984363663
40
0.0350617388767442
40
0.0566007010448684
40
0.098760425507398
40
0.141962535598111
40
0.199779578529436
40
0.260422515451276
40
0.321685758060629
40
0.388738887152148
40
0.454081339813404
40
0.511363117722824
40
0.560195289783126
40
0.614182081677093
40
0.654562986049064
40
0.686366959100426
40
0.718422670642225
40
0.759567509007662
40
0.802025636439018
40
0.83556765093867
40
0.867586735297974
40
0.909263400264489
40
0.944938433498357
40
0.974916799395499
40
1
40
1
40
1
40
1
41
1
10
22.8785117311747
20
6.6638989655421
30
0
41
1
10
22.8124493125027
20
6.66391620076536
30
0
41
1
10
22.6348443602803
20
6.66398917060209
30
0
41
1
10
22.347945173843
20
6.66424784105519
30
0
41
1
10
21.9133266726813
20
6.66478136930999
30
0
41
1
10
21.3713356390676
20
6.66323837304299
30
0
41
1
10
20.6454167550463
20
6.66189812114291
30
0
41
1
10
19.8257680251276
20
6.66350216276169
30
0
41
1
10
18.9145513193477
20
6.66079239081387
30
0
41
1
10
17.9564976577525
20
6.66146723760377
30
0
41
1
10
16.9746275716464
20
6.660629824127
30
0
41
1
10
16.012928929577
20
6.65923864111915
30
0
41
1
10
15.1436623056842
20
6.6583602427954
30
0
41
1
10
14.331792888111
20
6.6574381731848
30
0
41
1
10
13.6064274584633
20
6.65782527771114
30
0
41
1
10
12.966779605783
20
6.65694214413793
30
0
41
1
10
12.4384968397463
20
6.65648238207518
30
0
41
1
10
11.9069202208647
20
6.65652534532819
30
0
41
1
10
11.320235817232
20
6.65695456087374
30
0
41
1
10
10.7263792371247
20
6.65678063854392
30
0
41
1
10
10.1788918119589
20
6.65629204783357
30
0
41
1
10
9.63450633054086
20
6.65600857776604
30
0
41
1
10
9.08408294761531
20
6.65543175701069
30
0
41
1
10
8.54637663377974
20
6.65281769398302
30
0
41
1
10
8.07963417211963
20
6.65247134597996
30
0
41
1
10
7.8139426644712
20
6.65366712961062
30
0
41
1
10
7.68980029066776
20
6.65387306443273
30
0
0
SPLINE
5
AF
100
AcDbEntity
8
1
62
256
6
ByLayer
370
18
48
1
60
0
100
AcDbSpline
70
4
71
3
72
10
73
6
40
0
40
0
40
0
40
0
40
0.150688315277525
40
0.542309650636164
40
1
40
1
40
1
40
1
41
1
10
23.4608190372088
20
-1.4060354831941
30
0
41
1
10
23.4607043394675
20
-1.40602123065878
30
0
41
1
10
23.4709273573965
20
-1.41192329640097
30
0
41
1
10
23.5365114908053
20
-1.45016809829951
30
0
41
1
10
23.5853793778242
20
-1.47927476253139
30
0
41
1
10
23.6160527680094
20
-1.49762484385082
30
0
0
SPLINE
5
B0
100
AcDbEntity
8
1
62
256
6
ByLayer
370
13
48
1
60
0
100
AcDbSpline
70
4
71
3
72
10
73
6
40
0
40
0
40
0
40
0
40
0.5
40
0.5
40
1
40
1
40
1
40
1
41
1
10
4.00000020913771
20
-6.89034984478093
30
0
41
1
10
4.00000020913771
20
-6.86747788872805
30
0
41
1
10
4.01054965667439
20
-6.84396961068478
30
0
41
1
10
4.0510669032806
20
-6.8025134057128
30
0
41
1
10
4.08158546183259
20
-6.78371988481339
30
0
41
1
10
4.12118171082727
20
-6.77024314133897
30
0
0
SPLINE
5
B1
100
AcDbEntity
8
1
62
256
6
ByLayer
370
18
48
1
60
0
100
AcDbSpline
70
4
71
3
72
16
73
12
40
0
40
0
40
0
40
0
40
0.249999999999999
40
0.249999999999999
40
0.499999999999998
40
0.499999999999998
40
0.749999999999997
40
0.749999999999997
40
0.874999999999998
40
0.874999999999998
40
1
40
1
40
1
40
1
41
1
10
77.9430301875688
20
-3.40902114126376
30
0
41
1
10
77.8352434614637
20
-3.69775827959947
30
0
41
1
10
77.727323737968
20
-3.9863093719672
30
0
41
1
10
77.5111545036184
20
-4.5620452101696
30
0
41
1
10
77.4028461845385
20
-4.84908310212157
30
0
41
1
10
77.1862160848221
20
-5.42310893804938
30
0
41
1
10
77.0778450458109
20
-5.71007956407956
30
0
41
1
10
76.9150004041865
20
-6.13761040911479
30
0
41
1
10
76.8606941081112
20
-6.27989053151941
30
0
41
1
10
76.7520575337035
20
-6.5642277463686
30
0
41
1
10
76.6977147907661
20
-6.70616892060127
30
0
41
1
10
76.6432714522759
20
-6.84717457729343
30
0
0
SPLINE
5
B2
100
AcDbEntity
8
1
62
256
6
ByLayer
370
18
48
1
60
0
100
AcDbSpline
70
4
71
3
72
12
73
8
40
0
40
0
40
0
40
0
40
0.249999999999998
40
0.249999999999998
40
0.499999999999995
40
0.499999999999995
40
1
40
1
40
1
40
1
41
1
10
76.6250271620082
20
-6.7416171144672
30
0
41
1
10
76.6299885248326
20
-6.72833196565958
30
0
41
1
10
76.6347654411034
20
-6.71471305753678
30
0
41
1
10
76.6426042177094
20
-6.69026501373909
30
0
41
1
10
76.6456432679776
20
-6.67946197152892
30
0
41
1
10
76.6509261988993
20
-6.65598716927065
30
0
41
1
10
76.6496675979829
20
-6.65181936479257
30
0
41
1
10
76.6459419831725
20
-6.65489505736392
30
0
0
SPLINE
5
B3
100
AcDbEntity
8
1
62
256
6
ByLayer
370
18
48
1
60
0
100
AcDbSpline
70
4
71
3
72
32
73
28
40
0
40
0
40
0
40
0
40
0.0624999999999995
40
0.0624999999999995
40
0.0937499999999992
40
0.0937499999999992
40
0.124999999999999
40
0.124999999999999
40
0.187499999999998
40
0.187499999999998
40
0.249999999999998
40
0.249999999999998
40
0.374999999999997
40
0.374999999999997
40
0.437499999999995
40
0.437499999999995
40
0.499999999999994
40
0.499999999999994
40
0.624999999999993
40
0.624999999999993
40
0.687499999999994
40
0.687499999999994
40
0.749999999999995
40
0.749999999999995
40
0.874999999999998
40
0.874999999999998
40
1
40
1
40
1
40
1
41
1
10
69.2743816808373
20
3.73753719098673
30
0
41
1
10
69.2682297299399
20
3.55480179240257
30
0
41
1
10
69.2779270002807
20
3.36634475558858
30
0
41
1
10
69.3163291657287
20
3.07504698612547
30
0
41
1
10
69.3332298022401
20
2.97599809542371
30
0
41
1
10
69.3744576373565
20
2.77786662157189
30
0
41
1
10
69.3987109764633
20
2.67889703018193
30
0
41
1
10
69.4816388927874
20
2.38225686960723
30
0
41
1
10
69.550444759938
20
2.18485394688531
30
0
41
1
10
69.7121769284331
20
1.79068531041762
30
0
41
1
10
69.8058076195715
20
1.59281317578871
30
0
41
1
10
70.1115492027149
20
1.01502014712241
30
0
41
1
10
70.3492994300234
20
0.646440678083906
30
0
41
1
10
70.7437476040287
20
0.112097812128951
30
0
41
1
10
70.8822003192813
20
-0.0634676070069418
30
0
41
1
10
71.1659827100208
20
-0.403596600333486
30
0
41
1
10
71.3116959787529
20
-0.568756547387409
30
0
41
1
10
71.7586249812489
20
-1.05167472519642
30
0
41
1
10
72.0693165225557
20
-1.3572734383871
30
0
41
1
10
72.5517522697264
20
-1.79462875692789
30
0
41
1
10
72.7153797778473
20
-1.93680084700827
30
0
41
1
10
73.0475782001616
20
-2.21480156433589
30
0
41
1
10
73.216252806441
20
-2.35072907842348
30
0
41
1
10
73.7249305748395
20
-2.7466380803923
30
0
41
1
10
74.0689618551834
20
-2.99595771851409
30
0
41
1
10
74.7653863899967
20
-3.46971295339623
30
0
41
1
10
75.1177820814607
20
-3.69414129800828
30
0
41
1
10
75.473898275295
20
-3.90749795865287
30
0
0
SPLINE
5
B4
100
AcDbEntity
8
1
62
256
6
ByLayer
370
18
48
1
60
0
100
AcDbSpline
70
2053
71
3
72
60
73
56
40
0
40
0
40
0
40
0
40
0.0312500000000001
40
0.0312500000000001
40
0.0625000000000003
40
0.0625000000000003
40
0.0937500000000004
40
0.0937500000000004
40
0.125000000000001
40
0.125000000000001
40
0.156250000000001
40
0.156250000000001
40
0.187500000000001
40
0.187500000000001
40
0.250000000000001
40
0.250000000000001
40
0.281250000000001
40
0.281250000000001
40
0.312500000000001
40
0.312500000000001
40
0.375000000000001
40
0.375000000000001
40
0.437500000000001
40
0.437500000000001
40
0.468750000000001
40
0.468750000000001
40
0.500000000000001
40
0.500000000000001
40
0.531250000000001
40
0.531250000000001
40
0.562500000000001
40
0.562500000000001
40
0.593750000000001
40
0.593750000000001
40
0.625000000000001
40
0.625000000000001
40
0.656250000000001
40
0.656250000000001
40
0.687500000000001
40
0.687500000000001
40
0.750000000000001
40
0.750000000000001
40
0.781250000000001
40
0.781250000000001
40
0.812500000000001
40
0.812500000000001
40
0.84375
40
0.84375
40
0.875
40
0.875
40
0.90625
40
0.90625
40
0.9375
40
0.9375
40
1
40
1
40
1
40
1
41
1
10
77.2942945913743
20
-3.48918545053742
30
0
41
1
10
77.32318540869
20
-3.44794491075766
30
0
41
1
10
77.3514787042007
20
-3.40374770336683
30
0
41
1
10
77.406765947751
20
-3.30892381546198
30
0
41
1
10
77.4340611813841
20
-3.25766800825861
30
0
41
1
10
77.485403879625
20
-3.15078955146402
30
0
41
1
10
77.5093907895518
20
-3.09544478857617
30
0
41
1
10
77.5534696415421
20
-2.98034905114764
30
0
41
1
10
77.5730103584437
20
-2.92185793933712
30
0
41
1
10
77.605460494255
20
-2.80690324280718
30
0
41
1
10
77.6187065203866
20
-2.74894170517109
30
0
41
1
10
77.6370452952528
20
-2.64067972286537
30
0
41
1
10
77.6423994871689
20
-2.58934686340106
30
0
41
1
10
77.6469100234258
20
-2.44879690381532
30
0
41
1
10
77.6344799904614
20
-2.37498546942717
30
0
41
1
10
77.5997522561466
20
-2.29666666520046
30
0
41
1
10
77.5853840474258
20
-2.27564758236699
30
0
41
1
10
77.5527956678348
20
-2.24394656427725
30
0
41
1
10
77.5344710625422
20
-2.23300377913159
30
0
41
1
10
77.4739601779459
20
-2.21375356269607
30
0
41
1
10
77.4279663980471
20
-2.21916455217209
30
0
41
1
10
77.3267268738955
20
-2.26215113800319
30
0
41
1
10
77.2733024001762
20
-2.2989172950422
30
0
41
1
10
77.1888882602928
20
-2.377358977336
30
0
41
1
10
77.1602046262907
20
-2.40736687496153
30
0
41
1
10
77.1032190848925
20
-2.47378904381998
30
0
41
1
10
77.0747058509105
20
-2.51038576790941
30
0
41
1
10
77.017634061677
20
-2.59107759678497
30
0
41
1
10
76.9887559696182
20
-2.63573358336709
30
0
41
1
10
76.9330057664811
20
-2.73069976843667
30
0
41
1
10
76.9060681753106
20
-2.78098592744914
30
0
41
1
10
76.8543704096162
20
-2.88806851311855
30
0
41
1
10
76.8298933807298
20
-2.94442914799359
30
0
41
1
10
76.7860185918017
20
-3.05883025678949
30
0
41
1
10
76.7661199143773
20
-3.11834021979087
30
0
41
1
10
76.7335732271021
20
-3.23392814171783
30
0
41
1
10
76.7205712624152
20
-3.2909572350251
30
0
41
1
10
76.7020836573832
20
-3.40044282208763
30
0
41
1
10
76.6968283677565
20
-3.45119397092569
30
0
41
1
10
76.6921885999695
20
-3.59231258006642
30
0
41
1
10
76.7044849056126
20
-3.66695327219983
30
0
41
1
10
76.7388320137731
20
-3.74607371220458
30
0
41
1
10
76.7530217239876
20
-3.76737938944652
30
0
41
1
10
76.7855855589844
20
-3.79986106934479
30
0
41
1
10
76.8038224770773
20
-3.81102365906295
30
0
41
1
10
76.8437925182099
20
-3.82426720260327
30
0
41
1
10
76.865650853244
20
-3.82627081751303
30
0
41
1
10
76.9114701899602
20
-3.82159347638168
30
0
41
1
10
76.9355533486168
20
-3.81498911016504
30
0
41
1
10
76.9859803845536
20
-3.79356255299305
30
0
41
1
10
77.0124751219562
20
-3.77859477365323
30
0
41
1
10
77.0662705322096
20
-3.74122708297742
30
0
41
1
10
77.093717424397
20
-3.71880067870597
30
0
41
1
10
77.1777350041023
20
-3.64009383168738
30
0
41
1
10
77.2365129567429
20
-3.57166653009693
30
0
41
1
10
77.2942945913743
20
-3.48918545053741
30
0
0
SPLINE
5
B5
100
AcDbEntity
8
1
62
256
6
ByLayer
370
18
48
1
60
0
100
AcDbSpline
70
4
71
3
72
8
73
4
40
0
40
0
40
0
40
0
40
1
40
1
40
1
40
1
41
1
10
76.6459419831735
20
-6.65489505736306
30
0
41
1
10
76.6136582681686
20
-6.68154697588747
30
0
41
1
10
76.5860651668332
20
-6.6949689874547
30
0
41
1
10
76.5632390622913
20
-6.69494565296378
30
0
0
SPLINE
5
B6
100
AcDbEntity
8
1
62
256
6
ByLayer
370
18
48
1
60
0
100
AcDbSpline
70
4
71
3
72
26
73
22
40
0
40
0
40
0
40
0
40
0.250000000000009
40
0.250000000000009
40
0.375000000000013
40
0.375000000000013
40
0.500000000000018
40
0.500000000000018
40
0.625000000000023
40
0.625000000000023
40
0.687500000000019
40
0.687500000000019
40
0.750000000000015
40
0.750000000000015
40
0.812500000000011
40
0.812500000000011
40
0.875000000000008
40
0.875000000000008
40
0.937500000000004
40
0.937500000000004
40
1
40
1
40
1
40
1
41
1
10
75.7508387742352
20
1.95655753559805
30
0
41
1
10
75.9894838029843
20
1.999189296401
30
0
41
1
10
76.2262989606839
20
2.04847148615633
30
0
41
1
10
76.5767821413878
20
2.14024062133879
30
0
41
1
10
76.6928081123754
20
2.17385232952785
30
0
41
1
10
76.9225944710631
20
2.2497887282708
30
0
41
1
10
77.0364536968486
20
2.29212534480408
30
0
41
1
10
77.25799073211
20
2.38904242096905
30
0
41
1
10
77.3665915114652
20
2.44394716384755
30
0
41
1
10
77.5193872760695
20
2.54016759448084
30
0
41
1
10
77.5686537069433
20
2.5745810597777
30
0
41
1
10
77.6627014706117
20
2.64976562380699
30
0
41
1
10
77.7078377327513
20
2.69089418707085
30
0
41
1
10
77.7898234286186
20
2.78008387090017
30
0
41
1
10
77.8266511209706
20
2.82798743943439
30
0
41
1
10
77.8892980334251
20
2.9326198035663
30
0
41
1
10
77.9143110404866
20
2.98838186327771
30
0
41
1
10
77.9487124173784
20
3.10424006281389
30
0
41
1
10
77.9582842044528
20
3.16579265914871
30
0
41
1
10
77.9614017755219
20
3.28777440318021
30
0
41
1
10
77.9552830097007
20
3.34884204575894
30
0
41
1
10
77.9430301875689
20
3.40902114126376
30
0
0
SPLINE
5
B7
100
AcDbEntity
8
1
62
256
6
ByLayer
370
18
48
1
60
0
100
AcDbSpline
70
4
71
3
72
20
73
16
40
0
40
0
40
0
40
0
40
0.125
40
0.125
40
0.25
40
0.25
40
0.375
40
0.375
40
0.5
40
0.5
40
0.75
40
0.75
40
0.875
40
0.875
40
1
40
1
40
1
40
1
41
1
10
12.1241525535013
20
-3.86079352349097
30
0
41
1
10
11.7783759188265
20
-3.69503151869344
30
0
41
1
10
11.4337764031421
20
-3.52114893454848
30
0
41
1
10
10.7509811729685
20
-3.16039404066453
30
0
41
1
10
10.4121967745422
20
-2.97332672654278
30
0
41
1
10
9.7385252477699
20
-2.58775597154502
30
0
41
1
10
9.40363275065164
20
-2.38929382226698
30
0
41
1
10
8.7370789097771
20
-1.98114085418706
30
0
41
1
10
8.40545083354621
20
-1.77124775461829
30
0
41
1
10
7.41462851540311
20
-1.12644407851053
30
0
41
1
10
6.7591867060649
20
-0.676644480626123
30
0
41
1
10
5.78842735840692
20
0.0418536325732077
30
0
41
1
10
5.46969901270202
20
0.286848199882257
30
0
41
1
10
4.84751307910338
20
0.790804135294479
30
0
41
1
10
4.54366401696447
20
1.04983041429901
30
0
41
1
10
4.25105618619682
20
1.32019585969451
30
0
0
SPLINE
5
B8
100
AcDbEntity
8
1
62
256
6
ByLayer
370
18
48
1
60
0
100
AcDbSpline
70
4
71
3
72
10
73
6
40
0
40
0
40
0
40
0
40
0.5
40
0.5
40
1
40
1
40
1
40
1
41
1
10
4.12118171082727
20
-6.68235835353417
30
0
41
1
10
4.14087554166969
20
-6.67079593960977
30
0
41
1
10
4.16214232170884
20
-6.66204781458566
30
0
41
1
10
4.20551236459571
20
-6.65069515910781
30
0
41
1
10
4.22766462763596
20
-6.64797194122059
30
0
41
1
10
4.25028233274335
20
-6.64825419410397
30
0
0
SPLINE
5
B9
100
AcDbEntity
8
1
62
256
6
ByLayer
370
18
48
1
60
0
100
AcDbSpline
70
4
71
3
72
8
73
4
40
0
40
0
40
0
40
0
40
1
40
1
40
1
40
1
41
1
10
76.5465540605515
20
-6.95136659149944
30
0
41
1
10
76.5727346971507
20
-6.88151517963396
30
0
41
1
10
76.5988924071351
20
-6.81159871424708
30
0
41
1
10
76.6250271620059
20
-6.74161711447357
30
0
0
SPLINE
5
BA
100
AcDbEntity
8
1
62
256
6
ByLayer
370
18
48
1
60
0
100
AcDbSpline
70
4
71
3
72
46
73
42
40
0
40
0
40
0
40
0
40
0.0899889674762702
40
0.0899889674762702
40
0.134983451214405
40
0.134983451214405
40
0.17997793495254
40
0.17997793495254
40
0.224972418690675
40
0.224972418690675
40
0.26996690242881
40
0.26996690242881
40
0.359955869905079
40
0.359955869905079
40
0.404950353643214
40
0.404950353643214
40
0.449944837381349
40
0.449944837381349
40
0.494939321119484
40
0.494939321119484
40
0.539933804857619
40
0.539933804857619
40
0.584928288595755
40
0.584928288595755
40
0.62992277233389
40
0.62992277233389
40
0.674917256072025
40
0.674917256072025
40
0.71991173981016
40
0.71991173981016
40
0.764906223548295
40
0.764906223548295
40
0.80990070728643
40
0.80990070728643
40
0.854895191024565
40
0.854895191024565
40
0.8998896747627
40
0.8998896747627
40
0.989878642238972
40
0.989878642238972
40
1
40
1
40
1
40
1
41
1
10
18.7741818614684
20
1.47228620146663
30
0
41
1
10
19.3775289966484
20
1.10517007888538
30
0
41
1
10
19.9814751455171
20
0.737335624169873
30
0
41
1
10
20.8854475888835
20
0.179982845313731
30
0
41
1
10
21.186100664791
20
-0.0073044485733362
30
0
41
1
10
21.7884981373291
20
-0.380939793023117
30
0
41
1
10
22.0906747372578
20
-0.566793118988983
30
0
41
1
10
22.6957068591461
20
-0.937334334519335
30
0
41
1
10
22.9977384092802
20
-1.12144491948706
30
0
41
1
10
23.6004604524805
20
-1.48793706249731
30
0
41
1
10
23.9008332070721
20
-1.67080494405411
30
0
41
1
10
24.8043271389439
20
-2.20983568171343
30
0
41
1
10
25.4087406680202
20
-2.55911426405817
30
0
41
1
10
26.3142147024325
20
-3.07044421276905
30
0
41
1
10
26.6152639163014
20
-3.23784368400152
30
0
41
1
10
27.2183228646714
20
-3.56305704496612
30
0
41
1
10
27.5198965982262
20
-3.7215242081698
30
0
41
1
10
28.1227288933332
20
-4.03077216247249
30
0
41
1
10
28.4239111398476
20
-4.18164965964178
30
0
41
1
10
29.0259438444963
20
-4.47554795970331
30
0
41
1
10
29.3279560240447
20
-4.61752162920519
30
0
41
1
10
29.9325502805394
20
-4.89053353546106
30
0
41
1
10
30.2345235247297
20
-5.02154752795531
30
0
41
1
10
30.8374439134776
20
-5.27306627883169
30
0
41
1
10
31.1380518808019
20
-5.39390095053579
30
0
41
1
10
31.7396768112932
20
-5.62338194682533
30
0
41
1
10
32.0411779855243
20
-5.73159423593586
30
0
41
1
10
32.6448335682325
20
-5.93580233844531
30
0
41
1
10
32.947332570635
20
-6.03185052176875
30
0
41
1
10
33.5511677557405
20
-6.21129369417184
30
0
41
1
10
33.8518479044605
20
-6.2948175500056
30
0
41
1
10
34.454272485728
20
-6.4469994969478
30
0
41
1
10
34.7557284756107
20
-6.51593067918228
30
0
41
1
10
35.3586160803517
20
-6.63993330678454
30
0
41
1
10
35.6600667846118
20
-6.69499217568793
30
0
41
1
10
36.2625968447298
20
-6.79114238814137
30
0
41
1
10
36.5641679941978
20
-6.83213941640057
30
0
41
1
10
37.4701901436136
20
-6.93204469474847
30
0
41
1
10
38.0734387576856
20
-6.96894801232642
30
0
41
1
10
38.7423488527428
20
-6.97688050434914
30
0
41
1
10
38.8099990075346
20
-6.97730075796534
30
0
41
1
10
38.8776742990346
20
-6.97734062171659
30
0
0
SPLINE
5
BB
100
AcDbEntity
8
1
62
256
6
ByLayer
370
18
48
1
60
0
100
AcDbSpline
70
4
71
3
72
28
73
24
40
0
40
0
40
0
40
0
40
0.0682700739220411
40
0.0682700739220411
40
0.152972794474583
40
0.152972794474583
40
0.237675515027124
40
0.237675515027124
40
0.322378235579665
40
0.322378235579665
40
0.407080956132206
40
0.407080956132206
40
0.491783676684747
40
0.491783676684747
40
0.66118911778983
40
0.66118911778983
40
0.745891838342372
40
0.745891838342372
40
0.830594558894915
40
0.830594558894915
40
0.915297279447457
40
0.915297279447457
40
1
40
1
40
1
40
1
41
1
10
65.9737429939979
20
5.17594894782195
30
0
41
1
10
66.2162193535805
20
5.2776565214624
30
0
41
1
10
66.4582899737954
20
5.375917529307
30
0
41
1
10
67.0017992372834
20
5.58629679480924
30
0
41
1
10
67.3030561570131
20
5.69657401780168
30
0
41
1
10
67.9057496895921
20
5.90518045082572
30
0
41
1
10
68.2071974239933
20
6.0034992680965
30
0
41
1
10
68.8099111133377
20
6.18819869244447
30
0
41
1
10
69.1113070955732
20
6.27394050098727
30
0
41
1
10
69.7141283874024
20
6.43068073213112
30
0
41
1
10
70.0154740934417
20
6.50204499583862
30
0
41
1
10
70.6176442125866
20
6.63105725419371
30
0
41
1
10
70.9183183410517
20
6.68876835087011
30
0
41
1
10
71.8200637908794
20
6.8406169482372
30
0
41
1
10
72.4257438399883
20
6.91218197673103
30
0
41
1
10
73.3297734640392
20
6.97524095399768
30
0
41
1
10
73.630152101558
20
6.98888342656201
30
0
41
1
10
74.2317832647138
20
7.00098822265241
30
0
41
1
10
74.5332173853228
20
6.99951611302376
30
0
41
1
10
75.1366679206646
20
6.9816798909504
30
0
41
1
10
75.4390210124313
20
6.96528079263965
30
0
41
1
10
76.0418700695991
20
6.91743248771849
30
0
41
1
10
76.3422233055201
20
6.88585974479639
30
0
41
1
10
76.643271452276
20
6.84717457729298
30
0
0
SPLINE
5
BC
100
AcDbEntity
8
1
62
256
6
ByLayer
370
18
48
1
60
0
100
AcDbSpline
70
4
71
3
72
10
73
6
40
0
40
0
40
0
40
0
40
0.85102561465822
40
0.85102561465822
40
1
40
1
40
1
40
1
41
1
10
76.5465540605515
20
6.95136659149944
30
0
41
1
10
76.1673940188545
20
6.97888287796079
30
0
41
1
10
75.7882491791819
20
6.99452806375939
30
0
41
1
10
75.3422029733065
20
6.99892281896786
30
0
41
1
10
75.2757555346739
20
6.99921102670709
30
0
41
1
10
75.2093201868399
20
6.99913423111551
30
0
0
SPLINE
5
BD
100
AcDbEntity
8
1
62
256
6
ByLayer
370
18
48
1
60
0
100
AcDbSpline
70
4
71
3
72
54
73
50
40
0
40
0
40
0
40
0
40
0.0122712253798351
40
0.0122712253798351
40
0.0708293307749723
40
0.0708293307749723
40
0.100108383472541
40
0.100108383472541
40
0.12938743617011
40
0.12938743617011
40
0.187945541565248
40
0.187945541565248
40
0.246503646960386
40
0.246503646960386
40
0.275782699657955
40
0.275782699657955
40
0.305061752355524
40
0.305061752355524
40
0.422177963145799
40
0.422177963145799
40
0.451457015843368
40
0.451457015843368
40
0.466096542192152
40
0.466096542192152
40
0.480736068540936
40
0.480736068540936
40
0.539294173936072
40
0.539294173936072
40
0.656410384726345
40
0.656410384726345
40
0.671049911075129
40
0.671049911075129
40
0.685689437423913
40
0.685689437423913
40
0.714968490121481
40
0.714968490121481
40
0.773526595516617
40
0.773526595516617
40
0.832084700911754
40
0.832084700911754
40
0.846724227260537
40
0.846724227260537
40
0.861363753609321
40
0.861363753609321
40
0.890642806306889
40
0.890642806306889
40
0.949200911702024
40
0.949200911702024
40
1
40
1
40
1
40
1
41
1
10
43.0594677000448
20
-6.69307183025424
30
0
41
1
10
42.9003356020327
20
-6.72094391681367
30
0
41
1
10
42.7411370727451
20
-6.74682678729556
30
0
41
1
10
41.8221137811138
20
-6.88451965452151
30
0
41
1
10
41.0653385409035
20
-6.95170485550807
30
0
41
1
10
39.9284007252304
20
-6.98158246622103
30
0
41
1
10
39.5491005825004
20
-6.97971922710863
30
0
41
1
10
38.7888137335834
20
-6.95216227125573
30
0
41
1
10
38.4103163759837
20
-6.92654744236103
30
0
41
1
10
37.2783067581198
20
-6.81528845947386
30
0
41
1
10
36.5281242352045
20
-6.69525829259473
30
0
41
1
10
35.028602431503
20
-6.36870518560747
30
0
41
1
10
34.2792288160404
20
-6.16220055725964
30
0
41
1
10
33.1496749996079
20
-5.79120588180862
30
0
41
1
10
32.7722017537384
20
-5.65736793163899
30
0
41
1
10
32.0143775768542
20
-5.36986287891963
30
0
41
1
10
31.6335779988505
20
-5.21593000387352
30
0
41
1
10
29.7416989198417
20
-4.40843674443167
30
0
41
1
10
28.24959775162
20
-3.63590726226798
30
0
41
1
10
26.3704921943843
20
-2.56973476116514
30
0
41
1
10
25.9939709061401
20
-2.3514667173028
30
0
41
1
10
25.4273209265298
20
-2.01765660394463
30
0
41
1
10
25.2381276185934
20
-1.90531643959503
30
0
41
1
10
24.8589923544297
20
-1.67867228313392
30
0
41
1
10
24.6687734255307
20
-1.56419985398193
30
0
41
1
10
23.7192944888433
20
-0.989703055156497
30
0
41
1
10
22.9661608811778
20
-0.524193956243408
30
0
41
1
10
20.7129168908592
20
0.868511278815248
30
0
41
1
10
19.2199929816097
20
1.79359508605344
30
0
41
1
10
17.5128185383281
20
2.76817275416846
30
0
41
1
10
17.3224766191053
20
2.87569532215656
30
0
41
1
10
16.9427855820107
20
3.08768211600019
30
0
41
1
10
16.7533444742855
20
3.19219389512298
30
0
41
1
10
16.1860106111675
20
3.50101138864625
30
0
41
1
10
15.8091011511226
20
3.70058968960109
30
0
41
1
10
14.6806049107909
20
4.27839263672811
30
0
41
1
10
13.9314072418912
20
4.63591209847968
30
0
41
1
10
12.430978748447
20
5.28563526734538
30
0
41
1
10
11.6798120402286
20
5.577914266562
30
0
41
1
10
10.7344106013834
20
5.8961145068179
30
0
41
1
10
10.5450080969322
20
5.95739660343412
30
0
41
1
10
10.16543477615
20
6.07508677506968
30
0
41
1
10
9.9750585209033
20
6.1315459524985
30
0
41
1
10
9.40544395323363
20
6.29255744708703
30
0
41
1
10
9.0269766462537
20
6.38898931591396
30
0
41
1
10
7.89373829343569
20
6.6449911073955
30
0
41
1
10
7.14133076420649
20
6.77138009280208
30
0
41
1
10
5.73378250554751
20
6.92167439034654
30
0
41
1
10
5.07888993367658
20
6.9569824118152
30
0
41
1
10
4.42053294649568
20
6.95666942117791
30
0
0
SPLINE
5
BE
100
AcDbEntity
8
1
62
256
6
ByLayer
370
18
48
1
60
0
100
AcDbSpline
70
4
71
3
72
16
73
12
40
0
40
0
40
0
40
0
40
0.25
40
0.25
40
0.5
40
0.5
40
0.75
40
0.75
40
0.875
40
0.875
40
1
40
1
40
1
40
1
41
1
10
77.9430301875689
20
3.40902114126376
30
0
41
1
10
77.8352434614638
20
3.69775827959947
30
0
41
1
10
77.727323737968
20
3.9863093719672
30
0
41
1
10
77.5111545036183
20
4.5620452101696
30
0
41
1
10
77.4028461845384
20
4.84908310212157
30
0
41
1
10
77.186216084822
20
5.42310893804935
30
0
41
1
10
77.0778450458109
20
5.71007956407959
30
0
41
1
10
76.9150004041865
20
6.13761040911476
30
0
41
1
10
76.8606941081112
20
6.27989053151941
30
0
41
1
10
76.7520575337034
20
6.5642277463686
30
0
41
1
10
76.6977147907661
20
6.70616892060127
30
0
41
1
10
76.6432714522759
20
6.8471745772934
30
0
0
SPLINE
5
BF
100
AcDbEntity
8
1
62
256
6
ByLayer
370
18
48
1
60
0
100
AcDbSpline
70
4
71
3
72
22
73
18
40
0
40
0
40
0
40
0
40
0.0233759810365757
40
0.0233759810365757
40
0.0883095304014858
40
0.0883095304014858
40
0.153243079766396
40
0.153243079766396
40
0.283110178496212
40
0.283110178496212
40
0.542844375955849
40
0.542844375955849
40
0.802578573415486
40
0.802578573415486
40
0.932445672145304
40
0.932445672145304
40
1
40
1
40
1
40
1
41
1
10
22.1121562760381
20
0.0036597201475104
30
0
41
1
10
22.1801464133143
20
-0.0371275851304631
30
0
41
1
10
22.2481731114851
20
-0.0779365727321135
30
0
41
1
10
22.5053128484982
20
-0.232167881058586
30
0
41
1
10
22.694677466974
20
-0.34572929921535
30
0
41
1
10
23.074129485113
20
-0.572929551975051
30
0
41
1
10
23.2644881257703
20
-0.686729507630247
30
0
41
1
10
23.8346245017939
20
-1.02654820681997
30
0
41
1
10
24.2131426677239
20
-1.25080590850655
30
0
41
1
10
25.3455353386318
20
-1.9143399700082
30
0
41
1
10
26.0962456506343
20
-2.34432747557022
30
0
41
1
10
27.5971102651082
20
-3.16757834452594
30
0
41
1
10
28.3472995657822
20
-3.5607166852339
30
0
41
1
10
29.4780015235524
20
-4.11386617244199
30
0
41
1
10
29.8558289879301
20
-4.29212016008128
30
0
41
1
10
30.4324021058219
20
-4.55251358518223
30
0
41
1
10
30.6301919819574
20
-4.63978019911289
30
0
41
1
10
30.8278782905006
20
-4.72484412624351
30
0
0
SPLINE
5
C0
100
AcDbEntity
8
1
62
256
6
ByLayer
370
13
48
1
60
0
100
AcDbSpline
70
4
71
3
72
16
73
12
40
0
40
0
40
0
40
0
40
0.0497851131178901
40
0.0497851131178901
40
0.464816398159518
40
0.464816398159518
40
0.67233204068033
40
0.67233204068033
40
0.879847683201142
40
0.879847683201142
40
1
40
1
40
1
40
1
41
1
10
30.827877371813
20
-4.72484373093451
30
0
41
1
10
31.0102254573864
20
-4.80330766501848
30
0
41
1
10
31.1924854240297
20
-4.87989745979954
30
0
41
1
10
32.8889300166491
20
-5.57478749844773
30
0
41
1
10
34.3826490167139
20
-6.05224753662412
30
0
41
1
10
36.6385521287299
20
-6.51690207292941
30
0
41
1
10
37.3935682848468
20
-6.62998119379188
30
0
41
1
10
38.9150453340156
20
-6.76542551304024
30
0
41
1
10
39.6743479471197
20
-6.78722994841741
30
0
41
1
10
40.875196285351
20
-6.7485081079453
30
0
41
1
10
41.3139467639649
20
-6.71887839502301
30
0
41
1
10
41.7518944622444
20
-6.67419628684343
30
0
0
SPLINE
5
C1
100
AcDbEntity
8
1
62
256
6
ByLayer
370
13
48
1
60
0
100
AcDbSpline
70
4
71
3
72
8
73
4
40
0
40
0
40
0
40
0
40
1
40
1
40
1
40
1
41
1
10
4.1987681341794
20
-6.74985449535873
30
0
41
1
10
4.91580458302624
20
-6.75891357853018
30
0
41
1
10
5.62983630964683
20
-6.72657670152302
30
0
41
1
10
6.34392206028866
20
-6.65410786478097
30
0
0
SPLINE
5
C2
100
AcDbEntity
8
1
62
256
6
ByLayer
370
18
48
1
60
0
100
AcDbSpline
70
4
71
3
72
18
73
14
40
0
40
0
40
0
40
0
40
0.115073849173716
40
0.115073849173716
40
0.243361310288602
40
0.243361310288602
40
0.307505040846048
40
0.307505040846048
40
0.371648771403492
40
0.371648771403492
40
0.628223693633269
40
0.628223693633269
40
1
40
1
40
1
40
1
41
1
10
57.5251354278655
20
-0.004094185144595
30
0
41
1
10
57.8615234810413
20
-0.206577507123683
30
0
41
1
10
58.1981007597885
20
-0.409203322318206
30
0
41
1
10
58.9110390067295
20
-0.836780527921519
30
0
41
1
10
59.287621518088
20
-1.06146639436164
30
0
41
1
10
59.8542237721636
20
-1.39644218900014
30
0
41
1
10
60.0433801796575
20
-1.50775673578792
30
0
41
1
10
60.4223965755324
20
-1.72948586350017
30
0
41
1
10
60.6125030084017
20
-1.84005121358859
30
0
41
1
10
61.5620168922194
20
-2.38816014986082
30
0
41
1
10
62.3154940898446
20
-2.80921649864467
30
0
41
1
10
64.154778089325
20
-3.78553551612288
30
0
41
1
10
65.237843217172
20
-4.31621311503224
30
0
41
1
10
66.3279932498524
20
-4.78280425598831
30
0
0
SPLINE
5
C3
100
AcDbEntity
8
1
62
256
6
ByLayer
370
13
48
1
60
0
100
AcDbSpline
70
4
71
3
72
22
73
18
40
0
40
0
40
0
40
0
40
0.121072939487938
40
0.121072939487938
40
0.230938822051944
40
0.230938822051944
40
0.340804704615951
40
0.340804704615951
40
0.560536469743967
40
0.560536469743967
40
0.780268234871983
40
0.780268234871983
40
0.890134117435991
40
0.890134117435991
40
0.945067058717995
40
0.945067058717995
40
1
40
1
40
1
40
1
41
1
10
66.3279923304343
20
-4.78280386247152
30
0
41
1
10
66.7425385990072
20
-4.96023231385738
30
0
41
1
10
67.1581093565552
20
-5.12839375344808
30
0
41
1
10
67.9540246528022
20
-5.42968049697862
30
0
41
1
10
68.3348989455004
20
-5.56482124101564
30
0
41
1
10
69.0921455170505
20
-5.81421506827274
30
0
41
1
10
69.4693707019817
20
-5.92882360665348
30
0
41
1
10
70.598361140437
20
-6.24163567703232
30
0
41
1
10
71.3473745908254
20
-6.40889580624176
30
0
41
1
10
72.8461415193852
20
-6.6568092857697
30
0
41
1
10
73.5960479411408
20
-6.73755880216464
30
0
41
1
10
74.727342107761
20
-6.79081557852476
30
0
41
1
10
75.1055351040826
20
-6.79724428100511
30
0
41
1
10
75.6751679379538
20
-6.78943663569834
30
0
41
1
10
75.8652983739334
20
-6.78392301046352
30
0
41
1
10
76.2451954427687
20
-6.76710028359241
30
0
41
1
10
76.4351092630547
20
-6.7554835555253
30
0
41
1
10
76.6250271619936
20
-6.74161711446826
30
0
0
SPLINE
5
C4
100
AcDbEntity
8
1
62
256
6
ByLayer
370
13
48
1
60
0
100
AcDbSpline
70
4
71
3
72
8
73
4
40
0
40
0
40
0
40
0
40
1
40
1
40
1
40
1
41
1
10
4.12118171082727
20
-6.77024314133897
30
0
41
1
10
4.14528788476591
20
-6.75618088525488
30
0
41
1
10
4.17166734891808
20
-6.74951210234917
30
0
41
1
10
4.1987681341794
20
-6.74985449535873
30
0
0
SPLINE
5
C5
100
AcDbEntity
8
1
62
256
6
ByLayer
370
13
48
1
60
0
100
AcDbSpline
70
4
71
3
72
8
73
4
40
0
40
0
40
0
40
0
40
1
40
1
40
1
40
1
41
1
10
4.11861093070002
20
-6.95402899585221
30
0
41
1
10
4.11945846634342
20
-6.89276720510856
30
0
41
1
10
4.12031536367303
20
-6.83150525537494
30
0
41
1
10
4.12118171082724
20
-6.77024314133897
30
0
0
SPLINE
5
C6
100
AcDbEntity
8
1
62
256
6
ByLayer
370
18
48
1
60
0
100
AcDbSpline
70
4
71
3
72
44
73
40
40
0
40
0
40
0
40
0
40
0.0967539615167449
40
0.0967539615167449
40
0.145130942275118
40
0.145130942275118
40
0.193507923033491
40
0.193507923033491
40
0.241884903791864
40
0.241884903791864
40
0.290261884550236
40
0.290261884550236
40
0.387015846066984
40
0.387015846066984
40
0.435392826825358
40
0.435392826825358
40
0.483769807583731
40
0.483769807583731
40
0.532146788342105
40
0.532146788342105
40
0.580523769100479
40
0.580523769100479
40
0.628900749858853
40
0.628900749858853
40
0.677277730617226
40
0.677277730617226
40
0.7256547113756
40
0.7256547113756
40
0.774031692133974
40
0.774031692133974
40
0.822408672892348
40
0.822408672892348
40
0.870785653650721
40
0.870785653650721
40
0.919162634409095
40
0.919162634409095
40
0.967539615167469
40
0.967539615167469
40
1
40
1
40
1
40
1
41
1
10
12.1241859288734
20
-3.86080959403691
30
0
41
1
10
12.7211444823758
20
-4.14825029880785
30
0
41
1
10
13.3168635610459
20
-4.41860757851705
30
0
41
1
10
14.2091251698934
20
-4.79471620127001
30
0
41
1
10
14.5063034115207
20
-4.91544642942847
30
0
41
1
10
15.1015016804273
20
-5.14659882903158
30
0
41
1
10
15.3995918522896
20
-5.25686793943044
30
0
41
1
10
15.9966173880405
20
-5.46616762193437
30
0
41
1
10
16.2950782326853
20
-5.56498638976183
30
0
41
1
10
16.8905894483629
20
-5.75133499998916
30
0
41
1
10
17.187780675668
20
-5.83923306619721
30
0
41
1
10
18.0802515744848
20
-6.08154380083627
30
0
41
1
10
18.6756703996591
20
-6.21686636359618
30
0
41
1
10
19.5698190435706
20
-6.38412647684376
30
0
41
1
10
19.8680989108014
20
-6.43281645269005
30
0
41
1
10
20.4639786416957
20
-6.51567669769344
30
0
41
1
10
20.7617094175191
20
-6.55021835536218
30
0
41
1
10
21.3568195813126
20
-6.60669462421896
30
0
41
1
10
21.6541474500796
20
-6.62898252638729
30
0
41
1
10
22.248713452101
20
-6.65733288196978
30
0
41
1
10
22.5463939097113
20
-6.66390181237688
30
0
41
1
10
23.1428240957083
20
-6.66389575472897
30
0
41
1
10
23.4416075885233
20
-6.65735474954744
30
0
41
1
10
24.0375981276809
20
-6.63119572525795
30
0
41
1
10
24.3349228730152
20
-6.61053846571735
30
0
41
1
10
24.9294594467422
20
-6.5547818325775
30
0
41
1
10
25.2269549585762
20
-6.52002439743461
30
0
41
1
10
25.8221998211589
20
-6.43798656583897
30
0
41
1
10
26.1199341536079
20
-6.39105777009419
30
0
41
1
10
26.7158246201951
20
-6.28166092618514
30
0
41
1
10
27.0140902462761
20
-6.21941997045306
30
0
41
1
10
27.6100132533034
20
-6.08329802735034
30
0
41
1
10
27.9078834493173
20
-6.00944152069761
30
0
41
1
10
28.5032279314442
20
-5.85014841401045
30
0
41
1
10
28.8006819290996
20
-5.76361264557613
30
0
41
1
10
29.3954389183557
20
-5.57752866873363
30
0
41
1
10
29.6927156946593
20
-5.47829641561754
30
0
41
1
10
30.1906478900215
20
-5.30442378152318
30
0
41
1
10
30.3909501557741
20
-5.23248779592666
30
0
41
1
10
30.5911609469623
20
-5.15796087720886
30
0
0
SPLINE
5
C7
100
AcDbEntity
8
1
62
256
6
ByLayer
370
18
48
1
60
0
100
AcDbSpline
70
4
71
3
72
28
73
24
40
0
40
0
40
0
40
0
40
0.0635890965243741
40
0.0635890965243741
40
0.148717360476703
40
0.148717360476703
40
0.233845624429033
40
0.233845624429033
40
0.318973888381362
40
0.318973888381362
40
0.404102152333692
40
0.404102152333692
40
0.489230416286021
40
0.489230416286021
40
0.574358680238351
40
0.574358680238351
40
0.65948694419068
40
0.65948694419068
40
0.744615208143009
40
0.744615208143009
40
0.829743472095339
40
0.829743472095339
40
1
40
1
40
1
40
1
41
1
10
58.7876073092565
20
6.67623651361893
30
0
41
1
10
59.0097946891437
20
6.67016026987289
30
0
41
1
10
59.2320303287553
20
6.66035357405212
30
0
41
1
10
59.7524077595364
20
6.62764881837103
30
0
41
1
10
60.0505483998671
20
6.60149706922729
30
0
41
1
10
60.6458971423304
20
6.53634951825768
30
0
41
1
10
60.9433438532642
20
6.49756265819647
30
0
41
1
10
61.537751855083
20
6.40742954598244
30
0
41
1
10
61.8345320102649
20
6.35494775315189
30
0
41
1
10
62.4290757021148
20
6.23577044253148
30
0
41
1
10
62.7268277150083
20
6.16918671291526
30
0
41
1
10
63.323163352059
20
6.02319800192509
30
0
41
1
10
63.6214559105262
20
5.94378058234676
30
0
41
1
10
64.2165444997724
20
5.77305914625805
30
0
41
1
10
64.5135570431288
20
5.68161092041481
30
0
41
1
10
65.1082455588205
20
5.48858874638316
30
0
41
1
10
65.4056942424736
20
5.38699014615159
30
0
41
1
10
66.0007399856126
20
5.17192888409181
30
0
41
1
10
66.2983461415719
20
5.05839038608815
30
0
41
1
10
66.8940308358127
20
4.81944156248264
30
0
41
1
10
67.1921316404746
20
4.69440020862456
30
0
41
1
10
68.0854711745631
20
4.307223750117
30
0
41
1
10
68.6800363191751
20
4.03091948836826
30
0
41
1
10
69.2743816808369
20
3.73753719098656
30
0
0
SPLINE
5
C8
100
AcDbEntity
8
1
62
256
6
ByLayer
370
18
48
1
60
0
100
AcDbSpline
70
4
71
3
72
62
73
58
40
0
40
0
40
0
40
0
40
0.125000000000006
40
0.125000000000006
40
0.187500000000009
40
0.187500000000009
40
0.250000000000011
40
0.250000000000011
40
0.375000000000016
40
0.375000000000016
40
0.500000000000021
40
0.500000000000021
40
0.562500000000023
40
0.562500000000023
40
0.625000000000026
40
0.625000000000026
40
0.687500000000029
40
0.687500000000029
40
0.695312500000029
40
0.695312500000029
40
0.699218750000029
40
0.699218750000029
40
0.703125000000028
40
0.703125000000028
40
0.707031250000028
40
0.707031250000028
40
0.710937500000028
40
0.710937500000028
40
0.718750000000027
40
0.718750000000027
40
0.734375000000026
40
0.734375000000026
40
0.750000000000025
40
0.750000000000025
40
0.781250000000022
40
0.781250000000022
40
0.79687500000002
40
0.79687500000002
40
0.812500000000019
40
0.812500000000019
40
0.828125000000017
40
0.828125000000017
40
0.835937500000017
40
0.835937500000017
40
0.843750000000016
40
0.843750000000016
40
0.875000000000013
40
0.875000000000013
40
0.890625000000011
40
0.890625000000011
40
0.906250000000009
40
0.906250000000009
40
0.937500000000006
40
0.937500000000006
40
0.968750000000003
40
0.968750000000003
40
1
40
1
40
1
40
1
41
1
10
18.7741778873532
20
1.4722361801403
30
0
41
1
10
17.9489717792169
20
1.97259967288659
30
0
41
1
10
17.1151967513863
20
2.4415930252874
30
0
41
1
10
15.8413693074205
20
3.0871211725586
30
0
41
1
10
15.4146464808785
20
3.29158727686988
30
0
41
1
10
14.5572797847244
20
3.67646949190583
30
0
41
1
10
14.1262874413476
20
3.85704804222479
30
0
41
1
10
12.8236584357346
20
4.36160286665546
30
0
41
1
10
11.9422296442849
20
4.64798496903359
30
0
41
1
10
10.1411107734898
20
5.12132650295283
30
0
41
1
10
9.22143623555272
20
5.3085439371485
30
0
41
1
10
7.80719593790903
20
5.52270040280226
30
0
41
1
10
7.32978772164583
20
5.58299034622812
30
0
41
1
10
6.37149653032572
20
5.68200877575262
30
0
41
1
10
5.88905764539973
20
5.72096001002737
30
0
41
1
10
4.92119428658165
20
5.77885776215641
30
0
41
1
10
4.43589563690446
20
5.79784347256199
30
0
41
1
10
3.88831849307999
20
5.80818236731716
30
0
41
1
10
3.82745604403633
20
5.80917691485647
30
0
41
1
10
3.73615965128224
20
5.81043620726132
30
0
41
1
10
3.70572580033198
20
5.81081723817928
30
0
41
1
10
3.64485464654715
20
5.81150167959075
30
0
41
1
10
3.6143289151598
20
5.81099136616982
30
0
41
1
10
3.55493831017449
20
5.80474878629272
30
0
41
1
10
3.52544568880154
20
5.79940790051103
30
0
41
1
10
3.47501117754771
20
5.78117145138521
30
0
41
1
10
3.45028827940513
20
5.77149791638661
30
0
41
1
10
3.37600364321301
20
5.74257729169543
30
0
41
1
10
3.32705625968558
20
5.72265467023368
30
0
41
1
10
3.18208057893381
20
5.66076408726926
30
0
41
1
10
3.08766237031406
20
5.61654628892643
30
0
41
1
10
2.90652778899107
20
5.52211827369422
30
0
41
1
10
2.81969393958562
20
5.4718868201077
30
0
41
1
10
2.57226279064369
20
5.31024366158468
30
0
41
1
10
2.42408083954055
20
5.18810575897001
30
0
41
1
10
2.241001835578
20
4.97122197770136
30
0
41
1
10
2.18819274287316
20
4.89502865342783
30
0
41
1
10
2.10071454349722
20
4.7337055892869
30
0
41
1
10
2.06592633138808
20
4.64814622073405
30
0
41
1
10
2.0172612248075
20
4.46847129239364
30
0
41
1
10
2.00383243545539
20
4.37636605120966
30
0
41
1
10
1.9991502260913
20
4.2347767575516
30
0
41
1
10
2.00016907321137
20
4.18700814512806
30
0
41
1
10
2.00724648365116
20
4.09031821282608
30
0
41
1
10
2.01334922896385
20
4.04116777546761
30
0
41
1
10
2.05563868416806
20
3.79553161005239
30
0
41
1
10
2.12573334653564
20
3.60115371140063
30
0
41
1
10
2.2686385084493
20
3.31081213891829
30
0
41
1
10
2.32239164946358
20
3.21493838790556
30
0
41
1
10
2.43810516252196
20
3.02728319592677
30
0
41
1
10
2.50031244825269
20
2.93501945275315
30
0
41
1
10
2.69750861574309
20
2.66188675571232
30
0
41
1
10
2.84318438918763
20
2.48435818867486
30
0
41
1
10
3.15336453351131
20
2.13665770734474
30
0
41
1
10
3.31579152717754
20
1.96880972283054
30
0
41
1
10
3.65083249245853
20
1.64118434890369
30
0
41
1
10
3.82349362728328
20
1.48144822580218
30
0
41
1
10
4.00000020913723
20
1.32464855141808
30
0
0
SPLINE
5
C9
100
AcDbEntity
8
1
62
256
6
ByLayer
370
18
48
1
60
0
100
AcDbSpline
70
4
71
3
72
56
73
52
40
0
40
0
40
0
40
0
40
0.0307995529222963
40
0.0307995529222963
40
0.0615991058445926
40
0.0615991058445926
40
0.123198211689185
40
0.123198211689185
40
0.184797317533778
40
0.184797317533778
40
0.215596870456074
40
0.215596870456074
40
0.24639642337837
40
0.24639642337837
40
0.307995529222962
40
0.307995529222962
40
0.369594635067555
40
0.369594635067555
40
0.431193740912147
40
0.431193740912147
40
0.461993293834443
40
0.461993293834443
40
0.492792846756739
40
0.492792846756739
40
0.523592399679035
40
0.523592399679035
40
0.538992176140183
40
0.538992176140183
40
0.554391952601331
40
0.554391952601331
40
0.615991058445926
40
0.615991058445926
40
0.677590164290521
40
0.677590164290521
40
0.708389717212819
40
0.708389717212819
40
0.723789493673968
40
0.723789493673968
40
0.739189270135116
40
0.739189270135116
40
0.862387481824311
40
0.862387481824311
40
0.923986587668908
40
0.923986587668908
40
0.939386364130056
40
0.939386364130056
40
0.954786140591205
40
0.954786140591205
40
0.985585693513503
40
0.985585693513503
40
1
40
1
40
1
40
1
41
1
10
76.5465540605515
20
-6.95136659149944
30
0
41
1
10
76.1673187768701
20
-6.97888833839903
30
0
41
1
10
75.7882275156601
20
-6.99452491307119
30
0
41
1
10
75.029398974003
20
-7.00200814266208
30
0
41
1
10
74.6491792268393
20
-6.9937898709785
30
0
41
1
10
73.5145661638134
20
-6.9339281371108
30
0
41
1
10
72.7636796367812
20
-6.84725783960621
30
0
41
1
10
71.2648834217294
20
-6.58521598125697
30
0
41
1
10
70.516817802825
20
-6.4098962482305
30
0
41
1
10
69.3905245821568
20
-6.0840042291677
30
0
41
1
10
69.0144040931941
20
-5.96487910153786
30
0
41
1
10
68.2597508851274
20
-5.70618294002881
30
0
41
1
10
67.8807025985476
20
-5.56641035438523
30
0
41
1
10
66.741741125561
20
-5.11861563814239
30
0
41
1
10
65.985446044147
20
-4.78454118174048
30
0
41
1
10
64.4706526393582
20
-4.05519357183991
30
0
41
1
10
63.7102684737083
20
-3.65906359462693
30
0
41
1
10
62.1950077431258
20
-2.82603162990017
30
0
41
1
10
61.4385846698346
20
-2.38830664234823
30
0
41
1
10
60.2996520031039
20
-1.70883208541585
30
0
41
1
10
59.9200163505806
20
-1.47918309612709
30
0
41
1
10
59.1621794110345
20
-1.01669130730582
30
0
41
1
10
58.7836325781322
20
-0.783580185978167
30
0
41
1
10
58.0263075921707
20
-0.315195199556257
30
0
41
1
10
57.6474541551616
20
-0.0800426864874169
30
0
41
1
10
57.07809943324
20
0.272857018234703
30
0
41
1
10
56.8879537577189
20
0.390631996466993
30
0
41
1
10
56.5087410786361
20
0.62518962064317
30
0
41
1
10
56.319550483296
20
0.742053111689557
30
0
41
1
10
55.3751657884409
20
1.32348654049335
30
0
41
1
10
54.6244471418313
20
1.77905832264159
30
0
41
1
10
53.1254995623101
20
2.66042556235743
30
0
41
1
10
52.3767332438764
20
3.08537509998288
30
0
41
1
10
51.2491195191039
20
3.69072604413435
30
0
41
1
10
50.8724566068581
20
3.88708932110279
30
0
41
1
10
50.3054111946509
20
4.17218765336753
30
0
41
1
10
50.1160496488975
20
4.26564024691845
30
0
41
1
10
49.7365672104452
20
4.44926891794847
30
0
41
1
10
49.54643949451
20
4.53945137402894
30
0
41
1
10
47.8412168337231
20
5.33055962166711
30
0
41
1
10
46.34904486525
20
5.89629478958659
30
0
41
1
10
44.0971737966526
20
6.49733049316941
30
0
41
1
10
43.3442525694759
20
6.65634622220239
30
0
41
1
10
42.3949866802056
20
6.7987182243653
30
0
41
1
10
42.2049374598666
20
6.8243296781298
30
0
41
1
10
41.8260767438809
20
6.86957583829511
30
0
41
1
10
41.6370122745218
20
6.88925018489027
30
0
41
1
10
41.0707213232711
20
6.93947044173458
30
0
41
1
10
40.6943949959177
20
6.9612145959124
30
0
41
1
10
40.1429619204686
20
6.97605031005492
30
0
41
1
10
39.9673123391036
20
6.97823351966022
30
0
41
1
10
39.7917588909207
20
6.97787746974242
30
0
0
SPLINE
5
CA
100
AcDbEntity
8
1
62
256
6
ByLayer
370
18
48
1
60
0
100
AcDbSpline
70
4
71
3
72
10
73
6
40
0
40
0
40
0
40
0
40
0.366484231000722
40
0.366484231000722
40
1
40
1
40
1
40
1
41
1
10
7.69713731575243
20
-6.66607309778473
30
0
41
1
10
7.26066054569316
20
-6.74317124932537
30
0
41
1
10
6.82469103940775
20
-6.80517227108817
30
0
41
1
10
5.63414945950987
20
-6.93234363435963
30
0
41
1
10
4.8787922002694
20
-6.96696292632183
30
0
41
1
10
4.1186109307001
20
-6.9540289958523
30
0
0
SPLINE
5
CB
100
AcDbEntity
8
1
62
256
6
ByLayer
370
18
48
1
60
0
100
AcDbSpline
70
4
71
3
72
83
73
79
40
0
40
0
40
0
40
0
40
0.0417578303277668
40
0.0417578303277668
40
0.110357086115399
40
0.110357086115399
40
0.144656714009216
40
0.144656714009216
40
0.178956341903032
40
0.178956341903032
40
0.247555597690665
40
0.247555597690665
40
0.281855225584481
40
0.281855225584481
40
0.316154853478297
40
0.316154853478297
40
0.38475410926593
40
0.38475410926593
40
0.419053737159746
40
0.419053737159746
40
0.453353365053563
40
0.453353365053563
40
0.45764081854029
40
0.45817675022613
40
0.458444716069051
40
0.458444716069051
40
0.458578698990511
40
0.458578698990511
40
0.458712681911971
40
0.458712681911971
40
0.459248613597812
40
0.459248613597812
40
0.459784545283653
40
0.459784545283653
40
0.461928272027016
40
0.461928272027016
40
0.470503179000468
40
0.470503179000468
40
0.487652992947372
40
0.487652992947372
40
0.521952620841181
40
0.521952620841181
40
0.590551876628798
40
0.590551876628798
40
0.659151132416415
40
0.659151132416415
40
0.693450760310223
40
0.693450760310223
40
0.710600574257128
40
0.710600574257128
40
0.71917548123058
40
0.71917548123058
40
0.723462934717306
40
0.723462934717306
40
0.725606661460669
40
0.725606661460669
40
0.72667852483235
40
0.72667852483235
40
0.727214456518191
40
0.727214456518191
40
0.727348439439651
40
0.727348439439651
40
0.727482422361112
40
0.727482422361112
40
0.727750388204032
40
0.796349643991654
40
0.796349643991654
40
0.864948899779277
40
0.864948899779277
40
0.899248527673088
40
0.899248527673088
40
0.933548155566899
40
0.933548155566899
40
0.967847783460711
40
0.967847783460711
40
0.984997597407616
40
0.984997597407616
40
1
40
1
40
1
40
1
41
1
10
18.7741902270902
20
1.47228239954066
30
0
41
1
10
18.5530678140714
20
1.57277604287168
30
0
41
1
10
18.332850490725
20
1.66550668348279
30
0
41
1
10
17.7524216907817
20
1.88536339161499
30
0
41
1
10
17.3932593057703
20
1.99618283224822
30
0
41
1
10
16.8512273440479
20
2.11076159483289
30
0
41
1
10
16.6694427642504
20
2.14028871041171
30
0
41
1
10
16.311713923333
20
2.17962480720053
30
0
41
1
10
16.1347564515881
20
2.18970989883786
30
0
41
1
10
15.6070916368582
20
2.19172578572997
30
0
41
1
10
15.2595539420134
20
2.15540133511667
30
0
41
1
10
14.7346676322422
20
2.04785215100475
30
0
41
1
10
14.5585095987346
20
2.002939229568
30
0
41
1
10
14.2089404078563
20
1.89784153571685
30
0
41
1
10
14.0350082765544
20
1.83761155572682
30
0
41
1
10
13.5135864213832
20
1.63613794495131
30
0
41
1
10
13.1664112286107
20
1.47422819572847
30
0
41
1
10
12.6392991598189
20
1.19657493527518
30
0
41
1
10
12.4621460815129
20
1.09794531756236
30
0
41
1
10
12.1076135589455
20
0.891533202345443
30
0
41
1
10
11.92995618261
20
0.783614280544128
30
0
41
1
10
11.7296718702653
20
0.657807188856623
30
0
41
1
10
11.7046313203952
20
0.642013502408645
30
0
41
1
10
11.6781935913539
20
0.625263865699367
30
0
41
1
10
11.6740190671574
20
0.622617134688227
30
0
41
1
10
11.6719317799051
20
0.62129342729574
30
0
41
1
10
11.6710882401426
20
0.620883885908995
30
0
41
1
10
11.6707230519112
20
0.619311242499151
30
0
41
1
10
11.6710025549602
20
0.618474521046807
30
0
41
1
10
11.6726219368455
20
0.614703720838207
30
0
41
1
10
11.6749288562742
20
0.612162156580922
30
0
41
1
10
11.6793635385776
20
0.607177594460609
30
0
41
1
10
11.6817142648215
20
0.604780228350165
30
0
41
1
10
11.693662134914
20
0.593042603381576
30
0
41
1
10
11.7038558607865
20
0.584298448795323
30
0
41
1
10
11.755257824031
20
0.541015175996819
30
0
41
1
10
11.7981741612962
20
0.508457915291018
30
0
41
1
10
11.9270856652607
20
0.411049530524537
30
0
41
1
10
12.0142345644212
20
0.3475718731884
30
0
41
1
10
12.2763865229699
20
0.158064627070019
30
0
41
1
10
12.4524827050214
20
0.0333060540933161
30
0
41
1
10
12.9818777867746
20
-0.339788287636111
30
0
41
1
10
13.3363375129698
20
-0.586726512128706
30
0
41
1
10
14.0446229738078
20
-1.08230222738564
30
0
41
1
10
14.3994663557518
20
-1.329478687874
30
0
41
1
10
14.9294642931157
20
-1.70404569181795
30
0
41
1
10
15.1058387362683
20
-1.82942295241702
30
0
41
1
10
15.3690552510703
20
-2.01958201811851
30
0
41
1
10
15.4565757308868
20
-2.08327336146476
30
0
41
1
10
15.5868558797142
20
-2.18019506249092
30
0
41
1
10
15.6301408133623
20
-2.21271381915321
30
0
41
1
10
15.6942935435282
20
-2.2624489636861
30
0
41
1
10
15.7155662602087
20
-2.27916681405037
30
0
41
1
10
15.7468924670545
20
-2.3049733561333
30
0
41
1
10
15.7572648536091
20
-2.31368351478594
30
0
41
1
10
15.7723039282045
20
-2.32733082186698
30
0
41
1
10
15.7772564178094
20
-2.33193928603885
30
0
41
1
10
15.7841080374382
20
-2.33941849523902
30
0
41
1
10
15.7865251238824
20
-2.34195939773133
30
0
41
1
10
15.7881859578236
20
-2.34572316839328
30
0
41
1
10
15.7884775849633
20
-2.34658653737341
30
0
41
1
10
15.7878666988106
20
-2.34802610477388
30
0
41
1
10
15.7870849186622
20
-2.34840875043329
30
0
41
1
10
15.7852962682465
20
-2.34992930620584
30
0
41
1
10
15.4788550264545
20
-2.61037177056011
30
0
41
1
10
15.1754560502491
20
-2.85112499569669
30
0
41
1
10
14.5811580505981
20
-3.26850448873381
30
0
41
1
10
14.2880487750036
20
-3.44752797311551
30
0
41
1
10
13.839281459675
20
-3.6586065108333
30
0
41
1
10
13.6872830085034
20
-3.7194761223183
30
0
41
1
10
13.3822918621258
20
-3.81658528352904
30
0
41
1
10
13.2289047273615
20
-3.85311305676916
30
0
41
1
10
12.9165919143757
20
-3.90014636810761
30
0
41
1
10
12.7576561257452
20
-3.9106344211649
30
0
41
1
10
12.5120118339056
20
-3.90539491321434
30
0
41
1
10
12.4285866745827
20
-3.90010663540798
30
0
41
1
10
12.2716484531151
20
-3.88375411685129
30
0
41
1
10
12.1981117773684
20
-3.8735176801585
30
0
41
1
10
12.1241724614011
20
-3.86080727896262
30
0
0
SPLINE
5
CC
100
AcDbEntity
8
1
62
256
6
ByLayer
370
18
48
1
60
0
100
AcDbSpline
70
4
71
3
72
16
73
12
40
0
40
0
40
0
40
0
40
0.25000000000001
40
0.25000000000001
40
0.375000000000008
40
0.375000000000008
40
0.500000000000006
40
0.500000000000006
40
0.750000000000003
40
0.750000000000003
40
1
40
1
40
1
40
1
41
1
10
75.5714870686651
20
1.69568364287704
30
0
41
1
10
75.5642778313636
20
1.72350940100313
30
0
41
1
10
75.561300718116
20
1.75252964031424
30
0
41
1
10
75.5661850519581
20
1.79608988554867
30
0
41
1
10
75.5693440786925
20
1.81037328000616
30
0
41
1
10
75.5792666848228
20
1.83836616223411
30
0
41
1
10
75.5861577085747
20
1.85217794157944
30
0
41
1
10
75.6114859429134
20
1.88981823166876
30
0
41
1
10
75.6356595075849
20
1.91123976550955
30
0
41
1
10
75.6900162523256
20
1.94174579436466
30
0
41
1
10
75.7201573443025
20
1.95107657758757
30
0
41
1
10
75.7508387742352
20
1.95655753559805
30
0
0
SPLINE
5
CD
100
AcDbEntity
8
1
62
256
6
ByLayer
370
18
48
1
60
0
100
AcDbSpline
70
4
71
3
72
100
73
96
40
0
40
0
40
0
40
0
40
0.0066482129146809
40
0.0066482129146809
40
0.0273594382275511
40
0.0273594382275511
40
0.0480706635404212
40
0.0480706635404212
40
0.0894931141661607
40
0.0894931141661607
40
0.11020433947903
40
0.11020433947903
40
0.1309155647919
40
0.1309155647919
40
0.15162679010477
40
0.15162679010477
40
0.17233801541764
40
0.17233801541764
40
0.19304924073051
40
0.19304924073051
40
0.213760466043379
40
0.213760466043379
40
0.255182916669119
40
0.255182916669119
40
0.275894141981989
40
0.275894141981989
40
0.296605367294858
40
0.296605367294858
40
0.317316592607728
40
0.317316592607728
40
0.338027817920598
40
0.338027817920598
40
0.358739043233468
40
0.358739043233468
40
0.379450268546337
40
0.379450268546337
40
0.400161493859207
40
0.400161493859207
40
0.420872719172077
40
0.420872719172077
40
0.441583944484947
40
0.441583944484947
40
0.462295169797816
40
0.462295169797816
40
0.483006395110686
40
0.483006395110686
40
0.503717620423556
40
0.503717620423556
40
0.524428845736426
40
0.524428845736426
40
0.545140071049295
40
0.545140071049295
40
0.565851296362165
40
0.565851296362165
40
0.586562521675035
40
0.586562521675035
40
0.607273746987905
40
0.607273746987905
40
0.627984972300775
40
0.627984972300775
40
0.648696197613644
40
0.648696197613644
40
0.669407422926514
40
0.669407422926514
40
0.690118648239384
40
0.690118648239384
40
0.710829873552254
40
0.710829873552254
40
0.731541098865124
40
0.731541098865124
40
0.752252324177993
40
0.752252324177993
40
0.772963549490863
40
0.772963549490863
40
0.793674774803733
40
0.793674774803733
40
0.814386000116603
40
0.814386000116603
40
0.835097225429473
40
0.835097225429473
40
0.855808450742343
40
0.855808450742343
40
0.876519676055212
40
0.876519676055212
40
0.897230901368082
40
0.897230901368082
40
0.917942126680952
40
0.917942126680952
40
0.938653351993822
40
0.938653351993822
40
0.959364577306692
40
0.959364577306692
40
0.980075802619562
40
0.980075802619562
40
1
40
1
40
1
40
1
41
1
10
65.9907346614308
20
-5.1736890139276
30
0
41
1
10
65.8953308209649
20
-5.2094000897778
30
0
41
1
10
65.7999078836705
20
-5.24450829529675
30
0
41
1
10
65.4071143326618
20
-5.38649317347503
30
0
41
1
10
65.109529699784
20
-5.4881617647537
30
0
41
1
10
64.5140265074158
20
-5.68146869230085
30
0
41
1
10
64.2160270912234
20
-5.77321715976925
30
0
41
1
10
63.3228539252332
20
-6.02942554681678
30
0
41
1
10
62.7281194716792
20
-6.17576072124717
30
0
41
1
10
61.8368434031365
20
-6.35451719392495
30
0
41
1
10
61.5399267778525
20
-6.40707296806923
30
0
41
1
10
60.9446180985953
20
-6.49739606648612
30
0
41
1
10
60.6461446215049
20
-6.53632466697044
30
0
41
1
10
60.0499928193682
20
-6.60155563413321
30
0
41
1
10
59.7523373181305
20
-6.62764236420387
30
0
41
1
10
59.1580447991257
20
-6.66501428455487
30
0
41
1
10
58.8610755252626
20
-6.67626583153501
30
0
41
1
10
58.2665175305431
20
-6.6859591160119
30
0
41
1
10
57.9690508915283
20
-6.68414621548183
30
0
41
1
10
57.3736366153732
20
-6.66630599876493
30
0
41
1
10
57.0754479945565
20
-6.64991569216272
30
0
41
1
10
56.1819071230408
20
-6.57782590930708
30
0
41
1
10
55.5868797524291
20
-6.50515455449943
30
0
41
1
10
54.6946596718153
20
-6.3534430185174
30
0
41
1
10
54.3975208028084
20
-6.29542479658349
30
0
41
1
10
53.8025040294194
20
-6.16774415090907
30
0
41
1
10
53.5043231632087
20
-6.0978611745976
30
0
41
1
10
52.9077171142206
20
-5.94516278452741
30
0
41
1
10
52.6098415978824
20
-5.86226266624695
30
0
41
1
10
52.014888687599
20
-5.68374092662503
30
0
41
1
10
51.7179883767975
20
-5.58849502961013
30
0
41
1
10
51.1235769642129
20
-5.38748327405688
30
0
41
1
10
50.8261692615228
20
-5.28154927345025
30
0
41
1
10
50.2307594487622
20
-5.05808593221252
30
0
41
1
10
49.9326518935278
20
-4.94052464273511
30
0
41
1
10
49.3363123559219
20
-4.69519222159619
30
0
41
1
10
49.0388242722868
20
-4.56763188132092
30
0
41
1
10
48.4437290643573
20
-4.30401200390426
30
0
41
1
10
48.1462721487436
20
-4.16766810817367
30
0
41
1
10
47.5513856687955
20
-3.88635127858382
30
0
41
1
10
47.2539773743722
20
-3.74168675432782
30
0
41
1
10
46.6593449220174
20
-3.4439046910704
30
0
41
1
10
46.3617378069035
20
-3.2912609806601
30
0
41
1
10
45.7650618707372
20
-2.97905940968096
30
0
41
1
10
45.4668501335436
20
-2.81980216467159
30
0
41
1
10
44.8712981529409
20
-2.49666002215736
30
0
41
1
10
44.5740176234286
20
-2.33220746562068
30
0
41
1
10
43.9797278458441
20
-1.99816558196696
30
0
41
1
10
43.6823847625046
20
-1.82908388747154
30
0
41
1
10
43.0870203591343
20
-1.48765954316153
30
0
41
1
10
42.7890676234672
20
-1.31546427479608
30
0
41
1
10
42.1925393657528
20
-0.96762556791515
30
0
41
1
10
41.8946298657547
20
-0.791810274361836
30
0
41
1
10
41.299543132645
20
-0.440150764422725
30
0
41
1
10
41.0020623767457
20
-0.264248565379262
30
0
41
1
10
40.4071016711059
20
0.0875017583325928
30
0
41
1
10
40.1096262406111
20
0.263354537742742
30
0
41
1
10
39.514721502246
20
0.615070633940292
30
0
41
1
10
39.2173741154331
20
0.791069730625964
30
0
41
1
10
38.6211895626813
20
1.14048366317329
30
0
41
1
10
38.3226625684827
20
1.31408904580974
30
0
41
1
10
37.7268385885042
20
1.65755120166935
30
0
41
1
10
37.4292320158127
20
1.827539921583
30
0
41
1
10
36.8347676610675
20
2.16364887282134
30
0
41
1
10
36.5377136160974
20
2.32978182031508
30
0
41
1
10
35.9427110563133
20
2.65644560805956
30
0
41
1
10
35.6449265068351
20
2.81726677834215
30
0
41
1
10
35.0485717454767
20
3.13280603248916
30
0
41
1
10
34.749956675543
20
3.28720860871582
30
0
41
1
10
34.1545846222738
20
3.58970539923615
30
0
41
1
10
33.8570718987967
20
3.73732071756953
30
0
41
1
10
33.2619469236906
20
4.0237356631136
30
0
41
1
10
32.9643694209678
20
4.16228731351205
30
0
41
1
10
32.3690320739501
20
4.43039161327491
30
0
41
1
10
32.0715097424688
20
4.56081660035846
30
0
41
1
10
31.4757762802734
20
4.81264426569913
30
0
41
1
10
31.1771424626815
20
4.93397728754957
30
0
41
1
10
30.5810831912058
20
5.1638047080944
30
0
41
1
10
30.2833457065807
20
5.27210653988178
30
0
41
1
10
29.688339647545
20
5.47977177952652
30
0
41
1
10
29.3913386147347
20
5.5788669963155
30
0
41
1
10
28.7966636444205
20
5.76481365079616
30
0
41
1
10
28.4990060576719
20
5.85134343357598
30
0
41
1
10
27.9027463171326
20
6.01074960482447
30
0
41
1
10
27.6039415036493
20
6.0847653324461
30
0
41
1
10
27.0079897644831
20
6.22073141255709
30
0
41
1
10
26.7106930296064
20
6.28267996271487
30
0
41
1
10
26.1157350342061
20
6.39175050037144
30
0
41
1
10
25.818194667589
20
6.43859433212853
30
0
41
1
10
25.222926256855
20
6.52052311536073
30
0
41
1
10
24.9252015182965
20
6.55525378564204
30
0
41
1
10
24.3297210407607
20
6.61095250180051
30
0
41
1
10
24.0313298204418
20
6.63157054403379
30
0
41
1
10
23.4463406344888
20
6.65704897036247
30
0
41
1
10
23.1597129068681
20
6.66347562633021
30
0
41
1
10
22.8732883855424
20
6.66387858364632
30
0
0
SPLINE
5
CE
100
AcDbEntity
8
1
62
256
6
ByLayer
370
13
48
1
60
0
100
AcDbSpline
70
4
71
3
72
36
73
32
40
0
40
0
40
0
40
0
40
0.125000000000001
40
0.125000000000001
40
0.156250000000001
40
0.156250000000001
40
0.187500000000001
40
0.187500000000001
40
0.250000000000002
40
0.250000000000002
40
0.312500000000002
40
0.312500000000002
40
0.343750000000002
40
0.343750000000002
40
0.375000000000002
40
0.375000000000002
40
0.500000000000002
40
0.500000000000002
40
0.562500000000002
40
0.562500000000002
40
0.625000000000001
40
0.625000000000001
40
0.750000000000001
40
0.750000000000001
40
0.781250000000001
40
0.781250000000001
40
0.812500000000001
40
0.812500000000001
40
0.875000000000001
40
0.875000000000001
40
1
40
1
40
1
40
1
41
1
10
4.25028233274335
20
-6.64825419410397
30
0
41
1
10
4.25033471509664
20
-6.6326781657645
30
0
41
1
10
4.25037613300938
20
-6.5647247871137
30
0
41
1
10
4.25042025422968
20
-6.41615530016742
30
0
41
1
10
4.2504286918963
20
-6.3832242579881
30
0
41
1
10
4.25044493380858
20
-6.31082990355651
30
0
41
1
10
4.25045275839457
20
-6.27123745537901
30
0
41
1
10
4.2504752688875
20
-6.14375717206681
30
0
41
1
10
4.2504890440018
20
-6.04710390136992
30
0
41
1
10
4.2505153405497
20
-5.83115870568577
30
0
41
1
10
4.25052785957391
20
-5.71186510172973
30
0
41
1
10
4.25054647668944
20
-5.51585469038906
30
0
41
1
10
4.25055265441748
20
-5.44766674493576
30
0
41
1
10
4.25056507361754
20
-5.30549723181531
30
0
41
1
10
4.25057133116084
20
-5.2313186876371
30
0
41
1
10
4.25060287073015
20
-4.84793869435904
30
0
41
1
10
4.25062871933014
20
-4.50586606841054
30
0
41
1
10
4.25067203635138
20
-3.9414065559057
30
0
41
1
10
4.25068720663506
20
-3.74461955816818
30
0
41
1
10
4.25071933109766
20
-3.33312597119468
30
0
41
1
10
4.25073616894937
20
-3.11994454025637
30
0
41
1
10
4.25078835304237
20
-2.46631269923455
30
0
41
1
10
4.25082524888225
20
-2.01462699799907
30
0
41
1
10
4.25087204211982
20
-1.43057762172148
30
0
41
1
10
4.25088142609337
20
-1.31278481363563
30
0
41
1
10
4.25090016012589
20
-1.07520132303898
30
0
41
1
10
4.25090953543926
20
-0.955081421195132
30
0
41
1
10
4.25093727050171
20
-0.594097577241968
30
0
41
1
10
4.25095515075807
20
-0.353856200493055
30
0
41
1
10
4.25100566308058
20
0.365665390549737
30
0
41
1
10
4.25103529661968
20
0.843768306807192
30
0
41
1
10
4.25105618185367
20
1.32019586370734
30
0
0
SPLINE
5
CF
100
AcDbEntity
8
1
62
256
6
ByLayer
370
18
48
1
60
0
100
AcDbSpline
70
4
71
3
72
40
73
36
40
0
40
0
40
0
40
0
40
0.250000000000008
40
0.250000000000008
40
0.375000000000011
40
0.375000000000011
40
0.437500000000011
40
0.437500000000011
40
0.500000000000012
40
0.500000000000012
40
0.562500000000011
40
0.562500000000011
40
0.625000000000011
40
0.625000000000011
40
0.750000000000007
40
0.750000000000007
40
0.781250000000004
40
0.781250000000004
40
0.812500000000002
40
0.812500000000002
40
0.843749999999999
40
0.843749999999999
40
0.859374999999999
40
0.859374999999999
40
0.874999999999999
40
0.874999999999999
40
0.890624999999999
40
0.890624999999999
40
0.906249999999999
40
0.906249999999999
40
0.9375
40
0.9375
40
0.96875
40
0.96875
40
1
40
1
40
1
40
1
41
1
10
69.2743816808373
20
3.73753719098676
30
0
41
1
10
69.8143897723371
20
3.25062196204732
30
0
41
1
10
70.3723885359075
20
2.80600970803471
30
0
41
1
10
71.2405101662601
20
2.2122745855572
30
0
41
1
10
71.5350655613554
20
2.02654661630078
30
0
41
1
10
71.9855582600649
20
1.76831671986869
30
0
41
1
10
72.1374882866486
20
1.68549655001766
30
0
41
1
10
72.441621419496
20
1.52862072840122
30
0
41
1
10
72.5940698002021
20
1.45440602656228
30
0
41
1
10
72.8997709266187
20
1.31487362244477
30
0
41
1
10
73.0530228511486
20
1.24954683716857
30
0
41
1
10
73.3603936062188
20
1.12848202588748
30
0
41
1
10
73.5143968849516
20
1.07283067166361
30
0
41
1
10
73.9747509919839
20
0.922374635438075
30
0
41
1
10
74.2812670032569
20
0.843302135013232
30
0
41
1
10
74.6588515435151
20
0.777780054328105
30
0
41
1
10
74.7338542477644
20
0.76833077968115
30
0
41
1
10
74.8812788250878
20
0.757989813171633
30
0
41
1
10
74.9542804417429
20
0.757293999478037
30
0
41
1
10
75.0936435775395
20
0.769931914450666
30
0
41
1
10
75.1602732130368
20
0.782494928768472
30
0
41
1
10
75.2550562054948
20
0.811899466083133
30
0
41
1
10
75.2857750122546
20
0.823492244271932
30
0
41
1
10
75.3451032793829
20
0.850993387306204
30
0
41
1
10
75.3738459133901
20
0.867019797621055
30
0
41
1
10
75.4273258802268
20
0.9034161184764
30
0
41
1
10
75.4522154034903
20
0.923830243378035
30
0
41
1
10
75.4977810289725
20
0.969704152405086
30
0
41
1
10
75.5186092416955
20
0.99538576311636
30
0
41
1
10
75.5726385412911
20
1.07957000843353
30
0
41
1
10
75.5965540835419
20
1.1444161671015
30
0
41
1
10
75.6213631002754
20
1.29070045496937
30
0
41
1
10
75.6226280058501
20
1.36850160960123
30
0
41
1
10
75.6086392815967
20
1.52901869263752
30
0
41
1
10
75.5930591711608
20
1.61242100617838
30
0
41
1
10
75.5714870686652
20
1.69568364287704
30
0
0
SPLINE
5
D0
100
AcDbEntity
8
1
62
256
6
ByLayer
370
18
48
1
60
0
100
AcDbSpline
70
4
71
3
72
14
73
10
40
0
40
0
40
0
40
0
40
0.25
40
0.25
40
0.499999999999999
40
0.499999999999999
40
0.75
40
0.75
40
1
40
1
40
1
40
1
41
1
10
4.11861093070013
20
-6.9540289958523
30
0
41
1
10
4.10040060087422
20
-6.95371916035748
30
0
41
1
10
4.08400346154676
20
-6.95332920040457
30
0
41
1
10
4.05472174941974
20
-6.95232312819323
30
0
41
1
10
4.041920081516
20
-6.95170261220431
30
0
41
1
10
4.02137043981173
20
-6.95022918493362
30
0
41
1
10
4.01333269846194
20
-6.94935420026508
30
0
41
1
10
4.00270216660925
20
-6.94737705496033
30
0
41
1
10
4.00000020913774
20
-6.9462780212325
30
0
41
1
10
4.00000020913774
20
-6.94505532243286
30
0
0
SPLINE
5
D1
100
AcDbEntity
8
1
62
256
6
ByLayer
370
18
48
1
60
0
100
AcDbSpline
70
4
71
3
72
12
73
8
40
0
40
0
40
0
40
0
40
0.271215433044436
40
0.271215433044436
40
0.566987334778691
40
0.566987334778691
40
1
40
1
40
1
40
1
41
1
10
40.2811682430863
20
-6.6713802486766
30
0
41
1
10
39.5843406568547
20
-6.6807750853508
30
0
41
1
10
38.8884118110749
20
-6.65184628099345
30
0
41
1
10
37.4309330722133
20
-6.51209177746236
30
0
41
1
10
36.6763796992831
20
-6.39470833862708
30
0
41
1
10
34.8242565097395
20
-6.00455517934569
30
0
41
1
10
33.7290687958107
20
-5.68475062435741
30
0
41
1
10
32.6272303344532
20
-5.28677367687058
30
0
0
SPLINE
5
D2
100
AcDbEntity
8
1
62
256
6
ByLayer
370
13
48
1
60
0
100
AcDbSpline
70
4
71
3
72
24
73
20
40
0
40
0
40
0
40
0
40
0.0823083417386209
40
0.0823083417386209
40
0.159089771072017
40
0.159089771072017
40
0.235871200405414
40
0.235871200405414
40
0.389434059072205
40
0.389434059072205
40
0.542996917738996
40
0.542996917738996
40
0.619778347072391
40
0.619778347072391
40
0.658169061739089
40
0.658169061739089
40
0.696559776405787
40
0.696559776405787
40
1
40
1
40
1
40
1
41
1
10
32.6272303338409
20
-5.28677367664943
30
0
41
1
10
32.2238340376464
20
-5.14106953559005
30
0
41
1
10
31.8195462885314
20
-4.98488732295769
30
0
41
1
10
31.0352650151676
20
-4.66368922099255
30
0
41
1
10
30.6543713729228
20
-4.49955465067944
30
0
41
1
10
29.8962577760314
20
-4.15820164895359
30
0
41
1
10
29.5186236370433
20
-3.98077360450697
30
0
41
1
10
28.3884315098347
20
-3.4307197564244
30
0
41
1
10
27.6384485612572
20
-3.04053624046867
30
0
41
1
10
26.1380361918113
20
-2.22475462405387
30
0
41
1
10
25.3875133573296
20
-1.79937080853023
30
0
41
1
10
24.2555605822485
20
-1.14390157018178
30
0
41
1
10
23.8771957090816
20
-0.922556547328014
30
0
41
1
10
23.3073448934752
20
-0.587406879419689
30
0
41
1
10
23.1171185721635
20
-0.475226195854503
30
0
41
1
10
22.7378940477351
20
-0.251309143599684
30
0
41
1
10
22.5486350254914
20
-0.139419862492872
30
0
41
1
10
20.8660038002304
20
0.855180755782783
30
0
41
1
10
19.3908411826984
20
1.72792265995506
30
0
41
1
10
17.9039318330611
20
2.53980285719609
30
0
0
SPLINE
5
D3
100
AcDbEntity
8
1
62
256
6
ByLayer
370
18
48
1
60
0
100
AcDbSpline
70
4
71
3
72
10
73
6
40
0
40
0
40
0
40
0
40
0.5
40
0.5
40
1
40
1
40
1
40
1
41
1
10
4.00000020913771
20
-6.89034984478093
30
0
41
1
10
4.00000020913774
20
-6.8506374482246
30
0
41
1
10
4.01053074455044
20
-6.80986595002
30
0
41
1
10
4.05104669706378
20
-6.73808141260309
30
0
41
1
10
4.08158748600707
20
-6.70560445633893
30
0
41
1
10
4.12118171082727
20
-6.68235835353417
30
0
0
SPLINE
5
D4
100
AcDbEntity
8
1
62
256
6
ByLayer
370
18
48
1
60
0
100
AcDbSpline
70
4
71
3
72
16
73
12
40
0
40
0
40
0
40
0
40
0.249999999999986
40
0.249999999999986
40
0.374999999999998
40
0.374999999999998
40
0.50000000000001
40
0.50000000000001
40
0.750000000000005
40
0.750000000000005
40
1
40
1
40
1
40
1
41
1
10
4.25105618185364
20
1.32019586370757
30
0
41
1
10
4.22360101316917
20
1.34556404642632
30
0
41
1
10
4.19407501384856
20
1.36965839767367
30
0
41
1
10
4.14751764223539
20
1.39930290662855
30
0
41
1
10
4.13159817082632
20
1.40803530937774
30
0
41
1
10
4.10081442681039
20
1.42127838752174
30
0
41
1
10
4.08584588137668
20
1.42577566054399
30
0
41
1
10
4.04623607699304
20
1.43132106278045
30
0
41
1
10
4.0270348833487
20
1.42427746771378
30
0
41
1
10
4.00450505940285
20
1.3995260252083
30
0
41
1
10
4.00000020913771
20
1.38201814887776
30
0
41
1
10
4.00000020913771
20
1.36229588343949
30
0
0
SPLINE
5
D5
100
AcDbEntity
8
1
62
256
6
ByLayer
370
18
48
1
60
0
100
AcDbSpline
70
4
71
3
72
26
73
22
40
0
40
0
40
0
40
0
40
0.125000000000001
40
0.125000000000001
40
0.1875
40
0.1875
40
0.249999999999999
40
0.249999999999999
40
0.499999999999998
40
0.499999999999998
40
0.562499999999999
40
0.562499999999999
40
0.624999999999999
40
0.624999999999999
40
0.749999999999999
40
0.749999999999999
40
0.875
40
0.875
40
0.9375
40
0.9375
40
1
40
1
40
1
40
1
41
1
10
76.5632390622966
20
-6.69494565296378
30
0
41
1
10
76.4660029869433
20
-6.69487255771546
30
0
41
1
10
76.3734447050262
20
-6.68069727158624
30
0
41
1
10
76.2419710193292
20
-6.6372348099176
30
0
41
1
10
76.1993767577361
20
-6.61903832399872
30
0
41
1
10
76.1167481962557
20
-6.57492780987982
30
0
41
1
10
76.0765850935193
20
-6.54889707655084
30
0
41
1
10
75.8848045283366
20
-6.40040509580541
30
0
41
1
10
75.758864365147
20
-6.22370084874396
30
0
41
1
10
75.6374622513762
20
-5.92691822999191
30
0
41
1
10
75.615006548859
20
-5.86371693667544
30
0
41
1
10
75.5738898952689
20
-5.72931863400265
30
0
41
1
10
75.5551860003775
20
-5.65785057969433
30
0
41
1
10
75.5057716220058
20
-5.43449413230408
30
0
41
1
10
75.4814334046652
20
-5.27297335360402
30
0
41
1
10
75.4496948134642
20
-4.92509700453567
30
0
41
1
10
75.4422937916278
20
-4.73874238424941
30
0
41
1
10
75.4442521510718
20
-4.44006163464854
30
0
41
1
10
75.4471011355491
20
-4.33703932008669
30
0
41
1
10
75.4572374999128
20
-4.12561735885186
30
0
41
1
10
75.4644923742086
20
-4.01766169485606
30
0
41
1
10
75.473898275295
20
-3.90749795865287
30
0
0
SPLINE
5
D6
100
AcDbEntity
8
1
62
256
6
ByLayer
370
18
48
1
60
0
100
AcDbSpline
70
4
71
3
72
18
73
14
40
0
40
0
40
0
40
0
40
0.0027376482436935
40
0.0027376482436935
40
0.154827138317691
40
0.154827138317691
40
0.459006118465688
40
0.459006118465688
40
0.763185098613684
40
0.763185098613684
40
0.915274588687684
40
0.915274588687684
40
1
40
1
40
1
40
1
41
1
10
75.5273181540475
20
-6.69413699226945
30
0
41
1
10
75.5204869055528
20
-6.69417462631284
30
0
41
1
10
75.5136560358833
20
-6.69420854920349
30
0
41
1
10
75.1273603446244
20
-6.6959171496793
30
0
41
1
10
74.7494152333069
20
-6.68615988036851
30
0
41
1
10
73.6187606778041
20
-6.62352308586409
30
0
41
1
10
72.869148084406
20
-6.53730131633137
30
0
41
1
10
71.3707906516554
20
-6.28017638426334
30
0
41
1
10
70.6219285346646
20
-6.10914272379156
30
0
41
1
10
69.4932154633049
20
-5.79203557847563
30
0
41
1
10
69.116094359207
20
-5.67622628727338
30
0
41
1
10
68.526742538554
20
-5.48057373017124
30
0
41
1
10
68.3152284227067
20
-5.40742054641757
30
0
41
1
10
68.1038089142349
20
-5.33149856989869
30
0
0
SPLINE
5
D7
100
AcDbEntity
8
1
62
256
6
ByLayer
370
13
48
1
60
0
100
AcDbSpline
70
4
71
3
72
20
73
16
40
0
40
0
40
0
40
0
40
0.0343274094920512
40
0.0343274094920512
40
0.344334659694644
40
0.344334659694644
40
0.499338284795939
40
0.499338284795939
40
0.576840097346585
40
0.576840097346585
40
0.654341909897232
40
0.654341909897232
40
0.96434916009982
40
0.96434916009982
40
1
40
1
40
1
40
1
41
1
10
68.1038089142708
20
-5.33149856991162
30
0
41
1
10
67.9357119974088
20
-5.27113398829334
30
0
41
1
10
67.7676748878712
20
-5.2090190771053
30
0
41
1
10
66.0865235142972
20
-4.5703379120726
30
0
41
1
10
64.5946102996269
20
-3.86464652392806
30
0
41
1
10
62.3421090076404
20
-2.67715697128136
30
0
41
1
10
61.5888282656776
20
-2.25984373960986
30
0
41
1
10
60.449835418538
20
-1.60923263070498
30
0
41
1
10
60.0706940325664
20
-1.38960101230654
30
0
41
1
10
59.3156673888595
20
-0.948556632663866
30
0
41
1
10
58.9392668791188
20
-0.726838752045097
30
0
41
1
10
57.0609258392055
20
0.384526683998928
30
0
41
1
10
55.5685169571724
20
1.27991637329049
30
0
41
1
10
53.8823604803484
20
2.22777647801001
30
0
41
1
10
53.7081891986826
20
2.32493812006976
30
0
41
1
10
53.5336879242175
20
2.42138477692137
30
0
0
SPLINE
5
D8
100
AcDbEntity
8
1
62
256
6
ByLayer
370
18
48
1
60
0
100
AcDbSpline
70
4
71
3
72
8
73
4
40
0
40
0
40
0
40
0
40
1
40
1
40
1
40
1
41
1
10
4.6308779457072
20
-6.65205412647364
30
0
41
1
10
4.50409302237745
20
-6.65206353485004
30
0
41
1
10
4.37723338556441
20
-6.65079905845622
30
0
41
1
10
4.25028233274335
20
-6.64825419410397
30
0
0
SPLINE
5
D9
100
AcDbEntity
8
1
62
256
6
ByLayer
370
18
48
1
60
0
100
AcDbSpline
70
4
71
3
72
96
73
92
40
0
40
0
40
0
40
0
40
0.0198353343102882
40
0.0198353343102882
40
0.0405187093784759
40
0.0405187093784759
40
0.0612020844466636
40
0.0612020844466636
40
0.0818854595148514
40
0.0818854595148514
40
0.102568834583039
40
0.102568834583039
40
0.123252209651227
40
0.123252209651227
40
0.143935584719415
40
0.143935584719415
40
0.185302334855789
40
0.185302334855789
40
0.205985709923977
40
0.205985709923977
40
0.226669084992164
40
0.226669084992164
40
0.247352460060351
40
0.247352460060351
40
0.268035835128539
40
0.268035835128539
40
0.288719210196726
40
0.288719210196726
40
0.309402585264913
40
0.309402585264913
40
0.350769335401289
40
0.350769335401289
40
0.371452710469476
40
0.371452710469476
40
0.392136085537664
40
0.392136085537664
40
0.412819460605852
40
0.412819460605852
40
0.43350283567404
40
0.43350283567404
40
0.454186210742227
40
0.454186210742227
40
0.474869585810415
40
0.474869585810415
40
0.516236335946791
40
0.516236335946791
40
0.536919711014978
40
0.536919711014978
40
0.557603086083167
40
0.557603086083167
40
0.578286461151355
40
0.578286461151355
40
0.598969836219543
40
0.598969836219543
40
0.619653211287731
40
0.619653211287731
40
0.640336586355919
40
0.640336586355919
40
0.661019961424107
40
0.661019961424107
40
0.681703336492295
40
0.681703336492295
40
0.702386711560483
40
0.702386711560483
40
0.723070086628671
40
0.723070086628671
40
0.743753461696859
40
0.743753461696859
40
0.764436836765047
40
0.764436836765047
40
0.785120211833235
40
0.785120211833235
40
0.805803586901423
40
0.805803586901423
40
0.826486961969611
40
0.826486961969611
40
0.847170337037799
40
0.847170337037799
40
0.867853712105987
40
0.867853712105987
40
0.888537087174175
40
0.888537087174175
40
0.909220462242363
40
0.909220462242363
40
0.929903837310551
40
0.929903837310551
40
0.971270587446926
40
0.971270587446926
40
0.991953962515114
40
0.991953962515114
40
1
40
1
40
1
40
1
41
1
10
30.5730600764079
20
5.16275079759978
30
0
41
1
10
30.8620947611109
20
5.28296473855835
30
0
41
1
10
31.1503855173639
20
5.39860543511185
30
0
41
1
10
31.7396768112908
20
5.62338194682445
30
0
41
1
10
32.0411779855218
20
5.73159423593498
30
0
41
1
10
32.6448335682299
20
5.93580233844443
30
0
41
1
10
32.9473325706324
20
6.03185052176789
30
0
41
1
10
33.5511677557377
20
6.21129369417105
30
0
41
1
10
33.8518479044576
20
6.29481755000484
30
0
41
1
10
34.4542724857251
20
6.44699949694709
30
0
41
1
10
34.7557284756076
20
6.51593067918162
30
0
41
1
10
35.3586160803485
20
6.63993330678395
30
0
41
1
10
35.6600667846087
20
6.69499217568736
30
0
41
1
10
36.2625968447265
20
6.79114238814091
30
0
41
1
10
36.5641679941944
20
6.83213941640014
30
0
41
1
10
37.4701901436101
20
6.93204469474819
30
0
41
1
10
38.0734387576819
20
6.96894801232625
30
0
41
1
10
38.9753616409504
20
6.97964376371294
30
0
41
1
10
39.2764370187177
20
6.97566494262631
30
0
41
1
10
39.8800109302069
20
6.95285594447091
30
0
41
1
10
40.182676438538
20
6.93399109185256
30
0
41
1
10
40.7865742105054
20
6.8813731434509
30
0
41
1
10
41.0875074058664
20
6.8475285306115
30
0
41
1
10
41.689095494854
20
6.76516907052331
30
0
41
1
10
41.9903764517825
20
6.71693110764318
30
0
41
1
10
42.5931968399999
20
6.60630605998108
30
0
41
1
10
42.8947673487775
20
6.54392685753967
30
0
41
1
10
43.49786286359
20
6.40464684779002
30
0
41
1
10
43.7993415645143
20
6.32732576332796
30
0
41
1
10
44.7041932671841
20
6.07687303980052
30
0
41
1
10
45.3075332640828
20
5.88505412752571
30
0
41
1
10
46.2101398423419
20
5.55799993314324
30
0
41
1
10
46.5106547459037
20
5.44235584631855
30
0
41
1
10
47.1140227940646
20
5.200910876107
30
0
41
1
10
47.4167074876972
20
5.07453120896415
30
0
41
1
10
48.0205295176543
20
4.81134811335727
30
0
41
1
10
48.3218553463299
20
4.67444191835202
30
0
41
1
10
48.9231219182759
20
4.38961588735086
30
0
41
1
10
49.2238689194719
20
4.24267696894762
30
0
41
1
10
49.8264888752622
20
3.94105884369807
30
0
41
1
10
50.1281258954783
20
3.78608643678061
30
0
41
1
10
50.7316707327675
20
3.4672314013919
30
0
41
1
10
51.0335781209891
20
3.30283216952543
30
0
41
1
10
51.9370002922556
20
2.80009002292636
30
0
41
1
10
52.54019045317
20
2.45593711840618
30
0
41
1
10
53.4434552750793
20
1.92214074859206
30
0
41
1
10
53.7439082002869
20
1.74063911637964
30
0
41
1
10
54.3468639443644
20
1.37565122900918
30
0
41
1
10
54.6494256086711
20
1.19192691637153
30
0
41
1
10
55.2530518893674
20
0.823011769685252
30
0
41
1
10
55.5544704565532
20
0.637661913329538
30
0
41
1
10
56.1561358031356
20
0.264554898956675
30
0
41
1
10
56.4563081729856
20
0.0766746212720477
30
0
41
1
10
57.0585916891324
20
-0.29645403164605
30
0
41
1
10
57.3602333420519
20
-0.48246162311878
30
0
41
1
10
57.9640949983151
20
-0.854048611017276
30
0
41
1
10
58.2663711795527
20
-1.03966656714621
30
0
41
1
10
58.8683525008635
20
-1.40925048085663
30
0
41
1
10
59.1691148918864
20
-1.59229059892036
30
0
41
1
10
59.771482290523
20
-1.95289842809316
30
0
41
1
10
60.0727961533726
20
-2.13093182928103
30
0
41
1
10
60.675294619343
20
-2.48305381360478
30
0
41
1
10
60.9762794686661
20
-2.65743961941047
30
0
41
1
10
61.5787253893011
20
-3.00124421607345
30
0
41
1
10
61.8809491884004
20
-3.1693563393074
30
0
41
1
10
62.4842457588689
20
-3.49740153023197
30
0
41
1
10
62.7856577771521
20
-3.65755386841667
30
0
41
1
10
63.38763745625
20
-3.97061602117111
30
0
41
1
10
63.6877885657141
20
-4.12404908715243
30
0
41
1
10
64.2895116684226
20
-4.4205605844331
30
0
41
1
10
64.5911098655345
20
-4.56365059239141
30
0
41
1
10
65.1951681824906
20
-4.84031816801564
30
0
41
1
10
65.4974199551194
20
-4.97373883656226
30
0
41
1
10
66.0997147550464
20
-5.23010031262285
30
0
41
1
10
66.3999051106613
20
-5.35331816357791
30
0
41
1
10
67.0017992372743
20
-5.58629679480586
30
0
41
1
10
67.303056157004
20
-5.69657401779841
30
0
41
1
10
67.905749689583
20
-5.90518045082266
30
0
41
1
10
68.2071974239841
20
-6.00349926809349
30
0
41
1
10
68.8099111133283
20
-6.18819869244174
30
0
41
1
10
69.1113070955637
20
-6.27394050098468
30
0
41
1
10
69.7141283873928
20
-6.43068073212876
30
0
41
1
10
70.0154740934321
20
-6.50204499583643
30
0
41
1
10
70.6176442125769
20
-6.63105725419177
30
0
41
1
10
70.918318341042
20
-6.68876835086826
30
0
41
1
10
71.8200637908694
20
-6.84061694823586
30
0
41
1
10
72.4257438399783
20
-6.91218197673001
30
0
41
1
10
73.329773464029
20
-6.97524095399712
30
0
41
1
10
73.6301521015477
20
-6.98888342656164
30
0
41
1
10
74.0479879197858
20
-6.99729026731214
30
0
41
1
10
74.1651017591508
20
-6.99850603608706
30
0
41
1
10
74.2822899281923
20
-6.99858775246685
30
0
0
SPLINE
5
DA
100
AcDbEntity
8
SK1
62
256
6
ByLayer
370
18
48
1
60
0
100
AcDbSpline
70
4
71
3
72
10
73
6
40
0
40
0
40
0
40
0
40
0.5
40
0.5
40
1
40
1
40
1
40
1
41
1
10
-45
20
-0.255439107483568
30
0
41
1
10
-44.7377192756495
20
-0.135306282040659
30
0
41
1
10
-44.4719053575424
20
-0.0156224517830026
30
0
41
1
10
-43.9377266802981
20
0.223340629524927
30
0
41
1
10
-43.6692088236261
20
0.342618245678608
30
0
41
1
10
-43.4
20
0.461797224583165
30
0
0
SPLINE
5
DB
100
AcDbEntity
8
SK1
62
256
6
ByLayer
370
18
48
1
60
0
100
AcDbSpline
70
4
71
3
72
10
73
6
40
0
40
0
40
0
40
0
40
0.5
40
0.5
40
1
40
1
40
1
40
1
41
1
10
-43.4
20
2.88163483716014
30
0
41
1
10
-43.6546098392415
20
2.76891884126095
30
0
41
1
10
-43.9085982740033
20
2.65611261097644
30
0
41
1
10
-44.4140952600553
20
2.43015712028728
30
0
41
1
10
-44.6656877740945
20
2.31701857205712
30
0
41
1
10
-44.9144858217227
20
2.20349129854068
30
0
0
SPLINE
5
DC
100
AcDbEntity
8
SK1
62
256
6
ByLayer
370
18
48
1
60
0
100
AcDbSpline
70
4
71
3
72
8
73
4
40
0
40
0
40
0
40
0
40
1
40
1
40
1
40
1
41
1
10
-44.9144858217227
20
2.20349129854068
30
0
41
1
10
-44.9405726710434
20
2.22935882773072
30
0
41
1
10
-44.9692321311345
20
2.24781776067107
30
0
41
1
10
-45
20
2.2586962602893
30
0
0
SPLINE
5
DD
100
AcDbEntity
8
SK1
62
256
6
ByLayer
370
18
48
1
60
0
100
AcDbSpline
70
4
71
3
72
26
73
22
40
0
40
0
40
0
40
0
40
0.125
40
0.125
40
0.25
40
0.25
40
0.375
40
0.375
40
0.4375
40
0.4375
40
0.5
40
0.5
40
0.5625
40
0.5625
40
0.625
40
0.625
40
0.75
40
0.75
40
0.875
40
0.875
40
1
40
1
40
1
40
1
41
1
10
-44.9999999999996
20
1.97720272291372
30
0
41
1
10
-44.9540840576389
20
1.98323293191052
30
0
41
1
10
-44.9089798554928
20
1.98967436082722
30
0
41
1
10
-44.8211510138023
20
2.00376268258196
30
0
41
1
10
-44.7783924451423
20
2.01139238725079
30
0
41
1
10
-44.6968616789376
20
2.02867125451468
30
0
41
1
10
-44.6587676761524
20
2.03816484563794
30
0
41
1
10
-44.6108217325466
20
2.05431278428838
30
0
41
1
10
-44.5966434939808
20
2.0599387105618
30
0
41
1
10
-44.5730889563791
20
2.07183822541862
30
0
41
1
10
-44.5636202601344
20
2.07821745486004
30
0
41
1
10
-44.5520090998186
20
2.0913061042495
30
0
41
1
10
-44.5498265410754
20
2.09804308686918
30
0
41
1
10
-44.5536552471307
20
2.11149301047268
30
0
41
1
10
-44.5595226576683
20
2.11800982893257
30
0
41
1
10
-44.5875540907842
20
2.13701114763791
30
0
41
1
10
-44.6188134269553
20
2.14814206091114
30
0
41
1
10
-44.6917172772219
20
2.16763290422568
30
0
41
1
10
-44.7330278445799
20
2.17596881968294
30
0
41
1
10
-44.8212124796756
20
2.19102666300256
30
0
41
1
10
-44.8674024104999
20
2.19759153316431
30
0
41
1
10
-44.9144858217227
20
2.20349129854068
30
0
0
SPLINE
5
DE
100
AcDbEntity
8
SK1
62
256
6
ByLayer
370
18
48
1
60
0
100
AcDbSpline
70
4
71
3
72
14
73
10
40
0
40
0
40
0
40
0
40
0.124999999999999
40
0.124999999999999
40
0.249999999999998
40
0.249999999999998
40
0.499999999999995
40
0.499999999999995
40
1
40
1
40
1
40
1
41
1
10
-43.3
20
2.83349909441068
30
0
41
1
10
-43.3
20
2.84328404878798
30
0
41
1
10
-43.3017012565589
20
2.85166133000385
30
0
41
1
10
-43.3069010451287
20
2.86522414445324
30
0
41
1
10
-43.3102603620514
20
2.87034734493761
30
0
41
1
10
-43.3216024497887
20
2.8829598246783
30
0
41
1
10
-43.3304674144333
20
2.8873511258341
30
0
41
1
10
-43.3586594529452
20
2.89445305862114
30
0
41
1
10
-43.3789281721554
20
2.89096335355995
30
0
41
1
10
-43.4
20
2.88163483716014
30
0
0
SPLINE
5
DF
100
AcDbEntity
8
SK1
62
256
6
ByLayer
370
18
48
1
60
0
100
AcDbSpline
70
4
71
3
72
14
73
10
40
0
40
0
40
0
40
0
40
0.25
40
0.25
40
0.5
40
0.5
40
0.75
40
0.75
40
1
40
1
40
1
40
1
41
1
10
-45
20
2.2586962602893
30
0
41
1
10
-45
20
2.26043794585189
30
0
41
1
10
-45
20
2.25559407190002
30
0
41
1
10
-45
20
2.23254371212266
30
0
41
1
10
-45
20
2.21436124791055
30
0
41
1
10
-45
20
2.16615126292646
30
0
41
1
10
-45
20
2.13556920226634
30
0
41
1
10
-45
20
2.06379739608966
30
0
41
1
10
-45
20
2.02296655597064
30
0
41
1
10
-45
20
1.97720272291383
30
0
0
SPLINE
5
E0
100
AcDbEntity
8
SK1
62
256
6
ByLayer
370
18
48
1
60
0
100
AcDbSpline
70
4
71
3
72
14
73
10
40
0
40
0
40
0
40
0
40
0.500000000000004
40
0.500000000000004
40
0.750000000000002
40
0.750000000000002
40
0.875000000000001
40
0.875000000000001
40
1
40
1
40
1
40
1
41
1
10
-43.4
20
0.46179722458308
30
0
41
1
10
-43.3790445776494
20
0.47107420817008
30
0
41
1
10
-43.3587362712601
20
0.486069460388194
30
0
41
1
10
-43.3304966181166
20
0.520076208824605
30
0
41
1
10
-43.3215144183093
20
0.533361020892357
30
0
41
1
10
-43.3103236218556
20
0.557349392469149
30
0
41
1
10
-43.3069030532022
20
0.566211078877899
30
0
41
1
10
-43.3017205322973
20
0.585763639135337
30
0
41
1
10
-43.3
20
0.596484857069441
30
0
41
1
10
-43.3
20
0.607248490839879
30
0
0
SPLINE
5
E1
100
AcDbEntity
8
SK1
62
256
6
ByLayer
370
18
48
1
60
0
100
AcDbSpline
70
4
71
3
72
8
73
4
40
0
40
0
40
0
40
0
40
1
40
1
40
1
40
1
41
1
10
-45
20
0.255439107483568
30
0
41
1
10
-44.813403614718
20
0.169972091038232
30
0
41
1
10
-44.6250189262168
20
0.0847323306084036
30
0
41
1
10
-44.4356589351179
20
-0.0003690099155165
30
0
0
LINE
5
76
100
AcDbEntity
8
81
62
256
6
ByLayer
370
18
48
1
60
0
100
AcDbLine
10
79
20
0
30
0
11
84
21
0
31
0
39
0
210
0
220
0
230
1
0
LINE
5
77
100
AcDbEntity
8
1
62
256
6
ByLayer
370
18
48
1
60
0
100
AcDbLine
10
4.417834
20
6.956665
30
0
11
0.8
21
6.954494
31
0
39
0
210
0
220
0
230
1
0
LINE
5
79
100
AcDbEntity
8
1
62
256
6
ByLayer
370
18
48
1
60
0
100
AcDbLine
10
39.81809
20
6.977905
30
0
11
38.879147
21
6.977342
31
0
39
0
210
0
220
0
230
1
0
LINE
5
7A
100
AcDbEntity
8
1
62
256
6
ByLayer
370
18
48
1
60
0
100
AcDbLine
10
75.218864
20
6.999145
30
0
11
74.285251
21
6.998585
31
0
39
0
210
0
220
0
230
1
0
LINE
5
7B
100
AcDbEntity
8
1
62
256
6
ByLayer
370
18
48
1
60
0
100
AcDbLine
10
74.285251
20
-6.998585
30
0
11
75.218452
21
-6.999145
31
0
39
0
210
0
220
0
230
1
0
LINE
5
7C
100
AcDbEntity
8
1
62
256
6
ByLayer
370
18
48
1
60
0
100
AcDbLine
10
38.879147
20
-6.977342
30
0
11
39.817816
21
-6.977905
31
0
39
0
210
0
220
0
230
1
0
LINE
5
7D
100
AcDbEntity
8
1
62
256
6
ByLayer
370
18
48
1
60
0
100
AcDbLine
10
0.8
20
-6.954494
30
0
11
4.417863
21
-6.956665
31
0
39
0
210
0
220
0
230
1
0
LINE
5
7E
100
AcDbEntity
8
1
62
256
6
ByLayer
370
18
48
1
60
0
100
AcDbLine
10
0
20
-7
30
0
11
0.8
21
-6.954494
31
0
39
0
210
0
220
0
230
1
0
LINE
5
7F
100
AcDbEntity
8
1
62
256
6
ByLayer
370
18
48
1
60
0
100
AcDbLine
10
0.8
20
6.954494
30
0
11
0
21
7
31
0
39
0
210
0
220
0
230
1
0
LINE
5
80
100
AcDbEntity
8
SK1
62
256
6
ByLayer
370
18
48
1
60
0
100
AcDbLine
10
-43.267949
20
7
30
0
11
-45
21
4
31
0
39
0
210
0
220
0
230
1
0
LINE
5
82
100
AcDbEntity
8
SK1
62
256
6
ByLayer
370
18
48
1
60
0
100
AcDbLine
10
-45
20
-4
30
0
11
-43.267949
21
-7
31
0
39
0
210
0
220
0
230
1
0
LINE
5
83
100
AcDbEntity
8
SK1
62
256
6
ByLayer
370
18
48
1
60
0
100
AcDbLine
10
0
20
7
30
0
11
-43.267949
21
7
31
0
39
0
210
0
220
0
230
1
0
LINE
5
84
100
AcDbEntity
8
SK1
62
256
6
ByLayer
370
18
48
1
60
0
100
AcDbLine
10
-43.267949
20
-7
30
0
11
0
21
-7
31
0
39
0
210
0
220
0
230
1
0
LINE
5
85
100
AcDbEntity
8
SK4
62
256
6
ByLayer
370
18
48
0.05
60
0
100
AcDbLine
10
84
20
0
30
0
11
-50
21
0
31
0
39
0
210
0
220
0
230
1
0
LINE
5
87
100
AcDbEntity
8
4
62
256
6
ByLayer
370
18
48
0.05
60
0
100
AcDbLine
10
79
20
0
30
0
11
0
21
0
31
0
39
0
210
0
220
0
230
1
0
LINE
5
89
100
AcDbEntity
8
80
62
256
6
ByLayer
370
18
48
1
60
0
100
AcDbLine
10
0
20
0
30
0
11
-5
21
0
31
0
39
0
210
0
220
0
230
1
0
LINE
5
8A
100
AcDbEntity
8
1
62
256
6
ByLayer
370
18
48
1
60
0
100
AcDbLine
10
78.904268
20
0.329125
30
0
11
78.671802
21
1.187354
31
0
39
0
210
0
220
0
230
1
0
LINE
5
8B
100
AcDbEntity
8
1
62
256
6
ByLayer
370
18
48
1
60
0
100
AcDbLine
10
0.8
20
6.954494
30
0
11
0.8
21
-6.954494
31
0
39
0
210
0
220
0
230
1
0
LINE
5
8C
100
AcDbEntity
8
1
62
256
6
ByLayer
370
13
48
1
60
0
100
AcDbLine
10
77.170897
20
1.187354
30
0
11
78.904268
21
0.329125
31
0
39
0
210
0
220
0
230
1
0
LINE
5
8D
100
AcDbEntity
8
1
62
256
6
ByLayer
370
18
48
1
60
0
100
AcDbLine
10
0
20
-7
30
0
11
0
21
7
31
0
39
0
210
0
220
0
230
1
0
LINE
5
8E
100
AcDbEntity
8
1
62
256
6
ByLayer
370
18
48
1
60
0
100
AcDbLine
10
79
20
0
30
0
11
76.563239
21
-6.694946
31
0
39
0
210
0
220
0
230
1
0
LINE
5
8F
100
AcDbEntity
8
1
62
256
6
ByLayer
370
18
48
1
60
0
100
AcDbLine
10
78.904268
20
-0.329125
30
0
11
78.671802
21
-1.187354
31
0
39
0
210
0
220
0
230
1
0
LINE
5
90
100
AcDbEntity
8
1
62
256
6
ByLayer
370
13
48
1
60
0
100
AcDbLine
10
77.001438
20
0.84093
30
0
11
78.893837
21
-0.096038
31
0
39
0
210
0
220
0
230
1
0
LINE
5
91
100
AcDbEntity
8
1
62
256
6
ByLayer
370
13
48
1
60
0
100
AcDbLine
10
78.671802
20
1.187354
30
0
11
77.170897
21
1.187354
31
0
39
0
210
0
220
0
230
1
0
LINE
5
92
100
AcDbEntity
8
1
62
256
6
ByLayer
370
18
48
1
60
0
100
AcDbLine
10
4
20
-6.945055
30
0
11
4
21
1.324649
31
0
39
0
210
0
220
0
230
1
0
LINE
5
93
100
AcDbEntity
8
1
62
256
6
ByLayer
370
18
48
1
60
0
100
AcDbLine
10
79
20
0
30
0
11
78.985243
21
-0.066203
31
0
39
0
210
0
220
0
230
1
0
LINE
5
94
100
AcDbEntity
8
1
62
256
6
ByLayer
370
18
48
1
60
0
100
AcDbLine
10
78.985243
20
0.066203
30
0
11
79
21
0
31
0
39
0
210
0
220
0
230
1
0
LINE
5
95
100
AcDbEntity
8
1
62
256
6
ByLayer
370
18
48
1
60
0
100
AcDbLine
10
75.473898
20
-3.907498
30
0
11
78.893837
21
-0.096038
31
0
39
0
210
0
220
0
230
1
0
LINE
5
96
100
AcDbEntity
8
SK1
62
256
6
ByLayer
370
13
48
1
60
0
100
AcDbLine
10
-43.4
20
2.881635
30
0
11
-43.4
21
0.461826
31
0
39
0
210
0
220
0
230
1
0
LINE
5
97
100
AcDbEntity
8
SK1
62
256
6
ByLayer
370
18
48
1
60
0
100
AcDbLine
10
-43.267949
20
7
30
0
11
-43.267949
21
-7
31
0
39
0
210
0
220
0
230
1
0
LINE
5
98
100
AcDbEntity
8
SK1
62
256
6
ByLayer
370
18
48
1
60
0
100
AcDbLine
10
-45
20
1.977203
30
0
11
-45
21
0.255439
31
0
39
0
210
0
220
0
230
1
0
LINE
5
99
100
AcDbEntity
8
SK1
62
256
6
ByLayer
370
18
48
1
60
0
100
AcDbLine
10
-43.3
20
0.607248
30
0
11
-43.3
21
2.833499
31
0
39
0
210
0
220
0
230
1
0
LINE
5
9A
100
AcDbEntity
8
SK1
62
256
6
ByLayer
370
18
48
1
60
0
100
AcDbLine
10
0
20
-7
30
0
11
0
21
7
31
0
39
0
210
0
220
0
230
1
0
LINE
5
9B
100
AcDbEntity
8
SK1
62
256
6
ByLayer
370
18
48
1
60
0
100
AcDbLine
10
-45
20
4
30
0
11
-45
21
2.258696
31
0
39
0
210
0
220
0
230
1
0
LINE
5
9C
100
AcDbEntity
8
SK1
62
256
6
ByLayer
370
18
48
1
60
0
100
AcDbLine
10
-45
20
-0.255439
30
0
11
-45
21
-4
31
0
39
0
210
0
220
0
230
1
0
MTEXT
5
E2
100
AcDbEntity
8
SK6
62
256
6
ByLayer
370
13
48
1
60
0
100
AcDbMText
10
19.129169
20
39.382694
30
0
210
0
220
0
230
1
1
\W0.7470;R840-1400-50-A1A1220
40
3.5
41
0
44
1.084337
50
0
71
8
72
5
7
iso_b_vert
0
DIMENSION
5
EF
100
AcDbEntity
8
SK2
62
256
6
ByLayer
370
13
48
1
60
0
100
AcDbDimension
2
DimnDraft3D1
10
76.6
20
-17.213398
30
0
11
36.350059
21
-17.213398
31
0
70
32
71
5
72
1
41
1
210
0
220
0
230
1
3
Standard
100
AcDbAlignedDimension
13
0
23
-1.5875
33
0
14
76.6
24
-8.5875
34
0
50
0
100
AcDbRotatedDimension
1001
ACAD
1000
DSTYLE
1002
{
1070
   279
1070
     0
1070
   172
1070
     1
1070
   173
1070
     1
1070
   340
1005
E3
1070
   271
1070
     2
1070
   272
1070
     2
1070
    77
1070
     1
1070
    73
1070
     0
1070
   171
1070
     3
1070
   274
1070
     4
1070
   177
1070
    35
1070
   176
1070
    35
1070
   178
1070
    35
1070
    48
1040
-0.005
1070
    41
1041
3.5
1070
   147
1041
1.75
1070
    42
1041
1.5875
1070
    44
1041
2.0
1070
   140
1041
3.5
1070
   343
1005
0
1070
   344
1005
0
1002
}
0
DIMENSION
5
F9
100
AcDbEntity
8
SK2
62
256
6
ByLayer
370
13
48
1
60
0
100
AcDbDimension
2
DimnDraft3D2
10
79
20
-35.692985
30
0
11
15.9413
21
-35.692985
31
0
70
32
71
5
72
1
41
1
210
0
220
0
230
1
3
Standard
100
AcDbAlignedDimension
13
-45
23
-8.5875
33
0
14
79
24
-1.5875
34
0
50
0
100
AcDbRotatedDimension
1001
ACAD
1000
DSTYLE
1002
{
1070
   279
1070
     0
1070
   172
1070
     1
1070
   173
1070
     1
1070
   340
1005
E3
1070
   271
1070
     2
1070
   272
1070
     2
1070
    77
1070
     1
1070
    73
1070
     0
1070
   171
1070
     3
1070
   274
1070
     4
1070
   177
1070
    35
1070
   176
1070
    35
1070
   178
1070
    35
1070
    48
1040
-0.005
1070
    41
1041
3.5
1070
   147
1041
1.75
1070
    42
1041
1.5875
1070
    44
1041
2.0
1070
   140
1041
3.5
1070
   343
1005
0
1070
   344
1005
0
1002
}
0
DIMENSION
5
103
100
AcDbEntity
8
SK2
62
256
6
ByLayer
370
13
48
1
60
0
100
AcDbDimension
2
DimnDraft3D3
10
79
20
18.609119
30
0
11
42.8
21
18.609119
31
0
70
32
71
5
72
1
41
1
210
0
220
0
230
1
3
Standard
100
AcDbAlignedDimension
13
6.6
23
8.5875
33
0
14
79
24
1.5875
34
0
50
0
100
AcDbRotatedDimension
1001
ACAD
1000
DSTYLE
1002
{
1070
   279
1070
     0
1070
   172
1070
     1
1070
   173
1070
     1
1070
   340
1005
E3
1070
   271
1070
     2
1070
   272
1070
     2
1070
    77
1070
     1
1070
    73
1070
     0
1070
   171
1070
     3
1070
   274
1070
     4
1070
   177
1070
    35
1070
   176
1070
    35
1070
   178
1070
    35
1070
    48
1040
-0.005
1070
    41
1041
3.5
1070
   147
1041
1.75
1070
    42
1041
1.5875
1070
    44
1041
2.0
1070
   140
1041
3.5
1070
   343
1005
0
1070
   344
1005
0
1002
}
0
DIMENSION
5
10D
100
AcDbEntity
8
SK2
62
256
6
ByLayer
370
13
48
1
60
0
100
AcDbDimension
2
DimnDraft3D4
10
76.6
20
-19.802503
30
0
11
88.981425
21
-19.802503
31
0
70
32
71
5
72
1
41
1
210
0
220
0
230
1
3
Standard
100
AcDbAlignedDimension
13
79
23
-1.5875
33
0
14
76.6
24
-8.5875
34
0
50
0
100
AcDbRotatedDimension
1001
ACAD
1000
DSTYLE
1002
{
1070
   279
1070
     0
1070
   172
1070
     1
1070
   173
1070
     1
1070
   340
1005
E3
1070
   271
1070
     2
1070
   272
1070
     2
1070
    77
1070
     1
1070
    73
1070
     0
1070
   171
1070
     3
1070
   274
1070
     4
1070
   177
1070
    35
1070
   176
1070
    35
1070
   178
1070
    35
1070
    48
1040
-0.005
1070
    41
1041
3.5
1070
   147
1041
1.75
1070
    42
1041
1.5875
1070
    44
1041
2.0
1070
   140
1041
3.5
1070
   343
1005
0
1070
   344
1005
0
1002
}
0
DIMENSION
5
117
100
AcDbEntity
8
SK2
62
256
6
ByLayer
370
13
48
1
60
0
100
AcDbDimension
2
DimnDraft3D5
10
76.6
20
-25.343428
30
0
11
12.860676
21
-25.343428
31
0
70
32
71
5
72
1
41
1
210
0
220
0
230
1
3
Standard
100
AcDbAlignedDimension
13
-45
23
-8.5875
33
0
14
76.6
24
-8.5875
34
0
50
0
100
AcDbRotatedDimension
1001
ACAD
1000
DSTYLE
1002
{
1070
   279
1070
     0
1070
   172
1070
     1
1070
   173
1070
     1
1070
   340
1005
E3
1070
   271
1070
     2
1070
   272
1070
     2
1070
    77
1070
     1
1070
    73
1070
     0
1070
   171
1070
     3
1070
   274
1070
     4
1070
   177
1070
    35
1070
   176
1070
    35
1070
   178
1070
    35
1070
    48
1040
-0.005
1070
    41
1041
3.5
1070
   147
1041
1.75
1070
    42
1041
1.5875
1070
    44
1041
2.0
1070
   140
1041
3.5
1070
   343
1005
0
1070
   344
1005
0
1002
}
0
DIMENSION
5
122
100
AcDbEntity
8
SK2
62
256
6
ByLayer
370
13
48
1
60
0
100
AcDbDimension
2
DimnDraft3D6
10
-55.625163
20
7
30
0
11
-56.250163
21
25.47418
31
0
70
33
71
5
72
1
41
1
210
0
220
0
230
1
3
Standard
100
AcDbAlignedDimension
13
-46.5875
23
-7
33
0
14
-46.5875
24
7
34
0
1001
ACAD
1000
DSTYLE
1002
{
1070
   279
1070
     0
1070
    74
1070
     0
1070
   173
1070
     1
1070
   340
1005
E3
1070
   271
1070
     3
1070
   272
1070
     2
1070
    77
1070
     1
1070
    73
1070
     0
1070
   171
1070
     3
1070
   274
1070
     4
1070
   177
1070
    35
1070
   176
1070
    35
1070
   178
1070
    35
1070
    48
1040
-0.005
1070
    41
1041
3.5
1070
   147
1041
1.75
1070
    42
1041
1.5875
1070
    44
1041
2.0
1070
   140
1041
3.5
1070
   343
1005
0
1070
   344
1005
0
1002
}
0
DIMENSION
5
12D
100
AcDbEntity
8
2
62
256
6
ByLayer
370
13
48
1
60
0
100
AcDbDimension
2
DimnDraft3D7
10
93.083343
20
7
30
0
11
88.458343
21
24.067266
31
0
70
33
71
5
72
1
41
1
210
0
220
0
230
1
3
Standard
100
AcDbAlignedDimension
13
78.1875
23
-7
33
0
14
78.1875
24
7
34
0
1001
ACAD
1000
DSTYLE
1002
{
1070
   279
1070
     0
1070
    74
1070
     0
1070
   173
1070
     1
1070
   340
1005
E3
1070
   271
1070
     3
1070
   272
1070
     2
1070
    77
1070
     1
1070
    73
1070
     0
1070
   171
1070
     3
1070
   274
1070
     4
1070
   177
1070
    35
1070
   176
1070
    35
1070
   178
1070
    35
1070
    48
1040
-0.005
1070
    41
1041
3.5
1070
   147
1041
1.75
1070
    42
1041
1.5875
1070
    44
1041
2.0
1070
   140
1041
3.5
1070
   343
1005
0
1070
   344
1005
0
1002
}
0
ENDSEC
0
SECTION
2
OBJECTS
0
DICTIONARY
5
198
330
0
100
AcDbDictionary
280
0
281
1
3
ACAD_GROUP
350
199
3
ACAD_MLINESTYLE
350
19a
0
DICTIONARY
5
199
330
0
100
AcDbDictionary
280
0
281
1
0
DICTIONARY
5
19a
330
0
100
AcDbDictionary
280
0
281
1
3
Standard
350
18
0
MLINESTYLE
5
18
330
19a
100
AcDbMlineStyle
2
Standard
70
0
3

62
256
51
90
52
90
71
2
49
-0.5
62
256
6
ByLayer
49
0.5
62
256
6
ByLayer
0
RASTERVARIABLES
5
186
330

100
AcDbRasterVariables
90
0
70
1
71
1
72
1
0
ENDSEC
0
EOF
