0
SECTION
2
HEADER
9
$ACADVER
1
AC1015
9
$DWGCODEPAGE
3
ANSI_1252
9
$HANDSEED
5
199
9
$ANGBASE
50
0
9
$ANGDIR
70
0
9
$ATTMODE
70
1
9
$AUNITS
70
0
9
$AUPREC
70
0
9
$CECOLOR
62
256
9
$CELTSCALE
40
1
9
$CELTYPE
6
ByLayer
9
$CELWEIGHT
370
18
9
$CLAYER
8
0
9
$CMLJUST
70
0
9
$CMLSCALE
40
1
9
$CMLSTYLE
2
Standard
9
$DIMSTYLE
2
Standard
9
$TEXTSIZE
40
0.2
9
$TEXTSTYLE
7
Standard
9
$LUNITS
70
2
9
$LUPREC
70
4
9
$EXTNAMES
290
1
9
$INSUNITS
70
4
9
$LTSCALE
40
1
9
$LWDISPLAY
290
1
9
$PDMODE
70
0
9
$PDSIZE
40
0
9
$PLINEGEN
70
0
0
ENDSEC
0
SECTION
2
CLASSES
0
CLASS
1
RASTERVARIABLES
2
AcDbRasterVariables
3
ISM
90
0
280
0
281
0
0
ENDSEC
0
SECTION
2
TABLES
0
TABLE
2
VPORT
5
18f
100
AcDbSymbolTable
0
VPORT
5
1
100
AcDbSymbolTableRecord
100
AcDbViewportTableRecord
2
*Active
70
0
10
0
20
0
11
1
21
1
12
-1
22
1
13
0
23
0
14
0.5
24
0.5
15
10
25
10
16
0
26
0
36
1
17
0
27
0
37
0
0
ENDTAB
0
TABLE
2
LTYPE
5
190
100
AcDbSymbolTable
0
LTYPE
5
14
100
AcDbSymbolTableRecord
100
AcDbLinetypeTableRecord
70
0
2
ByBlock
3

72
65
73
0
40
0
0
LTYPE
5
15
100
AcDbSymbolTableRecord
100
AcDbLinetypeTableRecord
70
0
2
ByLayer
3

72
65
73
0
40
0
0
LTYPE
5
16
100
AcDbSymbolTableRecord
100
AcDbLinetypeTableRecord
70
0
2
CONTINUOUS
3
Solid line
72
65
73
0
40
0
0
LTYPE
5
6A
100
AcDbSymbolTableRecord
100
AcDbLinetypeTableRecord
70
0
2
CENTER
3
____ _ ____ _ ____ _ ____
72
65
73
4
40
47.5
49
22
74
0
49
-8.5
74
0
49
8.5
74
0
49
-8.5
74
0
0
LTYPE
5
6B
100
AcDbSymbolTableRecord
100
AcDbLinetypeTableRecord
70
0
2
DASHED
3
__ __ __ __ __ __ __ __ __
72
65
73
2
40
25.72
49
12.86
74
0
49
-12.86
74
0
0
ENDTAB
0
TABLE
2
LAYER
5
191
100
AcDbSymbolTable
0
LAYER
5
10
100
AcDbSymbolTableRecord
100
AcDbLayerTableRecord
2
0
70
0
62
7
6
CONTINUOUS
290
1
370
-3
390
0
0
LAYER
5
6D
100
AcDbSymbolTableRecord
100
AcDbLayerTableRecord
2
81
70
0
62
-3
6
CONTINUOUS
290
1
370
-3
390
0
0
LAYER
5
6F
100
AcDbSymbolTableRecord
100
AcDbLayerTableRecord
2
80
70
0
62
-6
6
CONTINUOUS
290
1
370
-3
390
0
0
LAYER
5
74
100
AcDbSymbolTableRecord
100
AcDbLayerTableRecord
2
2
70
0
62
7
6
CONTINUOUS
290
1
370
-3
390
0
0
LAYER
5
78
100
AcDbSymbolTableRecord
100
AcDbLayerTableRecord
2
1
70
0
62
4
6
CONTINUOUS
290
1
370
-3
390
0
0
LAYER
5
88
100
AcDbSymbolTableRecord
100
AcDbLayerTableRecord
2
4
70
0
62
-2
6
CENTER
290
1
370
-3
390
0
0
LAYER
5
17b
100
AcDbSymbolTableRecord
100
AcDbLayerTableRecord
2
SK2
70
0
62
7
6
CONTINUOUS
290
1
370
-3
390
0
0
LAYER
5
17c
100
AcDbSymbolTableRecord
100
AcDbLayerTableRecord
2
SK1
70
0
62
4
6
CONTINUOUS
290
1
370
-3
390
0
0
LAYER
5
17d
100
AcDbSymbolTableRecord
100
AcDbLayerTableRecord
2
SK4
70
0
62
2
6
CENTER
290
1
370
-3
390
0
0
LAYER
5
17e
100
AcDbSymbolTableRecord
100
AcDbLayerTableRecord
2
SK6
70
0
62
5
6
CONTINUOUS
290
1
370
-3
390
0
0
ENDTAB
0
TABLE
2
STYLE
5
192
100
AcDbSymbolTable
0
STYLE
5
11
100
AcDbSymbolTableRecord
100
AcDbTextStyleTableRecord
2
Standard
3
txt
70
0
71
0
40
0
41
1
42
0
50
0
0
STYLE
5
D7
100
AcDbSymbolTableRecord
100
AcDbTextStyleTableRecord
2
iso_b_vert
3
simplex.shx
70
0
71
0
40
0
41
1
42
0
50
0
0
STYLE
5
D8
100
AcDbSymbolTableRecord
100
AcDbTextStyleTableRecord
2
DWGDirectTextStyle
3
simplex
70
0
71
0
40
0
41
1
42
0
50
0
0
ENDTAB
0
TABLE
2
DIMSTYLE
5
193
100
AcDbSymbolTable
100
AcDbDimStyleTable
0
DIMSTYLE
105
27
100
AcDbSymbolTableRecord
100
AcDbDimStyleTableRecord
2
Standard
70
0
3
<>
41
0.18
42
0.0625
44
0.18
140
0.18
147
0.09
73
0
74
0
77
1
271
2
275
0
278
52
280
0
340
11
0
ENDTAB
0
TABLE
2
VIEW
5
194
100
AcDbSymbolTable
0
ENDTAB
0
TABLE
2
UCS
5
195
100
AcDbSymbolTable
0
ENDTAB
0
TABLE
2
APPID
5
196
100
AcDbSymbolTable
0
APPID
5
12
100
AcDbSymbolTableRecord
100
AcDbRegAppTableRecord
2
ACAD
70
0
0
ENDTAB
0
TABLE
2
BLOCK_RECORD
5
197
100
AcDbSymbolTable
0
BLOCK_RECORD
5
1F
100
AcDbSymbolTableRecord
100
AcDbBlockTableRecord
2
*Model_Space
340
0
70
0
0
BLOCK_RECORD
5
1B
100
AcDbSymbolTableRecord
100
AcDbBlockTableRecord
2
*Paper_Space
340
0
70
0
0
BLOCK_RECORD
5
23
100
AcDbSymbolTableRecord
100
AcDbBlockTableRecord
2
*Paper_Space0
340
0
70
0
0
BLOCK_RECORD
5
DA
100
AcDbSymbolTableRecord
100
AcDbBlockTableRecord
2
DimnDraft3D1
340
0
70
0
0
BLOCK_RECORD
5
E4
100
AcDbSymbolTableRecord
100
AcDbBlockTableRecord
2
DimnDraft3D2
340
0
70
0
0
BLOCK_RECORD
5
EE
100
AcDbSymbolTableRecord
100
AcDbBlockTableRecord
2
DimnDraft3D3
340
0
70
0
0
BLOCK_RECORD
5
F8
100
AcDbSymbolTableRecord
100
AcDbBlockTableRecord
2
DimnDraft3D4
340
0
70
0
0
BLOCK_RECORD
5
102
100
AcDbSymbolTableRecord
100
AcDbBlockTableRecord
2
DimnDraft3D5
340
0
70
0
0
BLOCK_RECORD
5
10C
100
AcDbSymbolTableRecord
100
AcDbBlockTableRecord
2
DimnDraft3D6
340
0
70
0
0
BLOCK_RECORD
5
117
100
AcDbSymbolTableRecord
100
AcDbBlockTableRecord
2
DimnDraft3D7
340
0
70
0
0
ENDTAB
0
ENDSEC
0
SECTION
2
BLOCKS
0
BLOCK
5
20
100
AcDbEntity
8
0
100
AcDbBlockBegin
2
*Model_Space
70
0
10
0
20
0
30
0
3
*Model_Space
0
ENDBLK
5
21
100
AcDbEntity
8
0
100
AcDbBlockEnd
0
BLOCK
5
1C
100
AcDbEntity
8
0
100
AcDbBlockBegin
2
*Paper_Space
70
0
10
0
20
0
30
0
3
*Paper_Space
0
ENDBLK
5
1D
100
AcDbEntity
8
0
100
AcDbBlockEnd
0
BLOCK
5
24
100
AcDbEntity
8
0
100
AcDbBlockBegin
2
*Paper_Space0
70
0
10
0
20
0
30
0
3
*Paper_Space0
0
ENDBLK
5
25
100
AcDbEntity
8
0
100
AcDbBlockEnd
0
BLOCK
5
E1
100
AcDbEntity
8
0
100
AcDbBlockBegin
2
DimnDraft3D1
70
0
10
0
20
0
30
0
3
DimnDraft3D1
0
MTEXT
5
DB
100
AcDbEntity
8
SK2
62
256
6
ByLayer
370
13
48
1
60
0
100
AcDbMText
10
31.931375
20
-16.238398
30
0
210
0
220
0
230
1
1
\W0.7317;76,63
40
3.5
41
0
44
1.084337
50
0
71
7
72
5
7
iso_b_vert
0
LINE
5
DC
100
AcDbEntity
8
SK2
62
256
6
ByLayer
370
13
48
1
60
0
100
AcDbLine
10
0
20
-1.5875
30
0
11
0
21
-19.113398
31
0
39
0
210
0
220
0
230
1
0
LINE
5
DD
100
AcDbEntity
8
SK2
62
256
6
ByLayer
370
13
48
1
60
0
100
AcDbLine
10
76.63
20
-8.4875
30
0
11
76.63
21
-19.113398
31
0
39
0
210
0
220
0
230
1
0
LINE
5
DE
100
AcDbEntity
8
SK2
62
256
6
ByLayer
370
13
48
1
60
0
100
AcDbLine
10
0
20
-17.113398
30
0
11
76.63
21
-17.113398
31
0
39
0
210
0
220
0
230
1
0
SOLID
5
DF
100
AcDbEntity
8
SK2
62
256
6
ByLayer
370
13
48
1
60
0
100
AcDbTrace
10
0
20
-17.113398
30
0
11
3.499998
21
-16.652615
31
0
12
3.500002
22
-17.574182
32
0
13
0
23
-17.113398
33
0
39
0
210
0
220
0
230
1
0
SOLID
5
E0
100
AcDbEntity
8
SK2
62
256
6
ByLayer
370
13
48
1
60
0
100
AcDbTrace
10
76.63
20
-17.113398
30
0
11
73.130002
21
-17.574182
31
0
12
73.129998
22
-16.652615
32
0
13
76.63
23
-17.113398
33
0
39
0
210
0
220
0
230
1
0
ENDBLK
5
E2
100
AcDbEntity
8
0
100
AcDbBlockEnd
0
BLOCK
5
EB
100
AcDbEntity
8
0
100
AcDbBlockBegin
2
DimnDraft3D2
70
0
10
0
20
0
30
0
3
DimnDraft3D2
0
MTEXT
5
E5
100
AcDbEntity
8
SK2
62
256
6
ByLayer
370
13
48
1
60
0
100
AcDbMText
10
10.468011
20
-34.817985
30
0
210
0
220
0
230
1
1
\W0.7145;124,00
40
3.5
41
0
44
1.084337
50
0
71
7
72
5
7
iso_b_vert
0
LINE
5
E6
100
AcDbEntity
8
SK2
62
256
6
ByLayer
370
13
48
1
60
0
100
AcDbLine
10
-45
20
-8.5875
30
0
11
-45
21
-37.692985
31
0
39
0
210
0
220
0
230
1
0
LINE
5
E7
100
AcDbEntity
8
SK2
62
256
6
ByLayer
370
13
48
1
60
0
100
AcDbLine
10
79
20
-1.5875
30
0
11
79
21
-37.692985
31
0
39
0
210
0
220
0
230
1
0
LINE
5
E8
100
AcDbEntity
8
SK2
62
256
6
ByLayer
370
13
48
1
60
0
100
AcDbLine
10
-45
20
-35.692985
30
0
11
79
21
-35.692985
31
0
39
0
210
0
220
0
230
1
0
SOLID
5
E9
100
AcDbEntity
8
SK2
62
256
6
ByLayer
370
13
48
1
60
0
100
AcDbTrace
10
-45
20
-35.692985
30
0
11
-41.500002
21
-35.232202
31
0
12
-41.499998
22
-36.153769
32
0
13
-45
23
-35.692985
33
0
39
0
210
0
220
0
230
1
0
SOLID
5
EA
100
AcDbEntity
8
SK2
62
256
6
ByLayer
370
13
48
1
60
0
100
AcDbTrace
10
79
20
-35.692985
30
0
11
75.500002
21
-36.153769
31
0
12
75.499998
22
-35.232202
32
0
13
79
23
-35.692985
33
0
39
0
210
0
220
0
230
1
0
ENDBLK
5
EC
100
AcDbEntity
8
0
100
AcDbBlockEnd
0
BLOCK
5
F5
100
AcDbEntity
8
0
100
AcDbBlockBegin
2
DimnDraft3D3
70
0
10
0
20
0
30
0
3
DimnDraft3D3
0
MTEXT
5
EF
100
AcDbEntity
8
SK2
62
256
6
ByLayer
370
13
48
1
60
0
100
AcDbMText
10
39.303816
20
19.384119
30
0
210
0
220
0
230
1
1
\W0.6713;71,37
40
3.5
41
0
44
1.084337
50
0
71
7
72
5
7
iso_b_vert
0
LINE
5
F0
100
AcDbEntity
8
SK2
62
256
6
ByLayer
370
13
48
1
60
0
100
AcDbLine
10
7.63
20
8.4875
30
0
11
7.63
21
20.509119
31
0
39
0
210
0
220
0
230
1
0
LINE
5
F1
100
AcDbEntity
8
SK2
62
256
6
ByLayer
370
13
48
1
60
0
100
AcDbLine
10
79
20
1.5875
30
0
11
79
21
20.509119
31
0
39
0
210
0
220
0
230
1
0
LINE
5
F2
100
AcDbEntity
8
SK2
62
256
6
ByLayer
370
13
48
1
60
0
100
AcDbLine
10
7.63
20
18.509119
30
0
11
79
21
18.509119
31
0
39
0
210
0
220
0
230
1
0
SOLID
5
F3
100
AcDbEntity
8
SK2
62
256
6
ByLayer
370
13
48
1
60
0
100
AcDbTrace
10
7.63
20
18.509119
30
0
11
11.129998
21
18.969903
31
0
12
11.130002
22
18.048335
32
0
13
7.63
23
18.509119
33
0
39
0
210
0
220
0
230
1
0
SOLID
5
F4
100
AcDbEntity
8
SK2
62
256
6
ByLayer
370
13
48
1
60
0
100
AcDbTrace
10
79
20
18.509119
30
0
11
75.500002
21
18.048335
31
0
12
75.499998
22
18.969903
32
0
13
79
23
18.509119
33
0
39
0
210
0
220
0
230
1
0
ENDBLK
5
F6
100
AcDbEntity
8
0
100
AcDbBlockEnd
0
BLOCK
5
FF
100
AcDbEntity
8
0
100
AcDbBlockBegin
2
DimnDraft3D4
70
0
10
0
20
0
30
0
3
DimnDraft3D4
0
MTEXT
5
F9
100
AcDbEntity
8
SK2
62
256
6
ByLayer
370
13
48
1
60
0
100
AcDbMText
10
85.840636
20
-18.827503
30
0
210
0
220
0
230
1
1
\W0.7150;2,37
40
3.5
41
0
44
1.084337
50
0
71
7
72
5
7
iso_b_vert
0
LINE
5
FA
100
AcDbEntity
8
SK2
62
256
6
ByLayer
370
13
48
1
60
0
100
AcDbLine
10
79
20
-1.5875
30
0
11
79
21
-21.702503
31
0
39
0
210
0
220
0
230
1
0
LINE
5
FB
100
AcDbEntity
8
SK2
62
256
6
ByLayer
370
13
48
1
60
0
100
AcDbLine
10
76.63
20
-8.4875
30
0
11
76.63
21
-21.702503
31
0
39
0
210
0
220
0
230
1
0
LINE
5
FC
100
AcDbEntity
8
SK2
62
256
6
ByLayer
370
13
48
1
60
0
100
AcDbLine
10
67.88
20
-19.702503
30
0
11
92.997215
21
-19.702503
31
0
39
0
210
0
220
0
230
1
0
SOLID
5
FD
100
AcDbEntity
8
SK2
62
256
6
ByLayer
370
13
48
1
60
0
100
AcDbTrace
10
79
20
-19.702503
30
0
11
82.499998
21
-19.241719
31
0
12
82.500002
22
-20.163287
32
0
13
79
23
-19.702503
33
0
39
0
210
0
220
0
230
1
0
SOLID
5
FE
100
AcDbEntity
8
SK2
62
256
6
ByLayer
370
13
48
1
60
0
100
AcDbTrace
10
76.63
20
-19.702503
30
0
11
73.130002
21
-20.163287
31
0
12
73.129998
22
-19.241719
32
0
13
76.63
23
-19.702503
33
0
39
0
210
0
220
0
230
1
0
ENDBLK
5
100
100
AcDbEntity
8
0
100
AcDbBlockEnd
0
BLOCK
5
109
100
AcDbEntity
8
0
100
AcDbBlockBegin
2
DimnDraft3D5
70
0
10
0
20
0
30
0
3
DimnDraft3D5
0
MTEXT
5
103
100
AcDbEntity
8
SK2
62
256
6
ByLayer
370
13
48
1
60
0
100
AcDbMText
10
8.009097
20
-24.468428
30
0
210
0
220
0
230
1
1
\W0.6440;121,63
40
3.5
41
0
44
1.084337
50
0
71
7
72
5
7
iso_b_vert
0
LINE
5
104
100
AcDbEntity
8
SK2
62
256
6
ByLayer
370
13
48
1
60
0
100
AcDbLine
10
-45
20
-8.5875
30
0
11
-45
21
-27.343428
31
0
39
0
210
0
220
0
230
1
0
LINE
5
105
100
AcDbEntity
8
SK2
62
256
6
ByLayer
370
13
48
1
60
0
100
AcDbLine
10
76.63
20
-8.4875
30
0
11
76.63
21
-27.343428
31
0
39
0
210
0
220
0
230
1
0
LINE
5
106
100
AcDbEntity
8
SK2
62
256
6
ByLayer
370
13
48
1
60
0
100
AcDbLine
10
-45
20
-25.343428
30
0
11
76.63
21
-25.343428
31
0
39
0
210
0
220
0
230
1
0
SOLID
5
107
100
AcDbEntity
8
SK2
62
256
6
ByLayer
370
13
48
1
60
0
100
AcDbTrace
10
-45
20
-25.343428
30
0
11
-41.500002
21
-24.882645
31
0
12
-41.499998
22
-25.804212
32
0
13
-45
23
-25.343428
33
0
39
0
210
0
220
0
230
1
0
SOLID
5
108
100
AcDbEntity
8
SK2
62
256
6
ByLayer
370
13
48
1
60
0
100
AcDbTrace
10
76.63
20
-25.343428
30
0
11
73.130002
21
-25.804212
31
0
12
73.129998
22
-24.882645
32
0
13
76.63
23
-25.343428
33
0
39
0
210
0
220
0
230
1
0
ENDBLK
5
10A
100
AcDbEntity
8
0
100
AcDbBlockEnd
0
BLOCK
5
114
100
AcDbEntity
8
0
100
AcDbBlockBegin
2
DimnDraft3D6
70
0
10
0
20
0
30
0
3
DimnDraft3D6
0
MTEXT
5
10D
100
AcDbEntity
8
SK2
62
256
6
ByLayer
370
13
48
1
60
0
100
AcDbMText
10
-55.375163
20
26.34918
30
0
210
0
220
0
230
1
1
\W0.7145;14,000
40
3.5
41
0
44
1.084337
50
90
71
7
72
5
7
iso_b_vert
0
MTEXT
5
10E
100
AcDbEntity
8
SK2
62
256
6
ByLayer
370
13
48
1
60
0
100
AcDbMText
10
-55.375163
20
21.126524
30
0
210
0
220
0
230
1
1
%%c
40
3.5
41
0
44
1.084337
50
90
71
7
72
5
7
iso_b_vert
0
LINE
5
10F
100
AcDbEntity
8
SK2
62
256
6
ByLayer
370
13
48
1
60
0
100
AcDbLine
10
-46.5875
20
-7
30
0
11
-55.625163
21
-7
31
0
39
0
210
0
220
0
230
1
0
LINE
5
110
100
AcDbEntity
8
SK2
62
256
6
ByLayer
370
13
48
1
60
0
100
AcDbLine
10
-46.5875
20
7
30
0
11
-55.625163
21
7
31
0
39
0
210
0
220
0
230
1
0
LINE
5
111
100
AcDbEntity
8
SK2
62
256
6
ByLayer
370
13
48
1
60
0
100
AcDbLine
10
-53.625163
20
-7
30
0
11
-53.625163
21
38.230759
31
0
39
0
210
0
220
0
230
1
0
SOLID
5
112
100
AcDbEntity
8
SK2
62
256
6
ByLayer
370
13
48
1
60
0
100
AcDbTrace
10
-53.625163
20
-7
30
0
11
-54.085946
21
-3.500002
31
0
12
-53.164379
22
-3.499998
32
0
13
-53.625163
23
-7
33
0
39
0
210
0
220
0
230
1
0
SOLID
5
113
100
AcDbEntity
8
SK2
62
256
6
ByLayer
370
13
48
1
60
0
100
AcDbTrace
10
-53.625163
20
7
30
0
11
-53.164379
21
3.500002
31
0
12
-54.085946
22
3.499998
32
0
13
-53.625163
23
7
33
0
39
0
210
0
220
0
230
1
0
ENDBLK
5
115
100
AcDbEntity
8
0
100
AcDbBlockEnd
0
BLOCK
5
11F
100
AcDbEntity
8
0
100
AcDbBlockBegin
2
DimnDraft3D7
70
0
10
0
20
0
30
0
3
DimnDraft3D7
0
MTEXT
5
118
100
AcDbEntity
8
2
62
256
6
ByLayer
370
13
48
1
60
0
100
AcDbMText
10
89.333343
20
24.842266
30
0
210
0
220
0
230
1
1
\W0.6930;13,800
40
3.5
41
0
44
1.084337
50
90
71
7
72
5
7
iso_b_vert
0
MTEXT
5
119
100
AcDbEntity
8
2
62
256
6
ByLayer
370
13
48
1
60
0
100
AcDbMText
10
89.333343
20
19.61961
30
0
210
0
220
0
230
1
1
%%c
40
3.5
41
0
44
1.084337
50
90
71
7
72
5
7
iso_b_vert
0
LINE
5
11A
100
AcDbEntity
8
2
62
256
6
ByLayer
370
13
48
1
60
0
100
AcDbLine
10
78.2175
20
-6.9
30
0
11
93.083343
21
-6.9
31
0
39
0
210
0
220
0
230
1
0
LINE
5
11B
100
AcDbEntity
8
2
62
256
6
ByLayer
370
13
48
1
60
0
100
AcDbLine
10
78.2175
20
6.9
30
0
11
93.083343
21
6.9
31
0
39
0
210
0
220
0
230
1
0
LINE
5
11C
100
AcDbEntity
8
2
62
256
6
ByLayer
370
13
48
1
60
0
100
AcDbLine
10
91.083343
20
-6.9
30
0
11
91.083343
21
36.355424
31
0
39
0
210
0
220
0
230
1
0
SOLID
5
11D
100
AcDbEntity
8
2
62
256
6
ByLayer
370
13
48
1
60
0
100
AcDbTrace
10
91.083343
20
-6.9
30
0
11
90.622559
21
-3.400002
31
0
12
91.544126
22
-3.399998
32
0
13
91.083343
23
-6.9
33
0
39
0
210
0
220
0
230
1
0
SOLID
5
11E
100
AcDbEntity
8
2
62
256
6
ByLayer
370
13
48
1
60
0
100
AcDbTrace
10
91.083343
20
6.9
30
0
11
91.544126
21
3.400002
31
0
12
90.622559
22
3.399998
32
0
13
91.083343
23
6.9
33
0
39
0
210
0
220
0
230
1
0
ENDBLK
5
120
100
AcDbEntity
8
0
100
AcDbBlockEnd
0
ENDSEC
0
SECTION
2
ENTITIES
0
ELLIPSE
5
99
100
AcDbEntity
8
1
62
256
6
ByLayer
370
13
48
1
60
0
100
AcDbEllipse
10
77.187358
20
0.96564
30
0
11
0.133113781883896
21
0.268850741253519
31
0
210
0
220
0
230
1
40
0.40558
41
0.884485917130896
42
2.28074931872641
0
ELLIPSE
5
9A
100
AcDbEntity
8
1
62
256
6
ByLayer
370
13
48
1
60
0
100
AcDbEllipse
10
78.170477
20
3.226967
30
0
11
4.5811017511854
21
-2.0190186382098
31
0
210
0
220
0
230
-1
40
0.453807
41
1.58541615606685
42
1.90846277666767
0
ELLIPSE
5
9B
100
AcDbEntity
8
1
62
256
6
ByLayer
370
18
48
1
60
0
100
AcDbEllipse
10
77.737764
20
3.226967
30
0
11
1.06243222004334
21
-2.89668578897433
31
0
210
0
220
0
230
-1
40
0.082138
41
-1.58798736777449
42
-0.755280950345469
0
ELLIPSE
5
9C
100
AcDbEntity
8
1
62
256
6
ByLayer
370
18
48
1
60
0
100
AcDbEllipse
10
79.000584
20
0.001507
30
0
11
2.53011148559987
21
6.89826402693705
31
0
210
0
220
0
230
-1
40
0.082138
41
2.90160519957277
42
2.99313416899876
0
ELLIPSE
5
9D
100
AcDbEntity
8
1
62
256
6
ByLayer
370
13
48
1
60
0
100
AcDbEllipse
10
4.25017
20
-6.651608
30
0
11
0.00217021752933765
21
0.0999764480058947
31
0
210
0
220
0
230
1
40
0.508305
41
0.0404526217075268
42
1.60061491911026
0
ELLIPSE
5
9E
100
AcDbEntity
8
1
62
256
6
ByLayer
370
18
48
1
60
0
100
AcDbEllipse
10
77.737764
20
-3.226967
30
0
11
1.06243222001239
21
2.89668578890374
31
0
210
0
220
0
230
-1
40
0.082138
41
0.755280950347836
42
1.58798736779475
0
ELLIPSE
5
9F
100
AcDbEntity
8
1
62
256
6
ByLayer
370
18
48
1
60
0
100
AcDbEllipse
10
79.000584
20
-0.001507
30
0
11
2.5301115154928
21
-6.89826411252224
31
0
210
0
220
0
230
-1
40
0.082138
41
-2.99313416991968
42
-2.90160520106835
0
ELLIPSE
5
A0
100
AcDbEntity
8
1
62
256
6
ByLayer
370
13
48
1
60
0
100
AcDbEllipse
10
78.001018
20
3.092675
30
0
11
4.53421247740002
21
-2.33099022984832
31
0
210
0
220
0
230
-1
40
0.482873
41
1.53949524919295
42
1.86409879219976
0
ELLIPSE
5
A1
100
AcDbEntity
8
1
62
256
6
ByLayer
370
13
48
1
60
0
100
AcDbEllipse
10
4.173522
20
-6.670831
30
0
11
-0.049377519308169
21
0.0869589592104885
31
0
210
0
220
0
230
1
40
0.468136
41
0.0404970138720914
42
1.33843139307535
0
ELLIPSE
5
A2
100
AcDbEntity
8
1
62
256
6
ByLayer
370
18
48
1
60
0
100
AcDbEllipse
10
79.016693
20
0.059897
30
0
11
0.135658546034068
21
-0.401200806231244
31
0
210
0
220
0
230
-1
40
0.065863
41
1.60641033255741
42
2.32292776273276
0
ELLIPSE
5
A3
100
AcDbEntity
8
1
62
256
6
ByLayer
370
18
48
1
60
0
100
AcDbEllipse
10
79.016693
20
-0.059897
30
0
11
0.135658546076216
21
0.40120080634002
31
0
210
0
220
0
230
-1
40
0.065863
41
-2.32292776273217
42
-1.60641033273503
0
ELLIPSE
5
A4
100
AcDbEntity
8
1
62
256
6
ByLayer
370
18
48
1
60
0
100
AcDbEllipse
10
78.859845
20
0.137556
30
0
11
0.086880372455139
21
0.290676908833931
31
0
210
0
220
0
230
-1
40
0.467765
41
1.68079120242785
42
2.36053717390516
0
POINT
5
6C
100
AcDbEntity
8
81
62
256
6
ByLayer
370
18
48
1
60
0
100
AcDbPoint
10
79
20
0
30
0
39
0
210
0
220
0
230
1
50
360
0
POINT
5
6E
100
AcDbEntity
8
80
62
256
6
ByLayer
370
18
48
1
60
0
100
AcDbPoint
10
0
20
0
30
0
39
0
210
0
220
0
230
1
50
360
0
POINT
5
70
100
AcDbEntity
8
SK2
62
256
6
ByLayer
370
18
48
1
60
1
100
AcDbPoint
10
-45
20
-7
30
0
39
0
210
0
220
0
230
1
50
360
0
POINT
5
72
100
AcDbEntity
8
SK2
62
256
6
ByLayer
370
18
48
1
60
1
100
AcDbPoint
10
-45
20
7
30
0
39
0
210
0
220
0
230
1
50
360
0
POINT
5
73
100
AcDbEntity
8
2
62
256
6
ByLayer
370
18
48
1
60
1
100
AcDbPoint
10
76.63
20
-6.9
30
0
39
0
210
0
220
0
230
1
50
360
0
POINT
5
75
100
AcDbEntity
8
2
62
256
6
ByLayer
370
18
48
1
60
1
100
AcDbPoint
10
76.63
20
6.9
30
0
39
0
210
0
220
0
230
1
50
360
0
SPLINE
5
A5
100
AcDbEntity
8
1
62
256
6
ByLayer
370
18
48
1
60
0
100
AcDbSpline
70
4
71
3
72
10
73
6
40
0
40
0
40
0
40
0
40
0.107920525151405
40
0.326273736678438
40
1
40
1
40
1
40
1
41
1
10
58.953535367701
20
-1.42539660746235
30
0
41
1
10
58.9535156071422
20
-1.42542134788525
30
0
41
1
10
58.9573087908754
20
-1.42765917141148
30
0
41
1
10
59.0160870357184
20
-1.46145089845149
30
0
41
1
10
59.0866064334542
20
-1.50341072234556
30
0
41
1
10
59.1610505417367
20
-1.54788167052257
30
0
0
SPLINE
5
A6
100
AcDbEntity
8
1
62
256
6
ByLayer
370
18
48
1
60
0
100
AcDbSpline
70
4
71
3
72
37
73
33
40
0
40
0
40
0
40
0
40
0.042233986352813
40
0.0805587167923361
40
0.111333748233714
40
0.13672892502903
40
0.157250986569203
40
0.177374385370369
40
0.20703079426596
40
0.240005262683691
40
0.267034681328441
40
0.289250311928131
40
0.329345466433993
40
0.375436742395188
40
0.416952454059536
40
0.458071236944872
40
0.499599284457992
40
0.533053940015508
40
0.571622090760688
40
0.620073070924272
40
0.669901233086401
40
0.70175859613999
40
0.733408051363495
40
0.770521513167674
40
0.811581809762188
40
0.850265354268026
40
0.895044315270266
40
0.919730800835202
40
0.946130642066644
40
0.973658632992711
40
0.993104159367085
40
1
40
1
40
1
40
1
41
1
10
40.0244201431258
20
-6.57697212597228
30
0
41
1
10
40.2866566300436
20
-6.57679403756975
30
0
41
1
10
40.787380595587
20
-6.57679644426773
30
0
41
1
10
41.4905225249917
20
-6.57665248729305
30
0
41
1
10
42.073402329972
20
-6.57879228826505
30
0
41
1
10
42.5501503758665
20
-6.57862797214332
30
0
41
1
10
42.965439034791
20
-6.57867855618355
30
0
41
1
10
43.4052793843214
20
-6.57909990985138
30
0
41
1
10
43.9246421484493
20
-6.57974734465077
30
0
41
1
10
44.4869728733249
20
-6.58012878428005
30
0
41
1
10
45.0027536259167
20
-6.58007548100127
30
0
41
1
10
45.5631585614375
20
-6.58004856707788
30
0
41
1
10
46.2431705456509
20
-6.5811308994615
30
0
41
1
10
47.0442240259443
20
-6.5808827043391
30
0
41
1
10
47.8517143146483
20
-6.58154515467973
30
0
41
1
10
48.630580691885
20
-6.58228266477667
30
0
41
1
10
49.3588728376633
20
-6.58200656900525
30
0
41
1
10
50.0711675100824
20
-6.58265841855263
30
0
41
1
10
50.8269147180507
20
-6.58358915553077
30
0
41
1
10
51.6852425262571
20
-6.58290893034899
30
0
41
1
10
52.501943871947
20
-6.58482064544538
30
0
41
1
10
53.2118551880319
20
-6.58481972126731
30
0
41
1
10
53.8433003510326
20
-6.58405688967224
30
0
41
1
10
54.5316747599757
20
-6.58489161310271
30
0
41
1
10
55.2647882163697
20
-6.5863058149572
30
0
41
1
10
56.0453937484342
20
-6.58533862440063
30
0
41
1
10
56.7256926001615
20
-6.58708724149167
30
0
41
1
10
57.3223836519072
20
-6.58829402210034
30
0
41
1
10
57.8029441484988
20
-6.58628124991333
30
0
41
1
10
58.2395700166051
20
-6.58004539651168
30
0
41
1
10
58.5811706391712
20
-6.57787717497337
30
0
41
1
10
58.7447352550478
20
-6.57904739854428
30
0
41
1
10
58.7875853880147
20
-6.57946092324755
30
0
0
SPLINE
5
A7
100
AcDbEntity
8
1
62
256
6
ByLayer
370
18
48
1
60
0
100
AcDbSpline
70
4
71
3
72
35
73
31
40
0
40
0
40
0
40
0
40
0.0349135713151211
40
0.069048693874612
40
0.0981940423538355
40
0.123225705486199
40
0.145684356197617
40
0.164851236554465
40
0.182246482440035
40
0.209169948367048
40
0.242064665504551
40
0.273374129177899
40
0.29831425646765
40
0.326022300913377
40
0.361784487165106
40
0.398862982246493
40
0.427623090090573
40
0.455247157610667
40
0.490694434180362
40
0.537990524504597
40
0.581023071673594
40
0.633647879231876
40
0.691610016981256
40
0.750189900727013
40
0.808060764994772
40
0.880675186422296
40
0.944654560637416
40
0.963766819229701
40
0.983622208900652
40
1
40
1
40
1
40
1
41
1
10
4.64787593423122
20
-6.555956954301
30
0
41
1
10
4.8569446972466
20
-6.55605003833483
30
0
41
1
10
5.27228784458171
20
-6.55622342421478
30
0
41
1
10
5.86810236171465
20
-6.55533461218269
30
0
41
1
10
6.4084437540042
20
-6.55635320247083
30
0
41
1
10
6.86265406476247
20
-6.55781129745156
30
0
41
1
10
7.26826778932101
20
-6.55770362779637
30
0
41
1
10
7.62985066227299
20
-6.55819052725488
30
0
41
1
10
7.99495767714001
20
-6.55681625973295
30
0
41
1
10
8.47134407370271
20
-6.55635617625146
30
0
41
1
10
9.02067296876072
20
-6.55922457624513
30
0
41
1
10
9.55828081341934
20
-6.55996758319691
30
0
41
1
10
10.0694493290641
20
-6.56021426421134
30
0
41
1
10
10.6073467648117
20
-6.56067578453627
30
0
41
1
10
11.2191972998639
20
-6.56102242347066
30
0
41
1
10
11.8377164334076
20
-6.56059430386139
30
0
41
1
10
12.4058422395767
20
-6.56051111748971
30
0
41
1
10
12.9643358733288
20
-6.56098821312764
30
0
41
1
10
13.6359397678816
20
-6.56191416747177
30
0
41
1
10
14.4007101339215
20
-6.56144220661903
30
0
41
1
10
15.2708210393198
20
-6.5627147406183
30
0
41
1
10
16.2056422129207
20
-6.56312828582529
30
0
41
1
10
17.2351325411299
20
-6.56575706233571
30
0
41
1
10
18.2965378914556
20
-6.56449742108484
30
0
41
1
10
19.4471169768806
20
-6.56707986962476
30
0
41
1
10
20.6305471823699
20
-6.56532372710211
30
0
41
1
10
21.578093745046
20
-6.56859370404661
30
0
41
1
10
22.2045887372736
20
-6.56845378852876
30
0
41
1
10
22.541405091874
20
-6.5680703222809
30
0
41
1
10
22.7616306442217
20
-6.56794908146418
30
0
41
1
10
22.8611384017832
20
-6.56789784027319
30
0
0
SPLINE
5
A8
100
AcDbEntity
8
1
62
256
6
ByLayer
370
18
48
1
60
0
100
AcDbSpline
70
4
71
3
72
30
73
26
40
0
40
0
40
0
40
0
40
0.0126790645889944
40
0.0348616060138377
40
0.0559348518283798
40
0.0978401410303086
40
0.141849347705588
40
0.229334257004914
40
0.321760946032157
40
0.388571728467674
40
0.454158588805779
40
0.512244875729655
40
0.561010636012045
40
0.615070807613193
40
0.656150763239066
40
0.688588043090087
40
0.720673525494567
40
0.76195687096312
40
0.805050466448814
40
0.839146337775121
40
0.871332510180637
40
0.913246307714868
40
0.949326426677129
40
0.979667300823019
40
1
40
1
40
1
40
1
41
1
10
22.8587239345487
20
6.5679115569607
30
0
41
1
10
22.794937215012
20
6.56793356464175
30
0
41
1
10
22.6195136851705
20
6.56801580619796
30
0
41
1
10
22.3378328660641
20
6.56826877469271
30
0
41
1
10
21.9087729317733
20
6.56876036314793
30
0
41
1
10
21.3698049132911
20
6.56716431029466
30
0
41
1
10
20.4962669600523
20
6.56593349591063
30
0
41
1
10
19.3682004448792
20
6.56687764123802
30
0
41
1
10
18.1252543093975
20
6.56510443222538
30
0
41
1
10
16.9926374320416
20
6.56480881545346
30
0
41
1
10
16.0330081433327
20
6.56325697369562
30
0
41
1
10
15.1643303055006
20
6.56247225152109
30
0
41
1
10
14.3535611432209
20
6.56148984042926
30
0
41
1
10
13.6291971326929
20
6.56188570220263
30
0
41
1
10
12.9866327829008
20
6.56102791850452
30
0
41
1
10
12.454747183337
20
6.56053408686634
30
0
41
1
10
11.9226096475047
20
6.56055490952113
30
0
41
1
10
11.335588241497
20
6.56096592477641
30
0
41
1
10
10.738840795912
20
6.56079579810446
30
0
41
1
10
10.1880019687898
20
6.56029736876314
30
0
41
1
10
9.64226631975879
20
6.56000750406992
30
0
41
1
10
9.09113915284098
20
6.55944991755391
30
0
41
1
10
8.55204894562513
20
6.55680727399576
30
0
41
1
10
8.10864465206285
20
6.55642568251594
30
0
41
1
10
7.86398372371087
20
6.55742864468471
30
0
41
1
10
7.76470646810878
20
6.55769130582996
30
0
0
SPLINE
5
A9
100
AcDbEntity
8
1
62
256
6
ByLayer
370
18
48
1
60
0
100
AcDbSpline
70
4
71
3
72
32
73
28
40
0
40
0
40
0
40
0
40
0.0081890598502527
40
0.0513798383612237
40
0.0950140851055604
40
0.134832011688264
40
0.171311367052382
40
0.203937776170669
40
0.245199223264181
40
0.290915574122195
40
0.334933416070727
40
0.367544134230335
40
0.408581384691866
40
0.466711858639298
40
0.518652050570788
40
0.560385933867451
40
0.597575289535499
40
0.642659339857787
40
0.68749676467661
40
0.731857572530155
40
0.780403847246398
40
0.828902177933537
40
0.865937553474205
40
0.905827614589425
40
0.94503926941241
40
0.980868591584847
40
1
40
1
40
1
40
1
41
1
10
58.7868194731398
20
6.57945572669078
30
0
41
1
10
58.7441378882114
20
6.57906999548959
30
0
41
1
10
58.4767180242606
20
6.57707373907397
30
0
41
1
10
57.979659657214
20
6.58458558778531
30
0
41
1
10
57.3452753519019
20
6.58883541484829
30
0
41
1
10
56.7154317022198
20
6.58675657684964
30
0
41
1
10
56.1435080246357
20
6.585669497422
30
0
41
1
10
55.5640120195905
20
6.58589499211635
30
0
41
1
10
54.9358720787423
20
6.5860258003587
30
0
41
1
10
54.2485323457547
20
6.58422248245199
30
0
41
1
10
53.6059825862898
20
6.58427960682832
30
0
41
1
10
52.9886162886145
20
6.58505169472329
30
0
41
1
10
52.2970080204151
20
6.5841924911698
30
0
41
1
10
51.5034419547795
20
6.58301367666098
30
0
41
1
10
50.7063659521322
20
6.58354073265582
30
0
41
1
10
50.0192101111758
20
6.58256960228715
30
0
41
1
10
49.3680619268951
20
6.58204603494133
30
0
41
1
10
48.7006231809281
20
6.58222565664005
30
0
41
1
10
47.9955198914981
20
6.58178201303946
30
0
41
1
10
47.2722439926756
20
6.58093641748931
30
0
41
1
10
46.5297433942637
20
6.58110962039001
30
0
41
1
10
45.8257010251392
20
6.58049138885397
30
0
41
1
10
45.1671372686019
20
6.57993148601017
30
0
41
1
10
44.5572811782069
20
6.58019022719495
30
0
41
1
10
43.9539007675971
20
6.57976881298976
30
0
41
1
10
43.4591638836497
20
6.57917208583572
30
0
41
1
10
43.1712332162563
20
6.57886760847293
30
0
41
1
10
43.0709065009902
20
6.57879155139719
30
0
0
SPLINE
5
AA
100
AcDbEntity
8
1
62
256
6
ByLayer
370
18
48
1
60
0
100
AcDbSpline
70
4
71
2
72
6
73
3
40
0
40
0
40
0
40
1
40
1
40
1
41
1
10
75.445022111064
20
-6.59842253254175
30
0
41
1
10
76.0200231811936
20
-6.59597361460018
30
0
41
1
10
76.5941485429129
20
-6.6011315726694
30
0
0
SPLINE
5
AB
100
AcDbEntity
8
1
62
256
6
ByLayer
370
18
48
1
60
0
100
AcDbSpline
70
4
71
3
72
11
73
7
40
0
40
0
40
0
40
0
40
0.144286445668647
40
0.300752343767577
40
0.488904127924189
40
1
40
1
40
1
40
1
41
1
10
23.5716192336041
20
-1.43630522069415
30
0
41
1
10
23.5715946744464
20
-1.43635151842364
30
0
41
1
10
23.5747335639594
20
-1.43820537884014
30
0
41
1
10
23.5909150609342
20
-1.44750120149863
30
0
41
1
10
23.646425763241
20
-1.47938721114605
30
0
41
1
10
23.7031870970204
20
-1.51272540656154
30
0
41
1
10
23.7545810415958
20
-1.54309165059288
30
0
0
SPLINE
5
AC
100
AcDbEntity
8
1
62
256
6
ByLayer
370
18
48
1
60
0
100
AcDbSpline
70
4
71
3
72
26
73
22
40
0
40
0
40
0
40
0
40
0.0177049239187624
40
0.0177049239187624
40
0.0723498431138488
40
0.0723498431138488
40
0.126994762308935
40
0.126994762308935
40
0.23628460069911
40
0.23628460069911
40
0.454864277479463
40
0.454864277479463
40
0.673443954259817
40
0.673443954259817
40
0.782733792649993
40
0.782733792649993
40
0.83737871184508
40
0.83737871184508
40
0.892023631040166
40
0.892023631040166
40
1
40
1
40
1
40
1
41
1
10
22.148518815855
20
-0.0005040146455997
30
0
41
1
10
22.2098230764646
20
-0.0367579483184954
30
0
41
1
10
22.2711588231417
20
-0.0730302384704942
30
0
41
1
10
22.5219399983914
20
-0.221314879856095
30
0
41
1
10
22.7116587533152
20
-0.333479117172914
30
0
41
1
10
23.0918493727762
20
-0.557905837996373
30
0
41
1
10
23.2824633580425
20
-0.670250798917493
30
0
41
1
10
23.852445508554
20
-1.00519307634878
30
0
41
1
10
24.2309465509724
20
-1.22629620726656
30
0
41
1
10
25.3635059274393
20
-1.88065515265333
30
0
41
1
10
26.1146192194588
20
-2.30491371561132
30
0
41
1
10
27.6167037795662
20
-3.11747606093607
30
0
41
1
10
28.3677119907389
20
-3.50565481841372
30
0
41
1
10
29.4998525331795
20
-4.05192855776684
30
0
41
1
10
29.8781948022694
20
-4.22798397717807
30
0
41
1
10
30.4479258947285
20
-4.4817640322334
30
0
41
1
10
30.6384770635067
20
-4.56475449070433
30
0
41
1
10
31.018746942629
20
-4.72646320363637
30
0
41
1
10
31.2084825558077
20
-4.80519256495481
30
0
41
1
10
31.7721612830936
20
-5.03293491026449
30
0
41
1
10
32.145192656409
20
-5.17556374615324
30
0
41
1
10
32.5174483668078
20
-5.30923148482279
30
0
0
SPLINE
5
AD
100
AcDbEntity
8
1
62
256
6
ByLayer
370
13
48
1
60
0
100
AcDbSpline
70
4
71
3
72
16
73
12
40
0
40
0
40
0
40
0
40
0.376690261860605
40
0.376690261860605
40
0.626815084627274
40
0.626815084627274
40
0.75187749601061
40
0.75187749601061
40
0.876939907393947
40
0.876939907393947
40
1
40
1
40
1
40
1
41
1
10
32.517448366696
20
-5.30923148478266
30
0
41
1
10
33.652328590659
20
-5.71673866052853
30
0
41
1
10
34.7799995602697
20
-6.0409585890219
30
0
41
1
10
36.6662006708427
20
-6.42419798377452
30
0
41
1
10
37.4220367806902
20
-6.53585192161864
30
0
41
1
10
38.5640622251312
20
-6.63610117397656
30
0
41
1
10
38.9442703798356
20
-6.65815987084363
30
0
41
1
10
39.7048073330118
20
-6.67956458671529
30
0
41
1
10
40.085397166869
20
-6.6788869230904
30
0
41
1
10
40.8402292555636
20
-6.65483440760687
30
0
41
1
10
41.2129797985937
20
-6.63192697639818
30
0
41
1
10
41.5845749521428
20
-6.59835362104167
30
0
0
SPLINE
5
AE
100
AcDbEntity
8
1
62
256
6
ByLayer
370
18
48
1
60
0
100
AcDbSpline
70
4
71
3
72
22
73
18
40
0
40
0
40
0
40
0
40
0.125
40
0.125
40
0.25
40
0.25
40
0.375
40
0.375
40
0.5
40
0.5
40
0.625
40
0.625
40
0.75
40
0.75
40
0.875
40
0.875
40
1
40
1
40
1
40
1
41
1
10
12.0325568352392
20
-3.7741082877485
30
0
41
1
10
11.6907925552876
20
-3.61199893338133
30
0
41
1
10
11.3507931193922
20
-3.44237562899573
30
0
41
1
10
10.6767033914976
20
-3.09048904437429
30
0
41
1
10
10.3420739042808
20
-2.90808847807844
30
0
41
1
10
9.67644957708907
20
-2.53213144515263
30
0
41
1
10
9.34545398790516
20
-2.33859404357562
30
0
41
1
10
8.68651636668517
20
-1.94036923612674
30
0
41
1
10
8.35859886845466
20
-1.73551482986346
30
0
41
1
10
7.70532360088234
20
-1.31587136299365
30
0
41
1
10
7.37999511629505
20
-1.10090955742118
30
0
41
1
10
6.73235282996438
20
-0.659018506125307
30
0
41
1
10
6.40951657687208
20
-0.431795296408211
30
0
41
1
10
5.77016066236092
20
0.0360642030215388
30
0
41
1
10
5.45570282824812
20
0.275122885441192
30
0
41
1
10
4.8409976885533
20
0.767627352466832
30
0
41
1
10
4.54062958526129
20
1.02094253903905
30
0
41
1
10
4.25108014344357
20
1.2855461478087
30
0
0
SPLINE
5
AF
100
AcDbEntity
8
1
62
256
6
ByLayer
370
18
48
1
60
0
100
AcDbSpline
70
4
71
3
72
18
73
14
40
0
40
0
40
0
40
0
40
0.249999999999998
40
0.249999999999998
40
0.499999999999996
40
0.499999999999996
40
0.624999999999997
40
0.624999999999997
40
0.749999999999998
40
0.749999999999998
40
0.874999999999999
40
0.874999999999999
40
1
40
1
40
1
40
1
41
1
10
77.9573945316419
20
-3.36401554213629
30
0
41
1
10
77.851246246557
20
-3.64845891752901
30
0
41
1
10
77.7450264531191
20
-3.93255539321638
30
0
41
1
10
77.5323013971689
20
-4.49936348347404
30
0
41
1
10
77.4257375176659
20
-4.78179073662471
30
0
41
1
10
77.2658690884462
20
-5.20532193139903
30
0
41
1
10
77.2125653045378
20
-5.34642958809488
30
0
41
1
10
77.1058836120189
20
-5.62828530940763
30
0
41
1
10
77.0525085396864
20
-5.76904713331194
30
0
41
1
10
76.9455734953075
20
-6.04967379981153
30
0
41
1
10
76.892049114756
20
-6.18971130306133
30
0
41
1
10
76.7849717038122
20
-6.46964732410083
30
0
41
1
10
76.7313930949169
20
-6.60942175603617
30
0
41
1
10
76.6776618876777
20
-6.74845590633612
30
0
0
SPLINE
5
B0
100
AcDbEntity
8
1
62
256
6
ByLayer
370
18
48
1
60
0
100
AcDbSpline
70
4
71
3
72
42
73
38
40
0
40
0
40
0
40
0
40
0.124999999999999
40
0.124999999999999
40
0.1875
40
0.1875
40
0.250000000000001
40
0.250000000000001
40
0.375000000000004
40
0.375000000000004
40
0.500000000000006
40
0.500000000000006
40
0.562500000000007
40
0.562500000000007
40
0.625000000000008
40
0.625000000000008
40
0.68750000000001
40
0.68750000000001
40
0.718750000000008
40
0.718750000000008
40
0.750000000000007
40
0.750000000000007
40
0.812500000000008
40
0.812500000000008
40
0.843750000000007
40
0.843750000000007
40
0.875000000000006
40
0.875000000000006
40
0.906250000000005
40
0.906250000000005
40
0.937500000000003
40
0.937500000000003
40
0.953125000000003
40
0.953125000000003
40
0.968750000000002
40
0.968750000000002
40
1
40
1
40
1
40
1
41
1
10
69.4100893194322
20
3.60433132895386
30
0
41
1
10
69.67986544429
20
3.36668568538804
30
0
41
1
10
69.9548343569537
20
3.13854487634819
30
0
41
1
10
70.3759782301669
20
2.8122406876131
30
0
41
1
10
70.5180929312149
20
2.70592552983433
30
0
41
1
10
70.803450282184
20
2.50019718075782
30
0
41
1
10
70.9467606064336
20
2.40069800864683
30
0
41
1
10
71.3786131989423
20
2.11243759798853
30
0
41
1
10
71.6690760849608
20
1.93390812712494
30
0
41
1
10
72.255449791664
20
1.60587213991019
30
0
41
1
10
72.5513462378037
20
1.45628904559044
30
0
41
1
10
72.9997836577568
20
1.25638151028699
30
0
41
1
10
73.1500313650645
20
1.1938400781757
30
0
41
1
10
73.4522081524137
20
1.07771444405168
30
0
41
1
10
73.6043579552919
20
1.02408544237014
30
0
41
1
10
73.9072616385399
20
0.927789806285631
30
0
41
1
10
74.0583983915209
20
0.884971591173354
30
0
41
1
10
74.2844652041988
20
0.829459799916236
30
0
41
1
10
74.3596134836977
20
0.812434682449577
30
0
41
1
10
74.5094764754804
20
0.781477010677833
30
0
41
1
10
74.5842656244764
20
0.767233214244385
30
0
41
1
10
74.8073546942063
20
0.731321082287309
30
0
41
1
10
74.9533888199253
20
0.719714792568737
30
0
41
1
10
75.1597817877054
20
0.742192489390334
30
0
41
1
10
75.2253863512123
20
0.755610891947811
30
0
41
1
10
75.349040179337
20
0.796363675310005
30
0
41
1
10
75.4074197455407
20
0.823931303861258
30
0
41
1
10
75.5116400809266
20
0.898680711172716
30
0
41
1
10
75.5559600718706
20
0.94461072977316
30
0
41
1
10
75.6242242713165
20
1.05884782485776
30
0
41
1
10
75.6455563303384
20
1.12482983094887
30
0
41
1
10
75.6617493556519
20
1.23377507776001
30
0
41
1
10
75.6644901983183
20
1.27170727291835
30
0
41
1
10
75.665208014009
20
1.34841313530814
30
0
41
1
10
75.663235306222
20
1.38746918985171
30
0
41
1
10
75.6511859296932
20
1.50648629770768
30
0
41
1
10
75.6347071494822
20
1.58898663676447
30
0
41
1
10
75.6126041973672
20
1.67065259707425
30
0
0
SPLINE
5
B1
100
AcDbEntity
8
1
62
256
6
ByLayer
370
18
48
1
60
0
100
AcDbSpline
70
4
71
3
72
14
73
10
40
0
40
0
40
0
40
0
40
0.113307597831074
40
0.113307597831074
40
0.259336888311109
40
0.259336888311109
40
0.551395469271175
40
0.551395469271175
40
1
40
1
40
1
40
1
41
1
10
40.244923417224
20
-6.57616164068011
30
0
41
1
10
39.9498610096551
20
-6.57903803084579
30
0
41
1
10
39.6548218637675
20
-6.57513816848007
30
0
41
1
10
38.9798808840962
20
-6.55079974966674
30
0
41
1
10
38.5998849578942
20
-6.5259375002143
30
0
41
1
10
37.4585327982126
20
-6.41787429719716
30
0
41
1
10
36.7031749318639
20
-6.30188842825982
30
0
41
1
10
34.7951731287802
20
-5.90524151083938
30
0
41
1
10
33.6453967946298
20
-5.56936850860785
30
0
41
1
10
32.4880049827645
20
-5.14928897374321
30
0
0
SPLINE
5
B2
100
AcDbEntity
8
1
62
256
6
ByLayer
370
13
48
1
60
0
100
AcDbSpline
70
4
71
3
72
26
73
22
40
0
40
0
40
0
40
0
40
0.0726804358020522
40
0.0726804358020522
40
0.111840890380507
40
0.111840890380507
40
0.151001344958961
40
0.151001344958961
40
0.229322254115869
40
0.229322254115869
40
0.385964072429684
40
0.385964072429684
40
0.542605890743498
40
0.542605890743498
40
0.620926799900404
40
0.620926799900404
40
0.660087254478858
40
0.660087254478858
40
0.699247709057311
40
0.699247709057311
40
1
40
1
40
1
40
1
41
1
10
32.4880049822511
20
-5.14928897355688
30
0
41
1
10
32.1383847735255
20
-5.02239305709756
30
0
41
1
10
31.7880696534642
20
-4.88781330565988
30
0
41
1
10
31.2473626401963
20
-4.66938226449003
30
0
41
1
10
31.0577181128991
20
-4.59075866804696
30
0
41
1
10
30.6776364985216
20
-4.42939816903407
30
0
41
1
10
30.4872162291672
20
-4.34666486366632
30
0
41
1
10
29.9178365558022
20
-4.0938061288978
30
0
41
1
10
29.5396978429208
20
-3.91857704558601
30
0
41
1
10
28.4080938036951
20
-3.37540254030705
30
0
41
1
10
27.6573055459396
20
-2.99018297132176
30
0
41
1
10
26.155689636632
20
-2.18509978806128
30
0
41
1
10
25.4047680640621
20
-1.76544900010671
30
0
41
1
10
24.272647119372
20
-1.1191565513636
30
0
41
1
10
23.8942984233509
20
-0.900964708791776
30
0
41
1
10
23.3245972057253
20
-0.570689021651646
30
0
41
1
10
23.1341011392877
20
-0.459957124445992
30
0
41
1
10
22.7541547757917
20
-0.238830565833126
30
0
41
1
10
22.5645494229258
20
-0.128346792116844
30
0
41
1
10
20.9213749823746
20
0.828939322026912
30
0
41
1
10
19.4858346444612
20
1.66568021522036
30
0
41
1
10
18.0414016181345
20
2.44603405377433
30
0
0
SPLINE
5
B3
100
AcDbEntity
8
1
62
256
6
ByLayer
370
13
48
1
60
0
100
AcDbSpline
70
4
71
3
72
8
73
4
40
0
40
0
40
0
40
0
40
1
40
1
40
1
40
1
41
1
10
4.19930947808419
20
-6.65348646040547
30
0
41
1
10
4.91166590633097
20
-6.66344531327809
30
0
41
1
10
5.62134755402033
20
-6.63311760717957
30
0
41
1
10
6.33129808970435
20
-6.56363881057845
30
0
0
SPLINE
5
B4
100
AcDbEntity
8
1
62
256
6
ByLayer
370
18
48
1
60
0
100
AcDbSpline
70
4
71
3
72
18
73
14
40
0
40
0
40
0
40
0
40
0.0859644026388271
40
0.0859644026388271
40
0.471024153906318
40
0.471024153906318
40
0.567289091723193
40
0.567289091723193
40
0.663554029540068
40
0.663554029540068
40
0.856083905173814
40
0.856083905173814
40
1
40
1
40
1
40
1
41
1
10
57.5517399490511
20
-0.0024583768010586
30
0
41
1
10
57.888097536122
20
-0.202022672578238
30
0
41
1
10
58.2237212839012
20
-0.401162850736227
30
0
41
1
10
60.0603792890001
20
-1.48713305574282
30
0
41
1
10
61.5540675626754
20
-2.35467519798556
30
0
41
1
10
63.4502488679843
20
-3.34829875599456
30
0
41
1
10
63.8314397212161
20
-3.54269948632728
30
0
41
1
10
64.5889069918279
20
-3.91643381079393
30
0
41
1
10
64.9662396264647
20
-4.09632056498998
30
0
41
1
10
66.0956216333778
20
-4.61323624224144
30
0
41
1
10
66.8449921480624
20
-4.92772384323286
30
0
41
1
10
68.154987219205
20
-5.41715426192405
30
0
41
1
10
68.7155201373896
20
-5.60727692491307
30
0
41
1
10
69.2778449720277
20
-5.77637547643263
30
0
0
SPLINE
5
B5
100
AcDbEntity
8
1
62
256
6
ByLayer
370
13
48
1
60
0
100
AcDbSpline
70
4
71
3
72
22
73
18
40
0
40
0
40
0
40
0
40
0.0776326918187059
40
0.0776326918187059
40
0.231360576515589
40
0.231360576515589
40
0.30822451886403
40
0.30822451886403
40
0.385088461212471
40
0.385088461212471
40
0.692544230606236
40
0.692544230606236
40
0.846272115303118
40
0.846272115303118
40
0.92313605765156
40
0.92313605765156
40
1
40
1
40
1
40
1
41
1
10
69.2778440143267
20
-5.77637518843923
30
0
41
1
10
69.4677934576513
20
-5.83349551889611
30
0
41
1
10
69.6579473660152
20
-5.88821691063151
30
0
41
1
10
70.2254379409511
20
-6.04394230968978
30
0
41
1
10
70.6035505689598
20
-6.13773659468291
30
0
41
1
10
71.1730109802452
20
-6.2630867277214
30
0
41
1
10
71.3633986766835
20
-6.30234131648399
30
0
41
1
10
71.743239612849
20
-6.37524620186366
30
0
41
1
10
71.9328749146346
20
-6.40893993948458
30
0
41
1
10
72.8799888409307
20
-6.56357950872811
30
0
41
1
10
73.6343854469533
20
-6.64311185253777
30
0
41
1
10
74.7666755283707
20
-6.69510357765043
30
0
41
1
10
75.1442399924599
20
-6.70120515687441
30
0
41
1
10
75.7114474943102
20
-6.69331685944636
30
0
41
1
10
75.9006600373319
20
-6.68784797185916
30
0
41
1
10
76.2794842248593
20
-6.67120437369542
30
0
41
1
10
76.4691254966125
20
-6.65973410938591
30
0
41
1
10
76.658958807587
20
-6.6460146175788
30
0
0
SPLINE
5
B6
100
AcDbEntity
8
1
62
256
6
ByLayer
370
18
48
1
60
0
100
AcDbSpline
70
4
71
3
72
12
73
8
40
0
40
0
40
0
40
0
40
0.250000000000002
40
0.250000000000002
40
0.500000000000003
40
0.500000000000003
40
1
40
1
40
1
40
1
41
1
10
76.6589588076017
20
-6.64601461757772
30
0
41
1
10
76.6639070149674
20
-6.63275204752782
30
0
41
1
10
76.6686678494523
20
-6.61916977603693
30
0
41
1
10
76.6764890464498
20
-6.59477633032662
30
0
41
1
10
76.6795287431228
20
-6.58398681509033
30
0
41
1
10
76.6848437417669
20
-6.56045502712004
30
0
41
1
10
76.6836113938567
20
-6.55623372348757
30
0
41
1
10
76.6798912740977
20
-6.55930935108293
30
0
0
SPLINE
5
B7
100
AcDbEntity
8
1
62
256
6
ByLayer
370
18
48
1
60
0
100
AcDbSpline
70
4
71
3
72
14
73
10
40
0
40
0
40
0
40
0
40
0.25
40
0.25
40
0.5
40
0.5
40
0.75
40
0.75
40
1
40
1
40
1
40
1
41
1
10
75.6126041973671
20
1.67065259707422
30
0
41
1
10
75.6050376291955
20
1.6986095438555
30
0
41
1
10
75.6016072776889
20
1.72772463242808
30
0
41
1
10
75.6071441681033
20
1.78643306182912
30
0
41
1
10
75.6165441431791
20
1.81593145901718
30
0
41
1
10
75.6495128954483
20
1.86684872834857
30
0
41
1
10
75.6730780135018
20
1.88871184287703
30
0
41
1
10
75.7277662482267
20
1.9195994760523
30
0
41
1
10
75.7575804366496
20
1.92880685943533
30
0
41
1
10
75.7883171318855
20
1.93430291199925
30
0
0
SPLINE
5
B8
100
AcDbEntity
8
1
62
256
6
ByLayer
370
18
48
1
60
0
100
AcDbSpline
70
4
71
3
72
90
73
86
40
0
40
0
40
0
40
0
40
0.0200202546877943
40
0.0200202546877943
40
0.0613844398455385
40
0.0613844398455385
40
0.0820665324244102
40
0.0820665324244102
40
0.102748625003282
40
0.102748625003282
40
0.123430717582154
40
0.123430717582154
40
0.144112810161026
40
0.144112810161026
40
0.185476995318769
40
0.185476995318769
40
0.226841180476513
40
0.226841180476513
40
0.237182226765949
40
0.237182226765949
40
0.247523273055385
40
0.247523273055385
40
0.268205365634256
40
0.268205365634256
40
0.288887458213127
40
0.288887458213127
40
0.309569550791998
40
0.309569550791998
40
0.35093373594974
40
0.35093373594974
40
0.371615828528611
40
0.371615828528611
40
0.392297921107482
40
0.392297921107482
40
0.412980013686354
40
0.412980013686354
40
0.433662106265225
40
0.433662106265225
40
0.454344198844096
40
0.454344198844096
40
0.475026291422967
40
0.475026291422967
40
0.516390476580709
40
0.516390476580709
40
0.53707256915958
40
0.53707256915958
40
0.557754661738452
40
0.557754661738452
40
0.578436754317323
40
0.578436754317323
40
0.599118846896194
40
0.599118846896194
40
0.640483032053938
40
0.640483032053938
40
0.66116512463281
40
0.66116512463281
40
0.681847217211682
40
0.681847217211682
40
0.702529309790553
40
0.702529309790553
40
0.723211402369425
40
0.723211402369425
40
0.743893494948297
40
0.743893494948297
40
0.764575587527169
40
0.764575587527169
40
0.805939772684912
40
0.805939772684912
40
0.826621865263784
40
0.826621865263784
40
0.847303957842656
40
0.847303957842656
40
0.867986050421527
40
0.867986050421527
40
0.888668143000399
40
0.888668143000399
40
0.909350235579271
40
0.909350235579271
40
0.930032328158143
40
0.930032328158143
40
0.971396513315886
40
0.971396513315886
40
0.992078605894757
40
0.992078605894757
40
1
40
1
40
1
40
1
41
1
10
30.5915936669237
20
5.08533021902363
30
0
41
1
10
30.8824212767376
20
5.20464708504406
30
0
41
1
10
31.1728880379139
20
5.31960717920995
30
0
41
1
10
32.0654207035818
20
5.6551760124247
30
0
41
1
10
32.6709887224766
20
5.85661603264759
30
0
41
1
10
33.5827833909961
20
6.12362421829175
30
0
41
1
10
33.8864096953412
20
6.20666608242195
30
0
41
1
10
34.4921569183337
20
6.3571651281965
30
0
41
1
10
34.7945864926575
20
6.42512588957365
30
0
41
1
10
35.3981021519875
20
6.54710660167353
30
0
41
1
10
35.6992048776687
20
6.60111415498514
30
0
41
1
10
36.2997100207543
20
6.69525258219261
30
0
41
1
10
36.5993532089984
20
6.7352173008457
30
0
41
1
10
37.5001772036733
20
6.83279426905702
30
0
41
1
10
38.101367698192
20
6.86909394154372
30
0
41
1
10
39.3029376152576
20
6.8831033999104
30
0
41
1
10
39.907596710784
20
6.86067949474688
30
0
41
1
10
40.6671272471817
20
6.79529501402627
30
0
41
1
10
40.8193876722176
20
6.78030997816694
30
0
41
1
10
41.1231677328612
20
6.74659050529158
30
0
41
1
10
41.2746215820352
20
6.7278396116819
30
0
41
1
10
41.7287439265546
20
6.66633033089633
30
0
41
1
10
42.0312143416005
20
6.61838538588995
30
0
41
1
10
42.6349345091163
20
6.5087549942607
30
0
41
1
10
42.9362186224081
20
6.44707906330339
30
0
41
1
10
43.5372714732272
20
6.30979972848237
30
0
41
1
10
43.8366926029634
20
6.23390248875728
30
0
41
1
10
44.7367962060775
20
5.98806615830327
30
0
41
1
10
45.3381002263018
20
5.79959292208446
30
0
41
1
10
46.2394408735471
20
5.47742711042915
30
0
41
1
10
46.5399289242059
20
5.36348513910352
30
0
41
1
10
47.1437246644601
20
5.12533944020583
30
0
41
1
10
47.4465812014393
20
5.00070165941901
30
0
41
1
10
48.053833477416
20
4.73968464307822
30
0
41
1
10
48.3586524129533
20
4.60298942746502
30
0
41
1
10
48.9642578667343
20
4.31987594723947
30
0
41
1
10
49.2664905964978
20
4.1743454711326
30
0
41
1
10
49.8703136127003
20
3.87623081292926
30
0
41
1
10
50.1717373732374
20
3.72342426851503
30
0
41
1
10
50.7732407051138
20
3.40983890724345
30
0
41
1
10
51.0730191446015
20
3.2486074955568
30
0
41
1
10
51.9721283802402
20
2.75546134915885
30
0
41
1
10
52.57332298869
20
2.41740565308578
30
0
41
1
10
53.4748844655318
20
1.89196379955052
30
0
41
1
10
53.7750262048665
20
1.71314858536226
30
0
41
1
10
54.3779241365157
20
1.35359720981873
30
0
41
1
10
54.6804679569785
20
1.17254582663682
30
0
41
1
10
55.2872319954805
20
0.806998691971671
30
0
41
1
10
55.5921687202922
20
0.622108808548006
30
0
41
1
10
56.1986508108737
20
0.251111823018022
30
0
41
1
10
56.5005116329841
20
0.0650226751690184
30
0
41
1
10
57.4062508904618
20
-0.487763849400551
30
0
41
1
10
58.0083946584073
20
-0.85232168693841
30
0
41
1
10
58.9071910272132
20
-1.3963905531225
30
0
41
1
10
59.2069089476692
20
-1.57586293816684
30
0
41
1
10
59.8072939050801
20
-1.92994916954561
30
0
41
1
10
60.1077549347781
20
-2.10490035664301
30
0
41
1
10
60.7088369348688
20
-2.45119975431109
30
0
41
1
10
61.0092025506876
20
-2.62294237259081
30
0
41
1
10
61.6110350886722
20
-2.96125535385406
30
0
41
1
10
61.9131952613328
20
-3.126762453742
30
0
41
1
10
62.5193505144686
20
-3.45149456264011
30
0
41
1
10
62.8240464023839
20
-3.61103189957237
30
0
41
1
10
63.4314265211689
20
-3.92231298021414
30
0
41
1
10
63.7333554686829
20
-4.07439273926821
30
0
41
1
10
64.6388463228471
20
-4.51319769924939
30
0
41
1
10
65.2413587700824
20
-4.78397952541116
30
0
41
1
10
66.1409164428217
20
-5.1611592673967
30
0
41
1
10
66.4400728730441
20
-5.28193826031696
30
0
41
1
10
67.0400335866292
20
-5.51040420873139
30
0
41
1
10
67.3403769386956
20
-5.61862732734636
30
0
41
1
10
67.9413819849501
20
-5.82346728431364
30
0
41
1
10
68.2420329847544
20
-5.92009242647828
30
0
41
1
10
68.843370502946
20
-6.10166083960286
30
0
41
1
10
69.1447937773694
20
-6.18596988121973
30
0
41
1
10
69.750214561306
20
-6.34085707065438
30
0
41
1
10
70.0543725750187
20
-6.41173409519595
30
0
41
1
10
70.6625523892801
20
-6.53977766847231
30
0
41
1
10
70.965119267348
20
-6.59680993917104
30
0
41
1
10
71.8701656422275
20
-6.74596300710169
30
0
41
1
10
72.4728479258742
20
-6.81528333352816
30
0
41
1
10
73.3731149324913
20
-6.87639092281648
30
0
41
1
10
73.6721988279285
20
-6.88953482415107
30
0
41
1
10
74.0866478305726
20
-6.89743736946983
30
0
41
1
10
74.2014996468224
20
-6.89854871458067
30
0
41
1
10
74.3164105479166
20
-6.89858657144538
30
0
0
SPLINE
5
B9
100
AcDbEntity
8
1
62
256
6
ByLayer
370
13
48
1
60
0
100
AcDbSpline
70
4
71
3
72
32
73
28
40
0
40
0
40
0
40
0
40
0.125
40
0.125
40
0.15625
40
0.15625
40
0.1875
40
0.1875
40
0.25
40
0.25
40
0.3125
40
0.3125
40
0.375
40
0.375
40
0.499999999999999
40
0.499999999999999
40
0.5625
40
0.5625
40
0.625
40
0.625
40
0.75
40
0.75
40
0.8125
40
0.8125
40
0.875
40
0.875
40
1
40
1
40
1
40
1
41
1
10
4.25028335215433
20
-6.55166911654888
30
0
41
1
10
4.25033818320691
20
-6.53503334508014
30
0
41
1
10
4.25038234900296
20
-6.46710581404469
30
0
41
1
10
4.25043002312418
20
-6.31992789407207
30
0
41
1
10
4.25043917734899
20
-6.28734408304854
30
0
41
1
10
4.25045685802343
20
-6.21578605809424
30
0
41
1
10
4.25046540801088
20
-6.17668131557213
30
0
41
1
10
4.25049008831564
20
-6.05076713185775
30
0
41
1
10
4.25050528114321
20
-5.95540861596879
30
0
41
1
10
4.25053431149365
20
-5.74255752336876
30
0
41
1
10
4.25054814668871
20
-5.62506319454462
30
0
41
1
10
4.25057545765381
20
-5.36784394430526
30
0
41
1
10
4.25058896104048
20
-5.22779955960971
30
0
41
1
10
4.25063008157071
20
-4.77501342595983
30
0
41
1
10
4.25065766138368
20
-4.43861292206114
30
0
41
1
10
4.25070279909104
20
-3.88398234851311
30
0
41
1
10
4.25071844709601
20
-3.69069377567001
30
0
41
1
10
4.25075125395674
20
-3.28668534398125
30
0
41
1
10
4.25076832018692
20
-3.07712500717841
30
0
41
1
10
4.25082079550685
20
-2.4346747985349
30
0
41
1
10
4.25085735755681
20
-1.99087794623304
30
0
41
1
10
4.25091239400896
20
-1.30253849812246
30
0
41
1
10
4.25093078903765
20
-1.06873133833216
30
0
41
1
10
4.2509667079477
20
-0.595538863617094
30
0
41
1
10
4.25098398399396
20
-0.359385424244039
30
0
41
1
10
4.25103254382171
20
0.347792032940021
30
0
41
1
10
4.25106068487517
20
0.81754815567939
30
0
41
1
10
4.25108012562899
20
1.28554613778823
30
0
0
SPLINE
5
BA
100
AcDbEntity
8
1
62
256
6
ByLayer
370
18
48
1
60
0
100
AcDbSpline
70
4
71
3
72
34
73
30
40
0
40
0
40
0
40
0
40
0.0624999999999986
40
0.0624999999999986
40
0.0937499999999982
40
0.0937499999999982
40
0.124999999999998
40
0.124999999999998
40
0.187499999999996
40
0.187499999999996
40
0.218749999999994
40
0.218749999999994
40
0.249999999999993
40
0.249999999999993
40
0.374999999999986
40
0.374999999999986
40
0.406249999999985
40
0.406249999999985
40
0.437499999999984
40
0.437499999999984
40
0.499999999999985
40
0.499999999999985
40
0.624999999999988
40
0.624999999999988
40
0.749999999999992
40
0.749999999999992
40
0.874999999999996
40
0.874999999999996
40
1
40
1
40
1
40
1
41
1
10
69.4100893194322
20
3.60433132895383
30
0
41
1
10
69.4086236901261
20
3.42406673307605
30
0
41
1
10
69.4225044755295
20
3.23873745135779
30
0
41
1
10
69.4661534993394
20
2.95320979082936
30
0
41
1
10
69.4846091555605
20
2.85637617537805
30
0
41
1
10
69.5287412067394
20
2.6620916411116
30
0
41
1
10
69.5542637845414
20
2.5651624015012
30
0
41
1
10
69.6404477562567
20
2.27496733202193
30
0
41
1
10
69.7106898146452
20
2.082291959087
30
0
41
1
10
69.8330340934117
20
1.7943254515292
30
0
41
1
10
69.8766555538578
20
1.69851164715638
30
0
41
1
10
69.9693120781276
20
1.50721767911597
30
0
41
1
10
70.0182786483688
20
1.41192018973942
30
0
41
1
10
70.2724277690472
20
0.942478832841516
30
0
41
1
10
70.5074619099221
20
0.58398995145032
30
0
41
1
10
70.8305310697482
20
0.1516310914472
30
0
41
1
10
70.8966374431566
20
0.0659623828823044
30
0
41
1
10
71.0316639536987
20
-0.103861085824008
30
0
41
1
10
71.1007082048903
20
-0.188156531351211
30
0
41
1
10
71.3102116806674
20
-0.436992245777617
30
0
41
1
10
71.4534106216574
20
-0.598010628108057
30
0
41
1
10
71.8920263372103
20
-1.06861777918977
30
0
41
1
10
72.1961791369141
20
-1.36614896944977
30
0
41
1
10
72.8248643470459
20
-1.9330831392603
30
0
41
1
10
73.1497815707617
20
-2.20295828215743
30
0
41
1
10
73.8139736346465
20
-2.71864418643418
30
0
41
1
10
74.1506682332516
20
-2.96219908670744
30
0
41
1
10
74.8318769299661
20
-3.42501318325077
30
0
41
1
10
75.1763927492396
20
-3.64426703174939
30
0
41
1
10
75.5243860623195
20
-3.85271607616178
30
0
0
SPLINE
5
BB
100
AcDbEntity
8
1
62
256
6
ByLayer
370
13
48
1
60
0
100
AcDbSpline
70
4
71
3
72
8
73
4
40
0
40
0
40
0
40
0
40
1
40
1
40
1
40
1
41
1
10
4.12253729711114
20
-6.67330024358941
30
0
41
1
10
4.1464352599115
20
-6.65959388321494
30
0
41
1
10
4.17250193084186
20
-6.65311168675527
30
0
41
1
10
4.19930947808419
20
-6.65348646040547
30
0
0
SPLINE
5
BC
100
AcDbEntity
8
1
62
256
6
ByLayer
370
18
48
1
60
0
100
AcDbSpline
70
4
71
3
72
100
73
96
40
0
40
0
40
0
40
0
40
0.0033685440096279
40
0.0033685440096279
40
0.0241620228951078
40
0.0241620228951078
40
0.0449555017805877
40
0.0449555017805877
40
0.0865424595515467
40
0.0865424595515467
40
0.107335938437027
40
0.107335938437027
40
0.128129417322506
40
0.128129417322506
40
0.148922896207986
40
0.148922896207986
40
0.169716375093466
40
0.169716375093466
40
0.190509853978946
40
0.190509853978946
40
0.211303332864426
40
0.211303332864426
40
0.232096811749906
40
0.232096811749906
40
0.252890290635386
40
0.252890290635386
40
0.273683769520865
40
0.273683769520865
40
0.294477248406345
40
0.294477248406345
40
0.315270727291825
40
0.315270727291825
40
0.336064206177305
40
0.336064206177305
40
0.356857685062785
40
0.356857685062785
40
0.377651163948265
40
0.377651163948265
40
0.398444642833745
40
0.398444642833745
40
0.419238121719225
40
0.419238121719225
40
0.440031600604704
40
0.440031600604704
40
0.460825079490184
40
0.460825079490184
40
0.481618558375664
40
0.481618558375664
40
0.502412037261144
40
0.502412037261144
40
0.523205516146624
40
0.523205516146624
40
0.543998995032104
40
0.543998995032104
40
0.564792473917584
40
0.564792473917584
40
0.585585952803064
40
0.585585952803064
40
0.606379431688543
40
0.606379431688543
40
0.627172910574023
40
0.627172910574023
40
0.668759868344982
40
0.668759868344982
40
0.689553347230462
40
0.689553347230462
40
0.710346826115941
40
0.710346826115941
40
0.731140305001421
40
0.731140305001421
40
0.751933783886901
40
0.751933783886901
40
0.77272726277238
40
0.77272726277238
40
0.79352074165786
40
0.79352074165786
40
0.814314220543339
40
0.814314220543339
40
0.835107699428819
40
0.835107699428819
40
0.855901178314299
40
0.855901178314299
40
0.876694657199778
40
0.876694657199778
40
0.897488136085258
40
0.897488136085258
40
0.918281614970737
40
0.918281614970737
40
0.939075093856217
40
0.939075093856217
40
0.959868572741696
40
0.959868572741696
40
0.980662051627176
40
0.980662051627176
40
1
40
1
40
1
40
1
41
1
10
65.9596818414967
20
-5.10095281856826
30
0
41
1
10
65.9111758555595
20
-5.11884994674293
30
0
41
1
10
65.8626600779619
20
-5.13659289311568
30
0
41
1
10
65.5145816600178
20
-5.26274013428031
30
0
41
1
10
65.2146688630092
20
-5.36557410842823
30
0
41
1
10
64.6141750848368
20
-5.56098195656423
30
0
41
1
10
64.3134448437644
20
-5.65370959191225
30
0
41
1
10
63.4131131051197
20
-5.91359168503462
30
0
41
1
10
62.8135618858838
20
-6.06185947279647
30
0
41
1
10
61.9144917026857
20
-6.24380106544447
30
0
41
1
10
61.6150966222834
20
-6.29773954032967
30
0
41
1
10
61.0150328671286
20
-6.39057067017879
30
0
41
1
10
60.7141405614487
20
-6.43058317716753
30
0
41
1
10
60.1129243095821
20
-6.49814381999465
30
0
41
1
10
59.8126803848647
20
-6.52541342404913
30
0
41
1
10
59.2131096882562
20
-6.56520657531235
30
0
41
1
10
58.9137911226415
20
-6.57767511622279
30
0
41
1
10
58.3143703215702
20
-6.58967997292072
30
0
41
1
10
58.014439897929
20
-6.58900103580697
30
0
41
1
10
57.4140336511975
20
-6.57343694866955
30
0
41
1
10
57.1131173230396
20
-6.55822357421519
30
0
41
1
10
56.5126456401848
20
-6.51241032911861
30
0
41
1
10
56.2132702440102
20
-6.48303959044634
30
0
41
1
10
55.6154047575223
20
-6.4118982105035
30
0
41
1
10
55.3170442715416
20
-6.36989422857383
30
0
41
1
10
54.721464894336
20
-6.27170728691911
30
0
41
1
10
54.4243405992933
20
-6.21543526997354
30
0
41
1
10
53.8307893466981
20
-6.09135029425286
30
0
41
1
10
53.5340358815968
20
-6.02351523835236
30
0
41
1
10
52.940348756323
20
-5.87530698990685
30
0
41
1
10
52.6434182778054
20
-5.79468702276452
30
0
41
1
10
52.0492658613426
20
-5.62071981281682
30
0
41
1
10
51.7523091128292
20
-5.52772600261389
30
0
41
1
10
51.1572392935032
20
-5.33074512300632
30
0
41
1
10
50.859054239708
20
-5.22674358810511
30
0
41
1
10
50.2610702908371
20
-5.0069087154458
30
0
41
1
10
49.9612334424046
20
-4.89103060825178
30
0
41
1
10
49.3602075687499
20
-4.64882208461967
30
0
41
1
10
49.0597613964531
20
-4.52229104356437
30
0
41
1
10
48.4610364408232
20
-4.26162842818454
30
0
41
1
10
48.1623490649569
20
-4.12704069803868
30
0
41
1
10
47.566113422486
20
-3.84993034069672
30
0
41
1
10
47.268504501617
20
-3.70774392854898
30
0
41
1
10
46.6745753761941
20
-3.41557153810834
30
0
41
1
10
46.3781010179615
20
-3.2657525419427
30
0
41
1
10
45.7847846967514
20
-2.96023135644597
30
0
41
1
10
45.4880609875499
20
-2.8043239345852
30
0
41
1
10
44.8944798386225
20
-2.48757049922105
30
0
41
1
10
44.5976573206133
20
-2.32638845288184
30
0
41
1
10
44.0038311476267
20
-1.9978373025894
30
0
41
1
10
43.7064016680736
20
-1.83112619854108
30
0
41
1
10
43.1099710637275
20
-1.49424190363504
30
0
41
1
10
42.8111267957938
20
-1.32417524510419
30
0
41
1
10
42.2119672301364
20
-0.980267317092682
30
0
41
1
10
41.9112959825051
20
-0.805770435586567
30
0
41
1
10
41.3102455422498
20
-0.455529174049445
30
0
41
1
10
41.0099343054758
20
-0.280415058385074
30
0
41
1
10
40.4094942713189
20
0.0695107699996811
30
0
41
1
10
40.1094041220111
20
0.244354383330403
30
0
41
1
10
39.5094710348613
20
0.593719086912216
30
0
41
1
10
39.209817890293
20
0.768530207997941
30
0
41
1
10
38.3092350801579
20
1.28920165751151
30
0
41
1
10
37.7060947484023
20
1.63233889229511
30
0
41
1
10
36.8059824366764
20
2.1335330889404
30
0
41
1
10
36.5064007756205
20
2.29883834587017
30
0
41
1
10
35.9065648774449
20
2.62347611701051
30
0
41
1
10
35.6064915643548
20
2.78317593079308
30
0
41
1
10
35.0058522728273
20
3.09608503813752
30
0
41
1
10
34.7052295721215
20
3.24903069849958
30
0
41
1
10
34.1037129107918
20
3.54992537534184
30
0
41
1
10
33.803796052506
20
3.69652627136293
30
0
41
1
10
33.2051611869377
20
3.97996779329358
30
0
41
1
10
32.9065497384717
20
4.1165515356233
30
0
41
1
10
32.3104309028122
20
4.3805487082692
30
0
41
1
10
32.0130402643882
20
4.50868839128898
30
0
41
1
10
31.4190172724348
20
4.75563873161346
30
0
41
1
10
31.1220934966039
20
4.87424473572645
30
0
41
1
10
30.528139852941
20
5.09906738240397
30
0
41
1
10
30.2310779414966
20
5.20533324585926
30
0
41
1
10
29.63687563923
20
5.40919109890044
30
0
41
1
10
29.339977447959
20
5.50651608297522
30
0
41
1
10
28.7450183583642
20
5.68925339539885
30
0
41
1
10
28.4468776188344
20
5.7741375916832
30
0
41
1
10
27.8490241433224
20
5.93095775092007
30
0
41
1
10
27.5494228571606
20
6.00386084980974
30
0
41
1
10
26.9489543560241
20
6.13802887085319
30
0
41
1
10
26.6479651943712
20
6.1993640570573
30
0
41
1
10
26.0485522692021
20
6.30631535710242
30
0
41
1
10
25.7495935058856
20
6.35210576405248
30
0
41
1
10
25.1527310221603
20
6.43193994609959
30
0
41
1
10
24.8548700590106
20
6.465523266459
30
0
41
1
10
24.2605793995037
20
6.51893886456463
30
0
41
1
10
23.9639390268609
20
6.53827892854878
30
0
41
1
10
23.3911453181306
20
6.56173043514778
30
0
41
1
10
23.1151203784538
20
6.56762261102557
30
0
41
1
10
22.8390837839969
20
6.5679139981776
30
0
0
SPLINE
5
BD
100
AcDbEntity
8
1
62
256
6
ByLayer
370
18
48
1
60
0
100
AcDbSpline
70
4
71
3
72
8
73
4
40
0
40
0
40
0
40
0
40
1
40
1
40
1
40
1
41
1
10
4.00000019932742
20
1.32295248653395
30
0
41
1
10
4.00000019932742
20
1.31109236093926
30
0
41
1
10
4.00000019932745
20
1.29933825568679
30
0
41
1
10
4.00000019932745
20
1.28769027188366
30
0
0
SPLINE
5
BE
100
AcDbEntity
8
1
62
256
6
ByLayer
370
18
48
1
60
0
100
AcDbSpline
70
4
71
3
72
44
73
40
40
0
40
0
40
0
40
0
40
0.0967116868716003
40
0.0967116868716003
40
0.145067530307401
40
0.145067530307401
40
0.193423373743202
40
0.193423373743202
40
0.241779217179002
40
0.241779217179002
40
0.290135060614803
40
0.290135060614803
40
0.386846747486403
40
0.386846747486403
40
0.435202590922203
40
0.435202590922203
40
0.483558434358003
40
0.483558434358003
40
0.531914277793804
40
0.531914277793804
40
0.580270121229604
40
0.580270121229604
40
0.628625964665404
40
0.628625964665404
40
0.676981808101204
40
0.676981808101204
40
0.725337651537004
40
0.725337651537004
40
0.773693494972804
40
0.773693494972804
40
0.822049338408605
40
0.822049338408605
40
0.870405181844405
40
0.870405181844405
40
0.918761025280205
40
0.918761025280205
40
0.967116868716005
40
0.967116868716005
40
1
40
1
40
1
40
1
41
1
10
12.0330057070283
20
-3.77432214801479
30
0
41
1
10
12.6351101518034
20
-4.06118469327131
30
0
41
1
10
13.234072834346
20
-4.33020931154482
30
0
41
1
10
14.1280195469605
20
-4.70342753973912
30
0
41
1
10
14.4252440644212
20
-4.82301047718408
30
0
41
1
10
15.0195826951349
20
-5.0517065707235
30
0
41
1
10
15.3167374472679
20
-5.16070197390303
30
0
41
1
10
15.9108049446864
20
-5.3674701931391
30
0
41
1
10
16.2077533867119
20
-5.46514599984295
30
0
41
1
10
16.801606031784
20
-5.64980889295668
30
0
41
1
10
17.098407929734
20
-5.73715205017373
30
0
41
1
10
17.991186025263
20
-5.9789103901696
30
0
41
1
10
18.5887225476387
20
-6.1143436819618
30
0
41
1
10
19.4885866582829
20
-6.28275240311473
30
0
41
1
10
19.7898914639243
20
-6.33222216531388
30
0
41
1
10
20.3901883716354
20
-6.41600315244068
30
0
41
1
10
20.6895437436868
20
-6.45088169546202
30
0
41
1
10
21.2868531051654
20
-6.50793879990121
30
0
41
1
10
21.5847863599897
20
-6.53059738940399
30
0
41
1
10
22.1793077138367
20
-6.56014452549459
30
0
41
1
10
22.4763627703445
20
-6.56723261929147
30
0
41
1
10
23.0703932041093
20
-6.56852233724649
30
0
41
1
10
23.3673032655743
20
-6.56266090251054
30
0
41
1
10
23.9609110771066
20
-6.53844811480184
30
0
41
1
10
24.2574706984419
20
-6.51916717900528
30
0
41
1
10
24.8513787940811
20
-6.46588760069414
30
0
41
1
10
25.1489494230042
20
-6.43238730237542
30
0
41
1
10
25.7450494929937
20
-6.35277120101256
30
0
41
1
10
26.0435426000468
20
-6.30711466200702
30
0
41
1
10
26.6417943852889
20
-6.20055789814944
30
0
41
1
10
26.9414445119796
20
-6.13961463300134
30
0
41
1
10
27.5433534717425
20
-6.00530715843365
30
0
41
1
10
27.8442635843705
20
-5.93216278898467
30
0
41
1
10
28.4452451822952
20
-5.77460900814489
30
0
41
1
10
28.7453667258889
20
-5.68918477417904
30
0
41
1
10
29.3451438087097
20
-5.5048905413791
30
0
41
1
10
29.644853942866
20
-5.40657325495198
30
0
41
1
10
30.1493456068469
20
-5.23328887639639
30
0
41
1
10
30.3536815196214
20
-5.16105140680443
30
0
41
1
10
30.5581828619283
20
-5.08608143707747
30
0
0
SPLINE
5
BF
100
AcDbEntity
8
1
62
256
6
ByLayer
370
18
48
1
60
0
100
AcDbSpline
70
4
71
3
72
28
73
24
40
0
40
0
40
0
40
0
40
0.0721989147448514
40
0.0721989147448514
40
0.156544467949865
40
0.156544467949865
40
0.240890021154879
40
0.240890021154879
40
0.325235574359892
40
0.325235574359892
40
0.493926680769919
40
0.493926680769919
40
0.578272233974933
40
0.578272233974933
40
0.662617787179946
40
0.662617787179946
40
0.74696334038496
40
0.74696334038496
40
0.831308893589974
40
0.831308893589974
40
0.915654446794987
40
0.915654446794987
40
1
40
1
40
1
40
1
41
1
10
58.7512017717654
20
6.58047482064441
30
0
41
1
10
59.0055484522637
20
6.57368415627633
30
0
41
1
10
59.2599761977867
20
6.56212579012745
30
0
41
1
10
59.8130321872351
20
6.52535508524875
30
0
41
1
10
60.1118794656723
20
6.49823149810263
30
0
41
1
10
60.7110312878177
20
6.43096210544286
30
0
41
1
10
61.0117202455921
20
6.39103732230973
30
0
41
1
10
61.6126855785058
20
6.29815791685886
30
0
41
1
10
61.912377123759
20
6.24419955831976
30
0
41
1
10
62.8119006061143
20
6.06225422558157
30
0
41
1
10
63.4111851212187
20
5.91407323241356
30
0
41
1
10
64.3103117139721
20
5.65465120287638
30
0
41
1
10
64.6103354200017
20
5.56219171181507
30
0
41
1
10
65.2118352351609
20
5.36653548412602
30
0
41
1
10
65.5122810360893
20
5.26354939762774
30
0
41
1
10
66.112233951863
20
5.04616907783907
30
0
41
1
10
66.4117058466148
20
4.93153740491465
30
0
41
1
10
67.0104490838995
20
4.69132581000778
30
0
41
1
10
67.3101197482702
20
4.56634835414272
30
0
41
1
10
67.9100072846419
20
4.30715623535622
30
0
41
1
10
68.2102088996121
20
4.17285227616333
30
0
41
1
10
68.8112327556718
20
3.89466821704471
30
0
41
1
10
69.1110862819846
20
3.75093919955347
30
0
41
1
10
69.4100893194326
20
3.60433132895363
30
0
0
SPLINE
5
C0
100
AcDbEntity
8
1
62
256
6
ByLayer
370
18
48
1
60
0
100
AcDbSpline
70
4
71
3
72
18
73
14
40
0
40
0
40
0
40
0
40
0.125000000000001
40
0.125000000000001
40
0.250000000000002
40
0.250000000000002
40
0.375000000000003
40
0.375000000000003
40
0.500000000000004
40
0.500000000000004
40
0.750000000000002
40
0.750000000000002
40
1
40
1
40
1
40
1
41
1
10
4.25108012563177
20
1.28554616407939
30
0
41
1
10
4.23728372470944
20
1.29815395037482
30
0
41
1
10
4.223085583282
20
1.31029072523989
30
0
41
1
10
4.19362973542982
20
1.33332068718818
30
0
41
1
10
4.17816506777743
20
1.34434733062494
30
0
41
1
10
4.14698772535911
20
1.36371613542252
30
0
41
1
10
4.13098097438549
20
1.37221745439015
30
0
41
1
10
4.10017616832329
20
1.38487249954406
30
0
41
1
10
4.08521734712537
20
1.38903568672524
30
0
41
1
10
4.0458114168984
20
1.39359758622692
30
0
41
1
10
4.02681214660822
20
1.38600342146677
30
0
41
1
10
4.00448435228049
20
1.36056157035583
30
0
41
1
10
4.00000019932673
20
1.34283569425068
30
0
41
1
10
4.00000019932742
20
1.32295248652969
30
0
0
SPLINE
5
C1
100
AcDbEntity
8
1
62
256
6
ByLayer
370
18
48
1
60
0
100
AcDbSpline
70
4
71
3
72
86
73
82
40
0
40
0
40
0
40
0
40
0.0421887936982682
40
0.0421887936982682
40
0.110968186997046
40
0.110968186997046
40
0.145357883646435
40
0.145357883646435
40
0.179747580295824
40
0.179747580295824
40
0.248526973594602
40
0.248526973594602
40
0.265721821919297
40
0.265721821919297
40
0.282916670243991
40
0.282916670243991
40
0.31730636689338
40
0.31730636689338
40
0.386085760192158
40
0.386085760192158
40
0.420475456841547
40
0.420475456841547
40
0.454865153490936
40
0.454865153490936
40
0.455133822996009
40
0.455133822996009
40
0.455402492501082
40
0.455402492501082
40
0.455939831511229
40
0.455939831511229
40
0.457014509531523
40
0.457014509531523
40
0.45916386557211
40
0.45916386557211
40
0.463462577653284
40
0.463462577653284
40
0.472060001815632
40
0.472060001815632
40
0.489254850140327
40
0.489254850140327
40
0.523644546789718
40
0.523644546789718
40
0.592423940088501
40
0.592423940088501
40
0.661203333387283
40
0.661203333387283
40
0.695593030036675
40
0.695593030036675
40
0.71278787836137
40
0.71278787836137
40
0.717086590442544
40
0.717086590442544
40
0.721385302523718
40
0.721385302523718
40
0.722459980544011
40
0.722459980544011
40
0.722728650049085
40
0.722728650049085
40
0.722997319554158
40
0.722997319554158
40
0.723265989059231
40
0.723265989059231
40
0.723534658564305
40
0.725684014604892
40
0.729982726686066
40
0.729982726686066
40
0.764372423335462
40
0.764372423335462
40
0.798762119984857
40
0.798762119984857
40
0.833151816634252
40
0.833151816634252
40
0.867541513283648
40
0.867541513283648
40
0.936320906582438
40
0.936320906582438
40
0.953515754907136
40
0.953515754907136
40
0.970710603231833
40
0.970710603231833
40
1
40
1
40
1
40
1
41
1
10
18.8012220411231
20
1.45087494866252
30
0
41
1
10
18.5749045330123
20
1.5512102763131
30
0
41
1
10
18.3495322175623
20
1.64360572789084
30
0
41
1
10
17.7584034100007
20
1.86102919967584
30
0
41
1
10
17.3937386674943
20
1.96982003266169
30
0
41
1
10
16.8437601344349
20
2.08149373963263
30
0
41
1
10
16.6589387798797
20
2.11016659943994
30
0
41
1
10
16.2944476759772
20
2.14786642121044
30
0
41
1
10
16.1141675394775
20
2.15711761777442
30
0
41
1
10
15.5767558876454
20
2.15660268557232
30
0
41
1
10
15.2230170274883
20
2.11854718147461
30
0
41
1
10
14.7783513208272
20
2.02682953266742
30
0
41
1
10
14.6892957656289
20
2.00628079504708
30
0
41
1
10
14.5107454337415
20
1.96084993389894
30
0
41
1
10
14.4211774914892
20
1.93593681159984
30
0
41
1
10
14.153773419768
20
1.85553602912626
30
0
41
1
10
13.9764996516802
20
1.79422858550626
30
0
41
1
10
13.4454672703806
20
1.58954064166372
30
0
41
1
10
13.0924350844401
20
1.42551076350449
30
0
41
1
10
12.5573333085883
20
1.14511098352946
30
0
41
1
10
12.3777234212201
20
1.04569091204644
30
0
41
1
10
12.0172362155895
20
0.837112837432471
30
0
41
1
10
11.8368386479887
20
0.728251278295915
30
0
41
1
10
11.6545513073026
20
0.614564254592807
30
0
41
1
10
11.6530163206394
20
0.613813432077194
30
0
41
1
10
11.6504500055351
20
0.611771215273109
30
0
41
1
10
11.6514518678008
20
0.609713015567564
30
0
41
1
10
11.6539683531882
20
0.605421044766075
30
0
41
1
10
11.6562591743677
20
0.602907073278658
30
0
41
1
10
11.6631129802288
20
0.595558920815535
30
0
41
1
10
11.6680652812106
20
0.590972679301274
30
0
41
1
10
11.6830902605394
20
0.577463291586326
30
0
41
1
10
11.6934615187408
20
0.568845993162682
30
0
41
1
10
11.7248548899825
20
0.543299307150619
30
0
41
1
10
11.7462258369612
20
0.526752478194879
30
0
41
1
10
11.8106670118408
20
0.477582957074247
30
0
41
1
10
11.8541748494302
20
0.445479758291015
30
0
41
1
10
11.9852113902896
20
0.349785348031958
30
0
41
1
10
12.0733295426334
20
0.286911903251024
30
0
41
1
10
12.3383563148087
20
0.0991844900409546
30
0
41
1
10
12.5160859845353
20
-0.0246793041200419
30
0
41
1
10
13.0503622176187
20
-0.395170948512288
30
0
41
1
10
13.4078606587556
20
-0.640885625207829
30
0
41
1
10
14.122304223685
20
-1.13366500429427
30
0
41
1
10
14.4801288510955
20
-1.37953272827445
30
0
41
1
10
15.0142265344224
20
-1.752697326803
30
0
41
1
10
15.1919748931035
20
-1.87763474860009
30
0
41
1
10
15.4567266199401
20
-2.06766340815494
30
0
41
1
10
15.5447788356956
20
-2.13130676521982
30
0
41
1
10
15.6532845475507
20
-2.2130140238566
30
0
41
1
10
15.6748943758192
20
-2.22947067728859
30
0
41
1
10
15.7176814729178
20
-2.26293044683751
30
0
41
1
10
15.7390991260033
20
-2.27973741636956
30
0
41
1
10
15.7642628750199
20
-2.30245806448474
30
0
41
1
10
15.7692503657267
20
-2.30704752533208
30
0
41
1
10
15.7748616045542
20
-2.31340937822904
30
0
41
1
10
15.775956453168
20
-2.31472208944024
30
0
41
1
10
15.7778770674938
20
-2.31750289695034
30
0
41
1
10
15.7791509632088
20
-2.31920624917277
30
0
41
1
10
15.7779780860355
20
-2.3220710307391
30
0
41
1
10
15.7762847727262
20
-2.32272001288993
30
0
41
1
10
15.7738916250519
20
-2.32470326941089
30
0
41
1
10
15.7631228542505
20
-2.33362517386144
30
0
41
1
10
15.7332192617976
20
-2.3583395231669
30
0
41
1
10
15.7045374467441
20
-2.38188617489624
30
0
41
1
10
15.5325374388641
20
-2.52243897924006
30
0
41
1
10
15.3802378849332
20
-2.64225154403536
30
0
41
1
10
15.0778554031187
20
-2.86840385034705
30
0
41
1
10
14.9276835617719
20
-2.97484664572912
30
0
41
1
10
14.6275453465883
20
-3.17294779846284
30
0
41
1
10
14.477588574489
20
-3.26461284402634
30
0
41
1
10
14.1755231216243
20
-3.43097215295299
30
0
41
1
10
14.0247385798009
20
-3.50488461493936
30
0
41
1
10
13.5716801687411
20
-3.69487751785982
30
0
41
1
10
13.2679190311997
20
-3.78002973946929
30
0
41
1
10
12.8681280083631
20
-3.82265483240514
30
0
41
1
10
12.7868189488922
20
-3.8279771228747
30
0
41
1
10
12.6232880373545
20
-3.83186319165071
30
0
41
1
10
12.5412516482742
20
-3.83045254389475
30
0
41
1
10
12.3182940048629
20
-3.81784587058908
30
0
41
1
10
12.1765205600183
20
-3.8004449121108
30
0
41
1
10
12.0328209691236
20
-3.77428852641248
30
0
0
SPLINE
5
C2
100
AcDbEntity
8
1
62
256
6
ByLayer
370
18
48
1
60
0
100
AcDbSpline
70
4
71
3
72
54
73
50
40
0
40
0
40
0
40
0
40
0.0308099993650517
40
0.0308099993650517
40
0.0616199987301034
40
0.0616199987301034
40
0.123239997460207
40
0.123239997460207
40
0.18485999619031
40
0.18485999619031
40
0.215669995555362
40
0.215669995555362
40
0.246479994920414
40
0.246479994920414
40
0.308099993650518
40
0.308099993650518
40
0.33890999301557
40
0.33890999301557
40
0.369719992380622
40
0.369719992380622
40
0.431339991110726
40
0.431339991110726
40
0.446744990793252
40
0.446744990793252
40
0.462149990475778
40
0.462149990475778
40
0.49295998984083
40
0.49295998984083
40
0.616199987301035
40
0.616199987301035
40
0.631604986983561
40
0.631604986983561
40
0.647009986666087
40
0.647009986666087
40
0.677819986031139
40
0.677819986031139
40
0.739439984761245
40
0.739439984761245
40
0.80105998349135
40
0.80105998349135
40
0.831869982856403
40
0.831869982856403
40
0.847274982538929
40
0.847274982538929
40
0.862679982221455
40
0.862679982221455
40
0.985919979681661
40
0.985919979681661
40
1
40
1
40
1
40
1
41
1
10
76.5821132854454
20
-6.85161713943577
30
0
41
1
10
76.2027154959699
20
-6.87888041210746
30
0
41
1
10
75.8234593348993
20
-6.89441866133436
30
0
41
1
10
75.0643140715742
20
-6.90202507780236
30
0
41
1
10
74.6839475599743
20
-6.89403017088418
30
0
41
1
10
73.54883596037
20
-6.83530622646967
30
0
41
1
10
72.7975720264487
20
-6.75001251659035
30
0
41
1
10
71.2980905109461
20
-6.4919101119624
30
0
41
1
10
70.5497233243231
20
-6.31915106556011
30
0
41
1
10
69.4231572378637
20
-5.99801168700736
30
0
41
1
10
69.0469763748528
20
-5.88062283460755
30
0
41
1
10
68.2922854021831
20
-5.6257144423426
30
0
41
1
10
67.9135002754523
20
-5.48809139407396
30
0
41
1
10
66.7737752781716
20
-5.04654293472939
30
0
41
1
10
66.0171174687487
20
-4.71707821321382
30
0
41
1
10
64.8805970104741
20
-4.17795888897149
30
0
41
1
10
64.5015108847585
20
-3.99075048793884
30
0
41
1
10
63.7417548983714
20
-3.6026574018785
30
0
41
1
10
63.3620933078482
20
-3.40229011221243
30
0
41
1
10
62.2250549809871
20
-2.7860278677031
30
0
41
1
10
61.4684265992522
20
-2.3543913162473
30
0
41
1
10
60.5193955748205
20
-1.79631384257721
30
0
41
1
10
60.3292268591746
20
-1.68370003955977
30
0
41
1
10
59.949892717708
20
-1.45779761014813
30
0
41
1
10
59.760599481801
20
-1.34443107872801
30
0
41
1
10
59.1936558098632
20
-1.00339200729391
30
0
41
1
10
58.8169612692161
20
-0.774746208103153
30
0
41
1
10
56.937459031979
20
0.370988256117244
30
0
41
1
10
55.4455767110747
20
1.29395910997667
30
0
41
1
10
53.7448883394941
20
2.28049294676305
30
0
41
1
10
53.5556026023494
20
2.38937089666115
30
0
41
1
10
53.1762384178235
20
2.60540106356081
30
0
41
1
10
52.9859853640157
20
2.71264946649586
30
0
41
1
10
52.4170321033247
20
3.02966330459665
30
0
41
1
10
52.0392132103605
20
3.23528237234214
30
0
41
1
10
50.9090008137872
20
3.83358272772088
30
0
41
1
10
50.1593489344593
20
4.20697990369891
30
0
41
1
10
48.6602895721742
20
4.89373925281674
30
0
41
1
10
47.9105420306438
20
5.20667654323373
30
0
41
1
10
46.7800503536092
20
5.62337557613159
30
0
41
1
10
46.4021765257542
20
5.7534155574163
30
0
41
1
10
45.833003613713
20
5.93418572161733
30
0
41
1
10
45.6426933036212
20
5.99210891914765
30
0
41
1
10
45.2633031264536
20
6.10244462563321
30
0
41
1
10
45.0739981995613
20
6.15493478686125
30
0
41
1
10
43.3731335339194
20
6.60303497722438
30
0
41
1
10
41.8812834919524
20
6.82838233312933
30
0
41
1
10
40.2054319461582
20
6.87544781397946
30
0
41
1
10
40.033438042645
20
6.87788120150324
30
0
41
1
10
39.8612336691111
20
6.87790529756964
30
0
0
SPLINE
5
C3
100
AcDbEntity
8
1
62
256
6
ByLayer
370
18
48
1
60
0
100
AcDbSpline
70
4
71
3
72
10
73
6
40
0
40
0
40
0
40
0
40
0.381567859330699
40
0.381567859330699
40
1
40
1
40
1
40
1
41
1
10
7.7925124570904
20
-6.55867333391748
30
0
41
1
10
7.3254209778147
20
-6.64158130688219
30
0
41
1
10
6.85919637548434
20
-6.7074291738399
30
0
41
1
10
5.63692643440092
20
-6.8344820207669
30
0
41
1
10
4.88052492593295
20
-6.86748220431477
30
0
41
1
10
4.11998560531339
20
-6.85357007619507
30
0
0
SPLINE
5
C4
100
AcDbEntity
8
1
62
256
6
ByLayer
370
18
48
1
60
0
100
AcDbSpline
70
4
71
3
72
14
73
10
40
0
40
0
40
0
40
0
40
0.25
40
0.25
40
0.5
40
0.5
40
0.75
40
0.75
40
1
40
1
40
1
40
1
41
1
10
4.11998560531345
20
-6.85357007619507
30
0
41
1
10
4.10158469582476
20
-6.85323347846321
30
0
41
1
10
4.08500666611118
20
-6.85281040735399
30
0
41
1
10
4.05538345817916
20
-6.8517234705734
30
0
41
1
10
4.042432686626
20
-6.85105538866699
30
0
41
1
10
4.02163216645098
20
-6.84947500872247
30
0
41
1
10
4.01349152034916
20
-6.84853868469867
30
0
41
1
10
4.00273657494819
20
-6.8464327835836
30
0
41
1
10
4.00000019932742
20
-6.84526511711815
30
0
41
1
10
4.00000019932742
20
-6.84396875775604
30
0
0
SPLINE
5
C5
100
AcDbEntity
8
1
62
256
6
ByLayer
370
18
48
1
60
0
100
AcDbSpline
70
4
71
3
72
18
73
14
40
0
40
0
40
0
40
0
40
0.249999999999998
40
0.249999999999998
40
0.499999999999996
40
0.499999999999996
40
0.624999999999997
40
0.624999999999997
40
0.749999999999998
40
0.749999999999998
40
0.874999999999999
40
0.874999999999999
40
1
40
1
40
1
40
1
41
1
10
77.9573945316418
20
3.36401554213629
30
0
41
1
10
77.851246246557
20
3.64845891752898
30
0
41
1
10
77.7450264531191
20
3.93255539321635
30
0
41
1
10
77.5323013971689
20
4.49936348347401
30
0
41
1
10
77.4257375176659
20
4.78179073662469
30
0
41
1
10
77.2658690884462
20
5.205321931399
30
0
41
1
10
77.2125653045378
20
5.34642958809485
30
0
41
1
10
77.105883612019
20
5.6282853094076
30
0
41
1
10
77.0525085396863
20
5.76904713331191
30
0
41
1
10
76.9455734953075
20
6.04967379981153
30
0
41
1
10
76.892049114756
20
6.18971130306133
30
0
41
1
10
76.7849717038122
20
6.46964732410083
30
0
41
1
10
76.7313930949169
20
6.60942175603614
30
0
41
1
10
76.6776618876777
20
6.74845590633609
30
0
0
SPLINE
5
C6
100
AcDbEntity
8
1
62
256
6
ByLayer
370
18
48
1
60
0
100
AcDbSpline
70
4
71
3
72
20
73
16
40
0
40
0
40
0
40
0
40
0.126853228636557
40
0.126853228636557
40
0.406573584386845
40
0.406573584386845
40
0.476503673324416
40
0.476503673324416
40
0.546433762261987
40
0.546433762261987
40
0.686293940137126
40
0.686293940137126
40
0.966014295887402
40
0.966014295887402
40
1
40
1
40
1
40
1
41
1
10
75.438266547974
20
-6.59841226974279
30
0
41
1
10
75.0954985276804
20
-6.5981144485099
30
0
41
1
10
74.7531625255816
20
-6.58862823966635
30
0
41
1
10
73.6562999656304
20
-6.52911822455238
30
0
41
1
10
72.9021219006603
20
-6.44403725345708
30
0
41
1
10
71.9553297167705
20
-6.28357271854699
30
0
41
1
10
71.7657628975907
20
-6.2487678799699
30
0
41
1
10
71.3860730209764
20
-6.17375223598563
30
0
41
1
10
71.1958129111573
20
-6.1335066870692
30
0
41
1
10
70.626775559385
20
-6.00537953093249
30
0
41
1
10
70.2488957951526
20
-5.90996496337462
30
0
41
1
10
69.1182831044365
20
-5.59538344414199
30
0
41
1
10
68.3685914783483
20
-5.34788287211941
30
0
41
1
10
67.5281101713744
20
-5.03273885386417
30
0
41
1
10
67.4370588014864
20
-4.99810291296632
30
0
41
1
10
67.3460038591048
20
-4.96298037349365
30
0
0
SPLINE
5
C7
100
AcDbEntity
8
1
62
256
6
ByLayer
370
13
48
1
60
0
100
AcDbSpline
70
4
71
3
72
22
73
18
40
0
40
0
40
0
40
0
40
0.143663257883837
40
0.143663257883837
40
0.225429415642857
40
0.225429415642857
40
0.307195573401877
40
0.307195573401877
40
0.634260204437957
40
0.634260204437957
40
0.797792519955996
40
0.797792519955996
40
0.879558677715015
40
0.879558677715015
40
0.961324835474033
40
0.961324835474033
40
1
40
1
40
1
40
1
41
1
10
67.3460029261453
20
-4.96298001362408
30
0
41
1
10
66.6876277484882
20
-4.70902553578472
30
0
41
1
10
66.0290657978323
20
-4.42963143572479
30
0
41
1
10
64.9914124085815
20
-3.95596065248662
30
0
41
1
10
64.6141850871186
20
-3.77681639041384
30
0
41
1
10
63.8569769937755
20
-3.40506708285673
30
0
41
1
10
63.4760065073754
20
-3.21194429445561
30
0
41
1
10
61.5811664971094
20
-2.22598081341451
30
0
41
1
10
60.0878026089671
20
-1.36790037503508
30
0
41
1
10
57.8361819554238
20
-0.0547414854258363
30
0
41
1
10
57.0835230955875
20
0.386993295007812
30
0
41
1
10
55.9462473266054
20
1.0468474970678
30
0
41
1
10
55.5653253002409
20
1.26637032486877
30
0
41
1
10
54.8080666057597
20
1.69742006356663
30
0
41
1
10
54.4306890386218
20
1.90956802857767
30
0
41
1
10
53.8761788300377
20
2.21649850816212
30
0
41
1
10
53.6982921606891
20
2.3141457123831
30
0
41
1
10
53.5205303995551
20
2.41080747921623
30
0
0
SPLINE
5
C8
100
AcDbEntity
8
1
62
256
6
ByLayer
370
18
48
1
60
0
100
AcDbSpline
70
4
71
3
72
8
73
4
40
0
40
0
40
0
40
0
40
1
40
1
40
1
40
1
41
1
10
4.65063203315242
20
-6.55605833937528
30
0
41
1
10
4.51726092180562
20
-6.55598713159171
30
0
41
1
10
4.38381771999045
20
-6.55452635882529
30
0
41
1
10
4.25028335215427
20
-6.55166911654888
30
0
0
SPLINE
5
C9
100
AcDbEntity
8
1
62
256
6
ByLayer
370
18
48
1
60
0
100
AcDbSpline
70
4
71
3
72
8
73
4
40
0
40
0
40
0
40
0
40
1
40
1
40
1
40
1
41
1
10
76.6798912740991
20
-6.55930935108171
30
0
41
1
10
76.6479873770576
20
-6.58568605733044
30
0
41
1
10
76.6207253442526
20
-6.59896871427995
30
0
41
1
10
76.5981805097333
20
-6.59894481511387
30
0
0
SPLINE
5
CA
100
AcDbEntity
8
1
62
256
6
ByLayer
370
18
48
1
60
0
100
AcDbSpline
70
4
71
3
72
8
73
4
40
0
40
0
40
0
40
0
40
1
40
1
40
1
40
1
41
1
10
76.5821132854454
20
-6.85161713943577
30
0
41
1
10
76.6077511402715
20
-6.7831437354015
30
0
41
1
10
76.6333663229329
20
-6.71460958452028
30
0
41
1
10
76.6589588075994
20
-6.64601461758409
30
0
0
SPLINE
5
CB
100
AcDbEntity
8
1
62
256
6
ByLayer
370
18
48
1
60
0
100
AcDbSpline
70
4
71
3
72
26
73
22
40
0
40
0
40
0
40
0
40
0.250000000000003
40
0.250000000000003
40
0.375000000000005
40
0.375000000000005
40
0.500000000000007
40
0.500000000000007
40
0.625000000000008
40
0.625000000000008
40
0.75000000000001
40
0.75000000000001
40
0.812500000000011
40
0.812500000000011
40
0.843750000000008
40
0.843750000000008
40
0.875000000000004
40
0.875000000000004
40
0.937500000000002
40
0.937500000000002
40
1
40
1
40
1
40
1
41
1
10
75.7883171318854
20
1.93430291199917
30
0
41
1
10
76.0198142246956
20
1.97569708859189
30
0
41
1
10
76.2500294652326
20
2.02349007927566
30
0
41
1
10
76.592011560663
20
2.11245721418987
30
0
41
1
10
76.7054399938725
20
2.14504113808229
30
0
41
1
10
76.9307049310137
20
2.21862293048599
30
0
41
1
10
77.0425543779909
20
2.25954641232002
30
0
41
1
10
77.2637945570399
20
2.35467012569634
30
0
41
1
10
77.3722395736599
20
2.4084052903201
30
0
41
1
10
77.577449567635
20
2.535035820421
30
0
41
1
10
77.6740243231166
20
2.60762727702178
30
0
41
1
10
77.7978050007482
20
2.738790638344
30
0
41
1
10
77.8358417623181
20
2.78692592076442
30
0
41
1
10
77.8833943822448
20
2.86390771689986
30
0
41
1
10
77.8977542341452
20
2.89044370475185
30
0
41
1
10
77.9231511079054
20
2.94547546991211
30
0
41
1
10
77.934247410156
20
2.97420723802208
30
0
41
1
10
77.9612809906769
20
3.06138579874963
30
0
41
1
10
77.9711908045543
20
3.12098965960419
30
0
41
1
10
77.9753299713544
20
3.24309700666291
30
0
41
1
10
77.9694235563364
20
3.30435080960973
30
0
41
1
10
77.9573945316416
20
3.36401554213597
30
0
0
SPLINE
5
CC
100
AcDbEntity
8
1
62
256
6
ByLayer
370
18
48
1
60
0
100
AcDbSpline
70
4
71
3
72
10
73
6
40
0
40
0
40
0
40
0
40
0.847417853090921
40
0.847417853090921
40
1
40
1
40
1
40
1
41
1
10
76.5821132854455
20
6.85161713943575
30
0
41
1
10
76.2025283513645
20
6.87889386019424
30
0
41
1
10
75.8229591513284
20
6.89444306180795
30
0
41
1
10
75.3745232599862
20
6.89891335186235
30
0
41
1
10
75.3061021216066
20
6.89921240458148
30
0
41
1
10
75.2376940259728
20
6.89913001489046
30
0
0
SPLINE
5
CD
100
AcDbEntity
8
1
62
256
6
ByLayer
370
18
48
1
60
0
100
AcDbSpline
70
4
71
3
72
50
73
46
40
0
40
0
40
0
40
0
40
0.0112916547718773
40
0.0112916547718773
40
0.025956132637711
40
0.025956132637711
40
0.0406206105035448
40
0.0406206105035448
40
0.0699495662352132
40
0.0699495662352132
40
0.187265389161887
40
0.187265389161887
40
0.201929867027722
40
0.201929867027722
40
0.216594344893556
40
0.216594344893556
40
0.245923300625225
40
0.245923300625225
40
0.304581212088562
40
0.304581212088562
40
0.421897035015239
40
0.421897035015239
40
0.480554946478577
40
0.480554946478577
40
0.509883902210246
40
0.509883902210246
40
0.539212857941916
40
0.539212857941916
40
0.656528680868594
40
0.656528680868594
40
0.685857636600263
40
0.685857636600263
40
0.715186592331933
40
0.715186592331933
40
0.773844503795272
40
0.773844503795272
40
0.832502415258611
40
0.832502415258611
40
0.861831370990281
40
0.861831370990281
40
0.89116032672195
40
0.89116032672195
40
0.949818238185289
40
0.949818238185289
40
1
40
1
40
1
40
1
41
1
10
43.0734427331264
20
-6.59983935578754
30
0
41
1
10
42.9277354246228
20
-6.62487564244373
30
0
41
1
10
42.7818338032463
20
-6.6482895047682
30
0
41
1
10
42.4459357498331
20
-6.698321955533
30
0
41
1
10
42.2555145254735
20
-6.72383542777044
30
0
41
1
10
41.8756342714589
20
-6.76896771239103
30
0
41
1
10
41.686082909597
20
-6.78860971250722
30
0
41
1
10
41.1184018703899
20
-6.8388115499252
30
0
41
1
10
40.741242431829
20
-6.86064801917249
30
0
41
1
10
38.8594047020858
20
-6.91223683752128
30
0
41
1
10
37.3663706119698
20
-6.76935284411269
30
0
41
1
10
35.6644404423869
20
-6.40795485692965
30
0
41
1
10
35.4750130039505
20
-6.36501804714268
30
0
41
1
10
35.0954008600281
20
-6.27358946959137
30
0
41
1
10
34.9050173913049
20
-6.22503440596179
30
0
41
1
10
34.3345927486381
20
-6.0716227422935
30
0
41
1
10
33.9550359147255
20
-5.95901237291207
30
0
41
1
10
32.8169998688445
20
-5.59163372322067
30
0
41
1
10
32.059050992638
20
-5.30735949775868
30
0
41
1
10
29.7756018681994
20
-4.34788073540204
30
0
41
1
10
28.2793396388422
20
-3.58390080098093
30
0
41
1
10
26.0255361131603
20
-2.32352427484076
30
0
41
1
10
25.2726871777986
20
-1.88433163107248
30
0
41
1
10
24.1349368240415
20
-1.20587306911304
30
0
41
1
10
23.753578903465
20
-0.976013205492251
30
0
41
1
10
22.995515385582
20
-0.516637426028524
30
0
41
1
10
22.6178576408121
20
-0.286561200509112
30
0
41
1
10
20.7337179247147
20
0.861291865391593
30
0
41
1
10
19.2405382931202
20
1.77293781782993
30
0
41
1
10
17.35051943168
20
2.83626550539862
30
0
41
1
10
16.9711946998936
20
3.04527337731506
30
0
41
1
10
16.209941527275
20
3.45363218391972
30
0
41
1
10
15.8309797339169
20
3.65134350841032
30
0
41
1
10
14.697361672431
20
4.22311350291807
30
0
41
1
10
13.9461218125945
20
4.5760311455283
30
0
41
1
10
12.4444306921789
20
5.21606445139003
30
0
41
1
10
11.6940395283777
20
5.50325115751252
30
0
41
1
10
10.5630308418093
20
5.87778870222976
30
0
41
1
10
10.1851345138355
20
5.9932698082913
30
0
41
1
10
9.42652784589851
20
6.20429673772023
30
0
41
1
10
9.0451260614052
20
6.29993910455644
30
0
41
1
10
7.90592148108365
20
6.55282037197071
30
0
41
1
10
7.15026765469395
20
6.67712177163963
30
0
41
1
10
5.74716842196858
20
6.82306614737863
30
0
41
1
10
5.09978800116687
20
6.8569857256438
30
0
41
1
10
4.44966571047888
20
6.85666653028747
30
0
0
SPLINE
5
CE
100
AcDbEntity
8
1
62
256
6
ByLayer
370
18
48
1
60
0
100
AcDbSpline
70
4
71
3
72
10
73
6
40
0
40
0
40
0
40
0
40
0.5
40
0.5
40
1
40
1
40
1
40
1
41
1
10
4.12253729711114
20
-6.58487915683455
30
0
41
1
10
4.14206769123484
20
-6.57359554304989
30
0
41
1
10
4.16312121418605
20
-6.56506654220914
30
0
41
1
10
4.20601712972288
20
-6.55401392673301
30
0
41
1
10
4.22792217363732
20
-6.55137190023652
30
0
41
1
10
4.25028335215433
20
-6.55166911654888
30
0
0
SPLINE
5
CF
100
AcDbEntity
8
1
62
256
6
ByLayer
370
18
48
1
60
0
100
AcDbSpline
70
4
71
3
72
10
73
6
40
0
40
0
40
0
40
0
40
0.5
40
0.5
40
1
40
1
40
1
40
1
41
1
10
4.00000019932739
20
-6.79326804445216
30
0
41
1
10
4.00000019932739
20
-6.75341793426375
30
0
41
1
10
4.01065401219179
20
-6.71247272281303
30
0
41
1
10
4.05164124782482
20
-6.6404955422299
30
0
41
1
10
4.08252836217821
20
-6.60799417268399
30
0
41
1
10
4.12253729711114
20
-6.58487915683455
30
0
0
SPLINE
5
D0
100
AcDbEntity
8
1
62
256
6
ByLayer
370
13
48
1
60
0
100
AcDbSpline
70
4
71
3
72
10
73
6
40
0
40
0
40
0
40
0
40
0.5
40
0.5
40
1
40
1
40
1
40
1
41
1
10
4.00000019932742
20
-6.79326804445216
30
0
41
1
10
4.00000019932742
20
-6.77038850909955
30
0
41
1
10
4.01067333282401
20
-6.74685318362134
30
0
41
1
10
4.0516615146791
20
-6.7054127197616
30
0
41
1
10
4.08252558581574
20
-6.68666132713238
30
0
41
1
10
4.12253729711114
20
-6.67330024358941
30
0
0
SPLINE
5
D1
100
AcDbEntity
8
1
62
256
6
ByLayer
370
18
48
1
60
0
100
AcDbSpline
70
4
71
3
72
63
73
59
40
0
40
0
40
0
40
0
40
0.124999999999977
40
0.124999999999977
40
0.187499999999965
40
0.187499999999965
40
0.249999999999954
40
0.249999999999954
40
0.374999999999932
40
0.374999999999932
40
0.49999999999991
40
0.49999999999991
40
0.562499999999898
40
0.562499999999898
40
0.624999999999887
40
0.624999999999887
40
0.687499999999875
40
0.687499999999875
40
0.703124999999873
40
0.703124999999873
40
0.705078124999873
40
0.705078124999873
40
0.707031249999873
40
0.707031249999873
40
0.710937499999874
40
0.710937499999874
40
0.712890624999875
40
0.712890624999875
40
0.714843749999876
40
0.718749999999877
40
0.718749999999877
40
0.734374999999883
40
0.734374999999883
40
0.749999999999889
40
0.749999999999889
40
0.781249999999902
40
0.781249999999902
40
0.789062499999906
40
0.789062499999906
40
0.796874999999909
40
0.796874999999909
40
0.812499999999916
40
0.812499999999916
40
0.84374999999993
40
0.84374999999993
40
0.874999999999944
40
0.874999999999944
40
0.890624999999951
40
0.890624999999951
40
0.906249999999959
40
0.906249999999959
40
0.921874999999966
40
0.921874999999966
40
0.937499999999973
40
0.937499999999973
40
0.968749999999986
40
0.968749999999986
40
1
40
1
40
1
40
1
41
1
10
18.8012076088357
20
1.4508323563081
30
0
41
1
10
17.9776874203459
20
1.94304805105756
30
0
41
1
10
17.1455412512324
20
2.40391699097645
30
0
41
1
10
15.8747146837079
20
3.03808385164393
30
0
41
1
10
15.4490271809944
20
3.23894669304954
30
0
41
1
10
14.5939320582623
20
3.61709484865568
30
0
41
1
10
14.1641724262268
20
3.79454216534879
30
0
41
1
10
12.8656802013389
20
4.29051126892546
30
0
41
1
10
11.9876027589518
20
4.5722638697838
30
0
41
1
10
10.1950021326559
20
5.03862216824032
30
0
41
1
10
9.28049021279048
20
5.22346840471883
30
0
41
1
10
7.87566047573836
20
5.43558418950309
30
0
41
1
10
7.4011539016455
20
5.49552040442299
30
0
41
1
10
6.44857275221682
20
5.59431529634597
30
0
41
1
10
5.96927431105138
20
5.6333725255835
30
0
41
1
10
5.00718296819304
20
5.69197992351511
30
0
41
1
10
4.52487776812933
20
5.71153819290922
30
0
41
1
10
3.92034448908348
20
5.7240625000106
30
0
41
1
10
3.7993392418644
20
5.72596731500386
30
0
41
1
10
3.6632072885705
20
5.72742873100492
30
0
41
1
10
3.64808557545291
20
5.7277284792342
30
0
41
1
10
3.61781275872218
20
5.72733326660628
30
0
41
1
10
3.60260464410692
20
5.72666749441638
30
0
41
1
10
3.55790519684976
20
5.72310383631003
30
0
41
1
10
3.52879237604608
20
5.71884190401241
30
0
41
1
10
3.48831856555734
20
5.70685922018734
30
0
41
1
10
3.476094858257
20
5.70187897504042
30
0
41
1
10
3.45097528329822
20
5.69240771933943
30
0
41
1
10
3.41340060640078
20
5.67808090330635
30
0
41
1
10
3.37614591158061
20
5.66338571190445
30
0
41
1
10
3.25270315932906
20
5.61354197881161
30
0
41
1
10
3.15603946598395
20
5.57079601614109
30
0
41
1
10
2.96982664458457
20
5.47929526722399
30
0
41
1
10
2.88032197631418
20
5.43059434788557
30
0
41
1
10
2.62441681849134
20
5.27377948724728
30
0
41
1
10
2.47018053238153
20
5.155400007775
30
0
41
1
10
2.30842074432096
20
4.97936409540054
30
0
41
1
10
2.27771495079969
20
4.94273883067987
30
0
41
1
10
2.22092153172127
20
4.86768753176275
30
0
41
1
10
2.19468462061133
20
4.82910678481474
30
0
41
1
10
2.12281148808353
20
4.70996167867722
30
0
41
1
10
2.08398843472111
20
4.62600920530747
30
0
41
1
10
1.99841514862638
20
4.35823427467207
30
0
41
1
10
1.98621344490451
20
4.1685704499501
30
0
41
1
10
2.0440640344917
20
3.77238927946195
30
0
41
1
10
2.11155519663765
20
3.57642093657219
30
0
41
1
10
2.2526241428356
20
3.283610408144
30
0
41
1
10
2.30615182592786
20
3.18687329745566
30
0
41
1
10
2.42184731751692
20
2.99770387932293
30
0
41
1
10
2.48428001582667
20
2.90474198652561
30
0
41
1
10
2.61653993583286
20
2.72133600476843
30
0
41
1
10
2.68637566355946
20
2.63089543681892
30
0
41
1
10
2.83220646009954
20
2.45202462651162
30
0
41
1
10
2.90841998841287
20
2.36336192818902
30
0
41
1
10
3.14328702387053
20
2.10163329976373
30
0
41
1
10
3.30748719323503
20
1.93329406485748
30
0
41
1
10
3.64643210061308
20
1.60484159480157
30
0
41
1
10
3.82122746923173
20
1.44477209111244
30
0
41
1
10
4.00000019932875
20
1.28769027188247
30
0
0
SPLINE
5
D2
100
AcDbEntity
8
1
62
256
6
ByLayer
370
18
48
1
60
0
100
AcDbSpline
70
4
71
3
72
26
73
22
40
0
40
0
40
0
40
0
40
0.124999999999998
40
0.124999999999998
40
0.187499999999997
40
0.187499999999997
40
0.249999999999996
40
0.249999999999996
40
0.499999999999997
40
0.499999999999997
40
0.562499999999997
40
0.562499999999997
40
0.624999999999998
40
0.624999999999998
40
0.749999999999999
40
0.749999999999999
40
0.874999999999999
40
0.874999999999999
40
0.9375
40
0.9375
40
1
40
1
40
1
40
1
41
1
10
76.5981805097281
20
-6.5989448151139
30
0
41
1
10
76.5023640024443
20
-6.59887091243485
30
0
41
1
10
76.4111557527045
20
-6.58490305190162
30
0
41
1
10
76.2815973318768
20
-6.54208049386457
30
0
41
1
10
76.2396231519252
20
-6.52415223133721
30
0
41
1
10
76.1581965594343
20
-6.48069254395756
30
0
41
1
10
76.1186175829603
20
-6.45504631137479
30
0
41
1
10
75.9296265121764
20
-6.30875220962537
30
0
41
1
10
75.8055048372642
20
-6.13466494327997
30
0
41
1
10
75.6858381992511
20
-5.84227095802888
30
0
41
1
10
75.663702349798
20
-5.78000401100417
30
0
41
1
10
75.6231688011895
20
-5.64759203845926
30
0
41
1
10
75.6047293978168
20
-5.57718212875452
30
0
41
1
10
75.556009874916
20
-5.35713851613906
30
0
41
1
10
75.5320059867105
20
-5.1980111725903
30
0
41
1
10
75.500683471884
20
-4.85528390691439
30
0
41
1
10
75.493364195802
20
-4.67168493736355
30
0
41
1
10
75.4952510288122
20
-4.37741605621832
30
0
41
1
10
75.4980435404136
20
-4.27591387127353
30
0
41
1
10
75.5080009225806
20
-4.06761526201393
30
0
41
1
10
75.515133902834
20
-3.9612537472145
30
0
41
1
10
75.5243860623195
20
-3.85271607616178
30
0
0
SPLINE
5
D3
100
AcDbEntity
8
1
62
256
6
ByLayer
370
13
48
1
60
0
100
AcDbSpline
70
4
71
3
72
8
73
4
40
0
40
0
40
0
40
0
40
1
40
1
40
1
40
1
41
1
10
4.11998560531333
20
-6.85357007619498
30
0
41
1
10
4.12082708394598
20
-6.79348031229506
30
0
41
1
10
4.12167762191189
20
-6.73339037010913
30
0
41
1
10
4.12253729711108
20
-6.67330024358938
30
0
0
SPLINE
5
D4
100
AcDbEntity
8
1
62
256
6
ByLayer
370
18
48
1
60
0
100
AcDbSpline
70
4
71
3
72
46
73
42
40
0
40
0
40
0
40
0
40
0.0900092581279178
40
0.0900092581279178
40
0.135013887191877
40
0.135013887191877
40
0.180018516255836
40
0.180018516255836
40
0.225023145319794
40
0.225023145319794
40
0.270027774383753
40
0.270027774383753
40
0.360037032511673
40
0.360037032511673
40
0.382539347043652
40
0.382539347043652
40
0.405041661575631
40
0.405041661575631
40
0.450046290639592
40
0.450046290639592
40
0.495050919703552
40
0.495050919703552
40
0.540055548767513
40
0.540055548767513
40
0.585060177831473
40
0.585060177831473
40
0.630064806895434
40
0.630064806895434
40
0.720074065023353
40
0.720074065023353
40
0.765078694087314
40
0.765078694087314
40
0.810083323151274
40
0.810083323151274
40
0.855087952215235
40
0.855087952215235
40
0.900092581279195
40
0.900092581279195
40
0.990101839407116
40
0.990101839407116
40
1
40
1
40
1
40
1
41
1
10
18.8012165281085
20
1.45087739279421
30
0
41
1
10
19.4091349116037
20
1.08626879246805
30
0
41
1
10
20.0154059716372
20
0.722337492324272
30
0
41
1
10
20.9197216269182
20
0.17272980322511
30
0
41
1
10
21.2199615622055
20
-0.0116678396751695
30
0
41
1
10
21.8204849153483
20
-0.378741373234078
30
0
41
1
10
22.1210610742674
20
-0.560934535278705
30
0
41
1
10
22.7221788546272
20
-0.923770735981719
30
0
41
1
10
23.0227520657675
20
-1.10436056561406
30
0
41
1
10
23.6235609713471
20
-1.46446819750034
30
0
41
1
10
23.9234921707382
20
-1.64447763428512
30
0
41
1
10
24.8270549256964
20
-2.17585507391013
30
0
41
1
10
25.4329907164217
20
-2.52102967606845
30
0
41
1
10
26.1929563525388
20
-2.94406591458653
30
0
41
1
10
26.3448604242303
20
-3.02819450310474
30
0
41
1
10
26.6482325528963
20
-3.19378279334336
30
0
41
1
10
26.7998347875106
20
-3.27535278386097
30
0
41
1
10
27.2542135150672
20
-3.51674506513078
30
0
41
1
10
27.5565719371992
20
-3.67324335472216
30
0
41
1
10
28.1597910320068
20
-3.9780884890184
30
0
41
1
10
28.4605590638126
20
-4.12655525608258
30
0
41
1
10
29.0606496235778
20
-4.41514140547182
30
0
41
1
10
29.3608641724741
20
-4.5540920325646
30
0
41
1
10
29.9617363370299
20
-4.8214119637648
30
0
41
1
10
30.26228187477
20
-4.94992513486696
30
0
41
1
10
30.8632172222461
20
-5.19704025995722
30
0
41
1
10
31.1632648835991
20
-5.31598912601206
30
0
41
1
10
32.0654207035819
20
-5.6551760124247
30
0
41
1
10
32.6709887224766
20
-5.85661603264762
30
0
41
1
10
33.5827833909962
20
-6.12362421829175
30
0
41
1
10
33.8864096953413
20
-6.20666608242198
30
0
41
1
10
34.4921569183337
20
-6.35716512819653
30
0
41
1
10
34.7945864926575
20
-6.42512588957365
30
0
41
1
10
35.3981021519876
20
-6.54710660167356
30
0
41
1
10
35.6992048776687
20
-6.60111415498514
30
0
41
1
10
36.2997100207543
20
-6.69525258219264
30
0
41
1
10
36.5993532089984
20
-6.7352173008457
30
0
41
1
10
37.5001772036734
20
-6.83279426905702
30
0
41
1
10
38.101367698192
20
-6.86909394154372
30
0
41
1
10
38.7682199271926
20
-6.87686896853651
30
0
41
1
10
38.834334047661
20
-6.87728338540026
30
0
41
1
10
38.9004938095599
20
-6.87734131617756
30
0
0
SPLINE
5
D5
100
AcDbEntity
8
1
62
256
6
ByLayer
370
18
48
1
60
0
100
AcDbSpline
70
4
71
3
72
28
73
24
40
0
40
0
40
0
40
0
40
0.0712599166556347
40
0.0712599166556347
40
0.155690833323305
40
0.155690833323305
40
0.240121749990976
40
0.240121749990976
40
0.324552666658646
40
0.324552666658646
40
0.408983583326316
40
0.408983583326316
40
0.493414499993986
40
0.493414499993986
40
0.662276333329324
40
0.662276333329324
40
0.746707249996993
40
0.746707249996993
40
0.831138166664662
40
0.831138166664662
40
0.915569083332331
40
0.915569083332331
40
1
40
1
40
1
40
1
41
1
10
65.9813474557116
20
5.09390446106983
30
0
41
1
10
66.234271719262
20
5.19868237669843
30
0
41
1
10
66.4868690164341
20
5.29975830259588
30
0
41
1
10
67.0400335866293
20
5.51040420873144
30
0
41
1
10
67.3403769386957
20
5.61862732734642
30
0
41
1
10
67.9413819849501
20
5.82346728431367
30
0
41
1
10
68.2420329847545
20
5.92009242647828
30
0
41
1
10
68.8433705029461
20
6.10166083960289
30
0
41
1
10
69.1447937773695
20
6.18596988121976
30
0
41
1
10
69.7502145613062
20
6.34085707065441
30
0
41
1
10
70.0543725750188
20
6.41173409519598
30
0
41
1
10
70.6625523892802
20
6.53977766847234
30
0
41
1
10
70.9651192673481
20
6.59680993917104
30
0
41
1
10
71.8701656422276
20
6.74596300710172
30
0
41
1
10
72.4728479258743
20
6.81528333352818
30
0
41
1
10
73.3731149324914
20
6.87639092281648
30
0
41
1
10
73.6721988279286
20
6.88953482415107
30
0
41
1
10
74.2715434278767
20
6.90096288365277
30
0
41
1
10
74.5717277681868
20
6.89933397056072
30
0
41
1
10
75.1725499609367
20
6.88152133289421
30
0
41
1
10
75.4732126510655
20
6.86533581803607
30
0
41
1
10
76.0746798417431
20
6.81804162878575
30
0
41
1
10
76.3753804343317
20
6.78682757082888
30
0
41
1
10
76.6776618876668
20
6.74845590633723
30
0
0
LINE
5
76
100
AcDbEntity
8
81
62
256
6
ByLayer
370
18
48
1
60
0
100
AcDbLine
10
79
20
0
30
0
11
84
21
0
31
0
39
0
210
0
220
0
230
1
0
LINE
5
77
100
AcDbEntity
8
1
62
256
6
ByLayer
370
18
48
1
60
0
100
AcDbLine
10
4.447311
20
6.856662
30
0
11
0.8
21
6.854473
31
0
39
0
210
0
220
0
230
1
0
LINE
5
79
100
AcDbEntity
8
1
62
256
6
ByLayer
370
18
48
1
60
0
100
AcDbLine
10
75.248283
20
6.899142
30
0
11
74.313737
21
6.898582
31
0
39
0
210
0
220
0
230
1
0
LINE
5
7A
100
AcDbEntity
8
1
62
256
6
ByLayer
370
18
48
1
60
0
100
AcDbLine
10
74.313737
20
-6.898582
30
0
11
75.247867
21
-6.899142
31
0
39
0
210
0
220
0
230
1
0
LINE
5
7B
100
AcDbEntity
8
1
62
256
6
ByLayer
370
18
48
1
60
0
100
AcDbLine
10
0.8
20
-6.854473
30
0
11
4.447322
21
-6.856662
31
0
39
0
210
0
220
0
230
1
0
LINE
5
7C
100
AcDbEntity
8
1
62
256
6
ByLayer
370
18
48
1
60
0
100
AcDbLine
10
0
20
-7
30
0
11
0.8
21
-6.854473
31
0
39
0
210
0
220
0
230
1
0
LINE
5
7D
100
AcDbEntity
8
1
62
256
6
ByLayer
370
18
48
1
60
0
100
AcDbLine
10
0.8
20
6.854473
30
0
11
0
21
7
31
0
39
0
210
0
220
0
230
1
0
LINE
5
7E
100
AcDbEntity
8
SK1
62
256
6
ByLayer
370
18
48
1
60
0
100
AcDbLine
10
0
20
7
30
0
11
-43.267949
21
7
31
0
39
0
210
0
220
0
230
1
0
LINE
5
80
100
AcDbEntity
8
SK1
62
256
6
ByLayer
370
18
48
1
60
0
100
AcDbLine
10
-43.267949
20
-7
30
0
11
0
21
-7
31
0
39
0
210
0
220
0
230
1
0
LINE
5
81
100
AcDbEntity
8
SK1
62
256
6
ByLayer
370
18
48
1
60
0
100
AcDbLine
10
-43.267949
20
7
30
0
11
-45
21
4
31
0
39
0
210
0
220
0
230
1
0
LINE
5
82
100
AcDbEntity
8
SK1
62
256
6
ByLayer
370
18
48
1
60
0
100
AcDbLine
10
-45
20
-4
30
0
11
-43.267949
21
-7
31
0
39
0
210
0
220
0
230
1
0
LINE
5
83
100
AcDbEntity
8
1
62
256
6
ByLayer
370
18
48
1
60
0
100
AcDbLine
10
39.847923
20
6.877902
30
0
11
38.903899
21
6.877336
31
0
39
0
210
0
220
0
230
1
0
LINE
5
84
100
AcDbEntity
8
1
62
256
6
ByLayer
370
18
48
1
60
0
100
AcDbLine
10
38.903899
20
-6.877336
30
0
11
39.847735
21
-6.877902
31
0
39
0
210
0
220
0
230
1
0
LINE
5
85
100
AcDbEntity
8
SK4
62
256
6
ByLayer
370
18
48
0.05
60
0
100
AcDbLine
10
84
20
0
30
0
11
-50
21
0
31
0
39
0
210
0
220
0
230
1
0
LINE
5
87
100
AcDbEntity
8
4
62
256
6
ByLayer
370
18
48
0.05
60
0
100
AcDbLine
10
79
20
0
30
0
11
0
21
0
31
0
39
0
210
0
220
0
230
1
0
LINE
5
89
100
AcDbEntity
8
80
62
256
6
ByLayer
370
18
48
1
60
0
100
AcDbLine
10
0
20
0
30
0
11
-5
21
0
31
0
39
0
210
0
220
0
230
1
0
LINE
5
8A
100
AcDbEntity
8
1
62
256
6
ByLayer
370
18
48
1
60
0
100
AcDbLine
10
0.8
20
6.854473
30
0
11
0.8
21
-6.854473
31
0
39
0
210
0
220
0
230
1
0
LINE
5
8B
100
AcDbEntity
8
1
62
256
6
ByLayer
370
18
48
1
60
0
100
AcDbLine
10
79
20
0
30
0
11
78.985455
21
-0.065253
31
0
39
0
210
0
220
0
230
1
0
LINE
5
8C
100
AcDbEntity
8
1
62
256
6
ByLayer
370
18
48
1
60
0
100
AcDbLine
10
0
20
-7
30
0
11
0
21
7
31
0
39
0
210
0
220
0
230
1
0
LINE
5
8D
100
AcDbEntity
8
1
62
256
6
ByLayer
370
18
48
1
60
0
100
AcDbLine
10
78.904715
20
-0.327471
30
0
11
78.674397
21
-1.177772
31
0
39
0
210
0
220
0
230
1
0
LINE
5
8E
100
AcDbEntity
8
1
62
256
6
ByLayer
370
18
48
1
60
0
100
AcDbLine
10
78.985455
20
0.065253
30
0
11
79
21
0
31
0
39
0
210
0
220
0
230
1
0
LINE
5
8F
100
AcDbEntity
8
1
62
256
6
ByLayer
370
13
48
1
60
0
100
AcDbLine
10
78.674397
20
1.177772
30
0
11
77.187358
21
1.177772
31
0
39
0
210
0
220
0
230
1
0
LINE
5
90
100
AcDbEntity
8
1
62
256
6
ByLayer
370
18
48
1
60
0
100
AcDbLine
10
75.524386
20
-3.852716
30
0
11
78.893871
21
-0.097486
31
0
39
0
210
0
220
0
230
1
0
LINE
5
91
100
AcDbEntity
8
1
62
256
6
ByLayer
370
18
48
1
60
0
100
AcDbLine
10
78.904715
20
0.327471
30
0
11
78.674397
21
1.177772
31
0
39
0
210
0
220
0
230
1
0
LINE
5
92
100
AcDbEntity
8
1
62
256
6
ByLayer
370
18
48
1
60
0
100
AcDbLine
10
4
20
-6.843969
30
0
11
4
21
1.28769
31
0
39
0
210
0
220
0
230
1
0
LINE
5
93
100
AcDbEntity
8
1
62
256
6
ByLayer
370
18
48
1
60
0
100
AcDbLine
10
79
20
0
30
0
11
76.598181
21
-6.598945
31
0
39
0
210
0
220
0
230
1
0
LINE
5
94
100
AcDbEntity
8
1
62
256
6
ByLayer
370
13
48
1
60
0
100
AcDbLine
10
77.0179
20
0.831348
30
0
11
78.893871
21
-0.097486
31
0
39
0
210
0
220
0
230
1
0
LINE
5
95
100
AcDbEntity
8
1
62
256
6
ByLayer
370
13
48
1
60
0
100
AcDbLine
10
77.187358
20
1.177772
30
0
11
78.904715
21
0.327471
31
0
39
0
210
0
220
0
230
1
0
LINE
5
96
100
AcDbEntity
8
SK1
62
256
6
ByLayer
370
18
48
1
60
0
100
AcDbLine
10
0
20
-7
30
0
11
0
21
7
31
0
39
0
210
0
220
0
230
1
0
LINE
5
97
100
AcDbEntity
8
SK1
62
256
6
ByLayer
370
18
48
1
60
0
100
AcDbLine
10
-43.267949
20
7
30
0
11
-43.267949
21
-7
31
0
39
0
210
0
220
0
230
1
0
LINE
5
98
100
AcDbEntity
8
SK1
62
256
6
ByLayer
370
18
48
1
60
0
100
AcDbLine
10
-45
20
4
30
0
11
-45
21
-4
31
0
39
0
210
0
220
0
230
1
0
MTEXT
5
D6
100
AcDbEntity
8
SK6
62
256
6
ByLayer
370
13
48
1
60
0
100
AcDbMText
10
19.129169
20
39.282694
30
0
210
0
220
0
230
1
1
\W0.7542;R840-1380-50-A0A1220
40
3.5
41
0
44
1.084337
50
0
71
8
72
5
7
iso_b_vert
0
DIMENSION
5
E3
100
AcDbEntity
8
SK2
62
256
6
ByLayer
370
13
48
1
60
0
100
AcDbDimension
2
DimnDraft3D1
10
76.63
20
-17.113398
30
0
11
36.380059
21
-17.113398
31
0
70
32
71
5
72
1
41
1
210
0
220
0
230
1
3
Standard
100
AcDbAlignedDimension
13
0
23
-1.5875
33
0
14
76.63
24
-8.4875
34
0
50
0
100
AcDbRotatedDimension
1001
ACAD
1000
DSTYLE
1002
{
1070
   279
1070
     0
1070
   172
1070
     1
1070
   173
1070
     1
1070
   340
1005
D7
1070
   271
1070
     2
1070
   272
1070
     2
1070
    77
1070
     1
1070
    73
1070
     0
1070
   171
1070
     3
1070
   274
1070
     4
1070
   177
1070
    35
1070
   176
1070
    35
1070
   178
1070
    35
1070
    48
1040
-0.005
1070
    41
1041
3.5
1070
   147
1041
1.75
1070
    42
1041
1.5875
1070
    44
1041
2.0
1070
   140
1041
3.5
1070
   343
1005
0
1070
   344
1005
0
1002
}
0
DIMENSION
5
ED
100
AcDbEntity
8
SK2
62
256
6
ByLayer
370
13
48
1
60
0
100
AcDbDimension
2
DimnDraft3D2
10
79
20
-35.692985
30
0
11
15.9713
21
-35.692985
31
0
70
32
71
5
72
1
41
1
210
0
220
0
230
1
3
Standard
100
AcDbAlignedDimension
13
-45
23
-8.5875
33
0
14
79
24
-1.5875
34
0
50
0
100
AcDbRotatedDimension
1001
ACAD
1000
DSTYLE
1002
{
1070
   279
1070
     0
1070
   172
1070
     1
1070
   173
1070
     1
1070
   340
1005
D7
1070
   271
1070
     2
1070
   272
1070
     2
1070
    77
1070
     1
1070
    73
1070
     0
1070
   171
1070
     3
1070
   274
1070
     4
1070
   177
1070
    35
1070
   176
1070
    35
1070
   178
1070
    35
1070
    48
1040
-0.005
1070
    41
1041
3.5
1070
   147
1041
1.75
1070
    42
1041
1.5875
1070
    44
1041
2.0
1070
   140
1041
3.5
1070
   343
1005
0
1070
   344
1005
0
1002
}
0
DIMENSION
5
F7
100
AcDbEntity
8
SK2
62
256
6
ByLayer
370
13
48
1
60
0
100
AcDbDimension
2
DimnDraft3D3
10
79
20
18.509119
30
0
11
43.315
21
18.509119
31
0
70
32
71
5
72
1
41
1
210
0
220
0
230
1
3
Standard
100
AcDbAlignedDimension
13
7.63
23
8.4875
33
0
14
79
24
1.5875
34
0
50
0
100
AcDbRotatedDimension
1001
ACAD
1000
DSTYLE
1002
{
1070
   279
1070
     0
1070
   172
1070
     1
1070
   173
1070
     1
1070
   340
1005
D7
1070
   271
1070
     2
1070
   272
1070
     2
1070
    77
1070
     1
1070
    73
1070
     0
1070
   171
1070
     3
1070
   274
1070
     4
1070
   177
1070
    35
1070
   176
1070
    35
1070
   178
1070
    35
1070
    48
1040
-0.005
1070
    41
1041
3.5
1070
   147
1041
1.75
1070
    42
1041
1.5875
1070
    44
1041
2.0
1070
   140
1041
3.5
1070
   343
1005
0
1070
   344
1005
0
1002
}
0
DIMENSION
5
101
100
AcDbEntity
8
SK2
62
256
6
ByLayer
370
13
48
1
60
0
100
AcDbDimension
2
DimnDraft3D4
10
76.63
20
-19.702503
30
0
11
88.981425
21
-19.702503
31
0
70
32
71
5
72
1
41
1
210
0
220
0
230
1
3
Standard
100
AcDbAlignedDimension
13
79
23
-1.5875
33
0
14
76.63
24
-8.4875
34
0
50
0
100
AcDbRotatedDimension
1001
ACAD
1000
DSTYLE
1002
{
1070
   279
1070
     0
1070
   172
1070
     1
1070
   173
1070
     1
1070
   340
1005
D7
1070
   271
1070
     2
1070
   272
1070
     2
1070
    77
1070
     1
1070
    73
1070
     0
1070
   171
1070
     3
1070
   274
1070
     4
1070
   177
1070
    35
1070
   176
1070
    35
1070
   178
1070
    35
1070
    48
1040
-0.005
1070
    41
1041
3.5
1070
   147
1041
1.75
1070
    42
1041
1.5875
1070
    44
1041
2.0
1070
   140
1041
3.5
1070
   343
1005
0
1070
   344
1005
0
1002
}
0
DIMENSION
5
10B
100
AcDbEntity
8
SK2
62
256
6
ByLayer
370
13
48
1
60
0
100
AcDbDimension
2
DimnDraft3D5
10
76.63
20
-25.343428
30
0
11
12.890676
21
-25.343428
31
0
70
32
71
5
72
1
41
1
210
0
220
0
230
1
3
Standard
100
AcDbAlignedDimension
13
-45
23
-8.5875
33
0
14
76.63
24
-8.4875
34
0
50
0
100
AcDbRotatedDimension
1001
ACAD
1000
DSTYLE
1002
{
1070
   279
1070
     0
1070
   172
1070
     1
1070
   173
1070
     1
1070
   340
1005
D7
1070
   271
1070
     2
1070
   272
1070
     2
1070
    77
1070
     1
1070
    73
1070
     0
1070
   171
1070
     3
1070
   274
1070
     4
1070
   177
1070
    35
1070
   176
1070
    35
1070
   178
1070
    35
1070
    48
1040
-0.005
1070
    41
1041
3.5
1070
   147
1041
1.75
1070
    42
1041
1.5875
1070
    44
1041
2.0
1070
   140
1041
3.5
1070
   343
1005
0
1070
   344
1005
0
1002
}
0
DIMENSION
5
116
100
AcDbEntity
8
SK2
62
256
6
ByLayer
370
13
48
1
60
0
100
AcDbDimension
2
DimnDraft3D6
10
-55.625163
20
7
30
0
11
-56.250163
21
25.47418
31
0
70
33
71
5
72
1
41
1
210
0
220
0
230
1
3
Standard
100
AcDbAlignedDimension
13
-46.5875
23
-7
33
0
14
-46.5875
24
7
34
0
1001
ACAD
1000
DSTYLE
1002
{
1070
   279
1070
     0
1070
    74
1070
     0
1070
   173
1070
     1
1070
   340
1005
D7
1070
   271
1070
     3
1070
   272
1070
     2
1070
    77
1070
     1
1070
    73
1070
     0
1070
   171
1070
     3
1070
   274
1070
     4
1070
   177
1070
    35
1070
   176
1070
    35
1070
   178
1070
    35
1070
    48
1040
-0.005
1070
    41
1041
3.5
1070
   147
1041
1.75
1070
    42
1041
1.5875
1070
    44
1041
2.0
1070
   140
1041
3.5
1070
   343
1005
0
1070
   344
1005
0
1002
}
0
DIMENSION
5
121
100
AcDbEntity
8
2
62
256
6
ByLayer
370
13
48
1
60
0
100
AcDbDimension
2
DimnDraft3D7
10
93.083343
20
6.9
30
0
11
88.458343
21
23.967266
31
0
70
33
71
5
72
1
41
1
210
0
220
0
230
1
3
Standard
100
AcDbAlignedDimension
13
78.2175
23
-6.9
33
0
14
78.2175
24
6.9
34
0
1001
ACAD
1000
DSTYLE
1002
{
1070
   279
1070
     0
1070
    74
1070
     0
1070
   173
1070
     1
1070
   340
1005
D7
1070
   271
1070
     3
1070
   272
1070
     2
1070
    77
1070
     1
1070
    73
1070
     0
1070
   171
1070
     3
1070
   274
1070
     4
1070
   177
1070
    35
1070
   176
1070
    35
1070
   178
1070
    35
1070
    48
1040
-0.005
1070
    41
1041
3.5
1070
   147
1041
1.75
1070
    42
1041
1.5875
1070
    44
1041
2.0
1070
   140
1041
3.5
1070
   343
1005
0
1070
   344
1005
0
1002
}
0
ENDSEC
0
SECTION
2
OBJECTS
0
DICTIONARY
5
18c
330
0
100
AcDbDictionary
280
0
281
1
3
ACAD_GROUP
350
18d
3
ACAD_MLINESTYLE
350
18e
0
DICTIONARY
5
18d
330
0
100
AcDbDictionary
280
0
281
1
0
DICTIONARY
5
18e
330
0
100
AcDbDictionary
280
0
281
1
3
Standard
350
18
0
MLINESTYLE
5
18
330
18e
100
AcDbMlineStyle
2
Standard
70
0
3

62
256
51
90
52
90
71
2
49
-0.5
62
256
6
ByLayer
49
0.5
62
256
6
ByLayer
0
RASTERVARIABLES
5
17a
330

100
AcDbRasterVariables
90
0
70
1
71
1
72
1
0
ENDSEC
0
EOF
