0
SECTION
2
HEADER
9
$ACADVER
1
AC1015
9
$DWGCODEPAGE
3
ANSI_1252
9
$HANDSEED
5
1a3
9
$ANGBASE
50
0
9
$ANGDIR
70
0
9
$ATTMODE
70
1
9
$AUNITS
70
0
9
$AUPREC
70
0
9
$CECOLOR
62
256
9
$CELTSCALE
40
1
9
$CELTYPE
6
ByLayer
9
$CELWEIGHT
370
18
9
$CLAYER
8
0
9
$CMLJUST
70
0
9
$CMLSCALE
40
1
9
$CMLSTYLE
2
Standard
9
$DIMSTYLE
2
Standard
9
$TEXTSIZE
40
0.2
9
$TEXTSTYLE
7
Standard
9
$LUNITS
70
2
9
$LUPREC
70
4
9
$EXTNAMES
290
1
9
$INSUNITS
70
4
9
$LTSCALE
40
1
9
$LWDISPLAY
290
1
9
$PDMODE
70
0
9
$PDSIZE
40
0
9
$PLINEGEN
70
0
0
ENDSEC
0
SECTION
2
CLASSES
0
CLASS
1
RASTERVARIABLES
2
AcDbRasterVariables
3
ISM
90
0
280
0
281
0
0
ENDSEC
0
SECTION
2
TABLES
0
TABLE
2
VPORT
5
199
100
AcDbSymbolTable
0
VPORT
5
1
100
AcDbSymbolTableRecord
100
AcDbViewportTableRecord
2
*Active
70
0
10
0
20
0
11
1
21
1
12
-1
22
1
13
0
23
0
14
0.5
24
0.5
15
10
25
10
16
0
26
0
36
1
17
0
27
0
37
0
0
ENDTAB
0
TABLE
2
LTYPE
5
19a
100
AcDbSymbolTable
0
LTYPE
5
14
100
AcDbSymbolTableRecord
100
AcDbLinetypeTableRecord
70
0
2
ByBlock
3

72
65
73
0
40
0
0
LTYPE
5
15
100
AcDbSymbolTableRecord
100
AcDbLinetypeTableRecord
70
0
2
ByLayer
3

72
65
73
0
40
0
0
LTYPE
5
16
100
AcDbSymbolTableRecord
100
AcDbLinetypeTableRecord
70
0
2
CONTINUOUS
3
Solid line
72
65
73
0
40
0
0
LTYPE
5
6A
100
AcDbSymbolTableRecord
100
AcDbLinetypeTableRecord
70
0
2
CENTER
3
____ _ ____ _ ____ _ ____
72
65
73
4
40
47.5
49
22
74
0
49
-8.5
74
0
49
8.5
74
0
49
-8.5
74
0
0
LTYPE
5
6B
100
AcDbSymbolTableRecord
100
AcDbLinetypeTableRecord
70
0
2
DASHED
3
__ __ __ __ __ __ __ __ __
72
65
73
2
40
25.72
49
12.86
74
0
49
-12.86
74
0
0
ENDTAB
0
TABLE
2
LAYER
5
19b
100
AcDbSymbolTable
0
LAYER
5
10
100
AcDbSymbolTableRecord
100
AcDbLayerTableRecord
2
0
70
0
62
7
6
CONTINUOUS
290
1
370
-3
390
0
0
LAYER
5
6D
100
AcDbSymbolTableRecord
100
AcDbLayerTableRecord
2
81
70
0
62
-3
6
CONTINUOUS
290
1
370
-3
390
0
0
LAYER
5
6F
100
AcDbSymbolTableRecord
100
AcDbLayerTableRecord
2
80
70
0
62
-6
6
CONTINUOUS
290
1
370
-3
390
0
0
LAYER
5
74
100
AcDbSymbolTableRecord
100
AcDbLayerTableRecord
2
2
70
0
62
7
6
CONTINUOUS
290
1
370
-3
390
0
0
LAYER
5
78
100
AcDbSymbolTableRecord
100
AcDbLayerTableRecord
2
1
70
0
62
4
6
CONTINUOUS
290
1
370
-3
390
0
0
LAYER
5
88
100
AcDbSymbolTableRecord
100
AcDbLayerTableRecord
2
4
70
0
62
-2
6
CENTER
290
1
370
-3
390
0
0
LAYER
5
185
100
AcDbSymbolTableRecord
100
AcDbLayerTableRecord
2
SK2
70
0
62
7
6
CONTINUOUS
290
1
370
-3
390
0
0
LAYER
5
186
100
AcDbSymbolTableRecord
100
AcDbLayerTableRecord
2
SK1
70
0
62
4
6
CONTINUOUS
290
1
370
-3
390
0
0
LAYER
5
187
100
AcDbSymbolTableRecord
100
AcDbLayerTableRecord
2
SK4
70
0
62
2
6
CENTER
290
1
370
-3
390
0
0
LAYER
5
188
100
AcDbSymbolTableRecord
100
AcDbLayerTableRecord
2
SK6
70
0
62
5
6
CONTINUOUS
290
1
370
-3
390
0
0
ENDTAB
0
TABLE
2
STYLE
5
19c
100
AcDbSymbolTable
0
STYLE
5
11
100
AcDbSymbolTableRecord
100
AcDbTextStyleTableRecord
2
Standard
3
txt
70
0
71
0
40
0
41
1
42
0
50
0
0
STYLE
5
E1
100
AcDbSymbolTableRecord
100
AcDbTextStyleTableRecord
2
iso_b_vert
3
simplex.shx
70
0
71
0
40
0
41
1
42
0
50
0
0
STYLE
5
E2
100
AcDbSymbolTableRecord
100
AcDbTextStyleTableRecord
2
DWGDirectTextStyle
3
simplex
70
0
71
0
40
0
41
1
42
0
50
0
0
ENDTAB
0
TABLE
2
DIMSTYLE
5
19d
100
AcDbSymbolTable
100
AcDbDimStyleTable
0
DIMSTYLE
105
27
100
AcDbSymbolTableRecord
100
AcDbDimStyleTableRecord
2
Standard
70
0
3
<>
41
0.18
42
0.0625
44
0.18
140
0.18
147
0.09
73
0
74
0
77
1
271
2
275
0
278
52
280
0
340
11
0
ENDTAB
0
TABLE
2
VIEW
5
19e
100
AcDbSymbolTable
0
ENDTAB
0
TABLE
2
UCS
5
19f
100
AcDbSymbolTable
0
ENDTAB
0
TABLE
2
APPID
5
1a0
100
AcDbSymbolTable
0
APPID
5
12
100
AcDbSymbolTableRecord
100
AcDbRegAppTableRecord
2
ACAD
70
0
0
ENDTAB
0
TABLE
2
BLOCK_RECORD
5
1a1
100
AcDbSymbolTable
0
BLOCK_RECORD
5
1F
100
AcDbSymbolTableRecord
100
AcDbBlockTableRecord
2
*Model_Space
340
0
70
0
0
BLOCK_RECORD
5
1B
100
AcDbSymbolTableRecord
100
AcDbBlockTableRecord
2
*Paper_Space
340
0
70
0
0
BLOCK_RECORD
5
23
100
AcDbSymbolTableRecord
100
AcDbBlockTableRecord
2
*Paper_Space0
340
0
70
0
0
BLOCK_RECORD
5
E4
100
AcDbSymbolTableRecord
100
AcDbBlockTableRecord
2
DimnDraft3D1
340
0
70
0
0
BLOCK_RECORD
5
EE
100
AcDbSymbolTableRecord
100
AcDbBlockTableRecord
2
DimnDraft3D2
340
0
70
0
0
BLOCK_RECORD
5
F8
100
AcDbSymbolTableRecord
100
AcDbBlockTableRecord
2
DimnDraft3D3
340
0
70
0
0
BLOCK_RECORD
5
102
100
AcDbSymbolTableRecord
100
AcDbBlockTableRecord
2
DimnDraft3D4
340
0
70
0
0
BLOCK_RECORD
5
10C
100
AcDbSymbolTableRecord
100
AcDbBlockTableRecord
2
DimnDraft3D5
340
0
70
0
0
BLOCK_RECORD
5
116
100
AcDbSymbolTableRecord
100
AcDbBlockTableRecord
2
DimnDraft3D6
340
0
70
0
0
BLOCK_RECORD
5
121
100
AcDbSymbolTableRecord
100
AcDbBlockTableRecord
2
DimnDraft3D7
340
0
70
0
0
ENDTAB
0
ENDSEC
0
SECTION
2
BLOCKS
0
BLOCK
5
20
100
AcDbEntity
8
0
100
AcDbBlockBegin
2
*Model_Space
70
0
10
0
20
0
30
0
3
*Model_Space
0
ENDBLK
5
21
100
AcDbEntity
8
0
100
AcDbBlockEnd
0
BLOCK
5
1C
100
AcDbEntity
8
0
100
AcDbBlockBegin
2
*Paper_Space
70
0
10
0
20
0
30
0
3
*Paper_Space
0
ENDBLK
5
1D
100
AcDbEntity
8
0
100
AcDbBlockEnd
0
BLOCK
5
24
100
AcDbEntity
8
0
100
AcDbBlockBegin
2
*Paper_Space0
70
0
10
0
20
0
30
0
3
*Paper_Space0
0
ENDBLK
5
25
100
AcDbEntity
8
0
100
AcDbBlockEnd
0
BLOCK
5
EB
100
AcDbEntity
8
0
100
AcDbBlockBegin
2
DimnDraft3D1
70
0
10
0
20
0
30
0
3
DimnDraft3D1
0
MTEXT
5
E5
100
AcDbEntity
8
SK2
62
256
6
ByLayer
370
13
48
1
60
0
100
AcDbMText
10
23.431375
20
-16.238398
30
0
210
0
220
0
230
1
1
\W0.7317;59,63
40
3.5
41
0
44
1.084337
50
0
71
7
72
5
7
iso_b_vert
0
LINE
5
E6
100
AcDbEntity
8
SK2
62
256
6
ByLayer
370
13
48
1
60
0
100
AcDbLine
10
0
20
-1.5875
30
0
11
0
21
-19.113398
31
0
39
0
210
0
220
0
230
1
0
LINE
5
E7
100
AcDbEntity
8
SK2
62
256
6
ByLayer
370
13
48
1
60
0
100
AcDbLine
10
59.63
20
-8.4875
30
0
11
59.63
21
-19.113398
31
0
39
0
210
0
220
0
230
1
0
LINE
5
E8
100
AcDbEntity
8
SK2
62
256
6
ByLayer
370
13
48
1
60
0
100
AcDbLine
10
0
20
-17.113398
30
0
11
59.63
21
-17.113398
31
0
39
0
210
0
220
0
230
1
0
SOLID
5
E9
100
AcDbEntity
8
SK2
62
256
6
ByLayer
370
13
48
1
60
0
100
AcDbTrace
10
0
20
-17.113398
30
0
11
3.499998
21
-16.652615
31
0
12
3.500002
22
-17.574182
32
0
13
0
23
-17.113398
33
0
39
0
210
0
220
0
230
1
0
SOLID
5
EA
100
AcDbEntity
8
SK2
62
256
6
ByLayer
370
13
48
1
60
0
100
AcDbTrace
10
59.63
20
-17.113398
30
0
11
56.130002
21
-17.574182
31
0
12
56.129998
22
-16.652615
32
0
13
59.63
23
-17.113398
33
0
39
0
210
0
220
0
230
1
0
ENDBLK
5
EC
100
AcDbEntity
8
0
100
AcDbBlockEnd
0
BLOCK
5
F5
100
AcDbEntity
8
0
100
AcDbBlockBegin
2
DimnDraft3D2
70
0
10
0
20
0
30
0
3
DimnDraft3D2
0
MTEXT
5
EF
100
AcDbEntity
8
SK2
62
256
6
ByLayer
370
13
48
1
60
0
100
AcDbMText
10
2.152221
20
-34.817985
30
0
210
0
220
0
230
1
1
\W0.6930;107,00
40
3.5
41
0
44
1.084337
50
0
71
7
72
5
7
iso_b_vert
0
LINE
5
F0
100
AcDbEntity
8
SK2
62
256
6
ByLayer
370
13
48
1
60
0
100
AcDbLine
10
-45
20
-8.5875
30
0
11
-45
21
-37.692985
31
0
39
0
210
0
220
0
230
1
0
LINE
5
F1
100
AcDbEntity
8
SK2
62
256
6
ByLayer
370
13
48
1
60
0
100
AcDbLine
10
62
20
-1.5875
30
0
11
62
21
-37.692985
31
0
39
0
210
0
220
0
230
1
0
LINE
5
F2
100
AcDbEntity
8
SK2
62
256
6
ByLayer
370
13
48
1
60
0
100
AcDbLine
10
-45
20
-35.692985
30
0
11
62
21
-35.692985
31
0
39
0
210
0
220
0
230
1
0
SOLID
5
F3
100
AcDbEntity
8
SK2
62
256
6
ByLayer
370
13
48
1
60
0
100
AcDbTrace
10
-45
20
-35.692985
30
0
11
-41.500002
21
-35.232202
31
0
12
-41.499998
22
-36.153769
32
0
13
-45
23
-35.692985
33
0
39
0
210
0
220
0
230
1
0
SOLID
5
F4
100
AcDbEntity
8
SK2
62
256
6
ByLayer
370
13
48
1
60
0
100
AcDbTrace
10
62
20
-35.692985
30
0
11
58.500002
21
-36.153769
31
0
12
58.499998
22
-35.232202
32
0
13
62
23
-35.692985
33
0
39
0
210
0
220
0
230
1
0
ENDBLK
5
F6
100
AcDbEntity
8
0
100
AcDbBlockEnd
0
BLOCK
5
FF
100
AcDbEntity
8
0
100
AcDbBlockBegin
2
DimnDraft3D3
70
0
10
0
20
0
30
0
3
DimnDraft3D3
0
MTEXT
5
F9
100
AcDbEntity
8
SK2
62
256
6
ByLayer
370
13
48
1
60
0
100
AcDbMText
10
35.482105
20
19.384119
30
0
210
0
220
0
230
1
1
\W0.7581;43,77
40
3.5
41
0
44
1.084337
50
0
71
7
72
5
7
iso_b_vert
0
LINE
5
FA
100
AcDbEntity
8
SK2
62
256
6
ByLayer
370
13
48
1
60
0
100
AcDbLine
10
18.23
20
8.4875
30
0
11
18.23
21
20.509119
31
0
39
0
210
0
220
0
230
1
0
LINE
5
FB
100
AcDbEntity
8
SK2
62
256
6
ByLayer
370
13
48
1
60
0
100
AcDbLine
10
62
20
1.5875
30
0
11
62
21
20.509119
31
0
39
0
210
0
220
0
230
1
0
LINE
5
FC
100
AcDbEntity
8
SK2
62
256
6
ByLayer
370
13
48
1
60
0
100
AcDbLine
10
18.23
20
18.509119
30
0
11
62
21
18.509119
31
0
39
0
210
0
220
0
230
1
0
SOLID
5
FD
100
AcDbEntity
8
SK2
62
256
6
ByLayer
370
13
48
1
60
0
100
AcDbTrace
10
18.23
20
18.509119
30
0
11
21.729998
21
18.969903
31
0
12
21.730002
22
18.048335
32
0
13
18.23
23
18.509119
33
0
39
0
210
0
220
0
230
1
0
SOLID
5
FE
100
AcDbEntity
8
SK2
62
256
6
ByLayer
370
13
48
1
60
0
100
AcDbTrace
10
62
20
18.509119
30
0
11
58.500002
21
18.048335
31
0
12
58.499998
22
18.969903
32
0
13
62
23
18.509119
33
0
39
0
210
0
220
0
230
1
0
ENDBLK
5
100
100
AcDbEntity
8
0
100
AcDbBlockEnd
0
BLOCK
5
109
100
AcDbEntity
8
0
100
AcDbBlockBegin
2
DimnDraft3D4
70
0
10
0
20
0
30
0
3
DimnDraft3D4
0
MTEXT
5
103
100
AcDbEntity
8
SK2
62
256
6
ByLayer
370
13
48
1
60
0
100
AcDbMText
10
68.840636
20
-18.827503
30
0
210
0
220
0
230
1
1
\W0.7150;2,37
40
3.5
41
0
44
1.084337
50
0
71
7
72
5
7
iso_b_vert
0
LINE
5
104
100
AcDbEntity
8
SK2
62
256
6
ByLayer
370
13
48
1
60
0
100
AcDbLine
10
62
20
-1.5875
30
0
11
62
21
-21.702503
31
0
39
0
210
0
220
0
230
1
0
LINE
5
105
100
AcDbEntity
8
SK2
62
256
6
ByLayer
370
13
48
1
60
0
100
AcDbLine
10
59.63
20
-8.4875
30
0
11
59.63
21
-21.702503
31
0
39
0
210
0
220
0
230
1
0
LINE
5
106
100
AcDbEntity
8
SK2
62
256
6
ByLayer
370
13
48
1
60
0
100
AcDbLine
10
50.88
20
-19.702503
30
0
11
75.997215
21
-19.702503
31
0
39
0
210
0
220
0
230
1
0
SOLID
5
107
100
AcDbEntity
8
SK2
62
256
6
ByLayer
370
13
48
1
60
0
100
AcDbTrace
10
62
20
-19.702503
30
0
11
65.499998
21
-19.241719
31
0
12
65.500002
22
-20.163287
32
0
13
62
23
-19.702503
33
0
39
0
210
0
220
0
230
1
0
SOLID
5
108
100
AcDbEntity
8
SK2
62
256
6
ByLayer
370
13
48
1
60
0
100
AcDbTrace
10
59.63
20
-19.702503
30
0
11
56.130002
21
-20.163287
31
0
12
56.129998
22
-19.241719
32
0
13
59.63
23
-19.702503
33
0
39
0
210
0
220
0
230
1
0
ENDBLK
5
10A
100
AcDbEntity
8
0
100
AcDbBlockEnd
0
BLOCK
5
113
100
AcDbEntity
8
0
100
AcDbBlockBegin
2
DimnDraft3D5
70
0
10
0
20
0
30
0
3
DimnDraft3D5
0
MTEXT
5
10D
100
AcDbEntity
8
SK2
62
256
6
ByLayer
370
13
48
1
60
0
100
AcDbMText
10
-1.112613
20
-24.468428
30
0
210
0
220
0
230
1
1
\W0.7145;104,63
40
3.5
41
0
44
1.084337
50
0
71
7
72
5
7
iso_b_vert
0
LINE
5
10E
100
AcDbEntity
8
SK2
62
256
6
ByLayer
370
13
48
1
60
0
100
AcDbLine
10
-45
20
-8.5875
30
0
11
-45
21
-27.343428
31
0
39
0
210
0
220
0
230
1
0
LINE
5
10F
100
AcDbEntity
8
SK2
62
256
6
ByLayer
370
13
48
1
60
0
100
AcDbLine
10
59.63
20
-8.4875
30
0
11
59.63
21
-27.343428
31
0
39
0
210
0
220
0
230
1
0
LINE
5
110
100
AcDbEntity
8
SK2
62
256
6
ByLayer
370
13
48
1
60
0
100
AcDbLine
10
-45
20
-25.343428
30
0
11
59.63
21
-25.343428
31
0
39
0
210
0
220
0
230
1
0
SOLID
5
111
100
AcDbEntity
8
SK2
62
256
6
ByLayer
370
13
48
1
60
0
100
AcDbTrace
10
-45
20
-25.343428
30
0
11
-41.500002
21
-24.882645
31
0
12
-41.499998
22
-25.804212
32
0
13
-45
23
-25.343428
33
0
39
0
210
0
220
0
230
1
0
SOLID
5
112
100
AcDbEntity
8
SK2
62
256
6
ByLayer
370
13
48
1
60
0
100
AcDbTrace
10
59.63
20
-25.343428
30
0
11
56.130002
21
-25.804212
31
0
12
56.129998
22
-24.882645
32
0
13
59.63
23
-25.343428
33
0
39
0
210
0
220
0
230
1
0
ENDBLK
5
114
100
AcDbEntity
8
0
100
AcDbBlockEnd
0
BLOCK
5
11E
100
AcDbEntity
8
0
100
AcDbBlockBegin
2
DimnDraft3D6
70
0
10
0
20
0
30
0
3
DimnDraft3D6
0
MTEXT
5
117
100
AcDbEntity
8
SK2
62
256
6
ByLayer
370
13
48
1
60
0
100
AcDbMText
10
-55.375163
20
26.34918
30
0
210
0
220
0
230
1
1
\W0.7145;14,000
40
3.5
41
0
44
1.084337
50
90
71
7
72
5
7
iso_b_vert
0
MTEXT
5
118
100
AcDbEntity
8
SK2
62
256
6
ByLayer
370
13
48
1
60
0
100
AcDbMText
10
-55.375163
20
21.126524
30
0
210
0
220
0
230
1
1
%%c
40
3.5
41
0
44
1.084337
50
90
71
7
72
5
7
iso_b_vert
0
LINE
5
119
100
AcDbEntity
8
SK2
62
256
6
ByLayer
370
13
48
1
60
0
100
AcDbLine
10
-46.5875
20
-7
30
0
11
-55.625163
21
-7
31
0
39
0
210
0
220
0
230
1
0
LINE
5
11A
100
AcDbEntity
8
SK2
62
256
6
ByLayer
370
13
48
1
60
0
100
AcDbLine
10
-46.5875
20
7
30
0
11
-55.625163
21
7
31
0
39
0
210
0
220
0
230
1
0
LINE
5
11B
100
AcDbEntity
8
SK2
62
256
6
ByLayer
370
13
48
1
60
0
100
AcDbLine
10
-53.625163
20
-7
30
0
11
-53.625163
21
38.230759
31
0
39
0
210
0
220
0
230
1
0
SOLID
5
11C
100
AcDbEntity
8
SK2
62
256
6
ByLayer
370
13
48
1
60
0
100
AcDbTrace
10
-53.625163
20
-7
30
0
11
-54.085946
21
-3.500002
31
0
12
-53.164379
22
-3.499998
32
0
13
-53.625163
23
-7
33
0
39
0
210
0
220
0
230
1
0
SOLID
5
11D
100
AcDbEntity
8
SK2
62
256
6
ByLayer
370
13
48
1
60
0
100
AcDbTrace
10
-53.625163
20
7
30
0
11
-53.164379
21
3.500002
31
0
12
-54.085946
22
3.499998
32
0
13
-53.625163
23
7
33
0
39
0
210
0
220
0
230
1
0
ENDBLK
5
11F
100
AcDbEntity
8
0
100
AcDbBlockEnd
0
BLOCK
5
129
100
AcDbEntity
8
0
100
AcDbBlockBegin
2
DimnDraft3D7
70
0
10
0
20
0
30
0
3
DimnDraft3D7
0
MTEXT
5
122
100
AcDbEntity
8
2
62
256
6
ByLayer
370
13
48
1
60
0
100
AcDbMText
10
72.333343
20
24.842266
30
0
210
0
220
0
230
1
1
\W0.6930;13,800
40
3.5
41
0
44
1.084337
50
90
71
7
72
5
7
iso_b_vert
0
MTEXT
5
123
100
AcDbEntity
8
2
62
256
6
ByLayer
370
13
48
1
60
0
100
AcDbMText
10
72.333343
20
19.61961
30
0
210
0
220
0
230
1
1
%%c
40
3.5
41
0
44
1.084337
50
90
71
7
72
5
7
iso_b_vert
0
LINE
5
124
100
AcDbEntity
8
2
62
256
6
ByLayer
370
13
48
1
60
0
100
AcDbLine
10
61.2175
20
-6.9
30
0
11
76.083343
21
-6.9
31
0
39
0
210
0
220
0
230
1
0
LINE
5
125
100
AcDbEntity
8
2
62
256
6
ByLayer
370
13
48
1
60
0
100
AcDbLine
10
61.2175
20
6.9
30
0
11
76.083343
21
6.9
31
0
39
0
210
0
220
0
230
1
0
LINE
5
126
100
AcDbEntity
8
2
62
256
6
ByLayer
370
13
48
1
60
0
100
AcDbLine
10
74.083343
20
-6.9
30
0
11
74.083343
21
36.355424
31
0
39
0
210
0
220
0
230
1
0
SOLID
5
127
100
AcDbEntity
8
2
62
256
6
ByLayer
370
13
48
1
60
0
100
AcDbTrace
10
74.083343
20
-6.9
30
0
11
73.622559
21
-3.400002
31
0
12
74.544126
22
-3.399998
32
0
13
74.083343
23
-6.9
33
0
39
0
210
0
220
0
230
1
0
SOLID
5
128
100
AcDbEntity
8
2
62
256
6
ByLayer
370
13
48
1
60
0
100
AcDbTrace
10
74.083343
20
6.9
30
0
11
74.544126
21
3.400002
31
0
12
73.622559
22
3.399998
32
0
13
74.083343
23
6.9
33
0
39
0
210
0
220
0
230
1
0
ENDBLK
5
12A
100
AcDbEntity
8
0
100
AcDbBlockEnd
0
ENDSEC
0
SECTION
2
ENTITIES
0
ELLIPSE
5
9C
100
AcDbEntity
8
1
62
256
6
ByLayer
370
18
48
1
60
0
100
AcDbEllipse
10
4.25
20
6.815885
30
0
11
0.25
21
0
31
0
210
0
220
0
230
1
40
0.999994
41
-3.12025460576737
42
-1.55662367027469
0
ELLIPSE
5
9D
100
AcDbEntity
8
1
62
256
6
ByLayer
370
18
48
1
60
0
100
AcDbEllipse
10
4.25
20
-6.815885
30
0
11
0.25
21
0
31
0
210
0
220
0
230
1
40
0.999994
41
1.58279838574632
42
3.12025460576765
0
ELLIPSE
5
9E
100
AcDbEntity
8
1
62
256
6
ByLayer
370
18
48
1
60
0
100
AcDbEllipse
10
62.000584
20
-0.001507
30
0
11
2.53011149578179
21
-6.89826405592386
31
0
210
0
220
0
230
-1
40
0.082138
41
-2.99312893668931
42
-2.90123525610712
0
ELLIPSE
5
9F
100
AcDbEntity
8
1
62
256
6
ByLayer
370
18
48
1
60
0
100
AcDbEllipse
10
61.859845
20
0.137556
30
0
11
0.086880372452286
21
0.290676908867122
31
0
210
0
220
0
230
-1
40
0.467765
41
1.68079120251196
42
2.36053717391957
0
ELLIPSE
5
A0
100
AcDbEntity
8
1
62
256
6
ByLayer
370
18
48
1
60
0
100
AcDbEllipse
10
62.016693
20
-0.059897
30
0
11
0.135658546060717
21
0.401200806300839
31
0
210
0
220
0
230
-1
40
0.065863
41
-2.32292776271259
42
-1.60641033264962
0
ELLIPSE
5
A1
100
AcDbEntity
8
1
62
256
6
ByLayer
370
13
48
1
60
0
100
AcDbEllipse
10
4.250135
20
0.646121
30
0
11
0.0507102290629785
21
0.086188587808249
31
0
210
0
220
0
230
1
40
0.05009
41
3.06921664126228
42
-1.65396450112983
0
ELLIPSE
5
A2
100
AcDbEntity
8
1
62
256
6
ByLayer
370
18
48
1
60
0
100
AcDbEllipse
10
62.016693
20
0.059897
30
0
11
0.135658546017368
21
-0.401200806189095
31
0
210
0
220
0
230
-1
40
0.065863
41
1.60641033246422
42
2.32292776270931
0
ELLIPSE
5
A3
100
AcDbEntity
8
1
62
256
6
ByLayer
370
18
48
1
60
0
100
AcDbEllipse
10
60.737148
20
3.22924
30
0
11
1.0624322200272
21
-2.89668578893741
31
0
210
0
220
0
230
-1
40
0.082138
41
-1.59066585804498
42
-0.755280950346762
0
ELLIPSE
5
A4
100
AcDbEntity
8
1
62
256
6
ByLayer
370
13
48
1
60
0
100
AcDbEllipse
10
60.996428
20
3.094948
30
0
11
4.53421247701432
21
-2.3309902297198
31
0
210
0
220
0
230
-1
40
0.482873
41
1.53949524916525
42
1.86273613301296
0
ELLIPSE
5
A5
100
AcDbEntity
8
1
62
256
6
ByLayer
370
13
48
1
60
0
100
AcDbEllipse
10
61.165887
20
3.22924
30
0
11
4.58110175119368
21
-2.01901863822
31
0
210
0
220
0
230
-1
40
0.453807
41
1.58541615606411
42
1.9076635740691
0
ELLIPSE
5
A6
100
AcDbEntity
8
1
62
256
6
ByLayer
370
13
48
1
60
0
100
AcDbEllipse
10
4.173486
20
0.693113
30
0
11
-0.0541274036258904
21
-0.0840846250911542
31
0
210
0
220
0
230
1
40
0.406534
41
-1.21210039025653
42
-0.210433514695447
0
ELLIPSE
5
A7
100
AcDbEntity
8
1
62
256
6
ByLayer
370
18
48
1
60
0
100
AcDbEllipse
10
60.737148
20
-3.22924
30
0
11
1.06243222004495
21
2.89668578897823
31
0
210
0
220
0
230
-1
40
0.082138
41
0.755280950346332
42
1.59066585803392
0
ELLIPSE
5
A8
100
AcDbEntity
8
1
62
256
6
ByLayer
370
13
48
1
60
0
100
AcDbEllipse
10
60.182768
20
0.967913
30
0
11
0.133113781883896
21
0.268850741253519
31
0
210
0
220
0
230
1
40
0.40558
41
0.884485917130896
42
2.28074931872644
0
ELLIPSE
5
A9
100
AcDbEntity
8
1
62
256
6
ByLayer
370
18
48
1
60
0
100
AcDbEllipse
10
62.000584
20
0.001507
30
0
11
2.53011151790372
21
6.89826411953142
31
0
210
0
220
0
230
-1
40
0.082138
41
2.90123525721863
42
2.9931289373709
0
POINT
5
6C
100
AcDbEntity
8
81
62
256
6
ByLayer
370
18
48
1
60
0
100
AcDbPoint
10
62
20
0
30
0
39
0
210
0
220
0
230
1
50
360
0
POINT
5
6E
100
AcDbEntity
8
80
62
256
6
ByLayer
370
18
48
1
60
0
100
AcDbPoint
10
0
20
0
30
0
39
0
210
0
220
0
230
1
50
360
0
POINT
5
70
100
AcDbEntity
8
SK2
62
256
6
ByLayer
370
18
48
1
60
1
100
AcDbPoint
10
-45
20
-7
30
0
39
0
210
0
220
0
230
1
50
360
0
POINT
5
72
100
AcDbEntity
8
SK2
62
256
6
ByLayer
370
18
48
1
60
1
100
AcDbPoint
10
-45
20
7
30
0
39
0
210
0
220
0
230
1
50
360
0
POINT
5
73
100
AcDbEntity
8
2
62
256
6
ByLayer
370
18
48
1
60
1
100
AcDbPoint
10
59.63
20
-6.9
30
0
39
0
210
0
220
0
230
1
50
360
0
POINT
5
75
100
AcDbEntity
8
2
62
256
6
ByLayer
370
18
48
1
60
1
100
AcDbPoint
10
59.63
20
6.9
30
0
39
0
210
0
220
0
230
1
50
360
0
SPLINE
5
AA
100
AcDbEntity
8
1
62
256
6
ByLayer
370
18
48
1
60
0
100
AcDbSpline
70
4
71
2
72
6
73
3
40
0
40
0
40
0
40
1
40
1
40
1
41
1
10
5.14191729835753
20
0.003637456952049
30
0
41
1
10
5.14190246367423
20
0.0036430141645099
30
0
41
1
10
5.1418876290455
20
0.0036488664327692
30
0
0
SPLINE
5
AB
100
AcDbEntity
8
1
62
256
6
ByLayer
370
18
48
1
60
0
100
AcDbSpline
70
4
71
3
72
9
73
5
40
0
40
0
40
0
40
0
40
0.10779327877195
40
1
40
1
40
1
40
1
41
1
10
42.0196841203094
20
-1.46505047846855
30
0
41
1
10
42.0194741993311
20
-1.46496266523525
30
0
41
1
10
42.022387354486
20
-1.46693572521235
30
0
41
1
10
42.0405291527005
20
-1.47804458942863
30
0
41
1
10
42.0819661518833
20
-1.5025812751588
30
0
0
SPLINE
5
AC
100
AcDbEntity
8
1
62
256
6
ByLayer
370
18
48
1
60
0
100
AcDbSpline
70
4
71
2
72
6
73
3
40
0
40
0
40
0
40
1
40
1
40
1
41
1
10
58.4406111869834
20
-6.59839242569456
30
0
41
1
10
59.009138697442
20
-6.59711426845553
30
0
41
1
10
59.5761988048119
20
-6.60016477147752
30
0
0
SPLINE
5
AD
100
AcDbEntity
8
1
62
256
6
ByLayer
370
18
48
1
60
0
100
AcDbSpline
70
4
71
3
72
29
73
25
40
0
40
0
40
0
40
0
40
0.0290799968904621
40
0.0724140396348613
40
0.112129221693942
40
0.14917099248495
40
0.189191376620721
40
0.23480682764833
40
0.286386810633053
40
0.333023366555357
40
0.381928774097755
40
0.425657411779182
40
0.469008014693123
40
0.509617347639663
40
0.550834795400559
40
0.59096325760291
40
0.633423540972715
40
0.680449158035976
40
0.738995953840855
40
0.798950396318418
40
0.856259122456786
40
0.916781119491557
40
0.976783516001783
40
1
40
1
40
1
40
1
41
1
10
41.5473652887142
20
6.58483190361841
30
0
41
1
10
41.3961831824938
20
6.58430237690038
30
0
41
1
10
41.0215581907275
20
6.5834680214048
30
0
41
1
10
40.4597912514622
20
6.58698161016821
30
0
41
1
10
39.8438570680007
20
6.58700710897404
30
0
41
1
10
39.2402092129273
20
6.58580390179202
30
0
41
1
10
38.6074362169601
20
6.58599082589339
30
0
41
1
10
37.8991454592687
20
6.58577071533279
30
0
41
1
10
37.1568417766694
20
6.58381103689607
30
0
41
1
10
36.3975158832217
20
6.58453524906653
30
0
41
1
10
35.6787257704615
20
6.58432065726356
30
0
41
1
10
34.9768919327845
20
6.58535553202157
30
0
41
1
10
34.3178820942839
20
6.58301445780182
30
0
41
1
10
33.6718180088477
20
6.58123543163313
30
0
41
1
10
33.0424166812563
20
6.58174585710896
30
0
41
1
10
32.4033359599909
20
6.58233111988261
30
0
41
1
10
31.7348569005217
20
6.5835817389775
30
0
41
1
10
30.9712296471294
20
6.58171417409432
30
0
41
1
10
30.1171928701902
20
6.57958147532835
30
0
41
1
10
29.2104322506092
20
6.58041712457194
30
0
41
1
10
28.2927030716244
20
6.58107701092527
30
0
41
1
10
27.3749264890635
20
6.57848652862822
30
0
41
1
10
26.6330833649487
20
6.5784033605355
30
0
41
1
10
26.2035717797522
20
6.57851969384339
30
0
41
1
10
26.0837619173013
20
6.5785476824131
30
0
0
SPLINE
5
AE
100
AcDbEntity
8
1
62
256
6
ByLayer
370
18
48
1
60
0
100
AcDbSpline
70
4
71
3
72
10
73
6
40
0
40
0
40
0
40
0
40
0.262661795524955
40
0.673295049117651
40
1
40
1
40
1
40
1
41
1
10
4.25026672339953
20
-6.56578590348545
30
0
41
1
10
4.42136563587019
20
-6.56617591865464
30
0
41
1
10
4.85890529268266
20
-6.56670561369717
30
0
41
1
10
5.48321808892359
20
-6.56348232696971
30
0
41
1
10
5.96885709721951
20
-6.56260044496284
30
0
41
1
10
6.18001505183591
20
-6.56291580921504
30
0
0
SPLINE
5
AF
100
AcDbEntity
8
1
62
256
6
ByLayer
370
18
48
1
60
0
100
AcDbSpline
70
4
71
3
72
9
73
5
40
0
40
0
40
0
40
0
40
0.276248999803019
40
1
40
1
40
1
40
1
41
1
10
6.28751641676072
20
-6.56314044437374
30
0
41
1
10
6.31738722510843
20
-6.56322140198967
30
0
41
1
10
6.42510863531837
20
-6.56357158368508
30
0
41
1
10
6.53100954829944
20
-6.56414420806348
30
0
41
1
10
6.60742269218406
20
-6.56464208079873
30
0
0
SPLINE
5
B0
100
AcDbEntity
8
1
62
256
6
ByLayer
370
18
48
1
60
0
100
AcDbSpline
70
4
71
3
72
35
73
31
40
0
40
0
40
0
40
0
40
0.0287019475666326
40
0.0542961331313609
40
0.0748959872842613
40
0.0954658495622978
40
0.116808266349714
40
0.138996919769275
40
0.162423815037521
40
0.209721423897126
40
0.2609704919355
40
0.311791134786559
40
0.355168174141847
40
0.402433677239582
40
0.444407895175598
40
0.478952964863393
40
0.511118131346814
40
0.541652397060823
40
0.577944502648101
40
0.614009727900196
40
0.652434299116558
40
0.691011160833781
40
0.738586985701942
40
0.802509748103939
40
0.841454439642541
40
0.875533862048861
40
0.90642571015527
40
0.939523326956901
40
0.97564418933613
40
1
40
1
40
1
40
1
41
1
10
23.0069357304825
20
-6.57669688347525
30
0
41
1
10
23.173021154035
20
-6.57596988689266
30
0
41
1
10
23.4924398238202
20
-6.5751815385114
30
0
41
1
10
23.9605054589026
20
-6.57179502421522
30
0
41
1
10
24.3658828005266
20
-6.57610081343148
30
0
41
1
10
24.7448734775958
20
-6.57778259076719
30
0
41
1
10
25.1394228532883
20
-6.57846326983326
30
0
41
1
10
25.5538278658714
20
-6.57861454707813
30
0
41
1
10
26.1299971965597
20
-6.57861181757428
30
0
41
1
10
26.886581755439
20
-6.57798230335527
30
0
41
1
10
27.8130154425856
20
-6.58024906661947
30
0
41
1
10
28.7150847226795
20
-6.58066319909997
30
0
41
1
10
29.5927130476345
20
-6.58034422994416
30
0
41
1
10
30.4140731724232
20
-6.57933597934016
30
0
41
1
10
31.1822863469834
20
-6.58301052265767
30
0
41
1
10
31.8555053279663
20
-6.5832131321317
30
0
41
1
10
32.4584630337784
20
-6.58230555999245
30
0
41
1
10
33.0724977287629
20
-6.581731879111
30
0
41
1
10
33.7106703187283
20
-6.58110967382825
30
0
41
1
10
34.3977955757741
20
-6.58362634645385
30
0
41
1
10
35.099084770834
20
-6.58516747879486
30
0
41
1
10
35.8717694369421
20
-6.58437262364737
30
0
41
1
10
36.8026204711414
20
-6.58406199938759
30
0
41
1
10
37.7356968384295
20
-6.58537082674044
30
0
41
1
10
38.5852238143118
20
-6.58606872589323
30
0
41
1
10
39.229381303119
20
-6.5857696050025
30
0
41
1
10
39.8385734003227
20
-6.58700607216232
30
0
41
1
10
40.4557724504828
20
-6.58699399792769
30
0
41
1
10
41.0190698453141
20
-6.58347148780629
30
0
41
1
10
41.3950846811488
20
-6.58430297909644
30
0
41
1
10
41.5472656963104
20
-6.58483320247251
30
0
0
SPLINE
5
B1
100
AcDbEntity
8
1
62
256
6
ByLayer
370
18
48
1
60
0
100
AcDbSpline
70
4
71
3
72
11
73
7
40
0
40
0
40
0
40
0
40
0.0965485516021446
40
0.448124337305037
40
0.784705601697288
40
1
40
1
40
1
40
1
41
1
10
6.5994169377195
20
6.56460007590564
30
0
41
1
10
6.52564352774021
20
6.56412196646457
30
0
41
1
10
6.18221816823495
20
6.56226557963197
30
0
41
1
10
5.54700689214593
20
6.56315709290342
30
0
41
1
10
4.85891043122203
20
6.56670487424245
30
0
41
1
10
4.42136563586308
20
6.56617591865398
30
0
41
1
10
4.25026672340016
20
6.56578590348744
30
0
0
SPLINE
5
B2
100
AcDbEntity
8
1
62
256
6
ByLayer
370
18
48
1
60
0
100
AcDbSpline
70
2053
71
3
72
60
73
56
40
0
40
0
40
0
40
0
40
0.0312500000000014
40
0.0312500000000014
40
0.0625000000000027
40
0.0625000000000027
40
0.0937500000000041
40
0.0937500000000041
40
0.125000000000005
40
0.125000000000005
40
0.156250000000007
40
0.156250000000007
40
0.187500000000008
40
0.187500000000008
40
0.250000000000011
40
0.250000000000011
40
0.281250000000012
40
0.281250000000012
40
0.312500000000013
40
0.312500000000013
40
0.375000000000015
40
0.375000000000015
40
0.437500000000016
40
0.437500000000016
40
0.468750000000015
40
0.468750000000015
40
0.500000000000015
40
0.500000000000015
40
0.531250000000014
40
0.531250000000014
40
0.562500000000013
40
0.562500000000013
40
0.593750000000012
40
0.593750000000012
40
0.625000000000011
40
0.625000000000011
40
0.65625000000001
40
0.65625000000001
40
0.68750000000001
40
0.68750000000001
40
0.750000000000008
40
0.750000000000008
40
0.781250000000007
40
0.781250000000007
40
0.812500000000006
40
0.812500000000006
40
0.843750000000005
40
0.843750000000005
40
0.875000000000004
40
0.875000000000004
40
0.906250000000003
40
0.906250000000003
40
0.937500000000002
40
0.937500000000002
40
1
40
1
40
1
40
1
41
1
10
60.2943064061958
20
-3.4891670879448
30
0
41
1
10
60.3231990616228
20
-3.44792342927545
30
0
41
1
10
60.3514942226846
20
-3.403723502269
30
0
41
1
10
60.4067853177938
20
-3.30889529918264
30
0
41
1
10
60.4340824227085
20
-3.25763824656917
30
0
41
1
10
60.4854307628439
20
-3.15075506066739
30
0
41
1
10
60.5094206566628
20
-3.09540826317672
30
0
41
1
10
60.553505964534
20
-2.98030934541146
30
0
41
1
10
60.5730517090577
20
-2.92181239730559
30
0
41
1
10
60.6055104523268
20
-2.80684969695673
30
0
41
1
10
60.6187612327183
20
-2.7488830202544
30
0
41
1
10
60.637108969781
20
-2.64060698847896
30
0
41
1
10
60.642466904051
20
-2.58926953601099
30
0
41
1
10
60.6469863886947
20
-2.44869671296149
30
0
41
1
10
60.6345573497722
20
-2.3748772056303
30
0
41
1
10
60.5998266273725
20
-2.29655516396025
30
0
41
1
10
60.5854565335474
20
-2.2755362609168
30
0
41
1
10
60.5528636332355
20
-2.24383822435624
30
0
41
1
10
60.534536629284
20
-2.23289825418269
30
0
41
1
10
60.4740171634412
20
-2.2136583665077
30
0
41
1
10
60.4280173722035
20
-2.21907913545155
30
0
41
1
10
60.3267670018571
20
-2.26208518020513
30
0
41
1
10
60.273337475928
20
-2.29886093078829
30
0
41
1
10
60.1889167268516
20
-2.37731459868783
30
0
41
1
10
60.1602311340973
20
-2.40732596497176
30
0
41
1
10
60.1032416185438
20
-2.47375430267863
30
0
41
1
10
60.0747264362003
20
-2.51035369021912
30
0
41
1
10
60.017650836873
20
-2.5910497674594
30
0
41
1
10
59.9887708950268
20
-2.63570724330486
30
0
41
1
10
59.9330160510358
20
-2.73067692616425
30
0
41
1
10
59.9060760328506
20
-2.78096455322941
30
0
41
1
10
59.8543731506942
20
-2.88804937825131
30
0
41
1
10
59.8298924649414
20
-2.94441296149046
30
0
41
1
10
59.7860107013839
20
-3.05881920274845
30
0
41
1
10
59.7661080689473
20
-3.11833258374071
30
0
41
1
10
59.7335532105705
20
-3.23393020910666
30
0
41
1
10
59.7205477009974
20
-3.2909623501838
30
0
41
1
10
59.7020524534413
20
-3.40046197244718
30
0
41
1
10
59.6967942254007
20
-3.45121908695046
30
0
41
1
10
59.692147653942
20
-3.59235311021558
30
0
41
1
10
59.7044429648129
20
-3.66700416551686
30
0
41
1
10
59.7387924492896
20
-3.74613001219271
30
0
41
1
10
59.7529834635417
20
-3.76743622315308
30
0
41
1
10
59.7855508508464
20
-3.79991721035063
30
0
41
1
10
59.8037898602978
20
-3.81107841628537
30
0
41
1
10
59.8437645145623
20
-3.82431768318907
30
0
41
1
10
59.8656253440915
20
-3.8263183596909
30
0
41
1
10
59.9114497296255
20
-3.82163419081604
30
0
41
1
10
59.9355354967377
20
-3.81502591791588
30
0
41
1
10
59.9859678467695
20
-3.79359083329464
30
0
41
1
10
60.0124651022758
20
-3.77861850074899
30
0
41
1
10
60.0662652408758
20
-3.74124179709295
30
0
41
1
10
60.0937145031037
20
-3.71881079592359
30
0
41
1
10
60.1777391670868
20
-3.64009018036447
30
0
41
1
10
60.2365210953419
20
-3.57165440528348
30
0
41
1
10
60.2943064061958
20
-3.4891670879448
30
0
0
SPLINE
5
B3
100
AcDbEntity
8
1
62
256
6
ByLayer
370
18
48
1
60
0
100
AcDbSpline
70
4
71
3
72
10
73
6
40
0
40
0
40
0
40
0
40
0.648965561092666
40
0.648965561092666
40
1
40
1
40
1
40
1
41
1
10
59.5821181759826
20
6.85161287572365
30
0
41
1
10
59.293188528897
20
6.87236509887688
30
0
41
1
10
59.0043342904885
20
6.88633056427048
30
0
41
1
10
58.5590228556587
20
6.89736796062408
30
0
41
1
10
58.4025966930577
20
6.89925001471531
30
0
41
1
10
58.246152678561
20
6.89913881554656
30
0
0
SPLINE
5
B4
100
AcDbEntity
8
1
62
256
6
ByLayer
370
18
48
1
60
0
100
AcDbSpline
70
4
71
3
72
38
73
34
40
0
40
0
40
0
40
0
40
0.0536354601680056
40
0.0536354601680056
40
0.132499171820674
40
0.132499171820674
40
0.171931027647007
40
0.171931027647007
40
0.211362883473341
40
0.211362883473341
40
0.290226595126009
40
0.290226595126009
40
0.329658450952343
40
0.329658450952343
40
0.369090306778677
40
0.369090306778677
40
0.447954018431342
40
0.447954018431342
40
0.487385874257675
40
0.487385874257675
40
0.526817730084007
40
0.526817730084007
40
0.605681441736673
40
0.605681441736673
40
0.645113297563005
40
0.645113297563005
40
0.684545153389338
40
0.684545153389338
40
0.763408865042004
40
0.763408865042004
40
0.842272576694669
40
0.842272576694669
40
1
40
1
40
1
40
1
41
1
10
26.1052238223799
20
-6.59438013923335
30
0
41
1
10
25.7118127927521
20
-6.66260028444305
30
0
41
1
10
25.3179799672976
20
-6.71883585864293
30
0
41
1
10
24.3470326511197
20
-6.82688664642629
30
0
41
1
10
23.7703971134124
20
-6.86443127865297
30
0
41
1
10
22.9042979230278
20
-6.88010791533887
30
0
41
1
10
22.6153896377224
20
-6.87856356646586
30
0
41
1
10
22.0367477756184
20
-6.8618721307185
30
0
41
1
10
21.7470519946139
20
-6.84670520978437
30
0
41
1
10
20.8798433102904
20
-6.78110508411601
30
0
41
1
10
20.303099285836
20
-6.71050934051212
30
0
41
1
10
19.4370487012825
20
-6.56543056400517
30
0
41
1
10
19.1481968228044
20
-6.51055007749582
30
0
41
1
10
18.5697683042289
20
-6.38788199934692
30
0
41
1
10
18.2799850245887
20
-6.32002859367532
30
0
41
1
10
17.4124535245236
20
-6.09842796338941
30
0
41
1
10
16.8355327938168
20
-5.92639009221332
30
0
41
1
10
15.9695103328459
20
-5.63429034281216
30
0
41
1
10
15.6807124602865
20
-5.53126555363906
30
0
41
1
10
15.1024485516665
20
-5.3142564585585
30
0
41
1
10
14.8126666240888
20
-5.20013823994586
30
0
41
1
10
13.9447133825349
20
-4.84331949653836
30
0
41
1
10
13.367672100395
20
-4.58598182184889
30
0
41
1
10
12.5016830427512
20
-4.17433543036094
30
0
41
1
10
12.212932241409
20
-4.03286764545382
30
0
41
1
10
11.6347795022511
20
-3.74203304324388
30
0
41
1
10
11.345088896253
20
-3.59251219858038
30
0
41
1
10
10.4765926539971
20
-3.13406486911333
30
0
41
1
10
9.89948924912383
20
-2.8154532222764
30
0
41
1
10
8.74477473140433
20
-2.15879460113678
30
0
41
1
10
8.16679417035516
20
-1.82053104187466
30
0
41
1
10
6.42908872695861
20
-0.786172473595371
30
0
41
1
10
5.27835241074303
20
-0.0773471394076068
30
0
41
1
10
4.11993429754654
20
0.625369647707174
30
0
0
SPLINE
5
B5
100
AcDbEntity
8
1
62
256
6
ByLayer
370
18
48
1
60
0
100
AcDbSpline
70
4
71
3
72
12
73
8
40
0
40
0
40
0
40
0
40
0.250000000000005
40
0.250000000000005
40
0.50000000000001
40
0.50000000000001
40
1
40
1
40
1
40
1
41
1
10
59.6589603700116
20
-6.6460123114696
30
0
41
1
10
59.6639079941291
20
-6.63275081718206
30
0
41
1
10
59.6686681544569
20
-6.6191701714813
30
0
41
1
10
59.6764887297762
20
-6.59477891539595
30
0
41
1
10
59.6795285622324
20
-6.58398979902333
30
0
41
1
10
59.6848452332171
20
-6.56045491114764
30
0
41
1
10
59.6836140202606
20
-6.55623131449613
30
0
41
1
10
59.6798941631985
20
-6.5593069034615
30
0
0
SPLINE
5
B6
100
AcDbEntity
8
1
62
256
6
ByLayer
370
13
48
1
60
0
100
AcDbSpline
70
4
71
3
72
30
73
26
40
0
40
0
40
0
40
0
40
0.146784878606697
40
0.146784878606697
40
0.183481098258371
40
0.183481098258371
40
0.220177317910045
40
0.220177317910045
40
0.293569757213394
40
0.293569757213394
40
0.366962196516742
40
0.366962196516742
40
0.440354635820091
40
0.440354635820091
40
0.587139514426788
40
0.587139514426788
40
0.660531953730137
40
0.660531953730137
40
0.733924393033485
40
0.733924393033485
40
0.880709271640182
40
0.880709271640182
40
0.954101710943531
40
0.954101710943531
40
1
40
1
40
1
40
1
41
1
10
4.25022428941523
20
0.636429889130341
30
0
41
1
10
4.25022631610861
20
1.1122979909095
30
0
41
1
10
4.2502152027333
20
1.57527483965103
30
0
41
1
10
4.25019302919668
20
2.13834052388171
30
0
41
1
10
4.25018817635595
20
2.25016215323598
30
0
41
1
10
4.25017782787748
20
2.47219867314655
30
0
41
1
10
4.2501723151538
20
2.5827257040292
30
0
41
1
10
4.25015527181139
20
2.90871963575859
30
0
41
1
10
4.25014323435744
20
3.11898861760278
30
0
41
1
10
4.25011940472368
20
3.52583265595737
30
0
41
1
10
4.25010760939256
20
3.72240665531035
30
0
41
1
10
4.25008570153398
20
4.10179708887497
30
0
41
1
10
4.25007556653514
20
4.28502764500442
30
0
41
1
10
4.25004986886145
20
4.81062529092304
30
0
41
1
10
4.25003956911351
20
5.11992639007036
30
0
41
1
10
4.25003917650699
20
5.52432454671779
30
0
41
1
10
4.2500415328316
20
5.6491111549123
30
0
41
1
10
4.25005180476165
20
5.8779311249759
30
0
41
1
10
4.2500597142022
20
5.9811297162147
30
0
41
1
10
4.25009145637665
20
6.25318773405107
30
0
41
1
10
4.25012314009371
20
6.38421653773059
30
0
41
1
10
4.25018321835165
20
6.50722463886538
30
0
41
1
10
4.25020536961807
20
6.53589707859467
30
0
41
1
10
4.25024391372003
20
6.56148424263162
30
0
41
1
10
4.25025921898853
20
6.56620750623995
30
0
41
1
10
4.25027484268486
20
6.56591961496997
30
0
0
SPLINE
5
B7
100
AcDbEntity
8
1
62
256
6
ByLayer
370
18
48
1
60
0
100
AcDbSpline
70
4
71
3
72
22
73
18
40
0
40
0
40
0
40
0
40
0.124999999999998
40
0.124999999999998
40
0.249999999999997
40
0.249999999999997
40
0.499999999999996
40
0.499999999999996
40
0.624999999999996
40
0.624999999999996
40
0.687499999999996
40
0.687499999999996
40
0.749999999999996
40
0.749999999999996
40
0.874999999999998
40
0.874999999999998
40
1
40
1
40
1
40
1
41
1
10
12.0313201316032
20
-5.59909329092264
30
0
41
1
10
11.6896251334481
20
-5.70325096564122
30
0
41
1
10
11.3498949182888
20
-5.80107465450143
30
0
41
1
10
10.6762595340045
20
-5.97941489079048
30
0
41
1
10
10.3418306116051
20
-6.06044408771885
30
0
41
1
10
9.34367544711233
20
-6.28140877653553
30
0
41
1
10
8.68512494577573
20
-6.39695961118485
30
0
41
1
10
7.70515840352448
20
-6.50827432688107
30
0
41
1
10
7.37991405970061
20
-6.53434034930029
30
0
41
1
10
6.89420727624292
20
-6.55795222847158
30
0
41
1
10
6.73266844978323
20
-6.56324711557502
30
0
41
1
10
6.41045960489885
20
-6.56791086815076
30
0
41
1
10
6.24953753593451
20
-6.56731037282267
30
0
41
1
10
5.77033531870876
20
-6.55608858407874
30
0
41
1
10
5.45592276980688
20
-6.53627640791268
30
0
41
1
10
4.84097554775215
20
-6.46682995244498
30
0
41
1
10
4.54033717478328
20
-6.41731311606722
30
0
41
1
10
4.25045749925232
20
-6.34782932933925
30
0
0
SPLINE
5
B8
100
AcDbEntity
8
1
62
256
6
ByLayer
370
18
48
1
60
0
100
AcDbSpline
70
4
71
3
72
90
73
86
40
0
40
0
40
0
40
0
40
0.0331762954037071
40
0.0331762954037071
40
0.049764443105561
40
0.049764443105561
40
0.0663525908074149
40
0.0663525908074149
40
0.0995288862111228
40
0.0995288862111228
40
0.132705181614831
40
0.132705181614831
40
0.165881477018539
40
0.165881477018539
40
0.182469624720392
40
0.182469624720392
40
0.199057772422246
40
0.199057772422246
40
0.232234067825954
40
0.232234067825954
40
0.265410363229662
40
0.265410363229662
40
0.281998510931516
40
0.281998510931516
40
0.29858665863337
40
0.29858665863337
40
0.331762954037078
40
0.331762954037078
40
0.364939249440785
40
0.364939249440785
40
0.398115544844493
40
0.398115544844493
40
0.414703692546347
40
0.414703692546347
40
0.4312918402482
40
0.4312918402482
40
0.464468135651907
40
0.464468135651907
40
0.497644431055615
40
0.497644431055615
40
0.514232578757469
40
0.514232578757469
40
0.530820726459322
40
0.530820726459322
40
0.56399702186303
40
0.56399702186303
40
0.580585169564885
40
0.580585169564885
40
0.597173317266739
40
0.597173317266739
40
0.630349612670448
40
0.630349612670448
40
0.646937760372302
40
0.646937760372302
40
0.663525908074157
40
0.663525908074157
40
0.696702203477867
40
0.696702203477867
40
0.729878498881578
40
0.729878498881578
40
0.746466646583433
40
0.746466646583433
40
0.763054794285288
40
0.763054794285288
40
0.796231089688999
40
0.796231089688999
40
0.82940738509271
40
0.82940738509271
40
0.862583680496421
40
0.862583680496421
40
0.879171828198277
40
0.879171828198277
40
0.895759975900132
40
0.895759975900132
40
0.928936271303843
40
0.928936271303843
40
0.945524419005698
40
0.945524419005698
40
0.962112566707553
40
0.962112566707553
40
0.978700714409408
40
0.978700714409408
40
0.995288862111263
40
0.995288862111263
40
1
40
1
40
1
40
1
41
1
10
18.8472286739928
20
6.6247458676697
30
0
41
1
10
19.276041715986
20
6.69541843539361
30
0
41
1
10
19.703897018478
20
6.75072663958883
30
0
41
1
10
20.343289506172
20
6.8119901525119
30
0
41
1
10
20.5560368369432
20
6.82877224433301
30
0
41
1
10
20.9805803619817
20
6.85508166679037
30
0
41
1
10
21.1923302650173
20
6.86459204099839
30
0
41
1
10
21.8280634715669
20
6.88202702893923
30
0
41
1
10
22.2520740258363
20
6.87905227774743
30
0
41
1
10
23.0991364976659
20
6.84412821544797
30
0
41
1
10
23.5217271615068
20
6.8119057984286
30
0
41
1
10
24.3707188065753
20
6.71897774256095
30
0
41
1
10
24.7964586479562
20
6.65829028595226
30
0
41
1
10
25.4360848694072
20
6.54501556194009
30
0
41
1
10
25.6494132699473
20
6.50348306618662
30
0
41
1
10
26.0776837892782
20
6.41354603068993
30
0
41
1
10
26.2927794836932
20
6.36503695368492
30
0
41
1
10
26.9358031180266
20
6.20981727311494
30
0
41
1
10
27.362419867539
20
6.0931120572362
30
0
41
1
10
28.2119004693874
20
5.83367215044214
30
0
41
1
10
28.6363908483476
20
5.69234186081957
30
0
41
1
10
29.2722144177926
20
5.46288514112501
30
0
41
1
10
29.4839940509671
20
5.38347087285925
30
0
41
1
10
29.9070326304636
20
5.21853098761096
30
0
41
1
10
30.1182743704942
20
5.13296859300573
30
0
41
1
10
30.7531915106208
20
4.86924964204803
30
0
41
1
10
31.1775251843728
20
4.68357733931308
30
0
41
1
10
32.0270153341838
20
4.29084787038673
30
0
41
1
10
32.4517611838458
20
4.08309541073243
30
0
41
1
10
33.3069078573126
20
3.6520742302996
30
0
41
1
10
33.7377303552223
20
3.4273589428071
30
0
41
1
10
34.3783874255346
20
3.07998221106538
30
0
41
1
10
34.5912650327415
20
2.96233528581297
30
0
41
1
10
35.0169963567014
20
2.72540053210639
30
0
41
1
10
35.2297187541723
20
2.60591420528857
30
0
41
1
10
35.8671344147842
20
2.24393431836339
30
0
41
1
10
36.2908761406036
20
1.99760569828024
30
0
41
1
10
37.1365116892998
20
1.49577390844772
30
0
41
1
10
37.5600108568857
20
1.24287032770525
30
0
41
1
10
38.1956123010715
20
0.859503558639261
30
0
41
1
10
38.4075358466806
20
0.731039516621422
30
0
41
1
10
38.8312967660335
20
0.472405764509489
30
0
41
1
10
39.0431445728196
20
0.342248356632524
30
0
41
1
10
39.6805687971358
20
-0.0474218690922612
30
0
41
1
10
40.1074345614836
20
-0.307099826025251
30
0
41
1
10
40.7497116565556
20
-0.698089174425576
30
0
41
1
10
40.9643618233149
20
-0.829038105875412
30
0
41
1
10
41.3922395002345
20
-1.08917780043768
30
0
41
1
10
41.6058947310972
20
-1.21806290102285
30
0
41
1
10
42.2460830014878
20
-1.60116879321964
30
0
41
1
10
42.6716781919098
20
-1.85214288562628
30
0
41
1
10
43.3073764807631
20
-2.22349103056502
30
0
41
1
10
43.5188587006694
20
-2.34635409150283
30
0
41
1
10
43.942259102278
20
-2.58826677450094
30
0
41
1
10
44.1540322734434
20
-2.70755224332231
30
0
41
1
10
44.7892601524341
20
-3.06091813575026
30
0
41
1
10
45.2123916651556
20
-3.29085935021737
30
0
41
1
10
46.0586698421806
20
-3.73815974204644
30
0
41
1
10
46.4833972971036
20
-3.95326854622019
30
0
41
1
10
47.1221335698762
20
-4.26415846136149
30
0
41
1
10
47.3353216929286
20
-4.3658180283027
30
0
41
1
10
47.7620626911657
20
-4.56537268049175
30
0
41
1
10
47.9756622405812
20
-4.66319578283048
30
0
41
1
10
48.6190484728064
20
-4.94830765530602
30
0
41
1
10
49.0473106870794
20
-5.12659362814873
30
0
41
1
10
49.89902192414
20
-5.46057646081067
30
0
41
1
10
50.3225507548925
20
-5.61658507665939
30
0
41
1
10
51.1704466151018
20
-5.9015964115199
30
0
41
1
10
51.5940888443747
20
-6.03145252815381
30
0
41
1
10
52.2281823291636
20
-6.20788363287599
30
0
41
1
10
52.4393727583355
20
-6.26356110809479
30
0
41
1
10
52.8626377311514
20
-6.3678016436925
30
0
41
1
10
53.074559779146
20
-6.41648662595148
30
0
41
1
10
53.7108971741192
20
-6.55245054461986
30
0
41
1
10
54.1356185407285
20
-6.62978963101727
30
0
41
1
10
54.7741705785085
20
-6.72484243499889
30
0
41
1
10
54.9876325866439
20
-6.75288169694866
30
0
41
1
10
55.4157397133251
20
-6.8016967750705
30
0
41
1
10
55.6306640794501
20
-6.82250557287358
30
0
41
1
10
56.0593886665129
20
-6.85666932850484
30
0
41
1
10
56.2732872772933
20
-6.87004712752
30
0
41
1
10
56.6999719575376
20
-6.88940564381653
30
0
41
1
10
56.9128469893047
20
-6.8953534285001
30
0
41
1
10
57.1863524809044
20
-6.89820910554113
30
0
41
1
10
57.2468455365171
20
-6.89854373510045
30
0
41
1
10
57.3073339450577
20
-6.89858153779994
30
0
0
SPLINE
5
B9
100
AcDbEntity
8
1
62
256
6
ByLayer
370
18
48
1
60
0
100
AcDbSpline
70
4
71
3
72
8
73
4
40
0
40
0
40
0
40
0
40
1
40
1
40
1
40
1
41
1
10
4.00000019932739
20
-6.59266559085745
30
0
41
1
10
4.00000019932739
20
-6.612757289006
30
0
41
1
10
4.00000019932742
20
-6.63290466609402
30
0
41
1
10
4.00000019932742
20
-6.65310779832927
30
0
0
SPLINE
5
BA
100
AcDbEntity
8
1
62
256
6
ByLayer
370
18
48
1
60
0
100
AcDbSpline
70
4
71
3
72
14
73
10
40
0
40
0
40
0
40
0
40
0.0807813958869853
40
0.0807813958869853
40
0.205251861562845
40
0.205251861562845
40
0.703133724266288
40
0.703133724266288
40
1
40
1
40
1
40
1
41
1
10
23.0294383941386
20
-6.5770214643963
30
0
41
1
10
22.8414459547192
20
-6.57677209467258
30
0
41
1
10
22.6531458592222
20
-6.57376970177708
30
0
41
1
10
22.1737885606763
20
-6.55909437146829
30
0
41
1
10
21.8821166155595
20
-6.54356986527995
30
0
41
1
10
20.4307121206048
20
-6.43379211496602
30
0
41
1
10
19.2823125630063
20
-6.24325528763697
30
0
41
1
10
17.4471215445444
20
-5.79022667567159
30
0
41
1
10
16.7612693461959
20
-5.58782647974613
30
0
41
1
10
16.0721007125493
20
-5.35433215077359
30
0
0
SPLINE
5
BB
100
AcDbEntity
8
1
62
256
6
ByLayer
370
13
48
1
60
0
100
AcDbSpline
70
4
71
3
72
18
73
14
40
0
40
0
40
0
40
0
40
0.118617048522837
40
0.118617048522837
40
0.412411365681891
40
0.412411365681891
40
0.706205682840945
40
0.706205682840945
40
0.779654262130709
40
0.779654262130709
40
0.853102841420473
40
0.853102841420473
40
1
40
1
40
1
40
1
41
1
10
16.0721016596843
20
-5.35433247166839
30
0
41
1
10
15.605448011726
20
-5.19622752861244
30
0
41
1
10
15.1372737823508
20
-5.02386595833477
30
0
41
1
10
13.5010161103967
20
-4.37727564520324
30
0
41
1
10
12.3504739224078
20
-3.84499229143526
30
0
41
1
10
10.0507659624729
20
-2.68112537657083
30
0
41
1
10
8.90259044069518
20
-2.04820177189023
30
0
41
1
10
7.45118021634397
20
-1.22143061457683
30
0
41
1
10
7.15964223196715
20
-1.05403797343851
30
0
41
1
10
6.57718798866983
20
-0.717594240738208
30
0
41
1
10
6.28633960543033
20
-0.54859777565693
30
0
41
1
10
5.41405979193917
20
-0.0407804493378023
30
0
41
1
10
4.83283781286204
20
0.298773260617537
30
0
41
1
10
4.25022428941534
20
0.636429889130284
30
0
0
SPLINE
5
BC
100
AcDbEntity
8
1
62
256
6
ByLayer
370
18
48
1
60
0
100
AcDbSpline
70
4
71
3
72
14
73
10
40
0
40
0
40
0
40
0
40
0.25
40
0.25
40
0.5
40
0.5
40
0.75
40
0.75
40
1
40
1
40
1
40
1
41
1
10
58.6134876341116
20
1.66902329493914
30
0
41
1
10
58.6057062162816
20
1.69705426999292
30
0
41
1
10
58.6019764868019
20
1.72623899434069
30
0
41
1
10
58.6067643796943
20
1.78529255755473
30
0
41
1
10
58.6157137747968
20
1.8150475825922
30
0
41
1
10
58.6480316513165
20
1.86655938597443
30
0
41
1
10
58.6715394901214
20
1.88858560739351
30
0
41
1
10
58.7263128141618
20
1.91965519713744
30
0
41
1
10
58.756154217743
20
1.92894000854173
30
0
41
1
10
58.7869397154166
20
1.93450305245
30
0
0
SPLINE
5
BD
100
AcDbEntity
8
1
62
256
6
ByLayer
370
18
48
1
60
0
100
AcDbSpline
70
4
71
3
72
10
73
6
40
0
40
0
40
0
40
0
40
0.320063429877015
40
0.320063429877015
40
1
40
1
40
1
40
1
41
1
10
12.6817089100189
20
-5.06084483097737
30
0
41
1
10
12.6132910458522
20
-5.12173790136208
30
0
41
1
10
12.5446648482672
20
-5.18162687057892
30
0
41
1
10
12.3292962508279
20
-5.36526331595775
30
0
41
1
10
12.1814582924472
20
-5.48506186854968
30
0
41
1
10
12.0314981896352
20
-5.59909569841255
30
0
0
SPLINE
5
BE
100
AcDbEntity
8
1
62
256
6
ByLayer
370
13
48
1
60
0
100
AcDbSpline
70
4
71
3
72
10
73
6
40
0
40
0
40
0
40
0
40
0.157897467274357
40
0.157897467274357
40
1
40
1
40
1
40
1
41
1
10
4.25027481349713
20
-6.56592014697685
30
0
41
1
10
4.25028418194779
20
-6.56575125664563
30
0
41
1
10
4.25029366493234
20
-6.56378045335094
30
0
41
1
10
4.25035423429688
20
-6.54003788586252
30
0
41
1
10
4.25040764353173
20
-6.46991105546181
30
0
41
1
10
4.25045748097702
20
-6.34782933278859
30
0
0
SPLINE
5
BF
100
AcDbEntity
8
1
62
256
6
ByLayer
370
18
48
1
60
0
100
AcDbSpline
70
4
71
3
72
64
73
60
40
0
40
0
40
0
40
0
40
0.0471720358414832
40
0.0471720358414832
40
0.0943440716829664
40
0.0943440716829664
40
0.14151610752445
40
0.14151610752445
40
0.165102125445191
40
0.165102125445191
40
0.188688143365933
40
0.188688143365933
40
0.235860179207417
40
0.235860179207417
40
0.259446197128159
40
0.259446197128159
40
0.283032215048902
40
0.283032215048902
40
0.330204250890386
40
0.330204250890386
40
0.353790268811127
40
0.353790268811127
40
0.377376286731869
40
0.377376286731869
40
0.424548322573353
40
0.424548322573353
40
0.448134340494095
40
0.448134340494095
40
0.471720358414837
40
0.471720358414837
40
0.518892394256321
40
0.518892394256321
40
0.542478412177062
40
0.542478412177062
40
0.566064430097804
40
0.566064430097804
40
0.613236465939288
40
0.613236465939288
40
0.660408501780772
40
0.660408501780772
40
0.707580537622256
40
0.707580537622256
40
0.75475257346374
40
0.75475257346374
40
0.801924609305224
40
0.801924609305224
40
0.825510627225965
40
0.825510627225965
40
0.849096645146707
40
0.849096645146707
40
0.89626868098819
40
0.89626868098819
40
0.919854698908932
40
0.919854698908932
40
0.943440716829673
40
0.943440716829673
40
0.990612752671156
40
0.990612752671156
40
1
40
1
40
1
40
1
41
1
10
59.5821181759826
20
-6.85161287572365
30
0
41
1
10
59.0036417766184
20
-6.89316164529291
30
0
41
1
10
58.4257248571606
20
-6.90749993114503
30
0
41
1
10
57.2675017934118
20
-6.88154094788962
30
0
41
1
10
56.6899856339475
20
-6.84129880352887
30
0
41
1
10
55.5356263855212
20
-6.70752639383346
30
0
41
1
10
54.9585360619014
20
-6.61401454991093
30
0
41
1
10
54.0903167616804
20
-6.43465229104169
30
0
41
1
10
53.8007904599692
20
-6.36838748141355
30
0
41
1
10
53.2228154045621
20
-6.2237381074377
30
0
41
1
10
52.934110733261
20
-6.14529000065954
30
0
41
1
10
52.0682699619816
20
-5.89205374971394
30
0
41
1
10
51.4912460196813
20
-5.69950147738484
30
0
41
1
10
50.6233254518739
20
-5.37725592831808
30
0
41
1
10
50.3335841454736
20
-5.26424093681737
30
0
41
1
10
49.7553975081883
20
-5.02856529486473
30
0
41
1
10
49.4666295696761
20
-4.90579110967815
30
0
41
1
10
48.6005901878291
20
-4.52353873035634
30
0
41
1
10
48.023589241886
20
-4.25012883668566
30
0
41
1
10
47.1559103595334
20
-3.81545508653019
30
0
41
1
10
46.8660784340913
20
-3.66633521227078
30
0
41
1
10
46.2876028607989
20
-3.36181185626097
30
0
41
1
10
45.998716565546
20
-3.20629728033947
30
0
41
1
10
45.1324952921694
20
-2.73093125588406
30
0
41
1
10
44.5555475837195
20
-2.4023302393754
30
0
41
1
10
43.6881013693864
20
-1.89613965929556
30
0
41
1
10
43.3983114815233
20
-1.72497332478434
30
0
41
1
10
42.8195542470242
20
-1.38015687374099
30
0
41
1
10
42.5305646801651
20
-1.20647728609441
30
0
41
1
10
41.6641628292089
20
-0.682608105582005
30
0
41
1
10
41.0871885174402
20
-0.329798002139853
30
0
41
1
10
40.2199785018652
20
0.200365993083551
30
0
41
1
10
39.9303452992998
20
0.377411420862586
30
0
41
1
10
39.351299782109
20
0.730163356403807
30
0
41
1
10
39.062203993966
20
0.905705159900378
30
0
41
1
10
38.1955835441885
20
1.42884930587596
30
0
41
1
10
37.6185902327628
20
1.77275081800138
30
0
41
1
10
36.462544167833
20
2.44512214621352
30
0
41
1
10
35.8825806486013
20
2.77393648056599
30
0
41
1
10
34.7266712171265
20
3.40482077377746
30
0
41
1
10
34.1496878381921
20
3.70757018961021
30
0
41
1
10
32.9938700608223
20
4.28234450951257
30
0
41
1
10
32.4138514077742
20
4.55473803678831
30
0
41
1
10
31.2574709200682
20
5.05968653347168
30
0
41
1
10
30.6804552798564
20
5.29279627014247
30
0
41
1
10
29.8137316727639
20
5.61022322019377
30
0
41
1
10
29.524610197753
20
5.71064739052247
30
0
41
1
10
28.9454878251843
20
5.90024469637694
30
0
41
1
10
28.6556812115034
20
5.9893395534782
30
0
41
1
10
27.7880761702453
20
6.23806442945394
30
0
41
1
10
27.2110109933653
20
6.37960995782635
30
0
41
1
10
26.3443530459593
20
6.55358874278366
30
0
41
1
10
26.0552815604283
20
6.6051906355176
30
0
41
1
10
25.4763358411553
20
6.69534534204669
30
0
41
1
10
25.1863559193715
20
6.73389280827118
30
0
41
1
10
24.318366289651
20
6.82919588336298
30
0
41
1
10
23.7412042800245
20
6.86586031567668
30
0
41
1
10
23.0485083437216
20
6.87729012572498
30
0
41
1
10
22.9335158073722
20
6.87811337388931
30
0
41
1
10
22.8184858626456
20
6.87786136090483
30
0
0
SPLINE
5
C0
100
AcDbEntity
8
1
62
256
6
ByLayer
370
18
48
1
60
0
100
AcDbSpline
70
4
71
3
72
63
73
59
40
0
40
0
40
0
40
0
40
0.125
40
0.125
40
0.187499999999999
40
0.187499999999999
40
0.249999999999999
40
0.249999999999999
40
0.374999999999998
40
0.374999999999998
40
0.499999999999997
40
0.499999999999997
40
0.562499999999997
40
0.562499999999997
40
0.624999999999997
40
0.624999999999997
40
0.687499999999996
40
0.687499999999996
40
0.703124999999996
40
0.703124999999996
40
0.707031249999996
40
0.707031249999996
40
0.710937499999997
40
0.710937499999997
40
0.712890624999997
40
0.712890624999997
40
0.714843749999996
40
0.718749999999996
40
0.718749999999996
40
0.734374999999996
40
0.734374999999996
40
0.749999999999996
40
0.749999999999996
40
0.781249999999997
40
0.781249999999997
40
0.789062499999997
40
0.789062499999997
40
0.796874999999997
40
0.796874999999997
40
0.812499999999997
40
0.812499999999997
40
0.828124999999997
40
0.828124999999997
40
0.843749999999998
40
0.843749999999998
40
0.874999999999998
40
0.874999999999998
40
0.890624999999998
40
0.890624999999998
40
0.906249999999999
40
0.906249999999999
40
0.921874999999999
40
0.921874999999999
40
0.9375
40
0.9375
40
0.96875
40
0.96875
40
1
40
1
40
1
40
1
41
1
10
18.847220439999
20
-6.62475751974944
30
0
41
1
10
18.0218286394489
20
-6.48898737491356
30
0
41
1
10
17.1878673257597
20
-6.30476759440475
30
0
41
1
10
15.9143662502388
20
-5.97947159580224
30
0
41
1
10
15.4876555818895
20
-5.86335183725177
30
0
41
1
10
14.6306484555071
20
-5.6218474901861
30
0
41
1
10
14.1999382035261
20
-5.49636447471474
30
0
41
1
10
12.8985828659514
20
-5.11456601714798
30
0
41
1
10
12.0185805017923
20
-4.85297004616743
30
0
41
1
10
10.2219560201817
20
-4.36432260778207
30
0
41
1
10
9.30534427836437
20
-4.13751320210329
30
0
41
1
10
7.89716251672124
20
-3.85603375390511
30
0
41
1
10
7.42149043057657
20
-3.77185726918418
30
0
41
1
10
6.4665329027799
20
-3.62857580761309
30
0
41
1
10
5.98602955578014
20
-3.56922773172832
30
0
41
1
10
5.02146995348124
20
-3.47838926184295
30
0
41
1
10
4.53792355732321
20
-3.44690752813301
30
0
41
1
10
3.93182963405525
20
-3.42635326089913
30
0
41
1
10
3.81051026395488
20
-3.42318206471302
30
0
41
1
10
3.65885793637514
20
-3.42041587786366
30
0
41
1
10
3.62828068673136
20
-3.41946105485542
30
0
41
1
10
3.56816689263027
20
-3.42564974004517
30
0
41
1
10
3.53896377509616
20
-3.43164123082252
30
0
41
1
10
3.49756725297863
20
-3.44875571347521
30
0
41
1
10
3.48499844455324
20
-3.45630303114461
30
0
41
1
10
3.4598037986072
20
-3.47097354381046
30
0
41
1
10
3.42211638693726
20
-3.49308039930421
30
0
41
1
10
3.38474854656272
20
-3.51549508872114
30
0
41
1
10
3.26092760130689
20
-3.59091685053656
30
0
41
1
10
3.16396079924146
20
-3.6536915536046
30
0
41
1
10
2.97706659368285
20
-3.78342912750938
30
0
41
1
10
2.88721898988928
20
-3.85030766635637
30
0
41
1
10
2.630271006583
20
-4.05768256798459
30
0
41
1
10
2.47532409433592
20
-4.20473440981129
30
0
41
1
10
2.31260220518692
20
-4.40382162098228
30
0
41
1
10
2.28166166616489
20
-4.44443114749839
30
0
41
1
10
2.22441062362702
20
-4.52578068359637
30
0
41
1
10
2.197946471314
20
-4.56670013720932
30
0
41
1
10
2.12539536966591
20
-4.69017188020288
30
0
41
1
10
2.08612542379035
20
-4.77343752864641
30
0
41
1
10
2.02818635323479
20
-4.94176458834241
30
0
41
1
10
2.01033587245894
20
-5.02475683821137
30
0
41
1
10
1.99642640816182
20
-5.18612395781673
30
0
41
1
10
2.00026720299672
20
-5.26492805300418
30
0
41
1
10
2.04272155082634
20
-5.4946004241236
30
0
41
1
10
2.10984075945083
20
-5.63039823323979
30
0
41
1
10
2.25055559686055
20
-5.81462950505855
30
0
41
1
10
2.30404594034911
20
-5.87235326281612
30
0
41
1
10
2.41970374917068
20
-5.97976239792524
30
0
41
1
10
2.48214633307188
20
-6.0297960466043
30
0
41
1
10
2.61446706400915
20
-6.1237342993023
30
0
41
1
10
2.68435384014379
20
-6.16763313623258
30
0
41
1
10
2.8303176324014
20
-6.25014231637786
30
0
41
1
10
2.9066079521094
20
-6.28884233479673
30
0
41
1
10
3.14181213643582
20
-6.39722769528248
30
0
41
1
10
3.30627721894473
20
-6.45908365695692
30
0
41
1
10
3.64579694296188
20
-6.56716984088084
30
0
41
1
10
3.82090277031892
20
-6.61334372853568
30
0
41
1
10
4.00000019932924
20
-6.65310779832967
30
0
0
SPLINE
5
C1
100
AcDbEntity
8
1
62
256
6
ByLayer
370
18
48
1
60
0
100
AcDbSpline
70
4
71
3
72
14
73
10
40
0
40
0
40
0
40
0
40
0.0823188075343238
40
0.0823188075343238
40
0.372174006988381
40
0.372174006988381
40
0.951884405896496
40
0.951884405896496
40
1
40
1
40
1
40
1
41
1
10
58.4378465336637
20
-6.59839792465721
30
0
41
1
10
58.2742994576228
20
-6.59825335746314
30
0
41
1
10
58.1109857254797
20
-6.59601830653713
30
0
41
1
10
57.3735019120417
20
-6.57654730114143
30
0
41
1
10
56.8014923528471
20
-6.53571937592295
30
0
41
1
10
55.0879340488429
20
-6.33897531964197
30
0
41
1
10
53.9486789521733
20
-6.10827125554567
30
0
41
1
10
52.7038214542044
20
-5.75784242260022
30
0
41
1
10
52.6083469226612
20
-5.73034247107611
30
0
41
1
10
52.5127936590524
20
-5.70220301660493
30
0
0
SPLINE
5
C2
100
AcDbEntity
8
1
62
256
6
ByLayer
370
13
48
1
60
0
100
AcDbSpline
70
4
71
3
72
24
73
20
40
0
40
0
40
0
40
0
40
0.0909836068469585
40
0.0909836068469585
40
0.145530050472635
40
0.145530050472635
40
0.200076494098312
40
0.200076494098312
40
0.418262268601019
40
0.418262268601019
40
0.527355155852373
40
0.527355155852373
40
0.581901599478051
40
0.581901599478051
40
0.636448043103728
40
0.636448043103728
40
0.854633817606435
40
0.854633817606435
40
1
40
1
40
1
40
1
41
1
10
52.5127936589967
20
-5.70220301658847
30
0
41
1
10
52.0327204381579
20
-5.56082638505791
30
0
41
1
10
51.550659861838
20
-5.40330741456302
30
0
41
1
10
50.7747694013756
20
-5.12637163603935
30
0
41
1
10
50.4838647904321
20
-5.01729136894232
30
0
41
1
10
49.9046265565897
20
-4.79045513893959
30
0
41
1
10
49.6157974599545
20
-4.67253560543159
30
0
41
1
10
48.1745781246831
20
-4.06187648337473
30
0
41
1
10
47.0309641421609
20
-3.50589133649032
30
0
41
1
10
45.3091741529985
20
-2.60143334956709
30
0
41
1
10
44.7342702427931
20
-2.28804045268501
30
0
41
1
10
43.8677129188575
20
-1.80420494244555
30
0
41
1
10
43.5781904940367
20
-1.64057859764054
30
0
41
1
10
42.9972894888335
20
-1.30944192650708
30
0
41
1
10
42.7056676010524
20
-1.14181279214071
30
0
41
1
10
41.2548574969651
20
-0.302652320863217
30
0
41
1
10
40.1069394056444
20
0.376296086214694
30
0
41
1
10
38.1927479587495
20
1.48117018755406
30
0
41
1
10
37.4269790428369
20
1.91593847700892
30
0
41
1
10
36.6567335923011
20
2.33661673323897
30
0
0
SPLINE
5
C3
100
AcDbEntity
8
1
62
256
6
ByLayer
370
18
48
1
60
0
100
AcDbSpline
70
4
71
3
72
24
73
20
40
0
40
0
40
0
40
0
40
0.249999999999995
40
0.249999999999995
40
0.374999999999993
40
0.374999999999993
40
0.499999999999991
40
0.499999999999991
40
0.624999999999988
40
0.624999999999988
40
0.749999999999986
40
0.749999999999986
40
0.812499999999989
40
0.812499999999989
40
0.874999999999993
40
0.874999999999993
40
0.937499999999996
40
0.937499999999996
40
1
40
1
40
1
40
1
41
1
10
58.7869397154166
20
1.93450305245
30
0
41
1
10
59.0198789343037
20
1.97659595984314
30
0
41
1
10
59.2516034279095
20
2.02495668679896
30
0
41
1
10
59.596020529421
20
2.1144280701686
30
0
41
1
10
59.7102894165751
20
2.14712149889058
30
0
41
1
10
59.9372791343025
20
2.22094120738126
30
0
41
1
10
60.0502666199722
20
2.26209879812669
30
0
41
1
10
60.2727156967471
20
2.35756199675481
30
0
41
1
10
60.3808723516092
20
2.41113388779621
30
0
41
1
10
60.586650227751
20
2.53872109392574
30
0
41
1
10
60.6824005834303
20
2.61121849347882
30
0
41
1
10
60.8056729263962
20
2.74458680391808
30
0
41
1
10
60.8428871282303
20
2.79308390421275
30
0
41
1
10
60.904560862521
20
2.89700826183807
30
0
41
1
10
60.9295346277427
20
2.95376112448088
30
0
41
1
10
60.9627144084611
20
3.07028015175919
30
0
41
1
10
60.9713583132936
20
3.13066404953736
30
0
41
1
10
60.9731750343189
20
3.25358396903062
30
0
41
1
10
60.9664705306888
20
3.31415663220409
30
0
41
1
10
60.9539219152711
20
3.37404126259062
30
0
0
SPLINE
5
C4
100
AcDbEntity
8
1
62
256
6
ByLayer
370
18
48
1
60
0
100
AcDbSpline
70
4
71
3
72
14
73
10
40
0
40
0
40
0
40
0
40
0.25
40
0.25
40
0.5
40
0.5
40
0.75
40
0.75
40
1
40
1
40
1
40
1
41
1
10
4.11993429754654
20
0.625369647707174
30
0
41
1
10
4.1015405027741
20
0.636527646894251
30
0
41
1
10
4.0849692290999
20
0.649770122357268
30
0
41
1
10
4.05535878060635
20
0.680287850267433
30
0
41
1
10
4.04241357323755
20
0.697612172688366
30
0
41
1
10
4.02162242264126
20
0.734436982197252
30
0
41
1
10
4.01348560738325
20
0.754470694774284
30
0
41
1
10
4.00273529422583
20
0.795387624251163
30
0
41
1
10
4.00000019932742
20
0.816297946701695
30
0
41
1
10
4.00000019932739
20
0.837675252890421
30
0
0
SPLINE
5
C5
100
AcDbEntity
8
1
62
256
6
ByLayer
370
18
48
1
60
0
100
AcDbSpline
70
4
71
3
72
20
73
16
40
0
40
0
40
0
40
0
40
0.125000000000001
40
0.125000000000001
40
0.250000000000003
40
0.250000000000003
40
0.500000000000002
40
0.500000000000002
40
0.625000000000002
40
0.625000000000002
40
0.750000000000001
40
0.750000000000001
40
0.875000000000001
40
0.875000000000001
40
1
40
1
40
1
40
1
41
1
10
60.9539219152711
20
-3.37404126259074
30
0
41
1
10
60.9010412686705
20
-3.5157247131846
30
0
41
1
10
60.8480877502651
20
-3.65725697211377
30
0
41
1
10
60.7421113442841
20
-3.9401775654415
30
0
41
1
10
60.689105770005
20
-4.08161213658982
30
0
41
1
10
60.530020411992
20
-4.50561727611037
30
0
41
1
10
60.4238676272583
20
-4.78790918660701
30
0
41
1
10
60.2643077750438
20
-5.21004275176529
30
0
41
1
10
60.2110977329029
20
-5.3506776896669
30
0
41
1
10
60.1046560059054
20
-5.63179031137895
30
0
41
1
10
60.0514241007581
20
-5.77223196538208
30
0
41
1
10
59.9448899756192
20
-6.05238512165718
30
0
41
1
10
59.8915681626324
20
-6.19189316960117
30
0
41
1
10
59.7848785731167
20
-6.4704319785082
30
0
41
1
10
59.7315191725463
20
-6.60954971570939
30
0
41
1
10
59.678088132239
20
-6.74792354344905
30
0
0
SPLINE
5
C6
100
AcDbEntity
8
1
62
256
6
ByLayer
370
18
48
1
60
0
100
AcDbSpline
70
4
71
3
72
34
73
30
40
0
40
0
40
0
40
0
40
0.0625000000000014
40
0.0625000000000014
40
0.0937500000000024
40
0.0937500000000024
40
0.125000000000003
40
0.125000000000003
40
0.187500000000004
40
0.187500000000004
40
0.218750000000004
40
0.218750000000004
40
0.250000000000005
40
0.250000000000005
40
0.375000000000003
40
0.375000000000003
40
0.437500000000003
40
0.437500000000003
40
0.500000000000003
40
0.500000000000003
40
0.625000000000003
40
0.625000000000003
40
0.687500000000001
40
0.687500000000001
40
0.75
40
0.75
40
0.875
40
0.875
40
1
40
1
40
1
40
1
41
1
10
52.4100988832665
20
3.60205889520813
30
0
41
1
10
52.4087281514034
20
3.42171301092546
30
0
41
1
10
52.4226625369957
20
3.23632213032605
30
0
41
1
10
52.4662901910029
20
2.95074465699895
30
0
41
1
10
52.4847197655138
20
2.8539075219096
30
0
41
1
10
52.5287614926266
20
2.65960322502011
30
0
41
1
10
52.5542207470953
20
2.5626578467338
30
0
41
1
10
52.6401536945787
20
2.27239631987561
30
0
41
1
10
52.7101325097215
20
2.07965176879208
30
0
41
1
10
52.8320660731112
20
1.79155516536721
30
0
41
1
10
52.8755502325026
20
1.69569372795448
30
0
41
1
10
52.96798819732
20
1.50429977430366
30
0
41
1
10
53.0168794728199
20
1.40894608092751
30
0
41
1
10
53.2708898630884
20
0.939374946181431
30
0
41
1
10
53.5065310674215
20
0.581134319270433
30
0
41
1
10
53.8950790094138
20
0.0626144365779169
30
0
41
1
10
54.031152011696
20
-0.107683669266208
30
0
41
1
10
54.3108747559157
20
-0.438915088552278
30
0
41
1
10
54.4542771193329
20
-0.599663712318943
30
0
41
1
10
54.8935683564296
20
-1.06942344090757
30
0
41
1
10
55.1984836211285
20
-1.36602778829101
30
0
41
1
10
55.6700473023826
20
-1.79142910322898
30
0
41
1
10
55.8296157549301
20
-1.92995746796453
30
0
41
1
10
56.1530418138078
20
-2.20111876364749
30
0
41
1
10
56.317085547917
20
-2.33401953518634
30
0
41
1
10
56.8144205834166
20
-2.72195432748973
30
0
41
1
10
57.1510818203254
20
-2.96469039378954
30
0
41
1
10
57.8320924597405
20
-3.42623427468215
30
0
41
1
10
58.1765075541333
20
-3.64483763322198
30
0
41
1
10
58.524358815462
20
-3.85274644228787
30
0
0
SPLINE
5
C7
100
AcDbEntity
8
1
62
256
6
ByLayer
370
18
48
1
60
0
100
AcDbSpline
70
4
71
3
72
84
73
80
40
0
40
0
40
0
40
0
40
0.009310010156558
40
0.009310010156558
40
0.0263908720504112
40
0.0263908720504112
40
0.0434717339442645
40
0.0434717339442645
40
0.0776334577319701
40
0.0776334577319701
40
0.111795181519676
40
0.111795181519676
40
0.145956905307382
40
0.145956905307382
40
0.180118629095087
40
0.180118629095087
40
0.214280352882793
40
0.214280352882793
40
0.231361214776646
40
0.231361214776646
40
0.248442076670498
40
0.248442076670498
40
0.265522938564351
40
0.265522938564351
40
0.282603800458204
40
0.282603800458204
40
0.299684662352057
40
0.299684662352057
40
0.31676552424591
40
0.31676552424591
40
0.350927248033615
40
0.350927248033615
40
0.385088971821321
40
0.385088971821321
40
0.402169833715173
40
0.402169833715173
40
0.419250695609026
40
0.419250695609026
40
0.436331557502878
40
0.436331557502878
40
0.45341241939673
40
0.45341241939673
40
0.487574143184434
40
0.487574143184434
40
0.521735866972138
40
0.521735866972138
40
0.555897590759842
40
0.555897590759842
40
0.572978452653694
40
0.572978452653694
40
0.590059314547546
40
0.590059314547546
40
0.62422103833525
40
0.62422103833525
40
0.658382762122954
40
0.658382762122954
40
0.675463624016806
40
0.675463624016806
40
0.692544485910658
40
0.692544485910658
40
0.726706209698362
40
0.726706209698362
40
0.743787071592214
40
0.743787071592214
40
0.760867933486067
40
0.760867933486067
40
0.795029657273772
40
0.795029657273772
40
0.829191381061476
40
0.829191381061476
40
0.863353104849181
40
0.863353104849181
40
0.897514828636886
40
0.897514828636886
40
0.931676552424591
40
0.931676552424591
40
0.965838276212295
40
0.965838276212295
40
1
40
1
40
1
40
1
41
1
10
48.9559684447248
20
-5.09874162028305
30
0
41
1
10
48.8409827861408
20
-5.14116521839699
30
0
41
1
10
48.7259568703444
20
-5.18283619969492
30
0
41
1
10
48.3997409856787
20
-5.29887731021287
30
0
41
1
10
48.1884550300475
20
-5.37140603066666
30
0
41
1
10
47.7656629012629
20
-5.51117087967768
30
0
41
1
10
47.5539712971276
20
-5.57854826592236
30
0
41
1
10
46.9200535539664
20
-5.77103707467029
30
0
41
1
10
46.4991078287771
20
-5.88589766555705
30
0
41
1
10
45.6596330832509
20
-6.08894646558099
30
0
41
1
10
45.2414702473326
20
-6.17910332995032
30
0
41
1
10
44.4057440076537
20
-6.33239452919378
30
0
41
1
10
43.9880689163876
20
-6.39568650690495
30
0
41
1
10
43.1530163431726
20
-6.49719892577326
30
0
41
1
10
42.7358011459886
20
-6.53331731004491
30
0
41
1
10
41.898979964034
20
-6.58039504616727
30
0
41
1
10
41.4795263829623
20
-6.59063052155747
30
0
41
1
10
40.8488675683213
20
-6.58423982247268
30
0
41
1
10
40.6383759575508
20
-6.57896888693188
30
0
41
1
10
40.2163390051122
20
-6.56163950930369
30
0
41
1
10
40.0044744515663
20
-6.54951750962431
30
0
41
1
10
39.5817143163835
20
-6.5180246520095
30
0
41
1
10
39.3708043729222
20
-6.49852406871378
30
0
41
1
10
38.9498132786798
20
-6.45342743838398
30
0
41
1
10
38.7398264334911
20
-6.42775827054137
30
0
41
1
10
38.3204444186333
20
-6.36962340945391
30
0
41
1
10
38.1110037113808
20
-6.33720387576238
30
0
41
1
10
37.6924565677145
20
-6.26535320746405
30
0
41
1
10
37.4833347529328
20
-6.22602771641175
30
0
41
1
10
36.8563136253642
20
-6.10015665430518
30
0
41
1
10
36.4392547280411
20
-6.0038903987631
30
0
41
1
10
35.6046233669173
20
-5.78667092373919
30
0
41
1
10
35.1869090227062
20
-5.66655687058429
30
0
41
1
10
34.5592970671662
20
-5.46692845525362
30
0
41
1
10
34.3499755919058
20
-5.39670136307996
30
0
41
1
10
33.9308396745012
20
-5.25123733412684
30
0
41
1
10
33.720991518208
20
-5.17621433972991
30
0
41
1
10
33.3005016810704
20
-5.02100430851311
30
0
41
1
10
33.0898628468589
20
-4.9408246968824
30
0
41
1
10
32.6677406482615
20
-4.77516916039326
30
0
41
1
10
32.4560061610372
20
-4.68960457599272
30
0
41
1
10
31.821829178263
20
-4.42508571897679
30
0
41
1
10
31.4001695570678
20
-4.23891308796212
30
0
41
1
10
30.5564485852672
20
-3.84779989255682
30
0
41
1
10
30.1346721473817
20
-3.64531960339704
30
0
41
1
10
29.2911402309245
20
-3.22467934355561
30
0
41
1
10
28.868167213986
20
-3.00721726873249
30
0
41
1
10
28.2337410144065
20
-2.67215285523898
30
0
41
1
10
28.0224922452057
20
-2.55905307260204
30
0
41
1
10
27.6005823910961
20
-2.3293897784134
30
0
41
1
10
27.3898402766264
20
-2.21316903519266
30
0
41
1
10
26.7573761057703
20
-1.86247347799801
30
0
41
1
10
26.335551960856
20
-1.62545888461148
30
0
41
1
10
25.491352958087
20
-1.14441646266607
30
0
41
1
10
25.0686868071572
20
-0.899349047925767
30
0
41
1
10
24.434761143205
20
-0.531043905835617
30
0
41
1
10
24.2236244515362
20
-0.408153229702776
30
0
41
1
10
23.8014859680678
20
-0.162359304722713
30
0
41
1
10
23.5905022161193
20
-0.0394271588403114
30
0
41
1
10
22.9581201332762
20
0.329962806326591
30
0
41
1
10
22.5368265319212
20
0.576200685633125
30
0
41
1
10
21.9035749031102
20
0.942528115484379
30
0
41
1
10
21.6923174679567
20
1.06420864290524
30
0
41
1
10
21.269483344267
20
1.30675112903793
30
0
41
1
10
21.057925892803
20
1.42773897562151
30
0
41
1
10
20.4256006659854
20
1.7866713127506
30
0
41
1
10
20.0053837603547
20
2.02161786276025
30
0
41
1
10
19.1669575201964
20
2.48029235657145
30
0
41
1
10
18.749148224185
20
2.70496419885856
30
0
41
1
10
17.9142819278554
20
3.14169606663336
30
0
41
1
10
17.4969308440156
20
3.35270727577387
30
0
41
1
10
16.6619762148536
20
3.76156441861104
30
0
41
1
10
16.2448357023696
20
3.95986050105643
30
0
41
1
10
15.4079992972801
20
4.33831929006863
30
0
41
1
10
14.9883996056209
20
4.51906276793267
30
0
41
1
10
14.1466955349449
20
4.86201907993689
30
0
41
1
10
13.7237023037422
20
5.02438188347381
30
0
41
1
10
12.8778095310444
20
5.32834274747014
30
0
41
1
10
12.4547638990755
20
5.46948299481875
30
0
41
1
10
12.0316234363656
20
5.59900045560232
30
0
0
SPLINE
5
C8
100
AcDbEntity
8
1
62
256
6
ByLayer
370
18
48
1
60
0
100
AcDbSpline
70
4
71
3
72
14
73
10
40
0
40
0
40
0
40
0
40
0.451289916841217
40
0.451289916841217
40
0.676934875261825
40
0.676934875261825
40
0.902579833682432
40
0.902579833682432
40
1
40
1
40
1
40
1
41
1
10
18.847220439999
20
6.62475751974944
30
0
41
1
10
18.0218286394489
20
6.48898737491356
30
0
41
1
10
17.1878673257598
20
6.30476759440472
30
0
41
1
10
15.9143662502389
20
5.97947159580224
30
0
41
1
10
15.4876555818895
20
5.86335183725177
30
0
41
1
10
14.6306484555072
20
5.6218474901861
30
0
41
1
10
14.1999382035261
20
5.49636447471477
30
0
41
1
10
13.5788702990255
20
5.31415231394973
30
0
41
1
10
13.3910081686252
20
5.25887713845276
30
0
41
1
10
13.2025075722484
20
5.2035176047342
30
0
0
SPLINE
5
C9
100
AcDbEntity
8
1
62
256
6
ByLayer
370
18
48
1
60
0
100
AcDbSpline
70
4
71
3
72
8
73
4
40
0
40
0
40
0
40
0
40
1
40
1
40
1
40
1
41
1
10
12.0316234363655
20
-5.59900045560232
30
0
41
1
10
12.4199516453933
20
-5.48013854563092
30
0
41
1
10
12.806854833675
20
-5.35190443250244
30
0
41
1
10
13.1924396671478
20
-5.21504635317473
30
0
0
SPLINE
5
CA
100
AcDbEntity
8
1
62
256
6
ByLayer
370
18
48
1
60
0
100
AcDbSpline
70
4
71
3
72
24
73
20
40
0
40
0
40
0
40
0
40
0.0710643941085428
40
0.0710643941085428
40
0.187181344844975
40
0.187181344844975
40
0.303298295581407
40
0.303298295581407
40
0.419415246317839
40
0.419415246317839
40
0.535532197054271
40
0.535532197054271
40
0.651649147790704
40
0.651649147790704
40
0.767766098527136
40
0.767766098527136
40
0.883883049263568
40
0.883883049263568
40
1
40
1
40
1
40
1
41
1
10
41.5478243486878
20
6.58485178085436
30
0
41
1
10
41.80571236539
20
6.58066920276025
30
0
41
1
10
42.0642608923219
20
6.57117290959891
30
0
41
1
10
42.7468728932577
20
6.53256755368105
30
0
41
1
10
43.1692519792056
20
6.49566695905457
30
0
41
1
10
44.0137843715364
20
6.39209620949265
30
0
41
1
10
44.4359578798461
20
6.32758379394369
30
0
41
1
10
45.2802298639866
20
6.17120042610833
30
0
41
1
10
45.7025695005851
20
6.07942943949394
30
0
41
1
10
46.5497049929192
20
5.87268989256575
30
0
41
1
10
46.9710966922353
20
5.75641111082027
30
0
41
1
10
47.8105782120718
20
5.4996498740565
30
0
41
1
10
48.2292971482232
20
5.36008249720942
30
0
41
1
10
49.0657483779513
20
5.06133815566861
30
0
41
1
10
49.4831159562922
20
4.90232472226859
30
0
41
1
10
50.3175714167118
20
4.56323350531457
30
0
41
1
10
50.735325104535
20
4.38330052784042
30
0
41
1
10
51.5716810653522
20
4.0054973977899
30
0
41
1
10
51.9900943931979
20
3.8071554188152
30
0
41
1
10
52.4100988832665
20
3.6020588952081
30
0
0
SPLINE
5
CB
100
AcDbEntity
8
1
62
256
6
ByLayer
370
18
48
1
60
0
100
AcDbSpline
70
4
71
3
72
8
73
4
40
0
40
0
40
0
40
0
40
1
40
1
40
1
40
1
41
1
10
59.6798941632001
20
-6.55930690346023
30
0
41
1
10
59.6479890836569
20
-6.58568611881651
30
0
41
1
10
59.6207284237568
20
-6.59896315517162
30
0
41
1
10
59.5981865591892
20
-6.59892819437064
30
0
0
SPLINE
5
CC
100
AcDbEntity
8
1
62
256
6
ByLayer
370
18
48
1
60
0
100
AcDbSpline
70
4
71
3
72
20
73
16
40
0
40
0
40
0
40
0
40
0.125000000000002
40
0.125000000000002
40
0.250000000000003
40
0.250000000000003
40
0.500000000000002
40
0.500000000000002
40
0.625000000000001
40
0.625000000000001
40
0.750000000000001
40
0.750000000000001
40
0.875000000000001
40
0.875000000000001
40
1
40
1
40
1
40
1
41
1
10
60.9539219152712
20
3.37404126259065
30
0
41
1
10
60.9010412686707
20
3.51572471318451
30
0
41
1
10
60.8480877502651
20
3.65725697211371
30
0
41
1
10
60.7421113442841
20
3.94017756544142
30
0
41
1
10
60.689105770005
20
4.08161213658977
30
0
41
1
10
60.5300204119921
20
4.50561727611034
30
0
41
1
10
60.4238676272584
20
4.78790918660695
30
0
41
1
10
60.2643077750439
20
5.21004275176526
30
0
41
1
10
60.2110977329029
20
5.35067768966684
30
0
41
1
10
60.1046560059054
20
5.63179031137892
30
0
41
1
10
60.0514241007581
20
5.77223196538205
30
0
41
1
10
59.9448899756192
20
6.05238512165715
30
0
41
1
10
59.8915681626324
20
6.19189316960117
30
0
41
1
10
59.7848785731166
20
6.47043197850817
30
0
41
1
10
59.7315191725463
20
6.60954971570939
30
0
41
1
10
59.678088132239
20
6.74792354344905
30
0
0
SPLINE
5
CD
100
AcDbEntity
8
1
62
256
6
ByLayer
370
18
48
1
60
0
100
AcDbSpline
70
4
71
3
72
8
73
4
40
0
40
0
40
0
40
0
40
1
40
1
40
1
40
1
41
1
10
59.5821181759826
20
-6.85161287572367
30
0
41
1
10
59.6077549935579
20
-6.7831401199191
30
0
41
1
10
59.6333690690408
20
-6.71460662736212
30
0
41
1
10
59.6589603700115
20
-6.64601231146955
30
0
0
SPLINE
5
CE
100
AcDbEntity
8
1
62
256
6
ByLayer
370
18
48
1
60
0
100
AcDbSpline
70
4
71
3
72
14
73
10
40
0
40
0
40
0
40
0
40
0.417883146028776
40
0.417883146028776
40
0.626824719043169
40
0.626824719043169
40
0.835766292057562
40
0.835766292057562
40
1
40
1
40
1
40
1
41
1
10
18.8472286739928
20
-6.6247458676697
30
0
41
1
10
19.276041715986
20
-6.69541843539361
30
0
41
1
10
19.703897018478
20
-6.75072663958886
30
0
41
1
10
20.343289506172
20
-6.8119901525119
30
0
41
1
10
20.5560368369432
20
-6.82877224433301
30
0
41
1
10
20.9805803619817
20
-6.85508166679037
30
0
41
1
10
21.1923302650173
20
-6.86459204099839
30
0
41
1
10
21.5708091455724
20
-6.87497182712622
30
0
41
1
10
21.7374060600242
20
-6.87728513766007
30
0
41
1
10
21.9039915425734
20
-6.8773503611171
30
0
0
SPLINE
5
CF
100
AcDbEntity
8
1
62
256
6
ByLayer
370
18
48
1
60
0
100
AcDbSpline
70
4
71
3
72
30
73
26
40
0
40
0
40
0
40
0
40
0.0457924319892247
40
0.0457924319892247
40
0.165068377990569
40
0.165068377990569
40
0.284344323991912
40
0.284344323991912
40
0.343982296992586
40
0.343982296992586
40
0.403620269993259
40
0.403620269993259
40
0.522896215994609
40
0.522896215994609
40
0.582534188995283
40
0.582534188995283
40
0.642172161995958
40
0.642172161995958
40
0.701810134996632
40
0.701810134996632
40
0.761448107997307
40
0.761448107997307
40
0.880724053998653
40
0.880724053998653
40
1
40
1
40
1
40
1
41
1
10
48.9817172909511
20
5.09622873699453
30
0
41
1
10
49.1458225310518
20
5.16369756807705
30
0
41
1
10
49.3096717779824
20
5.22947368480087
30
0
41
1
10
49.8990219241398
20
5.46057646081064
30
0
41
1
10
50.3225507548922
20
5.61658507665933
30
0
41
1
10
51.1704466151016
20
5.90159641151985
30
0
41
1
10
51.5940888443744
20
6.03145252815375
30
0
41
1
10
52.2281823291634
20
6.20788363287593
30
0
41
1
10
52.4393727583354
20
6.26356110809476
30
0
41
1
10
52.8626377311512
20
6.36780164369247
30
0
41
1
10
53.0745597791458
20
6.41648662595145
30
0
41
1
10
53.710897174119
20
6.55245054461983
30
0
41
1
10
54.1356185407284
20
6.62978963101725
30
0
41
1
10
54.7741705785083
20
6.72484243499886
30
0
41
1
10
54.9876325866437
20
6.75288169694863
30
0
41
1
10
55.4157397133248
20
6.80169677507047
30
0
41
1
10
55.6306640794498
20
6.82250557287355
30
0
41
1
10
56.0593886665127
20
6.85666932850484
30
0
41
1
10
56.273287277293
20
6.87004712752
30
0
41
1
10
56.6999719575373
20
6.88940564381653
30
0
41
1
10
56.9128469893045
20
6.89535342850007
30
0
41
1
10
57.5518753932329
20
6.902025538559
30
0
41
1
10
57.9777471421276
20
6.89174450611412
30
0
41
1
10
58.8280235229782
20
6.84185269964556
30
0
41
1
10
59.2521834804941
20
6.80199728537329
30
0
41
1
10
59.6780881322301
20
6.7479235434501
30
0
0
SPLINE
5
D0
100
AcDbEntity
8
1
62
256
6
ByLayer
370
18
48
1
60
0
100
AcDbSpline
70
4
71
3
72
42
73
38
40
0
40
0
40
0
40
0
40
0.249999999999994
40
0.249999999999994
40
0.374999999999993
40
0.374999999999993
40
0.43749999999999
40
0.43749999999999
40
0.499999999999988
40
0.499999999999988
40
0.624999999999983
40
0.624999999999983
40
0.687499999999983
40
0.687499999999983
40
0.718749999999984
40
0.718749999999984
40
0.749999999999986
40
0.749999999999986
40
0.781249999999988
40
0.781249999999988
40
0.812499999999989
40
0.812499999999989
40
0.843749999999991
40
0.843749999999991
40
0.874999999999993
40
0.874999999999993
40
0.906249999999994
40
0.906249999999994
40
0.921874999999995
40
0.921874999999995
40
0.937499999999996
40
0.937499999999996
40
0.953124999999997
40
0.953124999999997
40
0.968749999999998
40
0.968749999999998
40
1
40
1
40
1
40
1
41
1
10
52.4100988832664
20
3.60205889520813
30
0
41
1
10
52.9471990291298
20
3.12894317975022
30
0
41
1
10
53.5010135299168
20
2.69748352175765
30
0
41
1
10
54.3605586596216
20
2.12212859360355
30
0
41
1
10
54.6518643302586
20
1.94228297454583
30
0
41
1
10
55.0968604863553
20
1.69254623833984
30
0
41
1
10
55.2468848379042
20
1.61246606675712
30
0
41
1
10
55.5474378408654
20
1.46072207464945
30
0
41
1
10
55.698062650836
20
1.38897098041036
30
0
41
1
10
56.1510402167851
20
1.18676910306283
30
0
41
1
10
56.4552445936852
20
1.06907939650733
30
0
41
1
10
56.9089707755318
20
0.924747014431205
30
0
41
1
10
57.0599262765345
20
0.881951914691399
30
0
41
1
10
57.2858906956054
20
0.826456128747481
30
0
41
1
10
57.3610575378833
20
0.809428878745962
30
0
41
1
10
57.5109221716458
20
0.778490940080843
30
0
41
1
10
57.5856958773165
20
0.764213520305162
30
0
41
1
10
57.7343522114905
20
0.740442999875114
30
0
41
1
10
57.8080757293762
20
0.732382124261903
30
0
41
1
10
57.9521455495953
20
0.725513433923112
30
0
41
1
10
58.0224682035979
20
0.726920810358934
30
0
41
1
10
58.159092230241
20
0.741106481853194
30
0
41
1
10
58.2259580630043
20
0.753956335002414
30
0
41
1
10
58.3512067192117
20
0.793811855541861
30
0
41
1
10
58.4096045380276
20
0.820680782137998
30
0
41
1
10
58.5129290045963
20
0.896542244340765
30
0
41
1
10
58.556050103407
20
0.944068849843234
30
0
41
1
10
58.6057329564603
20
1.029891660526
30
0
41
1
10
58.6198213796964
20
1.06111424750469
30
0
41
1
10
58.642166562007
20
1.12641741412631
30
0
41
1
10
58.6505808257094
20
1.16073239338627
30
0
41
1
10
58.6621996600519
20
1.23250403195846
30
0
41
1
10
58.6653987370235
20
1.27025504358775
30
0
41
1
10
58.6667215854707
20
1.34705561576578
30
0
41
1
10
58.6649059375127
20
1.38609518007303
30
0
41
1
10
58.6530354147704
20
1.50487165837714
30
0
41
1
10
58.6362797189286
20
1.58691944511497
30
0
41
1
10
58.6134876341116
20
1.66902329493914
30
0
0
SPLINE
5
D1
100
AcDbEntity
8
1
62
256
6
ByLayer
370
13
48
1
60
0
100
AcDbSpline
70
4
71
3
72
10
73
6
40
0
40
0
40
0
40
0
40
0.5
40
0.5
40
1
40
1
40
1
40
1
41
1
10
4.2502242894152
20
0.636429889130369
30
0
41
1
10
4.22786178046817
20
0.64420500295688
30
0
41
1
10
4.20595591798835
20
0.652083279732466
30
0
41
1
10
4.16305941831448
20
0.668095605482932
30
0
41
1
10
4.1420061871203
20
0.676263407873847
30
0
41
1
10
4.12247688450316
20
0.684198651134835
30
0
0
SPLINE
5
D2
100
AcDbEntity
8
1
62
256
6
ByLayer
370
18
48
1
60
0
100
AcDbSpline
70
4
71
3
72
18
73
14
40
0
40
0
40
0
40
0
40
0.0819333807225595
40
0.0819333807225595
40
0.171772584071827
40
0.171772584071827
40
0.261611787421094
40
0.261611787421094
40
0.620968600818162
40
0.620968600818162
40
0.980325414215229
40
0.980325414215229
40
1
40
1
40
1
40
1
41
1
10
5.14993904432552
20
-0.0011146944192149
30
0
41
1
10
5.41537007060737
20
-0.158112193530769
30
0
41
1
10
5.68069444693623
20
-0.315100886393083
30
0
41
1
10
6.23706129594353
20
-0.643631696376673
30
0
41
1
10
6.52812895753328
20
-0.815093245172449
30
0
41
1
10
7.111030189735
20
-1.15626674716432
30
0
41
1
10
7.40278154969872
20
-1.32592428392351
30
0
41
1
10
8.85515540618658
20
-2.16330608901742
30
0
41
1
10
10.0038092099748
20
-2.80276947649557
30
0
41
1
10
12.3045945565909
20
-3.97564972816937
30
0
41
1
10
13.4558352858432
20
-4.51053275806152
30
0
41
1
10
14.6861861568027
20
-4.99678685337821
30
0
41
1
10
14.7500047287809
20
-5.02176975878561
30
0
41
1
10
14.8137797483937
20
-5.04649375144948
30
0
0
SPLINE
5
D3
100
AcDbEntity
8
1
62
256
6
ByLayer
370
13
48
1
60
0
100
AcDbSpline
70
4
71
3
72
16
73
12
40
0
40
0
40
0
40
0
40
0.334336113049102
40
0.334336113049102
40
0.688037161915283
40
0.688037161915283
40
0.776462424131828
40
0.776462424131828
40
0.864887686348373
40
0.864887686348373
40
1
40
1
40
1
40
1
41
1
10
14.8137797483603
20
-5.04649375143649
30
0
41
1
10
15.9148570958233
20
-5.47335411818173
30
0
41
1
10
17.0029523058906
20
-5.82303748703532
30
0
41
1
10
19.2404131692952
20
-6.36724375536622
30
0
41
1
10
20.3893209395322
20
-6.55169656736044
30
0
41
1
10
21.8418507214778
20
-6.65138540360317
30
0
41
1
10
22.1337780203057
20
-6.66476973246893
30
0
41
1
10
22.7155505423874
20
-6.67807042740228
30
0
41
1
10
23.005559505995
20
-6.67802978997079
30
0
41
1
10
23.7369914593604
20
-6.6612243064219
30
0
41
1
10
24.1776015800154
20
-6.63571886522274
30
0
41
1
10
24.6175365776501
20
-6.59521703211269
30
0
0
SPLINE
5
D4
100
AcDbEntity
8
1
62
256
6
ByLayer
370
18
48
1
60
0
100
AcDbSpline
70
4
71
3
72
16
73
12
40
0
40
0
40
0
40
0
40
0.0842515596959419
40
0.0842515596959419
40
0.267401247756752
40
0.267401247756752
40
0.633700623878375
40
0.633700623878375
40
0.816850311939187
40
0.816850311939187
40
1
40
1
40
1
40
1
41
1
10
6.60747766275321
20
6.56494919923912
30
0
41
1
10
6.75617652239455
20
6.56239448557636
30
0
41
1
10
6.90549684768283
20
6.55739199347232
30
0
41
1
10
7.379793511771
20
6.53437087161083
30
0
41
1
10
7.70588971010554
20
6.50821997332878
30
0
41
1
10
8.68775575856961
20
6.39660316475602
30
0
41
1
10
9.34675581604458
20
6.28081222130297
30
0
41
1
10
10.3445300316734
20
6.05980355837997
30
0
41
1
10
10.6786665115484
20
5.9788072741739
30
0
41
1
10
11.3513208159228
20
5.80066737509469
30
0
41
1
10
11.6898862291449
20
5.70317137676571
30
0
41
1
10
12.0313201316033
20
5.59909329092258
30
0
0
SPLINE
5
D5
100
AcDbEntity
8
1
62
256
6
ByLayer
370
13
48
1
60
0
100
AcDbSpline
70
4
71
3
72
12
73
8
40
0
40
0
40
0
40
0
40
0.327248358841967
40
0.327248358841967
40
0.663624179420983
40
0.663624179420983
40
1
40
1
40
1
40
1
41
1
10
4.00830577978815
20
0.78850211345565
30
0
41
1
10
4.01354315639017
20
0.774726840250821
30
0
41
1
10
4.02113124885517
20
0.761571624341173
30
0
41
1
10
4.04141646141375
20
0.736164081739872
30
0
41
1
10
4.05450328491503
20
0.723807746863514
30
0
41
1
10
4.08499778340575
20
0.701979354720947
30
0
41
1
10
4.10243559303856
20
0.692341928248112
30
0
41
1
10
4.12247688450316
20
0.684198651134835
30
0
0
SPLINE
5
D6
100
AcDbEntity
8
1
62
256
6
ByLayer
370
18
48
1
60
0
100
AcDbSpline
70
4
71
3
72
18
73
14
40
0
40
0
40
0
40
0
40
0.124999999999991
40
0.124999999999991
40
0.249999999999982
40
0.249999999999982
40
0.374999999999973
40
0.374999999999973
40
0.499999999999963
40
0.499999999999963
40
0.749999999999982
40
0.749999999999982
40
1
40
1
40
1
40
1
41
1
10
4.2504574809802
20
-6.34782932495946
30
0
41
1
10
4.23667274619746
20
-6.34452514165204
30
0
41
1
10
4.22248830775027
20
-6.34244612590223
30
0
41
1
10
4.19306483924487
20
-6.34146710741194
30
0
41
1
10
4.17761926114417
20
-6.34260376513714
30
0
41
1
10
4.14649602362101
20
-6.34930358150589
30
0
41
1
10
4.13051952521732
20
-6.35496581000123
30
0
41
1
10
4.09979601731987
20
-6.37160463622493
30
0
41
1
10
4.08488382211289
20
-6.38275892075239
30
0
41
1
10
4.04562033756966
20
-6.42226852852505
30
0
41
1
10
4.02670466319881
20
-6.45687968312888
30
0
41
1
10
4.00446746398995
20
-6.52489981023624
30
0
41
1
10
4.00000019932702
20
-6.55945599271769
30
0
41
1
10
4.00000019932736
20
-6.59266559086117
30
0
0
SPLINE
5
D7
100
AcDbEntity
8
1
62
256
6
ByLayer
370
18
48
1
60
0
100
AcDbSpline
70
4
71
3
72
16
73
12
40
0
40
0
40
0
40
0
40
0.195369220375814
40
0.195369220375814
40
0.500805742733892
40
0.500805742733892
40
0.653524003912931
40
0.653524003912931
40
0.80624226509197
40
0.80624226509197
40
1
40
1
40
1
40
1
41
1
10
18.8472339777345
20
6.62474841469202
30
0
41
1
10
18.6111476489699
20
6.51137244937678
30
0
41
1
10
18.3761036975695
20
6.39058530138163
30
0
41
1
10
17.7753585206225
20
6.06040708395969
30
0
41
1
10
17.4106937912635
20
5.83928809327142
30
0
41
1
10
16.8607152786657
20
5.48070959109228
30
0
41
1
10
16.6758939307736
20
5.35610243468662
30
0
41
1
10
16.3114028386869
20
5.10491245554633
30
0
41
1
10
16.1311227080984
20
4.97798491073178
30
0
41
1
10
15.7247093346698
20
4.68958182483308
30
0
41
1
10
15.499258364266
20
4.52801012394713
30
0
41
1
10
15.2739658010625
20
4.36841827935299
30
0
0
SPLINE
5
D8
100
AcDbEntity
8
1
62
256
6
ByLayer
370
18
48
1
60
0
100
AcDbSpline
70
4
71
3
72
16
73
12
40
0
40
0
40
0
40
0
40
0.211243032418547
40
0.211243032418547
40
0.313639110789206
40
0.313639110789206
40
0.416035189159865
40
0.416035189159865
40
0.620827345901182
40
0.620827345901182
40
1
40
1
40
1
40
1
41
1
10
40.5989898196653
20
-0.0304765392621107
30
0
41
1
10
41.1930235234714
20
-0.383002026233555
30
0
41
1
10
41.7886354502414
20
-0.736361959747086
30
0
41
1
10
42.6781498481238
20
-1.25740147342518
30
0
41
1
10
42.9700257807037
20
-1.42722017353705
30
0
41
1
10
43.5512400216673
20
-1.76233766858314
30
0
41
1
10
43.8409087574055
20
-1.92781014505397
30
0
41
1
10
44.7078614719398
20
-2.4168000247989
30
0
41
1
10
45.2829895253309
20
-2.73309468228919
30
0
41
1
10
46.9201737184067
20
-3.5995355350789
30
0
41
1
10
47.9796098351445
20
-4.11999604724806
30
0
41
1
10
49.0464194466966
20
-4.58213997951648
30
0
0
SPLINE
5
D9
100
AcDbEntity
8
1
62
256
6
ByLayer
370
13
48
1
60
0
100
AcDbSpline
70
4
71
3
72
22
73
18
40
0
40
0
40
0
40
0
40
0.0241522509916354
40
0.0241522509916354
40
0.105472896742331
40
0.105472896742331
40
0.186793542493027
40
0.186793542493027
40
0.34943483399442
40
0.34943483399442
40
0.674717416997209
40
0.674717416997209
40
0.837358708498603
40
0.837358708498603
40
0.918679354249302
40
0.918679354249302
40
1
40
1
40
1
40
1
41
1
10
49.0464194460816
20
-4.58213997925012
30
0
41
1
10
49.1319832394112
20
-4.61920637561829
30
0
41
1
10
49.2175944656322
20
-4.65589762776057
30
0
41
1
10
49.5916906133342
20
-4.81445361588419
30
0
41
1
10
49.8807255744028
20
-4.93235571173426
30
0
41
1
10
50.4604448074932
20
-5.15886026885445
30
0
41
1
10
50.7517063641122
20
-5.26765621329366
30
0
41
1
10
51.624587205409
20
-5.57754251618672
30
0
41
1
10
52.2020657388855
20
-5.76108747341755
30
0
41
1
10
53.9265863948885
20
-6.2400283995066
30
0
41
1
10
55.065941456299
20
-6.46421909182584
30
0
41
1
10
56.7796609352334
20
-6.64851176645973
30
0
41
1
10
57.3517754421511
20
-6.68470756838244
30
0
41
1
10
58.2135560450045
20
-6.6998812565966
30
0
41
1
10
58.5014300514426
20
-6.69841280594298
30
0
41
1
10
59.0788409676227
20
-6.68221163183321
30
0
41
1
10
59.368453911006
20
-6.66700895834899
30
0
41
1
10
59.6589603700118
20
-6.64601231146958
30
0
0
SPLINE
5
DA
100
AcDbEntity
8
1
62
256
6
ByLayer
370
18
48
1
60
0
100
AcDbSpline
70
4
71
3
72
26
73
22
40
0
40
0
40
0
40
0
40
0.125000000000001
40
0.125000000000001
40
0.187500000000001
40
0.187500000000001
40
0.25
40
0.25
40
0.5
40
0.5
40
0.5625
40
0.5625
40
0.625
40
0.625
40
0.75
40
0.75
40
0.875
40
0.875
40
0.9375
40
0.9375
40
1
40
1
40
1
40
1
41
1
10
59.5981865591944
20
-6.59892819437064
30
0
41
1
10
59.5023789262961
20
-6.59883026391353
30
0
41
1
10
59.4111833849063
20
-6.58482726276529
30
0
41
1
10
59.2816422342455
20
-6.54195810005976
30
0
41
1
10
59.2396735547703
20
-6.52401519256452
30
0
41
1
10
59.1582566561376
20
-6.48053040022776
30
0
41
1
10
59.1186823738563
20
-6.45487395735191
30
0
41
1
10
58.9297114997127
20
-6.30854590871084
30
0
41
1
10
58.8055785535164
20
-6.13447829084768
30
0
41
1
10
58.6858812169806
20
-5.8421294443342
30
0
41
1
10
58.6637385007927
20
-5.77987232648451
30
0
41
1
10
58.6231905387146
20
-5.64747992527253
30
0
41
1
10
58.6047444586606
20
-5.57708266931272
30
0
41
1
10
58.556006780008
20
-5.35708609021069
30
0
41
1
10
58.5319901612927
20
-5.19798840794797
30
0
41
1
10
58.5006478445858
20
-4.85530701738688
30
0
41
1
10
58.4933214536891
20
-4.671724325599
30
0
41
1
10
58.4952065697731
20
-4.37746275594077
30
0
41
1
10
58.49800004985
20
-4.27595941850228
30
0
41
1
10
58.5079629478834
20
-4.06765527379773
30
0
41
1
10
58.5151004147627
20
-3.96128963232638
30
0
41
1
10
58.524358815462
20
-3.85274644228787
30
0
0
SPLINE
5
DB
100
AcDbEntity
8
SK1
62
256
6
ByLayer
370
18
48
1
60
0
100
AcDbSpline
70
4
71
3
72
8
73
4
40
0
40
0
40
0
40
0
40
1
40
1
40
1
40
1
41
1
10
-44.9144552164749
20
-3.37094474228709
30
0
41
1
10
-44.9405513846923
20
-3.29990967228332
30
0
41
1
10
-44.9692213528765
20
-3.22723836385163
30
0
41
1
10
-45
20
-3.15467486107201
30
0
0
SPLINE
5
DC
100
AcDbEntity
8
SK1
62
256
6
ByLayer
370
18
48
1
60
0
100
AcDbSpline
70
4
71
3
72
10
73
6
40
0
40
0
40
0
40
0
40
0.5
40
0.5
40
1
40
1
40
1
40
1
41
1
10
-45
20
-3.99999365221476
30
0
41
1
10
-44.7377127485172
20
-4.45455403201564
30
0
41
1
10
-44.4719006512949
20
-4.90740091087022
30
0
41
1
10
-43.9377243245399
20
-5.81156644976457
30
0
41
1
10
-43.6692076463858
20
-6.26287765835167
30
0
41
1
10
-43.4
20
-6.71381566530874
30
0
0
SPLINE
5
DD
100
AcDbEntity
8
SK1
62
256
6
ByLayer
370
18
48
1
60
0
100
AcDbSpline
70
4
71
3
72
10
73
6
40
0
40
0
40
0
40
0
40
0.5
40
0.5
40
1
40
1
40
1
40
1
41
1
10
-43.4
20
-5.93679769988088
30
0
41
1
10
-43.6546049103402
20
-5.51032010025961
30
0
41
1
10
-43.9085871477346
20
-5.08350325879451
30
0
41
1
10
-44.414073003181
20
-4.22856985030327
30
0
41
1
10
-44.6656605814012
20
-3.80049380597944
30
0
41
1
10
-44.9144552164749
20
-3.37094474228709
30
0
0
SPLINE
5
DE
100
AcDbEntity
8
SK1
62
256
6
ByLayer
370
18
48
1
60
0
100
AcDbSpline
70
4
71
3
72
14
73
10
40
0
40
0
40
0
40
0
40
0.500000000000001
40
0.500000000000001
40
0.750000000000002
40
0.750000000000002
40
0.875000000000001
40
0.875000000000001
40
1
40
1
40
1
40
1
41
1
10
-43.4
20
-6.7138156653088
30
0
41
1
10
-43.3790445776494
20
-6.74891718087341
30
0
41
1
10
-43.3587362712602
20
-6.78215480245524
30
0
41
1
10
-43.3304966181166
20
-6.82647759383073
30
0
41
1
10
-43.3215144183093
20
-6.84021956381858
30
0
41
1
10
-43.3103236218556
20
-6.85623055711073
30
0
41
1
10
-43.3069030532022
20
-6.86089606597147
30
0
41
1
10
-43.3017205322973
20
-6.86704637526182
30
0
41
1
10
-43.3
20
-6.86845356015601
30
0
41
1
10
-43.3
20
-6.86684233089844
30
0
0
SPLINE
5
DF
100
AcDbEntity
8
SK1
62
256
6
ByLayer
370
18
48
1
60
0
100
AcDbSpline
70
4
71
3
72
14
73
10
40
0
40
0
40
0
40
0
40
0.125000000000002
40
0.125000000000002
40
0.250000000000003
40
0.250000000000003
40
0.500000000000006
40
0.500000000000006
40
1
40
1
40
1
40
1
41
1
10
-43.3
20
-6.15198580270479
30
0
41
1
10
-43.3
20
-6.14701372395103
30
0
41
1
10
-43.3017012565589
20
-6.13950722130733
30
0
41
1
10
-43.3069010451287
20
-6.12267813136515
30
0
41
1
10
-43.3102603620514
20
-6.11365384612353
30
0
41
1
10
-43.3216024497887
20
-6.08556771311885
30
0
41
1
10
-43.3304674144333
20
-6.06639629868485
30
0
41
1
10
-43.3586594529452
20
-6.00896207361012
30
0
41
1
10
-43.3789281721554
20
-5.97209420122016
30
0
41
1
10
-43.4
20
-5.93679769988088
30
0
0
LINE
5
76
100
AcDbEntity
8
81
62
256
6
ByLayer
370
18
48
1
60
0
100
AcDbLine
10
62
20
0
30
0
11
67
21
0
31
0
39
0
210
0
220
0
230
1
0
LINE
5
77
100
AcDbEntity
8
1
62
256
6
ByLayer
370
18
48
1
60
0
100
AcDbLine
10
4
20
6.866593
30
0
11
0.8
21
6.864673
31
0
39
0
210
0
220
0
230
1
0
LINE
5
79
100
AcDbEntity
8
1
62
256
6
ByLayer
370
18
48
1
60
0
100
AcDbLine
10
22.847725
20
6.877902
30
0
11
21.901673
21
6.877334
31
0
39
0
210
0
220
0
230
1
0
LINE
5
7A
100
AcDbEntity
8
1
62
256
6
ByLayer
370
18
48
1
60
0
100
AcDbLine
10
58.247898
20
6.899142
30
0
11
57.308405
21
6.898578
31
0
39
0
210
0
220
0
230
1
0
LINE
5
7B
100
AcDbEntity
8
1
62
256
6
ByLayer
370
18
48
1
60
0
100
AcDbLine
10
57.308405
20
-6.898578
30
0
11
58.247655
21
-6.899142
31
0
39
0
210
0
220
0
230
1
0
LINE
5
7C
100
AcDbEntity
8
1
62
256
6
ByLayer
370
18
48
1
60
0
100
AcDbLine
10
21.901673
20
-6.877334
30
0
11
22.847475
21
-6.877902
31
0
39
0
210
0
220
0
230
1
0
LINE
5
7D
100
AcDbEntity
8
1
62
256
6
ByLayer
370
18
48
1
60
0
100
AcDbLine
10
0.8
20
-6.864673
30
0
11
4
21
-6.866593
31
0
39
0
210
0
220
0
230
1
0
LINE
5
7E
100
AcDbEntity
8
1
62
256
6
ByLayer
370
18
48
1
60
0
100
AcDbLine
10
0
20
-7
30
0
11
0.8
21
-6.864673
31
0
39
0
210
0
220
0
230
1
0
LINE
5
7F
100
AcDbEntity
8
1
62
256
6
ByLayer
370
18
48
1
60
0
100
AcDbLine
10
0.8
20
6.864673
30
0
11
0
21
7
31
0
39
0
210
0
220
0
230
1
0
LINE
5
80
100
AcDbEntity
8
SK1
62
256
6
ByLayer
370
18
48
1
60
0
100
AcDbLine
10
0
20
7
30
0
11
-43.267949
21
7
31
0
39
0
210
0
220
0
230
1
0
LINE
5
82
100
AcDbEntity
8
SK1
62
256
6
ByLayer
370
18
48
1
60
0
100
AcDbLine
10
-43.267949
20
-7
30
0
11
0
21
-7
31
0
39
0
210
0
220
0
230
1
0
LINE
5
83
100
AcDbEntity
8
SK1
62
256
6
ByLayer
370
18
48
1
60
0
100
AcDbLine
10
-43.267949
20
7
30
0
11
-45
21
4
31
0
39
0
210
0
220
0
230
1
0
LINE
5
84
100
AcDbEntity
8
SK1
62
256
6
ByLayer
370
18
48
1
60
0
100
AcDbLine
10
-45
20
-4
30
0
11
-43.267949
21
-7
31
0
39
0
210
0
220
0
230
1
0
LINE
5
85
100
AcDbEntity
8
SK4
62
256
6
ByLayer
370
18
48
0.05
60
0
100
AcDbLine
10
67
20
0
30
0
11
-50
21
0
31
0
39
0
210
0
220
0
230
1
0
LINE
5
87
100
AcDbEntity
8
4
62
256
6
ByLayer
370
18
48
0.05
60
0
100
AcDbLine
10
62
20
0
30
0
11
0
21
0
31
0
39
0
210
0
220
0
230
1
0
LINE
5
89
100
AcDbEntity
8
80
62
256
6
ByLayer
370
18
48
1
60
0
100
AcDbLine
10
0
20
0
30
0
11
-5
21
0
31
0
39
0
210
0
220
0
230
1
0
LINE
5
8A
100
AcDbEntity
8
1
62
256
6
ByLayer
370
18
48
1
60
0
100
AcDbLine
10
61.904715
20
0.327471
30
0
11
61.673782
21
1.180045
31
0
39
0
210
0
220
0
230
1
0
LINE
5
8B
100
AcDbEntity
8
1
62
256
6
ByLayer
370
13
48
1
60
0
100
AcDbLine
10
60.182768
20
1.180045
30
0
11
61.904715
21
0.327471
31
0
39
0
210
0
220
0
230
1
0
LINE
5
8C
100
AcDbEntity
8
1
62
256
6
ByLayer
370
13
48
1
60
0
100
AcDbLine
10
61.673782
20
1.180045
30
0
11
60.182768
21
1.180045
31
0
39
0
210
0
220
0
230
1
0
LINE
5
8D
100
AcDbEntity
8
1
62
256
6
ByLayer
370
18
48
1
60
0
100
AcDbLine
10
0
20
-7
30
0
11
0
21
7
31
0
39
0
210
0
220
0
230
1
0
LINE
5
8E
100
AcDbEntity
8
1
62
256
6
ByLayer
370
18
48
1
60
0
100
AcDbLine
10
62
20
0
30
0
11
59.598187
21
-6.598928
31
0
39
0
210
0
220
0
230
1
0
LINE
5
8F
100
AcDbEntity
8
1
62
256
6
ByLayer
370
18
48
1
60
0
100
AcDbLine
10
62
20
0
30
0
11
61.985455
21
-0.065253
31
0
39
0
210
0
220
0
230
1
0
LINE
5
90
100
AcDbEntity
8
1
62
256
6
ByLayer
370
18
48
1
60
0
100
AcDbLine
10
61.985455
20
0.065253
30
0
11
62
21
0
31
0
39
0
210
0
220
0
230
1
0
LINE
5
91
100
AcDbEntity
8
1
62
256
6
ByLayer
370
18
48
1
60
0
100
AcDbLine
10
58.524359
20
-3.852746
30
0
11
61.893871
21
-0.097486
31
0
39
0
210
0
220
0
230
1
0
LINE
5
92
100
AcDbEntity
8
1
62
256
6
ByLayer
370
13
48
1
60
0
100
AcDbLine
10
60.01331
20
0.83362
30
0
11
61.893871
21
-0.097486
31
0
39
0
210
0
220
0
230
1
0
LINE
5
93
100
AcDbEntity
8
1
62
256
6
ByLayer
370
18
48
1
60
0
100
AcDbLine
10
4
20
0.837675
30
0
11
4
21
6.866593
31
0
39
0
210
0
220
0
230
1
0
LINE
5
94
100
AcDbEntity
8
1
62
256
6
ByLayer
370
18
48
1
60
0
100
AcDbLine
10
61.904715
20
-0.327471
30
0
11
61.673782
21
-1.180045
31
0
39
0
210
0
220
0
230
1
0
LINE
5
95
100
AcDbEntity
8
1
62
256
6
ByLayer
370
18
48
1
60
0
100
AcDbLine
10
0.8
20
6.864673
30
0
11
0.8
21
-6.864673
31
0
39
0
210
0
220
0
230
1
0
LINE
5
96
100
AcDbEntity
8
SK1
62
256
6
ByLayer
370
18
48
1
60
0
100
AcDbLine
10
-45
20
-3.154601
30
0
11
-45
21
-3.999994
31
0
39
0
210
0
220
0
230
1
0
LINE
5
97
100
AcDbEntity
8
SK1
62
256
6
ByLayer
370
18
48
1
60
0
100
AcDbLine
10
-43.267949
20
7
30
0
11
-43.267949
21
-7
31
0
39
0
210
0
220
0
230
1
0
LINE
5
98
100
AcDbEntity
8
SK1
62
256
6
ByLayer
370
18
48
1
60
0
100
AcDbLine
10
-43.3
20
-6.866842
30
0
11
-43.3
21
-6.151986
31
0
39
0
210
0
220
0
230
1
0
LINE
5
99
100
AcDbEntity
8
SK1
62
256
6
ByLayer
370
18
48
1
60
0
100
AcDbLine
10
0
20
-7
30
0
11
0
21
7
31
0
39
0
210
0
220
0
230
1
0
LINE
5
9A
100
AcDbEntity
8
SK1
62
256
6
ByLayer
370
13
48
1
60
0
100
AcDbLine
10
-43.4
20
-5.936791
30
0
11
-43.4
21
-6.713816
31
0
39
0
210
0
220
0
230
1
0
LINE
5
9B
100
AcDbEntity
8
SK1
62
256
6
ByLayer
370
18
48
1
60
0
100
AcDbLine
10
-45
20
3.999994
30
0
11
-45
21
-3.154675
31
0
39
0
210
0
220
0
230
1
0
MTEXT
5
E0
100
AcDbEntity
8
SK6
62
256
6
ByLayer
370
13
48
1
60
0
100
AcDbMText
10
10.629169
20
39.282694
30
0
210
0
220
0
230
1
1
\W0.7415;R840-1380-30-A1A1220
40
3.5
41
0
44
1.084337
50
0
71
8
72
5
7
iso_b_vert
0
DIMENSION
5
ED
100
AcDbEntity
8
SK2
62
256
6
ByLayer
370
13
48
1
60
0
100
AcDbDimension
2
DimnDraft3D1
10
59.63
20
-17.113398
30
0
11
27.880059
21
-17.113398
31
0
70
32
71
5
72
1
41
1
210
0
220
0
230
1
3
Standard
100
AcDbAlignedDimension
13
0
23
-1.5875
33
0
14
59.63
24
-8.4875
34
0
50
0
100
AcDbRotatedDimension
1001
ACAD
1000
DSTYLE
1002
{
1070
   279
1070
     0
1070
   172
1070
     1
1070
   173
1070
     1
1070
   340
1005
E1
1070
   271
1070
     2
1070
   272
1070
     2
1070
    77
1070
     1
1070
    73
1070
     0
1070
   171
1070
     3
1070
   274
1070
     4
1070
   177
1070
    35
1070
   176
1070
    35
1070
   178
1070
    35
1070
    48
1040
-0.005
1070
    41
1041
3.5
1070
   147
1041
1.75
1070
    42
1041
1.5875
1070
    44
1041
2.0
1070
   140
1041
3.5
1070
   343
1005
0
1070
   344
1005
0
1002
}
0
DIMENSION
5
F7
100
AcDbEntity
8
SK2
62
256
6
ByLayer
370
13
48
1
60
0
100
AcDbDimension
2
DimnDraft3D2
10
62
20
-35.692985
30
0
11
7.4713
21
-35.692985
31
0
70
32
71
5
72
1
41
1
210
0
220
0
230
1
3
Standard
100
AcDbAlignedDimension
13
-45
23
-8.5875
33
0
14
62
24
-1.5875
34
0
50
0
100
AcDbRotatedDimension
1001
ACAD
1000
DSTYLE
1002
{
1070
   279
1070
     0
1070
   172
1070
     1
1070
   173
1070
     1
1070
   340
1005
E1
1070
   271
1070
     2
1070
   272
1070
     2
1070
    77
1070
     1
1070
    73
1070
     0
1070
   171
1070
     3
1070
   274
1070
     4
1070
   177
1070
    35
1070
   176
1070
    35
1070
   178
1070
    35
1070
    48
1040
-0.005
1070
    41
1041
3.5
1070
   147
1041
1.75
1070
    42
1041
1.5875
1070
    44
1041
2.0
1070
   140
1041
3.5
1070
   343
1005
0
1070
   344
1005
0
1002
}
0
DIMENSION
5
101
100
AcDbEntity
8
SK2
62
256
6
ByLayer
370
13
48
1
60
0
100
AcDbDimension
2
DimnDraft3D3
10
62
20
18.509119
30
0
11
40.115
21
18.509119
31
0
70
32
71
5
72
1
41
1
210
0
220
0
230
1
3
Standard
100
AcDbAlignedDimension
13
18.23
23
8.4875
33
0
14
62
24
1.5875
34
0
50
0
100
AcDbRotatedDimension
1001
ACAD
1000
DSTYLE
1002
{
1070
   279
1070
     0
1070
   172
1070
     1
1070
   173
1070
     1
1070
   340
1005
E1
1070
   271
1070
     2
1070
   272
1070
     2
1070
    77
1070
     1
1070
    73
1070
     0
1070
   171
1070
     3
1070
   274
1070
     4
1070
   177
1070
    35
1070
   176
1070
    35
1070
   178
1070
    35
1070
    48
1040
-0.005
1070
    41
1041
3.5
1070
   147
1041
1.75
1070
    42
1041
1.5875
1070
    44
1041
2.0
1070
   140
1041
3.5
1070
   343
1005
0
1070
   344
1005
0
1002
}
0
DIMENSION
5
10B
100
AcDbEntity
8
SK2
62
256
6
ByLayer
370
13
48
1
60
0
100
AcDbDimension
2
DimnDraft3D4
10
59.63
20
-19.702503
30
0
11
71.981425
21
-19.702503
31
0
70
32
71
5
72
1
41
1
210
0
220
0
230
1
3
Standard
100
AcDbAlignedDimension
13
62
23
-1.5875
33
0
14
59.63
24
-8.4875
34
0
50
0
100
AcDbRotatedDimension
1001
ACAD
1000
DSTYLE
1002
{
1070
   279
1070
     0
1070
   172
1070
     1
1070
   173
1070
     1
1070
   340
1005
E1
1070
   271
1070
     2
1070
   272
1070
     2
1070
    77
1070
     1
1070
    73
1070
     0
1070
   171
1070
     3
1070
   274
1070
     4
1070
   177
1070
    35
1070
   176
1070
    35
1070
   178
1070
    35
1070
    48
1040
-0.005
1070
    41
1041
3.5
1070
   147
1041
1.75
1070
    42
1041
1.5875
1070
    44
1041
2.0
1070
   140
1041
3.5
1070
   343
1005
0
1070
   344
1005
0
1002
}
0
DIMENSION
5
115
100
AcDbEntity
8
SK2
62
256
6
ByLayer
370
13
48
1
60
0
100
AcDbDimension
2
DimnDraft3D5
10
59.63
20
-25.343428
30
0
11
4.390676
21
-25.343428
31
0
70
32
71
5
72
1
41
1
210
0
220
0
230
1
3
Standard
100
AcDbAlignedDimension
13
-45
23
-8.5875
33
0
14
59.63
24
-8.4875
34
0
50
0
100
AcDbRotatedDimension
1001
ACAD
1000
DSTYLE
1002
{
1070
   279
1070
     0
1070
   172
1070
     1
1070
   173
1070
     1
1070
   340
1005
E1
1070
   271
1070
     2
1070
   272
1070
     2
1070
    77
1070
     1
1070
    73
1070
     0
1070
   171
1070
     3
1070
   274
1070
     4
1070
   177
1070
    35
1070
   176
1070
    35
1070
   178
1070
    35
1070
    48
1040
-0.005
1070
    41
1041
3.5
1070
   147
1041
1.75
1070
    42
1041
1.5875
1070
    44
1041
2.0
1070
   140
1041
3.5
1070
   343
1005
0
1070
   344
1005
0
1002
}
0
DIMENSION
5
120
100
AcDbEntity
8
SK2
62
256
6
ByLayer
370
13
48
1
60
0
100
AcDbDimension
2
DimnDraft3D6
10
-55.625163
20
7
30
0
11
-56.250163
21
25.47418
31
0
70
33
71
5
72
1
41
1
210
0
220
0
230
1
3
Standard
100
AcDbAlignedDimension
13
-46.5875
23
-7
33
0
14
-46.5875
24
7
34
0
1001
ACAD
1000
DSTYLE
1002
{
1070
   279
1070
     0
1070
    74
1070
     0
1070
   173
1070
     1
1070
   340
1005
E1
1070
   271
1070
     3
1070
   272
1070
     2
1070
    77
1070
     1
1070
    73
1070
     0
1070
   171
1070
     3
1070
   274
1070
     4
1070
   177
1070
    35
1070
   176
1070
    35
1070
   178
1070
    35
1070
    48
1040
-0.005
1070
    41
1041
3.5
1070
   147
1041
1.75
1070
    42
1041
1.5875
1070
    44
1041
2.0
1070
   140
1041
3.5
1070
   343
1005
0
1070
   344
1005
0
1002
}
0
DIMENSION
5
12B
100
AcDbEntity
8
2
62
256
6
ByLayer
370
13
48
1
60
0
100
AcDbDimension
2
DimnDraft3D7
10
76.083343
20
6.9
30
0
11
71.458343
21
23.967266
31
0
70
33
71
5
72
1
41
1
210
0
220
0
230
1
3
Standard
100
AcDbAlignedDimension
13
61.2175
23
-6.9
33
0
14
61.2175
24
6.9
34
0
1001
ACAD
1000
DSTYLE
1002
{
1070
   279
1070
     0
1070
    74
1070
     0
1070
   173
1070
     1
1070
   340
1005
E1
1070
   271
1070
     3
1070
   272
1070
     2
1070
    77
1070
     1
1070
    73
1070
     0
1070
   171
1070
     3
1070
   274
1070
     4
1070
   177
1070
    35
1070
   176
1070
    35
1070
   178
1070
    35
1070
    48
1040
-0.005
1070
    41
1041
3.5
1070
   147
1041
1.75
1070
    42
1041
1.5875
1070
    44
1041
2.0
1070
   140
1041
3.5
1070
   343
1005
0
1070
   344
1005
0
1002
}
0
ENDSEC
0
SECTION
2
OBJECTS
0
DICTIONARY
5
196
330
0
100
AcDbDictionary
280
0
281
1
3
ACAD_GROUP
350
197
3
ACAD_MLINESTYLE
350
198
0
DICTIONARY
5
197
330
0
100
AcDbDictionary
280
0
281
1
0
DICTIONARY
5
198
330
0
100
AcDbDictionary
280
0
281
1
3
Standard
350
18
0
MLINESTYLE
5
18
330
198
100
AcDbMlineStyle
2
Standard
70
0
3

62
256
51
90
52
90
71
2
49
-0.5
62
256
6
ByLayer
49
0.5
62
256
6
ByLayer
0
RASTERVARIABLES
5
184
330

100
AcDbRasterVariables
90
0
70
1
71
1
72
1
0
ENDSEC
0
EOF
