0
SECTION
2
HEADER
9
$ACADVER
1
AC1015
9
$DWGCODEPAGE
3
ANSI_1252
9
$HANDSEED
5
1a7
9
$ANGBASE
50
0
9
$ANGDIR
70
0
9
$ATTMODE
70
1
9
$AUNITS
70
0
9
$AUPREC
70
0
9
$CECOLOR
62
256
9
$CELTSCALE
40
1
9
$CELTYPE
6
ByLayer
9
$CELWEIGHT
370
18
9
$CLAYER
8
0
9
$CMLJUST
70
0
9
$CMLSCALE
40
1
9
$CMLSTYLE
2
Standard
9
$DIMSTYLE
2
Standard
9
$TEXTSIZE
40
0.2
9
$TEXTSTYLE
7
Standard
9
$LUNITS
70
2
9
$LUPREC
70
4
9
$EXTNAMES
290
1
9
$INSUNITS
70
4
9
$LTSCALE
40
1
9
$LWDISPLAY
290
1
9
$PDMODE
70
0
9
$PDSIZE
40
0
9
$PLINEGEN
70
0
0
ENDSEC
0
SECTION
2
CLASSES
0
CLASS
1
RASTERVARIABLES
2
AcDbRasterVariables
3
ISM
90
0
280
0
281
0
0
ENDSEC
0
SECTION
2
TABLES
0
TABLE
2
VPORT
5
19d
100
AcDbSymbolTable
0
VPORT
5
1
100
AcDbSymbolTableRecord
100
AcDbViewportTableRecord
2
*Active
70
0
10
0
20
0
11
1
21
1
12
-1
22
1
13
0
23
0
14
0.5
24
0.5
15
10
25
10
16
0
26
0
36
1
17
0
27
0
37
0
0
ENDTAB
0
TABLE
2
LTYPE
5
19e
100
AcDbSymbolTable
0
LTYPE
5
14
100
AcDbSymbolTableRecord
100
AcDbLinetypeTableRecord
70
0
2
ByBlock
3

72
65
73
0
40
0
0
LTYPE
5
15
100
AcDbSymbolTableRecord
100
AcDbLinetypeTableRecord
70
0
2
ByLayer
3

72
65
73
0
40
0
0
LTYPE
5
16
100
AcDbSymbolTableRecord
100
AcDbLinetypeTableRecord
70
0
2
CONTINUOUS
3
Solid line
72
65
73
0
40
0
0
LTYPE
5
6A
100
AcDbSymbolTableRecord
100
AcDbLinetypeTableRecord
70
0
2
CENTER
3
____ _ ____ _ ____ _ ____
72
65
73
4
40
47.5
49
22
74
0
49
-8.5
74
0
49
8.5
74
0
49
-8.5
74
0
0
LTYPE
5
6B
100
AcDbSymbolTableRecord
100
AcDbLinetypeTableRecord
70
0
2
DASHED
3
__ __ __ __ __ __ __ __ __
72
65
73
2
40
25.72
49
12.86
74
0
49
-12.86
74
0
0
ENDTAB
0
TABLE
2
LAYER
5
19f
100
AcDbSymbolTable
0
LAYER
5
10
100
AcDbSymbolTableRecord
100
AcDbLayerTableRecord
2
0
70
0
62
7
6
CONTINUOUS
290
1
370
-3
390
0
0
LAYER
5
6D
100
AcDbSymbolTableRecord
100
AcDbLayerTableRecord
2
81
70
0
62
-3
6
CONTINUOUS
290
1
370
-3
390
0
0
LAYER
5
6F
100
AcDbSymbolTableRecord
100
AcDbLayerTableRecord
2
80
70
0
62
-6
6
CONTINUOUS
290
1
370
-3
390
0
0
LAYER
5
74
100
AcDbSymbolTableRecord
100
AcDbLayerTableRecord
2
2
70
0
62
7
6
CONTINUOUS
290
1
370
-3
390
0
0
LAYER
5
78
100
AcDbSymbolTableRecord
100
AcDbLayerTableRecord
2
1
70
0
62
4
6
CONTINUOUS
290
1
370
-3
390
0
0
LAYER
5
86
100
AcDbSymbolTableRecord
100
AcDbLayerTableRecord
2
4
70
0
62
-2
6
CENTER
290
1
370
-3
390
0
0
LAYER
5
189
100
AcDbSymbolTableRecord
100
AcDbLayerTableRecord
2
SK2
70
0
62
7
6
CONTINUOUS
290
1
370
-3
390
0
0
LAYER
5
18a
100
AcDbSymbolTableRecord
100
AcDbLayerTableRecord
2
SK1
70
0
62
4
6
CONTINUOUS
290
1
370
-3
390
0
0
LAYER
5
18b
100
AcDbSymbolTableRecord
100
AcDbLayerTableRecord
2
SK4
70
0
62
2
6
CENTER
290
1
370
-3
390
0
0
LAYER
5
18c
100
AcDbSymbolTableRecord
100
AcDbLayerTableRecord
2
SK6
70
0
62
5
6
CONTINUOUS
290
1
370
-3
390
0
0
ENDTAB
0
TABLE
2
STYLE
5
1a0
100
AcDbSymbolTable
0
STYLE
5
11
100
AcDbSymbolTableRecord
100
AcDbTextStyleTableRecord
2
Standard
3
txt
70
0
71
0
40
0
41
1
42
0
50
0
0
STYLE
5
E5
100
AcDbSymbolTableRecord
100
AcDbTextStyleTableRecord
2
iso_b_vert
3
simplex.shx
70
0
71
0
40
0
41
1
42
0
50
0
0
STYLE
5
E6
100
AcDbSymbolTableRecord
100
AcDbTextStyleTableRecord
2
DWGDirectTextStyle
3
simplex
70
0
71
0
40
0
41
1
42
0
50
0
0
ENDTAB
0
TABLE
2
DIMSTYLE
5
1a1
100
AcDbSymbolTable
100
AcDbDimStyleTable
0
DIMSTYLE
105
27
100
AcDbSymbolTableRecord
100
AcDbDimStyleTableRecord
2
Standard
70
0
3
<>
41
0.18
42
0.0625
44
0.18
140
0.18
147
0.09
73
0
74
0
77
1
271
2
275
0
278
52
280
0
340
11
0
ENDTAB
0
TABLE
2
VIEW
5
1a2
100
AcDbSymbolTable
0
ENDTAB
0
TABLE
2
UCS
5
1a3
100
AcDbSymbolTable
0
ENDTAB
0
TABLE
2
APPID
5
1a4
100
AcDbSymbolTable
0
APPID
5
12
100
AcDbSymbolTableRecord
100
AcDbRegAppTableRecord
2
ACAD
70
0
0
ENDTAB
0
TABLE
2
BLOCK_RECORD
5
1a5
100
AcDbSymbolTable
0
BLOCK_RECORD
5
1F
100
AcDbSymbolTableRecord
100
AcDbBlockTableRecord
2
*Model_Space
340
0
70
0
0
BLOCK_RECORD
5
1B
100
AcDbSymbolTableRecord
100
AcDbBlockTableRecord
2
*Paper_Space
340
0
70
0
0
BLOCK_RECORD
5
23
100
AcDbSymbolTableRecord
100
AcDbBlockTableRecord
2
*Paper_Space0
340
0
70
0
0
BLOCK_RECORD
5
E8
100
AcDbSymbolTableRecord
100
AcDbBlockTableRecord
2
DimnDraft3D1
340
0
70
0
0
BLOCK_RECORD
5
F2
100
AcDbSymbolTableRecord
100
AcDbBlockTableRecord
2
DimnDraft3D2
340
0
70
0
0
BLOCK_RECORD
5
FC
100
AcDbSymbolTableRecord
100
AcDbBlockTableRecord
2
DimnDraft3D3
340
0
70
0
0
BLOCK_RECORD
5
106
100
AcDbSymbolTableRecord
100
AcDbBlockTableRecord
2
DimnDraft3D4
340
0
70
0
0
BLOCK_RECORD
5
110
100
AcDbSymbolTableRecord
100
AcDbBlockTableRecord
2
DimnDraft3D5
340
0
70
0
0
BLOCK_RECORD
5
11A
100
AcDbSymbolTableRecord
100
AcDbBlockTableRecord
2
DimnDraft3D6
340
0
70
0
0
BLOCK_RECORD
5
125
100
AcDbSymbolTableRecord
100
AcDbBlockTableRecord
2
DimnDraft3D7
340
0
70
0
0
ENDTAB
0
ENDSEC
0
SECTION
2
BLOCKS
0
BLOCK
5
20
100
AcDbEntity
8
0
100
AcDbBlockBegin
2
*Model_Space
70
0
10
0
20
0
30
0
3
*Model_Space
0
ENDBLK
5
21
100
AcDbEntity
8
0
100
AcDbBlockEnd
0
BLOCK
5
1C
100
AcDbEntity
8
0
100
AcDbBlockBegin
2
*Paper_Space
70
0
10
0
20
0
30
0
3
*Paper_Space
0
ENDBLK
5
1D
100
AcDbEntity
8
0
100
AcDbBlockEnd
0
BLOCK
5
24
100
AcDbEntity
8
0
100
AcDbBlockBegin
2
*Paper_Space0
70
0
10
0
20
0
30
0
3
*Paper_Space0
0
ENDBLK
5
25
100
AcDbEntity
8
0
100
AcDbBlockEnd
0
BLOCK
5
EF
100
AcDbEntity
8
0
100
AcDbBlockBegin
2
DimnDraft3D1
70
0
10
0
20
0
30
0
3
DimnDraft3D1
0
MTEXT
5
E9
100
AcDbEntity
8
SK2
62
256
6
ByLayer
370
13
48
1
60
0
100
AcDbMText
10
23.481375
20
-16.088398
30
0
210
0
220
0
230
1
1
\W0.7317;59,68
40
3.5
41
0
44
1.084337
50
0
71
7
72
5
7
iso_b_vert
0
LINE
5
EA
100
AcDbEntity
8
SK2
62
256
6
ByLayer
370
13
48
1
60
0
100
AcDbLine
10
0
20
-1.5875
30
0
11
0
21
-18.963398
31
0
39
0
210
0
220
0
230
1
0
LINE
5
EB
100
AcDbEntity
8
SK2
62
256
6
ByLayer
370
13
48
1
60
0
100
AcDbLine
10
59.68
20
-8.3375
30
0
11
59.68
21
-18.963398
31
0
39
0
210
0
220
0
230
1
0
LINE
5
EC
100
AcDbEntity
8
SK2
62
256
6
ByLayer
370
13
48
1
60
0
100
AcDbLine
10
0
20
-16.963398
30
0
11
59.68
21
-16.963398
31
0
39
0
210
0
220
0
230
1
0
SOLID
5
ED
100
AcDbEntity
8
SK2
62
256
6
ByLayer
370
13
48
1
60
0
100
AcDbTrace
10
0
20
-16.963398
30
0
11
3.499998
21
-16.502615
31
0
12
3.500002
22
-17.424182
32
0
13
0
23
-16.963398
33
0
39
0
210
0
220
0
230
1
0
SOLID
5
EE
100
AcDbEntity
8
SK2
62
256
6
ByLayer
370
13
48
1
60
0
100
AcDbTrace
10
59.68
20
-16.963398
30
0
11
56.180002
21
-17.424182
31
0
12
56.179998
22
-16.502615
32
0
13
59.68
23
-16.963398
33
0
39
0
210
0
220
0
230
1
0
ENDBLK
5
F0
100
AcDbEntity
8
0
100
AcDbBlockEnd
0
BLOCK
5
F9
100
AcDbEntity
8
0
100
AcDbBlockBegin
2
DimnDraft3D2
70
0
10
0
20
0
30
0
3
DimnDraft3D2
0
MTEXT
5
F3
100
AcDbEntity
8
SK2
62
256
6
ByLayer
370
13
48
1
60
0
100
AcDbMText
10
2.202221
20
-34.817985
30
0
210
0
220
0
230
1
1
\W0.6930;107,00
40
3.5
41
0
44
1.084337
50
0
71
7
72
5
7
iso_b_vert
0
LINE
5
F4
100
AcDbEntity
8
SK2
62
256
6
ByLayer
370
13
48
1
60
0
100
AcDbLine
10
-45
20
-8.5875
30
0
11
-45
21
-37.692985
31
0
39
0
210
0
220
0
230
1
0
LINE
5
F5
100
AcDbEntity
8
SK2
62
256
6
ByLayer
370
13
48
1
60
0
100
AcDbLine
10
62
20
-1.5875
30
0
11
62
21
-37.692985
31
0
39
0
210
0
220
0
230
1
0
LINE
5
F6
100
AcDbEntity
8
SK2
62
256
6
ByLayer
370
13
48
1
60
0
100
AcDbLine
10
-45
20
-35.692985
30
0
11
62
21
-35.692985
31
0
39
0
210
0
220
0
230
1
0
SOLID
5
F7
100
AcDbEntity
8
SK2
62
256
6
ByLayer
370
13
48
1
60
0
100
AcDbTrace
10
-45
20
-35.692985
30
0
11
-41.500002
21
-35.232202
31
0
12
-41.499998
22
-36.153769
32
0
13
-45
23
-35.692985
33
0
39
0
210
0
220
0
230
1
0
SOLID
5
F8
100
AcDbEntity
8
SK2
62
256
6
ByLayer
370
13
48
1
60
0
100
AcDbTrace
10
62
20
-35.692985
30
0
11
58.500002
21
-36.153769
31
0
12
58.499998
22
-35.232202
32
0
13
62
23
-35.692985
33
0
39
0
210
0
220
0
230
1
0
ENDBLK
5
FA
100
AcDbEntity
8
0
100
AcDbBlockEnd
0
BLOCK
5
103
100
AcDbEntity
8
0
100
AcDbBlockBegin
2
DimnDraft3D3
70
0
10
0
20
0
30
0
3
DimnDraft3D3
0
MTEXT
5
FD
100
AcDbEntity
8
SK2
62
256
6
ByLayer
370
13
48
1
60
0
100
AcDbMText
10
35.957105
20
19.234119
30
0
210
0
220
0
230
1
1
\W0.7581;42,82
40
3.5
41
0
44
1.084337
50
0
71
7
72
5
7
iso_b_vert
0
LINE
5
FE
100
AcDbEntity
8
SK2
62
256
6
ByLayer
370
13
48
1
60
0
100
AcDbLine
10
19.18
20
8.3375
30
0
11
19.18
21
20.359119
31
0
39
0
210
0
220
0
230
1
0
LINE
5
FF
100
AcDbEntity
8
SK2
62
256
6
ByLayer
370
13
48
1
60
0
100
AcDbLine
10
62
20
1.5875
30
0
11
62
21
20.359119
31
0
39
0
210
0
220
0
230
1
0
LINE
5
100
100
AcDbEntity
8
SK2
62
256
6
ByLayer
370
13
48
1
60
0
100
AcDbLine
10
19.18
20
18.359119
30
0
11
62
21
18.359119
31
0
39
0
210
0
220
0
230
1
0
SOLID
5
101
100
AcDbEntity
8
SK2
62
256
6
ByLayer
370
13
48
1
60
0
100
AcDbTrace
10
19.18
20
18.359119
30
0
11
22.679998
21
18.819903
31
0
12
22.680002
22
17.898335
32
0
13
19.18
23
18.359119
33
0
39
0
210
0
220
0
230
1
0
SOLID
5
102
100
AcDbEntity
8
SK2
62
256
6
ByLayer
370
13
48
1
60
0
100
AcDbTrace
10
62
20
18.359119
30
0
11
58.500002
21
17.898335
31
0
12
58.499998
22
18.819903
32
0
13
62
23
18.359119
33
0
39
0
210
0
220
0
230
1
0
ENDBLK
5
104
100
AcDbEntity
8
0
100
AcDbBlockEnd
0
BLOCK
5
10D
100
AcDbEntity
8
0
100
AcDbBlockBegin
2
DimnDraft3D4
70
0
10
0
20
0
30
0
3
DimnDraft3D4
0
MTEXT
5
107
100
AcDbEntity
8
SK2
62
256
6
ByLayer
370
13
48
1
60
0
100
AcDbMText
10
68.840636
20
-18.677503
30
0
210
0
220
0
230
1
1
\W0.7150;2,32
40
3.5
41
0
44
1.084337
50
0
71
7
72
5
7
iso_b_vert
0
LINE
5
108
100
AcDbEntity
8
SK2
62
256
6
ByLayer
370
13
48
1
60
0
100
AcDbLine
10
62
20
-1.5875
30
0
11
62
21
-21.552503
31
0
39
0
210
0
220
0
230
1
0
LINE
5
109
100
AcDbEntity
8
SK2
62
256
6
ByLayer
370
13
48
1
60
0
100
AcDbLine
10
59.68
20
-8.3375
30
0
11
59.68
21
-21.552503
31
0
39
0
210
0
220
0
230
1
0
LINE
5
10A
100
AcDbEntity
8
SK2
62
256
6
ByLayer
370
13
48
1
60
0
100
AcDbLine
10
50.93
20
-19.552503
30
0
11
75.997215
21
-19.552503
31
0
39
0
210
0
220
0
230
1
0
SOLID
5
10B
100
AcDbEntity
8
SK2
62
256
6
ByLayer
370
13
48
1
60
0
100
AcDbTrace
10
62
20
-19.552503
30
0
11
65.499998
21
-19.091719
31
0
12
65.500002
22
-20.013287
32
0
13
62
23
-19.552503
33
0
39
0
210
0
220
0
230
1
0
SOLID
5
10C
100
AcDbEntity
8
SK2
62
256
6
ByLayer
370
13
48
1
60
0
100
AcDbTrace
10
59.68
20
-19.552503
30
0
11
56.180002
21
-20.013287
31
0
12
56.179998
22
-19.091719
32
0
13
59.68
23
-19.552503
33
0
39
0
210
0
220
0
230
1
0
ENDBLK
5
10E
100
AcDbEntity
8
0
100
AcDbBlockEnd
0
BLOCK
5
117
100
AcDbEntity
8
0
100
AcDbBlockBegin
2
DimnDraft3D5
70
0
10
0
20
0
30
0
3
DimnDraft3D5
0
MTEXT
5
111
100
AcDbEntity
8
SK2
62
256
6
ByLayer
370
13
48
1
60
0
100
AcDbMText
10
-1.062613
20
-24.468428
30
0
210
0
220
0
230
1
1
\W0.7145;104,68
40
3.5
41
0
44
1.084337
50
0
71
7
72
5
7
iso_b_vert
0
LINE
5
112
100
AcDbEntity
8
SK2
62
256
6
ByLayer
370
13
48
1
60
0
100
AcDbLine
10
-45
20
-8.5875
30
0
11
-45
21
-27.343428
31
0
39
0
210
0
220
0
230
1
0
LINE
5
113
100
AcDbEntity
8
SK2
62
256
6
ByLayer
370
13
48
1
60
0
100
AcDbLine
10
59.68
20
-8.3375
30
0
11
59.68
21
-27.343428
31
0
39
0
210
0
220
0
230
1
0
LINE
5
114
100
AcDbEntity
8
SK2
62
256
6
ByLayer
370
13
48
1
60
0
100
AcDbLine
10
-45
20
-25.343428
30
0
11
59.68
21
-25.343428
31
0
39
0
210
0
220
0
230
1
0
SOLID
5
115
100
AcDbEntity
8
SK2
62
256
6
ByLayer
370
13
48
1
60
0
100
AcDbTrace
10
-45
20
-25.343428
30
0
11
-41.500002
21
-24.882645
31
0
12
-41.499998
22
-25.804212
32
0
13
-45
23
-25.343428
33
0
39
0
210
0
220
0
230
1
0
SOLID
5
116
100
AcDbEntity
8
SK2
62
256
6
ByLayer
370
13
48
1
60
0
100
AcDbTrace
10
59.68
20
-25.343428
30
0
11
56.180002
21
-25.804212
31
0
12
56.179998
22
-24.882645
32
0
13
59.68
23
-25.343428
33
0
39
0
210
0
220
0
230
1
0
ENDBLK
5
118
100
AcDbEntity
8
0
100
AcDbBlockEnd
0
BLOCK
5
122
100
AcDbEntity
8
0
100
AcDbBlockBegin
2
DimnDraft3D6
70
0
10
0
20
0
30
0
3
DimnDraft3D6
0
MTEXT
5
11B
100
AcDbEntity
8
SK2
62
256
6
ByLayer
370
13
48
1
60
0
100
AcDbMText
10
-55.375163
20
26.34918
30
0
210
0
220
0
230
1
1
\W0.7145;14,000
40
3.5
41
0
44
1.084337
50
90
71
7
72
5
7
iso_b_vert
0
MTEXT
5
11C
100
AcDbEntity
8
SK2
62
256
6
ByLayer
370
13
48
1
60
0
100
AcDbMText
10
-55.375163
20
21.126524
30
0
210
0
220
0
230
1
1
%%c
40
3.5
41
0
44
1.084337
50
90
71
7
72
5
7
iso_b_vert
0
LINE
5
11D
100
AcDbEntity
8
SK2
62
256
6
ByLayer
370
13
48
1
60
0
100
AcDbLine
10
-46.5875
20
-7
30
0
11
-55.625163
21
-7
31
0
39
0
210
0
220
0
230
1
0
LINE
5
11E
100
AcDbEntity
8
SK2
62
256
6
ByLayer
370
13
48
1
60
0
100
AcDbLine
10
-46.5875
20
7
30
0
11
-55.625163
21
7
31
0
39
0
210
0
220
0
230
1
0
LINE
5
11F
100
AcDbEntity
8
SK2
62
256
6
ByLayer
370
13
48
1
60
0
100
AcDbLine
10
-53.625163
20
-7
30
0
11
-53.625163
21
38.230759
31
0
39
0
210
0
220
0
230
1
0
SOLID
5
120
100
AcDbEntity
8
SK2
62
256
6
ByLayer
370
13
48
1
60
0
100
AcDbTrace
10
-53.625163
20
-7
30
0
11
-54.085946
21
-3.500002
31
0
12
-53.164379
22
-3.499998
32
0
13
-53.625163
23
-7
33
0
39
0
210
0
220
0
230
1
0
SOLID
5
121
100
AcDbEntity
8
SK2
62
256
6
ByLayer
370
13
48
1
60
0
100
AcDbTrace
10
-53.625163
20
7
30
0
11
-53.164379
21
3.500002
31
0
12
-54.085946
22
3.499998
32
0
13
-53.625163
23
7
33
0
39
0
210
0
220
0
230
1
0
ENDBLK
5
123
100
AcDbEntity
8
0
100
AcDbBlockEnd
0
BLOCK
5
12D
100
AcDbEntity
8
0
100
AcDbBlockBegin
2
DimnDraft3D7
70
0
10
0
20
0
30
0
3
DimnDraft3D7
0
MTEXT
5
126
100
AcDbEntity
8
2
62
256
6
ByLayer
370
13
48
1
60
0
100
AcDbMText
10
72.333343
20
24.692266
30
0
210
0
220
0
230
1
1
\W0.6930;13,500
40
3.5
41
0
44
1.084337
50
90
71
7
72
5
7
iso_b_vert
0
MTEXT
5
127
100
AcDbEntity
8
2
62
256
6
ByLayer
370
13
48
1
60
0
100
AcDbMText
10
72.333343
20
19.46961
30
0
210
0
220
0
230
1
1
%%c
40
3.5
41
0
44
1.084337
50
90
71
7
72
5
7
iso_b_vert
0
LINE
5
128
100
AcDbEntity
8
2
62
256
6
ByLayer
370
13
48
1
60
0
100
AcDbLine
10
61.2675
20
-6.75
30
0
11
76.083343
21
-6.75
31
0
39
0
210
0
220
0
230
1
0
LINE
5
129
100
AcDbEntity
8
2
62
256
6
ByLayer
370
13
48
1
60
0
100
AcDbLine
10
61.2675
20
6.75
30
0
11
76.083343
21
6.75
31
0
39
0
210
0
220
0
230
1
0
LINE
5
12A
100
AcDbEntity
8
2
62
256
6
ByLayer
370
13
48
1
60
0
100
AcDbLine
10
74.083343
20
-6.75
30
0
11
74.083343
21
36.205424
31
0
39
0
210
0
220
0
230
1
0
SOLID
5
12B
100
AcDbEntity
8
2
62
256
6
ByLayer
370
13
48
1
60
0
100
AcDbTrace
10
74.083343
20
-6.75
30
0
11
73.622559
21
-3.250002
31
0
12
74.544126
22
-3.249998
32
0
13
74.083343
23
-6.75
33
0
39
0
210
0
220
0
230
1
0
SOLID
5
12C
100
AcDbEntity
8
2
62
256
6
ByLayer
370
13
48
1
60
0
100
AcDbTrace
10
74.083343
20
6.75
30
0
11
74.544126
21
3.250002
31
0
12
73.622559
22
3.249998
32
0
13
74.083343
23
6.75
33
0
39
0
210
0
220
0
230
1
0
ENDBLK
5
12E
100
AcDbEntity
8
0
100
AcDbBlockEnd
0
ENDSEC
0
SECTION
2
ENTITIES
0
ARC
5
9B
100
AcDbEntity
8
1
62
256
6
ByLayer
370
18
48
1
60
0
100
AcDbCircle
39
0
10
0
20
6.2
30
0
40
0.800000000000001
210
0
220
0
230
1
100
AcDbArc
50
55.254689
51
90
0
ARC
5
9C
100
AcDbEntity
8
1
62
256
6
ByLayer
370
18
48
1
60
0
100
AcDbCircle
39
0
10
-0.911887
20
-7.51471
30
0
40
0.799999999999997
210
0
220
0
230
-1
100
AcDbArc
50
55.254689
51
90.034377
0
ARC
5
9D
100
AcDbEntity
8
1
62
256
6
ByLayer
370
18
48
1
60
0
100
AcDbCircle
39
0
10
0
20
-6.2
30
0
40
0.800000000000001
210
0
220
0
230
1
100
AcDbArc
50
270
51
304.745311
0
ARC
5
9E
100
AcDbEntity
8
1
62
256
6
ByLayer
370
18
48
1
60
0
100
AcDbCircle
39
0
10
-0.911887
20
7.51471
30
0
40
0.799999999999997
210
0
220
0
230
-1
100
AcDbArc
50
269.965623
51
304.745311
0
ELLIPSE
5
9F
100
AcDbEntity
8
1
62
256
6
ByLayer
370
18
48
1
60
0
100
AcDbEllipse
10
4.25
20
-6.672039
30
0
11
0.25
21
0
31
0
210
0
220
0
230
1
40
0.999994
41
1.5811988430033
42
3.12144634751104
0
ELLIPSE
5
A0
100
AcDbEntity
8
1
62
256
6
ByLayer
370
18
48
1
60
0
100
AcDbEllipse
10
4.25
20
6.672039
30
0
11
0.25
21
0
31
0
210
0
220
0
230
1
40
0.999994
41
-3.12144634751119
42
-1.55678600859205
0
ELLIPSE
5
A1
100
AcDbEntity
8
1
62
256
6
ByLayer
370
13
48
1
60
0
100
AcDbEllipse
10
61.001972
20
3.035917
30
0
11
4.44488934271118
21
-2.28507015979947
31
0
210
0
220
0
230
-1
40
0.482873
41
1.53949524922162
42
1.86061746826633
0
ELLIPSE
5
A2
100
AcDbEntity
8
1
62
256
6
ByLayer
370
18
48
1
60
0
100
AcDbEllipse
10
62.000572
20
0.001474
30
0
11
2.47510877356846
21
6.74830097205911
31
0
210
0
220
0
230
-1
40
0.082138
41
2.90033311818744
42
2.99230702282385
0
ELLIPSE
5
A3
100
AcDbEntity
8
1
62
256
6
ByLayer
370
18
48
1
60
0
100
AcDbEllipse
10
60.761433
20
3.170209
30
0
11
1.03933586740592
21
-2.83371435871528
31
0
210
0
220
0
230
-1
40
0.082138
41
-1.58767355589805
42
-0.755280950345885
0
ELLIPSE
5
A4
100
AcDbEntity
8
1
62
256
6
ByLayer
370
13
48
1
60
0
100
AcDbEllipse
10
61.17143
20
3.170209
30
0
11
4.49164049456981
21
-1.9733434925831
31
0
210
0
220
0
230
-1
40
0.453169
41
1.58629270747281
42
1.9076697876224
0
ELLIPSE
5
A5
100
AcDbEntity
8
1
62
256
6
ByLayer
370
18
48
1
60
0
100
AcDbEllipse
10
62.000572
20
-0.001474
30
0
11
2.47510881105525
21
-6.74830107950012
31
0
210
0
220
0
230
-1
40
0.082138
41
-2.99230702401028
42
-2.90033312011569
0
ELLIPSE
5
A6
100
AcDbEntity
8
1
62
256
6
ByLayer
370
13
48
1
60
0
100
AcDbEllipse
10
4.174714
20
0.704667
30
0
11
-0.0534113992862255
21
-0.0845412468933798
31
0
210
0
220
0
230
1
40
0.399367
41
-1.21663441875195
42
-0.214958842650175
0
ELLIPSE
5
A7
100
AcDbEntity
8
1
62
256
6
ByLayer
370
18
48
1
60
0
100
AcDbEllipse
10
60.761433
20
-3.170209
30
0
11
1.03933586742652
21
2.83371435876295
31
0
210
0
220
0
230
-1
40
0.082138
41
0.755280950346536
42
1.58767355589435
0
ELLIPSE
5
A8
100
AcDbEntity
8
1
62
256
6
ByLayer
370
18
48
1
60
0
100
AcDbEllipse
10
62.017365
20
-0.057415
30
0
11
0.13565854608189
21
0.401200806354596
31
0
210
0
220
0
230
-1
40
0.065863
41
-2.32292776273541
42
-1.60904707541691
0
ELLIPSE
5
A9
100
AcDbEntity
8
1
62
256
6
ByLayer
370
18
48
1
60
0
100
AcDbEllipse
10
61.859896
20
0.135381
30
0
11
0.0868803724503813
21
0.290676908880446
31
0
210
0
220
0
230
-1
40
0.467765
41
1.6781544598886
42
2.36053717393752
0
ELLIPSE
5
AA
100
AcDbEntity
8
1
62
256
6
ByLayer
370
18
48
1
60
0
100
AcDbEllipse
10
62.017365
20
0.057415
30
0
11
0.135658546011205
21
-0.401200806171871
31
0
210
0
220
0
230
-1
40
0.065863
41
1.60904707512225
42
2.32292776274026
0
ELLIPSE
5
AB
100
AcDbEntity
8
1
62
256
6
ByLayer
370
13
48
1
60
0
100
AcDbEllipse
10
4.250143
20
0.659354
30
0
11
0.0498783839041478
21
0.086672641699157
31
0
210
0
220
0
230
1
40
0.051423
41
3.06550900402579
42
-1.65801667016721
0
ELLIPSE
5
AC
100
AcDbEntity
8
1
62
256
6
ByLayer
370
13
48
1
60
0
100
AcDbEllipse
10
60.207679
20
0.95343
30
0
11
0.133113781883897
21
0.268850741253518
31
0
210
0
220
0
230
1
40
0.40558
41
0.884485917130833
42
2.28074931872644
0
POINT
5
6C
100
AcDbEntity
8
81
62
256
6
ByLayer
370
18
48
1
60
0
100
AcDbPoint
10
62
20
0
30
0
39
0
210
0
220
0
230
1
50
360
0
POINT
5
6E
100
AcDbEntity
8
80
62
256
6
ByLayer
370
18
48
1
60
0
100
AcDbPoint
10
0
20
0
30
0
39
0
210
0
220
0
230
1
50
360
0
POINT
5
70
100
AcDbEntity
8
SK2
62
256
6
ByLayer
370
18
48
1
60
1
100
AcDbPoint
10
-45
20
-7
30
0
39
0
210
0
220
0
230
1
50
360
0
POINT
5
72
100
AcDbEntity
8
SK2
62
256
6
ByLayer
370
18
48
1
60
1
100
AcDbPoint
10
-45
20
7
30
0
39
0
210
0
220
0
230
1
50
360
0
POINT
5
73
100
AcDbEntity
8
2
62
256
6
ByLayer
370
18
48
1
60
1
100
AcDbPoint
10
59.68
20
-6.75
30
0
39
0
210
0
220
0
230
1
50
360
0
POINT
5
75
100
AcDbEntity
8
2
62
256
6
ByLayer
370
18
48
1
60
1
100
AcDbPoint
10
59.68
20
6.75
30
0
39
0
210
0
220
0
230
1
50
360
0
SPLINE
5
AD
100
AcDbEntity
8
1
62
256
6
ByLayer
370
18
48
1
60
0
100
AcDbSpline
70
4
71
2
72
6
73
3
40
0
40
0
40
0
40
1
40
1
40
1
41
1
10
5.18452662726997
20
0.0043269912505366
30
0
41
1
10
5.18451285118823
20
0.0043327328372129
30
0
41
1
10
5.18449907514344
20
0.0043387381100217
30
0
0
SPLINE
5
AE
100
AcDbEntity
8
1
62
256
6
ByLayer
370
18
48
1
60
0
100
AcDbSpline
70
4
71
3
72
10
73
6
40
0
40
0
40
0
40
0
40
0.220258125044191
40
0.517473612160884
40
1
40
1
40
1
40
1
41
1
10
42.1523215973951
20
-1.48909152834142
30
0
41
1
10
42.1523734253382
20
-1.48892263704661
30
0
41
1
10
42.1578909522884
20
-1.49131383489822
30
0
41
1
10
42.2082092514918
20
-1.51902060956269
30
0
41
1
10
42.244744180147
20
-1.54029532694642
30
0
41
1
10
42.2715285043125
20
-1.55623602993137
30
0
0
SPLINE
5
AF
100
AcDbEntity
8
1
62
256
6
ByLayer
370
18
48
1
60
0
100
AcDbSpline
70
4
71
2
72
6
73
3
40
0
40
0
40
0
40
1
40
1
40
1
41
1
10
40.5919715357858
20
-0.0001109240076289
30
0
41
1
10
40.5919608416427
20
-0.0001043701258823
30
0
41
1
10
40.5919501474398
20
-9.76215969501E-05
30
0
0
SPLINE
5
B0
100
AcDbEntity
8
1
62
256
6
ByLayer
370
18
48
1
60
0
100
AcDbSpline
70
4
71
2
72
6
73
3
40
0
40
0
40
0
40
1
40
1
40
1
41
1
10
58.4904737454693
20
-6.45440613902977
30
0
41
1
10
59.0608388704965
20
-6.45308085851488
30
0
41
1
10
59.6297861248311
20
-6.45616622651519
30
0
0
SPLINE
5
B1
100
AcDbEntity
8
1
62
256
6
ByLayer
370
18
48
1
60
0
100
AcDbSpline
70
4
71
3
72
32
73
28
40
0
40
0
40
0
40
0
40
0.021759759394499
40
0.0607025448496436
40
0.0964724445456095
40
0.125368317422628
40
0.153028491971311
40
0.181228613850369
40
0.210658700489673
40
0.240592728890735
40
0.27055320826508
40
0.301396527367244
40
0.342140093934759
40
0.39278102166416
40
0.443603875491379
40
0.489172322345353
40
0.526726343763075
40
0.562417816879109
40
0.641178520270548
40
0.709618147983138
40
0.775137982946398
40
0.837811445303415
40
0.87893982301879
40
0.926091344065909
40
0.970740478742398
40
0.98660064496479
40
1
40
1
40
1
40
1
41
1
10
41.2067849446924
20
6.44290706594848
30
0
41
1
10
41.0973397490658
20
6.44276153009096
30
0
41
1
10
40.7921580474141
20
6.4424274265449
30
0
41
1
10
40.3061116044678
20
6.44253037976026
30
0
41
1
10
39.7882512823174
20
6.44241284292949
30
0
41
1
10
39.3238752109143
20
6.44082897015306
30
0
41
1
10
38.8983491241672
20
6.44078343418425
30
0
41
1
10
38.4703707384847
20
6.44093187292546
30
0
41
1
10
38.0298132522233
20
6.44099619351698
30
0
41
1
10
37.580588163203
20
6.44091982587756
30
0
41
1
10
37.1241993573872
20
6.44073611005186
30
0
41
1
10
36.6134580497818
20
6.4410559747059
30
0
41
1
10
35.9986977456714
20
6.43938385846647
30
0
41
1
10
35.2834516670391
20
6.43789809147987
30
0
41
1
10
34.5439401535017
20
6.4385972773895
30
0
41
1
10
33.8702418393251
20
6.43939948938231
30
0
41
1
10
33.2726623799805
20
6.44037065514959
30
0
41
1
10
32.5080842637945
20
6.43790275359012
30
0
41
1
10
31.5901792257745
20
6.43586649163751
30
0
41
1
10
30.5200282789048
20
6.4375263558891
30
0
41
1
10
29.532527836533
20
6.43778295561785
30
0
41
1
10
28.680560415502
20
6.43468666464372
30
0
41
1
10
27.9213819685718
20
6.43544182660185
30
0
41
1
10
27.2527870515112
20
6.43561934092332
30
0
41
1
10
26.7112891050828
20
6.43563342967471
30
0
41
1
10
26.3395988358069
20
6.43534818323701
30
0
41
1
10
26.1924636236636
20
6.43510535605384
30
0
41
1
10
26.1250884014749
20
6.43498311069018
30
0
0
SPLINE
5
B2
100
AcDbEntity
8
1
62
256
6
ByLayer
370
18
48
1
60
0
100
AcDbSpline
70
4
71
3
72
10
73
6
40
0
40
0
40
0
40
0
40
0.248137817588723
40
0.636106697655479
40
1
40
1
40
1
40
1
41
1
10
4.25043758620052
20
-6.42192143899783
30
0
41
1
10
4.42170349549457
20
-6.42245294159267
30
0
41
1
10
4.8597840366341
20
-6.42328143479216
30
0
41
1
10
5.52078322628731
20
-6.41997569450481
30
0
41
1
10
6.04900448624252
20
-6.4191563054124
30
0
41
1
10
6.29547877493872
20
-6.41986117073014
30
0
0
SPLINE
5
B3
100
AcDbEntity
8
1
62
256
6
ByLayer
370
18
48
1
60
0
100
AcDbSpline
70
4
71
3
72
8
73
4
40
0
40
0
40
0
40
0
40
1
40
1
40
1
40
1
41
1
10
6.44447083607304
20
-6.42043070671443
30
0
41
1
10
6.48799489414859
20
-6.4206387818528
30
0
41
1
10
6.53126890140649
20
-6.42088035639378
30
0
41
1
10
6.57445384316392
20
-6.4211484905104
30
0
0
SPLINE
5
B4
100
AcDbEntity
8
1
62
256
6
ByLayer
370
18
48
1
60
0
100
AcDbSpline
70
4
71
3
72
33
73
29
40
0
40
0
40
0
40
0
40
0.0455858050892404
40
0.0883481845887703
40
0.124011396108922
40
0.151576042139686
40
0.171475909536594
40
0.193922542704765
40
0.223626271396937
40
0.256187124016962
40
0.290018945144005
40
0.340367901873885
40
0.39488450881293
40
0.447093215727736
40
0.489932079376728
40
0.528893954999079
40
0.579641883979787
40
0.629371006599015
40
0.685391358011851
40
0.740854532538813
40
0.785103958526379
40
0.829147680880356
40
0.86819337985587
40
0.887059870666652
40
0.905937397555782
40
0.932346245868429
40
0.970598884955361
40
1
40
1
40
1
40
1
41
1
10
23.0706944881586
20
-6.43288509267683
30
0
41
1
10
23.3425420667016
20
-6.43265570227379
30
0
41
1
10
23.8699620553668
20
-6.43253996417945
30
0
41
1
10
24.6233916732653
20
-6.43233662145155
30
0
41
1
10
25.2503450056924
20
-6.43430781031225
30
0
41
1
10
25.7488101472831
20
-6.43401936233354
30
0
41
1
10
26.1706531324254
20
-6.43508879443726
30
0
41
1
10
26.6040858832059
20
-6.43562296559671
30
0
41
1
10
27.1151391261708
20
-6.4356342333885
30
0
41
1
10
27.694448830672
20
-6.43549747343735
30
0
41
1
10
28.3982922636426
20
-6.43499497279322
30
0
41
1
10
29.2346796610242
20
-6.43585963282632
30
0
41
1
10
30.1810973055896
20
-6.43827230447988
30
0
41
1
10
31.0828794538502
20
-6.4367379205973
30
0
41
1
10
31.8902885999545
20
-6.43660513341311
30
0
41
1
10
32.6892757030476
20
-6.43833332146198
30
0
41
1
10
33.5300564635514
20
-6.44054881713865
30
0
41
1
10
34.4736101984244
20
-6.43851268261659
30
0
41
1
10
35.4456114256675
20
-6.43740466789245
30
0
41
1
10
36.3845672392351
20
-6.44123788684428
30
0
41
1
10
37.2513202067126
20
-6.44066940859364
30
0
41
1
10
38.0190854979931
20
-6.44107378906199
30
0
41
1
10
38.6338056265977
20
-6.44088430214862
30
0
41
1
10
39.096769577869
20
-6.44091158356085
30
0
41
1
10
39.4835274885359
20
-6.44167170781174
30
0
41
1
10
39.9871673986248
20
-6.44265965386074
30
0
41
1
10
40.5542987344095
20
-6.44222349710896
30
0
41
1
10
40.9621973470816
20
-6.44270799661959
30
0
41
1
10
41.1394644969981
20
-6.44293535801523
30
0
0
SPLINE
5
B5
100
AcDbEntity
8
1
62
256
6
ByLayer
370
18
48
1
60
0
100
AcDbSpline
70
4
71
3
72
11
73
7
40
0
40
0
40
0
40
0
40
0.0901977094352282
40
0.440761248141957
40
0.781847473208681
40
1
40
1
40
1
40
1
41
1
10
6.57093001165305
20
6.42113067272592
30
0
41
1
10
6.50306566195184
20
6.42071036344592
30
0
41
1
10
6.17036233139808
20
6.41897768940353
30
0
41
1
10
5.54380762716949
20
6.41986239024891
30
0
41
1
10
4.85978667827436
20
6.42328109893651
30
0
41
1
10
4.42170349549082
20
6.4224529415925
30
0
41
1
10
4.25043758620075
20
6.42192143899928
30
0
0
SPLINE
5
B6
100
AcDbEntity
8
1
62
256
6
ByLayer
370
18
48
1
60
0
100
AcDbSpline
70
4
71
3
72
8
73
4
40
0
40
0
40
0
40
0
40
1
40
1
40
1
40
1
41
1
10
59.6354333352038
20
6.70200668512481
30
0
41
1
10
59.1869818031636
20
6.7337379444507
30
0
41
1
10
58.7383719668769
20
6.74946292646416
30
0
41
1
10
58.2896202147984
20
6.7491325482905
30
0
0
SPLINE
5
B7
100
AcDbEntity
8
1
62
256
6
ByLayer
370
18
48
1
60
0
100
AcDbSpline
70
4
71
3
72
34
73
30
40
0
40
0
40
0
40
0
40
0.0136509863112715
40
0.0136509863112715
40
0.0531049468588214
40
0.0531049468588214
40
0.132012867953919
40
0.132012867953919
40
0.210920789049018
40
0.210920789049018
40
0.368736631239214
40
0.368736631239214
40
0.447644552334313
40
0.447644552334313
40
0.526552473429411
40
0.526552473429411
40
0.56600643397696
40
0.56600643397696
40
0.60546039452451
40
0.60546039452451
40
0.684368315619607
40
0.684368315619607
40
0.723822276167156
40
0.723822276167156
40
0.763276236714704
40
0.763276236714704
40
0.842184157809803
40
0.842184157809803
40
1
40
1
40
1
40
1
41
1
10
26.0958470879928
20
-6.45953157873746
30
0
41
1
10
25.99577100377
20
-6.47624329690842
30
0
41
1
10
25.8956699149584
20
-6.492196489034
30
0
41
1
10
25.5061272048447
20
-6.55128495153525
30
0
41
1
10
25.2161207284095
20
-6.5888240602182
30
0
41
1
10
24.3469111885737
20
-6.68155022821341
30
0
41
1
10
23.7689756575999
20
-6.71688989231114
30
0
41
1
10
22.6127721946209
20
-6.73452012983901
30
0
41
1
10
22.0343833084058
20
-6.71677311178203
30
0
41
1
10
20.2945397378897
20
-6.58362633326217
30
0
41
1
10
19.1420204935526
20
-6.38942593343603
30
0
41
1
10
17.402524398799
20
-5.95034123532105
30
0
41
1
10
16.8236407264052
20
-5.77999763964223
30
0
41
1
10
15.6673531916964
20
-5.39559346274979
30
0
41
1
10
15.0893929048733
20
-5.18145795330992
30
0
41
1
10
14.2200606273648
20
-4.82994272959073
30
0
41
1
10
13.9298356214393
20
-4.70767925333018
30
0
41
1
10
13.3507464327566
20
-4.45453040729782
30
0
41
1
10
13.0615612974863
20
-4.32352744113186
30
0
41
1
10
12.1942173456048
20
-3.91839700881133
30
0
41
1
10
11.6162813043789
20
-3.6321445923675
30
0
41
1
10
10.7472400180555
20
-3.18205671186206
30
0
41
1
10
10.4568282989341
20
-3.02830616010158
30
0
41
1
10
9.87797919313351
20
-2.7160107138269
30
0
41
1
10
9.58932606660341
20
-2.55738169637326
30
0
41
1
10
8.72488426320348
20
-2.07537443387776
30
0
41
1
10
8.15056721793681
20
-1.74595220568489
30
0
41
1
10
6.42832139425266
20
-0.742216837463673
30
0
41
1
10
5.28170784750773
20
-0.0514064757633719
30
0
41
1
10
4.12200889087779
20
0.636592853182179
30
0
0
SPLINE
5
B8
100
AcDbEntity
8
1
62
256
6
ByLayer
370
18
48
1
60
0
100
AcDbSpline
70
4
71
3
72
14
73
10
40
0
40
0
40
0
40
0
40
0.25
40
0.25
40
0.5
40
0.5
40
0.75
40
0.75
40
1
40
1
40
1
40
1
41
1
10
4.12200889087776
20
0.636592853182179
30
0
41
1
10
4.1033282832945
20
0.64767525125464
30
0
41
1
10
4.08648428922828
20
0.660899024000344
30
0
41
1
10
4.05635806229043
20
0.691491730305643
30
0
41
1
10
4.04318796615431
20
0.708892508119675
30
0
41
1
10
4.02201716362583
20
0.745959574999148
30
0
41
1
10
4.01372555302416
20
0.766167540534525
30
0
41
1
10
4.00278733562706
20
0.807390837440494
30
0
41
1
10
4.00000010700356
20
0.828473928431379
30
0
41
1
10
4.00000010700353
20
0.850045727001998
30
0
0
SPLINE
5
B9
100
AcDbEntity
8
1
62
256
6
ByLayer
370
18
48
1
60
0
100
AcDbSpline
70
4
71
3
72
14
73
10
40
0
40
0
40
0
40
0
40
0.25
40
0.25
40
0.5
40
0.5
40
0.75
40
0.75
40
1
40
1
40
1
40
1
41
1
10
58.6743257998193
20
1.63214097696294
30
0
41
1
10
58.6660132834206
20
1.66024459034557
30
0
41
1
10
58.6616121301146
20
1.68948011331364
30
0
41
1
10
58.6647516972886
20
1.74903237564499
30
0
41
1
10
58.6725428032832
20
1.77897782713882
30
0
41
1
10
58.7040554974546
20
1.83259510753285
30
0
41
1
10
58.7274837153674
20
1.85518073619264
30
0
41
1
10
58.7815559903178
20
1.88627465792027
30
0
41
1
10
58.8119326209437
20
1.89584950688274
30
0
41
1
10
58.8427794126237
20
1.90141183487572
30
0
0
SPLINE
5
BA
100
AcDbEntity
8
1
62
256
6
ByLayer
370
18
48
1
60
0
100
AcDbSpline
70
4
71
3
72
69
73
65
40
0
40
0
40
0
40
0
40
0.125000000000008
40
0.125000000000008
40
0.187500000000012
40
0.187500000000012
40
0.250000000000016
40
0.250000000000016
40
0.375000000000024
40
0.375000000000024
40
0.500000000000033
40
0.500000000000033
40
0.562500000000037
40
0.562500000000037
40
0.625000000000041
40
0.625000000000041
40
0.687500000000045
40
0.687500000000045
40
0.703125000000047
40
0.703125000000047
40
0.707031250000047
40
0.707031250000047
40
0.710937500000048
40
0.710937500000048
40
0.712890625000048
40
0.712890625000048
40
0.714843750000048
40
0.718750000000047
40
0.718750000000047
40
0.734375000000044
40
0.734375000000044
40
0.750000000000041
40
0.750000000000041
40
0.765625000000038
40
0.765625000000038
40
0.773437500000036
40
0.773437500000036
40
0.781250000000035
40
0.781250000000035
40
0.796875000000033
40
0.796875000000033
40
0.804687500000032
40
0.804687500000032
40
0.81250000000003
40
0.81250000000003
40
0.828125000000028
40
0.828125000000028
40
0.835937500000027
40
0.835937500000027
40
0.843750000000025
40
0.843750000000025
40
0.859375000000023
40
0.859375000000023
40
0.87500000000002
40
0.87500000000002
40
0.906250000000015
40
0.906250000000015
40
0.921875000000013
40
0.921875000000013
40
0.93750000000001
40
0.93750000000001
40
0.968750000000005
40
0.968750000000005
40
1
40
1
40
1
40
1
41
1
10
18.8833451102005
20
-6.47954500964764
30
0
41
1
10
18.0529465502762
20
-6.34572460140402
30
0
41
1
10
17.2137480686402
20
-6.16420207683359
30
0
41
1
10
15.9326906104728
20
-5.84430794928934
30
0
41
1
10
15.5036235963021
20
-5.73022932613387
30
0
41
1
10
14.6419347385732
20
-5.49311849685623
30
0
41
1
10
14.2089586785597
20
-5.37000449298688
30
0
41
1
10
12.9011833648088
20
-4.99569848910997
30
0
41
1
10
12.0174108737565
20
-4.73961846825315
30
0
41
1
10
10.2149702709909
20
-4.26210119567509
30
0
41
1
10
9.29631156723315
20
-4.04090180047911
30
0
41
1
10
7.88673490242627
20
-3.7670624172307
30
0
41
1
10
7.41065888137629
20
-3.68525772273696
30
0
41
1
10
6.45454452697146
20
-3.54619749558478
30
0
41
1
10
5.973770285158
20
-3.48877383008909
30
0
41
1
10
5.00852273960092
20
-3.40124097825571
30
0
41
1
10
4.52474859033183
20
-3.37116400195188
30
0
41
1
10
3.91852236260465
20
-3.35201715327531
30
0
41
1
10
3.7971819308508
20
-3.34910993709497
30
0
41
1
10
3.64550751467891
20
-3.34665104845038
30
0
41
1
10
3.61512851330457
20
-3.34551925448116
30
0
41
1
10
3.5544909928895
20
-3.35109104528661
30
0
41
1
10
3.52461788332192
20
-3.35690241481481
30
0
41
1
10
3.48312551315371
20
-3.37328953132899
30
0
41
1
10
3.4706707741216
20
-3.38049511676684
30
0
41
1
10
3.44577848825884
20
-3.39490985863677
30
0
41
1
10
3.40853830106437
20
-3.41663258533725
30
0
41
1
10
3.3715986040537
20
-3.4386619816284
30
0
41
1
10
3.24916180081814
20
-3.5127980924886
30
0
41
1
10
3.15340466892434
20
-3.57439458792692
30
0
41
1
10
2.9690738227236
20
-3.70142779174452
30
0
41
1
10
2.88026073259419
20
-3.76699776906679
30
0
41
1
10
2.71054952978696
20
-3.90279980375746
30
0
41
1
10
2.62964231267028
20
-3.97302759041821
30
0
41
1
10
2.51551753047238
20
-4.08247012213633
30
0
41
1
10
2.4786868792458
20
-4.11963679769909
30
0
41
1
10
2.40774605338987
20
-4.19548142739782
30
0
41
1
10
2.37350163422607
20
-4.23432719956617
30
0
41
1
10
2.27655338792795
20
-4.35197217170057
30
0
41
1
10
2.21967350246604
20
-4.43170464434343
30
0
41
1
10
2.1476132302767
20
-4.55329199421951
30
0
41
1
10
2.12580817527939
20
-4.59415289669673
30
0
41
1
10
2.08697558357881
20
-4.67654873509463
30
0
41
1
10
2.06990459338073
20
-4.71826804310004
30
0
41
1
10
2.0272335708855
20
-4.8419076387751
30
0
41
1
10
2.00978327955875
20
-4.92293231685289
30
0
41
1
10
1.99976712025313
20
-5.04214361095299
30
0
41
1
10
1.99912379093783
20
-5.08149298882637
30
0
41
1
10
2.00319662492558
20
-5.15937726377254
30
0
41
1
10
2.00795044939127
20
-5.19793810979033
30
0
41
1
10
2.02960506545222
20
-5.31013220048573
30
0
41
1
10
2.05386707398799
20
-5.38109512182885
30
0
41
1
10
2.1190365205278
20
-5.51622310267101
30
0
41
1
10
2.16022008988125
20
-5.58057531010181
30
0
41
1
10
2.30128133403878
20
-5.75993867692046
30
0
41
1
10
2.41895981313229
20
-5.86340092881628
30
0
41
1
10
2.61873494608275
20
-6.00155019169901
30
0
41
1
10
2.68946860422051
20
-6.04476577752129
30
0
41
1
10
2.83551281246082
20
-6.12504262937358
30
0
41
1
10
2.91105645738762
20
-6.1622812237753
30
0
41
1
10
3.14385161616718
20
-6.26664286532417
30
0
41
1
10
3.3071959563664
20
-6.32648164109466
30
0
41
1
10
3.64550320976579
20
-6.43115407754647
30
0
41
1
10
3.82051190340468
20
-6.47594350512446
30
0
41
1
10
4.00000010699131
20
-6.51447669115711
30
0
0
SPLINE
5
BB
100
AcDbEntity
8
1
62
256
6
ByLayer
370
13
48
1
60
0
100
AcDbSpline
70
4
71
3
72
10
73
6
40
0
40
0
40
0
40
0
40
0.149052208935278
40
0.149052208935278
40
1
40
1
40
1
40
1
41
1
10
4.25045588503616
20
-6.42207365776312
30
0
41
1
10
4.25046421061248
20
-6.42191034906065
30
0
41
1
10
4.25047258805111
20
-6.42022196662455
30
0
41
1
10
4.25052897092479
20
-6.3987965438821
30
0
41
1
10
4.25057792446654
20
-6.33192808813683
30
0
41
1
10
4.25062221608852
20
-6.21490382416982
30
0
0
SPLINE
5
BC
100
AcDbEntity
8
1
62
256
6
ByLayer
370
13
48
1
60
0
100
AcDbSpline
70
4
71
3
72
10
73
6
40
0
40
0
40
0
40
0
40
0.5
40
0.5
40
1
40
1
40
1
40
1
41
1
10
4.25023796873944
20
0.649248611542106
30
0
41
1
10
4.22825919599691
20
0.656720359581641
30
0
41
1
10
4.20672310945935
20
0.664306001619593
30
0
41
1
10
4.16453590931098
20
0.679751274146298
30
0
41
1
10
4.14380481692365
20
0.687650352771243
30
0
41
1
10
4.12452286161138
20
0.695354299317501
30
0
0
SPLINE
5
BD
100
AcDbEntity
8
1
62
256
6
ByLayer
370
18
48
1
60
0
100
AcDbSpline
70
4
71
3
72
8
73
4
40
0
40
0
40
0
40
0
40
1
40
1
40
1
40
1
41
1
10
4.00000010700353
20
-6.4614595351558
30
0
41
1
10
4.00000010700353
20
-6.47908767519795
30
0
41
1
10
4.00000010700356
20
-6.49676004008046
30
0
41
1
10
4.00000010700356
20
-6.51447669115976
30
0
0
SPLINE
5
BE
100
AcDbEntity
8
1
62
256
6
ByLayer
370
18
48
1
60
0
100
AcDbSpline
70
2053
71
3
72
60
73
56
40
0
40
0
40
0
40
0
40
0.0312500000000008
40
0.0312500000000008
40
0.0625000000000015
40
0.0625000000000015
40
0.0937500000000023
40
0.0937500000000023
40
0.125000000000003
40
0.125000000000003
40
0.156250000000004
40
0.156250000000004
40
0.187500000000005
40
0.187500000000005
40
0.250000000000006
40
0.250000000000006
40
0.281250000000007
40
0.281250000000007
40
0.312500000000008
40
0.312500000000008
40
0.37500000000001
40
0.37500000000001
40
0.437500000000011
40
0.437500000000011
40
0.46875000000001
40
0.46875000000001
40
0.50000000000001
40
0.50000000000001
40
0.531250000000009
40
0.531250000000009
40
0.562500000000008
40
0.562500000000008
40
0.593750000000008
40
0.593750000000008
40
0.625000000000007
40
0.625000000000007
40
0.656250000000006
40
0.656250000000006
40
0.687500000000006
40
0.687500000000006
40
0.750000000000004
40
0.750000000000004
40
0.781250000000004
40
0.781250000000004
40
0.812500000000003
40
0.812500000000003
40
0.843750000000003
40
0.843750000000003
40
0.875000000000002
40
0.875000000000002
40
0.906250000000002
40
0.906250000000002
40
0.937500000000001
40
0.937500000000001
40
1
40
1
40
1
40
1
41
1
10
60.2943064061959
20
-3.48916708794479
30
0
41
1
10
60.3231990616228
20
-3.44792342927545
30
0
41
1
10
60.3514942226846
20
-3.403723502269
30
0
41
1
10
60.4067853177938
20
-3.30889529918264
30
0
41
1
10
60.4340824227085
20
-3.25763824656917
30
0
41
1
10
60.4854307628438
20
-3.15075506066742
30
0
41
1
10
60.5094206566629
20
-3.09540826317672
30
0
41
1
10
60.5535059645339
20
-2.98030934541148
30
0
41
1
10
60.5730517090576
20
-2.92181239730559
30
0
41
1
10
60.6055104523268
20
-2.80684969695676
30
0
41
1
10
60.6187612327183
20
-2.74888302025443
30
0
41
1
10
60.637108969781
20
-2.64060698847899
30
0
41
1
10
60.642466904051
20
-2.58926953601105
30
0
41
1
10
60.6469863886948
20
-2.44869671296152
30
0
41
1
10
60.6345573497723
20
-2.37487720563033
30
0
41
1
10
60.5998266273724
20
-2.29655516396028
30
0
41
1
10
60.5854565335474
20
-2.27553626091682
30
0
41
1
10
60.5528636332355
20
-2.24383822435627
30
0
41
1
10
60.5345366292841
20
-2.23289825418271
30
0
41
1
10
60.4740171634413
20
-2.2136583665077
30
0
41
1
10
60.4280173722035
20
-2.21907913545155
30
0
41
1
10
60.3267670018571
20
-2.26208518020511
30
0
41
1
10
60.273337475928
20
-2.29886093078827
30
0
41
1
10
60.1889167268516
20
-2.3773145986878
30
0
41
1
10
60.1602311340974
20
-2.4073259649717
30
0
41
1
10
60.1032416185438
20
-2.4737543026786
30
0
41
1
10
60.0747264362004
20
-2.51035369021906
30
0
41
1
10
60.017650836873
20
-2.59104976745937
30
0
41
1
10
59.9887708950269
20
-2.63570724330481
30
0
41
1
10
59.9330160510359
20
-2.73067692616422
30
0
41
1
10
59.9060760328506
20
-2.78096455322933
30
0
41
1
10
59.8543731506942
20
-2.88804937825125
30
0
41
1
10
59.8298924649414
20
-2.9444129614904
30
0
41
1
10
59.7860107013839
20
-3.0588192027484
30
0
41
1
10
59.7661080689473
20
-3.11833258374068
30
0
41
1
10
59.7335532105706
20
-3.23393020910663
30
0
41
1
10
59.7205477009975
20
-3.29096235018375
30
0
41
1
10
59.7020524534413
20
-3.40046197244712
30
0
41
1
10
59.6967942254007
20
-3.45121908695043
30
0
41
1
10
59.6921476539419
20
-3.59235311021556
30
0
41
1
10
59.704442964813
20
-3.66700416551683
30
0
41
1
10
59.7387924492897
20
-3.74613001219271
30
0
41
1
10
59.7529834635417
20
-3.76743622315308
30
0
41
1
10
59.7855508508464
20
-3.79991721035063
30
0
41
1
10
59.8037898602978
20
-3.81107841628537
30
0
41
1
10
59.8437645145623
20
-3.82431768318909
30
0
41
1
10
59.8656253440916
20
-3.8263183596909
30
0
41
1
10
59.9114497296256
20
-3.82163419081607
30
0
41
1
10
59.9355354967378
20
-3.8150259179159
30
0
41
1
10
59.9859678467695
20
-3.79359083329467
30
0
41
1
10
60.0124651022757
20
-3.77861850074899
30
0
41
1
10
60.0662652408757
20
-3.74124179709295
30
0
41
1
10
60.0937145031037
20
-3.71881079592359
30
0
41
1
10
60.1777391670868
20
-3.64009018036447
30
0
41
1
10
60.236521095342
20
-3.57165440528348
30
0
41
1
10
60.2943064061959
20
-3.48916708794479
30
0
0
SPLINE
5
BF
100
AcDbEntity
8
1
62
256
6
ByLayer
370
18
48
1
60
0
100
AcDbSpline
70
4
71
3
72
10
73
6
40
0
40
0
40
0
40
0
40
0.9779948877306
40
0.9779948877306
40
1
40
1
40
1
40
1
41
1
10
11.8968634410456
20
-5.5037706954916
30
0
41
1
10
12.3217287384962
20
-5.37829817323674
30
0
41
1
10
12.7462451603185
20
-5.24142957110513
30
0
41
1
10
13.1799472599328
20
-5.09069789257546
30
0
41
1
10
13.1894907168575
20
-5.08737583516225
30
0
41
1
10
13.1990339817286
20
-5.08404858932013
30
0
0
SPLINE
5
C0
100
AcDbEntity
8
1
62
256
6
ByLayer
370
18
48
1
60
0
100
AcDbSpline
70
4
71
3
72
28
73
24
40
0
40
0
40
0
40
0
40
0.108038772177496
40
0.108038772177496
40
0.1637863489164
40
0.1637863489164
40
0.219533925655305
40
0.219533925655305
40
0.331029079133116
40
0.331029079133116
40
0.386776655872022
40
0.386776655872022
40
0.442524232610928
40
0.442524232610928
40
0.554019386088742
40
0.554019386088742
40
0.665514539566557
40
0.665514539566557
40
0.777009693044371
40
0.777009693044371
40
0.888504846522186
40
0.888504846522186
40
1
40
1
40
1
40
1
41
1
10
41.2065002236432
20
6.44297491755961
30
0
41
1
10
41.6172742398359
20
6.44298233805364
30
0
41
1
10
42.028234524935
20
6.42933215792459
30
0
41
1
10
42.6516423753232
20
6.38979827829363
30
0
41
1
10
42.8638496644154
20
6.37321338356423
30
0
41
1
10
43.2878600182616
20
6.33310692897913
30
0
41
1
10
43.4998750312237
20
6.30945836101679
30
0
41
1
10
44.1358776317579
20
6.22861138026124
30
0
41
1
10
44.5596831002974
20
6.16248276436627
30
0
41
1
10
45.1956403590492
20
6.04205279601942
30
0
41
1
10
45.4078593558089
20
5.99829208826563
30
0
41
1
10
45.8323450816999
20
5.90492696018387
30
0
41
1
10
46.044520903162
20
5.85535141736608
30
0
41
1
10
46.6807128799035
20
5.69742481177718
30
0
41
1
10
47.1042535963725
20
5.57909987718361
30
0
41
1
10
47.9520175300803
20
5.32111392537072
30
0
41
1
10
48.3771790314661
20
5.1812422524375
30
0
41
1
10
49.2252877119465
20
4.87723128342034
30
0
41
1
10
49.6484620944698
20
4.713754931029
30
0
41
1
10
50.4963398142398
20
4.36941968165047
30
0
41
1
10
50.9211766025952
20
4.18824992707263
30
0
41
1
10
51.7693231254166
20
3.80892375939848
30
0
41
1
10
52.1925619681311
20
3.61004252896723
30
0
41
1
10
52.6163737018075
20
3.40435306393923
30
0
0
SPLINE
5
C1
100
AcDbEntity
8
1
62
256
6
ByLayer
370
18
48
1
60
0
100
AcDbSpline
70
4
71
3
72
16
73
12
40
0
40
0
40
0
40
0
40
0.0823327603344622
40
0.0823327603344622
40
0.26586620826757
40
0.26586620826757
40
0.632933104133784
40
0.632933104133784
40
0.816466552066892
40
0.816466552066892
40
1
40
1
40
1
40
1
41
1
10
6.57797723937071
20
6.42157675096593
30
0
41
1
10
6.7204686213899
20
6.41898861330503
30
0
41
1
10
6.86355251166268
20
6.41416367438814
30
0
41
1
10
7.32609004332755
20
6.39186656170605
30
0
41
1
10
7.64662092477141
20
6.36653721877374
30
0
41
1
10
8.61169956085627
20
6.26010070150383
30
0
41
1
10
9.25937620416295
20
6.15152620072055
30
0
41
1
10
10.2398126563836
20
5.94143724106786
30
0
41
1
10
10.5681197334137
20
5.86404260375036
30
0
41
1
10
11.2287439787616
20
5.69471546847663
30
0
41
1
10
11.5610925485666
20
5.60250928893223
30
0
41
1
10
11.896057928614
20
5.50400856751278
30
0
0
SPLINE
5
C2
100
AcDbEntity
8
1
62
256
6
ByLayer
370
18
48
1
60
0
100
AcDbSpline
70
4
71
3
72
80
73
76
40
0
40
0
40
0
40
0
40
0.0047708760408104
40
0.0047708760408104
40
0.0390891216945765
40
0.0390891216945765
40
0.0734073673483427
40
0.0734073673483427
40
0.107725613002109
40
0.107725613002109
40
0.142043858655875
40
0.142043858655875
40
0.159202981482758
40
0.159202981482758
40
0.176362104309641
40
0.176362104309641
40
0.210680349963407
40
0.210680349963407
40
0.244998595617173
40
0.244998595617173
40
0.262157718444056
40
0.262157718444056
40
0.279316841270938
40
0.279316841270938
40
0.313635086924704
40
0.313635086924704
40
0.347953332578469
40
0.347953332578469
40
0.382271578232234
40
0.382271578232234
40
0.416589823886
40
0.416589823886
40
0.433748946712882
40
0.433748946712882
40
0.450908069539764
40
0.450908069539764
40
0.485226315193528
40
0.485226315193528
40
0.519544560847291
40
0.519544560847291
40
0.536703683674173
40
0.536703683674173
40
0.553862806501055
40
0.553862806501055
40
0.588181052154819
40
0.588181052154819
40
0.605340174981701
40
0.605340174981701
40
0.622499297808584
40
0.622499297808584
40
0.656817543462348
40
0.656817543462348
40
0.691135789116113
40
0.691135789116113
40
0.708294911942995
40
0.708294911942995
40
0.725454034769877
40
0.725454034769877
40
0.759772280423642
40
0.759772280423642
40
0.794090526077407
40
0.794090526077407
40
0.811249648904291
40
0.811249648904291
40
0.828408771731174
40
0.828408771731174
40
0.862727017384939
40
0.862727017384939
40
0.897045263038704
40
0.897045263038704
40
0.93136350869247
40
0.93136350869247
40
0.965681754346235
40
0.965681754346235
40
1
40
1
40
1
40
1
41
1
10
48.9758677433456
20
-4.96597829099255
30
0
41
1
10
48.9168847249435
20
-4.98756355769547
30
0
41
1
10
48.8579000666623
20
-5.00892991046084
30
0
41
1
10
48.3746113919069
20
-5.18212035242968
30
0
41
1
10
47.9505737498771
20
-5.32157299721189
30
0
41
1
10
47.1032395703733
20
-5.57938869152775
30
0
41
1
10
46.6792651103097
20
-5.69782252600805
30
0
41
1
10
45.8299783393522
20
-5.90857039190013
30
0
41
1
10
45.406062998777
20
-6.00223230508198
30
0
41
1
10
44.5588515763607
20
-6.16261332428525
30
0
41
1
10
44.1348838898604
20
-6.22877106673917
30
0
41
1
10
43.497960630241
20
-6.30968493742478
30
0
41
1
10
43.2855975423815
20
-6.33334585293443
30
0
41
1
10
42.8616363592829
20
-6.37339755200139
30
0
41
1
10
42.6498158776291
20
-6.38992972318667
30
0
41
1
10
42.0141307754278
20
-6.43019515537432
30
0
41
1
10
41.5901464660902
20
-6.44386771104288
30
0
41
1
10
40.7415316343846
20
-6.44199135463182
30
0
41
1
10
40.3172481202831
20
-6.42824288481526
30
0
41
1
10
39.6812509904511
20
-6.38622761653758
30
0
41
1
10
39.4692550557217
20
-6.36844734537911
30
0
41
1
10
39.0452427329192
20
-6.3266179067989
30
0
41
1
10
38.8332532784809
20
-6.30270527262229
30
0
41
1
10
38.1974299389235
20
-6.22077038875861
30
0
41
1
10
37.7727270459556
20
-6.15268846474183
30
0
41
1
10
36.9243070067868
20
-5.99095715449343
30
0
41
1
10
36.5006547367877
20
-5.89752384012328
30
0
41
1
10
35.6531100761634
20
-5.68219130635347
30
0
41
1
10
35.2282513994226
20
-5.56376718350447
30
0
41
1
10
34.3794479483148
20
-5.3046948112017
30
0
41
1
10
33.9560888821484
20
-5.16372602009804
30
0
41
1
10
33.3204634840738
20
-4.93584047003989
30
0
41
1
10
33.1084902001655
20
-4.85702909937839
30
0
41
1
10
32.6841680514499
20
-4.69349591930802
30
0
41
1
10
32.4717231348343
20
-4.6088163993081
30
0
41
1
10
31.834813191235
20
-4.34910560856204
30
0
41
1
10
31.411222976665
20
-4.16695247234918
30
0
41
1
10
30.5631737899823
20
-3.78687140360927
30
0
41
1
10
30.1389552561262
20
-3.58919598977175
30
0
41
1
10
29.5022714331903
20
-3.27839480643888
30
0
41
1
10
29.2900009867785
20
-3.17239569093437
30
0
41
1
10
28.8656258138511
20
-2.95848934808552
30
0
41
1
10
28.6534529075573
20
-2.8503686431346
30
0
41
1
10
28.0169519823194
20
-2.52213157128233
30
0
41
1
10
27.5929517168817
20
-2.29753375559142
30
0
41
1
10
26.9564240284184
20
-1.95296770632635
30
0
41
1
10
26.7439244797699
20
-1.83697038834009
30
0
41
1
10
26.3192695063593
20
-1.60340341619707
30
0
41
1
10
26.1070597715847
20
-1.48568639006723
30
0
41
1
10
25.4706204198454
20
-1.13046052378462
30
0
41
1
10
25.0470211158106
20
-0.890515408306726
30
0
41
1
10
24.1984112446453
20
-0.408394030777515
30
0
41
1
10
23.773033479743
20
-0.166215323245467
30
0
41
1
10
23.1366542920642
20
0.197103013643982
30
0
41
1
10
22.924799002208
20
0.31842096876008
30
0
41
1
10
22.500941625374
20
0.560161101366162
30
0
41
1
10
22.2889314054776
20
0.680599324736477
30
0
41
1
10
21.6525546683016
20
1.04065197201197
30
0
41
1
10
21.2273412757702
20
1.27925236094344
30
0
41
1
10
20.3789597928913
20
1.75045199706045
30
0
41
1
10
19.9550721899208
20
1.98254705172582
30
0
41
1
10
19.3187187617293
20
2.32284975830746
30
0
41
1
10
19.1065314598457
20
2.43504667103025
30
0
41
1
10
18.6821523875809
20
2.6573640817364
30
0
41
1
10
18.4698938668976
20
2.76762643546328
30
0
41
1
10
17.8331512349299
20
3.09306666473179
30
0
41
1
10
17.4089572669008
20
3.30250093274174
30
0
41
1
10
16.5606067439257
20
3.70752716594302
30
0
41
1
10
16.1369421751134
20
3.90354337068538
30
0
41
1
10
15.2874989989494
20
4.27744349506258
30
0
41
1
10
14.8630039515501
20
4.45519775579999
30
0
41
1
10
14.0159065202495
20
4.78983184772932
30
0
41
1
10
13.5929533853459
20
4.94717613537583
30
0
41
1
10
12.7457943632325
20
5.24156909603573
30
0
41
1
10
12.3216282132115
20
5.37832786067199
30
0
41
1
10
11.8968634410458
20
5.50377069549145
30
0
0
SPLINE
5
C3
100
AcDbEntity
8
1
62
256
6
ByLayer
370
18
48
1
60
0
100
AcDbSpline
70
4
71
3
72
18
73
14
40
0
40
0
40
0
40
0
40
0.201533826746077
40
0.201533826746077
40
0.299842892662385
40
0.299842892662385
40
0.398151958578694
40
0.398151958578694
40
0.594770090411306
40
0.594770090411306
40
0.988006354076528
40
0.988006354076528
40
1
40
1
40
1
40
1
41
1
10
40.6384791495659
20
-0.0271556878105912
30
0
41
1
10
41.2294934813013
20
-0.37033942501148
30
0
41
1
10
41.8221842410961
20
-0.714415949355953
30
0
41
1
10
42.7092171483501
20
-1.22292000117224
30
0
41
1
10
43.0013624693315
20
-1.38928430723726
30
0
41
1
10
43.5825594121983
20
-1.71730511127347
30
0
41
1
10
43.8721802424392
20
-1.87926579467009
30
0
41
1
10
44.7388790142754
20
-2.35780343099137
30
0
41
1
10
45.3137496050162
20
-2.66716300820349
30
0
41
1
10
47.0345295395317
20
-3.55890204603895
30
0
41
1
10
48.1766653463386
20
-4.10481002340475
30
0
41
1
10
49.3620038597909
20
-4.59738000536902
30
0
41
1
10
49.3970941330063
20
-4.61189539096571
30
0
41
1
10
49.4321924420106
20
-4.62634691143495
30
0
0
SPLINE
5
C4
100
AcDbEntity
8
1
62
256
6
ByLayer
370
13
48
1
60
0
100
AcDbSpline
70
4
71
3
72
20
73
16
40
0
40
0
40
0
40
0
40
0.15810739285622
40
0.15810739285622
40
0.2422966535706
40
0.2422966535706
40
0.326485914284979
40
0.326485914284979
40
0.663242957142491
40
0.663242957142491
40
0.831621478571245
40
0.831621478571245
40
0.915810739285623
40
0.915810739285623
40
1
40
1
40
1
40
1
41
1
10
49.4321933672115
20
-4.6263472923809
30
0
41
1
10
49.9724797509163
20
-4.84880698679549
30
0
41
1
10
50.5146702986782
20
-5.05613317798247
30
0
41
1
10
51.3506722146029
20
-5.34737496448005
30
0
41
1
10
51.6427350447383
20
-5.44386199111938
30
0
41
1
10
52.2242079289443
20
-5.62495409721222
30
0
41
1
10
52.5139910796453
20
-5.70970098902336
30
0
41
1
10
53.9593413046179
20
-6.10380123420782
30
0
41
1
10
55.104190666461
20
-6.32447613238875
30
0
41
1
10
56.8242697508213
20
-6.50565563903967
30
0
41
1
10
57.3981353078434
20
-6.54111264816279
30
0
41
1
10
58.2620512922674
20
-6.55585503629641
30
0
41
1
10
58.5505450585967
20
-6.55435292720375
30
0
41
1
10
59.1289948265604
20
-6.53831279179286
30
0
41
1
10
59.4190165356342
20
-6.52333404112639
30
0
41
1
10
59.7098444378718
20
-6.50261832096689
30
0
0
SPLINE
5
C5
100
AcDbEntity
8
1
62
256
6
ByLayer
370
18
48
1
60
0
100
AcDbSpline
70
4
71
3
72
94
73
90
40
0
40
0
40
0
40
0
40
0.0331856562258028
40
0.0331856562258028
40
0.0497784843387037
40
0.0497784843387037
40
0.0663713124516047
40
0.0663713124516047
40
0.0995569686774067
40
0.0995569686774067
40
0.132742624903209
40
0.132742624903209
40
0.165928281129011
40
0.165928281129011
40
0.182521109241912
40
0.182521109241912
40
0.199113937354813
40
0.199113937354813
40
0.232299593580615
40
0.232299593580615
40
0.265485249806418
40
0.265485249806418
40
0.28207807791932
40
0.28207807791932
40
0.298670906032222
40
0.298670906032222
40
0.331856562258025
40
0.331856562258025
40
0.365042218483829
40
0.365042218483829
40
0.398227874709632
40
0.398227874709632
40
0.414820702822534
40
0.414820702822534
40
0.431413530935437
40
0.431413530935437
40
0.448006359048339
40
0.448006359048339
40
0.464599187161241
40
0.464599187161241
40
0.497784843387046
40
0.497784843387046
40
0.514377671499948
40
0.514377671499948
40
0.530970499612851
40
0.530970499612851
40
0.564156155838656
40
0.564156155838656
40
0.580748983951559
40
0.580748983951559
40
0.597341812064461
40
0.597341812064461
40
0.630527468290266
40
0.630527468290266
40
0.647120296403169
40
0.647120296403169
40
0.663713124516071
40
0.663713124516071
40
0.680305952628974
40
0.680305952628974
40
0.696898780741877
40
0.696898780741877
40
0.730084436967682
40
0.730084436967682
40
0.746677265080584
40
0.746677265080584
40
0.763270093193487
40
0.763270093193487
40
0.796455749419292
40
0.796455749419292
40
0.813048577532194
40
0.813048577532194
40
0.829641405645096
40
0.829641405645096
40
0.8628270618709
40
0.8628270618709
40
0.879419889983801
40
0.879419889983801
40
0.896012718096703
40
0.896012718096703
40
0.912605546209605
40
0.912605546209605
40
0.929198374322507
40
0.929198374322507
40
0.96238403054831
40
0.96238403054831
40
0.995569686774114
40
0.995569686774114
40
1
40
1
40
1
40
1
41
1
10
18.8833482170667
20
6.4795328788687
30
0
41
1
10
19.3089476483969
20
6.5482470438468
30
0
41
1
10
19.7349395395592
20
6.60235745551302
30
0
41
1
10
20.3734548970573
20
6.66253648030269
30
0
41
1
10
20.5862304762469
20
6.67907726419551
30
0
41
1
10
21.0114681212067
20
6.70508094427899
30
0
41
1
10
21.2238822026551
20
6.71452743737984
30
0
41
1
10
21.862563598487
20
6.73193462303888
30
0
41
1
10
22.2893960336224
20
6.72911416073825
30
0
41
1
10
23.1404778467106
20
6.69484917629435
30
0
41
1
10
23.5647645898615
20
6.66315083421472
30
0
41
1
10
24.4164737011184
20
6.57180739078115
30
0
41
1
10
24.8435247336328
20
6.51208982410031
30
0
41
1
10
25.481431216064
20
6.40138022139737
30
0
41
1
10
25.6937149925132
20
6.36089801109785
30
0
41
1
10
26.1189275671288
20
6.27352910943014
30
0
41
1
10
26.331735005602
20
6.22659564793258
30
0
41
1
10
26.9704030287634
20
6.0759009355007
30
0
41
1
10
27.3968554703332
20
5.96195351999765
30
0
41
1
10
28.2473396624135
20
5.70809681830193
30
0
41
1
10
28.6729833819863
20
5.56963027695735
30
0
41
1
10
29.3113866107688
20
5.34433058743599
30
0
41
1
10
29.5241732866365
20
5.26628325051141
30
0
41
1
10
29.9495113163408
20
5.10399568999441
30
0
41
1
10
30.1622033425532
20
5.01971344768432
30
0
41
1
10
30.8010839191149
20
4.76012248234915
30
0
41
1
10
31.2270252386934
20
4.57767227109147
30
0
41
1
10
32.0776865338953
20
4.19260575111741
30
0
41
1
10
32.5020657111078
20
3.98941510910049
30
0
41
1
10
33.3544379722629
20
3.56905100200365
30
0
41
1
10
33.7807959330973
20
3.35144750463726
30
0
41
1
10
34.4181908557673
20
3.01322695812854
30
0
41
1
10
34.6304221205939
20
2.89853404512951
30
0
41
1
10
35.0556616572334
20
2.66713856938225
30
0
41
1
10
35.2685175962714
20
2.55021308416073
30
0
41
1
10
35.6944986412818
20
2.31360632367424
30
0
41
1
10
35.9077664737633
20
2.19386403918603
30
0
41
1
10
36.333677799519
20
1.95185654341032
30
0
41
1
10
36.5461917092222
20
1.82939967685982
30
0
41
1
10
37.1835166238827
20
1.45944445387562
30
0
41
1
10
37.6090930681758
20
1.21098177687756
30
0
41
1
10
38.2476091244882
20
0.834149285601853
30
0
41
1
10
38.4604771724706
20
0.70785252677058
30
0
41
1
10
38.8860880398491
20
0.453554472628923
30
0
41
1
10
39.0986973022797
20
0.325835391691982
30
0
41
1
10
39.7369352510569
20
-0.0555884858570437
30
0
41
1
10
40.1626170588117
20
-0.308897281920991
30
0
41
1
10
40.8005302612421
20
-0.688900631691496
30
0
41
1
10
41.0129428556682
20
-0.815780198775172
30
0
41
1
10
41.4381425103406
20
-1.06858206989276
30
0
41
1
10
41.6512648803446
20
-1.1942187614375
30
0
41
1
10
42.2902411044665
20
-1.56814531445184
30
0
41
1
10
42.7159092877636
20
-1.8137428743741
30
0
41
1
10
43.3530471301269
20
-2.17799895651385
30
0
41
1
10
43.5653125825182
20
-2.29853573976098
30
0
41
1
10
43.9907255293639
20
-2.53610129210614
30
0
41
1
10
44.2037066044385
20
-2.6533972294223
30
0
41
1
10
44.6300436724384
20
-2.88529057202493
30
0
41
1
10
44.8430316092208
20
-2.99967444243722
30
0
41
1
10
45.2684405102108
20
-3.22547904875009
30
0
41
1
10
45.4807397914483
20
-3.33709563048961
30
0
41
1
10
46.1177799970736
20
-3.66605793805235
30
0
41
1
10
46.5434288847041
20
-3.87648397509798
30
0
41
1
10
47.1822906643644
20
-4.1803591632993
30
0
41
1
10
47.3953954877509
20
-4.27971261189793
30
0
41
1
10
47.8205861163856
20
-4.47409965075289
30
0
41
1
10
48.032928035896
20
-4.56899320216618
30
0
41
1
10
48.6707468079363
20
-4.84493277966888
30
0
41
1
10
49.0963278227172
20
-5.01816930463534
30
0
41
1
10
49.734392691508
20
-5.26287746184749
30
0
41
1
10
49.9469607394847
20
-5.34206507244005
30
0
41
1
10
50.3724330042706
20
-5.49444079743384
30
0
41
1
10
50.5852500797112
20
-5.56737616153654
30
0
41
1
10
51.223600637945
20
-5.77692150267652
30
0
41
1
10
51.6490242021541
20
-5.90432481605239
30
0
41
1
10
52.2861568715168
20
-6.07739592165882
30
0
41
1
10
52.4985404243678
20
-6.13192175706831
30
0
41
1
10
52.9242750434115
20
-6.23400009578913
30
0
41
1
10
53.1374741869906
20
-6.28167828963598
30
0
41
1
10
53.5632921445513
20
-6.37020898371932
30
0
41
1
10
53.7760477978617
20
-6.41109219745132
30
0
41
1
10
54.2011086320631
20
-6.48613942279772
30
0
41
1
10
54.41327773178
20
-6.52035217726387
30
0
41
1
10
55.0502803642496
20
-6.61227965185
30
0
41
1
10
55.4764136129132
20
-6.65923482196158
30
0
41
1
10
56.3283562874262
20
-6.72495936285873
30
0
41
1
10
56.7524988583327
20
-6.74359213564347
30
0
41
1
10
57.2343181895642
20
-6.7482440888291
30
0
41
1
10
57.2910754595999
20
-6.74853695311754
30
0
41
1
10
57.3478412100197
20
-6.74857442443087
30
0
0
SPLINE
5
C6
100
AcDbEntity
8
1
62
256
6
ByLayer
370
18
48
1
60
0
100
AcDbSpline
70
4
71
3
72
18
73
14
40
0
40
0
40
0
40
0
40
0.125000000000009
40
0.125000000000009
40
0.250000000000018
40
0.250000000000018
40
0.375000000000027
40
0.375000000000027
40
0.500000000000036
40
0.500000000000036
40
0.750000000000018
40
0.750000000000018
40
1
40
1
40
1
40
1
41
1
10
4.25062221609051
20
-6.21490381887338
30
0
41
1
10
4.23672942290022
20
-6.21166743063554
30
0
41
1
10
4.22242669655893
20
-6.20967705801317
30
0
41
1
10
4.19273534936309
20
-6.20894401192635
30
0
41
1
10
4.17714033462605
20
-6.21024500084832
30
0
41
1
10
4.14579601154571
20
-6.21734363327448
30
0
41
1
10
4.12969237834878
20
-6.22326535980577
30
0
41
1
10
4.09892602885523
20
-6.24038068802943
30
0
41
1
10
4.08403336075293
20
-6.25178371555381
30
0
41
1
10
4.04504393980534
20
-6.29173441311255
30
0
41
1
10
4.02641040957579
20
-6.32630074583616
30
0
41
1
10
4.00444163324636
20
-6.39402320189006
30
0
41
1
10
4.0000001070035
20
-6.42840680696318
30
0
41
1
10
4.0000001070035
20
-6.4614595351558
30
0
0
SPLINE
5
C7
100
AcDbEntity
8
1
62
256
6
ByLayer
370
18
48
1
60
0
100
AcDbSpline
70
4
71
3
72
18
73
14
40
0
40
0
40
0
40
0
40
0.250000000000002
40
0.250000000000002
40
0.500000000000004
40
0.500000000000004
40
0.625000000000003
40
0.625000000000003
40
0.750000000000002
40
0.750000000000002
40
0.875000000000001
40
0.875000000000001
40
1
40
1
40
1
40
1
41
1
10
60.9766162717801
20
3.30338951869245
30
0
41
1
10
60.873294830069
20
3.58045070959292
30
0
41
1
10
60.7696871358587
20
3.8569791366676
30
0
41
1
10
60.5624214221089
20
4.40953563694865
30
0
41
1
10
60.4586992242695
20
4.68549674753385
30
0
41
1
10
60.3027339272923
20
5.09808240186786
30
0
41
1
10
60.2507034975391
20
5.23548525352408
30
0
41
1
10
60.1466442837694
20
5.51011849399848
30
0
41
1
10
60.0946030139917
20
5.64731211600233
30
0
41
1
10
59.9904506738283
20
5.92096323463034
30
0
41
1
10
59.9383239372737
20
6.05725551400408
30
0
41
1
10
59.8340011158252
20
6.32910871705127
30
0
41
1
10
59.7818253607846
20
6.46488404173519
30
0
41
1
10
59.7295828305492
20
6.59995514740231
30
0
0
SPLINE
5
C8
100
AcDbEntity
8
1
62
256
6
ByLayer
370
18
48
1
60
0
100
AcDbSpline
70
4
71
3
72
8
73
4
40
0
40
0
40
0
40
0
40
1
40
1
40
1
40
1
41
1
10
59.7308027739503
20
-6.41594058274225
30
0
41
1
10
59.6994724056084
20
-6.44190110639303
30
0
41
1
10
59.6727145273414
20
-6.454962044421
30
0
41
1
10
59.6506005421577
20
-6.45492195970095
30
0
0
SPLINE
5
C9
100
AcDbEntity
8
1
62
256
6
ByLayer
370
18
48
1
60
0
100
AcDbSpline
70
4
71
3
72
14
73
10
40
0
40
0
40
0
40
0
40
0.417687926611315
40
0.417687926611315
40
0.626531889916968
40
0.626531889916968
40
0.835375853222621
40
0.835375853222621
40
1
40
1
40
1
40
1
41
1
10
18.8833482170667
20
-6.4795328788687
30
0
41
1
10
19.3089476483969
20
-6.5482470438468
30
0
41
1
10
19.7349395395592
20
-6.60235745551302
30
0
41
1
10
20.3734548970572
20
-6.66253648030269
30
0
41
1
10
20.5862304762469
20
-6.67907726419551
30
0
41
1
10
21.0114681212067
20
-6.70508094427899
30
0
41
1
10
21.2238822026551
20
-6.71452743737984
30
0
41
1
10
21.6045924868166
20
-6.72490365100055
30
0
41
1
10
21.7725712774626
20
-6.72723665100577
30
0
41
1
10
21.940569330465
20
-6.72733576461931
30
0
0
SPLINE
5
CA
100
AcDbEntity
8
1
62
256
6
ByLayer
370
18
48
1
60
0
100
AcDbSpline
70
4
71
3
72
32
73
28
40
0
40
0
40
0
40
0
40
0.0512898845629496
40
0.0512898845629496
40
0.110584266777764
40
0.110584266777764
40
0.169878648992578
40
0.169878648992578
40
0.288467413422208
40
0.288467413422208
40
0.347761795637022
40
0.347761795637022
40
0.407056177851838
40
0.407056177851838
40
0.466350560066653
40
0.466350560066653
40
0.525644942281468
40
0.525644942281468
40
0.644233706711101
40
0.644233706711101
40
0.762822471140734
40
0.762822471140734
40
0.881411235570367
40
0.881411235570367
40
0.940705617785183
40
0.940705617785183
40
1
40
1
40
1
40
1
41
1
10
48.9697072935507
20
4.96391731579135
30
0
41
1
10
49.1537136695189
20
5.03830350173456
30
0
41
1
10
49.3377281563741
20
5.11075022185702
30
0
41
1
10
49.7343926915082
20
5.26287746184752
30
0
41
1
10
49.9469607394849
20
5.34206507244014
30
0
41
1
10
50.3724330042708
20
5.49444079743387
30
0
41
1
10
50.5852500797113
20
5.56737616153657
30
0
41
1
10
51.2236006379451
20
5.77692150267652
30
0
41
1
10
51.6490242021541
20
5.90432481605242
30
0
41
1
10
52.2861568715168
20
6.07739592165885
30
0
41
1
10
52.4985404243679
20
6.13192175706834
30
0
41
1
10
52.9242750434117
20
6.23400009578918
30
0
41
1
10
53.1374741869908
20
6.28167828963601
30
0
41
1
10
53.5632921445514
20
6.37020898371935
30
0
41
1
10
53.7760477978617
20
6.41109219745132
30
0
41
1
10
54.2011086320632
20
6.48613942279772
30
0
41
1
10
54.41327773178
20
6.5203521772639
30
0
41
1
10
55.0502803642496
20
6.61227965185
30
0
41
1
10
55.4764136129135
20
6.6592348219616
30
0
41
1
10
56.3283562874263
20
6.72495936285873
30
0
41
1
10
56.7524988583327
20
6.74359213564347
30
0
41
1
10
57.6026426096312
20
6.75180025158184
30
0
41
1
10
58.0282651637203
20
6.7415947980935
30
0
41
1
10
58.6666839707468
20
6.70459410407196
30
0
41
1
10
58.8793006767525
20
6.68858491173214
30
0
41
1
10
59.3043021458097
20
6.64949588787147
30
0
41
1
10
59.5169452104533
20
6.62646441525624
30
0
41
1
10
59.7295828305491
20
6.59995514740231
30
0
0
SPLINE
5
CB
100
AcDbEntity
8
1
62
256
6
ByLayer
370
18
48
1
60
0
100
AcDbSpline
70
4
71
3
72
16
73
12
40
0
40
0
40
0
40
0
40
0.195166117685543
40
0.195166117685543
40
0.500355302316586
40
0.500355302316586
40
0.652949894632107
40
0.652949894632107
40
0.805544486947628
40
0.805544486947628
40
1
40
1
40
1
40
1
41
1
10
18.8833554908532
20
6.47953631894822
30
0
41
1
10
18.6459932605268
20
6.36727781265404
30
0
41
1
10
18.4092542190848
20
6.24795985642862
30
0
41
1
10
17.802928612246
20
5.92242082104238
30
0
41
1
10
17.4337299787565
20
5.70498127337254
30
0
41
1
10
16.8754475678727
20
5.35269169459878
30
0
41
1
10
16.6903649008536
20
5.23211173595607
30
0
41
1
10
16.3243335887419
20
4.98870519020645
30
0
41
1
10
16.1428497089669
20
4.8655493753997
30
0
41
1
10
15.7319504619746
20
4.5845529038798
30
0
41
1
10
15.5030403819983
20
4.42647227240408
30
0
41
1
10
15.2739056984512
20
4.27000912688615
30
0
0
SPLINE
5
CC
100
AcDbEntity
8
1
62
256
6
ByLayer
370
18
48
1
60
0
100
AcDbSpline
70
4
71
3
72
22
73
18
40
0
40
0
40
0
40
0
40
0.124999999999999
40
0.124999999999999
40
0.249999999999999
40
0.249999999999999
40
0.499999999999999
40
0.499999999999999
40
0.624999999999999
40
0.624999999999999
40
0.687499999999999
40
0.687499999999999
40
0.749999999999999
40
0.749999999999999
40
0.875
40
0.875
40
1
40
1
40
1
40
1
41
1
10
11.8960579286183
20
-5.50400856751173
30
0
41
1
10
11.560634051942
20
-5.60264411554738
30
0
41
1
10
11.2279355388106
20
-5.69493716839375
30
0
41
1
10
10.5668294731011
20
-5.86435878369383
30
0
41
1
10
10.2383868970237
20
-5.94176497547312
30
0
41
1
10
9.25783518898047
20
-6.15181181908201
30
0
41
1
10
8.61049110400353
20
-6.26025138529189
30
0
41
1
10
7.64656859799408
20
-6.36653427809435
30
0
41
1
10
7.3265416460107
20
-6.39182240043556
30
0
41
1
10
6.84851773760062
20
-6.41489958102602
30
0
41
1
10
6.68951984137871
20
-6.42006445336781
30
0
41
1
10
6.37233264174353
20
-6.42471488957878
30
0
41
1
10
6.21416042270337
20
-6.42421812675533
30
0
41
1
10
5.74404683591013
20
-6.41373121833149
30
0
41
1
10
5.43545945484758
20
-6.39492506514554
30
0
41
1
10
4.83146791052823
20
-6.32868550860155
30
0
41
1
10
4.53596343719818
20
-6.2813753304537
30
0
41
1
10
4.25062222779673
20
-6.21490382160042
30
0
0
SPLINE
5
CD
100
AcDbEntity
8
1
62
256
6
ByLayer
370
18
48
1
60
0
100
AcDbSpline
70
4
71
3
72
58
73
54
40
0
40
0
40
0
40
0
40
0.0472042193143062
40
0.0472042193143062
40
0.0944084386286124
40
0.0944084386286124
40
0.141612657942918
40
0.141612657942918
40
0.165214767600071
40
0.165214767600071
40
0.188816877257224
40
0.188816877257224
40
0.236021096571529
40
0.236021096571529
40
0.259623206228682
40
0.259623206228682
40
0.283225315885834
40
0.283225315885834
40
0.33042953520014
40
0.33042953520014
40
0.354031644857292
40
0.354031644857292
40
0.377633754514445
40
0.377633754514445
40
0.42483797382875
40
0.42483797382875
40
0.472042193143056
40
0.472042193143056
40
0.519246412457361
40
0.519246412457361
40
0.566450631771667
40
0.566450631771667
40
0.613654851085972
40
0.613654851085972
40
0.637256960743125
40
0.637256960743125
40
0.660859070400278
40
0.660859070400278
40
0.708063289714584
40
0.708063289714584
40
0.731665399371737
40
0.731665399371737
40
0.75526750902889
40
0.75526750902889
40
0.802471728343197
40
0.802471728343197
40
0.826073838000351
40
0.826073838000351
40
0.849675947657504
40
0.849675947657504
40
0.944084386286116
40
0.944084386286116
40
1
40
1
40
1
40
1
41
1
10
59.6354333352036
20
-6.70200668512481
30
0
41
1
10
59.0566088989974
20
-6.74296279069515
30
0
41
1
10
58.4782959671656
20
-6.75725103377991
30
0
41
1
10
57.3193367876627
20
-6.73232003486581
30
0
41
1
10
56.7414267905796
20
-6.69314373215599
30
0
41
1
10
55.5863058144403
20
-6.56260680260769
30
0
41
1
10
55.0089214069236
20
-6.47123148933051
30
0
41
1
10
54.1402772505712
20
-6.29596719400217
30
0
41
1
10
53.8504332663266
20
-6.23118615138622
30
0
41
1
10
53.2719938079708
20
-6.08971807809647
30
0
41
1
10
52.9830910729776
20
-6.01297163476954
30
0
41
1
10
52.1166657817666
20
-5.7652550429317
30
0
41
1
10
51.5394079799162
20
-5.57681633148573
30
0
41
1
10
50.6712147915173
20
-5.26163996701285
30
0
41
1
10
50.3812155611396
20
-5.15105588784454
30
0
41
1
10
49.8024318985127
20
-4.92039125986457
30
0
41
1
10
49.5133971591291
20
-4.80022808846729
30
0
41
1
10
48.6467050208188
20
-4.4260823231034
30
0
41
1
10
48.0694170956031
20
-4.15849643123954
30
0
41
1
10
47.2015690922743
20
-3.73326798583815
30
0
41
1
10
46.9116712760051
20
-3.58735979952792
30
0
41
1
10
46.3325264873374
20
-3.28911003410332
30
0
41
1
10
46.0433453404914
20
-3.13681981620852
30
0
41
1
10
45.1763653856822
20
-2.67140792746721
30
0
41
1
10
44.5990712500153
20
-2.34983499962291
30
0
41
1
10
43.442397004826
20
-1.68946659770611
30
0
41
1
10
42.862182486717
20
-1.35029127579654
30
0
41
1
10
41.7057958454338
20
-0.666304007889153
30
0
41
1
10
41.1284726442743
20
-0.320980193994245
30
0
41
1
10
39.9721444865627
20
0.370594879584218
30
0
41
1
10
39.3919073082523
20
0.717384468195036
30
0
41
1
10
38.2349847734656
20
1.40043862449394
30
0
41
1
10
37.6576090160245
20
1.73705354401815
30
0
41
1
10
36.7905303439771
20
2.2303120779458
30
0
41
1
10
36.5013387617785
20
2.39279314794675
30
0
41
1
10
35.9221230852767
20
2.71306428499159
30
0
41
1
10
35.6320917510099
20
2.87087670736497
30
0
41
1
10
34.7639443614542
20
3.33428777795225
30
0
41
1
10
34.1864222889638
20
3.6304448956183
30
0
41
1
10
33.3194102334937
20
4.05187866171647
30
0
41
1
10
33.0302966658358
20
4.18857118364886
30
0
41
1
10
32.4513670997451
20
4.45370264052133
30
0
41
1
10
32.1612828141497
20
4.582276540365
30
0
41
1
10
31.2926553368592
20
4.95322394636699
30
0
41
1
10
30.7149913917342
20
5.18112154873197
30
0
41
1
10
29.848004960846
20
5.49119612279947
30
0
41
1
10
29.558944724672
20
5.58927554370371
30
0
41
1
10
28.9802807003595
20
5.77442781267112
30
0
41
1
10
28.690366104168
20
5.86155443425019
30
0
41
1
10
27.2416653883676
20
6.26728586573964
30
0
41
1
10
26.0891349226896
20
6.49551219719339
30
0
41
1
10
24.2424351395052
20
6.69280173721134
30
0
41
1
10
23.5580754708465
20
6.72898154120568
30
0
41
1
10
22.8733423068237
20
6.72789368396565
30
0
0
SPLINE
5
CE
100
AcDbEntity
8
1
62
256
6
ByLayer
370
13
48
1
60
0
100
AcDbSpline
70
4
71
3
72
10
73
6
40
0
40
0
40
0
40
0
40
0.334203136488295
40
0.334203136488295
40
1
40
1
40
1
40
1
41
1
10
4.0079601893747
20
0.802156936497568
30
0
41
1
10
4.01327421000747
20
0.787723377522127
30
0
41
1
10
4.02121405130947
20
0.773709618590715
30
0
41
1
10
4.05251431145888
20
0.734718540541451
30
0
41
1
10
4.0839086771725
20
0.71158136243838
30
0
41
1
10
4.12452286161138
20
0.695354299317529
30
0
0
SPLINE
5
CF
100
AcDbEntity
8
1
62
256
6
ByLayer
370
18
48
1
60
0
100
AcDbSpline
70
4
71
3
72
16
73
12
40
0
40
0
40
0
40
0
40
0.020205356976441
40
0.020205356976441
40
0.135664932330535
40
0.135664932330535
40
0.251124507684629
40
0.251124507684629
40
0.712962809101001
40
0.712962809101001
40
1
40
1
40
1
40
1
41
1
10
23.5011400634439
20
-6.42902764074404
30
0
41
1
10
23.4505380756453
20
-6.43004504684407
30
0
41
1
10
23.3999185433527
20
-6.43086820407939
30
0
41
1
10
23.0599185454964
20
-6.43508807641737
30
0
41
1
10
22.7699424845095
20
-6.43230985784493
30
0
41
1
10
22.1884140807713
20
-6.41394781299107
30
0
41
1
10
21.8964367173816
20
-6.39828277409933
30
0
41
1
10
20.442919975212
20
-6.28835435993375
30
0
41
1
10
19.2928792925232
20
-6.09959488636724
30
0
41
1
10
17.4272746204873
20
-5.64590087052969
30
0
41
1
10
16.712062199822
20
-5.43679432848845
30
0
41
1
10
15.9934593222497
20
-5.19494904427251
30
0
0
SPLINE
5
D0
100
AcDbEntity
8
1
62
256
6
ByLayer
370
13
48
1
60
0
100
AcDbSpline
70
4
71
3
72
20
73
16
40
0
40
0
40
0
40
0
40
0.112029299792246
40
0.112029299792246
40
0.186026858142892
40
0.186026858142892
40
0.260024416493538
40
0.260024416493538
40
0.408019533194831
40
0.408019533194831
40
0.704009766597414
40
0.704009766597414
40
0.852004883298707
40
0.852004883298707
40
1
40
1
40
1
40
1
41
1
10
15.9934593228548
20
-5.19494904447612
30
0
41
1
10
15.5558415330319
20
-5.04766909048061
30
0
41
1
10
15.1169663524576
20
-4.88824758955994
30
0
41
1
10
14.3848996889524
20
-4.60429045919284
30
0
41
1
10
14.0931140566924
20
-4.48637516209453
30
0
41
1
10
13.5123102274359
20
-4.24288331028126
30
0
41
1
10
13.2227122490524
20
-4.11707519867841
30
0
41
1
10
12.3555090089417
20
-3.72868696750604
30
0
41
1
10
11.7794675153072
20
-3.45517376360175
30
0
41
1
10
10.0527236971995
20
-2.59859902742093
30
0
41
1
10
8.90427533074546
20
-1.97835989057006
30
0
41
1
10
7.1644139245256
20
-1.00823227756072
30
0
41
1
10
6.58029543046933
20
-0.67710825923686
30
0
41
1
10
5.41537338663704
20
-0.0137217845822875
30
0
41
1
10
4.83338992640191
20
0.318797899933259
30
0
41
1
10
4.25023796873938
20
0.649248611542106
30
0
0
SPLINE
5
D1
100
AcDbEntity
8
1
62
256
6
ByLayer
370
18
48
1
60
0
100
AcDbSpline
70
4
71
3
72
26
73
22
40
0
40
0
40
0
40
0
40
0.125000000000003
40
0.125000000000003
40
0.187500000000003
40
0.187500000000003
40
0.250000000000003
40
0.250000000000003
40
0.500000000000003
40
0.500000000000003
40
0.562500000000003
40
0.562500000000003
40
0.625000000000003
40
0.625000000000003
40
0.750000000000002
40
0.750000000000002
40
0.875000000000001
40
0.875000000000001
40
0.9375
40
0.9375
40
1
40
1
40
1
40
1
41
1
10
59.6506005421525
20
-6.45492195970095
30
0
41
1
10
59.556932813171
20
-6.45481448601518
30
0
41
1
10
59.4677750194908
20
-6.44110743183717
30
0
41
1
10
59.3411286898284
20
-6.39916607085661
30
0
41
1
10
59.300097921325
20
-6.38161326457944
30
0
41
1
10
59.2205004758805
20
-6.33907725462421
30
0
41
1
10
59.1818116661769
20
-6.31398246447043
30
0
41
1
10
58.9970809504164
20
-6.17087785435157
30
0
41
1
10
58.875724331957
20
-6.00066527452398
30
0
41
1
10
58.7586914784841
20
-5.71480550384072
30
0
41
1
10
58.7370408313706
20
-5.65393081605396
30
0
41
1
10
58.6973920952371
20
-5.52447925462792
30
0
41
1
10
58.6793564474482
20
-5.45565416925643
30
0
41
1
10
58.631702503834
20
-5.24059671125949
30
0
41
1
10
58.6082118238075
20
-5.08507101347885
30
0
41
1
10
58.5775365005606
20
-4.7500802852939
30
0
41
1
10
58.5703511676565
20
-4.57061626743311
30
0
41
1
10
58.5721520062729
20
-4.28295290919775
30
0
41
1
10
58.5748680370655
20
-4.18371789014901
30
0
41
1
10
58.5845732682145
20
-3.98011125703201
30
0
41
1
10
58.5915319078498
20
-3.87614463298232
30
0
41
1
10
58.600562247851
20
-3.77004995873398
30
0
0
SPLINE
5
D2
100
AcDbEntity
8
1
62
256
6
ByLayer
370
18
48
1
60
0
100
AcDbSpline
70
4
71
3
72
18
73
14
40
0
40
0
40
0
40
0
40
0.0801891775342292
40
0.0801891775342292
40
0.265597662972832
40
0.265597662972832
40
0.636414633850041
40
0.636414633850041
40
0.821823119288645
40
0.821823119288645
40
0.914527362007946
40
0.914527362007946
40
1
40
1
40
1
40
1
41
1
10
5.19288847163239
20
-0.0005194721453847
30
0
41
1
10
5.4449591655368
20
-0.146398568113739
30
0
41
1
10
5.69697991503742
20
-0.292290378724289
30
0
41
1
10
6.53199009284162
20
-0.774771190519147
30
0
41
1
10
7.11654531454019
20
-1.11066734327207
30
0
41
1
10
8.85745321948153
20
-2.093471540862
30
0
41
1
10
10.0063152728387
20
-2.72026523114113
30
0
41
1
10
11.7338442629841
20
-3.58360324416361
30
0
41
1
10
12.3101689144428
20
-3.85888193403017
30
0
41
1
10
13.1778653632136
20
-4.24918758726253
30
0
41
1
10
13.467638071106
20
-4.37551445801384
30
0
41
1
10
14.0261627994631
20
-4.61025314851145
30
0
41
1
10
14.2953028633125
20
-4.71949466811421
30
0
41
1
10
14.5640476008892
20
-4.8244562500428
30
0
0
SPLINE
5
D3
100
AcDbEntity
8
1
62
256
6
ByLayer
370
13
48
1
60
0
100
AcDbSpline
70
4
71
3
72
18
73
14
40
0
40
0
40
0
40
0
40
0.0067009844949985
40
0.0067009844949985
40
0.35031388871509
40
0.35031388871509
40
0.693926792935181
40
0.693926792935181
40
0.779830018990203
40
0.779830018990203
40
0.865733245045225
40
0.865733245045225
40
1
40
1
40
1
40
1
41
1
10
14.5640485323202
20
-4.82445661382468
30
0
41
1
10
14.5867859745759
20
-4.83333700237833
30
0
41
1
10
14.6095205869974
20
-4.84218675431299
30
0
41
1
10
15.7978412205465
20
-5.30320323634035
30
0
41
1
10
16.9492243268871
20
-5.67220606535594
30
0
41
1
10
19.2513022549687
20
-6.22374900214678
30
0
41
1
10
20.4018394176571
20
-6.40645077797458
30
0
41
1
10
21.8564638815145
20
-6.50631211226914
30
0
41
1
10
22.1486737436785
20
-6.51983954932422
30
0
41
1
10
22.7305505078656
20
-6.53371108639487
30
0
41
1
10
23.0206884221496
20
-6.53413315567113
30
0
41
1
10
23.7627202161768
20
-6.51865248192016
30
0
41
1
10
24.2137198108628
20
-6.493458279322
30
0
41
1
10
24.6639859005826
20
-6.45282097098499
30
0
0
SPLINE
5
D4
100
AcDbEntity
8
1
62
256
6
ByLayer
370
13
48
1
60
0
100
AcDbSpline
70
4
71
3
72
28
73
24
40
0
40
0
40
0
40
0
40
0.146521429080482
40
0.146521429080482
40
0.183151786350603
40
0.183151786350603
40
0.219782143620723
40
0.219782143620723
40
0.293042858160964
40
0.293042858160964
40
0.439564287241446
40
0.439564287241446
40
0.586085716321928
40
0.586085716321928
40
0.659346430862169
40
0.659346430862169
40
0.73260714540241
40
0.73260714540241
40
0.879128574482892
40
0.879128574482892
40
0.952389289023133
40
0.952389289023133
40
1
40
1
40
1
40
1
41
1
10
4.25023796873944
20
0.649248611542106
30
0
41
1
10
4.25025352437592
20
1.11238588451377
30
0
41
1
10
4.25025627604123
20
1.562759813235
30
0
41
1
10
4.25025141689682
20
2.11024261729995
30
0
41
1
10
4.2502500260259
20
2.2189563763261
30
0
41
1
10
4.25024658810054
20
2.43479556030445
30
0
41
1
10
4.25024453391697
20
2.54222927426179
30
0
41
1
10
4.25023772002126
20
2.85944862724421
30
0
41
1
10
4.25023232939756
20
3.06400160121015
30
0
41
1
10
4.25021589662038
20
3.65753390251905
30
0
41
1
10
4.25020461994626
20
4.02687939687428
30
0
41
1
10
4.25019199083084
20
4.70910320558249
30
0
41
1
10
4.25019094271258
20
5.01006383114245
30
0
41
1
10
4.25020187815551
20
5.40353816063924
30
0
41
1
10
4.25020758408078
20
5.52495035875722
30
0
41
1
10
4.25022364793881
20
5.74762254635579
30
0
41
1
10
4.25023399638252
20
5.84830047330425
30
0
41
1
10
4.25027160305024
20
6.11390753842571
30
0
41
1
10
4.25030523048648
20
6.24202141776109
30
0
41
1
10
4.25036555406154
20
6.36292126190932
30
0
41
1
10
4.25038729346619
20
6.39124295539293
30
0
41
1
10
4.2504251879725
20
6.41743741695961
30
0
41
1
10
4.25044045445486
20
6.42237957609612
30
0
41
1
10
4.25045589936661
20
6.42207337516066
30
0
0
SPLINE
5
D5
100
AcDbEntity
8
1
62
256
6
ByLayer
370
18
48
1
60
0
100
AcDbSpline
70
4
71
3
72
44
73
40
40
0
40
0
40
0
40
0
40
0.250000000000004
40
0.250000000000004
40
0.375000000000006
40
0.375000000000006
40
0.437500000000009
40
0.437500000000009
40
0.500000000000012
40
0.500000000000012
40
0.625000000000022
40
0.625000000000022
40
0.687500000000025
40
0.687500000000025
40
0.718750000000024
40
0.718750000000024
40
0.734375000000024
40
0.734375000000024
40
0.750000000000024
40
0.750000000000024
40
0.78125000000002
40
0.78125000000002
40
0.812500000000016
40
0.812500000000016
40
0.843750000000011
40
0.843750000000011
40
0.875000000000007
40
0.875000000000007
40
0.890625000000006
40
0.890625000000006
40
0.906250000000005
40
0.906250000000005
40
0.921875000000004
40
0.921875000000004
40
0.937500000000004
40
0.937500000000004
40
0.968750000000002
40
0.968750000000002
40
1
40
1
40
1
40
1
41
1
10
52.6163737018076
20
3.40435306393917
30
0
41
1
10
53.1488702669628
20
2.95176432068666
30
0
41
1
10
53.6959438811342
20
2.53929797279182
30
0
41
1
10
54.5420744982605
20
1.99084115831272
30
0
41
1
10
54.828359325179
20
1.81969609384407
30
0
41
1
10
55.2648961492107
20
1.58254717156001
30
0
41
1
10
55.4118909495767
20
1.50662267157696
30
0
41
1
10
55.7070909455719
20
1.36252127254107
30
0
41
1
10
55.8547495973833
20
1.29459274369478
30
0
41
1
10
56.2979103023235
20
1.10379129144135
30
0
41
1
10
56.5935954074537
20
0.993783202257703
30
0
41
1
10
57.0375509333599
20
0.858841505104579
30
0
41
1
10
57.1858714456932
20
0.818864992137065
30
0
41
1
10
57.4068816863156
20
0.767621615091599
30
0
41
1
10
57.4803459839037
20
0.751980548940878
30
0
41
1
10
57.5902192361179
20
0.730780651132278
30
0
41
1
10
57.6267897465316
20
0.724091257756413
30
0
41
1
10
57.6998209906156
20
0.711480684792406
30
0
41
1
10
57.7363408233791
20
0.705300180075795
30
0
41
1
10
57.8452221841404
20
0.690065898378492
30
0
41
1
10
57.9170397410705
20
0.68346109447441
30
0
41
1
10
58.0576249900106
20
0.679895614815422
30
0
41
1
10
58.1268720090771
20
0.682815885684334
30
0
41
1
10
58.2599269144059
20
0.699717318818927
30
0
41
1
10
58.3238724385071
20
0.713454545751574
30
0
41
1
10
58.4444400362787
20
0.755923797367984
30
0
41
1
10
58.5012694266865
20
0.785509051383542
30
0
41
1
10
58.5736072231075
20
0.84423785443272
30
0
41
1
10
58.5958372179651
20
0.866109916323268
30
0
41
1
10
58.6360060348634
20
0.915087031196578
30
0
41
1
10
58.6538703043559
20
0.94215585777394
30
0
41
1
10
58.684037052214
20
0.999737428233601
30
0
41
1
10
58.6965157829029
20
1.03045738630223
30
0
41
1
10
58.7163267136785
20
1.09570916692004
30
0
41
1
10
58.7236932935799
20
1.13053220985435
30
0
41
1
10
58.7376560216786
20
1.23823696143233
30
0
41
1
10
58.7363455219099
20
1.31432734181377
30
0
41
1
10
58.7163587039777
20
1.47258622395668
30
0
41
1
10
58.6979680892616
20
1.55220925351151
30
0
41
1
10
58.6743257998194
20
1.63214097696294
30
0
0
SPLINE
5
D6
100
AcDbEntity
8
1
62
256
6
ByLayer
370
18
48
1
60
0
100
AcDbSpline
70
4
71
3
72
12
73
8
40
0
40
0
40
0
40
0
40
0.249999999999993
40
0.249999999999993
40
0.499999999999985
40
0.499999999999985
40
1
40
1
40
1
40
1
41
1
10
59.7098444378715
20
-6.50261832096689
30
0
41
1
10
59.714772601831
20
-6.48939024524486
30
0
41
1
10
59.719508994287
20
-6.47586374235826
30
0
41
1
10
59.727303557953
20
-6.45155266697836
30
0
41
1
10
59.7303434207934
20
-6.44078616006024
30
0
41
1
10
59.7357072237846
20
-6.41716651903971
30
0
41
1
10
59.7345146103497
20
-6.41286493372394
30
0
41
1
10
59.7308027739504
20
-6.41594058274225
30
0
0
SPLINE
5
D7
100
AcDbEntity
8
1
62
256
6
ByLayer
370
18
48
1
60
0
100
AcDbSpline
70
4
71
3
72
28
73
24
40
0
40
0
40
0
40
0
40
0.249999999999996
40
0.249999999999996
40
0.374999999999995
40
0.374999999999995
40
0.499999999999993
40
0.499999999999993
40
0.624999999999991
40
0.624999999999991
40
0.68749999999999
40
0.68749999999999
40
0.749999999999989
40
0.749999999999989
40
0.812499999999988
40
0.812499999999988
40
0.843749999999992
40
0.843749999999992
40
0.874999999999995
40
0.874999999999995
40
0.937499999999997
40
0.937499999999997
40
1
40
1
40
1
40
1
41
1
10
58.8427794126237
20
1.90141183487569
30
0
41
1
10
59.0746982715544
20
1.94323170303286
30
0
41
1
10
59.3053477627013
20
1.99133651175933
30
0
41
1
10
59.645665038898
20
2.07971625976163
30
0
41
1
10
59.7582154523911
20
2.11193251417785
30
0
41
1
10
59.9807975126965
20
2.18431035907537
30
0
41
1
10
60.0908474608846
20
2.22440959763989
30
0
41
1
10
60.3070958210989
20
2.31698473762899
30
0
41
1
10
60.4129737659354
20
2.36923674478283
30
0
41
1
10
60.563159390464
20
2.46175962005864
30
0
41
1
10
60.6119733360852
20
2.49517226158437
30
0
41
1
10
60.7041224539371
20
2.56742939472468
30
0
41
1
10
60.7476545420827
20
2.60635330096747
30
0
41
1
10
60.8277575654392
20
2.69192373351467
30
0
41
1
10
60.8646006731031
20
2.73914912181749
30
0
41
1
10
60.9102841702669
20
2.81471586298059
30
0
41
1
10
60.9240009657015
20
2.84075665247204
30
0
41
1
10
60.9480915746591
20
2.89473201024521
30
0
41
1
10
60.9585235087745
20
2.92290412865202
30
0
41
1
10
60.9836696727521
20
3.00843165669818
30
0
41
1
10
60.9924092743523
20
3.06678132368378
30
0
41
1
10
60.9949180212007
20
3.18599599629607
30
0
41
1
10
60.9885712028399
20
3.24556508414992
30
0
41
1
10
60.9766162717764
20
3.30338951869098
30
0
0
SPLINE
5
D8
100
AcDbEntity
8
1
62
256
6
ByLayer
370
18
48
1
60
0
100
AcDbSpline
70
4
71
3
72
12
73
8
40
0
40
0
40
0
40
0
40
0.0838184444017446
40
0.0838184444017446
40
0.43129320347098
40
0.43129320347098
40
1
40
1
40
1
40
1
41
1
10
12.635627626567
20
-4.92449342845089
30
0
41
1
10
12.6152334186126
20
-4.94177370222127
30
0
41
1
10
12.5948149793777
20
-4.95898067186738
30
0
41
1
10
12.4897157299798
20
-5.0470381793865
30
0
41
1
10
12.4047734617616
20
-5.11651468388476
30
0
41
1
10
12.179724513123
20
-5.29542591956601
30
0
41
1
10
12.0389101279739
20
-5.40210775438078
30
0
41
1
10
11.8965171091681
20
-5.50401857719075
30
0
0
SPLINE
5
D9
100
AcDbEntity
8
1
62
256
6
ByLayer
370
18
48
1
60
0
100
AcDbSpline
70
4
71
3
72
14
73
10
40
0
40
0
40
0
40
0
40
0.448104823300684
40
0.448104823300684
40
0.672157234951026
40
0.672157234951026
40
0.896209646601367
40
0.896209646601367
40
1
40
1
40
1
40
1
41
1
10
18.8833451102005
20
6.47954500964767
30
0
41
1
10
18.0529465502762
20
6.34572460140404
30
0
41
1
10
17.2137480686402
20
6.16420207683359
30
0
41
1
10
15.9326906104728
20
5.84430794928932
30
0
41
1
10
15.5036235963021
20
5.73022932613384
30
0
41
1
10
14.6419347385732
20
5.49311849685623
30
0
41
1
10
14.2089586785598
20
5.37000449298685
30
0
41
1
10
13.571095017159
20
5.18743781229884
30
0
41
1
10
13.368516851984
20
5.12928879663178
30
0
41
1
10
13.1652304181134
20
5.07108531347814
30
0
0
SPLINE
5
DA
100
AcDbEntity
8
1
62
256
6
ByLayer
370
18
48
1
60
0
100
AcDbSpline
70
4
71
3
72
32
73
28
40
0
40
0
40
0
40
0
40
0.0624999999999967
40
0.0624999999999967
40
0.124999999999993
40
0.124999999999993
40
0.18749999999999
40
0.18749999999999
40
0.218749999999989
40
0.218749999999989
40
0.249999999999987
40
0.249999999999987
40
0.374999999999986
40
0.374999999999986
40
0.437499999999986
40
0.437499999999986
40
0.499999999999986
40
0.499999999999986
40
0.624999999999987
40
0.624999999999987
40
0.74999999999999
40
0.74999999999999
40
0.812499999999992
40
0.812499999999992
40
0.874999999999995
40
0.874999999999995
40
1
40
1
40
1
40
1
41
1
10
52.6163737018076
20
3.40435306393917
30
0
41
1
10
52.6216789308248
20
3.22801185923521
30
0
41
1
10
52.6415488482727
20
3.04756212536378
30
0
41
1
10
52.7096757795728
20
2.67865498796763
30
0
41
1
10
52.7585484508689
20
2.48886905418121
30
0
41
1
10
52.8795764536952
20
2.11491009974057
30
0
41
1
10
52.9518192074569
20
1.92930627301385
30
0
41
1
10
53.0756010454601
20
1.6527088562739
30
0
41
1
10
53.1194409547809
20
1.56081223979498
30
0
41
1
10
53.2120143019146
20
1.37759296259023
30
0
41
1
10
53.2609054524404
20
1.28600509612971
30
0
41
1
10
53.5141538538109
20
0.834463552151703
30
0
41
1
10
53.7454301124516
20
0.490921900508681
30
0
41
1
10
54.12350834849
20
-0.00516515284761
30
0
41
1
10
54.2548184024081
20
-0.16726774398137
30
0
41
1
10
54.5268108864256
20
-0.48569097318142
30
0
41
1
10
54.6667100219311
20
-0.641058367102772
30
0
41
1
10
55.0933502665715
20
-1.09347460414969
30
0
41
1
10
55.3884316380341
20
-1.37856328087884
30
0
41
1
10
55.9955914365981
20
-1.92238306062396
30
0
41
1
10
56.307603183526
20
-2.1812175655248
30
0
41
1
10
56.786569095273
20
-2.55249165318091
30
0
41
1
10
56.9483422047623
20
-2.6735638621596
30
0
41
1
10
57.2739638585062
20
-2.90907437785654
30
0
41
1
10
57.437759372025
20
-3.02351900907846
30
0
41
1
10
57.931799657448
20
-3.35793071572701
30
0
41
1
10
58.2646510548948
20
-3.56913402457428
30
0
41
1
10
58.600562247851
20
-3.77004995873401
30
0
0
SPLINE
5
DB
100
AcDbEntity
8
1
62
256
6
ByLayer
370
18
48
1
60
0
100
AcDbSpline
70
4
71
3
72
16
73
12
40
0
40
0
40
0
40
0
40
0.0697176891914131
40
0.0697176891914131
40
0.31520255444235
40
0.31520255444235
40
0.806172284944218
40
0.806172284944218
40
0.928914717569689
40
0.928914717569689
40
1
40
1
40
1
40
1
41
1
10
58.4867943479927
20
-6.45440547654388
30
0
41
1
10
58.3229074540603
20
-6.45427283092837
30
0
41
1
10
58.1592233091225
20
-6.45208673652348
30
0
41
1
10
57.4199335899436
20
-6.43300168919788
30
0
41
1
10
56.8461920826962
20
-6.39294311462857
30
0
41
1
10
55.1264183770477
20
-6.19934426340001
30
0
41
1
10
53.9817075881371
20
-5.9722325203698
30
0
41
1
10
52.5368632337346
20
-5.57286071807277
30
0
41
1
10
52.2471983040062
20
-5.48719674254045
30
0
41
1
10
51.7882975761069
20
-5.34300315630111
30
0
41
1
10
51.6195935621861
20
-5.28819084912297
30
0
41
1
10
51.4510245757256
20
-5.23168017889938
30
0
0
SPLINE
5
DC
100
AcDbEntity
8
1
62
256
6
ByLayer
370
13
48
1
60
0
100
AcDbSpline
70
4
71
3
72
22
73
18
40
0
40
0
40
0
40
0
40
0.0244502162058591
40
0.0244502162058591
40
0.140642418213785
40
0.140642418213785
40
0.373026822229635
40
0.373026822229635
40
0.489219024237561
40
0.489219024237561
40
0.547315125241524
40
0.547315125241524
40
0.605411226245485
40
0.605411226245485
40
0.83779563026133
40
0.83779563026133
40
1
40
1
40
1
40
1
41
1
10
51.4510245757269
20
-5.23168017889986
30
0
41
1
10
51.3285267371567
20
-5.19061429184734
30
0
41
1
10
51.2061002041803
20
-5.1486515295604
30
0
41
1
10
50.5034802639739
20
-4.90262601651074
30
0
41
1
10
49.9266846916549
20
-4.68032384087999
30
0
41
1
10
48.2022531241306
20
-3.96397722682641
30
0
41
1
10
47.0604234816727
20
-3.42067498518165
30
0
41
1
10
45.3401867484647
20
-2.53600416598803
30
0
41
1
10
44.7655002652775
20
-2.22953731145788
30
0
41
1
10
43.8991499137087
20
-1.75615121330432
30
0
41
1
10
43.6096603020235
20
-1.59603913799484
30
0
41
1
10
43.0287539516128
20
-1.27199995193087
30
0
41
1
10
42.7368292835199
20
-1.10780635629061
30
0
41
1
10
41.2838929028869
20
-0.285592387029254
30
0
41
1
10
40.134494482145
20
0.379411742006568
30
0
41
1
10
38.1822585097047
20
1.48117816915905
30
0
41
1
10
37.3796199999061
20
1.92625741150781
30
0
41
1
10
36.5723311784908
20
2.35556435746335
30
0
0
SPLINE
5
DD
100
AcDbEntity
8
1
62
256
6
ByLayer
370
18
48
1
60
0
100
AcDbSpline
70
4
71
3
72
8
73
4
40
0
40
0
40
0
40
0
40
1
40
1
40
1
40
1
41
1
10
59.635433335204
20
-6.70200668510896
30
0
41
1
10
59.6602593377571
20
-6.63559877483962
30
0
41
1
10
59.6850630489818
20
-6.56913601222502
30
0
41
1
10
59.7098444378715
20
-6.50261832096686
30
0
0
SPLINE
5
DE
100
AcDbEntity
8
1
62
256
6
ByLayer
370
18
48
1
60
0
100
AcDbSpline
70
4
71
3
72
18
73
14
40
0
40
0
40
0
40
0
40
0.250000000000002
40
0.250000000000002
40
0.500000000000005
40
0.500000000000005
40
0.625000000000004
40
0.625000000000004
40
0.750000000000002
40
0.750000000000002
40
0.875000000000001
40
0.875000000000001
40
1
40
1
40
1
40
1
41
1
10
60.976616271771
20
-3.3033895187169
30
0
41
1
10
60.8732948300607
20
-3.58045070961532
30
0
41
1
10
60.7696871358511
20
-3.85697913668793
30
0
41
1
10
60.5624214221028
20
-4.40953563696487
30
0
41
1
10
60.4586992242641
20
-4.685496747548
30
0
41
1
10
60.3027339272881
20
-5.09808240187894
30
0
41
1
10
60.2507034975353
20
-5.23548525353416
30
0
41
1
10
60.1466442837664
20
-5.51011849400652
30
0
41
1
10
60.0946030139891
20
-5.64731211600937
30
0
41
1
10
59.9904506738264
20
-5.92096323463537
30
0
41
1
10
59.9383239372721
20
-6.05725551400806
30
0
41
1
10
59.8340011158244
20
-6.32910871705326
30
0
41
1
10
59.7818253607842
20
-6.46488404173615
30
0
41
1
10
59.7295828305492
20
-6.59995514740231
30
0
0
SPLINE
5
DF
100
AcDbEntity
8
SK1
62
256
6
ByLayer
370
18
48
1
60
0
100
AcDbSpline
70
4
71
3
72
8
73
4
40
0
40
0
40
0
40
0
40
1
40
1
40
1
40
1
41
1
10
-44.9144552164749
20
-3.37094474228709
30
0
41
1
10
-44.9405513846923
20
-3.29990967228332
30
0
41
1
10
-44.9692213528765
20
-3.22723836385163
30
0
41
1
10
-45
20
-3.15467486107201
30
0
0
SPLINE
5
E0
100
AcDbEntity
8
SK1
62
256
6
ByLayer
370
18
48
1
60
0
100
AcDbSpline
70
4
71
3
72
10
73
6
40
0
40
0
40
0
40
0
40
0.5
40
0.5
40
1
40
1
40
1
40
1
41
1
10
-43.4
20
-5.93679769988088
30
0
41
1
10
-43.6546049103402
20
-5.51032010025961
30
0
41
1
10
-43.9085871477346
20
-5.08350325879451
30
0
41
1
10
-44.414073003181
20
-4.22856985030327
30
0
41
1
10
-44.6656605814012
20
-3.80049380597944
30
0
41
1
10
-44.9144552164749
20
-3.37094474228709
30
0
0
SPLINE
5
E1
100
AcDbEntity
8
SK1
62
256
6
ByLayer
370
18
48
1
60
0
100
AcDbSpline
70
4
71
3
72
10
73
6
40
0
40
0
40
0
40
0
40
0.5
40
0.5
40
1
40
1
40
1
40
1
41
1
10
-45
20
-3.99999365221476
30
0
41
1
10
-44.7377127485172
20
-4.45455403201564
30
0
41
1
10
-44.4719006512949
20
-4.90740091087022
30
0
41
1
10
-43.9377243245399
20
-5.81156644976457
30
0
41
1
10
-43.6692076463858
20
-6.26287765835167
30
0
41
1
10
-43.4
20
-6.71381566530874
30
0
0
SPLINE
5
E2
100
AcDbEntity
8
SK1
62
256
6
ByLayer
370
18
48
1
60
0
100
AcDbSpline
70
4
71
3
72
14
73
10
40
0
40
0
40
0
40
0
40
0.125
40
0.125
40
0.25
40
0.25
40
0.5
40
0.5
40
1
40
1
40
1
40
1
41
1
10
-43.3
20
-6.15198580270476
30
0
41
1
10
-43.3
20
-6.14701372395103
30
0
41
1
10
-43.3017012565589
20
-6.1395072213073
30
0
41
1
10
-43.3069010451287
20
-6.12267813136512
30
0
41
1
10
-43.3102603620514
20
-6.11365384612353
30
0
41
1
10
-43.3216024497887
20
-6.08556771311885
30
0
41
1
10
-43.3304674144333
20
-6.06639629868482
30
0
41
1
10
-43.3586594529452
20
-6.00896207361009
30
0
41
1
10
-43.3789281721554
20
-5.97209420122013
30
0
41
1
10
-43.4
20
-5.93679769988088
30
0
0
SPLINE
5
E3
100
AcDbEntity
8
SK1
62
256
6
ByLayer
370
18
48
1
60
0
100
AcDbSpline
70
4
71
3
72
14
73
10
40
0
40
0
40
0
40
0
40
0.499999999999996
40
0.499999999999996
40
0.749999999999998
40
0.749999999999998
40
0.874999999999999
40
0.874999999999999
40
1
40
1
40
1
40
1
41
1
10
-43.4
20
-6.7138156653088
30
0
41
1
10
-43.3790445776494
20
-6.74891718087341
30
0
41
1
10
-43.3587362712602
20
-6.78215480245524
30
0
41
1
10
-43.3304966181166
20
-6.82647759383073
30
0
41
1
10
-43.3215144183093
20
-6.84021956381858
30
0
41
1
10
-43.3103236218556
20
-6.85623055711073
30
0
41
1
10
-43.3069030532022
20
-6.86089606597145
30
0
41
1
10
-43.3017205322973
20
-6.86704637526182
30
0
41
1
10
-43.3
20
-6.86845356015601
30
0
41
1
10
-43.3
20
-6.86684233089844
30
0
0
LINE
5
76
100
AcDbEntity
8
81
62
256
6
ByLayer
370
18
48
1
60
0
100
AcDbLine
10
62
20
0
30
0
11
67
21
0
31
0
39
0
210
0
220
0
230
1
0
LINE
5
77
100
AcDbEntity
8
1
62
256
6
ByLayer
370
18
48
1
60
0
100
AcDbLine
10
4
20
6.716562
30
0
11
0.912367
21
6.71471
31
0
39
0
210
0
220
0
230
1
0
LINE
5
79
100
AcDbEntity
8
1
62
256
6
ByLayer
370
18
48
1
60
0
100
AcDbLine
10
22.891924
20
6.727898
30
0
11
21.939839
21
6.727326
31
0
39
0
210
0
220
0
230
1
0
LINE
5
7A
100
AcDbEntity
8
1
62
256
6
ByLayer
370
18
48
1
60
0
100
AcDbLine
10
58.292069
20
6.749138
30
0
11
57.348228
21
6.748571
31
0
39
0
210
0
220
0
230
1
0
LINE
5
7B
100
AcDbEntity
8
1
62
256
6
ByLayer
370
18
48
1
60
0
100
AcDbLine
10
57.348228
20
-6.748571
30
0
11
58.2918
21
-6.749138
31
0
39
0
210
0
220
0
230
1
0
LINE
5
7C
100
AcDbEntity
8
1
62
256
6
ByLayer
370
18
48
1
60
0
100
AcDbLine
10
21.939839
20
-6.727326
30
0
11
22.892009
21
-6.727898
31
0
39
0
210
0
220
0
230
1
0
LINE
5
7D
100
AcDbEntity
8
1
62
256
6
ByLayer
370
18
48
1
60
0
100
AcDbLine
10
0.912367
20
-6.71471
30
0
11
4
21
-6.716562
31
0
39
0
210
0
220
0
230
1
0
LINE
5
7E
100
AcDbEntity
8
SK1
62
256
6
ByLayer
370
18
48
1
60
0
100
AcDbLine
10
0
20
7
30
0
11
-43.267949
21
7
31
0
39
0
210
0
220
0
230
1
0
LINE
5
80
100
AcDbEntity
8
SK1
62
256
6
ByLayer
370
18
48
1
60
0
100
AcDbLine
10
-43.267949
20
-7
30
0
11
0
21
-7
31
0
39
0
210
0
220
0
230
1
0
LINE
5
81
100
AcDbEntity
8
SK1
62
256
6
ByLayer
370
18
48
1
60
0
100
AcDbLine
10
-43.267949
20
7
30
0
11
-45
21
4
31
0
39
0
210
0
220
0
230
1
0
LINE
5
82
100
AcDbEntity
8
SK1
62
256
6
ByLayer
370
18
48
1
60
0
100
AcDbLine
10
-45
20
-4
30
0
11
-43.267949
21
-7
31
0
39
0
210
0
220
0
230
1
0
LINE
5
83
100
AcDbEntity
8
SK4
62
256
6
ByLayer
370
18
48
0.05
60
0
100
AcDbLine
10
67
20
0
30
0
11
-50
21
0
31
0
39
0
210
0
220
0
230
1
0
LINE
5
85
100
AcDbEntity
8
4
62
256
6
ByLayer
370
18
48
0.05
60
0
100
AcDbLine
10
62
20
0
30
0
11
0
21
0
31
0
39
0
210
0
220
0
230
1
0
LINE
5
87
100
AcDbEntity
8
80
62
256
6
ByLayer
370
18
48
1
60
0
100
AcDbLine
10
0
20
0
30
0
11
-5
21
0
31
0
39
0
210
0
220
0
230
1
0
LINE
5
88
100
AcDbEntity
8
1
62
256
6
ByLayer
370
13
48
1
60
0
100
AcDbLine
10
60.207679
20
1.165562
30
0
11
61.905388
21
0.32499
31
0
39
0
210
0
220
0
230
1
0
LINE
5
89
100
AcDbEntity
8
1
62
256
6
ByLayer
370
18
48
1
60
0
100
AcDbLine
10
61.985772
20
0.063829
30
0
11
62
21
0
31
0
39
0
210
0
220
0
230
1
0
LINE
5
8A
100
AcDbEntity
8
1
62
256
6
ByLayer
370
13
48
1
60
0
100
AcDbLine
10
0.455944
20
6.857355
30
0
11
0.455944
21
-6.857355
31
0
39
0
210
0
220
0
230
1
0
LINE
5
8B
100
AcDbEntity
8
1
62
256
6
ByLayer
370
18
48
1
60
0
100
AcDbLine
10
61.905388
20
0.32499
30
0
11
61.677705
21
1.165562
31
0
39
0
210
0
220
0
230
1
0
LINE
5
8C
100
AcDbEntity
8
1
62
256
6
ByLayer
370
18
48
1
60
0
100
AcDbLine
10
0
20
-7
30
0
11
0
21
7
31
0
39
0
210
0
220
0
230
1
0
LINE
5
8D
100
AcDbEntity
8
1
62
256
6
ByLayer
370
18
48
1
60
0
100
AcDbLine
10
58.600562
20
-3.77005
30
0
11
61.893922
21
-0.09966
31
0
39
0
210
0
220
0
230
1
0
LINE
5
8E
100
AcDbEntity
8
1
62
256
6
ByLayer
370
18
48
1
60
0
100
AcDbLine
10
4
20
0.850046
30
0
11
4
21
6.716562
31
0
39
0
210
0
220
0
230
1
0
LINE
5
8F
100
AcDbEntity
8
1
62
256
6
ByLayer
370
13
48
1
60
0
100
AcDbLine
10
0.912367
20
6.71471
30
0
11
0.912367
21
-6.71471
31
0
39
0
210
0
220
0
230
1
0
LINE
5
90
100
AcDbEntity
8
1
62
256
6
ByLayer
370
13
48
1
60
0
100
AcDbLine
10
60.03822
20
0.819137
30
0
11
61.893922
21
-0.09966
31
0
39
0
210
0
220
0
230
1
0
LINE
5
91
100
AcDbEntity
8
1
62
256
6
ByLayer
370
18
48
1
60
0
100
AcDbLine
10
62
20
0
30
0
11
59.650601
21
-6.454922
31
0
39
0
210
0
220
0
230
1
0
LINE
5
92
100
AcDbEntity
8
1
62
256
6
ByLayer
370
18
48
1
60
0
100
AcDbLine
10
61.905388
20
-0.32499
30
0
11
61.677705
21
-1.165562
31
0
39
0
210
0
220
0
230
1
0
LINE
5
93
100
AcDbEntity
8
1
62
256
6
ByLayer
370
13
48
1
60
0
100
AcDbLine
10
61.677705
20
1.165562
30
0
11
60.207679
21
1.165562
31
0
39
0
210
0
220
0
230
1
0
LINE
5
94
100
AcDbEntity
8
1
62
256
6
ByLayer
370
18
48
1
60
0
100
AcDbLine
10
62
20
0
30
0
11
61.985772
21
-0.063829
31
0
39
0
210
0
220
0
230
1
0
LINE
5
95
100
AcDbEntity
8
SK1
62
256
6
ByLayer
370
18
48
1
60
0
100
AcDbLine
10
-43.3
20
-6.866842
30
0
11
-43.3
21
-6.151986
31
0
39
0
210
0
220
0
230
1
0
LINE
5
96
100
AcDbEntity
8
SK1
62
256
6
ByLayer
370
13
48
1
60
0
100
AcDbLine
10
-43.4
20
-5.936791
30
0
11
-43.4
21
-6.713816
31
0
39
0
210
0
220
0
230
1
0
LINE
5
97
100
AcDbEntity
8
SK1
62
256
6
ByLayer
370
18
48
1
60
0
100
AcDbLine
10
-45
20
3.999994
30
0
11
-45
21
-3.154675
31
0
39
0
210
0
220
0
230
1
0
LINE
5
98
100
AcDbEntity
8
SK1
62
256
6
ByLayer
370
18
48
1
60
0
100
AcDbLine
10
0
20
-7
30
0
11
0
21
7
31
0
39
0
210
0
220
0
230
1
0
LINE
5
99
100
AcDbEntity
8
SK1
62
256
6
ByLayer
370
18
48
1
60
0
100
AcDbLine
10
-43.267949
20
7
30
0
11
-43.267949
21
-7
31
0
39
0
210
0
220
0
230
1
0
LINE
5
9A
100
AcDbEntity
8
SK1
62
256
6
ByLayer
370
18
48
1
60
0
100
AcDbLine
10
-45
20
-3.154601
30
0
11
-45
21
-3.999994
31
0
39
0
210
0
220
0
230
1
0
MTEXT
5
E4
100
AcDbEntity
8
SK6
62
256
6
ByLayer
370
13
48
1
60
0
100
AcDbMText
10
10.629169
20
39.132694
30
0
210
0
220
0
230
1
1
\W0.7415;R840-1350-30-A1A1220
40
3.5
41
0
44
1.084337
50
0
71
8
72
5
7
iso_b_vert
0
DIMENSION
5
F1
100
AcDbEntity
8
SK2
62
256
6
ByLayer
370
13
48
1
60
0
100
AcDbDimension
2
DimnDraft3D1
10
59.68
20
-16.963398
30
0
11
27.930059
21
-16.963398
31
0
70
32
71
5
72
1
41
1
210
0
220
0
230
1
3
Standard
100
AcDbAlignedDimension
13
0
23
-1.5875
33
0
14
59.68
24
-8.3375
34
0
50
0
100
AcDbRotatedDimension
1001
ACAD
1000
DSTYLE
1002
{
1070
   279
1070
     0
1070
   172
1070
     1
1070
   173
1070
     1
1070
   340
1005
E5
1070
   271
1070
     2
1070
   272
1070
     2
1070
    77
1070
     1
1070
    73
1070
     0
1070
   171
1070
     3
1070
   274
1070
     4
1070
   177
1070
    35
1070
   176
1070
    35
1070
   178
1070
    35
1070
    48
1040
-0.005
1070
    41
1041
3.5
1070
   147
1041
1.75
1070
    42
1041
1.5875
1070
    44
1041
2.0
1070
   140
1041
3.5
1070
   343
1005
0
1070
   344
1005
0
1002
}
0
DIMENSION
5
FB
100
AcDbEntity
8
SK2
62
256
6
ByLayer
370
13
48
1
60
0
100
AcDbDimension
2
DimnDraft3D2
10
62
20
-35.692985
30
0
11
7.5213
21
-35.692985
31
0
70
32
71
5
72
1
41
1
210
0
220
0
230
1
3
Standard
100
AcDbAlignedDimension
13
-45
23
-8.5875
33
0
14
62
24
-1.5875
34
0
50
0
100
AcDbRotatedDimension
1001
ACAD
1000
DSTYLE
1002
{
1070
   279
1070
     0
1070
   172
1070
     1
1070
   173
1070
     1
1070
   340
1005
E5
1070
   271
1070
     2
1070
   272
1070
     2
1070
    77
1070
     1
1070
    73
1070
     0
1070
   171
1070
     3
1070
   274
1070
     4
1070
   177
1070
    35
1070
   176
1070
    35
1070
   178
1070
    35
1070
    48
1040
-0.005
1070
    41
1041
3.5
1070
   147
1041
1.75
1070
    42
1041
1.5875
1070
    44
1041
2.0
1070
   140
1041
3.5
1070
   343
1005
0
1070
   344
1005
0
1002
}
0
DIMENSION
5
105
100
AcDbEntity
8
SK2
62
256
6
ByLayer
370
13
48
1
60
0
100
AcDbDimension
2
DimnDraft3D3
10
62
20
18.359119
30
0
11
40.59
21
18.359119
31
0
70
32
71
5
72
1
41
1
210
0
220
0
230
1
3
Standard
100
AcDbAlignedDimension
13
19.18
23
8.3375
33
0
14
62
24
1.5875
34
0
50
0
100
AcDbRotatedDimension
1001
ACAD
1000
DSTYLE
1002
{
1070
   279
1070
     0
1070
   172
1070
     1
1070
   173
1070
     1
1070
   340
1005
E5
1070
   271
1070
     2
1070
   272
1070
     2
1070
    77
1070
     1
1070
    73
1070
     0
1070
   171
1070
     3
1070
   274
1070
     4
1070
   177
1070
    35
1070
   176
1070
    35
1070
   178
1070
    35
1070
    48
1040
-0.005
1070
    41
1041
3.5
1070
   147
1041
1.75
1070
    42
1041
1.5875
1070
    44
1041
2.0
1070
   140
1041
3.5
1070
   343
1005
0
1070
   344
1005
0
1002
}
0
DIMENSION
5
10F
100
AcDbEntity
8
SK2
62
256
6
ByLayer
370
13
48
1
60
0
100
AcDbDimension
2
DimnDraft3D4
10
59.68
20
-19.552503
30
0
11
71.981425
21
-19.552503
31
0
70
32
71
5
72
1
41
1
210
0
220
0
230
1
3
Standard
100
AcDbAlignedDimension
13
62
23
-1.5875
33
0
14
59.68
24
-8.3375
34
0
50
0
100
AcDbRotatedDimension
1001
ACAD
1000
DSTYLE
1002
{
1070
   279
1070
     0
1070
   172
1070
     1
1070
   173
1070
     1
1070
   340
1005
E5
1070
   271
1070
     2
1070
   272
1070
     2
1070
    77
1070
     1
1070
    73
1070
     0
1070
   171
1070
     3
1070
   274
1070
     4
1070
   177
1070
    35
1070
   176
1070
    35
1070
   178
1070
    35
1070
    48
1040
-0.005
1070
    41
1041
3.5
1070
   147
1041
1.75
1070
    42
1041
1.5875
1070
    44
1041
2.0
1070
   140
1041
3.5
1070
   343
1005
0
1070
   344
1005
0
1002
}
0
DIMENSION
5
119
100
AcDbEntity
8
SK2
62
256
6
ByLayer
370
13
48
1
60
0
100
AcDbDimension
2
DimnDraft3D5
10
59.68
20
-25.343428
30
0
11
4.440676
21
-25.343428
31
0
70
32
71
5
72
1
41
1
210
0
220
0
230
1
3
Standard
100
AcDbAlignedDimension
13
-45
23
-8.5875
33
0
14
59.68
24
-8.3375
34
0
50
0
100
AcDbRotatedDimension
1001
ACAD
1000
DSTYLE
1002
{
1070
   279
1070
     0
1070
   172
1070
     1
1070
   173
1070
     1
1070
   340
1005
E5
1070
   271
1070
     2
1070
   272
1070
     2
1070
    77
1070
     1
1070
    73
1070
     0
1070
   171
1070
     3
1070
   274
1070
     4
1070
   177
1070
    35
1070
   176
1070
    35
1070
   178
1070
    35
1070
    48
1040
-0.005
1070
    41
1041
3.5
1070
   147
1041
1.75
1070
    42
1041
1.5875
1070
    44
1041
2.0
1070
   140
1041
3.5
1070
   343
1005
0
1070
   344
1005
0
1002
}
0
DIMENSION
5
124
100
AcDbEntity
8
SK2
62
256
6
ByLayer
370
13
48
1
60
0
100
AcDbDimension
2
DimnDraft3D6
10
-55.625163
20
7
30
0
11
-56.250163
21
25.47418
31
0
70
33
71
5
72
1
41
1
210
0
220
0
230
1
3
Standard
100
AcDbAlignedDimension
13
-46.5875
23
-7
33
0
14
-46.5875
24
7
34
0
1001
ACAD
1000
DSTYLE
1002
{
1070
   279
1070
     0
1070
    74
1070
     0
1070
   173
1070
     1
1070
   340
1005
E5
1070
   271
1070
     3
1070
   272
1070
     2
1070
    77
1070
     1
1070
    73
1070
     0
1070
   171
1070
     3
1070
   274
1070
     4
1070
   177
1070
    35
1070
   176
1070
    35
1070
   178
1070
    35
1070
    48
1040
-0.005
1070
    41
1041
3.5
1070
   147
1041
1.75
1070
    42
1041
1.5875
1070
    44
1041
2.0
1070
   140
1041
3.5
1070
   343
1005
0
1070
   344
1005
0
1002
}
0
DIMENSION
5
12F
100
AcDbEntity
8
2
62
256
6
ByLayer
370
13
48
1
60
0
100
AcDbDimension
2
DimnDraft3D7
10
76.083343
20
6.75
30
0
11
71.458343
21
23.817266
31
0
70
33
71
5
72
1
41
1
210
0
220
0
230
1
3
Standard
100
AcDbAlignedDimension
13
61.2675
23
-6.75
33
0
14
61.2675
24
6.75
34
0
1001
ACAD
1000
DSTYLE
1002
{
1070
   279
1070
     0
1070
    74
1070
     0
1070
   173
1070
     1
1070
   340
1005
E5
1070
   271
1070
     3
1070
   272
1070
     2
1070
    77
1070
     1
1070
    73
1070
     0
1070
   171
1070
     3
1070
   274
1070
     4
1070
   177
1070
    35
1070
   176
1070
    35
1070
   178
1070
    35
1070
    48
1040
-0.005
1070
    41
1041
3.5
1070
   147
1041
1.75
1070
    42
1041
1.5875
1070
    44
1041
2.0
1070
   140
1041
3.5
1070
   343
1005
0
1070
   344
1005
0
1002
}
0
ENDSEC
0
SECTION
2
OBJECTS
0
DICTIONARY
5
19a
330
0
100
AcDbDictionary
280
0
281
1
3
ACAD_GROUP
350
19b
3
ACAD_MLINESTYLE
350
19c
0
DICTIONARY
5
19b
330
0
100
AcDbDictionary
280
0
281
1
0
DICTIONARY
5
19c
330
0
100
AcDbDictionary
280
0
281
1
3
Standard
350
18
0
MLINESTYLE
5
18
330
19c
100
AcDbMlineStyle
2
Standard
70
0
3

62
256
51
90
52
90
71
2
49
-0.5
62
256
6
ByLayer
49
0.5
62
256
6
ByLayer
0
RASTERVARIABLES
5
188
330

100
AcDbRasterVariables
90
0
70
1
71
1
72
1
0
ENDSEC
0
EOF
