0
SECTION
2
HEADER
9
$ACADVER
1
AC1015
9
$DWGCODEPAGE
3
ANSI_1252
9
$HANDSEED
5
19d
9
$ANGBASE
50
0
9
$ANGDIR
70
0
9
$ATTMODE
70
1
9
$AUNITS
70
0
9
$AUPREC
70
0
9
$CECOLOR
62
256
9
$CELTSCALE
40
1
9
$CELTYPE
6
ByLayer
9
$CELWEIGHT
370
18
9
$CLAYER
8
0
9
$CMLJUST
70
0
9
$CMLSCALE
40
1
9
$CMLSTYLE
2
Standard
9
$DIMSTYLE
2
Standard
9
$TEXTSIZE
40
0.2
9
$TEXTSTYLE
7
Standard
9
$LUNITS
70
2
9
$LUPREC
70
4
9
$EXTNAMES
290
1
9
$INSUNITS
70
4
9
$LTSCALE
40
1
9
$LWDISPLAY
290
1
9
$PDMODE
70
0
9
$PDSIZE
40
0
9
$PLINEGEN
70
0
0
ENDSEC
0
SECTION
2
CLASSES
0
CLASS
1
RASTERVARIABLES
2
AcDbRasterVariables
3
ISM
90
0
280
0
281
0
0
ENDSEC
0
SECTION
2
TABLES
0
TABLE
2
VPORT
5
193
100
AcDbSymbolTable
0
VPORT
5
1
100
AcDbSymbolTableRecord
100
AcDbViewportTableRecord
2
*Active
70
0
10
0
20
0
11
1
21
1
12
-1
22
1
13
0
23
0
14
0.5
24
0.5
15
10
25
10
16
0
26
0
36
1
17
0
27
0
37
0
0
ENDTAB
0
TABLE
2
LTYPE
5
194
100
AcDbSymbolTable
0
LTYPE
5
14
100
AcDbSymbolTableRecord
100
AcDbLinetypeTableRecord
70
0
2
ByBlock
3

72
65
73
0
40
0
0
LTYPE
5
15
100
AcDbSymbolTableRecord
100
AcDbLinetypeTableRecord
70
0
2
ByLayer
3

72
65
73
0
40
0
0
LTYPE
5
16
100
AcDbSymbolTableRecord
100
AcDbLinetypeTableRecord
70
0
2
CONTINUOUS
3
Solid line
72
65
73
0
40
0
0
LTYPE
5
6A
100
AcDbSymbolTableRecord
100
AcDbLinetypeTableRecord
70
0
2
CENTER
3
____ _ ____ _ ____ _ ____
72
65
73
4
40
47.5
49
22
74
0
49
-8.5
74
0
49
8.5
74
0
49
-8.5
74
0
0
LTYPE
5
6B
100
AcDbSymbolTableRecord
100
AcDbLinetypeTableRecord
70
0
2
DASHED
3
__ __ __ __ __ __ __ __ __
72
65
73
2
40
25.72
49
12.86
74
0
49
-12.86
74
0
0
ENDTAB
0
TABLE
2
LAYER
5
195
100
AcDbSymbolTable
0
LAYER
5
10
100
AcDbSymbolTableRecord
100
AcDbLayerTableRecord
2
0
70
0
62
7
6
CONTINUOUS
290
1
370
-3
390
0
0
LAYER
5
6D
100
AcDbSymbolTableRecord
100
AcDbLayerTableRecord
2
81
70
0
62
-3
6
CONTINUOUS
290
1
370
-3
390
0
0
LAYER
5
6F
100
AcDbSymbolTableRecord
100
AcDbLayerTableRecord
2
80
70
0
62
-6
6
CONTINUOUS
290
1
370
-3
390
0
0
LAYER
5
74
100
AcDbSymbolTableRecord
100
AcDbLayerTableRecord
2
2
70
0
62
7
6
CONTINUOUS
290
1
370
-3
390
0
0
LAYER
5
78
100
AcDbSymbolTableRecord
100
AcDbLayerTableRecord
2
1
70
0
62
4
6
CONTINUOUS
290
1
370
-3
390
0
0
LAYER
5
86
100
AcDbSymbolTableRecord
100
AcDbLayerTableRecord
2
4
70
0
62
-2
6
CENTER
290
1
370
-3
390
0
0
LAYER
5
17f
100
AcDbSymbolTableRecord
100
AcDbLayerTableRecord
2
SK2
70
0
62
7
6
CONTINUOUS
290
1
370
-3
390
0
0
LAYER
5
180
100
AcDbSymbolTableRecord
100
AcDbLayerTableRecord
2
SK1
70
0
62
4
6
CONTINUOUS
290
1
370
-3
390
0
0
LAYER
5
181
100
AcDbSymbolTableRecord
100
AcDbLayerTableRecord
2
SK4
70
0
62
2
6
CENTER
290
1
370
-3
390
0
0
LAYER
5
182
100
AcDbSymbolTableRecord
100
AcDbLayerTableRecord
2
SK6
70
0
62
5
6
CONTINUOUS
290
1
370
-3
390
0
0
ENDTAB
0
TABLE
2
STYLE
5
196
100
AcDbSymbolTable
0
STYLE
5
11
100
AcDbSymbolTableRecord
100
AcDbTextStyleTableRecord
2
Standard
3
txt
70
0
71
0
40
0
41
1
42
0
50
0
0
STYLE
5
DB
100
AcDbSymbolTableRecord
100
AcDbTextStyleTableRecord
2
iso_b_vert
3
simplex.shx
70
0
71
0
40
0
41
1
42
0
50
0
0
STYLE
5
DC
100
AcDbSymbolTableRecord
100
AcDbTextStyleTableRecord
2
DWGDirectTextStyle
3
simplex
70
0
71
0
40
0
41
1
42
0
50
0
0
ENDTAB
0
TABLE
2
DIMSTYLE
5
197
100
AcDbSymbolTable
100
AcDbDimStyleTable
0
DIMSTYLE
105
27
100
AcDbSymbolTableRecord
100
AcDbDimStyleTableRecord
2
Standard
70
0
3
<>
41
0.18
42
0.0625
44
0.18
140
0.18
147
0.09
73
0
74
0
77
1
271
2
275
0
278
52
280
0
340
11
0
ENDTAB
0
TABLE
2
VIEW
5
198
100
AcDbSymbolTable
0
ENDTAB
0
TABLE
2
UCS
5
199
100
AcDbSymbolTable
0
ENDTAB
0
TABLE
2
APPID
5
19a
100
AcDbSymbolTable
0
APPID
5
12
100
AcDbSymbolTableRecord
100
AcDbRegAppTableRecord
2
ACAD
70
0
0
ENDTAB
0
TABLE
2
BLOCK_RECORD
5
19b
100
AcDbSymbolTable
0
BLOCK_RECORD
5
1F
100
AcDbSymbolTableRecord
100
AcDbBlockTableRecord
2
*Model_Space
340
0
70
0
0
BLOCK_RECORD
5
1B
100
AcDbSymbolTableRecord
100
AcDbBlockTableRecord
2
*Paper_Space
340
0
70
0
0
BLOCK_RECORD
5
23
100
AcDbSymbolTableRecord
100
AcDbBlockTableRecord
2
*Paper_Space0
340
0
70
0
0
BLOCK_RECORD
5
DE
100
AcDbSymbolTableRecord
100
AcDbBlockTableRecord
2
DimnDraft3D1
340
0
70
0
0
BLOCK_RECORD
5
E8
100
AcDbSymbolTableRecord
100
AcDbBlockTableRecord
2
DimnDraft3D2
340
0
70
0
0
BLOCK_RECORD
5
F2
100
AcDbSymbolTableRecord
100
AcDbBlockTableRecord
2
DimnDraft3D3
340
0
70
0
0
BLOCK_RECORD
5
FC
100
AcDbSymbolTableRecord
100
AcDbBlockTableRecord
2
DimnDraft3D4
340
0
70
0
0
BLOCK_RECORD
5
106
100
AcDbSymbolTableRecord
100
AcDbBlockTableRecord
2
DimnDraft3D5
340
0
70
0
0
BLOCK_RECORD
5
110
100
AcDbSymbolTableRecord
100
AcDbBlockTableRecord
2
DimnDraft3D6
340
0
70
0
0
BLOCK_RECORD
5
11B
100
AcDbSymbolTableRecord
100
AcDbBlockTableRecord
2
DimnDraft3D7
340
0
70
0
0
ENDTAB
0
ENDSEC
0
SECTION
2
BLOCKS
0
BLOCK
5
20
100
AcDbEntity
8
0
100
AcDbBlockBegin
2
*Model_Space
70
0
10
0
20
0
30
0
3
*Model_Space
0
ENDBLK
5
21
100
AcDbEntity
8
0
100
AcDbBlockEnd
0
BLOCK
5
1C
100
AcDbEntity
8
0
100
AcDbBlockBegin
2
*Paper_Space
70
0
10
0
20
0
30
0
3
*Paper_Space
0
ENDBLK
5
1D
100
AcDbEntity
8
0
100
AcDbBlockEnd
0
BLOCK
5
24
100
AcDbEntity
8
0
100
AcDbBlockBegin
2
*Paper_Space0
70
0
10
0
20
0
30
0
3
*Paper_Space0
0
ENDBLK
5
25
100
AcDbEntity
8
0
100
AcDbBlockEnd
0
BLOCK
5
E5
100
AcDbEntity
8
0
100
AcDbBlockBegin
2
DimnDraft3D1
70
0
10
0
20
0
30
0
3
DimnDraft3D1
0
MTEXT
5
DF
100
AcDbEntity
8
SK2
62
256
6
ByLayer
370
13
48
1
60
0
100
AcDbMText
10
32.071375
20
-15.838398
30
0
210
0
220
0
230
1
1
\W0.7317;76,77
40
3.5
41
0
44
1.084337
50
0
71
7
72
5
7
iso_b_vert
0
LINE
5
E0
100
AcDbEntity
8
SK2
62
256
6
ByLayer
370
13
48
1
60
0
100
AcDbLine
10
0
20
-1.5875
30
0
11
0
21
-18.713398
31
0
39
0
210
0
220
0
230
1
0
LINE
5
E1
100
AcDbEntity
8
SK2
62
256
6
ByLayer
370
13
48
1
60
0
100
AcDbLine
10
76.77
20
-8.0875
30
0
11
76.77
21
-18.713398
31
0
39
0
210
0
220
0
230
1
0
LINE
5
E2
100
AcDbEntity
8
SK2
62
256
6
ByLayer
370
13
48
1
60
0
100
AcDbLine
10
0
20
-16.713398
30
0
11
76.77
21
-16.713398
31
0
39
0
210
0
220
0
230
1
0
SOLID
5
E3
100
AcDbEntity
8
SK2
62
256
6
ByLayer
370
13
48
1
60
0
100
AcDbTrace
10
0
20
-16.713398
30
0
11
3.499998
21
-16.252615
31
0
12
3.500002
22
-17.174182
32
0
13
0
23
-16.713398
33
0
39
0
210
0
220
0
230
1
0
SOLID
5
E4
100
AcDbEntity
8
SK2
62
256
6
ByLayer
370
13
48
1
60
0
100
AcDbTrace
10
76.77
20
-16.713398
30
0
11
73.270002
21
-17.174182
31
0
12
73.269998
22
-16.252615
32
0
13
76.77
23
-16.713398
33
0
39
0
210
0
220
0
230
1
0
ENDBLK
5
E6
100
AcDbEntity
8
0
100
AcDbBlockEnd
0
BLOCK
5
EF
100
AcDbEntity
8
0
100
AcDbBlockBegin
2
DimnDraft3D2
70
0
10
0
20
0
30
0
3
DimnDraft3D2
0
MTEXT
5
E9
100
AcDbEntity
8
SK2
62
256
6
ByLayer
370
13
48
1
60
0
100
AcDbMText
10
10.608011
20
-34.817985
30
0
210
0
220
0
230
1
1
\W0.7145;124,00
40
3.5
41
0
44
1.084337
50
0
71
7
72
5
7
iso_b_vert
0
LINE
5
EA
100
AcDbEntity
8
SK2
62
256
6
ByLayer
370
13
48
1
60
0
100
AcDbLine
10
-45
20
-8.5875
30
0
11
-45
21
-37.692985
31
0
39
0
210
0
220
0
230
1
0
LINE
5
EB
100
AcDbEntity
8
SK2
62
256
6
ByLayer
370
13
48
1
60
0
100
AcDbLine
10
79
20
-1.5875
30
0
11
79
21
-37.692985
31
0
39
0
210
0
220
0
230
1
0
LINE
5
EC
100
AcDbEntity
8
SK2
62
256
6
ByLayer
370
13
48
1
60
0
100
AcDbLine
10
-45
20
-35.692985
30
0
11
79
21
-35.692985
31
0
39
0
210
0
220
0
230
1
0
SOLID
5
ED
100
AcDbEntity
8
SK2
62
256
6
ByLayer
370
13
48
1
60
0
100
AcDbTrace
10
-45
20
-35.692985
30
0
11
-41.500002
21
-35.232202
31
0
12
-41.499998
22
-36.153769
32
0
13
-45
23
-35.692985
33
0
39
0
210
0
220
0
230
1
0
SOLID
5
EE
100
AcDbEntity
8
SK2
62
256
6
ByLayer
370
13
48
1
60
0
100
AcDbTrace
10
79
20
-35.692985
30
0
11
75.500002
21
-36.153769
31
0
12
75.499998
22
-35.232202
32
0
13
79
23
-35.692985
33
0
39
0
210
0
220
0
230
1
0
ENDBLK
5
F0
100
AcDbEntity
8
0
100
AcDbBlockEnd
0
BLOCK
5
F9
100
AcDbEntity
8
0
100
AcDbBlockBegin
2
DimnDraft3D3
70
0
10
0
20
0
30
0
3
DimnDraft3D3
0
MTEXT
5
F3
100
AcDbEntity
8
SK2
62
256
6
ByLayer
370
13
48
1
60
0
100
AcDbMText
10
40.936316
20
18.984119
30
0
210
0
220
0
230
1
1
\W0.7317;67,23
40
3.5
41
0
44
1.084337
50
0
71
7
72
5
7
iso_b_vert
0
LINE
5
F4
100
AcDbEntity
8
SK2
62
256
6
ByLayer
370
13
48
1
60
0
100
AcDbLine
10
11.77
20
8.0875
30
0
11
11.77
21
20.109119
31
0
39
0
210
0
220
0
230
1
0
LINE
5
F5
100
AcDbEntity
8
SK2
62
256
6
ByLayer
370
13
48
1
60
0
100
AcDbLine
10
79
20
1.5875
30
0
11
79
21
20.109119
31
0
39
0
210
0
220
0
230
1
0
LINE
5
F6
100
AcDbEntity
8
SK2
62
256
6
ByLayer
370
13
48
1
60
0
100
AcDbLine
10
11.77
20
18.109119
30
0
11
79
21
18.109119
31
0
39
0
210
0
220
0
230
1
0
SOLID
5
F7
100
AcDbEntity
8
SK2
62
256
6
ByLayer
370
13
48
1
60
0
100
AcDbTrace
10
11.77
20
18.109119
30
0
11
15.269998
21
18.569903
31
0
12
15.270002
22
17.648335
32
0
13
11.77
23
18.109119
33
0
39
0
210
0
220
0
230
1
0
SOLID
5
F8
100
AcDbEntity
8
SK2
62
256
6
ByLayer
370
13
48
1
60
0
100
AcDbTrace
10
79
20
18.109119
30
0
11
75.500002
21
17.648335
31
0
12
75.499998
22
18.569903
32
0
13
79
23
18.109119
33
0
39
0
210
0
220
0
230
1
0
ENDBLK
5
FA
100
AcDbEntity
8
0
100
AcDbBlockEnd
0
BLOCK
5
103
100
AcDbEntity
8
0
100
AcDbBlockBegin
2
DimnDraft3D4
70
0
10
0
20
0
30
0
3
DimnDraft3D4
0
MTEXT
5
FD
100
AcDbEntity
8
SK2
62
256
6
ByLayer
370
13
48
1
60
0
100
AcDbMText
10
85.840636
20
-18.427503
30
0
210
0
220
0
230
1
1
\W0.7150;2,23
40
3.5
41
0
44
1.084337
50
0
71
7
72
5
7
iso_b_vert
0
LINE
5
FE
100
AcDbEntity
8
SK2
62
256
6
ByLayer
370
13
48
1
60
0
100
AcDbLine
10
79
20
-1.5875
30
0
11
79
21
-21.302503
31
0
39
0
210
0
220
0
230
1
0
LINE
5
FF
100
AcDbEntity
8
SK2
62
256
6
ByLayer
370
13
48
1
60
0
100
AcDbLine
10
76.77
20
-8.0875
30
0
11
76.77
21
-21.302503
31
0
39
0
210
0
220
0
230
1
0
LINE
5
100
100
AcDbEntity
8
SK2
62
256
6
ByLayer
370
13
48
1
60
0
100
AcDbLine
10
68.02
20
-19.302503
30
0
11
92.997215
21
-19.302503
31
0
39
0
210
0
220
0
230
1
0
SOLID
5
101
100
AcDbEntity
8
SK2
62
256
6
ByLayer
370
13
48
1
60
0
100
AcDbTrace
10
79
20
-19.302503
30
0
11
82.499998
21
-18.841719
31
0
12
82.500002
22
-19.763287
32
0
13
79
23
-19.302503
33
0
39
0
210
0
220
0
230
1
0
SOLID
5
102
100
AcDbEntity
8
SK2
62
256
6
ByLayer
370
13
48
1
60
0
100
AcDbTrace
10
76.77
20
-19.302503
30
0
11
73.270002
21
-19.763287
31
0
12
73.269998
22
-18.841719
32
0
13
76.77
23
-19.302503
33
0
39
0
210
0
220
0
230
1
0
ENDBLK
5
104
100
AcDbEntity
8
0
100
AcDbBlockEnd
0
BLOCK
5
10D
100
AcDbEntity
8
0
100
AcDbBlockBegin
2
DimnDraft3D5
70
0
10
0
20
0
30
0
3
DimnDraft3D5
0
MTEXT
5
107
100
AcDbEntity
8
SK2
62
256
6
ByLayer
370
13
48
1
60
0
100
AcDbMText
10
8.149097
20
-24.468428
30
0
210
0
220
0
230
1
1
\W0.6440;121,77
40
3.5
41
0
44
1.084337
50
0
71
7
72
5
7
iso_b_vert
0
LINE
5
108
100
AcDbEntity
8
SK2
62
256
6
ByLayer
370
13
48
1
60
0
100
AcDbLine
10
-45
20
-8.5875
30
0
11
-45
21
-27.343428
31
0
39
0
210
0
220
0
230
1
0
LINE
5
109
100
AcDbEntity
8
SK2
62
256
6
ByLayer
370
13
48
1
60
0
100
AcDbLine
10
76.77
20
-8.0875
30
0
11
76.77
21
-27.343428
31
0
39
0
210
0
220
0
230
1
0
LINE
5
10A
100
AcDbEntity
8
SK2
62
256
6
ByLayer
370
13
48
1
60
0
100
AcDbLine
10
-45
20
-25.343428
30
0
11
76.77
21
-25.343428
31
0
39
0
210
0
220
0
230
1
0
SOLID
5
10B
100
AcDbEntity
8
SK2
62
256
6
ByLayer
370
13
48
1
60
0
100
AcDbTrace
10
-45
20
-25.343428
30
0
11
-41.500002
21
-24.882645
31
0
12
-41.499998
22
-25.804212
32
0
13
-45
23
-25.343428
33
0
39
0
210
0
220
0
230
1
0
SOLID
5
10C
100
AcDbEntity
8
SK2
62
256
6
ByLayer
370
13
48
1
60
0
100
AcDbTrace
10
76.77
20
-25.343428
30
0
11
73.270002
21
-25.804212
31
0
12
73.269998
22
-24.882645
32
0
13
76.77
23
-25.343428
33
0
39
0
210
0
220
0
230
1
0
ENDBLK
5
10E
100
AcDbEntity
8
0
100
AcDbBlockEnd
0
BLOCK
5
118
100
AcDbEntity
8
0
100
AcDbBlockBegin
2
DimnDraft3D6
70
0
10
0
20
0
30
0
3
DimnDraft3D6
0
MTEXT
5
111
100
AcDbEntity
8
SK2
62
256
6
ByLayer
370
13
48
1
60
0
100
AcDbMText
10
-55.375163
20
26.34918
30
0
210
0
220
0
230
1
1
\W0.7145;14,000
40
3.5
41
0
44
1.084337
50
90
71
7
72
5
7
iso_b_vert
0
MTEXT
5
112
100
AcDbEntity
8
SK2
62
256
6
ByLayer
370
13
48
1
60
0
100
AcDbMText
10
-55.375163
20
21.126524
30
0
210
0
220
0
230
1
1
%%c
40
3.5
41
0
44
1.084337
50
90
71
7
72
5
7
iso_b_vert
0
LINE
5
113
100
AcDbEntity
8
SK2
62
256
6
ByLayer
370
13
48
1
60
0
100
AcDbLine
10
-46.5875
20
-7
30
0
11
-55.625163
21
-7
31
0
39
0
210
0
220
0
230
1
0
LINE
5
114
100
AcDbEntity
8
SK2
62
256
6
ByLayer
370
13
48
1
60
0
100
AcDbLine
10
-46.5875
20
7
30
0
11
-55.625163
21
7
31
0
39
0
210
0
220
0
230
1
0
LINE
5
115
100
AcDbEntity
8
SK2
62
256
6
ByLayer
370
13
48
1
60
0
100
AcDbLine
10
-53.625163
20
-7
30
0
11
-53.625163
21
38.230759
31
0
39
0
210
0
220
0
230
1
0
SOLID
5
116
100
AcDbEntity
8
SK2
62
256
6
ByLayer
370
13
48
1
60
0
100
AcDbTrace
10
-53.625163
20
-7
30
0
11
-54.085946
21
-3.500002
31
0
12
-53.164379
22
-3.499998
32
0
13
-53.625163
23
-7
33
0
39
0
210
0
220
0
230
1
0
SOLID
5
117
100
AcDbEntity
8
SK2
62
256
6
ByLayer
370
13
48
1
60
0
100
AcDbTrace
10
-53.625163
20
7
30
0
11
-53.164379
21
3.500002
31
0
12
-54.085946
22
3.499998
32
0
13
-53.625163
23
7
33
0
39
0
210
0
220
0
230
1
0
ENDBLK
5
119
100
AcDbEntity
8
0
100
AcDbBlockEnd
0
BLOCK
5
123
100
AcDbEntity
8
0
100
AcDbBlockBegin
2
DimnDraft3D7
70
0
10
0
20
0
30
0
3
DimnDraft3D7
0
MTEXT
5
11C
100
AcDbEntity
8
2
62
256
6
ByLayer
370
13
48
1
60
0
100
AcDbMText
10
89.333343
20
24.442266
30
0
210
0
220
0
230
1
1
\W0.6930;13,000
40
3.5
41
0
44
1.084337
50
90
71
7
72
5
7
iso_b_vert
0
MTEXT
5
11D
100
AcDbEntity
8
2
62
256
6
ByLayer
370
13
48
1
60
0
100
AcDbMText
10
89.333343
20
19.21961
30
0
210
0
220
0
230
1
1
%%c
40
3.5
41
0
44
1.084337
50
90
71
7
72
5
7
iso_b_vert
0
LINE
5
11E
100
AcDbEntity
8
2
62
256
6
ByLayer
370
13
48
1
60
0
100
AcDbLine
10
78.3575
20
-6.5
30
0
11
93.083343
21
-6.5
31
0
39
0
210
0
220
0
230
1
0
LINE
5
11F
100
AcDbEntity
8
2
62
256
6
ByLayer
370
13
48
1
60
0
100
AcDbLine
10
78.3575
20
6.5
30
0
11
93.083343
21
6.5
31
0
39
0
210
0
220
0
230
1
0
LINE
5
120
100
AcDbEntity
8
2
62
256
6
ByLayer
370
13
48
1
60
0
100
AcDbLine
10
91.083343
20
-6.5
30
0
11
91.083343
21
35.955424
31
0
39
0
210
0
220
0
230
1
0
SOLID
5
121
100
AcDbEntity
8
2
62
256
6
ByLayer
370
13
48
1
60
0
100
AcDbTrace
10
91.083343
20
-6.5
30
0
11
90.622559
21
-3.000002
31
0
12
91.544126
22
-2.999998
32
0
13
91.083343
23
-6.5
33
0
39
0
210
0
220
0
230
1
0
SOLID
5
122
100
AcDbEntity
8
2
62
256
6
ByLayer
370
13
48
1
60
0
100
AcDbTrace
10
91.083343
20
6.5
30
0
11
91.544126
21
3.000002
31
0
12
90.622559
22
2.999998
32
0
13
91.083343
23
6.5
33
0
39
0
210
0
220
0
230
1
0
ENDBLK
5
124
100
AcDbEntity
8
0
100
AcDbBlockEnd
0
ENDSEC
0
SECTION
2
ENTITIES
0
ARC
5
98
100
AcDbEntity
8
1
62
256
6
ByLayer
370
18
48
1
60
0
100
AcDbCircle
39
0
10
0
20
6.2
30
0
40
0.800000000000001
210
0
220
0
230
1
100
AcDbArc
50
41.234746
51
90
0
ARC
5
99
100
AcDbEntity
8
1
62
256
6
ByLayer
370
18
48
1
60
0
100
AcDbCircle
39
0
10
-1.203225
20
7.254633
30
0
40
0.799999999999995
210
0
220
0
230
-1
100
AcDbArc
50
269.965623
51
318.765254
0
ARC
5
9A
100
AcDbEntity
8
1
62
256
6
ByLayer
370
18
48
1
60
0
100
AcDbCircle
39
0
10
-1.203225
20
-7.254633
30
0
40
0.799999999999995
210
0
220
0
230
-1
100
AcDbArc
50
41.234746
51
90.034377
0
ARC
5
9B
100
AcDbEntity
8
1
62
256
6
ByLayer
370
18
48
1
60
0
100
AcDbCircle
39
0
10
0
20
-6.2
30
0
40
0.800000000000001
210
0
220
0
230
1
100
AcDbArc
50
270
51
318.765254
0
ELLIPSE
5
9C
100
AcDbEntity
8
1
62
256
6
ByLayer
370
13
48
1
60
0
100
AcDbEllipse
10
78.183457
20
3.070439
30
0
11
4.34252630564802
21
-1.89724130083359
31
0
210
0
220
0
230
-1
40
0.452041
41
1.58782996480175
42
1.90784130159027
0
ELLIPSE
5
9D
100
AcDbEntity
8
1
62
256
6
ByLayer
370
18
48
1
60
0
100
AcDbEllipse
10
79.018487
20
-0.053272
30
0
11
0.135658546007602
21
0.401200806162813
31
0
210
0
220
0
230
-1
40
0.065863
41
-2.32292776273115
42
-1.61345872246726
0
ELLIPSE
5
9E
100
AcDbEntity
8
1
62
256
6
ByLayer
370
18
48
1
60
0
100
AcDbEllipse
10
78.859981
20
0.131752
30
0
11
0.0868803724490919
21
0.290676908893924
31
0
210
0
220
0
230
-1
40
0.467765
41
1.67374281255652
42
2.36053717394649
0
ELLIPSE
5
9F
100
AcDbEntity
8
1
62
256
6
ByLayer
370
18
48
1
60
0
100
AcDbEllipse
10
79.000551
20
0.00142
30
0
11
2.38343774608037
21
6.49836300206302
31
0
210
0
220
0
230
-1
40
0.082138
41
2.89898047638051
42
2.9909220316489
0
ELLIPSE
5
A0
100
AcDbEntity
8
1
62
256
6
ByLayer
370
13
48
1
60
0
100
AcDbEllipse
10
78.013998
20
2.936147
30
0
11
4.29601745027771
21
-2.20853670926973
31
0
210
0
220
0
230
-1
40
0.482873
41
1.53949524918244
42
1.85727634567917
0
ELLIPSE
5
A1
100
AcDbEntity
8
1
62
256
6
ByLayer
370
18
48
1
60
0
100
AcDbEllipse
10
79.000551
20
-0.00142
30
0
11
2.38343772803346
21
-6.49836295020793
31
0
210
0
220
0
230
-1
40
0.082138
41
-2.99092203105
42
-2.89898047540942
0
ELLIPSE
5
A2
100
AcDbEntity
8
1
62
256
6
ByLayer
370
18
48
1
60
0
100
AcDbEllipse
10
79.018487
20
0.053272
30
0
11
0.135658546024934
21
-0.401200806208482
31
0
210
0
220
0
230
-1
40
0.065863
41
1.61345872252645
42
2.32292776271044
0
ELLIPSE
5
A3
100
AcDbEntity
8
1
62
256
6
ByLayer
370
13
48
1
60
0
100
AcDbEllipse
10
4.250178
20
-6.264924
30
0
11
0.00267622297192451
21
0.0999641827386417
31
0
210
0
220
0
230
1
40
0.485849
41
0.0526085454802469
42
1.61175212691758
0
ELLIPSE
5
A4
100
AcDbEntity
8
1
62
256
6
ByLayer
370
18
48
1
60
0
100
AcDbEllipse
10
77.802282
20
-3.070439
30
0
11
1.00084194642401
21
2.72876197513588
31
0
210
0
220
0
230
-1
40
0.082138
41
0.755280950346745
42
1.57605454013095
0
ELLIPSE
5
A5
100
AcDbEntity
8
1
62
256
6
ByLayer
370
13
48
1
60
0
100
AcDbEllipse
10
77.251984
20
0.927906
30
0
11
0.133113781883896
21
0.268850741253519
31
0
210
0
220
0
230
1
40
0.40558
41
0.884485917130899
42
2.28074931872635
0
ELLIPSE
5
A6
100
AcDbEntity
8
1
62
256
6
ByLayer
370
13
48
1
60
0
100
AcDbEllipse
10
4.176868
20
-6.281938
30
0
11
-0.0467447950580817
21
0.0884020595629872
31
0
210
0
220
0
230
1
40
0.455781
41
0.0514416359745762
42
1.37134728339839
0
ELLIPSE
5
A7
100
AcDbEntity
8
1
62
256
6
ByLayer
370
18
48
1
60
0
100
AcDbEllipse
10
77.802282
20
3.070439
30
0
11
1.00084194641604
21
-2.72876197511758
31
0
210
0
220
0
230
-1
40
0.082138
41
-1.57605454013626
42
-0.75528095034708
0
POINT
5
6C
100
AcDbEntity
8
81
62
256
6
ByLayer
370
18
48
1
60
0
100
AcDbPoint
10
79
20
0
30
0
39
0
210
0
220
0
230
1
50
360
0
POINT
5
6E
100
AcDbEntity
8
80
62
256
6
ByLayer
370
18
48
1
60
0
100
AcDbPoint
10
0
20
0
30
0
39
0
210
0
220
0
230
1
50
360
0
POINT
5
70
100
AcDbEntity
8
SK2
62
256
6
ByLayer
370
18
48
1
60
1
100
AcDbPoint
10
-45
20
-7
30
0
39
0
210
0
220
0
230
1
50
360
0
POINT
5
72
100
AcDbEntity
8
SK2
62
256
6
ByLayer
370
18
48
1
60
1
100
AcDbPoint
10
-45
20
7
30
0
39
0
210
0
220
0
230
1
50
360
0
POINT
5
73
100
AcDbEntity
8
2
62
256
6
ByLayer
370
18
48
1
60
1
100
AcDbPoint
10
76.77
20
-6.5
30
0
39
0
210
0
220
0
230
1
50
360
0
POINT
5
75
100
AcDbEntity
8
2
62
256
6
ByLayer
370
18
48
1
60
1
100
AcDbPoint
10
76.77
20
6.5
30
0
39
0
210
0
220
0
230
1
50
360
0
SPLINE
5
A8
100
AcDbEntity
8
1
62
256
6
ByLayer
370
18
48
1
60
0
100
AcDbSpline
70
4
71
1
72
4
73
2
40
0
40
0
40
1
40
1
41
1
10
57.6632528717902
20
0.0009354839999673
30
0
41
1
10
57.6632366821811
20
0.0009438714934902
30
0
0
SPLINE
5
A9
100
AcDbEntity
8
1
62
256
6
ByLayer
370
18
48
1
60
0
100
AcDbSpline
70
4
71
3
72
34
73
30
40
0
40
0
40
0
40
0
40
0.0446004104742728
40
0.0856324473527849
40
0.120191194736517
40
0.142966157852146
40
0.162383523508087
40
0.180164148314552
40
0.207960347776359
40
0.241886353719013
40
0.273456349471458
40
0.298443170809749
40
0.327428696334529
40
0.364962025992266
40
0.402072406046287
40
0.430523215013174
40
0.459915110626787
40
0.497118305404335
40
0.552462796024799
40
0.607299178978445
40
0.675355163348002
40
0.744192176470005
40
0.81485430479059
40
0.861338960565066
40
0.907638390396437
40
0.949614862572369
40
0.970979449220871
40
0.997092310284024
40
1
40
1
40
1
40
1
41
1
10
4.72762124965175
20
-6.17189748100444
30
0
41
1
10
4.99199174539422
20
-6.17152509702717
30
0
41
1
10
5.50057282634458
20
-6.1713156929001
30
0
41
1
10
6.2320731247917
20
-6.17100600568668
30
0
41
1
10
6.81005865456518
20
-6.17381476376929
30
0
41
1
10
7.27188750255169
20
-6.1737051871022
30
0
41
1
10
7.6353406730982
20
-6.17418900387915
30
0
41
1
10
8.00613103286452
20
-6.1725533499048
30
0
41
1
10
8.49260343781117
20
-6.17225206405672
30
0
41
1
10
9.0480093331222
20
-6.17513283733993
30
0
41
1
10
9.58865156760947
20
-6.17586507942047
30
0
41
1
10
10.1043062207005
20
-6.17617256854808
30
0
41
1
10
10.6555003556107
20
-6.17671068566588
30
0
41
1
10
11.2797716556602
20
-6.17732531556138
30
0
41
1
10
11.9011633055244
20
-6.17692788110045
30
0
41
1
10
12.4724556612679
20
-6.1768995559604
30
0
41
1
10
13.0451469002846
20
-6.17751179004381
30
0
41
1
10
13.7794574597562
20
-6.17830973297171
30
0
41
1
10
14.667155516617
20
-6.17808092107359
30
0
41
1
10
15.7410797714072
20
-6.1798558969964
30
0
41
1
10
16.8961836063285
20
-6.17931783725294
30
0
41
1
10
18.1466648242709
20
-6.18112652771381
30
0
41
1
10
19.2671915116312
20
-6.18265669931156
30
0
41
1
10
20.2518952459404
20
-6.18308202749301
30
0
41
1
10
21.0638531655719
20
-6.18245995144508
30
0
41
1
10
21.7242749203807
20
-6.18489362500802
30
0
41
1
10
22.2634826593551
20
-6.18469428490221
30
0
41
1
10
22.5663349302027
20
-6.18424721699895
30
0
41
1
10
22.7410695549533
20
-6.18422096063554
30
0
41
1
10
22.7585770904292
20
-6.18421899140228
30
0
0
SPLINE
5
AA
100
AcDbEntity
8
1
62
256
6
ByLayer
370
18
48
1
60
0
100
AcDbSpline
70
4
71
3
72
11
73
7
40
0
40
0
40
0
40
0
40
0.171468499507113
40
0.316249883604813
40
0.524608890274285
40
1
40
1
40
1
40
1
41
1
10
23.9866193727099
20
-1.52801193912453
30
0
41
1
10
23.9862527524879
20
-1.52787592990191
30
0
41
1
10
23.9901314063822
20
-1.52996996949739
30
0
41
1
10
24.0190809272172
20
-1.54526216539708
30
0
41
1
10
24.1039263341472
20
-1.59062955045897
30
0
41
1
10
24.1838171032936
20
-1.63494647280629
30
0
41
1
10
24.2500783240778
20
-1.6721341043928
30
0
0
SPLINE
5
AB
100
AcDbEntity
8
1
62
256
6
ByLayer
370
18
48
1
60
0
100
AcDbSpline
70
4
71
3
72
10
73
6
40
0
40
0
40
0
40
0
40
0.242009866773917
40
0.541594129351548
40
1
40
1
40
1
40
1
41
1
10
59.4419798229943
20
-1.55595919878093
30
0
41
1
10
59.4405783513341
20
-1.55517144193254
30
0
41
1
10
59.4418370608996
20
-1.55582250111976
30
0
41
1
10
59.4883189226484
20
-1.58104946720667
30
0
41
1
10
59.5499850728962
20
-1.61542662792155
30
0
41
1
10
59.5990610721991
20
-1.64285625865409
30
0
0
SPLINE
5
AC
100
AcDbEntity
8
1
62
256
6
ByLayer
370
18
48
1
60
0
100
AcDbSpline
70
4
71
2
72
6
73
3
40
0
40
0
40
0
40
1
40
1
40
1
41
1
10
75.5733206017061
20
-6.21440318802519
30
0
41
1
10
76.1543028498442
20
-6.2120805035936
30
0
41
1
10
76.7345533278235
20
-6.21703908058336
30
0
0
SPLINE
5
AD
100
AcDbEntity
8
1
62
256
6
ByLayer
370
18
48
1
60
0
100
AcDbSpline
70
4
71
3
72
36
73
32
40
0
40
0
40
0
40
0
40
0.0492041683000792
40
0.0924948695239582
40
0.127293770509101
40
0.154971025924893
40
0.179018351949759
40
0.208499542121944
40
0.242672397493714
40
0.271731649857343
40
0.29481761061569
40
0.326443588905421
40
0.36530830818087
40
0.401734170196995
40
0.434618151947159
40
0.474463040733612
40
0.517989834249588
40
0.555581691302375
40
0.593976528965762
40
0.635024514377552
40
0.676408010371879
40
0.709563364761109
40
0.734022675029802
40
0.76151031282293
40
0.79787686368535
40
0.837188365689267
40
0.867595270366633
40
0.903170334380279
40
0.92961964336847
40
0.967669673153661
40
1
40
1
40
1
40
1
41
1
10
40.1510209844496
20
-6.19289310080384
30
0
41
1
10
40.4430510072756
20
-6.19251900974862
30
0
41
1
10
40.9922070836023
20
-6.19229325022363
30
0
41
1
10
41.7613929696346
20
-6.19327264796877
30
0
41
1
10
42.3814790490053
20
-6.19487066801483
30
0
41
1
10
42.901168569344
20
-6.19450860272465
30
0
41
1
10
43.3870970418482
20
-6.19496326592093
30
0
41
1
10
43.9129310656502
20
-6.19558211698967
30
0
41
1
10
44.4686950362669
20
-6.19601377310474
30
0
41
1
10
44.9861737476505
20
-6.19606470521333
30
0
41
1
10
45.4883652741069
20
-6.19594458660796
30
0
41
1
10
46.0493538011036
20
-6.1969036900974
30
0
41
1
10
46.6903000901677
20
-6.19749985718894
30
0
41
1
10
47.3388006705884
20
-6.19716194454747
30
0
41
1
10
47.9931690800298
20
-6.19735391273406
30
0
41
1
10
48.6901194150859
20
-6.19851632113239
30
0
41
1
10
49.4152750261966
20
-6.19795239233918
30
0
41
1
10
50.131752334828
20
-6.19858712146424
30
0
41
1
10
50.83335890146
20
-6.19951983135277
30
0
41
1
10
51.5577363339862
20
-6.19913814642737
30
0
41
1
10
52.2505580331497
20
-6.199671604961
30
0
41
1
10
52.8443323149531
20
-6.20093992700066
30
0
41
1
10
53.3528337207312
20
-6.20053284979872
30
0
41
1
10
53.8826963138836
20
-6.19994778337738
30
0
41
1
10
54.5004130878675
20
-6.20043840475748
30
0
41
1
10
55.1360263814241
20
-6.20196009984909
30
0
41
1
10
55.7673001801215
20
-6.20170079243104
30
0
41
1
10
56.321405009523
20
-6.20153682961043
30
0
41
1
10
56.9210206393499
20
-6.20298803529946
30
0
41
1
10
57.5016176827367
20
-6.20421401885628
30
0
41
1
10
57.9235081278041
20
-6.20392026840554
30
0
41
1
10
58.1173192705016
20
-6.20361257918378
30
0
0
SPLINE
5
AE
100
AcDbEntity
8
1
62
256
6
ByLayer
370
18
48
1
60
0
100
AcDbSpline
70
4
71
3
72
31
73
27
40
0
40
0
40
0
40
0
40
0.0289664612319923
40
0.0534902564513119
40
0.0787391703365386
40
0.10733513584938
40
0.138076868018484
40
0.193505801861382
40
0.252464876652114
40
0.316044952004302
40
0.381551155211444
40
0.446475435030529
40
0.506775688259025
40
0.555427430559033
40
0.609055875471499
40
0.652249719520343
40
0.686842144477541
40
0.718819677092413
40
0.760092177495053
40
0.805076566651187
40
0.841006727665449
40
0.873532791954192
40
0.915861295844904
40
0.95793983789803
40
0.992432230497065
40
1
40
1
40
1
40
1
41
1
10
22.7620557548777
20
6.18418004272934
30
0
41
1
10
22.6182855084547
20
6.18433910627266
30
0
41
1
10
22.3525960932039
20
6.18452800786838
30
0
41
1
10
21.9606281914777
20
6.18489999617734
30
0
41
1
10
21.570656523614
20
6.18424099212703
30
0
41
1
10
21.149712439296
20
6.18301269523442
30
0
41
1
10
20.5785828118783
20
6.18262696542408
30
0
41
1
10
19.8563422048392
20
6.18359235460787
30
0
41
1
10
18.9706858854314
20
6.18129971582826
30
0
41
1
10
18.0348730750093
20
6.18133022014368
30
0
41
1
10
17.0693810314181
20
6.1796007474438
30
0
41
1
10
16.1202054752961
20
6.17960967229396
30
0
41
1
10
15.2549256578442
20
6.17913569668713
30
0
41
1
10
14.4457835529003
20
6.17804106036218
30
0
41
1
10
13.7221110020812
20
6.17826094392007
30
0
41
1
10
13.0684896246797
20
6.17754476750133
30
0
41
1
10
12.5220667536353
20
6.17693494393245
30
0
41
1
10
11.9862967523334
20
6.17689580261126
30
0
41
1
10
11.397617108305
20
6.17727392676647
30
0
41
1
10
10.7896311225904
20
6.17690051960361
30
0
41
1
10
10.225274299236
20
6.17625649010375
30
0
41
1
10
9.67323317111968
20
6.17591246809462
30
0
41
1
10
9.09542340346715
20
6.17536106294833
30
0
41
1
10
8.51078426205652
20
6.17223655316721
30
0
41
1
10
8.08683079870559
20
6.17261401106865
30
0
41
1
10
7.88330681938194
20
6.1731051873015
30
0
41
1
10
7.84681307480639
20
6.17319651962308
30
0
0
SPLINE
5
AF
100
AcDbEntity
8
1
62
256
6
ByLayer
370
18
48
1
60
0
100
AcDbSpline
70
4
71
3
72
31
73
27
40
0
40
0
40
0
40
0
40
0.0357960126132942
40
0.0744750379678664
40
0.107173353981068
40
0.135104307971715
40
0.164756017322348
40
0.205330687994873
40
0.250275248183001
40
0.291340215681621
40
0.342104479992565
40
0.384731048663683
40
0.428976219783169
40
0.476950648631903
40
0.535539844903216
40
0.612288447098979
40
0.664057899098651
40
0.714932541151918
40
0.771451570169088
40
0.819496768704914
40
0.853549900836785
40
0.895716408394485
40
0.936564443618996
40
0.973063787407489
40
0.997043882139611
40
1
40
1
40
1
40
1
41
1
10
58.3332184719404
20
6.20231111941126
30
0
41
1
10
58.1515719554158
20
6.20224008844122
30
0
41
1
10
57.7753059483086
20
6.20209856863713
30
0
41
1
10
57.2439389836684
20
6.20431560699726
30
0
41
1
10
56.7471862430558
20
6.20227939700567
30
0
41
1
10
56.2907788521816
20
6.20156596263848
30
0
41
1
10
55.796439308043
20
6.20169024965023
30
0
41
1
10
55.2151692116053
20
6.20202359594697
30
0
41
1
10
54.5766252668885
20
6.20067509946034
30
0
41
1
10
53.8865710095893
20
6.20017536860917
30
0
41
1
10
53.2082392338321
20
6.20106007425832
30
0
41
1
10
52.5138561435182
20
6.20035692430861
30
0
41
1
10
51.8335521990929
20
6.19912159432084
30
0
41
1
10
51.0727130901892
20
6.19949730463929
30
0
41
1
10
50.147900024321
20
6.19865093459904
30
0
41
1
10
49.2039029112372
20
6.19810502831388
30
0
41
1
10
48.298933821717
20
6.19818377460751
30
0
41
1
10
47.4959169158283
20
6.19679058913127
30
0
41
1
10
46.7117758137071
20
6.19762742222085
30
0
41
1
10
46.0124326331335
20
6.19680427633264
30
0
41
1
10
45.3855124497802
20
6.19584259554622
30
0
41
1
10
44.7949137640924
20
6.19613685042887
30
0
41
1
10
44.1919443311471
20
6.19585035130984
30
0
41
1
10
43.6807766755886
20
6.19529670778712
30
0
41
1
10
43.3607299804905
20
6.19497436171344
30
0
41
1
10
43.2248392499662
20
6.1948949615176
30
0
41
1
10
43.2099259982712
20
6.19488685256485
30
0
0
SPLINE
5
B0
100
AcDbEntity
8
1
62
256
6
ByLayer
370
18
48
1
60
0
100
AcDbSpline
70
4
71
3
72
46
73
42
40
0
40
0
40
0
40
0
40
0.250000000000002
40
0.250000000000002
40
0.375000000000001
40
0.375000000000001
40
0.437500000000003
40
0.437500000000003
40
0.500000000000004
40
0.500000000000004
40
0.625000000000007
40
0.625000000000007
40
0.687500000000009
40
0.687500000000009
40
0.71875000000001
40
0.71875000000001
40
0.75000000000001
40
0.75000000000001
40
0.781250000000011
40
0.781250000000011
40
0.812500000000012
40
0.812500000000012
40
0.843750000000013
40
0.843750000000013
40
0.859375000000012
40
0.859375000000012
40
0.87500000000001
40
0.87500000000001
40
0.890625000000009
40
0.890625000000009
40
0.906250000000008
40
0.906250000000008
40
0.921875000000007
40
0.921875000000007
40
0.937500000000005
40
0.937500000000005
40
0.953125000000004
40
0.953125000000004
40
0.968750000000003
40
0.968750000000003
40
1
40
1
40
1
40
1
41
1
10
69.9732283466981
20
3.0749424950306
30
0
41
1
10
70.4958044396819
20
2.65778251669306
30
0
41
1
10
71.0299695877338
20
2.27741088305493
30
0
41
1
10
71.8523891440452
20
1.77406139141172
30
0
41
1
10
72.1300397279151
20
1.61742270907834
30
0
41
1
10
72.552448543397
20
1.40129823401105
30
0
41
1
10
72.6945445910802
20
1.33226920730127
30
0
41
1
10
72.9794576814954
20
1.20169224492375
30
0
41
1
10
73.1218485058533
20
1.14032084307382
30
0
41
1
10
73.5488137494621
20
0.968557881628186
30
0
41
1
10
73.8331828828951
20
0.87040172129943
30
0
41
1
10
74.259258191039
20
0.751680493839217
30
0
41
1
10
74.4014558302339
20
0.716827479888167
30
0
41
1
10
74.6136087416127
20
0.672652177917712
30
0
41
1
10
74.6841052368742
20
0.659285907660802
30
0
41
1
10
74.8246375663339
20
0.635383949484662
30
0
41
1
10
74.8948357997978
20
0.624160462044756
30
0
41
1
10
75.0336843335368
20
0.608462311056599
30
0
41
1
10
75.1022215530966
20
0.604706971273629
30
0
41
1
10
75.2360863770904
20
0.60672542619821
30
0
41
1
10
75.3016125602213
20
0.61231470680201
30
0
41
1
10
75.4267519506142
20
0.634380192497957
30
0
41
1
10
75.4866810402594
20
0.650786114313036
30
0
41
1
10
75.5711029600697
20
0.686528996998504
30
0
41
1
10
75.5984696094791
20
0.700440120229814
30
0
41
1
10
75.6498107459112
20
0.732253831133704
30
0
41
1
10
75.6738572396128
20
0.750143725065243
30
0
41
1
10
75.718066049753
20
0.790666197395751
30
0
41
1
10
75.7383026082211
20
0.813376811709475
30
0
41
1
10
75.7737227485612
20
0.864256107679125
30
0
41
1
10
75.7885796149931
20
0.891788971478519
30
0
41
1
10
75.8134133339332
20
0.950434857826167
30
0
41
1
10
75.8233218356066
20
0.981598025075414
30
0
41
1
10
75.8382297304378
20
1.04752586318975
30
0
41
1
10
75.8431570717812
20
1.08223319497625
30
0
41
1
10
75.8480764419445
20
1.15303258432777
30
0
41
1
10
75.8481321612394
20
1.18937448812008
30
0
41
1
10
75.8439171656173
20
1.26375399610865
30
0
41
1
10
75.8396049298508
20
1.30195232027714
30
0
41
1
10
75.821184222034
20
1.41639587393598
30
0
41
1
10
75.8017004950837
20
1.49319080625816
30
0
41
1
10
75.7770608038484
20
1.570343078619
30
0
0
SPLINE
5
B1
100
AcDbEntity
8
1
62
256
6
ByLayer
370
18
48
1
60
0
100
AcDbSpline
70
4
71
3
72
10
73
6
40
0
40
0
40
0
40
0
40
0.5
40
0.5
40
1
40
1
40
1
40
1
41
1
10
4.25029624897803
20
-6.16502944041051
30
0
41
1
10
4.22898097306802
20
-6.16468216565468
30
0
41
1
10
4.20808426386427
20
-6.16701095483469
30
0
41
1
10
4.16712408746906
20
-6.17689498271434
30
0
41
1
10
4.14695867483616
20
-6.18456130872997
30
0
41
1
10
4.12811283720364
20
-6.19474867111947
30
0
0
SPLINE
5
B2
100
AcDbEntity
8
1
62
256
6
ByLayer
370
18
48
1
60
0
100
AcDbSpline
70
4
71
3
72
67
73
63
40
0
40
0
40
0
40
0
40
0.124999999999991
40
0.124999999999991
40
0.187499999999986
40
0.187499999999986
40
0.249999999999981
40
0.249999999999981
40
0.374999999999972
40
0.374999999999972
40
0.499999999999962
40
0.499999999999962
40
0.53124999999996
40
0.53124999999996
40
0.562499999999958
40
0.562499999999958
40
0.624999999999953
40
0.624999999999953
40
0.687499999999948
40
0.687499999999948
40
0.703124999999947
40
0.707031249999947
40
0.707031249999947
40
0.710937499999947
40
0.710937499999947
40
0.714843749999947
40
0.714843749999947
40
0.716796874999947
40
0.716796874999947
40
0.718749999999948
40
0.718749999999948
40
0.749999999999954
40
0.749999999999954
40
0.765624999999957
40
0.765624999999957
40
0.78124999999996
40
0.78124999999996
40
0.796874999999963
40
0.796874999999963
40
0.804687499999964
40
0.804687499999964
40
0.812499999999966
40
0.812499999999966
40
0.828124999999968
40
0.828124999999968
40
0.83593749999997
40
0.83593749999997
40
0.843749999999971
40
0.843749999999971
40
0.859374999999974
40
0.859374999999974
40
0.874999999999976
40
0.874999999999976
40
0.906249999999982
40
0.906249999999982
40
0.921874999999985
40
0.921874999999985
40
0.937499999999988
40
0.937499999999988
40
0.968749999999994
40
0.968749999999994
40
1
40
1
40
1
40
1
41
1
10
18.8832642748199
20
1.37878903655164
30
0
41
1
10
18.0537632441184
20
1.84564369696389
30
0
41
1
10
17.2152259613119
20
2.28020433066879
30
0
41
1
10
15.9360924202482
20
2.87605732405609
30
0
41
1
10
15.5079619644215
20
3.06435802918645
30
0
41
1
10
14.6482755633747
20
3.41853670403393
30
0
41
1
10
14.2164708918577
20
3.58451757272621
30
0
41
1
10
12.9130451893833
20
4.04804334236775
30
0
41
1
10
12.033303185525
20
4.31082250910032
30
0
41
1
10
10.24264724291
20
4.74553170780834
30
0
41
1
10
9.33173924215538
20
4.91767342458115
30
0
41
1
10
8.16971826213197
20
5.08237020677876
30
0
41
1
10
7.9361516991016
20
5.11279407285818
30
0
41
1
10
7.46661776781036
20
5.16877121717332
30
0
41
1
10
7.23040929089194
20
5.19434669076787
30
0
41
1
10
6.52032654119154
20
5.26376874226861
30
0
41
1
10
6.04489256950939
20
5.30037800832272
30
0
41
1
10
5.08977841166492
20
5.35552605299117
30
0
41
1
10
4.61122681762566
20
5.3740166512822
30
0
41
1
10
4.01173440191371
20
5.3860294593452
30
0
41
1
10
3.86175751013806
20
5.38833474347493
30
0
41
1
10
3.71176019327234
20
5.38975996468582
30
0
41
1
10
3.65175969582651
20
5.39025948099675
30
0
41
1
10
3.6217640218984
20
5.39071038602174
30
0
41
1
10
3.5617481455208
20
5.39053336511085
30
0
41
1
10
3.53159434500537
20
5.38873401051282
30
0
41
1
10
3.48838446286336
20
5.38241887670421
30
0
41
1
10
3.47417008193545
20
5.37968758123935
30
0
41
1
10
3.44691757926355
20
5.37239348355473
30
0
41
1
10
3.43468769233132
20
5.36762311514468
30
0
41
1
10
3.22337652154781
20
5.28899194537436
30
0
41
1
10
3.03239904571421
20
5.20463781171085
30
0
41
1
10
2.76953605620798
20
5.05789625807716
30
0
41
1
10
2.68568187125047
20
5.00552177123296
30
0
41
1
10
2.52718342616987
20
4.89202642515158
30
0
41
1
10
2.45224527975719
20
4.83065105364724
30
0
41
1
10
2.31533025720574
20
4.69759233970194
30
0
41
1
10
2.25430317686249
20
4.62687592968578
30
0
41
1
10
2.17571991366782
20
4.51324541065605
30
0
41
1
10
2.15169106067293
20
4.47410523815034
30
0
41
1
10
2.10835769737451
20
4.39302421191033
30
0
41
1
10
2.08898003641062
20
4.35084455715943
30
0
41
1
10
2.03954213922259
20
4.22224622962096
30
0
41
1
10
2.01782737698142
20
4.13340132965354
30
0
41
1
10
2.00209270258273
20
3.99523369776298
30
0
41
1
10
1.99965632045422
20
3.94836055732517
30
0
41
1
10
2.00042274601193
20
3.85293393456465
30
0
41
1
10
2.00366994456874
20
3.80427672508762
30
0
41
1
10
2.02134613849228
20
3.65893676942051
30
0
41
1
10
2.04362464048225
20
3.56185452929105
30
0
41
1
10
2.10599713657038
20
3.3671466720595
30
0
41
1
10
2.14632545009278
20
3.26931165216155
30
0
41
1
10
2.28583935049801
20
2.98306058872944
30
0
41
1
10
2.40397989791555
20
2.79864279578112
30
0
41
1
10
2.60574721586136
20
2.52764048128671
30
0
41
1
10
2.6768440163946
20
2.43878279831014
30
0
41
1
10
2.82382789742582
20
2.26501393983992
30
0
41
1
10
2.89994183272023
20
2.17980970376067
30
0
41
1
10
3.13468584684972
20
1.92821707039306
30
0
41
1
10
3.29964323081805
20
1.7657968969136
30
0
41
1
10
3.64162757641836
20
1.44818245328506
30
0
41
1
10
3.81929213204589
20
1.29253851345916
30
0
41
1
10
3.99999966294183
20
1.14088665057614
30
0
0
SPLINE
5
B3
100
AcDbEntity
8
1
62
256
6
ByLayer
370
18
48
1
60
0
100
AcDbSpline
70
4
71
3
72
24
73
20
40
0
40
0
40
0
40
0
40
0.249999999999984
40
0.249999999999984
40
0.499999999999967
40
0.499999999999967
40
0.624999999999965
40
0.624999999999965
40
0.687499999999971
40
0.687499999999971
40
0.749999999999977
40
0.749999999999977
40
0.812499999999983
40
0.812499999999983
40
0.874999999999988
40
0.874999999999988
40
0.937499999999994
40
0.937499999999994
40
1
40
1
40
1
40
1
41
1
10
75.9380065531533
20
1.84530130567538
30
0
41
1
10
76.1597026060103
20
1.88522937032894
30
0
41
1
10
76.3796380850998
20
1.93141488125866
30
0
41
1
10
76.8124836122581
20
2.04385543504918
30
0
41
1
10
77.0258156166889
20
2.10932689064006
30
0
41
1
10
77.3357010312942
20
2.23898892571344
30
0
41
1
10
77.4380300329719
20
2.28797198648195
30
0
41
1
10
77.5839319493226
20
2.37428767620352
30
0
41
1
10
77.6311955964264
20
2.40515599499844
30
0
41
1
10
77.7220165633757
20
2.47261304741107
30
0
41
1
10
77.7655363030208
20
2.50923787291927
30
0
41
1
10
77.8452933547617
20
2.58841066378409
30
0
41
1
10
77.8818021572721
20
2.63111230230751
30
0
41
1
10
77.9455930361052
20
2.72512424738403
30
0
41
1
10
77.9722841969889
20
2.77596446389325
30
0
41
1
10
78.0112463581048
20
2.88253645521183
30
0
41
1
10
78.0237846604978
20
2.9394339904679
30
0
41
1
10
78.0332428030065
20
3.05275378229956
30
0
41
1
10
78.0304158077297
20
3.11050563592317
30
0
41
1
10
78.0211528821634
20
3.16699414304969
30
0
0
SPLINE
5
B4
100
AcDbEntity
8
1
62
256
6
ByLayer
370
13
48
1
60
0
100
AcDbSpline
70
4
71
3
72
30
73
26
40
0
40
0
40
0
40
0
40
0.125
40
0.125
40
0.1875
40
0.1875
40
0.25
40
0.25
40
0.375
40
0.375
40
0.4375
40
0.4375
40
0.5
40
0.5
40
0.5625
40
0.5625
40
0.625
40
0.625
40
0.75
40
0.75
40
0.8125
40
0.8125
40
0.875
40
0.875
40
1
40
1
40
1
40
1
41
1
10
4.25029624897809
20
-6.16502944041051
30
0
41
1
10
4.25037011456919
20
-6.14461527215394
30
0
41
1
10
4.25043437577864
20
-6.07718963410429
30
0
41
1
10
4.25052203978177
20
-5.90774940808313
30
0
41
1
10
4.25054985850591
20
-5.83958705115305
30
0
41
1
10
4.25060312158081
20
-5.6803160071139
30
0
41
1
10
4.25062824981086
20
-5.59024864074593
30
0
41
1
10
4.2507006087628
20
-5.28981028236069
30
0
41
1
10
4.2507448669578
20
-5.04954655192626
30
0
41
1
10
4.25080984245173
20
-4.62708592304045
30
0
41
1
10
4.25083096921804
20
-4.47763378100828
30
0
41
1
10
4.25087245943524
20
-4.16423974018514
30
0
41
1
10
4.25089287476789
20
-3.99995123964331
30
0
41
1
10
4.25093346699742
20
-3.65627051587345
30
0
41
1
10
4.25095364352364
20
-3.47687932808776
30
0
41
1
10
4.25099399328198
20
-3.10254964255594
30
0
41
1
10
4.25101414008958
20
-2.90778034210973
30
0
41
1
10
4.25107359240496
20
-2.30983875114382
30
0
41
1
10
4.25111162860992
20
-1.89738542162789
30
0
41
1
10
4.25116488487242
20
-1.25868561198169
30
0
41
1
10
4.25118197814172
20
-1.0424203234698
30
0
41
1
10
4.25121426905122
20
-0.602925793210915
30
0
41
1
10
4.25122925881328
20
-0.382370408190894
30
0
41
1
10
4.25126947163304
20
0.275849981268038
30
0
41
1
10
4.25129024291851
20
0.71259441963781
30
0
41
1
10
4.25130146489647
20
1.14722160860785
30
0
0
SPLINE
5
B5
100
AcDbEntity
8
1
62
256
6
ByLayer
370
18
48
1
60
0
100
AcDbSpline
70
4
71
3
72
98
73
94
40
0
40
0
40
0
40
0
40
0.0128358255409416
40
0.0128358255409416
40
0.0339119641407581
40
0.0339119641407581
40
0.0760642413403911
40
0.0760642413403911
40
0.0971403799402075
40
0.0971403799402075
40
0.118216518540024
40
0.118216518540024
40
0.13929265713984
40
0.13929265713984
40
0.160368795739657
40
0.160368795739657
40
0.181444934339474
40
0.181444934339474
40
0.20252107293929
40
0.20252107293929
40
0.223597211539106
40
0.223597211539106
40
0.244673350138923
40
0.244673350138923
40
0.265749488738739
40
0.265749488738739
40
0.286825627338556
40
0.286825627338556
40
0.307901765938372
40
0.307901765938372
40
0.328977904538189
40
0.328977904538189
40
0.350054043138005
40
0.350054043138005
40
0.371130181737822
40
0.371130181737822
40
0.392206320337638
40
0.392206320337638
40
0.413282458937455
40
0.413282458937455
40
0.455434736137088
40
0.455434736137088
40
0.476510874736904
40
0.476510874736904
40
0.49758701333672
40
0.49758701333672
40
0.518663151936536
40
0.518663151936536
40
0.539739290536352
40
0.539739290536352
40
0.560815429136168
40
0.560815429136168
40
0.581891567735984
40
0.581891567735984
40
0.6029677063358
40
0.6029677063358
40
0.624043844935616
40
0.624043844935616
40
0.645119983535433
40
0.645119983535433
40
0.666196122135249
40
0.666196122135249
40
0.687272260735065
40
0.687272260735065
40
0.708348399334881
40
0.708348399334881
40
0.729424537934697
40
0.729424537934697
40
0.750500676534513
40
0.750500676534513
40
0.771576815134329
40
0.771576815134329
40
0.792652953734145
40
0.792652953734145
40
0.813729092333961
40
0.813729092333961
40
0.834805230933778
40
0.834805230933778
40
0.855881369533594
40
0.855881369533594
40
0.87695750813341
40
0.87695750813341
40
0.898033646733226
40
0.898033646733226
40
0.919109785333042
40
0.919109785333042
40
0.940185923932858
40
0.940185923932858
40
0.961262062532674
40
0.961262062532674
40
0.98233820113249
40
0.98233820113249
40
1
40
1
40
1
40
1
41
1
10
65.9600744498328
20
-4.76163877288113
30
0
41
1
10
65.7746407717379
20
-4.82697974966419
30
0
41
1
10
65.5890871264359
20
-4.89033274299985
30
0
41
1
10
65.0981178056223
20
-5.05233050462871
30
0
41
1
10
64.7925420731881
20
-5.14781649363081
30
0
41
1
10
63.8796253165762
20
-5.41710478528796
30
0
41
1
10
63.2750651233306
20
-5.57474190861723
30
0
41
1
10
62.3692891223875
20
-5.77137907850721
30
0
41
1
10
62.067641328595
20
-5.83048739606059
30
0
41
1
10
61.4648178656506
20
-5.93495782862172
30
0
41
1
10
61.1638431129258
20
-5.98015645046846
30
0
41
1
10
60.5614388496845
20
-6.05956599813464
30
0
41
1
10
60.2599352682823
20
-6.09342250461469
30
0
41
1
10
59.6562144621402
20
-6.14783785336863
30
0
41
1
10
59.3539627830828
20
-6.16809675039087
30
0
41
1
10
58.7487669390756
20
-6.19549992460432
30
0
41
1
10
58.445986509473
20
-6.20292211939531
30
0
41
1
10
57.8383076254185
20
-6.20426457022296
30
0
41
1
10
57.5332452247922
20
-6.19829925971206
30
0
41
1
10
56.9222406153392
20
-6.17102241255566
30
0
41
1
10
56.6172239539178
20
-6.14998290066376
30
0
41
1
10
56.0081883941752
20
-6.09619376627916
30
0
41
1
10
55.7039294218271
20
-6.06306246616833
30
0
41
1
10
55.0949480968838
20
-5.98316916346613
30
0
41
1
10
54.7903273489769
20
-5.93601696467519
30
0
41
1
10
54.1807636352272
20
-5.82933427773
30
0
41
1
10
53.8759805837327
20
-5.76995878839386
30
0
41
1
10
53.2657494979022
20
-5.63832935252611
30
0
41
1
10
52.9604912946922
20
-5.56628148256172
30
0
41
1
10
52.352371747474
20
-5.40982093672375
30
0
41
1
10
52.0490163055943
20
-5.32585751270443
30
0
41
1
10
51.4436222587207
20
-5.14756796536523
30
0
41
1
10
51.1418364634642
20
-5.0527809219748
30
0
41
1
10
50.5385316444159
20
-4.85272067457117
30
0
41
1
10
50.2370444208278
20
-4.74722061426419
30
0
41
1
10
49.63420345768
20
-4.52709922337266
30
0
41
1
10
49.3328451792308
20
-4.41255125889072
30
0
41
1
10
48.7304633538274
20
-4.17342139442525
30
0
41
1
10
48.4294140532066
20
-4.04873682871178
30
0
41
1
10
47.5242248170452
20
-3.66188885498818
30
0
41
1
10
46.9189127810703
20
-3.38929738784705
30
0
41
1
10
46.00774162362
20
-2.95355558659855
30
0
41
1
10
45.7027584194761
20
-2.80416479870084
30
0
41
1
10
45.0917995476339
20
-2.50077703162407
30
0
41
1
10
44.7866416902653
20
-2.34681818216174
30
0
41
1
10
44.1770541900326
20
-2.03365776823102
30
0
41
1
10
43.8728171854044
20
-1.87412079789439
30
0
41
1
10
43.2641983954254
20
-1.55144428758928
30
0
41
1
10
42.9596559059079
20
-1.38883384141215
30
0
41
1
10
42.3500326090345
20
-1.0609541684949
30
0
41
1
10
42.0449515771948
20
-0.895657919885622
30
0
41
1
10
41.4341187991491
20
-0.561956734869284
30
0
41
1
10
41.1290093535897
20
-0.393688170961582
30
0
41
1
10
40.5191654686752
20
-0.0584671942108059
30
0
41
1
10
40.2143471455233
20
0.10888783819226
30
0
41
1
10
39.6048885557125
20
0.442949494751503
30
0
41
1
10
39.3002141740171
20
0.609546503314647
30
0
41
1
10
38.6911293002228
20
0.94235671307618
30
0
41
1
10
38.3864759607948
20
1.10813129357442
30
0
41
1
10
37.7758828750512
20
1.43641270870398
30
0
41
1
10
37.4698081182275
20
1.59926779673506
30
0
41
1
10
36.8606158326041
20
1.91937358940939
30
0
41
1
10
36.5569987990196
20
2.07747216645021
30
0
41
1
10
35.9511853566303
20
2.38888726716667
30
0
41
1
10
35.6486547050854
20
2.54173483028995
30
0
41
1
10
35.0443264544936
20
2.84026709613315
30
0
41
1
10
34.7425242962005
20
2.98574229431495
30
0
41
1
10
34.1394264574614
20
3.27116317473255
30
0
41
1
10
33.8383987239151
20
3.41132933541923
30
0
41
1
10
33.2358598408255
20
3.68310931914127
30
0
41
1
10
32.9343357914772
20
3.81441380151009
30
0
41
1
10
32.3306408760594
20
4.06874747280389
30
0
41
1
10
32.0284947463251
20
4.19219029159089
30
0
41
1
10
31.4237758692559
20
4.43112153640468
30
0
41
1
10
31.1212389210484
20
4.54674439592034
30
0
41
1
10
30.5138499826997
20
4.76580739945717
30
0
41
1
10
30.2091628887592
20
4.8697607631623
30
0
41
1
10
29.5982184766202
20
5.06912092380171
30
0
41
1
10
29.2925249684466
20
5.16393541143387
30
0
41
1
10
28.6830587364536
20
5.34187676691641
30
0
41
1
10
28.378581408468
20
5.42401103646802
30
0
41
1
10
27.7693254188508
20
5.57586419053521
30
0
41
1
10
27.464630383906
20
5.64630262221905
30
0
41
1
10
26.8551484996876
20
5.77515405680563
30
0
41
1
10
26.5505720690911
20
5.8337730545382
30
0
41
1
10
25.9404448685788
20
5.93639091623703
30
0
41
1
10
25.6344322733591
20
5.98088106185833
30
0
41
1
10
25.0247138099233
20
6.05775497586029
30
0
41
1
10
24.7206171758116
20
6.08983338015878
30
0
41
1
10
24.1141467246749
20
6.14013636317415
30
0
41
1
10
23.8119730104419
20
6.15777728431505
30
0
41
1
10
23.2566967791388
20
6.17840956522809
30
0
41
1
10
23.0036520802856
20
6.18357193222701
30
0
41
1
10
22.7507462493345
20
6.18421105857624
30
0
0
SPLINE
5
B6
100
AcDbEntity
8
1
62
256
6
ByLayer
370
18
48
1
60
0
100
AcDbSpline
70
4
71
3
72
12
73
8
40
0
40
0
40
0
40
0
40
0.249999999999998
40
0.249999999999998
40
0.499999999999997
40
0.499999999999997
40
1
40
1
40
1
40
1
41
1
10
4.12811283720364
20
-6.19474867111947
30
0
41
1
10
4.10725518462118
20
-6.20602354621889
30
0
41
1
10
4.08899148740278
20
-6.21959667600811
30
0
41
1
10
4.05691909785824
20
-6.25065916373833
30
0
41
1
10
4.04335928405214
20
-6.26805869476087
30
0
41
1
10
4.01116049734929
20
-6.32261160264707
30
0
41
1
10
3.99999966325615
20
-6.36426491663514
30
0
41
1
10
3.99999966325615
20
-6.40465243056835
30
0
0
SPLINE
5
B7
100
AcDbEntity
8
1
62
256
6
ByLayer
370
18
48
1
60
0
100
AcDbSpline
70
4
71
3
72
8
73
4
40
0
40
0
40
0
40
0
40
1
40
1
40
1
40
1
41
1
10
3.99999966325612
20
1.16580801256822
30
0
41
1
10
3.99999966325612
20
1.15745366527773
30
0
41
1
10
3.99999966325612
20
1.14914653031104
30
0
41
1
10
3.99999966325612
20
1.14088665031247
30
0
0
SPLINE
5
B8
100
AcDbEntity
8
1
62
256
6
ByLayer
370
18
48
1
60
0
100
AcDbSpline
70
4
71
3
72
48
73
44
40
0
40
0
40
0
40
0
40
0.0482601655103994
40
0.0482601655103994
40
0.0965203310207988
40
0.0965203310207988
40
0.144780496531198
40
0.144780496531198
40
0.193040662041598
40
0.193040662041598
40
0.241300827551997
40
0.241300827551997
40
0.289560993062397
40
0.289560993062397
40
0.337821158572796
40
0.337821158572796
40
0.386081324083196
40
0.386081324083196
40
0.434341489593595
40
0.434341489593595
40
0.482601655103994
40
0.482601655103994
40
0.530861820614394
40
0.530861820614394
40
0.579121986124793
40
0.579121986124793
40
0.627382151635192
40
0.627382151635192
40
0.675642317145592
40
0.675642317145592
40
0.723902482655991
40
0.723902482655991
40
0.772162648166391
40
0.772162648166391
40
0.82042281367679
40
0.82042281367679
40
0.86868297918719
40
0.86868297918719
40
0.916943144697589
40
0.916943144697589
40
0.965203310207988
40
0.965203310207988
40
1
40
1
40
1
40
1
41
1
10
11.6799469754555
20
-3.44664291604789
30
0
41
1
10
11.9852218233814
20
-3.58557698307169
30
0
41
1
10
12.29024839499
20
-3.7201608201552
30
0
41
1
10
12.8997214009235
20
-3.98139166509384
30
0
41
1
10
13.2041183384967
20
-4.10796011287465
30
0
41
1
10
13.8125877759542
20
-4.35160465692633
30
0
41
1
10
14.116529238111
20
-4.46890547957102
30
0
41
1
10
14.7253315731148
20
-4.69325219776533
30
0
41
1
10
15.0301510088598
20
-4.80045449864045
30
0
41
1
10
15.6405111571796
20
-5.00443078397836
30
0
41
1
10
15.946009430991
20
-5.10097917747316
30
0
41
1
10
16.5539241999983
20
-5.28213874240069
30
0
41
1
10
16.8569046635231
20
-5.36702498715078
30
0
41
1
10
17.46239564115
20
-5.52457908620727
30
0
41
1
10
17.7646595173272
20
-5.59733441569406
30
0
41
1
10
18.3682136247912
20
-5.73002814645946
30
0
41
1
10
18.6695023104954
20
-5.79009276390769
30
0
41
1
10
19.2713924417179
20
-5.89875874819467
30
0
41
1
10
19.5723544376959
20
-5.94707523538898
30
0
41
1
10
20.1747035344266
20
-6.02933420181571
30
0
41
1
10
20.4760165875445
20
-6.06378073573546
30
0
41
1
10
21.0789301746053
20
-6.1204051599407
30
0
41
1
10
21.3803682683729
20
-6.14295641365305
30
0
41
1
10
21.9843910854165
20
-6.17443014023857
30
0
41
1
10
22.2872960372688
20
-6.18247428829554
30
0
41
1
10
22.8945502059324
20
-6.1855459650055
30
0
41
1
10
23.1989247244364
20
-6.18047611350641
30
0
41
1
10
23.8090479973282
20
-6.15796451536971
30
0
41
1
10
24.1136553936628
20
-6.14018830930908
30
0
41
1
10
24.7225736205174
20
-6.08965988491465
30
0
41
1
10
25.0269403791361
20
-6.05749643028747
30
0
41
1
10
25.6354523686233
20
-5.9807301460522
30
0
41
1
10
25.9395814422398
20
-5.93650653772946
30
0
41
1
10
26.547720516215
20
-5.83428207857446
30
0
41
1
10
26.8519447050762
20
-5.77579143566737
30
0
41
1
10
27.4618214760578
20
-5.64693600554983
30
0
41
1
10
27.7673649317097
20
-5.57633038765786
30
0
41
1
10
28.3769526403285
20
-5.42443930647252
30
0
41
1
10
28.681180481062
20
-5.34239138396856
30
0
41
1
10
29.2891734684002
20
-5.16494739837952
30
0
41
1
10
29.5933643699269
20
-5.07063953231153
30
0
41
1
10
30.1171530436797
20
-4.89983096149632
30
0
41
1
10
30.336646514476
20
-4.82591688810351
30
0
41
1
10
30.5562199820889
20
-4.74909627197374
30
0
0
SPLINE
5
B9
100
AcDbEntity
8
1
62
256
6
ByLayer
370
18
48
1
60
0
100
AcDbSpline
70
4
71
3
72
30
73
26
40
0
40
0
40
0
40
0
40
0.0614760269208411
40
0.0614760269208411
40
0.139686358010772
40
0.139686358010772
40
0.217896689100703
40
0.217896689100703
40
0.296107020190633
40
0.296107020190633
40
0.374317351280564
40
0.374317351280564
40
0.530738013460423
40
0.530738013460423
40
0.608948344550353
40
0.608948344550353
40
0.687158675640282
40
0.687158675640282
40
0.765369006730212
40
0.765369006730212
40
0.843579337820141
40
0.843579337820141
40
0.921789668910071
40
0.921789668910071
40
1
40
1
40
1
40
1
41
1
10
58.296780073669
20
6.20266730956644
30
0
41
1
10
58.5358242596593
20
6.20033913322644
30
0
41
1
10
58.7753562078809
20
6.19386265177894
30
0
41
1
10
59.3198459547928
20
6.17012328675338
30
0
41
1
10
59.6244897344123
20
6.15023984760199
30
0
41
1
10
60.2332280120611
20
6.09624530355896
30
0
41
1
10
60.5373585240661
20
6.06244540610828
30
0
41
1
10
61.1452218175011
20
5.98288600374445
30
0
41
1
10
61.4489986696116
20
5.9374983128381
30
0
41
1
10
62.0577489815443
20
5.83239445695719
30
0
41
1
10
62.362507134095
20
5.77280037947685
30
0
41
1
10
63.2780357877842
20
5.57419815485625
30
0
41
1
10
63.885852766302
20
5.41541090757704
30
0
41
1
10
64.7985787155405
20
5.14596321498564
30
0
41
1
10
65.1028336927076
20
5.05081976341626
30
0
41
1
10
65.7113318105061
20
4.84995164067294
30
0
41
1
10
66.0154098096568
20
4.74386377919683
30
0
41
1
10
66.6248148487388
20
4.52063312008897
30
0
41
1
10
66.930236239663
20
4.40367588026032
30
0
41
1
10
67.5396251004365
20
4.16083819560455
30
0
41
1
10
67.8439729804661
20
4.03491785014387
30
0
41
1
10
68.4520483073016
20
3.77410319644602
30
0
41
1
10
68.7557201203766
20
3.63905818964278
30
0
41
1
10
69.3640654063802
20
3.3623378998355
30
0
41
1
10
69.6685205455212
20
3.22040562566255
30
0
41
1
10
69.9732283466979
20
3.07494249503074
30
0
0
SPLINE
5
BA
100
AcDbEntity
8
1
62
256
6
ByLayer
370
13
48
1
60
0
100
AcDbSpline
70
4
71
3
72
10
73
6
40
0
40
0
40
0
40
0
40
0.979910471010796
40
0.979910471010796
40
1
40
1
40
1
40
1
41
1
10
4.20154128486013
20
-6.26771751301271
30
0
41
1
10
4.96522849911051
20
-6.28216583135341
30
0
41
1
10
5.72718225306059
20
-6.25289490684216
30
0
41
1
10
6.50638520464821
20
-6.17944698942324
30
0
41
1
10
6.52203883090237
20
-6.17795351420955
30
0
41
1
10
6.53769214499741
20
-6.1764421421434
30
0
0
SPLINE
5
BB
100
AcDbEntity
8
1
62
256
6
ByLayer
370
18
48
1
60
0
100
AcDbSpline
70
4
71
3
72
18
73
14
40
0
40
0
40
0
40
0
40
0.118082600320001
40
0.118082600320001
40
0.620027625254962
40
0.620027625254962
40
0.871000137722442
40
0.871000137722442
40
0.933743265839313
40
0.933743265839313
40
0.996486393956183
40
0.996486393956183
40
1
40
1
40
1
40
1
41
1
10
57.6509540558895
20
0.007812982685607
30
0
41
1
10
58.0086446729392
20
-0.192218459895202
30
0
41
1
10
58.3648425066853
20
-0.391523973452479
30
0
41
1
10
60.2295623714431
20
-1.43038232700934
30
0
41
1
10
61.719980643943
20
-2.24460798921154
30
0
41
1
10
63.9686790301015
20
-3.35373763903516
30
0
41
1
10
64.7203178601294
20
-3.70497760696543
30
0
41
1
10
65.6671153642635
20
-4.1129201302891
30
0
41
1
10
65.8568416802864
20
-4.19295013399733
30
0
41
1
10
66.237128548304
20
-4.34972022736667
30
0
41
1
10
66.4279853037641
20
-4.42658474048187
30
0
41
1
10
66.6291489913208
20
-4.50558095113612
30
0
41
1
10
66.6398153222378
20
-4.50976356764787
30
0
41
1
10
66.6504802501078
20
-4.51393960869734
30
0
0
SPLINE
5
BC
100
AcDbEntity
8
1
62
256
6
ByLayer
370
13
48
1
60
0
100
AcDbSpline
70
4
71
3
72
16
73
12
40
0
40
0
40
0
40
0
40
0.108337055907099
40
0.108337055907099
40
0.554168527953552
40
0.554168527953552
40
0.777084263976777
40
0.777084263976777
40
0.888542131988388
40
0.888542131988388
40
1
40
1
40
1
40
1
41
1
10
66.6504802491868
20
-4.51393960833667
30
0
41
1
10
67.0207065925065
20
-4.65890827819396
30
0
41
1
10
67.3892421406093
20
-4.79595293686211
30
0
41
1
10
69.2681099641807
20
-5.45444545587463
30
0
41
1
10
70.7588751133212
20
-5.84378333329764
30
0
41
1
10
73.0055045718566
20
-6.18777085643023
30
0
41
1
10
73.7562677553561
20
-6.26251989415968
30
0
41
1
10
74.8903269379712
20
-6.31132955410339
30
0
41
1
10
75.269690008983
20
-6.31703602740433
30
0
41
1
10
76.0319552174523
20
-6.30665323691773
30
0
41
1
10
76.4134139710144
20
-6.29005533838475
30
0
41
1
10
76.7946118221035
20
-6.26366248683146
30
0
0
SPLINE
5
BD
100
AcDbEntity
8
1
62
256
6
ByLayer
370
18
48
1
60
0
100
AcDbSpline
70
4
71
3
72
8
73
4
40
0
40
0
40
0
40
0
40
1
40
1
40
1
40
1
41
1
10
76.7242344471249
20
-6.45270647224791
30
0
41
1
10
76.7477148247243
20
-6.38973746055814
30
0
41
1
10
76.771173955267
20
-6.32672281066652
30
0
41
1
10
76.7946118221155
20
-6.26366248683644
30
0
0
SPLINE
5
BE
100
AcDbEntity
8
1
62
256
6
ByLayer
370
18
48
1
60
0
100
AcDbSpline
70
4
71
3
72
10
73
6
40
0
40
0
40
0
40
0
40
0.833291094371318
40
0.833291094371318
40
1
40
1
40
1
40
1
41
1
10
76.7242344471249
20
6.45270647224794
30
0
41
1
10
76.3442864783621
20
6.47889612563373
30
0
41
1
10
75.9643572565611
20
6.49401781984258
30
0
41
1
10
75.507935392801
20
6.49884567251843
30
0
41
1
10
75.4318466487005
20
6.49920432610884
30
0
41
1
10
75.355773587882
20
6.49911873744711
30
0
0
SPLINE
5
BF
100
AcDbEntity
8
1
62
256
6
ByLayer
370
18
48
1
60
0
100
AcDbSpline
70
4
71
3
72
54
73
50
40
0
40
0
40
0
40
0
40
0.013905553761192
40
0.013905553761192
40
0.0432422553278562
40
0.0432422553278562
40
0.0725789568945204
40
0.0725789568945204
40
0.131252360027849
40
0.131252360027849
40
0.145920710811181
40
0.145920710811181
40
0.160589061594514
40
0.160589061594514
40
0.189925763161179
40
0.189925763161179
40
0.307272569427838
40
0.307272569427838
40
0.336609270994503
40
0.336609270994503
40
0.365945972561168
40
0.365945972561168
40
0.424619375694498
40
0.424619375694498
40
0.453956077261162
40
0.453956077261162
40
0.483292778827827
40
0.483292778827827
40
0.541966181961155
40
0.541966181961155
40
0.600639585094484
40
0.600639585094484
40
0.629976286661149
40
0.629976286661149
40
0.64464463744448
40
0.64464463744448
40
0.659312988227812
40
0.659312988227812
40
0.776659794494466
40
0.776659794494466
40
0.835333197627793
40
0.835333197627793
40
0.864669899194456
40
0.864669899194456
40
0.894006600761119
40
0.894006600761119
40
0.952680003894447
40
0.952680003894447
40
1
40
1
40
1
40
1
41
1
10
43.2443146210091
20
-6.20734932222064
30
0
41
1
10
43.0644187746045
20
-6.23692913704832
30
0
41
1
10
42.8845529508835
20
-6.26412988307328
30
0
41
1
10
42.3251599895799
20
-6.34124822850788
30
0
41
1
10
41.9455473375185
20
-6.38287248972071
30
0
41
1
10
41.1852058402556
20
-6.44431637831852
30
0
41
1
10
40.804087518205
20
-6.46411080339843
30
0
41
1
10
39.6636869326757
20
-6.49013905168044
30
0
41
1
10
38.9055206063487
20
-6.46324298779399
30
0
41
1
10
37.9557708245868
20
-6.37492808436471
30
0
41
1
10
37.7657093709701
20
-6.35453222905085
30
0
41
1
10
37.3852378781576
20
-6.30829639838979
30
0
41
1
10
37.1946532495551
20
-6.28242436066287
30
0
41
1
10
36.6243327211825
20
-6.19698898654178
30
0
41
1
10
36.2456470806361
20
-6.12955571711063
30
0
41
1
10
34.3570310300909
20
-5.74253996789958
30
0
41
1
10
32.861947842388
20
-5.27323909970787
30
0
41
1
10
30.9762068477012
20
-4.52264763512466
30
0
41
1
10
30.5981697864166
20
-4.36438692788059
30
0
41
1
10
29.8394076662767
20
-4.03248748346411
30
0
41
1
10
29.4580242029578
20
-3.8584830002483
30
0
41
1
10
28.3171584595427
20
-3.31898887745572
30
0
41
1
10
27.558813867493
20
-2.93542977886304
30
0
41
1
10
26.4190347172022
20
-2.3329580201698
30
0
41
1
10
26.0382130908421
20
-2.12734115770104
30
0
41
1
10
25.2770946852982
20
-1.70991457485346
30
0
41
1
10
24.89805149353
20
-1.4987892732731
30
0
41
1
10
23.7640764467843
20
-0.860651989109783
30
0
41
1
10
23.0122378783932
20
-0.428988286963403
30
0
41
1
10
21.5093291972543
20
0.433461000088613
30
0
41
1
10
20.7584229727706
20
0.864537130944569
30
0
41
1
10
19.6269634931623
20
1.50041539389736
30
0
41
1
10
19.2490216209468
20
1.71069409363668
30
0
41
1
10
18.6802237687829
20
2.02234415247494
30
0
41
1
10
18.4903054143017
20
2.12559086467297
30
0
41
1
10
18.1096931519152
20
2.33056731193418
30
0
41
1
10
17.9191462937817
20
2.43221234580017
30
0
41
1
10
16.2095866481299
20
3.33422520493366
30
0
41
1
10
14.7124222529217
20
4.05430439634657
30
0
41
1
10
12.4556668463615
20
4.95140484565027
30
0
41
1
10
11.7016395939403
20
5.22001967244378
30
0
41
1
10
10.5622237293024
20
5.56968498346276
30
0
41
1
10
10.1805303967086
20
5.67747021475168
30
0
41
1
10
9.42107631640144
20
5.87220054829962
30
0
41
1
10
9.04240597213666
20
5.95942999523848
30
0
41
1
10
7.90801498355256
20
6.19007263514874
30
0
41
1
10
7.15432834721892
20
6.30267176989514
30
0
41
1
10
5.79010196707472
20
6.4285849761269
30
0
41
1
10
5.18004367814703
20
6.45694635358919
30
0
41
1
10
4.56723502543761
20
6.45665558396018
30
0
0
SPLINE
5
C0
100
AcDbEntity
8
1
62
256
6
ByLayer
370
18
48
1
60
0
100
AcDbSpline
70
4
71
3
72
14
73
10
40
0
40
0
40
0
40
0
40
0.25
40
0.25
40
0.5
40
0.5
40
0.75
40
0.75
40
1
40
1
40
1
40
1
41
1
10
75.7770608038484
20
1.570343078619
30
0
41
1
10
75.7680042243437
20
1.59870121354564
30
0
41
1
10
75.7626956424396
20
1.62813339171817
30
0
41
1
10
75.7635845406359
20
1.68872733906892
30
0
41
1
10
75.7700986950078
20
1.71933598635465
30
0
41
1
10
75.7988160921958
20
1.77523890137971
30
0
41
1
10
75.8222010663334
20
1.7981105140567
30
0
41
1
10
75.8763048836377
20
1.82997552672606
30
0
41
1
10
75.9069260062512
20
1.83970361428584
30
0
41
1
10
75.9380065531533
20
1.84530130567538
30
0
0
SPLINE
5
C1
100
AcDbEntity
8
1
62
256
6
ByLayer
370
18
48
1
60
0
100
AcDbSpline
70
4
71
3
72
20
73
16
40
0
40
0
40
0
40
0
40
0.25
40
0.25
40
0.375
40
0.375
40
0.5
40
0.5
40
0.625
40
0.625
40
0.75
40
0.75
40
0.875
40
0.875
40
1
40
1
40
1
40
1
41
1
10
11.6798750047836
20
-3.44660589400161
30
0
41
1
10
11.030273237415
20
-3.1523966603522
30
0
41
1
10
10.3896823145497
20
-2.83314561359393
30
0
41
1
10
9.43697534760796
20
-2.323883424614
30
0
41
1
10
9.12081325087991
20
-2.14894079359581
30
0
41
1
10
8.49089958472263
20
-1.78850535125349
30
0
41
1
10
8.17713805078944
20
-1.60306374830537
30
0
41
1
10
7.55175075848589
20
-1.22228037744745
30
0
41
1
10
7.24013357217351
20
-1.02686001432187
30
0
41
1
10
6.61937758299541
20
-0.624332195477422
30
0
41
1
10
6.31004267438013
20
-0.417058876506843
30
0
41
1
10
5.70221071329877
20
0.0069680704627331
30
0
41
1
10
5.40283222895837
20
0.224216455888183
30
0
41
1
10
4.81637216406835
20
0.673112920303282
30
0
41
1
10
4.52918718409506
20
0.904635443562114
30
0
41
1
10
4.25130147240853
20
1.1472216118863
30
0
0
SPLINE
5
C2
100
AcDbEntity
8
1
62
256
6
ByLayer
370
18
48
1
60
0
100
AcDbSpline
70
4
71
3
72
96
73
92
40
0
40
0
40
0
40
0
40
0.0022285938877817
40
0.0022285938877817
40
0.0228637434127478
40
0.0228637434127478
40
0.0641340424626793
40
0.0641340424626793
40
0.0847691919876451
40
0.0847691919876451
40
0.105404341512611
40
0.105404341512611
40
0.126039491037577
40
0.126039491037577
40
0.146674640562542
40
0.146674640562542
40
0.167309790087508
40
0.167309790087508
40
0.187944939612474
40
0.187944939612474
40
0.229215238662405
40
0.229215238662405
40
0.24985038818737
40
0.24985038818737
40
0.270485537712336
40
0.270485537712336
40
0.291120687237301
40
0.291120687237301
40
0.311755836762267
40
0.311755836762267
40
0.353026135812198
40
0.353026135812198
40
0.373661285337164
40
0.373661285337164
40
0.39429643486213
40
0.39429643486213
40
0.414931584387095
40
0.414931584387095
40
0.435566733912061
40
0.435566733912061
40
0.456201883437027
40
0.456201883437027
40
0.476837032961992
40
0.476837032961992
40
0.518107332011924
40
0.518107332011924
40
0.538742481536891
40
0.538742481536891
40
0.559377631061857
40
0.559377631061857
40
0.580012780586823
40
0.580012780586823
40
0.600647930111789
40
0.600647930111789
40
0.621283079636755
40
0.621283079636755
40
0.641918229161721
40
0.641918229161721
40
0.683188528211653
40
0.683188528211653
40
0.70382367773662
40
0.70382367773662
40
0.724458827261586
40
0.724458827261586
40
0.745093976786552
40
0.745093976786552
40
0.765729126311519
40
0.765729126311519
40
0.786364275836485
40
0.786364275836485
40
0.806999425361452
40
0.806999425361452
40
0.827634574886418
40
0.827634574886418
40
0.848269724411384
40
0.848269724411384
40
0.868904873936351
40
0.868904873936351
40
0.889540023461317
40
0.889540023461317
40
0.910175172986283
40
0.910175172986283
40
0.93081032251125
40
0.93081032251125
40
0.951445472036216
40
0.951445472036216
40
0.972080621561183
40
0.972080621561183
40
0.992715771086149
40
0.992715771086149
40
1
40
1
40
1
40
1
41
1
10
30.5572547006003
20
4.7351140258825
30
0
41
1
10
30.5897089072999
20
4.7478119385554
30
0
41
1
10
30.622160614309
20
4.76045515274211
30
0
41
1
10
30.9550633201636
20
4.88960684088963
30
0
41
1
10
31.2549093190379
20
5.0019000961604
30
0
41
1
10
32.1564964670301
20
5.32132929111623
30
0
41
1
10
32.7607170804824
20
5.51094436695266
30
0
41
1
10
33.6691435817656
20
5.76241659432125
30
0
41
1
10
33.97235497568
20
5.84082838627646
30
0
41
1
10
34.5814095680384
20
5.98373614533801
30
0
41
1
10
34.8852677532707
20
6.04824639546433
30
0
41
1
10
35.4912490135292
20
6.1640148252676
30
0
41
1
10
35.7933814374969
20
6.2152649803545
30
0
41
1
10
36.3955390946913
20
6.30460515770349
30
0
41
1
10
36.6961092807274
20
6.34239901362406
30
0
41
1
10
37.2977378747002
20
6.4039953414366
30
0
41
1
10
37.5984866775527
20
6.42793999754608
30
0
41
1
10
38.1994639677848
20
6.46226250500177
30
0
41
1
10
38.4995348851576
20
6.47264264448762
30
0
41
1
10
39.3995291643129
20
6.48289915782502
30
0
41
1
10
40.0025352153867
20
6.46213954115234
30
0
41
1
10
40.9090940032939
20
6.38925092788352
30
0
41
1
10
41.2112549497614
20
6.35775918236925
30
0
41
1
10
41.8182957125398
20
6.28096528649698
30
0
41
1
10
42.1236119420009
20
6.23567508145771
30
0
41
1
10
42.7312012474883
20
6.13214612006774
30
0
41
1
10
43.0341056820218
20
6.07385698806189
30
0
41
1
10
43.6377635785149
20
5.94401616744887
30
0
41
1
10
43.9383912921853
20
5.87230861162459
30
0
41
1
10
44.8413049342284
20
5.64054733119585
30
0
41
1
10
45.4429099853578
20
5.46296012424486
30
0
41
1
10
46.3424906380795
20
5.15958283223077
30
0
41
1
10
46.642490466245
20
5.05284087899429
30
0
41
1
10
47.2440846997555
20
4.82972224285817
30
0
41
1
10
47.5453906614975
20
4.7130461783598
30
0
41
1
10
48.1486394868495
20
4.46889617103173
30
0
41
1
10
48.4504018338931
20
4.34116749595353
30
0
41
1
10
49.0550992755718
20
4.07521819075583
30
0
41
1
10
49.3589440989181
20
3.93805257085268
30
0
41
1
10
49.9683590278822
20
3.65507371699616
30
0
41
1
10
50.2721435927693
20
3.5100651608131
30
0
41
1
10
50.8775172160327
20
3.21251126260157
30
0
41
1
10
51.1787220879874
20
3.05933990974546
30
0
41
1
10
52.0823267124443
20
2.59373505670669
30
0
41
1
10
52.6844004246703
20
2.27486994705578
30
0
41
1
10
53.5844377671164
20
1.779746787124
30
0
41
1
10
53.8838689618677
20
1.61174344196087
30
0
41
1
10
54.4845903955352
20
1.27500477775629
30
0
41
1
10
54.7854480726324
20
1.10554351870013
30
0
41
1
10
55.3877419117039
20
0.763709076744391
30
0
41
1
10
55.6891753563286
20
0.591330746881908
30
0
41
1
10
56.2923107422108
20
0.24298097652067
30
0
41
1
10
56.5946706388826
20
0.0681923251993339
30
0
41
1
10
57.2020984123909
20
-0.280539009527018
30
0
41
1
10
57.5073986702131
20
-0.455238702899038
30
0
41
1
10
58.1146720715709
20
-0.802518518219813
30
0
41
1
10
58.4169540080813
20
-0.975803178774015
30
0
41
1
10
59.3214957125651
20
-1.49137716689202
30
0
41
1
10
59.924184506209
20
-1.82467675939282
30
0
41
1
10
60.8249772866633
20
-2.31420039827799
30
0
41
1
10
61.124344584012
20
-2.47617663313383
30
0
41
1
10
61.724321289691
20
-2.79271513102026
30
0
41
1
10
62.0248301029026
20
-2.94747296025042
30
0
41
1
10
62.6263379837638
20
-3.25089164080384
30
0
41
1
10
62.9273595099893
20
-3.39951603884614
30
0
41
1
10
63.5295709510084
20
-3.69103481816583
30
0
41
1
10
63.8307192110258
20
-3.83396031504935
30
0
41
1
10
64.4360405991785
20
-4.10976501216999
30
0
41
1
10
64.7397766075353
20
-4.24331072165523
30
0
41
1
10
65.3490160932994
20
-4.50216196308139
30
0
41
1
10
65.6525823622957
20
-4.62667572175241
30
0
41
1
10
66.2569939096154
20
-4.86597692344048
30
0
41
1
10
66.5586360463931
20
-4.97985281419662
30
0
41
1
10
67.1616374832366
20
-5.195468459094
30
0
41
1
10
67.4627807614768
20
-5.2974746419743
30
0
41
1
10
68.0639752231138
20
-5.49035820645958
30
0
41
1
10
68.3637838163662
20
-5.58143994090918
30
0
41
1
10
68.963145801024
20
-5.75149522674096
30
0
41
1
10
69.2633708291837
20
-5.82992905427397
30
0
41
1
10
69.8642697985093
20
-5.97435717264401
30
0
41
1
10
70.1649627934529
20
-6.04033192947355
30
0
41
1
10
70.7664713515401
20
-6.15987726777445
30
0
41
1
10
71.0669165369999
20
-6.21360175335016
30
0
41
1
10
71.6702747239138
20
-6.30707502646024
30
0
41
1
10
71.973049869538
20
-6.34696908380445
30
0
41
1
10
72.5802680418011
20
-6.41325406209978
30
0
41
1
10
72.8852563199586
20
-6.43965089010376
30
0
41
1
10
73.4921747922136
20
-6.4783248247744
30
0
41
1
10
73.7945184728949
20
-6.49058174701676
30
0
41
1
10
74.2039994484718
20
-6.49754738488895
30
0
41
1
10
74.3108166426259
20
-6.49849128218966
30
0
41
1
10
74.4176076077291
20
-6.49856471325165
30
0
0
SPLINE
5
C3
100
AcDbEntity
8
1
62
256
6
ByLayer
370
13
48
1
60
0
100
AcDbSpline
70
4
71
3
72
12
73
8
40
0
40
0
40
0
40
0
40
0.5
40
0.5
40
0.75
40
0.75
40
1
40
1
40
1
40
1
41
1
10
3.99999966325615
20
-6.40465243056832
30
0
41
1
10
3.99999966325615
20
-6.38175738576888
30
0
41
1
10
4.01118152174226
20
-6.35811471891594
30
0
41
1
10
4.04337983306678
20
-6.32709349327109
30
0
41
1
10
4.05693432192834
20
-6.31718989027181
30
0
41
1
10
4.08899406516997
20
-6.29949057382098
30
0
41
1
10
4.10725204208217
20
-6.29174573780003
30
0
41
1
10
4.12811283720364
20
-6.2853062721793
30
0
0
SPLINE
5
C4
100
AcDbEntity
8
1
62
256
6
ByLayer
370
18
48
1
60
0
100
AcDbSpline
70
4
71
3
72
18
73
14
40
0
40
0
40
0
40
0
40
0.124999999999993
40
0.124999999999993
40
0.249999999999986
40
0.249999999999986
40
0.374999999999979
40
0.374999999999979
40
0.499999999999973
40
0.499999999999973
40
0.749999999999986
40
0.749999999999986
40
1
40
1
40
1
40
1
41
1
10
4.25130146489676
20
1.14722161844446
30
0
41
1
10
4.23720348188874
20
1.15952874882282
30
0
41
1
10
4.22267641253964
20
1.1712927182046
30
0
41
1
10
4.19247814384369
20
1.19337153431121
30
0
41
1
10
4.1766125624479
20
1.20378986612062
30
0
41
1
10
4.1448327184201
20
1.22152518341184
30
0
41
1
10
4.12850570070279
20
1.22903239587905
30
0
41
1
10
4.09761082701883
20
1.23927679876658
30
0
41
1
10
4.08274912691826
20
1.24206861238741
30
0
41
1
10
4.04412829758547
20
1.24272435214255
30
0
41
1
10
4.02599539038002
20
1.23306438559555
30
0
41
1
10
4.00437701346232
20
1.20487420584689
30
0
41
1
10
3.99999966325765
20
1.18634525725571
30
0
41
1
10
3.99999966325615
20
1.16580801256535
30
0
0
SPLINE
5
C5
100
AcDbEntity
8
1
62
256
6
ByLayer
370
18
48
1
60
0
100
AcDbSpline
70
4
71
3
72
18
73
14
40
0
40
0
40
0
40
0
40
0.250000000000001
40
0.250000000000001
40
0.375
40
0.375
40
0.5
40
0.5
40
0.75
40
0.75
40
0.875
40
0.875
40
1
40
1
40
1
40
1
41
1
10
78.0211528821643
20
3.16699414305009
30
0
41
1
10
77.9212825618081
20
3.43488433010617
30
0
41
1
10
77.8213459501819
20
3.70255812178871
30
0
41
1
10
77.671184029992
20
4.10322987220388
30
0
41
1
10
77.6210877738566
20
4.23664909829952
30
0
41
1
10
77.520763370445
20
4.50305701668586
30
0
41
1
10
77.4705255306393
20
4.63601406953771
30
0
41
1
10
77.3198049229131
20
5.03486208964245
30
0
41
1
10
77.2192762059003
20
5.30060306473132
30
0
41
1
10
77.0679068257706
20
5.69733328943201
30
0
41
1
10
77.0173420516273
20
5.82902307413801
30
0
41
1
10
76.9162672515857
20
6.09202481753545
30
0
41
1
10
76.8657210695773
20
6.2232673310487
30
0
41
1
10
76.8151460846013
20
6.35366248715178
30
0
0
SPLINE
5
C6
100
AcDbEntity
8
1
62
256
6
ByLayer
370
18
48
1
60
0
100
AcDbSpline
70
4
71
3
72
14
73
10
40
0
40
0
40
0
40
0
40
0.30675848414622
40
0.30675848414622
40
0.477088270408091
40
0.477088270408091
40
0.647418056669961
40
0.647418056669961
40
1
40
1
40
1
40
1
41
1
10
40.3663459204127
20
-6.19218862050113
30
0
41
1
10
39.6795592950957
20
-6.19832741762693
30
0
41
1
10
38.9936998569862
20
-6.1699079037179
30
0
41
1
10
37.9252882703615
20
-6.07263353945973
30
0
41
1
10
37.5448300499223
20
-6.02743596381299
30
0
41
1
10
36.7865901671271
20
-5.91720239721201
30
0
41
1
10
36.4086038155134
20
-5.85213082307365
30
0
41
1
10
35.2501840516872
20
-5.62292902380568
30
0
41
1
10
34.471841112654
20
-5.42730286722011
30
0
41
1
10
33.6924663722973
20
-5.19416358742689
30
0
0
SPLINE
5
C7
100
AcDbEntity
8
1
62
256
6
ByLayer
370
13
48
1
60
0
100
AcDbSpline
70
4
71
3
72
24
73
20
40
0
40
0
40
0
40
0
40
0.141901655532381
40
0.141901655532381
40
0.215425637319434
40
0.215425637319434
40
0.288949619106486
40
0.288949619106486
40
0.435997582680593
40
0.435997582680593
40
0.5830455462547
40
0.5830455462547
40
0.656569528041752
40
0.656569528041752
40
0.693331518935279
40
0.693331518935279
40
0.730093509828805
40
0.730093509828805
40
1
40
1
40
1
40
1
41
1
10
33.6924673306317
20
-5.19416387409953
30
0
41
1
10
32.9658005559049
20
-4.97679148880789
30
0
41
1
10
32.2382368205394
20
-4.72680832281054
30
0
41
1
10
31.1276941001163
20
-4.30218574157976
30
0
41
1
10
30.7473655857816
20
-4.14926722881415
30
0
41
1
10
29.9843188647797
20
-3.82881526175663
30
0
41
1
10
29.6043275359706
20
-3.66233304058559
30
0
41
1
10
28.4675365556832
20
-3.14656603839279
30
0
41
1
10
27.7137854365725
20
-2.78118270950486
30
0
41
1
10
26.2077981265114
20
-2.01888873855631
30
0
41
1
10
25.455464175506
20
-1.62219075256499
30
0
41
1
10
24.3228844330568
20
-1.01261073139793
30
0
41
1
10
23.9446612844031
20
-0.807032064927625
30
0
41
1
10
23.3756281751689
20
-0.496245833212583
30
0
41
1
10
23.185669716774
20
-0.39223975602124
30
0
41
1
10
22.8050708585909
20
-0.183622414019226
30
0
41
1
10
22.6141848671622
20
-0.0788761930025998
30
0
41
1
10
21.0239340915394
20
0.79351969127643
30
0
41
1
10
19.6439761539718
20
1.54933018489675
30
0
41
1
10
18.2619885487087
20
2.25487348711937
30
0
0
SPLINE
5
C8
100
AcDbEntity
8
1
62
256
6
ByLayer
370
18
48
1
60
0
100
AcDbSpline
70
4
71
3
72
14
73
10
40
0
40
0
40
0
40
0
40
0.25
40
0.25
40
0.5
40
0.5
40
0.75
40
0.75
40
1
40
1
40
1
40
1
41
1
10
4.12564555152946
20
-6.45148710264712
30
0
41
1
10
4.10646456510423
20
-6.45104723550958
30
0
41
1
10
4.08914329682818
20
-6.4504935365587
30
0
41
1
10
4.05811164593797
20
-6.44908198742499
30
0
41
1
10
4.04454770005017
20
-6.44822146038572
30
0
41
1
10
4.02270820214355
20
-6.44620341534144
30
0
41
1
10
4.01414691947113
20
-6.44501453994772
30
0
41
1
10
4.00287886216793
20
-6.44237814297222
30
0
41
1
10
3.99999966325615
20
-6.44092641153227
30
0
41
1
10
3.99999966325612
20
-6.43932356224855
30
0
0
SPLINE
5
C9
100
AcDbEntity
8
1
62
256
6
ByLayer
370
18
48
1
60
0
100
AcDbSpline
70
4
71
3
72
18
73
14
40
0
40
0
40
0
40
0
40
0.250000000000003
40
0.250000000000003
40
0.375000000000003
40
0.375000000000003
40
0.500000000000002
40
0.500000000000002
40
0.750000000000002
40
0.750000000000002
40
0.875000000000001
40
0.875000000000001
40
1
40
1
40
1
40
1
41
1
10
78.0211528821644
20
-3.16699414304998
30
0
41
1
10
77.9212825618081
20
-3.43488433010609
30
0
41
1
10
77.821345950182
20
-3.70255812178863
30
0
41
1
10
77.6711840299921
20
-4.1032298722038
30
0
41
1
10
77.6210877738566
20
-4.23664909829944
30
0
41
1
10
77.5207633704451
20
-4.5030570166858
30
0
41
1
10
77.4705255306394
20
-4.63601406953768
30
0
41
1
10
77.3198049229132
20
-5.03486208964242
30
0
41
1
10
77.2192762059003
20
-5.30060306473129
30
0
41
1
10
77.0679068257706
20
-5.69733328943201
30
0
41
1
10
77.0173420516272
20
-5.82902307413801
30
0
41
1
10
76.9162672515857
20
-6.09202481753545
30
0
41
1
10
76.8657210695772
20
-6.2232673310487
30
0
41
1
10
76.8151460846012
20
-6.35366248715181
30
0
0
SPLINE
5
CA
100
AcDbEntity
8
1
62
256
6
ByLayer
370
18
48
1
60
0
100
AcDbSpline
70
4
71
3
72
14
73
10
40
0
40
0
40
0
40
0
40
0.0001540809020272
40
0.0001540809020272
40
0.154284726355007
40
0.154284726355007
40
0.462546017260965
40
0.462546017260965
40
1
40
1
40
1
40
1
41
1
10
75.6736154562373
20
-6.21419212871206
30
0
41
1
10
75.673234747488
20
-6.21419384128311
30
0
41
1
10
75.6728540398801
20
-6.21419554315048
30
0
41
1
10
75.2916439635864
20
-6.21588894396768
30
0
41
1
10
74.912534191906
20
-6.20688555962008
30
0
41
1
10
73.7791103758184
20
-6.14879649169134
30
0
41
1
10
73.0286110043602
20
-6.06864854522274
30
0
41
1
10
70.9744824462572
20
-5.74161140518751
30
0
41
1
10
69.6741555829429
20
-5.41466812819982
30
0
41
1
10
68.3609470588489
20
-4.98199799915707
30
0
0
SPLINE
5
CB
100
AcDbEntity
8
1
62
256
6
ByLayer
370
13
48
1
60
0
100
AcDbSpline
70
4
71
3
72
28
73
24
40
0
40
0
40
0
40
0
40
0.0383922661446601
40
0.0383922661446601
40
0.113231391039806
40
0.113231391039806
40
0.150650953487379
40
0.150650953487379
40
0.188070515934951
40
0.188070515934951
40
0.337748765725247
40
0.337748765725247
40
0.637105265305837
40
0.637105265305837
40
0.711944390200986
40
0.711944390200986
40
0.749363952648559
40
0.749363952648559
40
0.786783515096133
40
0.786783515096133
40
0.936461764886426
40
0.936461764886426
40
1
40
1
40
1
40
1
41
1
10
68.360947058847
20
-4.98199799915636
30
0
41
1
10
68.1677518056252
20
-4.91834488267997
30
0
41
1
10
67.9742777494464
20
-4.85240347748913
30
0
41
1
10
67.4026683440418
20
-4.65129740606068
30
0
41
1
10
67.0235953889747
20
-4.50982160269399
30
0
41
1
10
66.4523245112067
20
-4.28544258651877
30
0
41
1
10
66.2616383546801
20
-4.20869516519844
30
0
41
1
10
65.8816179690822
20
-4.05225776161436
30
0
41
1
10
65.6920108445129
20
-3.97245292750608
30
0
41
1
10
64.7457519952867
20
-3.5659196246356
30
0
41
1
10
63.9943784741964
20
-3.21668942670507
30
0
41
1
10
61.746225024438
20
-2.11608603138359
30
0
41
1
10
60.2557716667439
20
-1.3109695866265
30
0
41
1
10
58.369200421215
20
-0.275091883676822
30
0
41
1
10
57.9907072302094
20
-0.0664657422406947
30
0
41
1
10
57.4204400304052
20
0.247324443795691
30
0
41
1
10
57.2296505996659
20
0.352209677118907
30
0
41
1
10
56.8487112497718
20
0.561276872173408
30
0
41
1
10
56.6586286224988
20
0.665452081568588
30
0
41
1
10
55.7098167233429
20
1.18394743891244
30
0
41
1
10
54.9554535315724
20
1.59015723455545
30
0
41
1
10
53.8832401582451
20
2.1493817539554
30
0
41
1
10
53.5639620314077
20
2.31345506773837
30
0
41
1
10
53.2446644673651
20
2.47451607865438
30
0
0
SPLINE
5
CC
100
AcDbEntity
8
1
62
256
6
ByLayer
370
18
48
1
60
0
100
AcDbSpline
70
4
71
3
72
8
73
4
40
0
40
0
40
0
40
0
40
1
40
1
40
1
40
1
41
1
10
4.73203923549329
20
-6.17202306269877
30
0
41
1
10
4.57151212003123
20
-6.17159258864299
30
0
41
1
10
4.41094127969666
20
-6.16926428030075
30
0
41
1
10
4.25029624897795
20
-6.16502944041051
30
0
0
SPLINE
5
CD
100
AcDbEntity
8
1
62
256
6
ByLayer
370
18
48
1
60
0
100
AcDbSpline
70
4
71
3
72
93
73
89
40
0
40
0
40
0
40
0
40
0.0425992371589252
40
0.0425992371589252
40
0.0771675843110965
40
0.0771675843110965
40
0.111735931463268
40
0.111735931463268
40
0.180872625767611
40
0.180872625767611
40
0.250009320071953
40
0.250009320071953
40
0.267293493648039
40
0.267293493648039
40
0.284577667224124
40
0.284577667224124
40
0.319146014376296
40
0.319146014376296
40
0.388282708680638
40
0.388282708680638
40
0.42285105583281
40
0.42285105583281
40
0.440135229408895
40
0.440135229408895
40
0.448777316196938
40
0.448777316196938
40
0.453098359590959
40
0.454178620439465
40
0.454448685651591
40
0.454448685651591
40
0.454583718257654
40
0.454583718257654
40
0.454718750863717
40
0.454718750863717
40
0.45525888128797
40
0.45525888128797
40
0.457419402984981
40
0.457419402984981
40
0.466061489773023
40
0.466061489773023
40
0.474703576561066
40
0.474703576561066
40
0.491987750137152
40
0.491987750137152
40
0.526556097289323
40
0.526556097289323
40
0.595692791593665
40
0.595692791593665
40
0.664829485898006
40
0.664829485898006
40
0.699397833050177
40
0.699397833050177
40
0.70803991983822
40
0.70803991983822
40
0.716682006626263
40
0.716682006626263
40
0.718842528323273
40
0.718842528323273
40
0.721003050020284
40
0.721003050020284
40
0.721543180444537
40
0.721543180444537
40
0.7216782130506
40
0.7216782130506
40
0.721813245656663
40
0.721813245656663
40
0.722083310868789
40
0.723163571717295
40
0.725324093414306
40
0.733966180202349
40
0.733966180202349
40
0.768534527354522
40
0.768534527354522
40
0.803102874506694
40
0.803102874506694
40
0.837671221658867
40
0.837671221658867
40
0.854955395234953
40
0.854955395234953
40
0.872239568811039
40
0.872239568811039
40
0.941376263115385
40
0.941376263115385
40
0.958660436691471
40
0.958660436691471
40
0.975944610267557
40
0.975944610267557
40
1
40
1
40
1
40
1
41
1
10
18.8832756791975
20
1.37882761479352
30
0
41
1
10
18.6506158973414
20
1.47151423794676
30
0
41
1
10
18.4182893396902
20
1.5567866547471
30
0
41
1
10
17.9974202157666
20
1.69485462936149
30
0
41
1
10
17.8088568379963
20
1.75071895105876
30
0
41
1
10
17.4309723429021
20
1.84852655550915
30
0
41
1
10
17.2411123821951
20
1.89055991652873
30
0
41
1
10
16.6725650812674
20
1.99216213799969
30
0
41
1
10
16.3007765064218
20
2.02618272849716
30
0
41
1
10
15.5624817079993
20
2.02441244895675
30
0
41
1
10
15.1959095984526
20
1.98870708780879
30
0
41
1
10
14.7342631658807
20
1.90142354992634
30
0
41
1
10
14.6416211162862
20
1.88180066856873
30
0
41
1
10
14.4572530545497
20
1.83869973279201
30
0
41
1
10
14.365380100092
20
1.81520039138974
30
0
41
1
10
14.0904270926524
20
1.73912544157588
30
0
41
1
10
13.9080079162316
20
1.68097814337449
30
0
41
1
10
13.361455902506
20
1.48622301695326
30
0
41
1
10
12.997985552822
20
1.32937879605686
30
0
41
1
10
12.4474987588212
20
1.06006260671711
30
0
41
1
10
12.2627160365556
20
0.964357904996007
30
0
41
1
10
11.9856593612242
20
0.814124843196623
30
0
41
1
10
11.8932906841127
20
0.762921605231952
30
0
41
1
10
11.7546264093276
20
0.684538085528345
30
0
41
1
10
11.7083852493353
20
0.65814634960924
30
0
41
1
10
11.6389890004155
20
0.618179220078957
30
0
41
1
10
11.6100718811953
20
0.601450159517157
30
0
41
1
10
11.5797048485365
20
0.583786653339814
30
0
41
1
10
11.5724744258817
20
0.579575301052273
30
0
41
1
10
11.5703052864894
20
0.578311549482862
30
0
41
1
10
11.5694766933668
20
0.578001211448054
30
0
41
1
10
11.5683028485307
20
0.576865831248227
30
0
41
1
10
11.5684169653453
20
0.575911392009203
30
0
41
1
10
11.569841618285
20
0.572014748572315
30
0
41
1
10
11.5723863509052
20
0.569610941697135
30
0
41
1
10
11.5839583797455
20
0.557553373797475
30
0
41
1
10
11.5946034694743
20
0.549174851730697
30
0
41
1
10
11.6472601803984
20
0.507286135456042
30
0
41
1
10
11.691473076555
20
0.476238046100804
30
0
41
1
10
11.7797499403102
20
0.414162421398288
30
0
41
1
10
11.8242169495566
20
0.383550521403862
30
0
41
1
10
11.9580277179586
20
0.292231436637849
30
0
41
1
10
12.0477697765431
20
0.232085093480919
30
0
41
1
10
12.3176100198121
20
0.0524308711659103
30
0
41
1
10
12.4983683961536
20
-0.0662263432292036
30
0
41
1
10
13.0416277921109
20
-0.421160544830258
30
0
41
1
10
13.4048399151188
20
-0.656679116718749
30
0
41
1
10
14.1309554720898
20
-1.12887163589033
30
0
41
1
10
14.4944889903352
20
-1.36469129771143
30
0
41
1
10
15.0369948264126
20
-1.72301353638494
30
0
41
1
10
15.2175231602068
20
-1.84293629193257
30
0
41
1
10
15.4413562696202
20
-1.99561098521517
30
0
41
1
10
15.4860213708457
20
-2.02629974246528
30
0
41
1
10
15.5749207437275
20
-2.08832709658711
30
0
41
1
10
15.6192701074166
20
-2.11954477132019
30
0
41
1
10
15.6736132112189
20
-2.16005331612064
30
0
41
1
10
15.6844225947276
20
-2.16823763790904
30
0
41
1
10
15.7057243046557
20
-2.18500023167863
30
0
41
1
10
15.7164490397271
20
-2.19338870664765
30
0
41
1
10
15.7284166421352
20
-2.20527248640775
30
0
41
1
10
15.7309303054196
20
-2.20767481005706
30
0
41
1
10
15.7328771780001
20
-2.211335278766
30
0
41
1
10
15.7332645688282
20
-2.2122060719388
30
0
41
1
10
15.7327373616146
20
-2.21368003044955
30
0
41
1
10
15.7318805086667
20
-2.21401869745449
30
0
41
1
10
15.729970147621
20
-2.21544439359838
30
0
41
1
10
15.7236023705668
20
-2.22019501972511
30
0
41
1
10
15.7070474062224
20
-2.23252454755266
30
0
41
1
10
15.6510267280355
20
-2.27407349113957
30
0
41
1
10
15.600122492897
20
-2.31129482550716
30
0
41
1
10
15.3966476403061
20
-2.45826888461866
30
0
41
1
10
15.2338997160009
20
-2.57002575188974
30
0
41
1
10
14.9099480386266
20
-2.77819661636869
30
0
41
1
10
14.7487116514685
20
-2.87467669289452
30
0
41
1
10
14.4256732016024
20
-3.05084213447685
30
0
41
1
10
14.2638773080673
20
-3.13052990381294
30
0
41
1
10
14.0188998117698
20
-3.23588536705083
30
0
41
1
10
13.9368559542186
20
-3.26863678006046
30
0
41
1
10
13.7716307444098
20
-3.32908717077348
30
0
41
1
10
13.6883189968196
20
-3.35681163402691
30
0
41
1
10
13.2720701781373
20
-3.48080226992374
30
0
41
1
10
12.9371798303959
20
-3.53419571819023
30
0
41
1
10
12.5025532919804
20
-3.53975260528424
30
0
41
1
10
12.4148297435869
20
-3.53781890065164
30
0
41
1
10
12.2374737200911
20
-3.52784260299188
30
0
41
1
10
12.1475405275447
20
-3.51975599452157
30
0
41
1
10
11.9320504504794
20
-3.49345424249446
30
0
41
1
10
11.8062793810129
20
-3.47255640443987
30
0
41
1
10
11.6799146918955
20
-3.44663629410334
30
0
0
SPLINE
5
CE
100
AcDbEntity
8
1
62
256
6
ByLayer
370
18
48
1
60
0
100
AcDbSpline
70
4
71
3
72
8
73
4
40
0
40
0
40
0
40
0
40
1
40
1
40
1
40
1
41
1
10
76.8156074833629
20
-6.17703152202276
30
0
41
1
10
76.7852544774577
20
-6.20226624647614
30
0
41
1
10
76.7593445293732
20
-6.21496745569851
30
0
41
1
10
76.7379463053008
20
-6.21494144777989
30
0
0
SPLINE
5
CF
100
AcDbEntity
8
1
62
256
6
ByLayer
370
18
48
1
60
0
100
AcDbSpline
70
4
71
3
72
24
73
20
40
0
40
0
40
0
40
0
40
0.0050102531026306
40
0.0050102531026306
40
0.0619449544242077
40
0.0619449544242077
40
0.118879655745785
40
0.118879655745785
40
0.232749058388936
40
0.232749058388936
40
0.46048786367524
40
0.46048786367524
40
0.688226668961543
40
0.688226668961543
40
0.802096071604696
40
0.802096071604696
40
0.915965474247849
40
0.915965474247849
40
1
40
1
40
1
40
1
41
1
10
22.3321280900369
20
-0.0374864626961084
30
0
41
1
10
22.348908905365
20
-0.046839434660086
30
0
41
1
10
22.3656925919893
20
-0.0561939556137929
30
0
41
1
10
22.5732359885988
20
-0.171868187290642
30
0
41
1
10
22.7642281182487
20
-0.278306669263742
30
0
41
1
10
23.1450179449776
20
-0.490209153019151
30
0
41
1
10
23.3350628978953
20
-0.595810981224332
30
0
41
1
10
23.9043283791615
20
-0.911248614178163
30
0
41
1
10
24.2826784376202
20
-1.11973291342403
30
0
41
1
10
25.4156275912518
20
-1.73738606472014
30
0
41
1
10
26.168127302812
20
-2.13871484908222
30
0
41
1
10
27.6745607909781
20
-2.90855363731612
30
0
41
1
10
28.4285404082581
20
-3.27693499960105
30
0
41
1
10
29.5659021111693
20
-3.79585899986265
30
0
41
1
10
29.9461130866174
20
-3.96318587440757
30
0
41
1
10
30.7096717554287
20
-4.28490024678965
30
0
41
1
10
31.0901181638254
20
-4.4381424430201
30
0
41
1
10
31.74912661296
20
-4.69017605777032
30
0
41
1
10
32.028363678371
20
-4.79271997783019
30
0
41
1
10
32.3071839751734
20
-4.89062889204558
30
0
0
SPLINE
5
D0
100
AcDbEntity
8
1
62
256
6
ByLayer
370
13
48
1
60
0
100
AcDbSpline
70
4
71
3
72
18
73
14
40
0
40
0
40
0
40
0
40
0.388056842948082
40
0.388056842948082
40
0.507019350816092
40
0.507019350816092
40
0.625981858684102
40
0.625981858684102
40
0.863906874420123
40
0.863906874420123
40
0.982869382288134
40
0.982869382288134
40
1
40
1
40
1
40
1
41
1
10
32.307183975373
20
-4.89062889211564
30
0
41
1
10
33.539604462336
20
-5.32339850435886
30
0
41
1
10
34.7638823315418
20
-5.66561167804792
30
0
41
1
10
36.3727161058035
20
-5.97639692273299
30
0
41
1
10
36.7508642410634
20
-6.03952024102972
30
0
41
1
10
37.5094918810769
20
-6.14540940959321
30
0
41
1
10
37.8902334070459
20
-6.1882129300339
30
0
41
1
10
39.0352392069917
20
-6.28458138455275
30
0
41
1
10
39.7972014977541
20
-6.30591709419181
30
0
41
1
10
40.9423124596155
20
-6.27283342606231
30
0
41
1
10
41.3244415190405
20
-6.25091066375629
30
0
41
1
10
41.7601758154444
20
-6.2137394788347
30
0
41
1
10
41.814994021373
20
-6.20884301911033
30
0
41
1
10
41.8697839692318
20
-6.2037298074433
30
0
0
SPLINE
5
D1
100
AcDbEntity
8
1
62
256
6
ByLayer
370
18
48
1
60
0
100
AcDbSpline
70
4
71
3
72
26
73
22
40
0
40
0
40
0
40
0
40
0.124999999999997
40
0.124999999999997
40
0.187499999999997
40
0.187499999999997
40
0.249999999999997
40
0.249999999999997
40
0.5
40
0.5
40
0.5625
40
0.5625
40
0.624999999999999
40
0.624999999999999
40
0.749999999999999
40
0.749999999999999
40
0.875
40
0.875
40
0.9375
40
0.9375
40
1
40
1
40
1
40
1
41
1
10
76.7379463052956
20
-6.21494144777989
30
0
41
1
10
76.6478079581896
20
-6.21486452887674
30
0
41
1
10
76.5619998275711
20
-6.20172696020586
30
0
41
1
10
76.440102709665
20
-6.16146520369034
30
0
41
1
10
76.4006089784033
20
-6.14461028730688
30
0
41
1
10
76.3239905838645
20
-6.10375495331328
30
0
41
1
10
76.2867481173013
20
-6.07964725388109
30
0
41
1
10
76.1089122318846
20
-5.94214463988877
30
0
41
1
10
75.9920650056328
20
-5.77852509767996
30
0
41
1
10
75.879341212632
20
-5.50369200018622
30
0
41
1
10
75.8584849795524
20
-5.44516404488095
30
0
41
1
10
75.8202842075418
20
-5.32070148156711
30
0
41
1
10
75.8029024364373
20
-5.25452508924295
30
0
41
1
10
75.7569602242436
20
-5.04772897875449
30
0
41
1
10
75.7342929526427
20
-4.89817370795038
30
0
41
1
10
75.7046338087639
20
-4.57604254334419
30
0
41
1
10
75.6976412918466
20
-4.40346759624865
30
0
41
1
10
75.6992413125179
20
-4.12685177675618
30
0
41
1
10
75.7018074971205
20
-4.03143478213647
30
0
41
1
10
75.7110485587793
20
-3.83562710798384
30
0
41
1
10
75.7176938274137
20
-3.73564111291418
30
0
41
1
10
75.7263309075627
20
-3.63360681990832
30
0
0
SPLINE
5
D2
100
AcDbEntity
8
1
62
256
6
ByLayer
370
18
48
1
60
0
100
AcDbSpline
70
4
71
3
72
30
73
26
40
0
40
0
40
0
40
0
40
0.0625000000000007
40
0.0625000000000007
40
0.093750000000001
40
0.093750000000001
40
0.125000000000001
40
0.125000000000001
40
0.250000000000001
40
0.250000000000001
40
0.312500000000001
40
0.312500000000001
40
0.375000000000001
40
0.375000000000001
40
0.437500000000001
40
0.437500000000001
40
0.500000000000001
40
0.500000000000001
40
0.625000000000001
40
0.625000000000001
40
0.75
40
0.75
40
0.875
40
0.875
40
1
40
1
40
1
40
1
41
1
10
69.9732283466982
20
3.0749424950306
30
0
41
1
10
69.9890012983495
20
2.90578884738787
30
0
41
1
10
70.0178893159981
20
2.73401526576984
30
0
41
1
10
70.079869920986
20
2.47262955605117
30
0
41
1
10
70.1036443980928
20
2.38487886224212
30
0
41
1
10
70.1573194815508
20
2.20815368709995
30
0
41
1
10
70.1872494760742
20
2.11918750531021
30
0
41
1
10
70.3489017505694
20
1.67904720525655
30
0
41
1
10
70.5178362721369
20
1.33543890960524
30
0
41
1
10
70.8170356614909
20
0.829858168684211
30
0
41
1
10
70.9234279577244
20
0.664889061370843
30
0
41
1
10
71.1457223223066
20
0.343570428311295
30
0
41
1
10
71.261913507767
20
0.186746336808113
30
0
41
1
10
71.5029660565113
20
-0.120309446895732
30
0
41
1
10
71.6278331330732
20
-0.270536794985986
30
0
41
1
10
71.8852219167707
20
-0.565171266681972
30
0
41
1
10
72.0179782157546
20
-0.709840365036143
30
0
41
1
10
72.4250801569235
20
-1.13423730355518
30
0
41
1
10
72.7051207674546
20
-1.40075322556908
30
0
41
1
10
73.2791362996775
20
-1.90730879914329
30
0
41
1
10
73.5728841607348
20
-2.14777988349593
30
0
41
1
10
74.1716100060295
20
-2.60738394835764
30
0
41
1
10
74.4766318570915
20
-2.8264335785023
30
0
41
1
10
75.0967084439818
20
-3.24546958066287
30
0
41
1
10
75.4104340868873
20
-3.4445482506263
30
0
41
1
10
75.7263309075627
20
-3.63360681990832
30
0
0
SPLINE
5
D3
100
AcDbEntity
8
1
62
256
6
ByLayer
370
13
48
1
60
0
100
AcDbSpline
70
4
71
3
72
8
73
4
40
0
40
0
40
0
40
0
40
1
40
1
40
1
40
1
41
1
10
4.12564555152949
20
-6.45148710264701
30
0
41
1
10
4.12646009981691
20
-6.396093743341
30
0
41
1
10
4.12728251426759
20
-6.34070013591554
30
0
41
1
10
4.12811283720367
20
-6.2853062721793
30
0
0
SPLINE
5
D4
100
AcDbEntity
8
1
62
256
6
ByLayer
370
18
48
1
60
0
100
AcDbSpline
70
4
71
3
72
46
73
42
40
0
40
0
40
0
40
0
40
0.0899807461955125
40
0.0899807461955125
40
0.134971119293269
40
0.134971119293269
40
0.179961492391025
40
0.179961492391025
40
0.224951865488781
40
0.224951865488781
40
0.269942238586537
40
0.269942238586537
40
0.359922984782052
40
0.359922984782052
40
0.404913357879808
40
0.404913357879808
40
0.449903730977564
40
0.449903730977564
40
0.49489410407532
40
0.49489410407532
40
0.539884477173077
40
0.539884477173077
40
0.584874850270833
40
0.584874850270833
40
0.629865223368589
40
0.629865223368589
40
0.7198459695641
40
0.7198459695641
40
0.764836342661855
40
0.764836342661855
40
0.809826715759611
40
0.809826715759611
40
0.854817088857366
40
0.854817088857366
40
0.899807461955122
40
0.899807461955122
40
0.944797835052877
40
0.944797835052877
40
0.989788208150633
40
0.989788208150633
40
1
40
1
40
1
40
1
41
1
10
18.8832705924943
20
1.37882964122488
30
0
41
1
10
19.4916340720963
20
1.03529275483368
30
0
41
1
10
20.0984017352544
20
0.692521995744841
30
0
41
1
10
21.0035624301801
20
0.174516638878714
30
0
41
1
10
21.304107776842
20
0.0006058683641186
30
0
41
1
10
21.9052458030206
20
-0.345398417079764
30
0
41
1
10
22.2060674971026
20
-0.517092374634103
30
0
41
1
10
22.8075837325236
20
-0.859020490745934
30
0
41
1
10
23.1083073050778
20
-1.0292025832897
30
0
41
1
10
23.7093113297071
20
-1.36863794520735
30
0
41
1
10
24.0093387636545
20
-1.53832307583625
30
0
41
1
10
24.9128683226374
20
-2.03879513275342
30
0
41
1
10
25.5183025944127
20
-2.36369720280129
30
0
41
1
10
26.4287768626722
20
-2.84167664382423
30
0
41
1
10
26.7334666021636
20
-2.99889761251725
30
0
41
1
10
27.3410359508508
20
-3.30305862285854
30
0
41
1
10
27.6441656585061
20
-3.45093031761087
30
0
41
1
10
28.2487457789277
20
-3.73899842645247
30
0
41
1
10
28.5500590101336
20
-3.87938506205572
30
0
41
1
10
29.1512662364537
20
-4.15198529618849
30
0
41
1
10
29.4519975739908
20
-4.28303699898052
30
0
41
1
10
30.0534675019784
20
-4.53525135763408
30
0
41
1
10
30.3541558494522
20
-4.65648102695675
30
0
41
1
10
30.9550633201639
20
-4.88960684088971
30
0
41
1
10
31.2549093190381
20
-5.00190009616051
30
0
41
1
10
32.1564964670303
20
-5.32132929111629
30
0
41
1
10
32.7607170804827
20
-5.51094436695277
30
0
41
1
10
33.6691435817659
20
-5.76241659432131
30
0
41
1
10
33.9723549756803
20
-5.84082838627654
30
0
41
1
10
34.5814095680387
20
-5.98373614533804
30
0
41
1
10
34.8852677532711
20
-6.04824639546439
30
0
41
1
10
35.4912490135294
20
-6.16401482526766
30
0
41
1
10
35.7933814374972
20
-6.21526498035456
30
0
41
1
10
36.3955390946917
20
-6.30460515770355
30
0
41
1
10
36.6961092807278
20
-6.34239901362412
30
0
41
1
10
37.2977378747005
20
-6.40399534143666
30
0
41
1
10
37.5984866775531
20
-6.4279399975461
30
0
41
1
10
38.1994639677852
20
-6.4622625050018
30
0
41
1
10
38.4995348851579
20
-6.47264264448762
30
0
41
1
10
38.8676257249579
20
-6.47683748071628
30
0
41
1
10
38.9357572377729
20
-6.47725803515621
30
0
41
1
10
39.0039251145167
20
-6.47732280135719
30
0
0
SPLINE
5
D5
100
AcDbEntity
8
1
62
256
6
ByLayer
370
18
48
1
60
0
100
AcDbSpline
70
4
71
3
72
30
73
26
40
0
40
0
40
0
40
0
40
0.0818030434905186
40
0.0818030434905186
40
0.16527549408229
40
0.16527549408229
40
0.248747944674061
40
0.248747944674061
40
0.332220395265832
40
0.332220395265832
40
0.415692845857603
40
0.415692845857603
40
0.499165296449374
40
0.499165296449374
40
0.582637747041145
40
0.582637747041145
40
0.666110197632916
40
0.666110197632916
40
0.749582648224687
40
0.749582648224687
40
0.833055098816459
40
0.833055098816459
40
0.91652754940823
40
0.91652754940823
40
1
40
1
40
1
40
1
41
1
10
65.9729193542209
20
4.75349824677093
30
0
41
1
10
66.2690592356207
20
4.87052941761402
30
0
41
1
10
66.5646659093823
20
4.98200891651686
30
0
41
1
10
67.1616374832375
20
5.19546845909437
30
0
41
1
10
67.4627807614778
20
5.29747464197465
30
0
41
1
10
68.0639752231148
20
5.49035820645989
30
0
41
1
10
68.3637838163672
20
5.58143994090952
30
0
41
1
10
68.9631458010251
20
5.75149522674124
30
0
41
1
10
69.2633708291847
20
5.82992905427426
30
0
41
1
10
69.8642697985104
20
5.97435717264426
30
0
41
1
10
70.164962793454
20
6.04033192947378
30
0
41
1
10
70.7664713515411
20
6.15987726777465
30
0
41
1
10
71.066916537001
20
6.21360175335033
30
0
41
1
10
71.670274723915
20
6.30707502646038
30
0
41
1
10
71.9730498695391
20
6.34696908380459
30
0
41
1
10
72.5802680418022
20
6.4132540620999
30
0
41
1
10
72.8852563199597
20
6.43965089010385
30
0
41
1
10
73.4921747922147
20
6.47832482477446
30
0
41
1
10
73.7945184728961
20
6.49058174701679
30
0
41
1
10
74.3998114006863
20
6.50087832144405
30
0
41
1
10
74.7023188904531
20
6.49901709658351
30
0
41
1
10
75.3066507360895
20
6.48141143987007
30
0
41
1
10
75.6084387871537
20
6.46565734640004
30
0
41
1
10
76.211115810854
20
6.41995274039274
30
0
41
1
10
76.5128052485047
20
6.39017010837443
30
0
41
1
10
76.81514608459
20
6.35366248715312
30
0
0
SPLINE
5
D6
100
AcDbEntity
8
1
62
256
6
ByLayer
370
18
48
1
60
0
100
AcDbSpline
70
4
71
3
72
50
73
46
40
0
40
0
40
0
40
0
40
0.0308461120901653
40
0.0308461120901653
40
0.0616922241803306
40
0.0616922241803306
40
0.123384448360662
40
0.123384448360662
40
0.246768896721325
40
0.246768896721325
40
0.262191952766408
40
0.262191952766408
40
0.27761500881149
40
0.27761500881149
40
0.308461120901656
40
0.308461120901656
40
0.339307232991821
40
0.339307232991821
40
0.370153345081987
40
0.370153345081987
40
0.493537793442649
40
0.493537793442649
40
0.55523001762298
40
0.55523001762298
40
0.570653073668062
40
0.570653073668062
40
0.586076129713145
40
0.586076129713145
40
0.616922241803309
40
0.616922241803309
40
0.740306690163968
40
0.740306690163968
40
0.771152802254134
40
0.771152802254134
40
0.801998914344299
40
0.801998914344299
40
0.86369113852463
40
0.86369113852463
40
0.894537250614795
40
0.894537250614795
40
0.92538336270496
40
0.92538336270496
40
0.987075586885291
40
0.987075586885291
40
1
40
1
40
1
40
1
41
1
10
76.7242344471248
20
-6.45270647224794
30
0
41
1
10
76.3440733467007
20
-6.47891081670935
30
0
41
1
10
75.9640464686512
20
-6.49402681845183
30
0
41
1
10
75.2034165322215
20
-6.50206103877565
30
0
41
1
10
74.8223396349737
20
-6.494923394837
30
0
41
1
10
73.6848308151975
20
-6.44062727394288
30
0
41
1
10
72.9317951332019
20
-6.36074173046796
30
0
41
1
10
70.6776963756743
20
-5.99688804608923
30
0
41
1
10
69.1811035619413
20
-5.58894199762884
30
0
41
1
10
67.4710263524107
20
-4.9655007030857
30
0
41
1
10
67.2805285208156
20
-4.8938935550166
30
0
41
1
10
66.900210634164
20
-4.74681220734013
30
0
41
1
10
66.7102176396906
20
-4.67127870961949
30
0
41
1
10
66.1405328676769
20
-4.43897112931339
30
0
41
1
10
65.7611220460224
20
-4.27650937564499
30
0
41
1
10
65.002226904067
20
-3.93753045596304
30
0
41
1
10
64.6227250596562
20
-3.76103385533168
30
0
41
1
10
63.8626154910323
20
-3.39536567855978
30
0
41
1
10
63.4813366557888
20
-3.20584605909895
30
0
41
1
10
61.5843135577202
20
-2.23740047990424
30
0
41
1
10
60.0883557440479
20
-1.39232591117539
30
0
41
1
10
57.8321125314054
20
-0.0970367856584176
30
0
41
1
10
57.0778513961635
20
0.339098485496038
30
0
41
1
10
56.1280036067104
20
0.882293323791572
30
0
41
1
10
55.9374227686817
20
0.990921093166349
30
0
41
1
10
55.5572878722489
20
1.20658335903659
30
0
41
1
10
55.3675828970592
20
1.31370924018341
30
0
41
1
10
54.7993811015459
20
1.63270277584812
30
0
41
1
10
54.4218210260299
20
1.84223100212208
30
0
41
1
10
52.5382765275862
20
2.87116972397826
30
0
41
1
10
51.0432814644985
20
3.63147748592902
30
0
41
1
10
49.1533810168405
20
4.44720102807102
30
0
41
1
10
48.7743004560003
20
4.6035482720167
30
0
41
1
10
48.0129385591316
20
4.90111302351394
30
0
41
1
10
47.6324102350471
20
5.04163663514959
30
0
41
1
10
46.4929070873272
20
5.43610704562707
30
0
41
1
10
45.7346276316492
20
5.66327492373506
30
0
41
1
10
44.5935472777258
20
5.94489449841601
30
0
41
1
10
44.2122966492113
20
6.02892268371536
30
0
41
1
10
43.4538899417793
20
6.1752886513809
30
0
41
1
10
43.0759772693656
20
6.23784716102062
30
0
41
1
10
41.9447069003292
20
6.39348093726969
30
0
41
1
10
41.1937842950057
20
6.45449967823339
30
0
41
1
10
40.2850341587155
20
6.47609718872837
30
0
41
1
10
40.1276079114482
20
6.47794404612699
30
0
41
1
10
39.970127611435
20
6.47789312386925
30
0
0
SPLINE
5
D7
100
AcDbEntity
8
1
62
256
6
ByLayer
370
18
48
1
60
0
100
AcDbSpline
70
4
71
3
72
12
73
8
40
0
40
0
40
0
40
0
40
0.389122473784012
40
0.389122473784012
40
0.694561236892005
40
0.694561236892005
40
1
40
1
40
1
40
1
41
1
10
7.86014422187816
20
-6.18434999520821
30
0
41
1
10
7.37903818629226
20
-6.26358709437099
30
0
41
1
10
6.89647503918445
20
-6.3261685609028
30
0
41
1
10
6.03062515454099
20
-6.40661599588793
30
0
41
1
10
5.64922745891403
20
-6.43109201199312
30
0
41
1
10
4.88754233971554
20
-6.45787126218153
30
0
41
1
10
4.50675877029272
20
-6.46022696497175
30
0
41
1
10
4.12564555152949
20
-6.45148710264712
30
0
0
SPLINE
5
D8
100
AcDbEntity
8
1
62
256
6
ByLayer
370
18
48
1
60
0
100
AcDbSpline
70
4
71
3
72
12
73
8
40
0
40
0
40
0
40
0
40
0.25
40
0.25
40
0.499999999999999
40
0.499999999999999
40
1
40
1
40
1
40
1
41
1
10
76.7946118221178
20
-6.26366248683047
30
0
41
1
10
76.7995082453995
20
-6.25048850475474
30
0
41
1
10
76.8042056666536
20
-6.23705026641929
30
0
41
1
10
76.81195724987
20
-6.21286920462325
30
0
41
1
10
76.8149946056574
20
-6.20214666334834
30
0
41
1
10
76.8204351297572
20
-6.17838590432604
30
0
41
1
10
76.8193061598229
20
-6.17395653559137
30
0
41
1
10
76.8156074833629
20
-6.17703152202276
30
0
0
SPLINE
5
D9
100
AcDbEntity
8
1
62
256
6
ByLayer
370
13
48
1
60
0
100
AcDbSpline
70
4
71
3
72
8
73
4
40
0
40
0
40
0
40
0
40
1
40
1
40
1
40
1
41
1
10
4.12811283720364
20
-6.2853062721793
30
0
41
1
10
4.15114617482485
20
-6.27298904209243
30
0
41
1
10
4.17593289362208
20
-6.26723302383718
30
0
41
1
10
4.20154128486013
20
-6.26771751301271
30
0
0
LINE
5
76
100
AcDbEntity
8
81
62
256
6
ByLayer
370
18
48
1
60
0
100
AcDbLine
10
79
20
0
30
0
11
84
21
0
31
0
39
0
210
0
220
0
230
1
0
LINE
5
77
100
AcDbEntity
8
1
62
256
6
ByLayer
370
18
48
1
60
0
100
AcDbLine
10
4.564372
20
6.45665
30
0
11
1.203705
21
6.454633
31
0
39
0
210
0
220
0
230
1
0
LINE
5
79
100
AcDbEntity
8
1
62
256
6
ByLayer
370
18
48
1
60
0
100
AcDbLine
10
39.964819
20
6.47789
30
0
11
39.011271
21
6.477318
31
0
39
0
210
0
220
0
230
1
0
LINE
5
7A
100
AcDbEntity
8
1
62
256
6
ByLayer
370
18
48
1
60
0
100
AcDbLine
10
75.365511
20
6.49913
30
0
11
74.42116
21
6.498564
31
0
39
0
210
0
220
0
230
1
0
LINE
5
7B
100
AcDbEntity
8
1
62
256
6
ByLayer
370
18
48
1
60
0
100
AcDbLine
10
74.42116
20
-6.498564
30
0
11
75.365076
21
-6.49913
31
0
39
0
210
0
220
0
230
1
0
LINE
5
7C
100
AcDbEntity
8
1
62
256
6
ByLayer
370
18
48
1
60
0
100
AcDbLine
10
39.011271
20
-6.477318
30
0
11
39.964469
21
-6.47789
31
0
39
0
210
0
220
0
230
1
0
LINE
5
7D
100
AcDbEntity
8
1
62
256
6
ByLayer
370
18
48
1
60
0
100
AcDbLine
10
1.203705
20
-6.454633
30
0
11
4.564007
21
-6.456649
31
0
39
0
210
0
220
0
230
1
0
LINE
5
7E
100
AcDbEntity
8
SK1
62
256
6
ByLayer
370
18
48
1
60
0
100
AcDbLine
10
-43.267949
20
7
30
0
11
-45
21
4
31
0
39
0
210
0
220
0
230
1
0
LINE
5
80
100
AcDbEntity
8
SK1
62
256
6
ByLayer
370
18
48
1
60
0
100
AcDbLine
10
-45
20
-4
30
0
11
-43.267949
21
-7
31
0
39
0
210
0
220
0
230
1
0
LINE
5
81
100
AcDbEntity
8
SK1
62
256
6
ByLayer
370
18
48
1
60
0
100
AcDbLine
10
0
20
7
30
0
11
-43.267949
21
7
31
0
39
0
210
0
220
0
230
1
0
LINE
5
82
100
AcDbEntity
8
SK1
62
256
6
ByLayer
370
18
48
1
60
0
100
AcDbLine
10
-43.267949
20
-7
30
0
11
0
21
-7
31
0
39
0
210
0
220
0
230
1
0
LINE
5
83
100
AcDbEntity
8
SK4
62
256
6
ByLayer
370
18
48
0.05
60
0
100
AcDbLine
10
84
20
0
30
0
11
-50
21
0
31
0
39
0
210
0
220
0
230
1
0
LINE
5
85
100
AcDbEntity
8
4
62
256
6
ByLayer
370
18
48
0.05
60
0
100
AcDbLine
10
79
20
0
30
0
11
0
21
0
31
0
39
0
210
0
220
0
230
1
0
LINE
5
87
100
AcDbEntity
8
80
62
256
6
ByLayer
370
18
48
1
60
0
100
AcDbLine
10
0
20
0
30
0
11
-5
21
0
31
0
39
0
210
0
220
0
230
1
0
LINE
5
88
100
AcDbEntity
8
1
62
256
6
ByLayer
370
13
48
1
60
0
100
AcDbLine
10
0.601612
20
6.727316
30
0
11
0.601612
21
-6.727316
31
0
39
0
210
0
220
0
230
1
0
LINE
5
89
100
AcDbEntity
8
1
62
256
6
ByLayer
370
18
48
1
60
0
100
AcDbLine
10
78.90651
20
-0.320847
30
0
11
78.684618
21
-1.140038
31
0
39
0
210
0
220
0
230
1
0
LINE
5
8A
100
AcDbEntity
8
1
62
256
6
ByLayer
370
18
48
1
60
0
100
AcDbLine
10
75.726331
20
-3.633607
30
0
11
78.894007
21
-0.10329
31
0
39
0
210
0
220
0
230
1
0
LINE
5
8B
100
AcDbEntity
8
1
62
256
6
ByLayer
370
18
48
1
60
0
100
AcDbLine
10
4
20
-6.439324
30
0
11
4
21
1.140887
31
0
39
0
210
0
220
0
230
1
0
LINE
5
8C
100
AcDbEntity
8
1
62
256
6
ByLayer
370
18
48
1
60
0
100
AcDbLine
10
79
20
0
30
0
11
76.737946
21
-6.214941
31
0
39
0
210
0
220
0
230
1
0
LINE
5
8D
100
AcDbEntity
8
1
62
256
6
ByLayer
370
13
48
1
60
0
100
AcDbLine
10
77.251984
20
1.140038
30
0
11
78.90651
21
0.320847
31
0
39
0
210
0
220
0
230
1
0
LINE
5
8E
100
AcDbEntity
8
1
62
256
6
ByLayer
370
18
48
1
60
0
100
AcDbLine
10
78.90651
20
0.320847
30
0
11
78.684618
21
1.140038
31
0
39
0
210
0
220
0
230
1
0
LINE
5
8F
100
AcDbEntity
8
1
62
256
6
ByLayer
370
13
48
1
60
0
100
AcDbLine
10
77.082525
20
0.793614
30
0
11
78.894007
21
-0.10329
31
0
39
0
210
0
220
0
230
1
0
LINE
5
90
100
AcDbEntity
8
1
62
256
6
ByLayer
370
13
48
1
60
0
100
AcDbLine
10
78.684618
20
1.140038
30
0
11
77.251984
21
1.140038
31
0
39
0
210
0
220
0
230
1
0
LINE
5
91
100
AcDbEntity
8
1
62
256
6
ByLayer
370
18
48
1
60
0
100
AcDbLine
10
78.986301
20
0.061456
30
0
11
79
21
0
31
0
39
0
210
0
220
0
230
1
0
LINE
5
92
100
AcDbEntity
8
1
62
256
6
ByLayer
370
13
48
1
60
0
100
AcDbLine
10
1.203705
20
6.454633
30
0
11
1.203705
21
-6.454633
31
0
39
0
210
0
220
0
230
1
0
LINE
5
93
100
AcDbEntity
8
1
62
256
6
ByLayer
370
18
48
1
60
0
100
AcDbLine
10
79
20
0
30
0
11
78.986301
21
-0.061456
31
0
39
0
210
0
220
0
230
1
0
LINE
5
94
100
AcDbEntity
8
1
62
256
6
ByLayer
370
18
48
1
60
0
100
AcDbLine
10
0
20
-7
30
0
11
0
21
7
31
0
39
0
210
0
220
0
230
1
0
LINE
5
95
100
AcDbEntity
8
SK1
62
256
6
ByLayer
370
18
48
1
60
0
100
AcDbLine
10
0
20
-7
30
0
11
0
21
7
31
0
39
0
210
0
220
0
230
1
0
LINE
5
96
100
AcDbEntity
8
SK1
62
256
6
ByLayer
370
18
48
1
60
0
100
AcDbLine
10
-43.267949
20
7
30
0
11
-43.267949
21
-7
31
0
39
0
210
0
220
0
230
1
0
LINE
5
97
100
AcDbEntity
8
SK1
62
256
6
ByLayer
370
18
48
1
60
0
100
AcDbLine
10
-45
20
4
30
0
11
-45
21
-4
31
0
39
0
210
0
220
0
230
1
0
MTEXT
5
DA
100
AcDbEntity
8
SK6
62
256
6
ByLayer
370
13
48
1
60
0
100
AcDbMText
10
19.129169
20
38.882694
30
0
210
0
220
0
230
1
1
\W0.7542;R840-1300-50-A0A1220
40
3.5
41
0
44
1.084337
50
0
71
8
72
5
7
iso_b_vert
0
DIMENSION
5
E7
100
AcDbEntity
8
SK2
62
256
6
ByLayer
370
13
48
1
60
0
100
AcDbDimension
2
DimnDraft3D1
10
76.77
20
-16.713398
30
0
11
36.520059
21
-16.713398
31
0
70
32
71
5
72
1
41
1
210
0
220
0
230
1
3
Standard
100
AcDbAlignedDimension
13
0
23
-1.5875
33
0
14
76.77
24
-8.0875
34
0
50
0
100
AcDbRotatedDimension
1001
ACAD
1000
DSTYLE
1002
{
1070
   279
1070
     0
1070
   172
1070
     1
1070
   173
1070
     1
1070
   340
1005
DB
1070
   271
1070
     2
1070
   272
1070
     2
1070
    77
1070
     1
1070
    73
1070
     0
1070
   171
1070
     3
1070
   274
1070
     4
1070
   177
1070
    35
1070
   176
1070
    35
1070
   178
1070
    35
1070
    48
1040
-0.005
1070
    41
1041
3.5
1070
   147
1041
1.75
1070
    42
1041
1.5875
1070
    44
1041
2.0
1070
   140
1041
3.5
1070
   343
1005
0
1070
   344
1005
0
1002
}
0
DIMENSION
5
F1
100
AcDbEntity
8
SK2
62
256
6
ByLayer
370
13
48
1
60
0
100
AcDbDimension
2
DimnDraft3D2
10
79
20
-35.692985
30
0
11
16.1113
21
-35.692985
31
0
70
32
71
5
72
1
41
1
210
0
220
0
230
1
3
Standard
100
AcDbAlignedDimension
13
-45
23
-8.5875
33
0
14
79
24
-1.5875
34
0
50
0
100
AcDbRotatedDimension
1001
ACAD
1000
DSTYLE
1002
{
1070
   279
1070
     0
1070
   172
1070
     1
1070
   173
1070
     1
1070
   340
1005
DB
1070
   271
1070
     2
1070
   272
1070
     2
1070
    77
1070
     1
1070
    73
1070
     0
1070
   171
1070
     3
1070
   274
1070
     4
1070
   177
1070
    35
1070
   176
1070
    35
1070
   178
1070
    35
1070
    48
1040
-0.005
1070
    41
1041
3.5
1070
   147
1041
1.75
1070
    42
1041
1.5875
1070
    44
1041
2.0
1070
   140
1041
3.5
1070
   343
1005
0
1070
   344
1005
0
1002
}
0
DIMENSION
5
FB
100
AcDbEntity
8
SK2
62
256
6
ByLayer
370
13
48
1
60
0
100
AcDbDimension
2
DimnDraft3D3
10
79
20
18.109119
30
0
11
45.385
21
18.109119
31
0
70
32
71
5
72
1
41
1
210
0
220
0
230
1
3
Standard
100
AcDbAlignedDimension
13
11.77
23
8.0875
33
0
14
79
24
1.5875
34
0
50
0
100
AcDbRotatedDimension
1001
ACAD
1000
DSTYLE
1002
{
1070
   279
1070
     0
1070
   172
1070
     1
1070
   173
1070
     1
1070
   340
1005
DB
1070
   271
1070
     2
1070
   272
1070
     2
1070
    77
1070
     1
1070
    73
1070
     0
1070
   171
1070
     3
1070
   274
1070
     4
1070
   177
1070
    35
1070
   176
1070
    35
1070
   178
1070
    35
1070
    48
1040
-0.005
1070
    41
1041
3.5
1070
   147
1041
1.75
1070
    42
1041
1.5875
1070
    44
1041
2.0
1070
   140
1041
3.5
1070
   343
1005
0
1070
   344
1005
0
1002
}
0
DIMENSION
5
105
100
AcDbEntity
8
SK2
62
256
6
ByLayer
370
13
48
1
60
0
100
AcDbDimension
2
DimnDraft3D4
10
76.77
20
-19.302503
30
0
11
88.981425
21
-19.302503
31
0
70
32
71
5
72
1
41
1
210
0
220
0
230
1
3
Standard
100
AcDbAlignedDimension
13
79
23
-1.5875
33
0
14
76.77
24
-8.0875
34
0
50
0
100
AcDbRotatedDimension
1001
ACAD
1000
DSTYLE
1002
{
1070
   279
1070
     0
1070
   172
1070
     1
1070
   173
1070
     1
1070
   340
1005
DB
1070
   271
1070
     2
1070
   272
1070
     2
1070
    77
1070
     1
1070
    73
1070
     0
1070
   171
1070
     3
1070
   274
1070
     4
1070
   177
1070
    35
1070
   176
1070
    35
1070
   178
1070
    35
1070
    48
1040
-0.005
1070
    41
1041
3.5
1070
   147
1041
1.75
1070
    42
1041
1.5875
1070
    44
1041
2.0
1070
   140
1041
3.5
1070
   343
1005
0
1070
   344
1005
0
1002
}
0
DIMENSION
5
10F
100
AcDbEntity
8
SK2
62
256
6
ByLayer
370
13
48
1
60
0
100
AcDbDimension
2
DimnDraft3D5
10
76.77
20
-25.343428
30
0
11
13.030676
21
-25.343428
31
0
70
32
71
5
72
1
41
1
210
0
220
0
230
1
3
Standard
100
AcDbAlignedDimension
13
-45
23
-8.5875
33
0
14
76.77
24
-8.0875
34
0
50
0
100
AcDbRotatedDimension
1001
ACAD
1000
DSTYLE
1002
{
1070
   279
1070
     0
1070
   172
1070
     1
1070
   173
1070
     1
1070
   340
1005
DB
1070
   271
1070
     2
1070
   272
1070
     2
1070
    77
1070
     1
1070
    73
1070
     0
1070
   171
1070
     3
1070
   274
1070
     4
1070
   177
1070
    35
1070
   176
1070
    35
1070
   178
1070
    35
1070
    48
1040
-0.005
1070
    41
1041
3.5
1070
   147
1041
1.75
1070
    42
1041
1.5875
1070
    44
1041
2.0
1070
   140
1041
3.5
1070
   343
1005
0
1070
   344
1005
0
1002
}
0
DIMENSION
5
11A
100
AcDbEntity
8
SK2
62
256
6
ByLayer
370
13
48
1
60
0
100
AcDbDimension
2
DimnDraft3D6
10
-55.625163
20
7
30
0
11
-56.250163
21
25.47418
31
0
70
33
71
5
72
1
41
1
210
0
220
0
230
1
3
Standard
100
AcDbAlignedDimension
13
-46.5875
23
-7
33
0
14
-46.5875
24
7
34
0
1001
ACAD
1000
DSTYLE
1002
{
1070
   279
1070
     0
1070
    74
1070
     0
1070
   173
1070
     1
1070
   340
1005
DB
1070
   271
1070
     3
1070
   272
1070
     2
1070
    77
1070
     1
1070
    73
1070
     0
1070
   171
1070
     3
1070
   274
1070
     4
1070
   177
1070
    35
1070
   176
1070
    35
1070
   178
1070
    35
1070
    48
1040
-0.005
1070
    41
1041
3.5
1070
   147
1041
1.75
1070
    42
1041
1.5875
1070
    44
1041
2.0
1070
   140
1041
3.5
1070
   343
1005
0
1070
   344
1005
0
1002
}
0
DIMENSION
5
125
100
AcDbEntity
8
2
62
256
6
ByLayer
370
13
48
1
60
0
100
AcDbDimension
2
DimnDraft3D7
10
93.083343
20
6.5
30
0
11
88.458343
21
23.567266
31
0
70
33
71
5
72
1
41
1
210
0
220
0
230
1
3
Standard
100
AcDbAlignedDimension
13
78.3575
23
-6.5
33
0
14
78.3575
24
6.5
34
0
1001
ACAD
1000
DSTYLE
1002
{
1070
   279
1070
     0
1070
    74
1070
     0
1070
   173
1070
     1
1070
   340
1005
DB
1070
   271
1070
     3
1070
   272
1070
     2
1070
    77
1070
     1
1070
    73
1070
     0
1070
   171
1070
     3
1070
   274
1070
     4
1070
   177
1070
    35
1070
   176
1070
    35
1070
   178
1070
    35
1070
    48
1040
-0.005
1070
    41
1041
3.5
1070
   147
1041
1.75
1070
    42
1041
1.5875
1070
    44
1041
2.0
1070
   140
1041
3.5
1070
   343
1005
0
1070
   344
1005
0
1002
}
0
ENDSEC
0
SECTION
2
OBJECTS
0
DICTIONARY
5
190
330
0
100
AcDbDictionary
280
0
281
1
3
ACAD_GROUP
350
191
3
ACAD_MLINESTYLE
350
192
0
DICTIONARY
5
191
330
0
100
AcDbDictionary
280
0
281
1
0
DICTIONARY
5
192
330
0
100
AcDbDictionary
280
0
281
1
3
Standard
350
18
0
MLINESTYLE
5
18
330
192
100
AcDbMlineStyle
2
Standard
70
0
3

62
256
51
90
52
90
71
2
49
-0.5
62
256
6
ByLayer
49
0.5
62
256
6
ByLayer
0
RASTERVARIABLES
5
17e
330

100
AcDbRasterVariables
90
0
70
1
71
1
72
1
0
ENDSEC
0
EOF
