0
SECTION
2
HEADER
9
$ACADVER
1
AC1015
9
$DWGCODEPAGE
3
ANSI_1252
9
$HANDSEED
5
1a1
9
$ANGBASE
50
0
9
$ANGDIR
70
0
9
$ATTMODE
70
1
9
$AUNITS
70
0
9
$AUPREC
70
0
9
$CECOLOR
62
256
9
$CELTSCALE
40
1
9
$CELTYPE
6
ByLayer
9
$CELWEIGHT
370
18
9
$CLAYER
8
0
9
$CMLJUST
70
0
9
$CMLSCALE
40
1
9
$CMLSTYLE
2
Standard
9
$DIMSTYLE
2
Standard
9
$TEXTSIZE
40
0.2
9
$TEXTSTYLE
7
Standard
9
$LUNITS
70
2
9
$LUPREC
70
4
9
$EXTNAMES
290
1
9
$INSUNITS
70
4
9
$LTSCALE
40
1
9
$LWDISPLAY
290
1
9
$PDMODE
70
0
9
$PDSIZE
40
0
9
$PLINEGEN
70
0
0
ENDSEC
0
SECTION
2
CLASSES
0
CLASS
1
RASTERVARIABLES
2
AcDbRasterVariables
3
ISM
90
0
280
0
281
0
0
ENDSEC
0
SECTION
2
TABLES
0
TABLE
2
VPORT
5
197
100
AcDbSymbolTable
0
VPORT
5
1
100
AcDbSymbolTableRecord
100
AcDbViewportTableRecord
2
*Active
70
0
10
0
20
0
11
1
21
1
12
-1
22
1
13
0
23
0
14
0.5
24
0.5
15
10
25
10
16
0
26
0
36
1
17
0
27
0
37
0
0
ENDTAB
0
TABLE
2
LTYPE
5
198
100
AcDbSymbolTable
0
LTYPE
5
14
100
AcDbSymbolTableRecord
100
AcDbLinetypeTableRecord
70
0
2
ByBlock
3

72
65
73
0
40
0
0
LTYPE
5
15
100
AcDbSymbolTableRecord
100
AcDbLinetypeTableRecord
70
0
2
ByLayer
3

72
65
73
0
40
0
0
LTYPE
5
16
100
AcDbSymbolTableRecord
100
AcDbLinetypeTableRecord
70
0
2
CONTINUOUS
3
Solid line
72
65
73
0
40
0
0
LTYPE
5
6A
100
AcDbSymbolTableRecord
100
AcDbLinetypeTableRecord
70
0
2
CENTER
3
____ _ ____ _ ____ _ ____
72
65
73
4
40
47.5
49
22
74
0
49
-8.5
74
0
49
8.5
74
0
49
-8.5
74
0
0
LTYPE
5
6B
100
AcDbSymbolTableRecord
100
AcDbLinetypeTableRecord
70
0
2
DASHED
3
__ __ __ __ __ __ __ __ __
72
65
73
2
40
25.72
49
12.86
74
0
49
-12.86
74
0
0
ENDTAB
0
TABLE
2
LAYER
5
199
100
AcDbSymbolTable
0
LAYER
5
10
100
AcDbSymbolTableRecord
100
AcDbLayerTableRecord
2
0
70
0
62
7
6
CONTINUOUS
290
1
370
-3
390
0
0
LAYER
5
6D
100
AcDbSymbolTableRecord
100
AcDbLayerTableRecord
2
81
70
0
62
-3
6
CONTINUOUS
290
1
370
-3
390
0
0
LAYER
5
6F
100
AcDbSymbolTableRecord
100
AcDbLayerTableRecord
2
80
70
0
62
-6
6
CONTINUOUS
290
1
370
-3
390
0
0
LAYER
5
74
100
AcDbSymbolTableRecord
100
AcDbLayerTableRecord
2
2
70
0
62
7
6
CONTINUOUS
290
1
370
-3
390
0
0
LAYER
5
78
100
AcDbSymbolTableRecord
100
AcDbLayerTableRecord
2
1
70
0
62
4
6
CONTINUOUS
290
1
370
-3
390
0
0
LAYER
5
86
100
AcDbSymbolTableRecord
100
AcDbLayerTableRecord
2
4
70
0
62
-2
6
CENTER
290
1
370
-3
390
0
0
LAYER
5
183
100
AcDbSymbolTableRecord
100
AcDbLayerTableRecord
2
SK2
70
0
62
7
6
CONTINUOUS
290
1
370
-3
390
0
0
LAYER
5
184
100
AcDbSymbolTableRecord
100
AcDbLayerTableRecord
2
SK1
70
0
62
4
6
CONTINUOUS
290
1
370
-3
390
0
0
LAYER
5
185
100
AcDbSymbolTableRecord
100
AcDbLayerTableRecord
2
SK4
70
0
62
2
6
CENTER
290
1
370
-3
390
0
0
LAYER
5
186
100
AcDbSymbolTableRecord
100
AcDbLayerTableRecord
2
SK6
70
0
62
5
6
CONTINUOUS
290
1
370
-3
390
0
0
ENDTAB
0
TABLE
2
STYLE
5
19a
100
AcDbSymbolTable
0
STYLE
5
11
100
AcDbSymbolTableRecord
100
AcDbTextStyleTableRecord
2
Standard
3
txt
70
0
71
0
40
0
41
1
42
0
50
0
0
STYLE
5
DF
100
AcDbSymbolTableRecord
100
AcDbTextStyleTableRecord
2
iso_b_vert
3
simplex.shx
70
0
71
0
40
0
41
1
42
0
50
0
0
STYLE
5
E0
100
AcDbSymbolTableRecord
100
AcDbTextStyleTableRecord
2
DWGDirectTextStyle
3
simplex
70
0
71
0
40
0
41
1
42
0
50
0
0
ENDTAB
0
TABLE
2
DIMSTYLE
5
19b
100
AcDbSymbolTable
100
AcDbDimStyleTable
0
DIMSTYLE
105
27
100
AcDbSymbolTableRecord
100
AcDbDimStyleTableRecord
2
Standard
70
0
3
<>
41
0.18
42
0.0625
44
0.18
140
0.18
147
0.09
73
0
74
0
77
1
271
2
275
0
278
52
280
0
340
11
0
ENDTAB
0
TABLE
2
VIEW
5
19c
100
AcDbSymbolTable
0
ENDTAB
0
TABLE
2
UCS
5
19d
100
AcDbSymbolTable
0
ENDTAB
0
TABLE
2
APPID
5
19e
100
AcDbSymbolTable
0
APPID
5
12
100
AcDbSymbolTableRecord
100
AcDbRegAppTableRecord
2
ACAD
70
0
0
ENDTAB
0
TABLE
2
BLOCK_RECORD
5
19f
100
AcDbSymbolTable
0
BLOCK_RECORD
5
1F
100
AcDbSymbolTableRecord
100
AcDbBlockTableRecord
2
*Model_Space
340
0
70
0
0
BLOCK_RECORD
5
1B
100
AcDbSymbolTableRecord
100
AcDbBlockTableRecord
2
*Paper_Space
340
0
70
0
0
BLOCK_RECORD
5
23
100
AcDbSymbolTableRecord
100
AcDbBlockTableRecord
2
*Paper_Space0
340
0
70
0
0
BLOCK_RECORD
5
E2
100
AcDbSymbolTableRecord
100
AcDbBlockTableRecord
2
DimnDraft3D1
340
0
70
0
0
BLOCK_RECORD
5
EC
100
AcDbSymbolTableRecord
100
AcDbBlockTableRecord
2
DimnDraft3D2
340
0
70
0
0
BLOCK_RECORD
5
F6
100
AcDbSymbolTableRecord
100
AcDbBlockTableRecord
2
DimnDraft3D3
340
0
70
0
0
BLOCK_RECORD
5
100
100
AcDbSymbolTableRecord
100
AcDbBlockTableRecord
2
DimnDraft3D4
340
0
70
0
0
BLOCK_RECORD
5
10A
100
AcDbSymbolTableRecord
100
AcDbBlockTableRecord
2
DimnDraft3D5
340
0
70
0
0
BLOCK_RECORD
5
114
100
AcDbSymbolTableRecord
100
AcDbBlockTableRecord
2
DimnDraft3D6
340
0
70
0
0
BLOCK_RECORD
5
11F
100
AcDbSymbolTableRecord
100
AcDbBlockTableRecord
2
DimnDraft3D7
340
0
70
0
0
ENDTAB
0
ENDSEC
0
SECTION
2
BLOCKS
0
BLOCK
5
20
100
AcDbEntity
8
0
100
AcDbBlockBegin
2
*Model_Space
70
0
10
0
20
0
30
0
3
*Model_Space
0
ENDBLK
5
21
100
AcDbEntity
8
0
100
AcDbBlockEnd
0
BLOCK
5
1C
100
AcDbEntity
8
0
100
AcDbBlockBegin
2
*Paper_Space
70
0
10
0
20
0
30
0
3
*Paper_Space
0
ENDBLK
5
1D
100
AcDbEntity
8
0
100
AcDbBlockEnd
0
BLOCK
5
24
100
AcDbEntity
8
0
100
AcDbBlockBegin
2
*Paper_Space0
70
0
10
0
20
0
30
0
3
*Paper_Space0
0
ENDBLK
5
25
100
AcDbEntity
8
0
100
AcDbBlockEnd
0
BLOCK
5
E9
100
AcDbEntity
8
0
100
AcDbBlockBegin
2
DimnDraft3D1
70
0
10
0
20
0
30
0
3
DimnDraft3D1
0
MTEXT
5
E3
100
AcDbEntity
8
SK2
62
256
6
ByLayer
370
13
48
1
60
0
100
AcDbMText
10
23.601375
20
-15.738398
30
0
210
0
220
0
230
1
1
\W0.7317;59,80
40
3.5
41
0
44
1.084337
50
0
71
7
72
5
7
iso_b_vert
0
LINE
5
E4
100
AcDbEntity
8
SK2
62
256
6
ByLayer
370
13
48
1
60
0
100
AcDbLine
10
0
20
-1.5875
30
0
11
0
21
-18.613398
31
0
39
0
210
0
220
0
230
1
0
LINE
5
E5
100
AcDbEntity
8
SK2
62
256
6
ByLayer
370
13
48
1
60
0
100
AcDbLine
10
59.8
20
-7.9875
30
0
11
59.8
21
-18.613398
31
0
39
0
210
0
220
0
230
1
0
LINE
5
E6
100
AcDbEntity
8
SK2
62
256
6
ByLayer
370
13
48
1
60
0
100
AcDbLine
10
0
20
-16.613398
30
0
11
59.8
21
-16.613398
31
0
39
0
210
0
220
0
230
1
0
SOLID
5
E7
100
AcDbEntity
8
SK2
62
256
6
ByLayer
370
13
48
1
60
0
100
AcDbTrace
10
0
20
-16.613398
30
0
11
3.499998
21
-16.152615
31
0
12
3.500002
22
-17.074182
32
0
13
0
23
-16.613398
33
0
39
0
210
0
220
0
230
1
0
SOLID
5
E8
100
AcDbEntity
8
SK2
62
256
6
ByLayer
370
13
48
1
60
0
100
AcDbTrace
10
59.8
20
-16.613398
30
0
11
56.300002
21
-17.074182
31
0
12
56.299998
22
-16.152615
32
0
13
59.8
23
-16.613398
33
0
39
0
210
0
220
0
230
1
0
ENDBLK
5
EA
100
AcDbEntity
8
0
100
AcDbBlockEnd
0
BLOCK
5
F3
100
AcDbEntity
8
0
100
AcDbBlockBegin
2
DimnDraft3D2
70
0
10
0
20
0
30
0
3
DimnDraft3D2
0
MTEXT
5
ED
100
AcDbEntity
8
SK2
62
256
6
ByLayer
370
13
48
1
60
0
100
AcDbMText
10
2.322221
20
-34.817985
30
0
210
0
220
0
230
1
1
\W0.6930;107,00
40
3.5
41
0
44
1.084337
50
0
71
7
72
5
7
iso_b_vert
0
LINE
5
EE
100
AcDbEntity
8
SK2
62
256
6
ByLayer
370
13
48
1
60
0
100
AcDbLine
10
-45
20
-8.5875
30
0
11
-45
21
-37.692985
31
0
39
0
210
0
220
0
230
1
0
LINE
5
EF
100
AcDbEntity
8
SK2
62
256
6
ByLayer
370
13
48
1
60
0
100
AcDbLine
10
62
20
-1.5875
30
0
11
62
21
-37.692985
31
0
39
0
210
0
220
0
230
1
0
LINE
5
F0
100
AcDbEntity
8
SK2
62
256
6
ByLayer
370
13
48
1
60
0
100
AcDbLine
10
-45
20
-35.692985
30
0
11
62
21
-35.692985
31
0
39
0
210
0
220
0
230
1
0
SOLID
5
F1
100
AcDbEntity
8
SK2
62
256
6
ByLayer
370
13
48
1
60
0
100
AcDbTrace
10
-45
20
-35.692985
30
0
11
-41.500002
21
-35.232202
31
0
12
-41.499998
22
-36.153769
32
0
13
-45
23
-35.692985
33
0
39
0
210
0
220
0
230
1
0
SOLID
5
F2
100
AcDbEntity
8
SK2
62
256
6
ByLayer
370
13
48
1
60
0
100
AcDbTrace
10
62
20
-35.692985
30
0
11
58.500002
21
-36.153769
31
0
12
58.499998
22
-35.232202
32
0
13
62
23
-35.692985
33
0
39
0
210
0
220
0
230
1
0
ENDBLK
5
F4
100
AcDbEntity
8
0
100
AcDbBlockEnd
0
BLOCK
5
FD
100
AcDbEntity
8
0
100
AcDbBlockBegin
2
DimnDraft3D3
70
0
10
0
20
0
30
0
3
DimnDraft3D3
0
MTEXT
5
F7
100
AcDbEntity
8
SK2
62
256
6
ByLayer
370
13
48
1
60
0
100
AcDbMText
10
37.067105
20
18.884119
30
0
210
0
220
0
230
1
1
\W0.7581;40,60
40
3.5
41
0
44
1.084337
50
0
71
7
72
5
7
iso_b_vert
0
LINE
5
F8
100
AcDbEntity
8
SK2
62
256
6
ByLayer
370
13
48
1
60
0
100
AcDbLine
10
21.4
20
7.9875
30
0
11
21.4
21
20.009119
31
0
39
0
210
0
220
0
230
1
0
LINE
5
F9
100
AcDbEntity
8
SK2
62
256
6
ByLayer
370
13
48
1
60
0
100
AcDbLine
10
62
20
1.5875
30
0
11
62
21
20.009119
31
0
39
0
210
0
220
0
230
1
0
LINE
5
FA
100
AcDbEntity
8
SK2
62
256
6
ByLayer
370
13
48
1
60
0
100
AcDbLine
10
21.4
20
18.009119
30
0
11
62
21
18.009119
31
0
39
0
210
0
220
0
230
1
0
SOLID
5
FB
100
AcDbEntity
8
SK2
62
256
6
ByLayer
370
13
48
1
60
0
100
AcDbTrace
10
21.4
20
18.009119
30
0
11
24.899998
21
18.469903
31
0
12
24.900002
22
17.548335
32
0
13
21.4
23
18.009119
33
0
39
0
210
0
220
0
230
1
0
SOLID
5
FC
100
AcDbEntity
8
SK2
62
256
6
ByLayer
370
13
48
1
60
0
100
AcDbTrace
10
62
20
18.009119
30
0
11
58.500002
21
17.548335
31
0
12
58.499998
22
18.469903
32
0
13
62
23
18.009119
33
0
39
0
210
0
220
0
230
1
0
ENDBLK
5
FE
100
AcDbEntity
8
0
100
AcDbBlockEnd
0
BLOCK
5
107
100
AcDbEntity
8
0
100
AcDbBlockBegin
2
DimnDraft3D4
70
0
10
0
20
0
30
0
3
DimnDraft3D4
0
MTEXT
5
101
100
AcDbEntity
8
SK2
62
256
6
ByLayer
370
13
48
1
60
0
100
AcDbMText
10
68.840636
20
-18.327503
30
0
210
0
220
0
230
1
1
\W0.7150;2,20
40
3.5
41
0
44
1.084337
50
0
71
7
72
5
7
iso_b_vert
0
LINE
5
102
100
AcDbEntity
8
SK2
62
256
6
ByLayer
370
13
48
1
60
0
100
AcDbLine
10
62
20
-1.5875
30
0
11
62
21
-21.202503
31
0
39
0
210
0
220
0
230
1
0
LINE
5
103
100
AcDbEntity
8
SK2
62
256
6
ByLayer
370
13
48
1
60
0
100
AcDbLine
10
59.8
20
-7.9875
30
0
11
59.8
21
-21.202503
31
0
39
0
210
0
220
0
230
1
0
LINE
5
104
100
AcDbEntity
8
SK2
62
256
6
ByLayer
370
13
48
1
60
0
100
AcDbLine
10
51.05
20
-19.202503
30
0
11
75.997215
21
-19.202503
31
0
39
0
210
0
220
0
230
1
0
SOLID
5
105
100
AcDbEntity
8
SK2
62
256
6
ByLayer
370
13
48
1
60
0
100
AcDbTrace
10
62
20
-19.202503
30
0
11
65.499998
21
-18.741719
31
0
12
65.500002
22
-19.663287
32
0
13
62
23
-19.202503
33
0
39
0
210
0
220
0
230
1
0
SOLID
5
106
100
AcDbEntity
8
SK2
62
256
6
ByLayer
370
13
48
1
60
0
100
AcDbTrace
10
59.8
20
-19.202503
30
0
11
56.300002
21
-19.663287
31
0
12
56.299998
22
-18.741719
32
0
13
59.8
23
-19.202503
33
0
39
0
210
0
220
0
230
1
0
ENDBLK
5
108
100
AcDbEntity
8
0
100
AcDbBlockEnd
0
BLOCK
5
111
100
AcDbEntity
8
0
100
AcDbBlockBegin
2
DimnDraft3D5
70
0
10
0
20
0
30
0
3
DimnDraft3D5
0
MTEXT
5
10B
100
AcDbEntity
8
SK2
62
256
6
ByLayer
370
13
48
1
60
0
100
AcDbMText
10
-0.942613
20
-24.468428
30
0
210
0
220
0
230
1
1
\W0.7145;104,80
40
3.5
41
0
44
1.084337
50
0
71
7
72
5
7
iso_b_vert
0
LINE
5
10C
100
AcDbEntity
8
SK2
62
256
6
ByLayer
370
13
48
1
60
0
100
AcDbLine
10
-45
20
-8.5875
30
0
11
-45
21
-27.343428
31
0
39
0
210
0
220
0
230
1
0
LINE
5
10D
100
AcDbEntity
8
SK2
62
256
6
ByLayer
370
13
48
1
60
0
100
AcDbLine
10
59.8
20
-7.9875
30
0
11
59.8
21
-27.343428
31
0
39
0
210
0
220
0
230
1
0
LINE
5
10E
100
AcDbEntity
8
SK2
62
256
6
ByLayer
370
13
48
1
60
0
100
AcDbLine
10
-45
20
-25.343428
30
0
11
59.8
21
-25.343428
31
0
39
0
210
0
220
0
230
1
0
SOLID
5
10F
100
AcDbEntity
8
SK2
62
256
6
ByLayer
370
13
48
1
60
0
100
AcDbTrace
10
-45
20
-25.343428
30
0
11
-41.500002
21
-24.882645
31
0
12
-41.499998
22
-25.804212
32
0
13
-45
23
-25.343428
33
0
39
0
210
0
220
0
230
1
0
SOLID
5
110
100
AcDbEntity
8
SK2
62
256
6
ByLayer
370
13
48
1
60
0
100
AcDbTrace
10
59.8
20
-25.343428
30
0
11
56.300002
21
-25.804212
31
0
12
56.299998
22
-24.882645
32
0
13
59.8
23
-25.343428
33
0
39
0
210
0
220
0
230
1
0
ENDBLK
5
112
100
AcDbEntity
8
0
100
AcDbBlockEnd
0
BLOCK
5
11C
100
AcDbEntity
8
0
100
AcDbBlockBegin
2
DimnDraft3D6
70
0
10
0
20
0
30
0
3
DimnDraft3D6
0
MTEXT
5
115
100
AcDbEntity
8
SK2
62
256
6
ByLayer
370
13
48
1
60
0
100
AcDbMText
10
-55.375163
20
26.34918
30
0
210
0
220
0
230
1
1
\W0.7145;14,000
40
3.5
41
0
44
1.084337
50
90
71
7
72
5
7
iso_b_vert
0
MTEXT
5
116
100
AcDbEntity
8
SK2
62
256
6
ByLayer
370
13
48
1
60
0
100
AcDbMText
10
-55.375163
20
21.126524
30
0
210
0
220
0
230
1
1
%%c
40
3.5
41
0
44
1.084337
50
90
71
7
72
5
7
iso_b_vert
0
LINE
5
117
100
AcDbEntity
8
SK2
62
256
6
ByLayer
370
13
48
1
60
0
100
AcDbLine
10
-46.5875
20
-7
30
0
11
-55.625163
21
-7
31
0
39
0
210
0
220
0
230
1
0
LINE
5
118
100
AcDbEntity
8
SK2
62
256
6
ByLayer
370
13
48
1
60
0
100
AcDbLine
10
-46.5875
20
7
30
0
11
-55.625163
21
7
31
0
39
0
210
0
220
0
230
1
0
LINE
5
119
100
AcDbEntity
8
SK2
62
256
6
ByLayer
370
13
48
1
60
0
100
AcDbLine
10
-53.625163
20
-7
30
0
11
-53.625163
21
38.230759
31
0
39
0
210
0
220
0
230
1
0
SOLID
5
11A
100
AcDbEntity
8
SK2
62
256
6
ByLayer
370
13
48
1
60
0
100
AcDbTrace
10
-53.625163
20
-7
30
0
11
-54.085946
21
-3.500002
31
0
12
-53.164379
22
-3.499998
32
0
13
-53.625163
23
-7
33
0
39
0
210
0
220
0
230
1
0
SOLID
5
11B
100
AcDbEntity
8
SK2
62
256
6
ByLayer
370
13
48
1
60
0
100
AcDbTrace
10
-53.625163
20
7
30
0
11
-53.164379
21
3.500002
31
0
12
-54.085946
22
3.499998
32
0
13
-53.625163
23
7
33
0
39
0
210
0
220
0
230
1
0
ENDBLK
5
11D
100
AcDbEntity
8
0
100
AcDbBlockEnd
0
BLOCK
5
127
100
AcDbEntity
8
0
100
AcDbBlockBegin
2
DimnDraft3D7
70
0
10
0
20
0
30
0
3
DimnDraft3D7
0
MTEXT
5
120
100
AcDbEntity
8
2
62
256
6
ByLayer
370
13
48
1
60
0
100
AcDbMText
10
72.333343
20
24.342266
30
0
210
0
220
0
230
1
1
\W0.6930;12,800
40
3.5
41
0
44
1.084337
50
90
71
7
72
5
7
iso_b_vert
0
MTEXT
5
121
100
AcDbEntity
8
2
62
256
6
ByLayer
370
13
48
1
60
0
100
AcDbMText
10
72.333343
20
19.11961
30
0
210
0
220
0
230
1
1
%%c
40
3.5
41
0
44
1.084337
50
90
71
7
72
5
7
iso_b_vert
0
LINE
5
122
100
AcDbEntity
8
2
62
256
6
ByLayer
370
13
48
1
60
0
100
AcDbLine
10
61.3875
20
-6.4
30
0
11
76.083343
21
-6.4
31
0
39
0
210
0
220
0
230
1
0
LINE
5
123
100
AcDbEntity
8
2
62
256
6
ByLayer
370
13
48
1
60
0
100
AcDbLine
10
61.3875
20
6.4
30
0
11
76.083343
21
6.4
31
0
39
0
210
0
220
0
230
1
0
LINE
5
124
100
AcDbEntity
8
2
62
256
6
ByLayer
370
13
48
1
60
0
100
AcDbLine
10
74.083343
20
-6.4
30
0
11
74.083343
21
35.855424
31
0
39
0
210
0
220
0
230
1
0
SOLID
5
125
100
AcDbEntity
8
2
62
256
6
ByLayer
370
13
48
1
60
0
100
AcDbTrace
10
74.083343
20
-6.4
30
0
11
73.622559
21
-2.900002
31
0
12
74.544126
22
-2.899998
32
0
13
74.083343
23
-6.4
33
0
39
0
210
0
220
0
230
1
0
SOLID
5
126
100
AcDbEntity
8
2
62
256
6
ByLayer
370
13
48
1
60
0
100
AcDbTrace
10
74.083343
20
6.4
30
0
11
74.544126
21
2.900002
31
0
12
73.622559
22
2.899998
32
0
13
74.083343
23
6.4
33
0
39
0
210
0
220
0
230
1
0
ENDBLK
5
128
100
AcDbEntity
8
0
100
AcDbBlockEnd
0
ENDSEC
0
SECTION
2
ENTITIES
0
ARC
5
9B
100
AcDbEntity
8
1
62
256
6
ByLayer
370
18
48
1
60
0
100
AcDbCircle
39
0
10
0
20
6.2
30
0
40
0.800000000000003
210
0
220
0
230
1
100
AcDbArc
50
37.087586
51
90
0
ARC
5
9C
100
AcDbEntity
8
1
62
256
6
ByLayer
370
18
48
1
60
0
100
AcDbCircle
39
0
10
-1.276343
20
-7.164856
30
0
40
0.799999999999997
210
0
220
0
230
-1
100
AcDbArc
50
37.087586
51
90.034377
0
ARC
5
9D
100
AcDbEntity
8
1
62
256
6
ByLayer
370
18
48
1
60
0
100
AcDbCircle
39
0
10
0
20
-6.2
30
0
40
0.800000000000003
210
0
220
0
230
1
100
AcDbArc
50
270
51
322.912414
0
ARC
5
9E
100
AcDbEntity
8
1
62
256
6
ByLayer
370
18
48
1
60
0
100
AcDbCircle
39
0
10
-1.276343
20
7.164856
30
0
40
0.799999999999997
210
0
220
0
230
-1
100
AcDbArc
50
269.965623
51
322.912414
0
ELLIPSE
5
9F
100
AcDbEntity
8
1
62
256
6
ByLayer
370
18
48
1
60
0
100
AcDbEllipse
10
4.25
20
-6.336034
30
0
11
0.25
21
0
31
0
210
0
220
0
230
1
40
0.999993
41
1.57892637194514
42
3.12416386225124
0
ELLIPSE
5
A0
100
AcDbEntity
8
1
62
256
6
ByLayer
370
18
48
1
60
0
100
AcDbEllipse
10
4.25
20
6.336034
30
0
11
0.25
21
0
31
0
210
0
220
0
230
1
40
0.999993
41
-3.12416386225114
42
-1.55859627738521
0
ELLIPSE
5
A1
100
AcDbEntity
8
1
62
256
6
ByLayer
370
18
48
1
60
0
100
AcDbEllipse
10
62.000542
20
0.001398
30
0
11
2.34676924831808
21
6.39838756431611
31
0
210
0
220
0
230
-1
40
0.082138
41
2.89827893732293
42
2.99035955366646
0
ELLIPSE
5
A2
100
AcDbEntity
8
1
62
256
6
ByLayer
370
18
48
1
60
0
100
AcDbEllipse
10
62.018937
20
-0.051613
30
0
11
0.135658545992581
21
0.401200806125363
31
0
210
0
220
0
230
-1
40
0.065863
41
-2.32292776269922
42
-1.61522943255222
0
ELLIPSE
5
A3
100
AcDbEntity
8
1
62
256
6
ByLayer
370
13
48
1
60
0
100
AcDbEllipse
10
4.177677
20
0.727133
30
0
11
-0.0516589928718568
21
-0.0856232938835306
31
0
210
0
220
0
230
1
40
0.382172
41
-1.22712731539708
42
-0.225465740701488
0
ELLIPSE
5
A4
100
AcDbEntity
8
1
62
256
6
ByLayer
370
13
48
1
60
0
100
AcDbEllipse
10
61.184655
20
3.032318
30
0
11
4.28287611811717
21
-1.86680906495198
31
0
210
0
220
0
230
-1
40
0.451566
41
1.58847334260771
42
1.90756585349445
0
ELLIPSE
5
A5
100
AcDbEntity
8
1
62
256
6
ByLayer
370
18
48
1
60
0
100
AcDbEllipse
10
60.818138
20
-3.032318
30
0
11
0.985444377990449
21
2.68678102160938
31
0
210
0
220
0
230
-1
40
0.082138
41
0.755280950345353
42
1.57243341769062
0
ELLIPSE
5
A6
100
AcDbEntity
8
1
62
256
6
ByLayer
370
18
48
1
60
0
100
AcDbEllipse
10
62.000542
20
-0.001398
30
0
11
2.34676932435125
21
-6.3983877824266
31
0
210
0
220
0
230
-1
40
0.082138
41
-2.99035955623889
42
-2.89827894148606
0
ELLIPSE
5
A7
100
AcDbEntity
8
1
62
256
6
ByLayer
370
13
48
1
60
0
100
AcDbEllipse
10
60.266094
20
0.919483
30
0
11
0.133113781883896
21
0.268850741253519
31
0
210
0
220
0
230
1
40
0.40558
41
0.884485917130956
42
2.28074931872633
0
ELLIPSE
5
A8
100
AcDbEntity
8
1
62
256
6
ByLayer
370
18
48
1
60
0
100
AcDbEllipse
10
62.018937
20
0.051613
30
0
11
0.135658546007553
21
-0.401200806163936
31
0
210
0
220
0
230
-1
40
0.065863
41
1.6152294326162
42
2.32292776270058
0
ELLIPSE
5
A9
100
AcDbEntity
8
1
62
256
6
ByLayer
370
18
48
1
60
0
100
AcDbEllipse
10
60.818138
20
3.032318
30
0
11
0.985444378012193
21
-2.68678102166022
31
0
210
0
220
0
230
-1
40
0.082138
41
-1.57243341767798
42
-0.755280950347506
0
ELLIPSE
5
AA
100
AcDbEntity
8
1
62
256
6
ByLayer
370
18
48
1
60
0
100
AcDbEllipse
10
61.860015
20
0.130298
30
0
11
0.0868803724512423
21
0.290676908873976
31
0
210
0
220
0
230
-1
40
0.467765
41
1.6719721023351
42
2.36053717392987
0
ELLIPSE
5
AB
100
AcDbEntity
8
1
62
256
6
ByLayer
370
13
48
1
60
0
100
AcDbEllipse
10
4.250142
20
0.685712
30
0
11
0.0478725090660784
21
0.0877964855544813
31
0
210
0
220
0
230
1
40
0.054125
41
3.05670896493321
42
-1.66776352520458
0
ELLIPSE
5
AC
100
AcDbEntity
8
1
62
256
6
ByLayer
370
13
48
1
60
0
100
AcDbEllipse
10
61.015197
20
2.898026
30
0
11
4.2364686940128
21
-2.17792332930128
31
0
210
0
220
0
230
-1
40
0.482873
41
1.53949524921757
42
1.85533128174658
0
POINT
5
6C
100
AcDbEntity
8
81
62
256
6
ByLayer
370
18
48
1
60
0
100
AcDbPoint
10
62
20
0
30
0
39
0
210
0
220
0
230
1
50
360
0
POINT
5
6E
100
AcDbEntity
8
80
62
256
6
ByLayer
370
18
48
1
60
0
100
AcDbPoint
10
0
20
0
30
0
39
0
210
0
220
0
230
1
50
360
0
POINT
5
70
100
AcDbEntity
8
SK2
62
256
6
ByLayer
370
18
48
1
60
1
100
AcDbPoint
10
-45
20
-7
30
0
39
0
210
0
220
0
230
1
50
360
0
POINT
5
72
100
AcDbEntity
8
SK2
62
256
6
ByLayer
370
18
48
1
60
1
100
AcDbPoint
10
-45
20
7
30
0
39
0
210
0
220
0
230
1
50
360
0
POINT
5
73
100
AcDbEntity
8
2
62
256
6
ByLayer
370
18
48
1
60
1
100
AcDbPoint
10
59.8
20
-6.4
30
0
39
0
210
0
220
0
230
1
50
360
0
POINT
5
75
100
AcDbEntity
8
2
62
256
6
ByLayer
370
18
48
1
60
1
100
AcDbPoint
10
59.8
20
6.4
30
0
39
0
210
0
220
0
230
1
50
360
0
SPLINE
5
AD
100
AcDbEntity
8
1
62
256
6
ByLayer
370
18
48
1
60
0
100
AcDbSpline
70
4
71
2
72
6
73
3
40
0
40
0
40
0
40
1
40
1
40
1
41
1
10
5.28653729180982
20
0.004271290015339
30
0
41
1
10
5.28652623458291
20
0.0042770133910892
30
0
41
1
10
5.28651517736586
20
0.0042829243347171
30
0
0
SPLINE
5
AE
100
AcDbEntity
8
1
62
256
6
ByLayer
370
18
48
1
60
0
100
AcDbSpline
70
4
71
2
72
6
73
3
40
0
40
0
40
0
40
1
40
1
40
1
41
1
10
58.6020249392514
20
-6.11838610791949
30
0
41
1
10
59.1789411891486
20
-6.11713912428368
30
0
41
1
10
59.7546652328739
20
-6.12015955032592
30
0
0
SPLINE
5
AF
100
AcDbEntity
8
1
62
256
6
ByLayer
370
18
48
1
60
0
100
AcDbSpline
70
4
71
3
72
12
73
8
40
0
40
0
40
0
40
0
40
0.0949387892370731
40
0.264237184641546
40
0.461691095233884
40
0.741070509970522
40
1
40
1
40
1
40
1
41
1
10
42.4994329241068
20
-1.55340759300725
30
0
41
1
10
42.4994542694184
20
-1.55346695830363
30
0
41
1
10
42.502169416741
20
-1.55490758006326
30
0
41
1
10
42.5180186355225
20
-1.56300603246714
30
0
41
1
10
42.560435733676
20
-1.58489128611737
30
0
41
1
10
42.6310581163776
20
-1.6208848543375
30
0
41
1
10
42.6929434722458
20
-1.6543961588896
30
0
41
1
10
42.7257240746267
20
-1.67233142237225
30
0
0
SPLINE
5
B0
100
AcDbEntity
8
1
62
256
6
ByLayer
370
18
48
1
60
0
100
AcDbSpline
70
4
71
2
72
6
73
3
40
0
40
0
40
0
40
1
40
1
40
1
41
1
10
40.6955859771466
20
-0.0007671944669312
30
0
41
1
10
40.695577314373
20
-0.0007608405074109
30
0
41
1
10
40.6955686515485
20
-0.000754359790534
30
0
0
SPLINE
5
B1
100
AcDbEntity
8
1
62
256
6
ByLayer
370
18
48
1
60
0
100
AcDbSpline
70
4
71
3
72
10
73
6
40
0
40
0
40
0
40
0
40
0.227086276333766
40
0.600655793051714
40
1
40
1
40
1
40
1
41
1
10
4.25050607113121
20
-6.08562301267963
30
0
41
1
10
4.40295199350692
20
-6.08613370453435
30
0
41
1
10
4.80684330475668
20
-6.0872535643434
30
0
41
1
10
5.48452776116744
20
-6.0870957454475
30
0
41
1
10
6.00747340976474
20
-6.08756975874456
30
0
41
1
10
6.27796910827846
20
-6.08774698456551
30
0
0
SPLINE
5
B2
100
AcDbEntity
8
1
62
256
6
ByLayer
370
18
48
1
60
0
100
AcDbSpline
70
4
71
3
72
32
73
28
40
0
40
0
40
0
40
0
40
0.0446273363301567
40
0.0871643368687842
40
0.123377431850956
40
0.15089324391548
40
0.171250157483602
40
0.196651088080702
40
0.228954302455063
40
0.262856277196188
40
0.297883453960212
40
0.35042305388068
40
0.406342042469925
40
0.456312836737355
40
0.499197193425928
40
0.53859421957208
40
0.595926146436218
40
0.659603700966639
40
0.723370763896502
40
0.799337982699253
40
0.829010505431515
40
0.855330758279796
40
0.889071998577219
40
0.927499690391896
40
0.95443100400487
40
0.981239721720924
40
1
40
1
40
1
40
1
41
1
10
23.1802422778029
20
-6.09694736470507
30
0
41
1
10
23.4476892651398
20
-6.0966255521343
30
0
41
1
10
23.9707218578368
20
-6.09638457586758
30
0
41
1
10
24.7256267253859
20
-6.09643334568995
30
0
41
1
10
25.3569595059158
20
-6.09839606223522
30
0
41
1
10
25.8660848379413
20
-6.09817186903857
30
0
41
1
10
26.3101627502996
20
-6.0993572995402
30
0
41
1
10
26.7835073723246
20
-6.09966479177487
30
0
41
1
10
27.3394265199854
20
-6.09968267207998
30
0
41
1
10
27.9536379668739
20
-6.09954497003108
30
0
41
1
10
28.690627976522
20
-6.09886537370301
30
0
41
1
10
29.561370670304
20
-6.10156487678566
30
0
41
1
10
30.5218662175112
20
-6.10169599060808
30
0
41
1
10
31.4249462917335
20
-6.10113637459085
30
0
41
1
10
32.2267090689287
20
-6.10038118614824
30
0
41
1
10
33.0739260868189
20
-6.10421038003483
30
0
41
1
10
34.0471682212606
20
-6.10297513338574
30
0
41
1
10
35.1683269548163
20
-6.10087591646496
30
0
41
1
10
36.402533346622
20
-6.10485100378313
30
0
41
1
10
37.4304403514592
20
-6.1052041709263
30
0
41
1
10
38.2310910117101
20
-6.10546780147916
30
0
41
1
10
38.775623488276
20
-6.10480057237845
30
0
41
1
10
39.3728658604943
20
-6.10465449742892
30
0
41
1
10
39.9755409703164
20
-6.10510781697423
30
0
41
1
10
40.528608362716
20
-6.10520141899602
30
0
41
1
10
40.9619941685474
20
-6.10350316813518
30
0
41
1
10
41.2384254955437
20
-6.10496772553171
30
0
41
1
10
41.3526040696353
20
-6.10578156902719
30
0
0
SPLINE
5
B3
100
AcDbEntity
8
1
62
256
6
ByLayer
370
18
48
1
60
0
100
AcDbSpline
70
4
71
3
72
10
73
6
40
0
40
0
40
0
40
0
40
0.238827825878433
40
0.633552668177509
40
1
40
1
40
1
40
1
41
1
10
6.44505616645492
20
6.08626473277849
30
0
41
1
10
6.26929615254915
20
6.08578359256524
30
0
41
1
10
5.8036793316289
20
6.0847903435367
30
0
41
1
10
5.06770667157693
20
6.08705701923347
30
0
41
1
10
4.51534090783386
20
6.08597805910296
30
0
41
1
10
4.25053871418589
20
6.08530815391671
30
0
0
SPLINE
5
B4
100
AcDbEntity
8
1
62
256
6
ByLayer
370
18
48
1
60
0
100
AcDbSpline
70
4
71
3
72
31
73
27
40
0
40
0
40
0
40
0
40
0.0021543562275144
40
0.048360888377192
40
0.091693078842908
40
0.130915172055073
40
0.166061767277832
40
0.219901102499235
40
0.277779125709886
40
0.314161676588552
40
0.355658338577548
40
0.4049266764635
40
0.458308964337232
40
0.509141617786994
40
0.54721567362746
40
0.594087534444118
40
0.648974810033772
40
0.698553470893306
40
0.742501193935778
40
0.789043641339929
40
0.833297985504557
40
0.874811588776772
40
0.922918317559941
40
0.968781166009236
40
0.984633354633681
40
1
40
1
40
1
40
1
41
1
10
41.648202423749
20
6.10082512531687
30
0
41
1
10
41.6371752177289
20
6.10074920951871
30
0
41
1
10
41.389732533548
20
6.09911771694868
30
0
41
1
10
40.9282946928208
20
6.10468840753333
30
0
41
1
10
40.2809489858856
20
6.10539095219241
30
0
41
1
10
39.680075605582
20
6.10470873768497
30
0
41
1
10
39.0181599213396
20
6.10437535190906
30
0
41
1
10
38.2638023925951
20
6.10569458069352
30
0
41
1
10
37.5004140814019
20
6.10500175155946
30
0
41
1
10
36.8013064446134
20
6.10485408205994
30
0
41
1
10
36.1464090497066
20
6.10376743475854
30
0
41
1
10
35.4039957786791
20
6.10126896294494
30
0
41
1
10
34.6134854809853
20
6.102191897094
30
0
41
1
10
33.8806316453225
20
6.1029829445381
30
0
41
1
10
33.1813066185019
20
6.10448625456513
30
0
41
1
10
32.4611147036945
20
6.10083129591936
30
0
41
1
10
31.6835745378792
20
6.10058290455663
30
0
41
1
10
30.9179632726408
20
6.10107252421599
30
0
41
1
10
30.1993049372923
20
6.10203679730901
30
0
41
1
10
29.5049139500095
20
6.10113904982697
30
0
41
1
10
28.8235613863582
20
6.09895318394709
30
0
41
1
10
28.1340155790341
20
6.09946788057749
30
0
41
1
10
27.4362272239156
20
6.09967201663073
30
0
41
1
10
26.8705792532237
20
6.09968636590116
30
0
41
1
10
26.4736038097173
20
6.09946212953776
30
0
41
1
10
26.3128314052735
20
6.09925540113932
30
0
41
1
10
26.2336974764465
20
6.09912829583973
30
0
0
SPLINE
5
B5
100
AcDbEntity
8
1
62
256
6
ByLayer
370
13
48
1
60
0
100
AcDbSpline
70
4
71
3
72
12
73
8
40
0
40
0
40
0
40
0
40
0.500000000000016
40
0.500000000000016
40
0.750000000000008
40
0.750000000000008
40
1
40
1
40
1
40
1
41
1
10
4.00000001406153
20
0.871070316086929
30
0
41
1
10
4.00000001406153
20
0.840830847808832
30
0
41
1
10
4.01128714103027
20
0.809947499216094
30
0
41
1
10
4.04384317130035
20
0.769931018842811
30
0
41
1
10
4.05754058119541
20
0.757251659239614
30
0
41
1
10
4.0899566847859
20
0.734717113503336
30
0
41
1
10
4.10840503721582
20
0.724940079250587
30
0
41
1
10
4.12946129216536
20
0.716870965362062
30
0
0
SPLINE
5
B6
100
AcDbEntity
8
1
62
256
6
ByLayer
370
18
48
1
60
0
100
AcDbSpline
70
4
71
3
72
58
73
54
40
0
40
0
40
0
40
0
40
0.0472768467099023
40
0.0472768467099023
40
0.0945536934198047
40
0.0945536934198047
40
0.141830540129707
40
0.141830540129707
40
0.165468963484658
40
0.165468963484658
40
0.189107386839609
40
0.189107386839609
40
0.236384233549511
40
0.236384233549511
40
0.283661080259413
40
0.283661080259413
40
0.330937926969316
40
0.330937926969316
40
0.354576350324267
40
0.354576350324267
40
0.378214773679218
40
0.378214773679218
40
0.425491620389119
40
0.425491620389119
40
0.449130043744071
40
0.449130043744071
40
0.472768467099022
40
0.472768467099022
40
0.567322160518828
40
0.567322160518828
40
0.661875853938634
40
0.661875853938634
40
0.685514277293586
40
0.685514277293586
40
0.709152700648537
40
0.709152700648537
40
0.756429547358441
40
0.756429547358441
40
0.780067970713392
40
0.780067970713392
40
0.803706394068344
40
0.803706394068344
40
0.850983240778247
40
0.850983240778247
40
0.89826008748815
40
0.89826008748815
40
0.945536934198052
40
0.945536934198052
40
0.969175357553004
40
0.969175357553004
40
0.992813780907955
40
0.992813780907955
40
1
40
1
40
1
40
1
41
1
10
59.7597371268875
20
-6.35299961867287
30
0
41
1
10
59.1798654117049
20
-6.39252191591567
30
0
41
1
10
58.6004799978606
20
-6.40667098873595
30
0
41
1
10
57.4395543773726
20
-6.3840570318099
30
0
41
1
10
56.8605571899256
20
-6.34732820190825
30
0
41
1
10
55.7034232661694
20
-6.22421644133468
30
0
41
1
10
55.1251000333707
20
-6.13781667430402
30
0
41
1
10
54.2553457378084
20
-5.97194614601835
30
0
41
1
10
53.9648831349193
20
-5.91055826659957
30
0
41
1
10
53.3851964661189
20
-5.7764288222404
30
0
41
1
10
53.0957014210801
20
-5.7036425295218
30
0
41
1
10
52.2276358752445
20
-5.46868216181394
30
0
41
1
10
51.6494656590247
20
-5.28991528706476
30
0
41
1
10
50.4907010027736
20
-4.89139933198626
30
0
41
1
10
49.9096291764489
20
-4.67132857992098
30
0
41
1
10
48.7515517856365
20
-4.19742206312131
30
0
41
1
10
48.1733372160199
20
-3.94329327407405
30
0
41
1
10
47.3047140748709
20
-3.53983312067999
30
0
41
1
10
47.0149779711671
20
-3.40160361609111
30
0
41
1
10
46.4346643030841
20
-3.11828127644469
30
0
41
1
10
46.1443678172494
20
-2.97332363526544
30
0
41
1
10
45.2751201492639
20
-2.53090300610054
30
0
41
1
10
44.6967810361383
20
-2.22537192581777
30
0
41
1
10
43.8285688069011
20
-1.75525503279036
30
0
41
1
10
43.5390168742322
20
-1.59663107099752
30
0
41
1
10
42.9592186017292
20
-1.27621436361542
30
0
41
1
10
42.6686850496909
20
-1.11426080904158
30
0
41
1
10
41.2186187799843
20
-0.30105973940519
30
0
41
1
10
40.0642513884322
20
0.361411129048861
30
0
41
1
10
37.7413833288879
20
1.66109793534216
30
0
41
1
10
36.5871470426956
20
2.29066742880846
30
0
41
1
10
35.1366295939997
20
3.02418701918506
30
0
41
1
10
34.8461074642001
20
3.16818665300147
30
0
41
1
10
34.266286251437
20
3.44894329093327
30
0
41
1
10
33.9766813367733
20
3.58585689842408
30
0
41
1
10
33.108180431653
20
3.9853667849286
30
0
41
1
10
32.5297186198698
20
4.23689563132268
30
0
41
1
10
31.6601066936153
20
4.58815493193708
30
0
41
1
10
31.369620351975
20
4.70101582504287
30
0
41
1
10
30.7892170936202
20
4.91689621237825
30
0
41
1
10
30.4994040409769
20
5.01988836913418
30
0
41
1
10
29.630524915151
20
5.31344597564259
30
0
41
1
10
29.0521014243652
20
5.48866960937841
30
0
41
1
10
27.8933625390799
20
5.79473096834604
30
0
41
1
10
27.3119366420756
20
5.92568518626589
30
0
41
1
10
26.1526130675158
20
6.13875641047974
30
0
41
1
10
25.5741370675605
20
6.22120753192908
30
0
41
1
10
24.7054665256832
20
6.30758286532742
30
0
41
1
10
24.415735028057
20
6.33015736690078
30
0
41
1
10
23.8355312672167
20
6.36272619399992
30
0
41
1
10
23.5448522724143
20
6.3727119596395
30
0
41
1
10
23.1665768836866
20
6.37743738663329
30
0
41
1
10
23.0784228061199
20
6.37795289674716
30
0
41
1
10
22.9902964422306
20
6.37788336045878
30
0
0
SPLINE
5
B7
100
AcDbEntity
8
1
62
256
6
ByLayer
370
13
48
1
60
0
100
AcDbSpline
70
4
71
3
72
32
73
28
40
0
40
0
40
0
40
0
40
0.14640581841605
40
0.14640581841605
40
0.219608727624076
40
0.219608727624076
40
0.292811636832101
40
0.292811636832101
40
0.439217455248152
40
0.439217455248152
40
0.475818909852165
40
0.475818909852165
40
0.512420364456178
40
0.512420364456178
40
0.585623273664203
40
0.585623273664203
40
0.658826182872229
40
0.658826182872229
40
0.732029092080255
40
0.732029092080255
40
0.878434910496307
40
0.878434910496307
40
0.951637819704332
40
0.951637819704332
40
0.988239274308345
40
0.988239274308345
40
1
40
1
40
1
40
1
41
1
10
4.25023726189457
20
0.674633459850867
30
0
41
1
10
4.25025817378412
20
1.10832327483217
30
0
41
1
10
4.25026779532323
20
1.5295940044449
30
0
41
1
10
4.25027321520665
20
2.14346130029099
30
0
41
1
10
4.25027350349396
20
2.34547106770549
30
0
41
1
10
4.2502722915406
20
2.74143613536347
30
0
41
1
10
4.25027081193011
20
2.93281309887149
30
0
41
1
10
4.25026573220046
20
3.48780618738121
30
0
41
1
10
4.25026152423536
20
3.83249975993689
30
0
41
1
10
4.25026086186668
20
4.23067981706396
30
0
41
1
10
4.25026095857379
20
4.30841941937581
30
0
41
1
10
4.25026171578986
20
4.45880958598735
30
0
41
1
10
4.25026237571828
20
4.53166628094019
30
0
41
1
10
4.25026533358127
20
4.74333204804321
30
0
41
1
10
4.25026861415873
20
4.87525589287864
30
0
41
1
10
4.25027838297549
20
5.12084457234539
30
0
41
1
10
4.25028487040649
20
5.23451052885821
30
0
41
1
10
4.25030150387983
20
5.4430710967811
30
0
41
1
10
4.25031166158865
20
5.53776763060165
30
0
41
1
10
4.25034738792544
20
5.78848526688736
30
0
41
1
10
4.25037791275801
20
5.90986729177848
30
0
41
1
10
4.25043141961501
20
6.02584390904696
30
0
41
1
10
4.25045052388586
20
6.05339204796334
30
0
41
1
10
4.25048059814259
20
6.07749965550451
30
0
41
1
10
4.25049084660065
20
6.08262925673574
30
0
41
1
10
4.25050446131579
20
6.08553362735373
30
0
41
1
10
4.2505077809104
20
6.08594009926881
30
0
41
1
10
4.25051110720202
20
6.08604833640348
30
0
0
SPLINE
5
B8
100
AcDbEntity
8
1
62
256
6
ByLayer
370
18
48
1
60
0
100
AcDbSpline
70
4
71
3
72
82
73
78
40
0
40
0
40
0
40
0
40
0.0105370018384254
40
0.0105370018384254
40
0.0278960018061724
40
0.0278960018061724
40
0.0626140017416656
40
0.0626140017416656
40
0.0973320016771587
40
0.0973320016771587
40
0.132050001612652
40
0.132050001612652
40
0.166768001548145
40
0.166768001548145
40
0.201486001483638
40
0.201486001483638
40
0.218845001451385
40
0.218845001451385
40
0.236204001419131
40
0.236204001419131
40
0.270922001354625
40
0.270922001354625
40
0.305640001290118
40
0.305640001290118
40
0.340358001225611
40
0.340358001225611
40
0.357717001193358
40
0.357717001193358
40
0.375076001161105
40
0.375076001161105
40
0.409794001096599
40
0.409794001096599
40
0.427153001064346
40
0.427153001064346
40
0.444512001032093
40
0.444512001032093
40
0.479230000967587
40
0.479230000967587
40
0.513948000903081
40
0.513948000903081
40
0.531307000870828
40
0.531307000870828
40
0.548666000838575
40
0.548666000838575
40
0.58338400077407
40
0.58338400077407
40
0.600743000741817
40
0.600743000741817
40
0.618102000709565
40
0.618102000709565
40
0.635461000677312
40
0.635461000677312
40
0.65282000064506
40
0.65282000064506
40
0.687538000580554
40
0.687538000580554
40
0.704897000548301
40
0.704897000548301
40
0.722256000516048
40
0.722256000516048
40
0.739615000483795
40
0.739615000483795
40
0.756974000451542
40
0.756974000451542
40
0.791692000387036
40
0.791692000387036
40
0.82641000032253
40
0.82641000032253
40
0.861128000258024
40
0.861128000258024
40
0.895846000193518
40
0.895846000193518
40
0.930564000129012
40
0.930564000129012
40
0.965282000064506
40
0.965282000064506
40
1
40
1
40
1
40
1
41
1
10
48.9761666034775
20
-4.67065553205393
30
0
41
1
10
48.8450608564667
20
-4.71667614161203
30
0
41
1
10
48.7138782326546
20
-4.76171084371396
30
0
41
1
10
48.3662348360182
20
-4.8780291563688
30
0
41
1
10
48.1497239104726
20
-4.9473069226276
30
0
41
1
10
47.5010912074304
20
-5.14645533759668
30
0
41
1
10
47.0694885804477
20
-5.26928380264923
30
0
41
1
10
46.2066987990703
20
-5.4919469230328
30
0
41
1
10
45.7750551436419
20
-5.59134557651328
30
0
41
1
10
44.9107870894547
20
-5.76391637497795
30
0
41
1
10
44.4778623008175
20
-5.83581450732501
30
0
41
1
10
43.612705754952
20
-5.95674096855325
30
0
41
1
10
43.180425247821
20
-6.00518151530684
30
0
41
1
10
42.317085036506
20
-6.07601747723439
30
0
41
1
10
41.8857306593305
20
-6.09853006153492
30
0
41
1
10
41.2371309809693
20
-6.10798857274042
30
0
41
1
10
41.0207093230092
20
-6.10738723397424
30
0
41
1
10
40.5876053839113
20
-6.10093124525713
30
0
41
1
10
40.3710582397143
20
-6.09452440957887
30
0
41
1
10
39.7223743941763
20
-6.06521627680124
30
0
41
1
10
39.2902903967881
20
-6.03241409653242
30
0
41
1
10
38.4262744250402
20
-5.94147685775906
30
0
41
1
10
37.9948491402783
20
-5.88277111773274
30
0
41
1
10
37.1302834644916
20
-5.73825442096398
30
0
41
1
10
36.6964046330695
20
-5.65372077155735
30
0
41
1
10
36.0473898579815
20
-5.50617756379592
30
0
41
1
10
35.8313961887701
20
-5.45359818966176
30
0
41
1
10
35.3993707415008
20
-5.34395007936587
30
0
41
1
10
35.1833647895629
20
-5.28653005393525
30
0
41
1
10
34.535294685028
20
-5.10602134834244
30
0
41
1
10
34.103192600112
20
-4.97478215855998
30
0
41
1
10
33.4549695258367
20
-4.76042838838691
30
0
41
1
10
33.2387363450884
20
-4.68607616676925
30
0
41
1
10
32.8055447720062
20
-4.53116146659156
30
0
41
1
10
32.5887150819088
20
-4.4508809124076
30
0
41
1
10
31.939081936476
20
-4.20458334421514
30
0
41
1
10
31.5069537261907
20
-4.03183004548893
30
0
41
1
10
30.642812679942
20
-3.66917062983663
30
0
41
1
10
30.2105307518268
20
-3.48018178449766
30
0
41
1
10
29.561435285913
20
-3.18343349229554
30
0
41
1
10
29.3450164901545
20
-3.08184108270979
30
0
41
1
10
28.9117577742367
20
-2.87600683773704
30
0
41
1
10
28.6949379868537
20
-2.77181131768006
30
0
41
1
10
28.0451847199953
20
-2.45583336400904
30
0
41
1
10
27.6124197779292
20
-2.24041500996674
30
0
41
1
10
26.9642564087509
20
-1.90901731895113
30
0
41
1
10
26.7482719357928
20
-1.79735388768935
30
0
41
1
10
26.315962532232
20
-1.57225841715388
30
0
41
1
10
26.099654428852
20
-1.45857797960593
30
0
41
1
10
25.6666468374085
20
-1.22991616462895
30
0
41
1
10
25.449975723035
20
-1.11500762020276
30
0
41
1
10
25.0163980096858
20
-0.883558085528335
30
0
41
1
10
24.7996866611765
20
-0.766948400827772
30
0
41
1
10
24.1502617202349
20
-0.416983538226248
30
0
41
1
10
23.7176326590457
20
-0.183341059530932
30
0
41
1
10
23.0689537277811
20
0.167199553120156
30
0
41
1
10
22.8528377733723
20
0.284179358878646
30
0
41
1
10
22.4206183112214
20
0.518001217502672
30
0
41
1
10
22.2044047580751
20
0.634652316035982
30
0
41
1
10
21.7715376264232
20
0.867018647473003
30
0
41
1
10
21.5549044647349
20
0.982768275191887
30
0
41
1
10
21.1211574395043
20
1.21323377994335
30
0
41
1
10
20.9042215779926
20
1.32777443851026
30
0
41
1
10
20.2547468149021
20
1.66924304064912
30
0
41
1
10
19.8225795104601
20
1.89388730932723
30
0
41
1
10
18.9576504682095
20
2.3318158315962
30
0
41
1
10
18.5252301100896
20
2.54629624116293
30
0
41
1
10
17.6598796480549
20
2.96440714179119
30
0
41
1
10
17.2257253299491
20
3.16694573114876
30
0
41
1
10
16.3586780703961
20
3.55730966659613
30
0
41
1
10
15.9260628537226
20
3.74555884226353
30
0
41
1
10
15.0598917273694
20
4.10398060178954
30
0
41
1
10
14.6258124195774
20
4.2741732126749
30
0
41
1
10
13.7585695522541
20
4.59404325895946
30
0
41
1
10
13.3258038404166
20
4.74485345291313
30
0
41
1
10
12.4594537847033
20
5.02512236626094
30
0
41
1
10
12.0259395265544
20
5.15440241777685
30
0
41
1
10
11.5920700221687
20
5.27206182959023
30
0
0
SPLINE
5
B9
100
AcDbEntity
8
1
62
256
6
ByLayer
370
18
48
1
60
0
100
AcDbSpline
70
4
71
3
72
16
73
12
40
0
40
0
40
0
40
0
40
0.202260545114774
40
0.202260545114774
40
0.402320600010069
40
0.402320600010069
40
0.502350627457716
40
0.502350627457716
40
0.602380654905362
40
0.602380654905362
40
1
40
1
40
1
40
1
41
1
10
40.7123107697817
20
-0.0098766153412555
30
0
41
1
10
41.2943521781
20
-0.330517286683261
30
0
41
1
10
41.8760069163353
20
-0.65097664947973
30
0
41
1
10
43.0354444253543
20
-1.28207075994038
30
0
41
1
10
43.6131998950622
20
-1.59277705690621
30
0
41
1
10
44.4839377488965
20
-2.04991576413494
30
0
41
1
10
44.7749002467871
20
-2.20074905938179
30
0
41
1
10
45.3586478392958
20
-2.49859832398107
30
0
41
1
10
45.6501195213336
20
-2.64495573888576
30
0
41
1
10
47.0952699691947
20
-3.3569371503701
30
0
41
1
10
48.2384579016679
20
-3.87623216971034
30
0
41
1
10
49.3823412688035
20
-4.32907412746192
30
0
0
SPLINE
5
BA
100
AcDbEntity
8
1
62
256
6
ByLayer
370
13
48
1
60
0
100
AcDbSpline
70
4
71
3
72
22
73
18
40
0
40
0
40
0
40
0
40
0.0020790137442376
40
0.0020790137442376
40
0.334719342496151
40
0.334719342496151
40
0.417879424684131
40
0.417879424684131
40
0.501039506872111
40
0.501039506872111
40
0.667359671248075
40
0.667359671248075
40
0.833679835624037
40
0.833679835624037
40
0.916839917812019
40
0.916839917812019
40
1
40
1
40
1
40
1
41
1
10
49.3823412683621
20
-4.32907412728716
30
0
41
1
10
49.3895355440798
20
-4.33192220602868
30
0
41
1
10
49.396729847306
20
-4.33476765616322
30
0
41
1
10
50.5550111110868
20
-4.7924586885903
30
0
41
1
10
51.7069309036838
20
-5.17978423205565
30
0
41
1
10
53.1635587074937
20
-5.55871595887055
30
0
41
1
10
53.4557899848699
20
-5.62920378042898
30
0
41
1
10
54.0377979197396
20
-5.75819192253203
30
0
41
1
10
54.3281457756138
20
-5.81684731686084
30
0
41
1
10
55.1977893100306
20
-5.97507334637825
30
0
41
1
10
55.7756579728835
20
-6.0569551240736
30
0
41
1
10
56.9309626617513
20
-6.17243932558503
30
0
41
1
10
57.5083957535616
20
-6.20608750740908
30
0
41
1
10
58.3764298378079
20
-6.21971668604616
30
0
41
1
10
58.6660911798776
20
-6.2181108621549
30
0
41
1
10
59.2464364632547
20
-6.20246256024603
30
0
41
1
10
59.5371645576326
20
-6.18804793929203
30
0
41
1
10
59.8285068056844
20
-6.16808787568473
30
0
0
SPLINE
5
BB
100
AcDbEntity
8
1
62
256
6
ByLayer
370
18
48
1
60
0
100
AcDbSpline
70
4
71
3
72
88
73
84
40
0
40
0
40
0
40
0
40
0.0332032585457389
40
0.0332032585457389
40
0.0498048878186083
40
0.0498048878186083
40
0.0664065170914777
40
0.0664065170914777
40
0.0996097756372174
40
0.0996097756372174
40
0.132813034182957
40
0.132813034182957
40
0.166016292728697
40
0.166016292728697
40
0.182617922001566
40
0.182617922001566
40
0.199219551274436
40
0.199219551274436
40
0.232422809820175
40
0.232422809820175
40
0.265626068365915
40
0.265626068365915
40
0.282227697638785
40
0.282227697638785
40
0.298829326911654
40
0.298829326911654
40
0.332032585457392
40
0.332032585457392
40
0.348634214730261
40
0.348634214730261
40
0.36523584400313
40
0.36523584400313
40
0.398439102548868
40
0.398439102548868
40
0.415040731821738
40
0.415040731821738
40
0.431642361094607
40
0.431642361094607
40
0.448243990367476
40
0.448243990367476
40
0.464845619640346
40
0.464845619640346
40
0.498048878186084
40
0.498048878186084
40
0.531252136731822
40
0.531252136731822
40
0.56445539527756
40
0.56445539527756
40
0.581057024550429
40
0.581057024550429
40
0.597658653823299
40
0.597658653823299
40
0.630861912369037
40
0.630861912369037
40
0.664065170914775
40
0.664065170914775
40
0.680666800187644
40
0.680666800187644
40
0.697268429460513
40
0.697268429460513
40
0.730471688006251
40
0.730471688006251
40
0.763674946551989
40
0.763674946551989
40
0.796878205097727
40
0.796878205097727
40
0.813479834370597
40
0.813479834370597
40
0.830081463643466
40
0.830081463643466
40
0.863284722189206
40
0.863284722189206
40
0.896487980734945
40
0.896487980734945
40
0.913089610007815
40
0.913089610007815
40
0.929691239280685
40
0.929691239280685
40
0.962894497826425
40
0.962894497826425
40
0.996097756372166
40
0.996097756372166
40
1
40
1
40
1
40
1
41
1
10
18.9456178514684
20
6.13743288628689
30
0
41
1
10
19.3722764147202
20
6.20341728585203
30
0
41
1
10
19.7990716353998
20
6.2554328828958
30
0
41
1
10
20.4384365343183
20
6.31350465004129
30
0
41
1
10
20.6514349295263
20
6.32951538351708
30
0
41
1
10
21.0769938118892
20
6.35481768592604
30
0
41
1
10
21.2895234553237
20
6.36409016456295
30
0
41
1
10
21.9282978850295
20
6.38152815355491
30
0
41
1
10
22.3552808805399
20
6.37951717032229
30
0
41
1
10
23.2099277354575
20
6.34806791989547
30
0
41
1
10
23.635334161692
20
6.31843767386778
30
0
41
1
10
24.4875865140559
20
6.23283208902865
30
0
41
1
10
24.9137765816607
20
6.17686126551465
30
0
41
1
10
25.5522138059548
20
6.07252407821304
30
0
41
1
10
25.7649164554744
20
6.03432630707553
30
0
41
1
10
26.1913059239771
20
5.95178510124484
30
0
41
1
10
26.4049003674807
20
5.90736656236354
30
0
41
1
10
27.0461181901607
20
5.76458989407783
30
0
41
1
10
27.4723489246885
20
5.65686276921991
30
0
41
1
10
28.3232170256916
20
5.41685891247138
30
0
41
1
10
28.7493123844262
20
5.28593016189836
30
0
41
1
10
29.388546837749
20
5.07252630941963
30
0
41
1
10
29.6016420393289
20
4.99854561196324
30
0
41
1
10
30.0276994218802
20
4.84460857007772
30
0
41
1
10
30.2408454317661
20
4.76472671575976
30
0
41
1
10
30.8815042699394
20
4.51852423378287
30
0
41
1
10
31.3082634788078
20
4.34546698584535
30
0
41
1
10
31.9470153146694
20
4.07148930027623
30
0
41
1
10
32.1595749039909
20
3.97757398676484
30
0
41
1
10
32.5848664136456
20
3.78575388845999
30
0
41
1
10
32.7977766229082
20
3.68811169601844
30
0
41
1
10
33.436992677402
20
3.38962668890051
30
0
41
1
10
33.8639889615952
20
3.18310105716236
30
0
41
1
10
34.5039055168043
20
2.86105926677726
30
0
41
1
10
34.7169072639361
20
2.75211309451942
30
0
41
1
10
35.1432003347414
20
2.53249960788651
30
0
41
1
10
35.356333787727
20
2.4215816028198
30
0
41
1
10
35.7824264426893
20
2.19729888545501
30
0
41
1
10
35.995389564745
20
2.08394063962876
30
0
41
1
10
36.4210019756524
20
1.85452831756535
30
0
41
1
10
36.6335218248172
20
1.73824950300096
30
0
41
1
10
37.2717902350151
20
1.38733801202642
30
0
41
1
10
37.6989574846078
20
1.15123230457832
30
0
41
1
10
38.5532449871607
20
0.673086959510073
30
0
41
1
10
38.9784126399287
20
0.430715810432304
30
0
41
1
10
39.8300781531473
20
-0.051251808018776
30
0
41
1
10
40.2561507610564
20
-0.29160552851053
30
0
41
1
10
40.8947665212525
20
-0.652700261217745
30
0
41
1
10
41.1074338241002
20
-0.773375328760892
30
0
41
1
10
41.5335390557776
20
-1.01325739735432
30
0
41
1
10
41.7471789637247
20
-1.13243747831248
30
0
41
1
10
42.3879139775026
20
-1.48771543025669
30
0
41
1
10
42.8142398691699
20
-1.72126009530274
30
0
41
1
10
43.6646845806289
20
-2.18259385813866
30
0
41
1
10
44.0903471256308
20
-2.40776889296308
30
0
41
1
10
44.7295330351189
20
-2.73735060381816
30
0
41
1
10
44.9426652820436
20
-2.84591900549793
30
0
41
1
10
45.3689011499322
20
-3.06070867450518
30
0
41
1
10
45.5820656342707
20
-3.16714814715439
30
0
41
1
10
46.2219308200036
20
-3.4797338037279
30
0
41
1
10
46.6484696486908
20
-3.67935385456792
30
0
41
1
10
47.5000255658506
20
-4.06346066379558
30
0
41
1
10
47.9245655401694
20
-4.24847511201875
30
0
41
1
10
48.7765224183546
20
-4.59719936463421
30
0
41
1
10
49.2038121585393
20
-4.76196974687386
30
0
41
1
10
49.8435566468147
20
-4.99473999169601
30
0
41
1
10
50.0563117635321
20
-5.06989076144083
30
0
41
1
10
50.4821517816863
20
-5.21390565859576
30
0
41
1
10
50.6951481857705
20
-5.28288601063085
30
0
41
1
10
51.3339898584451
20
-5.48123783118086
30
0
41
1
10
51.7595467346019
20
-5.60216448819503
30
0
41
1
10
52.6101928567819
20
-5.82077825147812
30
0
41
1
10
53.0373642084834
20
-5.91734829177568
30
0
41
1
10
53.6776921479237
20
-6.04309541202375
30
0
41
1
10
53.8908490894426
20
-6.0817905910713
30
0
41
1
10
54.3163856502873
20
-6.15280987837707
30
0
41
1
10
54.5287778067785
20
-6.18510334598932
30
0
41
1
10
55.1667054640004
20
-6.27152910894844
30
0
41
1
10
55.5924187489621
20
-6.31560379744968
30
0
41
1
10
56.4434424474627
20
-6.37713798250891
30
0
41
1
10
56.8684395362022
20
-6.39445565197221
30
0
41
1
10
57.3456992866472
20
-6.39831474725653
30
0
41
1
10
57.3958843572699
20
-6.39853194136697
30
0
41
1
10
57.4460611952052
20
-6.39856036301393
30
0
0
SPLINE
5
BC
100
AcDbEntity
8
1
62
256
6
ByLayer
370
18
48
1
60
0
100
AcDbSpline
70
4
71
3
72
10
73
6
40
0
40
0
40
0
40
0
40
0.831590976100749
40
0.831590976100749
40
1
40
1
40
1
40
1
41
1
10
11.5920700221692
20
-5.27206182958994
30
0
41
1
10
12.025415110482
20
-5.15454463216605
30
0
41
1
10
12.4581306339403
20
-5.02551064537172
30
0
41
1
10
12.97776271422
20
-4.85745455575687
30
0
41
1
10
13.0652465474694
20
-4.82871971390995
30
0
41
1
10
13.1527138477335
20
-4.79956535256028
30
0
0
SPLINE
5
BD
100
AcDbEntity
8
1
62
256
6
ByLayer
370
18
48
1
60
0
100
AcDbSpline
70
4
71
3
72
26
73
22
40
0
40
0
40
0
40
0
40
0.0951753391438161
40
0.0951753391438161
40
0.208278421750839
40
0.208278421750839
40
0.321381504357863
40
0.321381504357863
40
0.434484586964886
40
0.434484586964886
40
0.491036128268397
40
0.491036128268397
40
0.547587669571908
40
0.547587669571908
40
0.660690752178931
40
0.660690752178931
40
0.773793834785954
40
0.773793834785954
40
0.886896917392977
40
0.886896917392977
40
1
40
1
40
1
40
1
41
1
10
41.639119976717
20
6.1011330348781
30
0
41
1
10
42.002894313713
20
6.09196588473543
30
0
41
1
10
42.3667357078122
20
6.07163929173649
30
0
41
1
10
43.1645881112125
20
6.00682713861642
30
0
41
1
10
43.5984024590667
20
5.95847210008907
30
0
41
1
10
44.4636021234346
20
5.83806710333999
30
0
41
1
10
44.8953128786692
20
5.76668103912618
30
0
41
1
10
45.7601636519488
20
5.59463290307991
30
0
41
1
10
46.1929429614686
20
5.49526905245497
30
0
41
1
10
46.8429029953492
20
5.32786885725062
30
0
41
1
10
47.0596850334342
20
5.26890655937055
30
0
41
1
10
47.4928955681479
20
5.146167619473
30
0
41
1
10
47.7094354532434
20
5.08242158830967
30
0
41
1
10
48.3586222321002
20
4.8832982736744
30
0
41
1
10
48.7906663767447
20
4.73863041916471
30
0
41
1
10
49.6550507770135
20
4.42716620310978
30
0
41
1
10
50.0880347875337
20
4.26179878422388
30
0
41
1
10
50.9551060110688
20
3.91262832517694
30
0
41
1
10
51.3882564007857
20
3.72914897165336
30
0
41
1
10
52.2535344477539
20
3.34774866951619
30
0
41
1
10
52.6858996720462
20
3.14901201149073
30
0
41
1
10
53.1181328667788
20
2.94337110006734
30
0
0
SPLINE
5
BE
100
AcDbEntity
8
1
62
256
6
ByLayer
370
18
48
1
60
0
100
AcDbSpline
70
4
71
3
72
32
73
28
40
0
40
0
40
0
40
0
40
0.0624999999999977
40
0.0624999999999977
40
0.0937499999999966
40
0.0937499999999966
40
0.124999999999996
40
0.124999999999996
40
0.249999999999993
40
0.249999999999993
40
0.281249999999993
40
0.281249999999993
40
0.312499999999993
40
0.312499999999993
40
0.374999999999992
40
0.374999999999992
40
0.499999999999992
40
0.499999999999992
40
0.562499999999991
40
0.562499999999991
40
0.624999999999991
40
0.624999999999991
40
0.749999999999994
40
0.749999999999994
40
0.874999999999997
40
0.874999999999997
40
1
40
1
40
1
40
1
41
1
10
53.1181328667788
20
2.94337110006734
30
0
41
1
10
53.1378110795232
20
2.77735666297696
30
0
41
1
10
53.1700127156484
20
2.60927816796391
30
0
41
1
10
53.2359375500052
20
2.35425597892856
30
0
41
1
10
53.2608557930778
20
2.26876348054998
30
0
41
1
10
53.3164529310278
20
2.09682903741253
30
0
41
1
10
53.3472493286027
20
2.01012717031912
30
0
41
1
10
53.5126080516511
20
1.58112284921108
30
0
41
1
10
53.6819984662679
20
1.24749172690935
30
0
41
1
10
53.9290460575239
20
0.839562358929044
30
0
41
1
10
53.9803488211145
20
0.758302427268575
30
0
41
1
10
54.0852819383935
20
0.598262980324392
30
0
41
1
10
54.139019280544
20
0.519295009952486
30
0
41
1
10
54.3037167783372
20
0.285275819371805
30
0
41
1
10
54.4181489263105
20
0.133098163909608
30
0
41
1
10
54.7733442894003
20
-0.313586763831154
30
0
41
1
10
55.0259048866331
20
-0.598330033737653
30
0
41
1
10
55.4240017265516
20
-1.00950792123896
30
0
41
1
10
55.559711717156
20
-1.14359398188472
30
0
41
1
10
55.8337266177318
20
-1.40381279871974
30
0
41
1
10
55.9724370003224
20
-1.53037055199997
30
0
41
1
10
56.3931026817207
20
-1.9005865365138
30
0
41
1
10
56.6795288044162
20
-2.13492036618163
30
0
41
1
10
57.2627904489961
20
-2.58187806320899
30
0
41
1
10
57.5597138429703
20
-2.79431866353008
30
0
41
1
10
58.1625719645012
20
-3.20040572352366
30
0
41
1
10
58.4689149834621
20
-3.3943776203111
30
0
41
1
10
58.7770823528364
20
-3.57853675268206
30
0
0
SPLINE
5
BF
100
AcDbEntity
8
1
62
256
6
ByLayer
370
18
48
1
60
0
100
AcDbSpline
70
4
71
3
72
22
73
18
40
0
40
0
40
0
40
0
40
0.25
40
0.25
40
0.5
40
0.5
40
0.625000000000001
40
0.625000000000001
40
0.750000000000001
40
0.750000000000001
40
0.8125
40
0.8125
40
0.875
40
0.875
40
0.9375
40
0.9375
40
1
40
1
40
1
40
1
41
1
10
58.9737874938065
20
1.82382141680966
30
0
41
1
10
59.1932283331319
20
1.86311765057732
30
0
41
1
10
59.4114796101426
20
1.90811387494989
30
0
41
1
10
59.8429539001611
20
2.01821895496855
30
0
41
1
10
60.0553726004931
20
2.08242955466622
30
0
41
1
10
60.3631714609054
20
2.20978728165414
30
0
41
1
10
60.4638833599352
20
2.2575883887832
30
0
41
1
10
60.6549616039302
20
2.36936995761101
30
0
41
1
10
60.7467883311984
20
2.43415957180014
30
0
41
1
10
60.8652467384017
20
2.55018989760538
30
0
41
1
10
60.9018198647314
20
2.59241190452212
30
0
41
1
10
60.9650215677179
20
2.68464250981222
30
0
41
1
10
60.9910339112398
20
2.73369969087531
30
0
41
1
10
61.0295065362045
20
2.83901426244412
30
0
41
1
10
61.0413496605678
20
2.89431004060631
30
0
41
1
10
61.0498280052501
20
3.00555648644453
30
0
41
1
10
61.046495040231
20
3.06267155765505
30
0
41
1
10
61.0372127141223
20
3.11765905478208
30
0
0
SPLINE
5
C0
100
AcDbEntity
8
1
62
256
6
ByLayer
370
18
48
1
60
0
100
AcDbSpline
70
4
71
3
72
20
73
16
40
0
40
0
40
0
40
0
40
0.0622947842356713
40
0.0622947842356713
40
0.227923501035102
40
0.227923501035102
40
0.559180934633966
40
0.559180934633966
40
0.724809651433397
40
0.724809651433397
40
0.807624009833112
40
0.807624009833112
40
0.890438368232827
40
0.890438368232827
40
1
40
1
40
1
40
1
41
1
10
5.29564100146217
20
-0.0007331229465137
30
0
41
1
10
5.51535447899246
20
-0.121345454424727
30
0
41
1
10
5.73504393894149
20
-0.24197490868147
30
0
41
1
10
6.53877615061938
20
-0.682685763081849
30
0
41
1
10
7.11936125150243
20
-0.999460732986222
30
0
41
1
10
8.85548233141972
20
-1.93089694631797
30
0
41
1
10
10.0046928309129
20
-2.52787947841782
30
0
41
1
10
11.7362569758336
20
-3.35309018643477
30
0
41
1
10
12.3145637533529
20
-3.61670519067963
30
0
41
1
10
13.186039976836
20
-3.99103398699404
30
0
41
1
10
13.4772091843071
20
-4.11228364352095
30
0
41
1
10
14.0613901561959
20
-4.34692751221044
30
0
41
1
10
14.3530577025163
20
-4.45977835222615
30
0
41
1
10
15.0283825378795
20
-4.71050849143379
30
0
41
1
10
15.4117299867851
20
-4.84487204537189
30
0
41
1
10
15.7942754559849
20
-4.97040835370751
30
0
0
SPLINE
5
C1
100
AcDbEntity
8
1
62
256
6
ByLayer
370
13
48
1
60
0
100
AcDbSpline
70
4
71
3
72
16
73
12
40
0
40
0
40
0
40
0
40
0.258823927732262
40
0.258823927732262
40
0.645558134450055
40
0.645558134450055
40
0.742241686129503
40
0.742241686129503
40
0.838925237808952
40
0.838925237808952
40
1
40
1
40
1
40
1
41
1
10
15.7942754559708
20
-4.97040835370288
30
0
41
1
10
16.5683486708722
20
-5.22442859862605
30
0
41
1
10
17.3391382019531
20
-5.44230592951195
30
0
41
1
10
19.2629631769241
20
-5.88741641458063
30
0
41
1
10
20.4165002817179
20
-6.06621146765346
30
0
41
1
10
21.8756102096232
20
-6.16722136680283
30
0
41
1
10
22.1676461595891
20
-6.1812254608588
30
0
41
1
10
22.7492892390022
20
-6.19676546155898
30
0
41
1
10
23.0394013158138
20
-6.1983613206761
30
0
41
1
10
23.8113882949734
20
-6.18625761753037
30
0
41
1
10
24.2922942848587
20
-6.16169192048102
30
0
41
1
10
24.7725601573817
20
-6.12044267196524
30
0
0
SPLINE
5
C2
100
AcDbEntity
8
1
62
256
6
ByLayer
370
18
48
1
60
0
100
AcDbSpline
70
4
71
3
72
16
73
12
40
0
40
0
40
0
40
0
40
0.250000000000025
40
0.250000000000025
40
0.375000000000038
40
0.375000000000038
40
0.50000000000005
40
0.50000000000005
40
0.750000000000025
40
0.750000000000025
40
1
40
1
40
1
40
1
41
1
10
58.8165969680988
20
1.54596810846326
30
0
41
1
10
58.8070236359171
20
1.5744726152297
30
0
41
1
10
58.8011079804885
20
1.6040396993549
30
0
41
1
10
58.8007560764748
20
1.64990296988367
30
0
41
1
10
58.8020903917147
20
1.66510061915599
30
0
41
1
10
58.8083674028902
20
1.69525537057035
30
0
41
1
10
58.8132459864013
20
1.71047357576117
30
0
41
1
10
58.8341838684213
20
1.75275973901421
30
0
41
1
10
58.8572133931169
20
1.7759551441946
30
0
41
1
10
58.9121964543144
20
1.80867599642099
30
0
41
1
10
58.9425302184382
20
1.81822403938631
30
0
41
1
10
58.9737874938065
20
1.82382141680972
30
0
0
SPLINE
5
C3
100
AcDbEntity
8
1
62
256
6
ByLayer
370
18
48
1
60
0
100
AcDbSpline
70
4
71
3
72
67
73
63
40
0
40
0
40
0
40
0
40
0.125000000000009
40
0.125000000000009
40
0.187500000000014
40
0.187500000000014
40
0.250000000000018
40
0.250000000000018
40
0.375000000000026
40
0.375000000000026
40
0.500000000000035
40
0.500000000000035
40
0.562500000000039
40
0.562500000000039
40
0.625000000000043
40
0.625000000000043
40
0.687500000000047
40
0.687500000000047
40
0.703125000000048
40
0.703125000000048
40
0.710937500000049
40
0.710937500000049
40
0.714843750000049
40
0.714843750000049
40
0.718750000000049
40
0.718750000000049
40
0.720703125000049
40
0.720703125000049
40
0.722656250000049
40
0.722656250000049
40
0.726562500000048
40
0.734375000000046
40
0.734375000000046
40
0.750000000000043
40
0.750000000000043
40
0.781250000000038
40
0.781250000000038
40
0.796875000000035
40
0.796875000000035
40
0.804687500000033
40
0.804687500000033
40
0.812500000000032
40
0.812500000000032
40
0.828125000000029
40
0.828125000000029
40
0.835937500000028
40
0.835937500000028
40
0.843750000000027
40
0.843750000000027
40
0.859375000000024
40
0.859375000000024
40
0.875000000000021
40
0.875000000000021
40
0.906250000000016
40
0.906250000000016
40
0.921875000000013
40
0.921875000000013
40
0.93750000000001
40
0.93750000000001
40
0.968750000000005
40
0.968750000000005
40
1
40
1
40
1
40
1
41
1
10
18.9456034189725
20
-6.13744089871162
30
0
41
1
10
18.115859163103
20
-6.00933389260342
30
0
41
1
10
17.2771016309779
20
-5.83678195567742
30
0
41
1
10
15.9981729990464
20
-5.53472547393713
30
0
41
1
10
15.57001032788
20
-5.42726909856378
30
0
41
1
10
14.7105573832894
20
-5.20429444312251
30
0
41
1
10
14.2789534250948
20
-5.08870719322525
30
0
41
1
10
12.9764877184898
20
-4.73766489704292
30
0
41
1
10
12.0978691474611
20
-4.4980082972273
30
0
41
1
10
10.310872098217
20
-4.05098453655637
30
0
41
1
10
9.4024967127223
20
-3.84383333850641
30
0
41
1
10
8.01313951129848
20
-3.58626316034847
30
0
41
1
10
7.54532404854459
20
-3.50916382273263
30
0
41
1
10
6.60131422454211
20
-3.37666214682494
30
0
41
1
10
6.12740183123464
20
-3.3215697724456
30
0
41
1
10
5.17555960372346
20
-3.23635748596004
30
0
41
1
10
4.6981689270643
20
-3.20628874520889
30
0
41
1
10
4.10048736875186
20
-3.18569071784123
30
0
41
1
10
3.98091716081174
20
-3.1824197149318
30
0
41
1
10
3.80151032682616
20
-3.17880694066511
30
0
41
1
10
3.74170043266881
20
-3.17781838308125
30
0
41
1
10
3.6520090067427
20
-3.17666190882261
30
0
41
1
10
3.62211426442082
20
-3.17633077799496
30
0
41
1
10
3.56232959287686
20
-3.17577758405383
30
0
41
1
10
3.532523454737
20
-3.17745632511117
30
0
41
1
10
3.4880814330821
20
-3.18602118551558
30
0
41
1
10
3.47303454377561
20
-3.18994338388751
30
0
41
1
10
3.444850937544
20
-3.20023254435085
30
0
41
1
10
3.43209184948682
20
-3.20710950758826
30
0
41
1
10
3.39450841903422
20
-3.22861524214477
30
0
41
1
10
3.31973441439178
20
-3.27203724884845
30
0
41
1
10
3.24618837089761
20
-3.31673372103921
30
0
41
1
10
3.10089076240402
20
-3.40796281969941
30
0
41
1
10
3.00703223103918
20
-3.47083576782964
30
0
41
1
10
2.73647788384542
20
-3.66621582451523
30
0
41
1
10
2.57020994034986
20
-3.805352626131
30
0
41
1
10
2.35397766895144
20
-4.03337488752641
30
0
41
1
10
2.28889971169227
20
-4.11130264751282
30
0
41
1
10
2.20430519898619
20
-4.23051781066675
30
0
41
1
10
2.17824643773906
20
-4.2706831526308
30
0
41
1
10
2.13080834084232
20
-4.35190585392112
30
0
41
1
10
2.10934526403267
20
-4.39315333790967
30
0
41
1
10
2.0532972962437
20
-4.51695418112934
30
0
41
1
10
2.02744632340722
20
-4.59845590022749
30
0
41
1
10
2.00602622199963
20
-4.71886760084678
30
0
41
1
10
2.00178134836554
20
-4.75869786828801
30
0
41
1
10
1.99912542007169
20
-4.83769291610005
30
0
41
1
10
2.00075582828339
20
-4.87706223416799
30
0
41
1
10
2.01412320703395
20
-4.99182777367909
30
0
41
1
10
2.03414444642695
20
-5.06433798005995
30
0
41
1
10
2.09300889872847
20
-5.202247849629
30
0
41
1
10
2.1321661106571
20
-5.26784765526892
30
0
41
1
10
2.2694603400773
20
-5.449816802502
30
0
41
1
10
2.38762001158909
20
-5.55388699683286
30
0
41
1
10
2.59060651099659
20
-5.6920750584932
30
0
41
1
10
2.66213382559849
20
-5.73470321705005
30
0
41
1
10
2.81030317121991
20
-5.81375243378892
30
0
41
1
10
2.88712405178347
20
-5.85028298746514
30
0
41
1
10
3.12424512188542
20
-5.95232800960932
30
0
41
1
10
3.29112421777918
20
-6.0103706293603
30
0
41
1
10
3.63738261856386
20
-6.11117960754703
30
0
41
1
10
3.81737943715359
20
-6.15398043176833
30
0
41
1
10
4.0000000140578
20
-6.19005614210431
30
0
0
SPLINE
5
C4
100
AcDbEntity
8
1
62
256
6
ByLayer
370
18
48
1
60
0
100
AcDbSpline
70
4
71
3
72
8
73
4
40
0
40
0
40
0
40
0
40
1
40
1
40
1
40
1
41
1
10
59.7597371268876
20
6.35299961867287
30
0
41
1
10
59.3041070959775
20
6.38405397956492
30
0
41
1
10
58.8483356268065
20
6.39944492510776
30
0
41
1
10
58.3924254928507
20
6.39912256743077
30
0
0
SPLINE
5
C5
100
AcDbEntity
8
1
62
256
6
ByLayer
370
18
48
1
60
0
100
AcDbSpline
70
4
71
3
72
36
73
32
40
0
40
0
40
0
40
0
40
0.0570480250185252
40
0.0570480250185252
40
0.0963376906427544
40
0.0963376906427544
40
0.135627356266984
40
0.135627356266984
40
0.214206687515441
40
0.214206687515441
40
0.253496353139669
40
0.253496353139669
40
0.292786018763896
40
0.292786018763896
40
0.371365350012351
40
0.371365350012351
40
0.449944681260807
40
0.449944681260807
40
0.528524012509263
40
0.528524012509263
40
0.607103343757718
40
0.607103343757718
40
0.646393009381946
40
0.646393009381946
40
0.685682675006174
40
0.685682675006174
40
0.764262006254631
40
0.764262006254631
40
0.842841337503087
40
0.842841337503087
40
1
40
1
40
1
40
1
41
1
10
26.2555030525279
20
-6.11443613449893
30
0
41
1
10
25.8351292538682
20
-6.18213167645172
30
0
41
1
10
25.4150013350209
20
-6.23704356628008
30
0
41
1
10
24.7047630057594
20
-6.30764416631189
30
0
41
1
10
24.4148749253194
20
-6.33022118224889
30
0
41
1
10
23.8342468410842
20
-6.36278270092922
30
0
41
1
10
23.543766040029
20
-6.37273898610732
30
0
41
1
10
22.6739841989007
20
-6.38356388952368
30
0
41
1
10
22.0953860107112
20
-6.36544243817184
30
0
41
1
10
21.2266367620824
20
-6.30063419113873
30
0
41
1
10
20.9369133317427
20
-6.27276590417881
30
0
41
1
10
20.3568511208197
20
-6.20453515338107
30
0
41
1
10
20.066204902976
20
-6.16412284096927
30
0
41
1
10
19.1956755253891
20
-6.02484662805514
30
0
41
1
10
18.6167876513419
20
-5.90790963151539
30
0
41
1
10
17.4586379323367
20
-5.62827597581972
30
0
41
1
10
16.8792535098498
20
-5.46556058282579
30
0
41
1
10
15.7172434596233
20
-5.09692655161007
30
0
41
1
10
15.1379972319147
20
-4.89217935934491
30
0
41
1
10
13.9797043130695
20
-4.44591816765677
30
0
41
1
10
13.4007424120493
20
-4.20429679645179
30
0
41
1
10
12.5299845538193
20
-3.81730143438412
30
0
41
1
10
12.239300106414
20
-3.68420927794853
30
0
41
1
10
11.659257186854
20
-3.41167483221838
30
0
41
1
10
11.3695794737513
20
-3.27209341930089
30
0
41
1
10
10.5010076663702
20
-2.84432552122897
30
0
41
1
10
9.92274178417927
20
-2.54684617351194
30
0
41
1
10
8.76405364474007
20
-1.93319898427811
30
0
41
1
10
8.18231647593754
20
-1.61638662606759
30
0
41
1
10
6.44286105169277
20
-0.654074431226434
30
0
41
1
10
5.28894595656001
20
0.0052990380114579
30
0
41
1
10
4.12702928353372
20
0.658138816722015
30
0
0
SPLINE
5
C6
100
AcDbEntity
8
1
62
256
6
ByLayer
370
18
48
1
60
0
100
AcDbSpline
70
4
71
3
72
16
73
12
40
0
40
0
40
0
40
0
40
0.0162473793044543
40
0.0162473793044543
40
0.127531348144638
40
0.127531348144638
40
0.238815316984821
40
0.238815316984821
40
0.683951192345567
40
0.683951192345567
40
1
40
1
40
1
40
1
41
1
10
23.4944225308276
20
-6.0952188809672
30
0
41
1
10
23.4521871215921
20
-6.09578467130513
30
0
41
1
10
23.4099409173036
20
-6.09622205375822
30
0
41
1
10
23.0782464784043
20
-6.09864569337472
30
0
41
1
10
22.7882711950539
20
-6.09471747178114
30
0
41
1
10
22.2069276999115
20
-6.07473426058252
30
0
41
1
10
21.915063040096
20
-6.05861298905035
30
0
41
1
10
20.4570296085149
20
-5.94761602765593
30
0
41
1
10
19.3039341158948
20
-5.76283847865412
30
0
41
1
10
17.3338564308403
20
-5.30009421349047
30
0
41
1
10
16.5164366607191
20
-5.06463994439221
30
0
41
1
10
15.6951472491609
20
-4.78985304373563
30
0
0
SPLINE
5
C7
100
AcDbEntity
8
1
62
256
6
ByLayer
370
13
48
1
60
0
100
AcDbSpline
70
4
71
3
72
20
73
16
40
0
40
0
40
0
40
0
40
0.0881444420667622
40
0.0881444420667622
40
0.164132405227866
40
0.164132405227866
40
0.240120368388969
40
0.240120368388969
40
0.392096294711175
40
0.392096294711175
40
0.696048147355587
40
0.696048147355587
40
0.848024073677794
40
0.848024073677794
40
1
40
1
40
1
40
1
41
1
10
15.6951472490533
20
-4.78985304369962
30
0
41
1
10
15.3596995609199
20
-4.67761900140164
30
0
41
1
10
15.023606325762
20
-4.55882335289766
30
0
41
1
10
14.3960070418703
20
-4.32590343308507
30
0
41
1
10
14.1044988327629
20
-4.21329802832722
30
0
41
1
10
13.5207325024927
20
-3.97946721079904
30
0
41
1
10
13.2297482344343
20
-3.85875151667429
30
0
41
1
10
12.3587771156817
20
-3.48639381163395
30
0
41
1
10
11.7807410486121
20
-3.22458369757294
30
0
41
1
10
10.0498638972294
20
-2.40626180816346
30
0
41
1
10
8.90095455893561
20
-1.81585549725031
30
0
41
1
10
7.16559862903333
20
-0.897011888579158
30
0
41
1
10
6.58530593556813
20
-0.5849221800664
30
0
41
1
10
5.4179709656664
20
0.0453476302175773
30
0
41
1
10
4.83421613109235
20
0.361357914695873
30
0
41
1
10
4.25023726189463
20
0.674633459850838
30
0
0
SPLINE
5
C8
100
AcDbEntity
8
1
62
256
6
ByLayer
370
13
48
1
60
0
100
AcDbSpline
70
4
71
3
72
10
73
6
40
0
40
0
40
0
40
0
40
0.102414849761569
40
0.102414849761569
40
1
40
1
40
1
40
1
41
1
10
4.25051801925574
20
-6.08584532428776
30
0
41
1
10
4.25052275568439
20
-6.08541404837433
30
0
41
1
10
4.25052750273792
20
-6.08438327421629
30
0
41
1
10
4.25057389983343
20
-6.06850913077162
30
0
41
1
10
4.25061601023444
20
-6.00904278684786
30
0
41
1
10
4.25065388405494
20
-5.90348141731295
30
0
0
SPLINE
5
C9
100
AcDbEntity
8
1
62
256
6
ByLayer
370
18
48
1
60
0
100
AcDbSpline
70
4
71
3
72
16
73
12
40
0
40
0
40
0
40
0
40
0.196277956466163
40
0.196277956466163
40
0.50109113727035
40
0.50109113727035
40
0.653497727672444
40
0.653497727672444
40
0.805904318074537
40
0.805904318074537
40
1
40
1
40
1
40
1
41
1
10
18.9456178519355
20
6.13743288650036
30
0
41
1
10
18.7006309934431
20
6.0254626024981
30
0
41
1
10
18.456321688986
20
5.9073670114181
30
0
41
1
10
17.833504071944
20
5.58931256625112
30
0
41
1
10
17.4555212829743
20
5.38009194510002
30
0
41
1
10
16.8854543367337
20
5.04545839632485
30
0
41
1
10
16.694238446964
20
4.93009356140266
30
0
41
1
10
16.3168923511006
20
4.69835643356279
30
0
41
1
10
16.1299875135848
20
4.58155639396489
30
0
41
1
10
15.7077096229699
20
4.31605830231339
30
0
41
1
10
15.473061711666
20
4.16738269674619
30
0
41
1
10
15.2390004485813
20
4.02076350969969
30
0
0
SPLINE
5
CA
100
AcDbEntity
8
1
62
256
6
ByLayer
370
18
48
1
60
0
100
AcDbSpline
70
4
71
3
72
26
73
22
40
0
40
0
40
0
40
0
40
0.125000000000003
40
0.125000000000003
40
0.187500000000004
40
0.187500000000004
40
0.250000000000004
40
0.250000000000004
40
0.500000000000003
40
0.500000000000003
40
0.562500000000002
40
0.562500000000002
40
0.625000000000002
40
0.625000000000002
40
0.750000000000001
40
0.750000000000001
40
0.875
40
0.875
40
0.9375
40
0.9375
40
1
40
1
40
1
40
1
41
1
10
59.7728939892475
20
-6.1189234752876
30
0
41
1
10
59.6841889287578
20
-6.11882102139219
30
0
41
1
10
59.5997489701143
20
-6.10585316481974
30
0
41
1
10
59.4797948075417
20
-6.06617384406439
30
0
41
1
10
59.4409305004524
20
-6.0495677484576
30
0
41
1
10
59.365532316054
20
-6.00932596718562
30
0
41
1
10
59.3288836110285
20
-5.98558518114592
30
0
41
1
10
59.1538876934255
20
-5.8502067850099
30
0
41
1
10
59.0388803018544
20
-5.68917585660367
30
0
41
1
10
58.9279049782997
20
-5.41871221676234
30
0
41
1
10
58.9073706049333
20
-5.361115383618
30
0
41
1
10
58.8697563176795
20
-5.23863271122823
30
0
41
1
10
58.8526419153697
20
-5.1735161981953
30
0
41
1
10
58.8074043660938
20
-4.97005232065695
30
0
41
1
10
58.7850755677161
20
-4.8229036214392
30
0
41
1
10
58.7558417025833
20
-4.50593993774848
30
0
41
1
10
58.748935964071
20
-4.33612594047116
30
0
41
1
10
58.7504762850947
20
-4.06391861110285
30
0
41
1
10
58.7529908709615
20
-3.97001522301792
30
0
41
1
10
58.7620634663223
20
-3.77733403021682
30
0
41
1
10
58.7685926638969
20
-3.67894362759338
30
0
41
1
10
58.7770823528392
20
-3.57853675268419
30
0
0
SPLINE
5
CB
100
AcDbEntity
8
1
62
256
6
ByLayer
370
13
48
1
60
0
100
AcDbSpline
70
4
71
3
72
8
73
4
40
0
40
0
40
0
40
0
40
1
40
1
40
1
40
1
41
1
10
4.2502372618946
20
0.674633459850895
30
0
41
1
10
4.20805567514537
20
0.688208620720559
30
0
41
1
10
4.16686585064022
20
0.70253690439057
30
0
41
1
10
4.12946129216536
20
0.716870965362062
30
0
0
SPLINE
5
CC
100
AcDbEntity
8
1
62
256
6
ByLayer
370
18
48
1
60
0
100
AcDbSpline
70
4
71
3
72
20
73
16
40
0
40
0
40
0
40
0
40
0.125
40
0.125
40
0.25
40
0.25
40
0.5
40
0.5
40
0.625
40
0.625
40
0.75
40
0.75
40
0.875
40
0.875
40
1
40
1
40
1
40
1
41
1
10
11.5920036799356
20
-5.27208183829919
30
0
41
1
10
11.2716122917192
20
-5.3585726572131
30
0
41
1
10
10.9533322484425
20
-5.43914426376222
30
0
41
1
10
10.3200285770157
20
-5.58774495205179
30
0
41
1
10
10.0049477621774
20
-5.65649543978205
30
0
41
1
10
9.06360105291841
20
-5.84249822065135
30
0
41
1
10
8.44105226134926
20
-5.93987723724669
30
0
41
1
10
7.51327693689242
20
-6.03513795508522
30
0
41
1
10
7.20508853196188
20
-6.05795312180769
30
0
41
1
10
6.59096915675181
20
-6.08631589532675
30
0
41
1
10
6.28604619263825
20
-6.09118009188927
30
0
41
1
10
5.68603502900206
20
-6.07955687287421
30
0
41
1
10
5.39027436438161
20
-6.0632456499392
30
0
41
1
10
4.81033279572762
20
-6.00483176544816
30
0
41
1
10
4.52606346186508
20
-5.96284933249606
30
0
41
1
10
4.2506538893164
20
-5.90348141617679
30
0
0
SPLINE
5
CD
100
AcDbEntity
8
1
62
256
6
ByLayer
370
18
48
1
60
0
100
AcDbSpline
70
4
71
3
72
42
73
38
40
0
40
0
40
0
40
0
40
0.250000000000008
40
0.250000000000008
40
0.375000000000012
40
0.375000000000012
40
0.500000000000016
40
0.500000000000016
40
0.62500000000002
40
0.62500000000002
40
0.68750000000002
40
0.68750000000002
40
0.718750000000018
40
0.718750000000018
40
0.750000000000016
40
0.750000000000016
40
0.781250000000013
40
0.781250000000013
40
0.812500000000011
40
0.812500000000011
40
0.843750000000009
40
0.843750000000009
40
0.875000000000007
40
0.875000000000007
40
0.890625000000006
40
0.890625000000006
40
0.906250000000005
40
0.906250000000005
40
0.921875000000004
40
0.921875000000004
40
0.937500000000003
40
0.937500000000003
40
0.953125000000003
40
0.953125000000003
40
0.968750000000002
40
0.968750000000002
40
1
40
1
40
1
40
1
41
1
10
53.1181328667788
20
2.94337110006734
30
0
41
1
10
53.6364463514593
20
2.54041423565562
30
0
41
1
10
54.1649899795377
20
2.17277274731814
30
0
41
1
10
54.9769459436246
20
1.68738531995521
30
0
41
1
10
55.2507670257705
20
1.53652950905297
30
0
41
1
10
55.8055744648094
20
1.25955306079729
30
0
41
1
10
56.0878611500659
20
1.13302102530562
30
0
41
1
10
56.6490805649161
20
0.913762754147825
30
0
41
1
10
56.9290099681271
20
0.820365088554183
30
0
41
1
10
57.3477286517761
20
0.708313122310614
30
0
41
1
10
57.4871054788465
20
0.675640467326218
30
0
41
1
10
57.6958458263967
20
0.634383152068807
30
0
41
1
10
57.7651967844229
20
0.621963245950127
30
0
41
1
10
57.9033367866144
20
0.599894710073329
30
0
41
1
10
57.9722915266757
20
0.589457780021405
30
0
41
1
10
58.1086037262619
20
0.576861792697628
30
0
41
1
10
58.1756773624905
20
0.574220916008187
30
0
41
1
10
58.3072631326362
20
0.577483665366316
30
0
41
1
10
58.3716091955244
20
0.583315692989061
30
0
41
1
10
58.4945617578669
20
0.606099332314926
30
0
41
1
10
58.5534268343599
20
0.62297871306771
30
0
41
1
10
58.6628689815439
20
0.674155082059173
30
0
41
1
10
58.7121625909262
20
0.70747162411044
30
0
41
1
10
58.7747413457762
20
0.770935389641437
30
0
41
1
10
58.7939375827633
20
0.794563591845673
30
0
41
1
10
58.8274171003557
20
0.845505461822256
30
0
41
1
10
58.8417461496478
20
0.87278787395195
30
0
41
1
10
58.8655810706944
20
0.930976973904137
30
0
41
1
10
58.8750678234655
20
0.9618980282861
30
0
41
1
10
58.8889292799482
20
1.02758147919477
30
0
41
1
10
58.893204072508
20
1.06205161459718
30
0
41
1
10
58.8965941808981
20
1.13241353662986
30
0
41
1
10
58.8957235104831
20
1.1685614570448
30
0
41
1
10
58.8895224587677
20
1.24253805477997
30
0
41
1
10
58.8841895385379
20
1.28048287743948
30
0
41
1
10
58.8630699307612
20
1.39391864754199
30
0
41
1
10
58.8421643970071
20
1.46984132872944
30
0
41
1
10
58.8165969680988
20
1.54596810846326
30
0
0
SPLINE
5
CE
100
AcDbEntity
8
1
62
256
6
ByLayer
370
18
48
1
60
0
100
AcDbSpline
70
4
71
3
72
18
73
14
40
0
40
0
40
0
40
0
40
0.066086728925648
40
0.066086728925648
40
0.301270900101931
40
0.301270900101931
40
0.536455071278215
40
0.536455071278215
40
0.654047156866356
40
0.654047156866356
40
0.771639242454498
40
0.771639242454498
40
1
40
1
40
1
40
1
41
1
10
58.5968087484963
20
-6.11838266067474
30
0
41
1
10
58.4340255024819
20
-6.11824863129942
30
0
41
1
10
58.2713743300311
20
-6.11619449364923
30
0
41
1
10
57.5303413707904
20
-6.09813227553315
30
0
41
1
10
56.9530851836917
20
-6.05990291241324
30
0
41
1
10
55.7981277805264
20
-5.93619557992238
30
0
41
1
10
55.2204313477527
20
-5.85067625894337
30
0
41
1
10
54.3511184357143
20
-5.68776949613527
30
0
41
1
10
54.0608950879891
20
-5.62768440502836
30
0
41
1
10
53.4791681688094
20
-5.49611647926295
30
0
41
1
10
53.1871174120062
20
-5.42448270033825
30
0
41
1
10
52.3307464551112
20
-5.19862250332255
30
0
41
1
10
51.7685064641593
20
-5.03022477236075
30
0
41
1
10
51.2079222716608
20
-4.84440946864297
30
0
0
SPLINE
5
CF
100
AcDbEntity
8
1
62
256
6
ByLayer
370
13
48
1
60
0
100
AcDbSpline
70
4
71
3
72
24
73
20
40
0
40
0
40
0
40
0
40
0.119029673467922
40
0.119029673467922
40
0.350376927493319
40
0.350376927493319
40
0.408213740999668
40
0.408213740999668
40
0.466050554506018
40
0.466050554506018
40
0.58172418151872
40
0.58172418151872
40
0.81307143554412
40
0.81307143554412
40
0.928745062556821
40
0.928745062556821
40
0.986581876063171
40
0.986581876063171
40
1
40
1
40
1
40
1
41
1
10
51.2079222717066
20
-4.84440946865814
30
0
41
1
10
50.6138375963479
20
-4.64748985183257
30
0
41
1
10
50.0216125335785
20
-4.43100871319183
30
0
41
1
10
48.278944211695
20
-3.74281847657247
30
0
41
1
10
47.1289291615869
20
-3.22325510650555
30
0
41
1
10
45.6772021185521
20
-2.51389208597138
30
0
41
1
10
45.385825809656
20
-2.36888586857975
30
0
41
1
10
44.8025674073425
20
-2.07417379157468
30
0
41
1
10
44.5118132363257
20
-1.92503713048336
30
0
41
1
10
43.6416406888424
20
-1.47329846183433
30
0
41
1
10
43.0641876748744
20
-1.16660054957327
30
0
41
1
10
41.3353204585525
20
-0.23834844791196
30
0
41
1
10
40.1873230197785
20
0.391225606905806
30
0
41
1
10
38.454013425817
20
1.31742669009881
30
0
41
1
10
37.8743738604902
20
1.62316150982002
30
0
41
1
10
36.9997576157714
20
2.07283424294462
30
0
41
1
10
36.7079500015006
20
2.22091303690505
30
0
41
1
10
36.3494004868218
20
2.39988338557362
30
0
41
1
10
36.2819030301344
20
2.43344545272637
30
0
41
1
10
36.2144252392741
20
2.46686460143965
30
0
0
SPLINE
5
D0
100
AcDbEntity
8
1
62
256
6
ByLayer
370
18
48
1
60
0
100
AcDbSpline
70
4
71
3
72
8
73
4
40
0
40
0
40
0
40
0
40
1
40
1
40
1
40
1
41
1
10
4.00000001406161
20
-6.15392489676844
30
0
41
1
10
4.00000001406161
20
-6.16594684249347
30
0
41
1
10
4.0000000140615
20
-6.17799058300292
30
0
41
1
10
4.0000000140615
20
-6.19005614210474
30
0
0
SPLINE
5
D1
100
AcDbEntity
8
1
62
256
6
ByLayer
370
18
48
1
60
0
100
AcDbSpline
70
4
71
3
72
12
73
8
40
0
40
0
40
0
40
0
40
0.25
40
0.25
40
0.500000000000001
40
0.500000000000001
40
1
40
1
40
1
40
1
41
1
10
4.12702928353369
20
0.658138816722044
30
0
41
1
10
4.10768564432672
20
0.669007321695346
30
0
41
1
10
4.09020488436664
20
0.682150810311953
30
0
41
1
10
4.05886169938154
20
0.712847327780139
30
0
41
1
10
4.04515644494737
20
0.730390572649981
30
0
41
1
10
4.01201911777693
20
0.786749699959614
30
0
41
1
10
4.00000001406153
20
0.830232547236363
30
0
41
1
10
4.00000001406144
20
0.874245857783933
30
0
0
SPLINE
5
D2
100
AcDbEntity
8
1
62
256
6
ByLayer
370
18
48
1
60
0
100
AcDbSpline
70
4
71
3
72
14
73
10
40
0
40
0
40
0
40
0
40
0.413735875696157
40
0.413735875696157
40
0.62060381354424
40
0.62060381354424
40
0.827471751392323
40
0.827471751392323
40
1
40
1
40
1
40
1
41
1
10
18.9456178514684
20
-6.13743288628689
30
0
41
1
10
19.3722764147202
20
-6.20341728585203
30
0
41
1
10
19.7990716353998
20
-6.2554328828958
30
0
41
1
10
20.4384365343183
20
-6.31350465004129
30
0
41
1
10
20.6514349295264
20
-6.32951538351708
30
0
41
1
10
21.0769938118893
20
-6.35481768592604
30
0
41
1
10
21.2895234553237
20
-6.36409016456295
30
0
41
1
10
21.6800279564994
20
-6.37475059941465
30
0
41
1
10
21.8578047302289
20
-6.37722715641638
30
0
41
1
10
22.0357210883154
20
-6.37732689099715
30
0
0
SPLINE
5
D3
100
AcDbEntity
8
1
62
256
6
ByLayer
370
18
48
1
60
0
100
AcDbSpline
70
4
71
3
72
30
73
26
40
0
40
0
40
0
40
0
40
0.0593353480981475
40
0.0593353480981475
40
0.118126888842013
40
0.118126888842013
40
0.176918429585878
40
0.176918429585878
40
0.294501511073611
40
0.294501511073611
40
0.412084592561344
40
0.412084592561344
40
0.470876133305211
40
0.470876133305211
40
0.529667674049078
40
0.529667674049078
40
0.647250755536808
40
0.647250755536808
40
0.764833837024539
40
0.764833837024539
40
0.88241691851227
40
0.88241691851227
40
0.941208459256134
40
0.941208459256134
40
1
40
1
40
1
40
1
41
1
10
48.9843108534289
20
4.67490006111186
30
0
41
1
10
49.1996651318909
20
4.75809225489189
30
0
41
1
10
49.4150878280154
20
4.83884213922775
30
0
41
1
10
49.8435566468151
20
4.99473999169615
30
0
41
1
10
50.0563117635324
20
5.06989076144095
30
0
41
1
10
50.4821517816867
20
5.21390565859588
30
0
41
1
10
50.6951481857708
20
5.28288601063096
30
0
41
1
10
51.3339898584454
20
5.48123783118098
30
0
41
1
10
51.7595467346022
20
5.60216448819511
30
0
41
1
10
52.6101928567823
20
5.82077825147823
30
0
41
1
10
53.0373642084838
20
5.9173482917758
30
0
41
1
10
53.6776921479241
20
6.04309541202383
30
0
41
1
10
53.890849089443
20
6.08179059107138
30
0
41
1
10
54.3163856502877
20
6.15280987837713
30
0
41
1
10
54.5287778067789
20
6.18510334598938
30
0
41
1
10
55.1667054640008
20
6.2715291089485
30
0
41
1
10
55.5924187489625
20
6.31560379744974
30
0
41
1
10
56.4434424474632
20
6.37713798250891
30
0
41
1
10
56.8684395362026
20
6.39445565197224
30
0
41
1
10
57.7225758749791
20
6.40136214998313
30
0
41
1
10
58.1491726953538
20
6.391157167925
30
0
41
1
10
58.7867694735549
20
6.35525119096317
30
0
41
1
10
58.9990207412938
20
6.33982420133847
30
0
41
1
10
59.4241053272245
20
6.30237488658634
30
0
41
1
10
59.636786456708
20
6.28033222767706
30
0
41
1
10
59.8495133093511
20
6.25496477705917
30
0
0
SPLINE
5
D4
100
AcDbEntity
8
1
62
256
6
ByLayer
370
18
48
1
60
0
100
AcDbSpline
70
4
71
3
72
20
73
16
40
0
40
0
40
0
40
0
40
0.125000000000001
40
0.125000000000001
40
0.250000000000001
40
0.250000000000001
40
0.499999999999998
40
0.499999999999998
40
0.624999999999998
40
0.624999999999998
40
0.749999999999999
40
0.749999999999999
40
0.874999999999999
40
0.874999999999999
40
1
40
1
40
1
40
1
41
1
10
61.0372127141221
20
3.11765905478205
30
0
41
1
10
60.9880574146843
20
3.24972725618528
30
0
41
1
10
60.9388324563243
20
3.38171838669734
30
0
41
1
10
60.840278342689
20
3.64531851611196
30
0
41
1
10
60.7909506697181
20
3.77694546756243
30
0
41
1
10
60.6429371055347
20
4.17172185346055
30
0
41
1
10
60.5441775626453
20
4.43461939042382
30
0
41
1
10
60.3956446498487
20
4.82761954237353
30
0
41
1
10
60.3460527532896
20
4.95834432891789
30
0
41
1
10
60.2468873221465
20
5.21959575129989
30
0
41
1
10
60.1972943336184
20
5.35008247797936
30
0
41
1
10
60.0980524156573
20
5.61029909768754
30
0
41
1
10
60.0483998765813
20
5.73998015526226
30
0
41
1
10
59.9489971851182
20
5.99802164395751
30
0
41
1
10
59.899276905219
20
6.12678622485436
30
0
41
1
10
59.8495133093611
20
6.25496477705798
30
0
0
SPLINE
5
D5
100
AcDbEntity
8
1
62
256
6
ByLayer
370
18
48
1
60
0
100
AcDbSpline
70
4
71
3
72
32
73
28
40
0
40
0
40
0
40
0
40
0.016299165959566
40
0.016299165959566
40
0.0527325301832857
40
0.0527325301832857
40
0.125599258630725
40
0.125599258630725
40
0.271332715525604
40
0.271332715525604
40
0.344199443973043
40
0.344199443973043
40
0.417066172420483
40
0.417066172420483
40
0.562799629315362
40
0.562799629315362
40
0.635666357762802
40
0.635666357762802
40
0.708533086210242
40
0.708533086210242
40
0.781399814657681
40
0.781399814657681
40
0.817833178881401
40
0.817833178881401
40
0.854266543105121
40
0.854266543105121
40
1
40
1
40
1
40
1
41
1
10
4.00000001406155
20
6.33604823464134
30
0
41
1
10
4.00000001406155
20
6.33619787513007
30
0
41
1
10
4.00000001406155
20
6.33576939895022
30
0
41
1
10
4.00000001406158
20
6.33249914122598
30
0
41
1
10
4.0000000140615
20
6.32730338968568
30
0
41
1
10
4.00000001406147
20
6.30297409575496
30
0
41
1
10
4.00000001406155
20
6.27525035720072
30
0
41
1
10
4.00000001406155
20
6.15866578623877
30
0
41
1
10
4.00000001406155
20
6.03675490096771
30
0
41
1
10
4.00000001406155
20
5.78531663750573
30
0
41
1
10
4.00000001406155
20
5.69020405895256
30
0
41
1
10
4.00000001406155
20
5.48044709029421
30
0
41
1
10
4.00000001406155
20
5.36612719474687
30
0
41
1
10
4.00000001406155
20
4.99569291314003
30
0
41
1
10
4.00000001406155
20
4.71240506060369
30
0
41
1
10
4.00000001406155
20
4.23087904143981
30
0
41
1
10
4.00000001406155
20
4.06324701631218
30
0
41
1
10
4.00000001406155
20
3.71562014367979
30
0
41
1
10
4.00000001406153
20
3.5353978518078
30
0
41
1
10
4.00000001406153
20
3.16219982109348
30
0
41
1
10
4.00000001406155
20
2.96922487725098
30
0
41
1
10
4.00000001406155
20
2.66992952355784
30
0
41
1
10
4.00000001406155
20
2.56827444634854
30
0
41
1
10
4.00000001406155
20
2.36366313324501
30
0
41
1
10
4.00000001406155
20
2.26054257385596
30
0
41
1
10
4.00000001406155
20
1.74092427765828
30
0
41
1
10
4.00000001406155
20
1.31251236069394
30
0
41
1
10
4.00000001406155
20
0.871070316086929
30
0
0
SPLINE
5
D6
100
AcDbEntity
8
1
62
256
6
ByLayer
370
18
48
1
60
0
100
AcDbSpline
70
4
71
3
72
14
73
10
40
0
40
0
40
0
40
0
40
0.443878064669248
40
0.443878064669248
40
0.66581709700387
40
0.66581709700387
40
0.887756129338493
40
0.887756129338493
40
1
40
1
40
1
40
1
41
1
10
18.9456034189725
20
6.13744089871162
30
0
41
1
10
18.1158591631031
20
6.00933389260342
30
0
41
1
10
17.277101630978
20
5.83678195567745
30
0
41
1
10
15.9981729990467
20
5.53472547393719
30
0
41
1
10
15.5700103278803
20
5.42726909856387
30
0
41
1
10
14.7105573832898
20
5.20429444312262
30
0
41
1
10
14.2789534250951
20
5.08870719322533
30
0
41
1
10
13.6252276904381
20
4.9125141604232
30
0
41
1
10
13.4049980530532
20
4.85297532536106
30
0
41
1
10
13.1840353527738
20
4.79342865001738
30
0
0
SPLINE
5
D7
100
AcDbEntity
8
1
62
256
6
ByLayer
370
18
48
1
60
0
100
AcDbSpline
70
4
71
3
72
8
73
4
40
0
40
0
40
0
40
0
40
1
40
1
40
1
40
1
41
1
10
59.7597371268876
20
-6.35299961867287
30
0
41
1
10
59.7826812663219
20
-6.29140470253228
30
0
41
1
10
59.8056044995506
20
-6.2297674689641
30
0
41
1
10
59.8285068056842
20
-6.16808787568473
30
0
0
SPLINE
5
D8
100
AcDbEntity
8
1
62
256
6
ByLayer
370
18
48
1
60
0
100
AcDbSpline
70
4
71
3
72
20
73
16
40
0
40
0
40
0
40
0
40
0.125000000000002
40
0.125000000000002
40
0.250000000000003
40
0.250000000000003
40
0.500000000000002
40
0.500000000000002
40
0.625000000000002
40
0.625000000000002
40
0.750000000000001
40
0.750000000000001
40
0.875000000000001
40
0.875000000000001
40
1
40
1
40
1
40
1
41
1
10
61.0372127141222
20
-3.11765905478208
30
0
41
1
10
60.9880574146844
20
-3.24972725618534
30
0
41
1
10
60.9388324563242
20
-3.38171838669737
30
0
41
1
10
60.8402783426889
20
-3.64531851611199
30
0
41
1
10
60.7909506697181
20
-3.77694546756246
30
0
41
1
10
60.6429371055347
20
-4.17172185346058
30
0
41
1
10
60.5441775626453
20
-4.43461939042382
30
0
41
1
10
60.3956446498486
20
-4.82761954237353
30
0
41
1
10
60.3460527532895
20
-4.95834432891789
30
0
41
1
10
60.2468873221465
20
-5.21959575129986
30
0
41
1
10
60.1972943336184
20
-5.35008247797936
30
0
41
1
10
60.0980524156573
20
-5.61029909768754
30
0
41
1
10
60.0483998765812
20
-5.73998015526223
30
0
41
1
10
59.9489971851182
20
-5.99802164395751
30
0
41
1
10
59.899276905219
20
-6.12678622485433
30
0
41
1
10
59.8495133093611
20
-6.25496477705798
30
0
0
SPLINE
5
D9
100
AcDbEntity
8
1
62
256
6
ByLayer
370
18
48
1
60
0
100
AcDbSpline
70
4
71
3
72
16
73
12
40
0
40
0
40
0
40
0
40
0.0894155299354002
40
0.0894155299354002
40
0.27153242394832
40
0.27153242394832
40
0.635766211974158
40
0.635766211974158
40
0.817883105987079
40
0.817883105987079
40
1
40
1
40
1
40
1
41
1
10
6.4488707643572
20
6.08610022460306
30
0
41
1
10
6.59838963322306
20
6.08377520883153
30
0
41
1
10
6.74867733829157
20
6.07904413406331
30
0
41
1
10
7.20599414890876
20
6.05788689622165
30
0
41
1
10
7.51389813829363
20
6.03508145199999
30
0
41
1
10
8.44098776371484
20
5.93986928636141
30
0
41
1
10
9.06329040286894
20
5.84254940392256
30
0
41
1
10
10.0045452674689
20
5.6565800644513
30
0
41
1
10
10.3196424994787
20
5.58783201564503
30
0
41
1
10
10.9530657470713
20
5.43921032003786
30
0
41
1
10
11.271453307552
20
5.35861557556976
30
0
41
1
10
11.592003680231
20
5.27208183821961
30
0
0
SPLINE
5
DA
100
AcDbEntity
8
1
62
256
6
ByLayer
370
18
48
1
60
0
100
AcDbSpline
70
4
71
3
72
12
73
8
40
0
40
0
40
0
40
0
40
0.249999999999992
40
0.249999999999992
40
0.499999999999984
40
0.499999999999984
40
1
40
1
40
1
40
1
41
1
10
59.8285068056842
20
-6.16808787568473
30
0
41
1
10
59.8333901012391
20
-6.15493637548497
30
0
41
1
10
59.8380714692459
20
-6.14153460183118
30
0
41
1
10
59.8458054603484
20
-6.11740653811154
30
0
41
1
10
59.8488410630711
20
-6.10670433513371
30
0
41
1
10
59.8543133985146
20
-6.08288397049662
30
0
41
1
10
59.8532104770299
20
-6.07840289741776
30
0
41
1
10
59.8495171828233
20
-6.08147766349538
30
0
0
SPLINE
5
DB
100
AcDbEntity
8
1
62
256
6
ByLayer
370
18
48
1
60
0
100
AcDbSpline
70
4
71
3
72
14
73
10
40
0
40
0
40
0
40
0
40
0.0265590375184436
40
0.0265590375184436
40
0.314427123454544
40
0.314427123454544
40
0.602295209390645
40
0.602295209390645
40
1
40
1
40
1
40
1
41
1
10
12.5255274955491
20
-4.61990291849594
30
0
41
1
10
12.5173796932629
20
-4.62610038823604
30
0
41
1
10
12.509224240396
20
-4.63229207444451
30
0
41
1
10
12.4125813786727
20
-4.70552391824833
30
0
41
1
10
12.3233658016378
20
-4.77173006005501
30
0
41
1
10
12.1449935019738
20
-4.9008800899087
30
0
41
1
10
12.0555892423308
20
-4.96401288472964
30
0
41
1
10
11.8419241633543
20
-5.11073082773265
30
0
41
1
10
11.7173698826737
20
-5.19291230876487
30
0
41
1
10
11.592040049462
20
-5.27208076284154
30
0
0
SPLINE
5
DC
100
AcDbEntity
8
1
62
256
6
ByLayer
370
18
48
1
60
0
100
AcDbSpline
70
4
71
3
72
18
73
14
40
0
40
0
40
0
40
0
40
0.125000000000001
40
0.125000000000001
40
0.250000000000002
40
0.250000000000002
40
0.375000000000003
40
0.375000000000003
40
0.500000000000004
40
0.500000000000004
40
0.750000000000002
40
0.750000000000002
40
1
40
1
40
1
40
1
41
1
10
4.25065388405577
20
-5.90348141504242
30
0
41
1
10
4.2364911982325
20
-5.90042847413491
30
0
41
1
10
4.22189530613451
20
-5.89867501892192
30
0
41
1
10
4.19154499793038
20
-5.89859175750823
30
0
41
1
10
4.17560851490813
20
-5.90032022964675
30
0
41
1
10
4.14374290046385
20
-5.90844277522919
30
0
41
1
10
4.12738962209042
20
-5.91500724655916
30
0
41
1
10
4.09657797118271
20
-5.93328837436539
30
0
41
1
10
4.08181469656293
20
-5.94524291951441
30
0
41
1
10
4.04354866024823
20
-5.98619931627732
30
0
41
1
10
4.02569621961715
20
-6.0204096547026
30
0
41
1
10
4.00434415043071
20
-6.08747026947265
30
0
41
1
10
4.00000001406312
20
-6.12127115274578
30
0
41
1
10
4.00000001406155
20
-6.15392489677168
30
0
0
SPLINE
5
DD
100
AcDbEntity
8
1
62
256
6
ByLayer
370
18
48
1
60
0
100
AcDbSpline
70
4
71
3
72
8
73
4
40
0
40
0
40
0
40
0
40
1
40
1
40
1
40
1
41
1
10
59.8495171828247
20
-6.08147766349427
30
0
41
1
10
59.819560490652
20
-6.10641740988316
30
0
41
1
10
59.7939973014686
20
-6.1189617674319
30
0
41
1
10
59.7728939892427
20
-6.11892347528763
30
0
0
LINE
5
76
100
AcDbEntity
8
81
62
256
6
ByLayer
370
18
48
1
60
0
100
AcDbLine
10
62
20
0
30
0
11
67
21
0
31
0
39
0
210
0
220
0
230
1
0
LINE
5
77
100
AcDbEntity
8
1
62
256
6
ByLayer
370
18
48
1
60
0
100
AcDbLine
10
4
20
6.36649
30
0
11
1.276823
21
6.364856
31
0
39
0
210
0
220
0
230
1
0
LINE
5
79
100
AcDbEntity
8
1
62
256
6
ByLayer
370
18
48
1
60
0
100
AcDbLine
10
22.994271
20
6.377887
30
0
11
22.036577
21
6.377312
31
0
39
0
210
0
220
0
230
1
0
LINE
5
7A
100
AcDbEntity
8
1
62
256
6
ByLayer
370
18
48
1
60
0
100
AcDbLine
10
58.394446
20
6.399127
30
0
11
57.444607
21
6.398557
31
0
39
0
210
0
220
0
230
1
0
LINE
5
7B
100
AcDbEntity
8
1
62
256
6
ByLayer
370
18
48
1
60
0
100
AcDbLine
10
57.444607
20
-6.398557
30
0
11
58.394162
21
-6.399127
31
0
39
0
210
0
220
0
230
1
0
LINE
5
7C
100
AcDbEntity
8
1
62
256
6
ByLayer
370
18
48
1
60
0
100
AcDbLine
10
22.036577
20
-6.377312
30
0
11
22.993999
21
-6.377887
31
0
39
0
210
0
220
0
230
1
0
LINE
5
7D
100
AcDbEntity
8
1
62
256
6
ByLayer
370
18
48
1
60
0
100
AcDbLine
10
1.276823
20
-6.364856
30
0
11
4
21
-6.36649
31
0
39
0
210
0
220
0
230
1
0
LINE
5
7E
100
AcDbEntity
8
SK1
62
256
6
ByLayer
370
18
48
1
60
0
100
AcDbLine
10
-43.267949
20
7
30
0
11
-45
21
4
31
0
39
0
210
0
220
0
230
1
0
LINE
5
80
100
AcDbEntity
8
SK1
62
256
6
ByLayer
370
18
48
1
60
0
100
AcDbLine
10
-45
20
-4
30
0
11
-43.267949
21
-7
31
0
39
0
210
0
220
0
230
1
0
LINE
5
81
100
AcDbEntity
8
SK1
62
256
6
ByLayer
370
18
48
1
60
0
100
AcDbLine
10
0
20
7
30
0
11
-43.267949
21
7
31
0
39
0
210
0
220
0
230
1
0
LINE
5
82
100
AcDbEntity
8
SK1
62
256
6
ByLayer
370
18
48
1
60
0
100
AcDbLine
10
-43.267949
20
-7
30
0
11
0
21
-7
31
0
39
0
210
0
220
0
230
1
0
LINE
5
83
100
AcDbEntity
8
SK4
62
256
6
ByLayer
370
18
48
0.05
60
0
100
AcDbLine
10
67
20
0
30
0
11
-50
21
0
31
0
39
0
210
0
220
0
230
1
0
LINE
5
85
100
AcDbEntity
8
4
62
256
6
ByLayer
370
18
48
0.05
60
0
100
AcDbLine
10
62
20
0
30
0
11
0
21
0
31
0
39
0
210
0
220
0
230
1
0
LINE
5
87
100
AcDbEntity
8
80
62
256
6
ByLayer
370
18
48
1
60
0
100
AcDbLine
10
0
20
0
30
0
11
-5
21
0
31
0
39
0
210
0
220
0
230
1
0
LINE
5
88
100
AcDbEntity
8
1
62
256
6
ByLayer
370
18
48
1
60
0
100
AcDbLine
10
4.250511
20
6.086049
30
0
11
4.250517
21
6.085942
31
0
39
0
210
0
220
0
230
1
0
LINE
5
89
100
AcDbEntity
8
1
62
256
6
ByLayer
370
18
48
1
60
0
100
AcDbLine
10
61.986513
20
0.060507
30
0
11
62
21
0
31
0
39
0
210
0
220
0
230
1
0
LINE
5
8A
100
AcDbEntity
8
1
62
256
6
ByLayer
370
18
48
1
60
0
100
AcDbLine
10
58.777082
20
-3.578537
30
0
11
61.894041
21
-0.104743
31
0
39
0
210
0
220
0
230
1
0
LINE
5
8B
100
AcDbEntity
8
1
62
256
6
ByLayer
370
18
48
1
60
0
100
AcDbLine
10
0
20
-7
30
0
11
0
21
7
31
0
39
0
210
0
220
0
230
1
0
LINE
5
8C
100
AcDbEntity
8
1
62
256
6
ByLayer
370
18
48
1
60
0
100
AcDbLine
10
4.250515
20
-6.086048
30
0
11
4.250518
21
-6.085845
31
0
39
0
210
0
220
0
230
1
0
LINE
5
8D
100
AcDbEntity
8
1
62
256
6
ByLayer
370
13
48
1
60
0
100
AcDbLine
10
1.276823
20
6.364856
30
0
11
1.276823
21
-6.364856
31
0
39
0
210
0
220
0
230
1
0
LINE
5
8E
100
AcDbEntity
8
1
62
256
6
ByLayer
370
13
48
1
60
0
100
AcDbLine
10
60.096636
20
0.785191
30
0
11
61.894041
21
-0.104743
31
0
39
0
210
0
220
0
230
1
0
LINE
5
8F
100
AcDbEntity
8
1
62
256
6
ByLayer
370
18
48
1
60
0
100
AcDbLine
10
61.906959
20
-0.319187
30
0
11
61.6869
21
-1.131615
31
0
39
0
210
0
220
0
230
1
0
LINE
5
90
100
AcDbEntity
8
1
62
256
6
ByLayer
370
13
48
1
60
0
100
AcDbLine
10
61.6869
20
1.131615
30
0
11
60.266094
21
1.131615
31
0
39
0
210
0
220
0
230
1
0
LINE
5
91
100
AcDbEntity
8
1
62
256
6
ByLayer
370
18
48
1
60
0
100
AcDbLine
10
4
20
-6.36649
30
0
11
4
21
-6.291314
31
0
39
0
210
0
220
0
230
1
0
LINE
5
92
100
AcDbEntity
8
1
62
256
6
ByLayer
370
18
48
1
60
0
100
AcDbLine
10
61.906959
20
0.319187
30
0
11
61.6869
21
1.131615
31
0
39
0
210
0
220
0
230
1
0
LINE
5
93
100
AcDbEntity
8
1
62
256
6
ByLayer
370
18
48
1
60
0
100
AcDbLine
10
62
20
0
30
0
11
59.772894
21
-6.118923
31
0
39
0
210
0
220
0
230
1
0
LINE
5
94
100
AcDbEntity
8
1
62
256
6
ByLayer
370
13
48
1
60
0
100
AcDbLine
10
0.638172
20
6.682428
30
0
11
0.638172
21
-6.682428
31
0
39
0
210
0
220
0
230
1
0
LINE
5
95
100
AcDbEntity
8
1
62
256
6
ByLayer
370
13
48
1
60
0
100
AcDbLine
10
60.266094
20
1.131615
30
0
11
61.906959
21
0.319187
31
0
39
0
210
0
220
0
230
1
0
LINE
5
96
100
AcDbEntity
8
1
62
256
6
ByLayer
370
18
48
1
60
0
100
AcDbLine
10
4
20
0.874246
30
0
11
4
21
6.36649
31
0
39
0
210
0
220
0
230
1
0
LINE
5
97
100
AcDbEntity
8
1
62
256
6
ByLayer
370
18
48
1
60
0
100
AcDbLine
10
62
20
0
30
0
11
61.986513
21
-0.060507
31
0
39
0
210
0
220
0
230
1
0
LINE
5
98
100
AcDbEntity
8
SK1
62
256
6
ByLayer
370
18
48
1
60
0
100
AcDbLine
10
-43.267949
20
7
30
0
11
-43.267949
21
-7
31
0
39
0
210
0
220
0
230
1
0
LINE
5
99
100
AcDbEntity
8
SK1
62
256
6
ByLayer
370
18
48
1
60
0
100
AcDbLine
10
0
20
-7
30
0
11
0
21
7
31
0
39
0
210
0
220
0
230
1
0
LINE
5
9A
100
AcDbEntity
8
SK1
62
256
6
ByLayer
370
18
48
1
60
0
100
AcDbLine
10
-45
20
4
30
0
11
-45
21
-4
31
0
39
0
210
0
220
0
230
1
0
MTEXT
5
DE
100
AcDbEntity
8
SK6
62
256
6
ByLayer
370
13
48
1
60
0
100
AcDbMText
10
10.629169
20
38.782694
30
0
210
0
220
0
230
1
1
\W0.7542;R840-1280-30-A0A1220
40
3.5
41
0
44
1.084337
50
0
71
8
72
5
7
iso_b_vert
0
DIMENSION
5
EB
100
AcDbEntity
8
SK2
62
256
6
ByLayer
370
13
48
1
60
0
100
AcDbDimension
2
DimnDraft3D1
10
59.8
20
-16.613398
30
0
11
28.050059
21
-16.613398
31
0
70
32
71
5
72
1
41
1
210
0
220
0
230
1
3
Standard
100
AcDbAlignedDimension
13
0
23
-1.5875
33
0
14
59.8
24
-7.9875
34
0
50
0
100
AcDbRotatedDimension
1001
ACAD
1000
DSTYLE
1002
{
1070
   279
1070
     0
1070
   172
1070
     1
1070
   173
1070
     1
1070
   340
1005
DF
1070
   271
1070
     2
1070
   272
1070
     2
1070
    77
1070
     1
1070
    73
1070
     0
1070
   171
1070
     3
1070
   274
1070
     4
1070
   177
1070
    35
1070
   176
1070
    35
1070
   178
1070
    35
1070
    48
1040
-0.005
1070
    41
1041
3.5
1070
   147
1041
1.75
1070
    42
1041
1.5875
1070
    44
1041
2.0
1070
   140
1041
3.5
1070
   343
1005
0
1070
   344
1005
0
1002
}
0
DIMENSION
5
F5
100
AcDbEntity
8
SK2
62
256
6
ByLayer
370
13
48
1
60
0
100
AcDbDimension
2
DimnDraft3D2
10
62
20
-35.692985
30
0
11
7.6413
21
-35.692985
31
0
70
32
71
5
72
1
41
1
210
0
220
0
230
1
3
Standard
100
AcDbAlignedDimension
13
-45
23
-8.5875
33
0
14
62
24
-1.5875
34
0
50
0
100
AcDbRotatedDimension
1001
ACAD
1000
DSTYLE
1002
{
1070
   279
1070
     0
1070
   172
1070
     1
1070
   173
1070
     1
1070
   340
1005
DF
1070
   271
1070
     2
1070
   272
1070
     2
1070
    77
1070
     1
1070
    73
1070
     0
1070
   171
1070
     3
1070
   274
1070
     4
1070
   177
1070
    35
1070
   176
1070
    35
1070
   178
1070
    35
1070
    48
1040
-0.005
1070
    41
1041
3.5
1070
   147
1041
1.75
1070
    42
1041
1.5875
1070
    44
1041
2.0
1070
   140
1041
3.5
1070
   343
1005
0
1070
   344
1005
0
1002
}
0
DIMENSION
5
FF
100
AcDbEntity
8
SK2
62
256
6
ByLayer
370
13
48
1
60
0
100
AcDbDimension
2
DimnDraft3D3
10
62
20
18.009119
30
0
11
41.7
21
18.009119
31
0
70
32
71
5
72
1
41
1
210
0
220
0
230
1
3
Standard
100
AcDbAlignedDimension
13
21.4
23
7.9875
33
0
14
62
24
1.5875
34
0
50
0
100
AcDbRotatedDimension
1001
ACAD
1000
DSTYLE
1002
{
1070
   279
1070
     0
1070
   172
1070
     1
1070
   173
1070
     1
1070
   340
1005
DF
1070
   271
1070
     2
1070
   272
1070
     2
1070
    77
1070
     1
1070
    73
1070
     0
1070
   171
1070
     3
1070
   274
1070
     4
1070
   177
1070
    35
1070
   176
1070
    35
1070
   178
1070
    35
1070
    48
1040
-0.005
1070
    41
1041
3.5
1070
   147
1041
1.75
1070
    42
1041
1.5875
1070
    44
1041
2.0
1070
   140
1041
3.5
1070
   343
1005
0
1070
   344
1005
0
1002
}
0
DIMENSION
5
109
100
AcDbEntity
8
SK2
62
256
6
ByLayer
370
13
48
1
60
0
100
AcDbDimension
2
DimnDraft3D4
10
59.8
20
-19.202503
30
0
11
71.981425
21
-19.202503
31
0
70
32
71
5
72
1
41
1
210
0
220
0
230
1
3
Standard
100
AcDbAlignedDimension
13
62
23
-1.5875
33
0
14
59.8
24
-7.9875
34
0
50
0
100
AcDbRotatedDimension
1001
ACAD
1000
DSTYLE
1002
{
1070
   279
1070
     0
1070
   172
1070
     1
1070
   173
1070
     1
1070
   340
1005
DF
1070
   271
1070
     2
1070
   272
1070
     2
1070
    77
1070
     1
1070
    73
1070
     0
1070
   171
1070
     3
1070
   274
1070
     4
1070
   177
1070
    35
1070
   176
1070
    35
1070
   178
1070
    35
1070
    48
1040
-0.005
1070
    41
1041
3.5
1070
   147
1041
1.75
1070
    42
1041
1.5875
1070
    44
1041
2.0
1070
   140
1041
3.5
1070
   343
1005
0
1070
   344
1005
0
1002
}
0
DIMENSION
5
113
100
AcDbEntity
8
SK2
62
256
6
ByLayer
370
13
48
1
60
0
100
AcDbDimension
2
DimnDraft3D5
10
59.8
20
-25.343428
30
0
11
4.560676
21
-25.343428
31
0
70
32
71
5
72
1
41
1
210
0
220
0
230
1
3
Standard
100
AcDbAlignedDimension
13
-45
23
-8.5875
33
0
14
59.8
24
-7.9875
34
0
50
0
100
AcDbRotatedDimension
1001
ACAD
1000
DSTYLE
1002
{
1070
   279
1070
     0
1070
   172
1070
     1
1070
   173
1070
     1
1070
   340
1005
DF
1070
   271
1070
     2
1070
   272
1070
     2
1070
    77
1070
     1
1070
    73
1070
     0
1070
   171
1070
     3
1070
   274
1070
     4
1070
   177
1070
    35
1070
   176
1070
    35
1070
   178
1070
    35
1070
    48
1040
-0.005
1070
    41
1041
3.5
1070
   147
1041
1.75
1070
    42
1041
1.5875
1070
    44
1041
2.0
1070
   140
1041
3.5
1070
   343
1005
0
1070
   344
1005
0
1002
}
0
DIMENSION
5
11E
100
AcDbEntity
8
SK2
62
256
6
ByLayer
370
13
48
1
60
0
100
AcDbDimension
2
DimnDraft3D6
10
-55.625163
20
7
30
0
11
-56.250163
21
25.47418
31
0
70
33
71
5
72
1
41
1
210
0
220
0
230
1
3
Standard
100
AcDbAlignedDimension
13
-46.5875
23
-7
33
0
14
-46.5875
24
7
34
0
1001
ACAD
1000
DSTYLE
1002
{
1070
   279
1070
     0
1070
    74
1070
     0
1070
   173
1070
     1
1070
   340
1005
DF
1070
   271
1070
     3
1070
   272
1070
     2
1070
    77
1070
     1
1070
    73
1070
     0
1070
   171
1070
     3
1070
   274
1070
     4
1070
   177
1070
    35
1070
   176
1070
    35
1070
   178
1070
    35
1070
    48
1040
-0.005
1070
    41
1041
3.5
1070
   147
1041
1.75
1070
    42
1041
1.5875
1070
    44
1041
2.0
1070
   140
1041
3.5
1070
   343
1005
0
1070
   344
1005
0
1002
}
0
DIMENSION
5
129
100
AcDbEntity
8
2
62
256
6
ByLayer
370
13
48
1
60
0
100
AcDbDimension
2
DimnDraft3D7
10
76.083343
20
6.4
30
0
11
71.458343
21
23.467266
31
0
70
33
71
5
72
1
41
1
210
0
220
0
230
1
3
Standard
100
AcDbAlignedDimension
13
61.3875
23
-6.4
33
0
14
61.3875
24
6.4
34
0
1001
ACAD
1000
DSTYLE
1002
{
1070
   279
1070
     0
1070
    74
1070
     0
1070
   173
1070
     1
1070
   340
1005
DF
1070
   271
1070
     3
1070
   272
1070
     2
1070
    77
1070
     1
1070
    73
1070
     0
1070
   171
1070
     3
1070
   274
1070
     4
1070
   177
1070
    35
1070
   176
1070
    35
1070
   178
1070
    35
1070
    48
1040
-0.005
1070
    41
1041
3.5
1070
   147
1041
1.75
1070
    42
1041
1.5875
1070
    44
1041
2.0
1070
   140
1041
3.5
1070
   343
1005
0
1070
   344
1005
0
1002
}
0
ENDSEC
0
SECTION
2
OBJECTS
0
DICTIONARY
5
194
330
0
100
AcDbDictionary
280
0
281
1
3
ACAD_GROUP
350
195
3
ACAD_MLINESTYLE
350
196
0
DICTIONARY
5
195
330
0
100
AcDbDictionary
280
0
281
1
0
DICTIONARY
5
196
330
0
100
AcDbDictionary
280
0
281
1
3
Standard
350
18
0
MLINESTYLE
5
18
330
196
100
AcDbMlineStyle
2
Standard
70
0
3

62
256
51
90
52
90
71
2
49
-0.5
62
256
6
ByLayer
49
0.5
62
256
6
ByLayer
0
RASTERVARIABLES
5
182
330

100
AcDbRasterVariables
90
0
70
1
71
1
72
1
0
ENDSEC
0
EOF
