0
SECTION
2
HEADER
9
$ACADVER
1
AC1015
9
$DWGCODEPAGE
3
ANSI_1252
9
$HANDSEED
5
19c
9
$ANGBASE
50
0
9
$ANGDIR
70
0
9
$ATTMODE
70
1
9
$AUNITS
70
0
9
$AUPREC
70
0
9
$CECOLOR
62
256
9
$CELTSCALE
40
1
9
$CELTYPE
6
ByLayer
9
$CELWEIGHT
370
18
9
$CLAYER
8
0
9
$CMLJUST
70
0
9
$CMLSCALE
40
1
9
$CMLSTYLE
2
Standard
9
$DIMSTYLE
2
Standard
9
$TEXTSIZE
40
0.2
9
$TEXTSTYLE
7
Standard
9
$LUNITS
70
2
9
$LUPREC
70
4
9
$EXTNAMES
290
1
9
$INSUNITS
70
4
9
$LTSCALE
40
1
9
$LWDISPLAY
290
1
9
$PDMODE
70
0
9
$PDSIZE
40
0
9
$PLINEGEN
70
0
0
ENDSEC
0
SECTION
2
CLASSES
0
CLASS
1
RASTERVARIABLES
2
AcDbRasterVariables
3
ISM
90
0
280
0
281
0
0
ENDSEC
0
SECTION
2
TABLES
0
TABLE
2
VPORT
5
192
100
AcDbSymbolTable
0
VPORT
5
1
100
AcDbSymbolTableRecord
100
AcDbViewportTableRecord
2
*Active
70
0
10
0
20
0
11
1
21
1
12
-1
22
1
13
0
23
0
14
0.5
24
0.5
15
10
25
10
16
0
26
0
36
1
17
0
27
0
37
0
0
ENDTAB
0
TABLE
2
LTYPE
5
193
100
AcDbSymbolTable
0
LTYPE
5
14
100
AcDbSymbolTableRecord
100
AcDbLinetypeTableRecord
70
0
2
ByBlock
3

72
65
73
0
40
0
0
LTYPE
5
15
100
AcDbSymbolTableRecord
100
AcDbLinetypeTableRecord
70
0
2
ByLayer
3

72
65
73
0
40
0
0
LTYPE
5
16
100
AcDbSymbolTableRecord
100
AcDbLinetypeTableRecord
70
0
2
CONTINUOUS
3
Solid line
72
65
73
0
40
0
0
LTYPE
5
6A
100
AcDbSymbolTableRecord
100
AcDbLinetypeTableRecord
70
0
2
CENTER
3
____ _ ____ _ ____ _ ____
72
65
73
4
40
47.5
49
22
74
0
49
-8.5
74
0
49
8.5
74
0
49
-8.5
74
0
0
LTYPE
5
6B
100
AcDbSymbolTableRecord
100
AcDbLinetypeTableRecord
70
0
2
DASHED
3
__ __ __ __ __ __ __ __ __
72
65
73
2
40
25.72
49
12.86
74
0
49
-12.86
74
0
0
ENDTAB
0
TABLE
2
LAYER
5
194
100
AcDbSymbolTable
0
LAYER
5
10
100
AcDbSymbolTableRecord
100
AcDbLayerTableRecord
2
0
70
0
62
7
6
CONTINUOUS
290
1
370
-3
390
0
0
LAYER
5
6D
100
AcDbSymbolTableRecord
100
AcDbLayerTableRecord
2
81
70
0
62
-3
6
CONTINUOUS
290
1
370
-3
390
0
0
LAYER
5
6F
100
AcDbSymbolTableRecord
100
AcDbLayerTableRecord
2
80
70
0
62
-6
6
CONTINUOUS
290
1
370
-3
390
0
0
LAYER
5
74
100
AcDbSymbolTableRecord
100
AcDbLayerTableRecord
2
2
70
0
62
7
6
CONTINUOUS
290
1
370
-3
390
0
0
LAYER
5
78
100
AcDbSymbolTableRecord
100
AcDbLayerTableRecord
2
1
70
0
62
4
6
CONTINUOUS
290
1
370
-3
390
0
0
LAYER
5
86
100
AcDbSymbolTableRecord
100
AcDbLayerTableRecord
2
4
70
0
62
-2
6
CENTER
290
1
370
-3
390
0
0
LAYER
5
17e
100
AcDbSymbolTableRecord
100
AcDbLayerTableRecord
2
SK2
70
0
62
7
6
CONTINUOUS
290
1
370
-3
390
0
0
LAYER
5
17f
100
AcDbSymbolTableRecord
100
AcDbLayerTableRecord
2
SK1
70
0
62
4
6
CONTINUOUS
290
1
370
-3
390
0
0
LAYER
5
180
100
AcDbSymbolTableRecord
100
AcDbLayerTableRecord
2
SK4
70
0
62
2
6
CENTER
290
1
370
-3
390
0
0
LAYER
5
181
100
AcDbSymbolTableRecord
100
AcDbLayerTableRecord
2
SK6
70
0
62
5
6
CONTINUOUS
290
1
370
-3
390
0
0
ENDTAB
0
TABLE
2
STYLE
5
195
100
AcDbSymbolTable
0
STYLE
5
11
100
AcDbSymbolTableRecord
100
AcDbTextStyleTableRecord
2
Standard
3
txt
70
0
71
0
40
0
41
1
42
0
50
0
0
STYLE
5
DA
100
AcDbSymbolTableRecord
100
AcDbTextStyleTableRecord
2
iso_b_vert
3
simplex.shx
70
0
71
0
40
0
41
1
42
0
50
0
0
STYLE
5
DB
100
AcDbSymbolTableRecord
100
AcDbTextStyleTableRecord
2
DWGDirectTextStyle
3
simplex
70
0
71
0
40
0
41
1
42
0
50
0
0
ENDTAB
0
TABLE
2
DIMSTYLE
5
196
100
AcDbSymbolTable
100
AcDbDimStyleTable
0
DIMSTYLE
105
27
100
AcDbSymbolTableRecord
100
AcDbDimStyleTableRecord
2
Standard
70
0
3
<>
41
0.18
42
0.0625
44
0.18
140
0.18
147
0.09
73
0
74
0
77
1
271
2
275
0
278
52
280
0
340
11
0
ENDTAB
0
TABLE
2
VIEW
5
197
100
AcDbSymbolTable
0
ENDTAB
0
TABLE
2
UCS
5
198
100
AcDbSymbolTable
0
ENDTAB
0
TABLE
2
APPID
5
199
100
AcDbSymbolTable
0
APPID
5
12
100
AcDbSymbolTableRecord
100
AcDbRegAppTableRecord
2
ACAD
70
0
0
ENDTAB
0
TABLE
2
BLOCK_RECORD
5
19a
100
AcDbSymbolTable
0
BLOCK_RECORD
5
1F
100
AcDbSymbolTableRecord
100
AcDbBlockTableRecord
2
*Model_Space
340
0
70
0
0
BLOCK_RECORD
5
1B
100
AcDbSymbolTableRecord
100
AcDbBlockTableRecord
2
*Paper_Space
340
0
70
0
0
BLOCK_RECORD
5
23
100
AcDbSymbolTableRecord
100
AcDbBlockTableRecord
2
*Paper_Space0
340
0
70
0
0
BLOCK_RECORD
5
DD
100
AcDbSymbolTableRecord
100
AcDbBlockTableRecord
2
DimnDraft3D1
340
0
70
0
0
BLOCK_RECORD
5
E7
100
AcDbSymbolTableRecord
100
AcDbBlockTableRecord
2
DimnDraft3D2
340
0
70
0
0
BLOCK_RECORD
5
F1
100
AcDbSymbolTableRecord
100
AcDbBlockTableRecord
2
DimnDraft3D3
340
0
70
0
0
BLOCK_RECORD
5
FB
100
AcDbSymbolTableRecord
100
AcDbBlockTableRecord
2
DimnDraft3D4
340
0
70
0
0
BLOCK_RECORD
5
105
100
AcDbSymbolTableRecord
100
AcDbBlockTableRecord
2
DimnDraft3D5
340
0
70
0
0
BLOCK_RECORD
5
10F
100
AcDbSymbolTableRecord
100
AcDbBlockTableRecord
2
DimnDraft3D6
340
0
70
0
0
BLOCK_RECORD
5
11A
100
AcDbSymbolTableRecord
100
AcDbBlockTableRecord
2
DimnDraft3D7
340
0
70
0
0
ENDTAB
0
ENDSEC
0
SECTION
2
BLOCKS
0
BLOCK
5
20
100
AcDbEntity
8
0
100
AcDbBlockBegin
2
*Model_Space
70
0
10
0
20
0
30
0
3
*Model_Space
0
ENDBLK
5
21
100
AcDbEntity
8
0
100
AcDbBlockEnd
0
BLOCK
5
1C
100
AcDbEntity
8
0
100
AcDbBlockBegin
2
*Paper_Space
70
0
10
0
20
0
30
0
3
*Paper_Space
0
ENDBLK
5
1D
100
AcDbEntity
8
0
100
AcDbBlockEnd
0
BLOCK
5
24
100
AcDbEntity
8
0
100
AcDbBlockBegin
2
*Paper_Space0
70
0
10
0
20
0
30
0
3
*Paper_Space0
0
ENDBLK
5
25
100
AcDbEntity
8
0
100
AcDbBlockEnd
0
BLOCK
5
E4
100
AcDbEntity
8
0
100
AcDbBlockBegin
2
DimnDraft3D1
70
0
10
0
20
0
30
0
3
DimnDraft3D1
0
MTEXT
5
DE
100
AcDbEntity
8
SK2
62
256
6
ByLayer
370
13
48
1
60
0
100
AcDbMText
10
32.121375
20
-15.688398
30
0
210
0
220
0
230
1
1
\W0.7317;76,82
40
3.5
41
0
44
1.084337
50
0
71
7
72
5
7
iso_b_vert
0
LINE
5
DF
100
AcDbEntity
8
SK2
62
256
6
ByLayer
370
13
48
1
60
0
100
AcDbLine
10
0
20
-1.5875
30
0
11
0
21
-18.563398
31
0
39
0
210
0
220
0
230
1
0
LINE
5
E0
100
AcDbEntity
8
SK2
62
256
6
ByLayer
370
13
48
1
60
0
100
AcDbLine
10
76.82
20
-7.9375
30
0
11
76.82
21
-18.563398
31
0
39
0
210
0
220
0
230
1
0
LINE
5
E1
100
AcDbEntity
8
SK2
62
256
6
ByLayer
370
13
48
1
60
0
100
AcDbLine
10
0
20
-16.563398
30
0
11
76.82
21
-16.563398
31
0
39
0
210
0
220
0
230
1
0
SOLID
5
E2
100
AcDbEntity
8
SK2
62
256
6
ByLayer
370
13
48
1
60
0
100
AcDbTrace
10
0
20
-16.563398
30
0
11
3.499998
21
-16.102615
31
0
12
3.500002
22
-17.024182
32
0
13
0
23
-16.563398
33
0
39
0
210
0
220
0
230
1
0
SOLID
5
E3
100
AcDbEntity
8
SK2
62
256
6
ByLayer
370
13
48
1
60
0
100
AcDbTrace
10
76.82
20
-16.563398
30
0
11
73.320002
21
-17.024182
31
0
12
73.319998
22
-16.102615
32
0
13
76.82
23
-16.563398
33
0
39
0
210
0
220
0
230
1
0
ENDBLK
5
E5
100
AcDbEntity
8
0
100
AcDbBlockEnd
0
BLOCK
5
EE
100
AcDbEntity
8
0
100
AcDbBlockBegin
2
DimnDraft3D2
70
0
10
0
20
0
30
0
3
DimnDraft3D2
0
MTEXT
5
E8
100
AcDbEntity
8
SK2
62
256
6
ByLayer
370
13
48
1
60
0
100
AcDbMText
10
10.658011
20
-34.817985
30
0
210
0
220
0
230
1
1
\W0.7145;124,00
40
3.5
41
0
44
1.084337
50
0
71
7
72
5
7
iso_b_vert
0
LINE
5
E9
100
AcDbEntity
8
SK2
62
256
6
ByLayer
370
13
48
1
60
0
100
AcDbLine
10
-45
20
-8.5875
30
0
11
-45
21
-37.692985
31
0
39
0
210
0
220
0
230
1
0
LINE
5
EA
100
AcDbEntity
8
SK2
62
256
6
ByLayer
370
13
48
1
60
0
100
AcDbLine
10
79
20
-1.5875
30
0
11
79
21
-37.692985
31
0
39
0
210
0
220
0
230
1
0
LINE
5
EB
100
AcDbEntity
8
SK2
62
256
6
ByLayer
370
13
48
1
60
0
100
AcDbLine
10
-45
20
-35.692985
30
0
11
79
21
-35.692985
31
0
39
0
210
0
220
0
230
1
0
SOLID
5
EC
100
AcDbEntity
8
SK2
62
256
6
ByLayer
370
13
48
1
60
0
100
AcDbTrace
10
-45
20
-35.692985
30
0
11
-41.500002
21
-35.232202
31
0
12
-41.499998
22
-36.153769
32
0
13
-45
23
-35.692985
33
0
39
0
210
0
220
0
230
1
0
SOLID
5
ED
100
AcDbEntity
8
SK2
62
256
6
ByLayer
370
13
48
1
60
0
100
AcDbTrace
10
79
20
-35.692985
30
0
11
75.500002
21
-36.153769
31
0
12
75.499998
22
-35.232202
32
0
13
79
23
-35.692985
33
0
39
0
210
0
220
0
230
1
0
ENDBLK
5
EF
100
AcDbEntity
8
0
100
AcDbBlockEnd
0
BLOCK
5
F8
100
AcDbEntity
8
0
100
AcDbBlockBegin
2
DimnDraft3D3
70
0
10
0
20
0
30
0
3
DimnDraft3D3
0
MTEXT
5
F2
100
AcDbEntity
8
SK2
62
256
6
ByLayer
370
13
48
1
60
0
100
AcDbMText
10
41.711316
20
18.834119
30
0
210
0
220
0
230
1
1
\W0.7317;65,68
40
3.5
41
0
44
1.084337
50
0
71
7
72
5
7
iso_b_vert
0
LINE
5
F3
100
AcDbEntity
8
SK2
62
256
6
ByLayer
370
13
48
1
60
0
100
AcDbLine
10
13.32
20
7.9375
30
0
11
13.32
21
19.959119
31
0
39
0
210
0
220
0
230
1
0
LINE
5
F4
100
AcDbEntity
8
SK2
62
256
6
ByLayer
370
13
48
1
60
0
100
AcDbLine
10
79
20
1.5875
30
0
11
79
21
19.959119
31
0
39
0
210
0
220
0
230
1
0
LINE
5
F5
100
AcDbEntity
8
SK2
62
256
6
ByLayer
370
13
48
1
60
0
100
AcDbLine
10
13.32
20
17.959119
30
0
11
79
21
17.959119
31
0
39
0
210
0
220
0
230
1
0
SOLID
5
F6
100
AcDbEntity
8
SK2
62
256
6
ByLayer
370
13
48
1
60
0
100
AcDbTrace
10
13.32
20
17.959119
30
0
11
16.819998
21
18.419903
31
0
12
16.820002
22
17.498335
32
0
13
13.32
23
17.959119
33
0
39
0
210
0
220
0
230
1
0
SOLID
5
F7
100
AcDbEntity
8
SK2
62
256
6
ByLayer
370
13
48
1
60
0
100
AcDbTrace
10
79
20
17.959119
30
0
11
75.500002
21
17.498335
31
0
12
75.499998
22
18.419903
32
0
13
79
23
17.959119
33
0
39
0
210
0
220
0
230
1
0
ENDBLK
5
F9
100
AcDbEntity
8
0
100
AcDbBlockEnd
0
BLOCK
5
102
100
AcDbEntity
8
0
100
AcDbBlockBegin
2
DimnDraft3D4
70
0
10
0
20
0
30
0
3
DimnDraft3D4
0
MTEXT
5
FC
100
AcDbEntity
8
SK2
62
256
6
ByLayer
370
13
48
1
60
0
100
AcDbMText
10
86.278136
20
-18.277503
30
0
210
0
220
0
230
1
1
\W0.6367;2,18
40
3.5
41
0
44
1.084337
50
0
71
7
72
5
7
iso_b_vert
0
LINE
5
FD
100
AcDbEntity
8
SK2
62
256
6
ByLayer
370
13
48
1
60
0
100
AcDbLine
10
79
20
-1.5875
30
0
11
79
21
-21.152503
31
0
39
0
210
0
220
0
230
1
0
LINE
5
FE
100
AcDbEntity
8
SK2
62
256
6
ByLayer
370
13
48
1
60
0
100
AcDbLine
10
76.82
20
-7.9375
30
0
11
76.82
21
-21.152503
31
0
39
0
210
0
220
0
230
1
0
LINE
5
FF
100
AcDbEntity
8
SK2
62
256
6
ByLayer
370
13
48
1
60
0
100
AcDbLine
10
68.07
20
-19.152503
30
0
11
92.559715
21
-19.152503
31
0
39
0
210
0
220
0
230
1
0
SOLID
5
100
100
AcDbEntity
8
SK2
62
256
6
ByLayer
370
13
48
1
60
0
100
AcDbTrace
10
79
20
-19.152503
30
0
11
82.499998
21
-18.691719
31
0
12
82.500002
22
-19.613287
32
0
13
79
23
-19.152503
33
0
39
0
210
0
220
0
230
1
0
SOLID
5
101
100
AcDbEntity
8
SK2
62
256
6
ByLayer
370
13
48
1
60
0
100
AcDbTrace
10
76.82
20
-19.152503
30
0
11
73.320002
21
-19.613287
31
0
12
73.319998
22
-18.691719
32
0
13
76.82
23
-19.152503
33
0
39
0
210
0
220
0
230
1
0
ENDBLK
5
103
100
AcDbEntity
8
0
100
AcDbBlockEnd
0
BLOCK
5
10C
100
AcDbEntity
8
0
100
AcDbBlockBegin
2
DimnDraft3D5
70
0
10
0
20
0
30
0
3
DimnDraft3D5
0
MTEXT
5
106
100
AcDbEntity
8
SK2
62
256
6
ByLayer
370
13
48
1
60
0
100
AcDbMText
10
8.199097
20
-24.468428
30
0
210
0
220
0
230
1
1
\W0.6440;121,82
40
3.5
41
0
44
1.084337
50
0
71
7
72
5
7
iso_b_vert
0
LINE
5
107
100
AcDbEntity
8
SK2
62
256
6
ByLayer
370
13
48
1
60
0
100
AcDbLine
10
-45
20
-8.5875
30
0
11
-45
21
-27.343428
31
0
39
0
210
0
220
0
230
1
0
LINE
5
108
100
AcDbEntity
8
SK2
62
256
6
ByLayer
370
13
48
1
60
0
100
AcDbLine
10
76.82
20
-7.9375
30
0
11
76.82
21
-27.343428
31
0
39
0
210
0
220
0
230
1
0
LINE
5
109
100
AcDbEntity
8
SK2
62
256
6
ByLayer
370
13
48
1
60
0
100
AcDbLine
10
-45
20
-25.343428
30
0
11
76.82
21
-25.343428
31
0
39
0
210
0
220
0
230
1
0
SOLID
5
10A
100
AcDbEntity
8
SK2
62
256
6
ByLayer
370
13
48
1
60
0
100
AcDbTrace
10
-45
20
-25.343428
30
0
11
-41.500002
21
-24.882645
31
0
12
-41.499998
22
-25.804212
32
0
13
-45
23
-25.343428
33
0
39
0
210
0
220
0
230
1
0
SOLID
5
10B
100
AcDbEntity
8
SK2
62
256
6
ByLayer
370
13
48
1
60
0
100
AcDbTrace
10
76.82
20
-25.343428
30
0
11
73.320002
21
-25.804212
31
0
12
73.319998
22
-24.882645
32
0
13
76.82
23
-25.343428
33
0
39
0
210
0
220
0
230
1
0
ENDBLK
5
10D
100
AcDbEntity
8
0
100
AcDbBlockEnd
0
BLOCK
5
117
100
AcDbEntity
8
0
100
AcDbBlockBegin
2
DimnDraft3D6
70
0
10
0
20
0
30
0
3
DimnDraft3D6
0
MTEXT
5
110
100
AcDbEntity
8
SK2
62
256
6
ByLayer
370
13
48
1
60
0
100
AcDbMText
10
-55.375163
20
26.34918
30
0
210
0
220
0
230
1
1
\W0.7145;14,000
40
3.5
41
0
44
1.084337
50
90
71
7
72
5
7
iso_b_vert
0
MTEXT
5
111
100
AcDbEntity
8
SK2
62
256
6
ByLayer
370
13
48
1
60
0
100
AcDbMText
10
-55.375163
20
21.126524
30
0
210
0
220
0
230
1
1
%%c
40
3.5
41
0
44
1.084337
50
90
71
7
72
5
7
iso_b_vert
0
LINE
5
112
100
AcDbEntity
8
SK2
62
256
6
ByLayer
370
13
48
1
60
0
100
AcDbLine
10
-46.5875
20
-7
30
0
11
-55.625163
21
-7
31
0
39
0
210
0
220
0
230
1
0
LINE
5
113
100
AcDbEntity
8
SK2
62
256
6
ByLayer
370
13
48
1
60
0
100
AcDbLine
10
-46.5875
20
7
30
0
11
-55.625163
21
7
31
0
39
0
210
0
220
0
230
1
0
LINE
5
114
100
AcDbEntity
8
SK2
62
256
6
ByLayer
370
13
48
1
60
0
100
AcDbLine
10
-53.625163
20
-7
30
0
11
-53.625163
21
38.230759
31
0
39
0
210
0
220
0
230
1
0
SOLID
5
115
100
AcDbEntity
8
SK2
62
256
6
ByLayer
370
13
48
1
60
0
100
AcDbTrace
10
-53.625163
20
-7
30
0
11
-54.085946
21
-3.500002
31
0
12
-53.164379
22
-3.499998
32
0
13
-53.625163
23
-7
33
0
39
0
210
0
220
0
230
1
0
SOLID
5
116
100
AcDbEntity
8
SK2
62
256
6
ByLayer
370
13
48
1
60
0
100
AcDbTrace
10
-53.625163
20
7
30
0
11
-53.164379
21
3.500002
31
0
12
-54.085946
22
3.499998
32
0
13
-53.625163
23
7
33
0
39
0
210
0
220
0
230
1
0
ENDBLK
5
118
100
AcDbEntity
8
0
100
AcDbBlockEnd
0
BLOCK
5
122
100
AcDbEntity
8
0
100
AcDbBlockBegin
2
DimnDraft3D7
70
0
10
0
20
0
30
0
3
DimnDraft3D7
0
MTEXT
5
11B
100
AcDbEntity
8
2
62
256
6
ByLayer
370
13
48
1
60
0
100
AcDbMText
10
89.333343
20
24.292266
30
0
210
0
220
0
230
1
1
\W0.6930;12,700
40
3.5
41
0
44
1.084337
50
90
71
7
72
5
7
iso_b_vert
0
MTEXT
5
11C
100
AcDbEntity
8
2
62
256
6
ByLayer
370
13
48
1
60
0
100
AcDbMText
10
89.333343
20
19.06961
30
0
210
0
220
0
230
1
1
%%c
40
3.5
41
0
44
1.084337
50
90
71
7
72
5
7
iso_b_vert
0
LINE
5
11D
100
AcDbEntity
8
2
62
256
6
ByLayer
370
13
48
1
60
0
100
AcDbLine
10
78.4075
20
-6.35
30
0
11
93.083343
21
-6.35
31
0
39
0
210
0
220
0
230
1
0
LINE
5
11E
100
AcDbEntity
8
2
62
256
6
ByLayer
370
13
48
1
60
0
100
AcDbLine
10
78.4075
20
6.35
30
0
11
93.083343
21
6.35
31
0
39
0
210
0
220
0
230
1
0
LINE
5
11F
100
AcDbEntity
8
2
62
256
6
ByLayer
370
13
48
1
60
0
100
AcDbLine
10
91.083343
20
-6.35
30
0
11
91.083343
21
35.805424
31
0
39
0
210
0
220
0
230
1
0
SOLID
5
120
100
AcDbEntity
8
2
62
256
6
ByLayer
370
13
48
1
60
0
100
AcDbTrace
10
91.083343
20
-6.35
30
0
11
90.622559
21
-2.850002
31
0
12
91.544126
22
-2.849998
32
0
13
91.083343
23
-6.35
33
0
39
0
210
0
220
0
230
1
0
SOLID
5
121
100
AcDbEntity
8
2
62
256
6
ByLayer
370
13
48
1
60
0
100
AcDbTrace
10
91.083343
20
6.35
30
0
11
91.544126
21
2.850002
31
0
12
90.622559
22
2.849998
32
0
13
91.083343
23
6.35
33
0
39
0
210
0
220
0
230
1
0
ENDBLK
5
123
100
AcDbEntity
8
0
100
AcDbBlockEnd
0
ENDSEC
0
SECTION
2
ENTITIES
0
ARC
5
98
100
AcDbEntity
8
1
62
256
6
ByLayer
370
18
48
1
60
0
100
AcDbCircle
39
0
10
0
20
6.2
30
0
40
0.799999999999999
210
0
220
0
230
1
100
AcDbArc
50
34.431461
51
90
0
ARC
5
99
100
AcDbEntity
8
1
62
256
6
ByLayer
370
18
48
1
60
0
100
AcDbCircle
39
0
10
-1.319685
20
-7.104672
30
0
40
0.799999999999999
210
0
220
0
230
-1
100
AcDbArc
50
34.431461
51
90.034377
0
ARC
5
9A
100
AcDbEntity
8
1
62
256
6
ByLayer
370
18
48
1
60
0
100
AcDbCircle
39
0
10
-1.319685
20
7.104672
30
0
40
0.799999999999999
210
0
220
0
230
-1
100
AcDbArc
50
269.965623
51
325.568539
0
ARC
5
9B
100
AcDbEntity
8
1
62
256
6
ByLayer
370
18
48
1
60
0
100
AcDbCircle
39
0
10
0
20
-6.2
30
0
40
0.799999999999999
210
0
220
0
230
1
100
AcDbArc
50
270
51
325.568539
0
ELLIPSE
5
9C
100
AcDbEntity
8
1
62
256
6
ByLayer
370
13
48
1
60
0
100
AcDbEllipse
10
4.178161
20
-6.136019
30
0
11
-0.0457360220444382
21
0.0889281523902901
31
0
210
0
220
0
230
1
40
0.450736
41
0.055592582354897
42
1.38365492150243
0
ELLIPSE
5
9D
100
AcDbEntity
8
1
62
256
6
ByLayer
370
13
48
1
60
0
100
AcDbEllipse
10
4.250179
20
-6.119802
30
0
11
0.00284611880916901
21
0.0999594898332524
31
0
210
0
220
0
230
1
40
0.477163
41
0.0571060688026167
42
1.61582455440816
0
ELLIPSE
5
9E
100
AcDbEntity
8
1
62
256
6
ByLayer
370
13
48
1
60
0
100
AcDbEllipse
10
77.277714
20
0.913011
30
0
11
0.133113781883896
21
0.268850741253519
31
0
210
0
220
0
230
1
40
0.40558
41
0.884485917130957
42
2.28074931872641
0
ELLIPSE
5
9F
100
AcDbEntity
8
1
62
256
6
ByLayer
370
18
48
1
60
0
100
AcDbEllipse
10
79.019162
20
-0.050783
30
0
11
0.135658546000333
21
0.401200806144924
31
0
210
0
220
0
230
-1
40
0.065863
41
-2.32292776271308
42
-1.61611609737799
0
ELLIPSE
5
A0
100
AcDbEntity
8
1
62
256
6
ByLayer
370
18
48
1
60
0
100
AcDbEllipse
10
77.826679
20
3.010996
30
0
11
0.977745593800683
21
-2.66579054490904
31
0
210
0
220
0
230
-1
40
0.082138
41
-1.57548859405432
42
-0.755280950346409
0
ELLIPSE
5
A1
100
AcDbEntity
8
1
62
256
6
ByLayer
370
18
48
1
60
0
100
AcDbEllipse
10
79.000538
20
0.001387
30
0
11
2.32843510650171
21
6.34840015243037
31
0
210
0
220
0
230
-1
40
0.082138
41
2.89795637683473
42
2.99008158099059
0
ELLIPSE
5
A2
100
AcDbEntity
8
1
62
256
6
ByLayer
370
18
48
1
60
0
100
AcDbEllipse
10
79.000538
20
-0.001387
30
0
11
2.32843507684973
21
-6.34840006746557
31
0
210
0
220
0
230
-1
40
0.082138
41
-2.99008157997797
42
-2.89795637519724
0
ELLIPSE
5
A3
100
AcDbEntity
8
1
62
256
6
ByLayer
370
18
48
1
60
0
100
AcDbEllipse
10
79.019162
20
0.050783
30
0
11
0.135658546050184
21
-0.401200806273258
31
0
210
0
220
0
230
-1
40
0.065863
41
1.61611609758891
42
2.32292776271684
0
ELLIPSE
5
A4
100
AcDbEntity
8
1
62
256
6
ByLayer
370
13
48
1
60
0
100
AcDbEllipse
10
78.020361
20
2.876704
30
0
11
4.20669431568501
21
-2.16261663924236
31
0
210
0
220
0
230
-1
40
0.482873
41
1.53949524922413
42
1.85502341018767
0
ELLIPSE
5
A5
100
AcDbEntity
8
1
62
256
6
ByLayer
370
18
48
1
60
0
100
AcDbEllipse
10
77.826679
20
-3.010996
30
0
11
0.977745593765494
21
2.66579054482766
31
0
210
0
220
0
230
-1
40
0.082138
41
0.755280950345581
42
1.57548859407664
0
ELLIPSE
5
A6
100
AcDbEntity
8
1
62
256
6
ByLayer
370
18
48
1
60
0
100
AcDbEllipse
10
78.860032
20
0.129571
30
0
11
0.0868803724520428
21
0.290676908866242
31
0
210
0
220
0
230
-1
40
0.467765
41
1.67108543753249
42
2.36053717392547
0
ELLIPSE
5
A7
100
AcDbEntity
8
1
62
256
6
ByLayer
370
13
48
1
60
0
100
AcDbEllipse
10
78.18982
20
3.010996
30
0
11
4.2530500062514
21
-1.85159490452452
31
0
210
0
220
0
230
-1
40
0.451323
41
1.5888014561295
42
1.90817970798394
0
POINT
5
6C
100
AcDbEntity
8
81
62
256
6
ByLayer
370
18
48
1
60
0
100
AcDbPoint
10
79
20
0
30
0
39
0
210
0
220
0
230
1
50
360
0
POINT
5
6E
100
AcDbEntity
8
80
62
256
6
ByLayer
370
18
48
1
60
0
100
AcDbPoint
10
0
20
0
30
0
39
0
210
0
220
0
230
1
50
360
0
POINT
5
70
100
AcDbEntity
8
SK2
62
256
6
ByLayer
370
18
48
1
60
1
100
AcDbPoint
10
-45
20
-7
30
0
39
0
210
0
220
0
230
1
50
360
0
POINT
5
72
100
AcDbEntity
8
SK2
62
256
6
ByLayer
370
18
48
1
60
1
100
AcDbPoint
10
-45
20
7
30
0
39
0
210
0
220
0
230
1
50
360
0
POINT
5
73
100
AcDbEntity
8
2
62
256
6
ByLayer
370
18
48
1
60
1
100
AcDbPoint
10
76.82
20
-6.35
30
0
39
0
210
0
220
0
230
1
50
360
0
POINT
5
75
100
AcDbEntity
8
2
62
256
6
ByLayer
370
18
48
1
60
1
100
AcDbPoint
10
76.82
20
6.35
30
0
39
0
210
0
220
0
230
1
50
360
0
SPLINE
5
A8
100
AcDbEntity
8
1
62
256
6
ByLayer
370
18
48
1
60
0
100
AcDbSpline
70
4
71
3
72
12
73
8
40
0
40
0
40
0
40
0
40
0.11105151192287
40
0.295538836263913
40
0.452626107758389
40
0.663047815778114
40
1
40
1
40
1
40
1
41
1
10
59.5589125022932
20
-1.56638508673703
30
0
41
1
10
59.5590068718053
20
-1.56647930061664
30
0
41
1
10
59.564267952042
20
-1.56904235098543
30
0
41
1
10
59.5935930747239
20
-1.583221275928
30
0
41
1
10
59.6125143956495
20
-1.59173297778929
30
0
41
1
10
59.6650253398479
20
-1.61873258557097
30
0
41
1
10
59.7254890289394
20
-1.65149400295635
30
0
41
1
10
59.7715449729584
20
-1.6768513404991
30
0
0
SPLINE
5
A9
100
AcDbEntity
8
1
62
256
6
ByLayer
370
18
48
1
60
0
100
AcDbSpline
70
4
71
3
72
36
73
32
40
0
40
0
40
0
40
0
40
0.0485659981293648
40
0.0916970147556527
40
0.126710610494785
40
0.154588910744776
40
0.178830756133583
40
0.208574335398898
40
0.243029350385766
40
0.272286011919012
40
0.295547755155622
40
0.327485886864194
40
0.366544361168664
40
0.402605882257577
40
0.43478396238244
40
0.474942371512787
40
0.519355318067345
40
0.557261878325847
40
0.595812802656741
40
0.637057808913354
40
0.678751129007211
40
0.71222308288842
40
0.736929075827876
40
0.764622605296229
40
0.801307082969106
40
0.84092770420192
40
0.871611006860134
40
0.907463606666355
40
0.934037924711623
40
0.971442711745008
40
1
40
1
40
1
40
1
41
1
10
40.198348007824
20
-6.04887627136745
30
0
41
1
10
40.4851362550744
20
-6.04849244185189
30
0
41
1
10
41.0269057834915
20
-6.04824849595664
30
0
41
1
10
41.7888940485678
20
-6.04920543097973
30
0
41
1
10
42.4079076874072
20
-6.05084034458918
30
0
41
1
10
42.9287218195908
20
-6.05048768005008
30
0
41
1
10
43.4163651029346
20
-6.05093429178004
30
0
41
1
10
43.9441317056443
20
-6.05154952506425
30
0
41
1
10
44.5017136261202
20
-6.05197758262943
30
0
41
1
10
45.0206691127526
20
-6.05202913574382
30
0
41
1
10
45.5245902294395
20
-6.05191878024419
30
0
41
1
10
46.0870090084555
20
-6.0528810358056
30
0
41
1
10
46.7257878234803
20
-6.05345048719997
30
0
41
1
10
47.3660101696085
20
-6.05314046144289
30
0
41
1
10
48.0127870961319
20
-6.05329100267994
30
0
41
1
10
48.7094075017475
20
-6.05450290204857
30
0
41
1
10
49.4401895854468
20
-6.05392923115477
30
0
41
1
10
50.1613926592505
20
-6.05453952928289
30
0
41
1
10
50.8636845425381
20
-6.05549284299664
30
0
41
1
10
51.5886159249376
20
-6.05511309659479
30
0
41
1
10
52.283082796176
20
-6.05561272403193
30
0
41
1
10
52.8793172088821
20
-6.05689535240273
30
0
41
1
10
53.3898794443942
20
-6.05647154856084
30
0
41
1
10
53.9219092287068
20
-6.0558711280375
30
0
41
1
10
54.5414481753454
20
-6.05637551361656
30
0
41
1
10
55.180213180612
20
-6.05792386250519
30
0
41
1
10
55.8125359220143
20
-6.0574056036902
30
0
41
1
10
56.3685600189028
20
-6.05741199383502
30
0
41
1
10
56.9625081706369
20
-6.05891560272551
30
0
41
1
10
57.5150563121438
20
-6.06009651512477
30
0
41
1
10
57.9085344637393
20
-6.05981623952928
30
0
41
1
10
58.0789380165381
20
-6.05955008388418
30
0
0
SPLINE
5
AA
100
AcDbEntity
8
1
62
256
6
ByLayer
370
18
48
1
60
0
100
AcDbSpline
70
4
71
3
72
31
73
27
40
0
40
0
40
0
40
0
40
0.0322174687906065
40
0.0709063844912515
40
0.104597587797285
40
0.134336569030888
40
0.177459971059066
40
0.233849090844788
40
0.290101754128202
40
0.33443022135801
40
0.369475721684289
40
0.404441482775549
40
0.442585656071974
40
0.485044636148717
40
0.534709699605145
40
0.610359638217598
40
0.662178947572948
40
0.713593382228101
40
0.770503584583126
40
0.819064153944622
40
0.853389998505527
40
0.895377794081399
40
0.935896942988623
40
0.97222277648531
40
0.99619236854726
40
1
40
1
40
1
40
1
41
1
10
58.3147186397393
20
6.05790974650378
30
0
41
1
10
58.151593115992
20
6.0578281120786
30
0
41
1
10
57.7941081171151
20
6.05769832184447
30
0
41
1
10
57.2772805841289
20
6.06013825140161
30
0
41
1
10
56.7675387542581
20
6.0581712906766
30
0
41
1
10
56.2302393090748
20
6.05739285832709
30
0
41
1
10
55.5802412328568
20
6.05793454939408
30
0
41
1
10
54.795799163996
20
6.05712615689777
30
0
41
1
10
54.0055957017647
20
6.05603783637218
30
0
41
1
10
53.3227665708388
20
6.05685624799546
30
0
41
1
10
52.7471234320224
20
6.05668958329014
30
0
41
1
10
52.2026134658711
20
6.0555181297741
30
0
41
1
10
51.6207817767791
20
6.05516472223829
30
0
41
1
10
50.9649446491957
20
6.05546538953445
30
0
41
1
10
50.1202883819784
20
6.05449154332294
30
0
41
1
10
49.2284805421936
20
6.05410935358444
30
0
41
1
10
48.3279448753891
20
6.05414628374453
30
0
41
1
10
47.5216755277024
20
6.05276728273793
30
0
41
1
10
46.7318744563097
20
6.05358693085333
30
0
41
1
10
46.0280610463566
20
6.05273402119653
30
0
41
1
10
45.3993807866188
20
6.05181499499088
30
0
41
1
10
44.8111991451798
20
6.05209938327684
30
0
41
1
10
44.2129186437825
20
6.05180472375099
30
0
41
1
10
43.7054000032182
20
6.05125920977201
30
0
41
1
10
43.3826601525299
20
6.05093890301438
30
0
41
1
10
43.2428207793677
20
6.05085960329521
30
0
41
1
10
43.223652126485
20
6.05084966723803
30
0
0
SPLINE
5
AB
100
AcDbEntity
8
1
62
256
6
ByLayer
370
18
48
1
60
0
100
AcDbSpline
70
4
71
3
72
34
73
30
40
0
40
0
40
0
40
0
40
0.0466925620699289
40
0.089409847686007
40
0.125423567269264
40
0.154433159055811
40
0.17911575755447
40
0.207258332489066
40
0.241575485749607
40
0.273248270258797
40
0.298255093275267
40
0.32777518089806
40
0.365983714832616
40
0.403085185569104
40
0.43149043474609
40
0.461576871952632
40
0.499369226991671
40
0.554376803734318
40
0.609698595369584
40
0.67783478223297
40
0.746210638925963
40
0.817318347744539
40
0.851497984014964
40
0.885673344873042
40
0.921151221984536
40
0.951441125723452
40
0.971808719436877
40
0.998301114877526
40
1
40
1
40
1
40
1
41
1
10
4.76289097433602
20
-6.0278640881092
30
0
41
1
10
5.03850196020525
20
-6.02729613784351
30
0
41
1
10
5.566923021816
20
-6.02682790310962
30
0
41
1
10
6.32835709878609
20
-6.02735083703658
30
0
41
1
10
6.95468064550892
20
-6.0298243574147
30
0
41
1
10
7.50343519258999
20
-6.03024023747159
30
0
41
1
10
7.97097789374044
20
-6.02861625754443
30
0
41
1
10
8.50007171778623
20
-6.0281416534371
30
0
41
1
10
9.05839866347864
20
-6.03118738820058
30
0
41
1
10
9.59984820908846
20
-6.03188017412614
30
0
41
1
10
10.1173140552823
20
-6.03218673660652
30
0
41
1
10
10.6735488558977
20
-6.03272899809701
30
0
41
1
10
11.3023834356086
20
-6.03335046071433
30
0
41
1
10
11.9248670103721
20
-6.03296732553213
30
0
41
1
10
12.4975720536116
20
-6.03298716668201
30
0
41
1
10
13.0753510638601
20
-6.03365781305789
30
0
41
1
10
13.8121826421306
20
-6.03437110687301
30
0
41
1
10
14.7006354559153
20
-6.03420343178965
30
0
41
1
10
15.7713599376286
20
-6.03595589424378
30
0
41
1
10
16.9222089068812
20
-6.03542384546586
30
0
41
1
10
18.1677849641373
20
-6.03725331856944
30
0
41
1
10
19.209646446797
20
-6.0384836160504
30
0
41
1
10
20.0463191269184
20
-6.03920294263759
30
0
41
1
10
20.6692365659044
20
-6.03868029937789
30
0
41
1
10
21.2688561925743
20
-6.03917233977268
30
0
41
1
10
21.7854906036148
20
-6.04082773720432
30
0
41
1
10
22.2486346706743
20
-6.04071509512514
30
0
41
1
10
22.5390342787033
20
-6.04028017743457
30
0
41
1
10
22.708030549696
20
-6.04023297558439
30
0
41
1
10
22.7182148083041
20
-6.04023029173308
30
0
0
SPLINE
5
AC
100
AcDbEntity
8
1
62
256
6
ByLayer
370
18
48
1
60
0
100
AcDbSpline
70
4
71
2
72
6
73
3
40
0
40
0
40
0
40
1
40
1
40
1
41
1
10
75.6202861336589
20
-6.07039206778805
30
0
41
1
10
76.2040881442671
20
-6.06811781545068
30
0
41
1
10
76.7872110081708
20
-6.07300552585696
30
0
0
SPLINE
5
AD
100
AcDbEntity
8
1
62
256
6
ByLayer
370
18
48
1
60
0
100
AcDbSpline
70
4
71
3
72
31
73
27
40
0
40
0
40
0
40
0
40
0.0076284762626739
40
0.0402796142657117
40
0.0671241807367915
40
0.099517523816719
40
0.136209016740727
40
0.191116543646841
40
0.249305028033311
40
0.313689243830927
40
0.378882696443746
40
0.443462332376335
40
0.50470191468287
40
0.553399636317929
40
0.606843745950984
40
0.650780422481559
40
0.686235148941679
40
0.718295237751123
40
0.759599099855287
40
0.80530346712782
40
0.841985651112972
40
0.874708214368664
40
0.917231290164172
40
0.959843927905475
40
0.994822555456565
40
1
40
1
40
1
40
1
41
1
10
22.7153688518157
20
6.04026722994684
30
0
41
1
10
22.6776736792533
20
6.04028334676894
30
0
41
1
10
22.4786233340565
20
6.04036718061516
30
0
41
1
10
22.1470767849046
20
6.0408365565732
30
0
41
1
10
21.692264194335
20
6.04060646540606
30
0
41
1
10
21.2177048160984
20
6.0390931236654
30
0
41
1
10
20.6042209385122
20
6.03864599307275
30
0
41
1
10
19.8631336821624
20
6.03957829683836
30
0
41
1
10
18.9850254553509
20
6.03736446634195
30
0
41
1
10
18.0560235324315
20
6.03741036559143
30
0
41
1
10
17.0954049881091
20
6.03573875339379
30
0
41
1
10
16.1503418461401
20
6.03566430928672
30
0
41
1
10
15.2869068137082
20
6.03528086305818
30
0
41
1
10
14.4785110941959
20
6.03412971997369
30
0
41
1
10
13.7559699378375
20
6.03433488995938
30
0
41
1
10
13.0991485518915
20
6.03368896535562
30
0
41
1
10
12.5474922094108
20
6.03302851919483
30
0
41
1
10
12.0099724340239
20
6.03294214948295
30
0
41
1
10
11.4206040409061
20
6.03329558451287
30
0
41
1
10
10.8086976598787
20
6.0329279153226
30
0
41
1
10
10.2393527443713
20
6.03226632434115
30
0
41
1
10
9.68488498623955
20
6.03193141534027
30
0
41
1
10
9.10563878127698
20
6.03139763068214
30
0
41
1
10
8.51886395473406
20
6.0281966721505
30
0
41
1
10
8.10403040079453
20
6.02848098460677
30
0
41
1
10
7.91024356425515
20
6.02895089720772
30
0
41
1
10
7.88533711316325
20
6.02901457859141
30
0
0
SPLINE
5
AE
100
AcDbEntity
8
1
62
256
6
ByLayer
370
18
48
1
60
0
100
AcDbSpline
70
4
71
3
72
12
73
8
40
0
40
0
40
0
40
0
40
0.168568913560654
40
0.304427169916227
40
0.484324578674031
40
0.780265195059358
40
1
40
1
40
1
40
1
41
1
10
24.1554719361918
20
-1.56329268776602
30
0
41
1
10
24.1553797636233
20
-1.56331501138817
30
0
41
1
10
24.1587936856804
20
-1.56513431244642
30
0
41
1
10
24.17761641243
20
-1.57487408759732
30
0
41
1
10
24.2307316326906
20
-1.6025014713901
30
0
41
1
10
24.3071894675438
20
-1.64290397233413
30
0
41
1
10
24.3686563252342
20
-1.67625407905337
30
0
41
1
10
24.3962540883241
20
-1.69133483665942
30
0
0
SPLINE
5
AF
100
AcDbEntity
8
1
62
256
6
ByLayer
370
18
48
1
60
0
100
AcDbSpline
70
4
71
3
72
69
73
65
40
0
40
0
40
0
40
0
40
0.125000000000004
40
0.125000000000004
40
0.250000000000007
40
0.250000000000007
40
0.375000000000011
40
0.375000000000011
40
0.500000000000015
40
0.500000000000015
40
0.562500000000017
40
0.562500000000017
40
0.625000000000018
40
0.625000000000018
40
0.68750000000002
40
0.68750000000002
40
0.703125000000021
40
0.703125000000021
40
0.710937500000022
40
0.710937500000022
40
0.714843750000022
40
0.714843750000022
40
0.718750000000022
40
0.718750000000022
40
0.720703125000021
40
0.720703125000021
40
0.722656250000021
40
0.722656250000021
40
0.72656250000002
40
0.734375000000019
40
0.734375000000019
40
0.750000000000017
40
0.750000000000017
40
0.781250000000014
40
0.781250000000014
40
0.789062500000014
40
0.789062500000014
40
0.796875000000014
40
0.796875000000014
40
0.812500000000013
40
0.812500000000013
40
0.820312500000013
40
0.820312500000013
40
0.828125000000012
40
0.828125000000012
40
0.843750000000012
40
0.843750000000012
40
0.851562500000011
40
0.851562500000011
40
0.859375000000011
40
0.859375000000011
40
0.87500000000001
40
0.87500000000001
40
0.890625000000008
40
0.890625000000008
40
0.906250000000007
40
0.906250000000007
40
0.921875000000006
40
0.921875000000006
40
0.937500000000005
40
0.937500000000005
40
0.968750000000002
40
0.968750000000002
40
1
40
1
40
1
40
1
41
1
10
18.9038701144962
20
1.35652731492579
30
0
41
1
10
18.0718887305126
20
1.81381269227185
30
0
41
1
10
17.2307458385122
20
2.23840850161713
30
0
41
1
10
15.5206294751538
20
3.01341812731209
30
0
41
1
10
14.6598818683699
20
3.35938546516056
30
0
41
1
10
12.9189303461255
20
3.96066507295413
30
0
41
1
10
12.0382179201484
20
4.21601027043667
30
0
41
1
10
10.2474452179409
20
4.63815896314975
30
0
41
1
10
9.3373900241883
20
4.80516572895925
30
0
41
1
10
7.94597817852511
20
4.99679262827397
30
0
41
1
10
7.47756637568088
20
5.05091860344044
30
0
41
1
10
6.53247987720852
20
5.14071952887977
30
0
41
1
10
6.058346541113
20
5.17618158320946
30
0
41
1
10
5.10674106484433
20
5.22952887880533
30
0
41
1
10
4.62889973184792
20
5.24743157008058
30
0
41
1
10
4.03089110926473
20
5.25896281593782
30
0
41
1
10
3.91124663339286
20
5.26072466226526
30
0
41
1
10
3.73173067157291
20
5.26254518324748
30
0
41
1
10
3.67188844128899
20
5.2630148925156
30
0
41
1
10
3.5821196936194
20
5.26351273112834
30
0
41
1
10
3.5520783992865
20
5.26384601274569
30
0
41
1
10
3.49317174227099
20
5.25950776572992
30
0
41
1
10
3.46361534126143
20
5.25537392331336
30
0
41
1
10
3.42430541806922
20
5.24419893861261
30
0
41
1
10
3.41220552783281
20
5.23936928426423
30
0
41
1
10
3.38753150752385
20
5.23019800847618
30
0
41
1
10
3.37522570253066
20
5.22557182209158
30
0
41
1
10
3.33841660574103
20
5.21157329723511
30
0
41
1
10
3.26521604739753
20
5.18309019590342
30
0
41
1
10
3.1933198374042
20
5.15307537890445
30
0
41
1
10
3.0514297502948
20
5.09077089050089
30
0
41
1
10
2.95953681889361
20
5.04626334938374
30
0
41
1
10
2.69621709623868
20
4.9032210230792
30
0
41
1
10
2.53576950417792
20
4.79516261902205
30
0
41
1
10
2.36384248299581
20
4.63436671048129
30
0
41
1
10
2.33092143233074
20
4.60088876741588
30
0
41
1
10
2.26842560579752
20
4.53087559515782
30
0
41
1
10
2.23897849658641
20
4.49444034066727
30
0
41
1
10
2.15794514104721
20
4.38226688290854
30
0
41
1
10
2.11306238053379
20
4.30305205331169
30
0
41
1
10
2.06137852342536
20
4.17637598750753
30
0
41
1
10
2.04670355206619
20
4.13258065707154
30
0
41
1
10
2.02331751155671
20
4.04346165541284
30
0
41
1
10
2.01460433218347
20
3.99828764306127
30
0
41
1
10
1.99717143543569
20
3.8609117640444
30
0
41
1
10
1.99714779931236
20
3.7668575446028
30
0
41
1
10
2.0137903150775
20
3.62200356365605
30
0
41
1
10
2.02213992468634
20
3.57320005102173
30
0
41
1
10
2.0436642356463
20
3.47644179931405
30
0
41
1
10
2.05686352279517
20
3.4282221336002
30
0
41
1
10
2.1030448504641
20
3.28395447980566
30
0
41
1
10
2.14258042251748
20
3.18829434500898
30
0
41
1
10
2.23620005940873
20
2.99765814782256
30
0
41
1
10
2.28994672576439
20
2.90349552222349
30
0
41
1
10
2.40653090346126
20
2.71984631457013
30
0
41
1
10
2.46964688124345
20
2.62982578322749
30
0
41
1
10
2.60355778347929
20
2.45256057101142
30
0
41
1
10
2.67436327161479
20
2.36532040323388
30
0
41
1
10
2.82231707031235
20
2.19305072682306
30
0
41
1
10
2.8995903731095
20
2.1079211670945
30
0
41
1
10
3.13650327321289
20
1.85821678299618
30
0
41
1
10
3.3020805721913
20
1.69811329979464
30
0
41
1
10
3.64374484200627
20
1.38641317911612
30
0
41
1
10
3.81988608524631
20
1.23486469638803
30
0
41
1
10
3.99999995824902
20
1.08642903881434
30
0
0
SPLINE
5
B0
100
AcDbEntity
8
1
62
256
6
ByLayer
370
18
48
1
60
0
100
AcDbSpline
70
4
71
3
72
12
73
8
40
0
40
0
40
0
40
0
40
0.249999999999998
40
0.249999999999998
40
0.499999999999996
40
0.499999999999996
40
1
40
1
40
1
40
1
41
1
10
76.8454494223565
20
-6.12030613398434
30
0
41
1
10
76.8503267855862
20
-6.1071646215336
30
0
41
1
10
76.8550008114619
20
-6.09377932856071
30
0
41
1
10
76.8627265776333
20
-6.06967547731421
30
0
41
1
10
76.8657610469206
20
-6.05898328947546
30
0
41
1
10
76.8712475129706
20
-6.0351362505935
30
0
41
1
10
76.8701565211694
20
-6.03063147740241
30
0
41
1
10
76.8664656995836
20
-6.03370594483994
30
0
0
SPLINE
5
B1
100
AcDbEntity
8
1
62
256
6
ByLayer
370
18
48
1
60
0
100
AcDbSpline
70
4
71
3
72
8
73
4
40
0
40
0
40
0
40
0
40
1
40
1
40
1
40
1
41
1
10
76.8664656995836
20
-6.03370594483994
30
0
41
1
10
76.8367097625961
20
-6.05849274561405
30
0
41
1
10
76.8113184710409
20
-6.07096683655911
30
0
41
1
10
76.7903585033693
20
-6.07094011708318
30
0
0
SPLINE
5
B2
100
AcDbEntity
8
1
62
256
6
ByLayer
370
18
48
1
60
0
100
AcDbSpline
70
4
71
3
72
8
73
4
40
0
40
0
40
0
40
0
40
1
40
1
40
1
40
1
41
1
10
4.13026859650802
20
-6.04837332177831
30
0
41
1
10
4.16748491330085
20
-6.0287707848465
30
0
41
1
10
4.2083986770042
20
-6.01920291672306
30
0
41
1
10
4.25029789092389
20
-6.01992746023689
30
0
0
SPLINE
5
B3
100
AcDbEntity
8
1
62
256
6
ByLayer
370
18
48
1
60
0
100
AcDbSpline
70
4
71
3
72
26
73
22
40
0
40
0
40
0
40
0
40
0.125
40
0.125
40
0.1875
40
0.1875
40
0.25
40
0.25
40
0.499999999999997
40
0.499999999999997
40
0.562499999999997
40
0.562499999999997
40
0.624999999999998
40
0.624999999999998
40
0.749999999999998
40
0.749999999999998
40
0.874999999999999
40
0.874999999999999
40
0.937499999999999
40
0.937499999999999
40
1
40
1
40
1
40
1
41
1
10
76.790358503374
20
-6.07094011708318
30
0
41
1
10
76.7023494086581
20
-6.07086211294299
30
0
41
1
10
76.6185662812342
20
-6.05803618654383
30
0
41
1
10
76.4995421767194
20
-6.01873534298966
30
0
41
1
10
76.4609786355677
20
-6.00228316984234
30
0
41
1
10
76.3861633867533
20
-5.96240501813003
30
0
41
1
10
76.3497970710242
20
-5.93887454809885
30
0
41
1
10
76.1761430218342
20
-5.80466904717744
30
0
41
1
10
76.0620237543449
20
-5.64497508873112
30
0
41
1
10
75.9519037386387
20
-5.37673025370225
30
0
41
1
10
75.9315274111173
20
-5.31960514437102
30
0
41
1
10
75.8942015083579
20
-5.19812542100002
30
0
41
1
10
75.8772161570134
20
-5.1335369731373
30
0
41
1
10
75.8323144410839
20
-4.93170717988946
30
0
41
1
10
75.8101480353065
20
-4.7857408049766
30
0
41
1
10
75.7811121094299
20
-4.47133322333164
30
0
41
1
10
75.7742419506983
20
-4.30289295490547
30
0
41
1
10
75.7757339822467
20
-4.03289950442888
30
0
41
1
10
75.7782150639527
20
-3.93976645630707
30
0
41
1
10
75.787187238736
20
-3.74864191289473
30
0
41
1
10
75.7936495065101
20
-3.65104631532341
30
0
41
1
10
75.8020558328412
20
-3.55145044258356
30
0
0
SPLINE
5
B4
100
AcDbEntity
8
1
62
256
6
ByLayer
370
18
48
1
60
0
100
AcDbSpline
70
4
71
3
72
48
73
44
40
0
40
0
40
0
40
0
40
0.0482578352246008
40
0.0482578352246008
40
0.0965156704492015
40
0.0965156704492015
40
0.144773505673802
40
0.144773505673802
40
0.193031340898403
40
0.193031340898403
40
0.241289176123004
40
0.241289176123004
40
0.289547011347605
40
0.289547011347605
40
0.337804846572205
40
0.337804846572205
40
0.386062681796806
40
0.386062681796806
40
0.434320517021407
40
0.434320517021407
40
0.482578352246008
40
0.482578352246008
40
0.530836187470608
40
0.530836187470608
40
0.579094022695209
40
0.579094022695209
40
0.62735185791981
40
0.62735185791981
40
0.675609693144411
40
0.675609693144411
40
0.723867528369011
40
0.723867528369011
40
0.772125363593612
40
0.772125363593612
40
0.820383198818213
40
0.820383198818213
40
0.868641034042814
40
0.868641034042814
40
0.916898869267415
40
0.916898869267415
40
0.965156704492016
40
0.965156704492016
40
1
40
1
40
1
40
1
41
1
10
11.5542979597969
20
-3.33170911880865
30
0
41
1
10
11.8616050818355
20
-3.46898126627448
30
0
41
1
10
12.168155292472
20
-3.60164401770405
30
0
41
1
10
12.7798033180854
20
-3.8589301676374
30
0
41
1
10
13.0848405878559
20
-3.9834890735921
30
0
41
1
10
13.693559065681
20
-4.22306369536511
30
0
41
1
10
13.9971098033395
20
-4.33823421742028
30
0
41
1
10
14.6041395001088
20
-4.55817471059657
30
0
41
1
10
14.9075826636646
20
-4.66315409553229
30
0
41
1
10
15.5141560549027
20
-4.86293205939705
30
0
41
1
10
15.8173014352096
20
-4.95755181791142
30
0
41
1
10
16.4234524552363
20
-5.13596717806411
30
0
41
1
10
16.7264947139574
20
-5.2198453484329
30
0
41
1
10
17.3339003430514
20
-5.37621137845412
30
0
41
1
10
17.6380367408201
20
-5.4488277547398
30
0
41
1
10
18.247299855084
20
-5.58179261448711
30
0
41
1
10
18.5524102752562
20
-5.6421718857822
30
0
41
1
10
19.163746682792
20
-5.75153121292692
30
0
41
1
10
19.4707900656842
20
-5.80056722771135
30
0
41
1
10
20.0851458839511
20
-5.88404527602205
30
0
41
1
10
20.3913805990869
20
-5.91875696497246
30
0
41
1
10
21.0021990235898
20
-5.97562758253656
30
0
41
1
10
21.3066458655047
20
-5.99805788247528
30
0
41
1
10
21.9148261899532
20
-6.02984005194057
30
0
41
1
10
22.2186283274617
20
-6.03816220231437
30
0
41
1
10
22.8256478380007
20
-6.04174951285231
30
0
41
1
10
23.1288873810614
20
-6.03704901295802
30
0
41
1
10
23.7348497636059
20
-6.01567566171477
30
0
41
1
10
24.037482488444
20
-5.99897878345553
30
0
41
1
10
24.6438077151245
20
-5.95086724635379
30
0
41
1
10
24.9473023732318
20
-5.91998801017257
30
0
41
1
10
25.5548742014197
20
-5.84590814701755
30
0
41
1
10
25.8589122276888
20
-5.8029812837124
30
0
41
1
10
26.4676980412154
20
-5.70408048651692
30
0
41
1
10
26.7728138344356
20
-5.64741078487992
30
0
41
1
10
27.385152611186
20
-5.52184679716626
30
0
41
1
10
27.6926649499023
20
-5.45274105818675
30
0
41
1
10
28.3068578467309
20
-5.30364896465883
30
0
41
1
10
28.6132695969159
20
-5.22334035942265
30
0
41
1
10
29.2256499586126
20
-5.04941945474343
30
0
41
1
10
29.5319582625384
20
-4.95686448416512
30
0
41
1
10
30.0594792887181
20
-4.78897857248288
30
0
41
1
10
30.280668951742
20
-4.71619677878749
30
0
41
1
10
30.5018768550122
20
-4.64062209517581
30
0
0
SPLINE
5
B5
100
AcDbEntity
8
1
62
256
6
ByLayer
370
18
48
1
60
0
100
AcDbSpline
70
4
71
3
72
30
73
26
40
0
40
0
40
0
40
0
40
0.0748544482421763
40
0.0748544482421763
40
0.151949910888661
40
0.151949910888661
40
0.229045373535147
40
0.229045373535147
40
0.306140836181632
40
0.306140836181632
40
0.383236298828116
40
0.383236298828116
40
0.460331761474601
40
0.460331761474601
40
0.537427224121087
40
0.537427224121087
40
0.614522686767572
40
0.614522686767572
40
0.691618149414057
40
0.691618149414057
40
0.768713612060542
40
0.768713612060542
40
0.845809074707027
40
0.845809074707027
40
1
40
1
40
1
40
1
41
1
10
58.3077201834784
20
6.05796919616415
30
0
41
1
10
58.6023185180761
20
6.05422246386686
30
0
41
1
10
58.8965901279386
20
6.04428106275611
30
0
41
1
10
59.4941489269122
20
6.01280468784151
30
0
41
1
10
59.7972696889452
20
5.99030091829601
30
0
41
1
10
60.4034655006977
20
5.93143817233295
30
0
41
1
10
60.7064518215973
20
5.89546735855453
30
0
41
1
10
61.3128373844143
20
5.81200017625807
30
0
41
1
10
61.6165594903008
20
5.76462220491163
30
0
41
1
10
62.2251426377227
20
5.65597897203568
30
0
41
1
10
62.53002129967
20
5.59473882184801
30
0
41
1
10
63.1410059190352
20
5.45916779523162
30
0
41
1
10
63.4469621562746
20
5.38472562090877
30
0
41
1
10
64.0614279657941
20
5.22411861282183
30
0
41
1
10
64.3684879932331
20
5.13826212726164
30
0
41
1
10
64.9819051613542
20
4.95594808707631
30
0
41
1
10
65.2883137360193
20
4.85958164643907
30
0
41
1
10
65.9005588590757
20
4.6562737376936
30
0
41
1
10
66.2064902173597
20
4.54925118789925
30
0
41
1
10
66.8194051766252
20
4.32513709659028
30
0
41
1
10
67.1261726849904
20
4.20790256084126
30
0
41
1
10
67.7403480904264
20
3.96383377739207
30
0
41
1
10
68.0477256596632
20
3.83690115497433
30
0
41
1
10
68.9674241085291
20
3.44384082242266
30
0
41
1
10
69.5803226787828
20
3.16747861195094
30
0
41
1
10
70.1929349867195
20
2.87758292209844
30
0
0
SPLINE
5
B6
100
AcDbEntity
8
1
62
256
6
ByLayer
370
13
48
1
60
0
100
AcDbSpline
70
4
71
3
72
12
73
8
40
0
40
0
40
0
40
0
40
0.5
40
0.5
40
0.75
40
0.75
40
1
40
1
40
1
40
1
41
1
10
3.99999995824874
20
-6.25880924294736
30
0
41
1
10
3.99999995824874
20
-6.23590506017027
30
0
41
1
10
4.01138299854605
20
-6.21222677226129
30
0
41
1
10
4.04415065570765
20
-6.18123410709202
30
0
41
1
10
4.05793690674477
20
-6.17135687188338
30
0
41
1
10
4.09053617591465
20
-6.15374701493562
30
0
41
1
10
4.10908647844073
20
-6.14607032986547
30
0
41
1
10
4.13026859650802
20
-6.13972843637779
30
0
0
SPLINE
5
B7
100
AcDbEntity
8
1
62
256
6
ByLayer
370
13
48
1
60
0
100
AcDbSpline
70
4
71
3
72
8
73
4
40
0
40
0
40
0
40
0
40
1
40
1
40
1
40
1
41
1
10
4.13026859650802
20
-6.13972843637779
30
0
41
1
10
4.15284328695969
20
-6.12798091126172
30
0
41
1
10
4.17737811272559
20
-6.12242939940893
30
0
41
1
10
4.20240198127431
20
-6.12294430849838
30
0
0
SPLINE
5
B8
100
AcDbEntity
8
1
62
256
6
ByLayer
370
18
48
1
60
0
100
AcDbSpline
70
4
71
3
72
12
73
8
40
0
40
0
40
0
40
0
40
0.305070168419679
40
0.305070168419679
40
0.6421720158948
40
0.6421720158948
40
1
40
1
40
1
40
1
41
1
10
40.3724975872984
20
-6.04851254053253
30
0
41
1
10
39.6823506131835
20
-6.05316564926605
30
0
41
1
10
38.993006561574
20
-6.02372880995543
30
0
41
1
10
37.5396698257706
20
-5.89095088043544
30
0
41
1
10
36.7819528883788
20
-5.78065715770612
30
0
41
1
10
35.226150265203
20
-5.4764050232049
30
0
41
1
10
34.4278989596388
20
-5.27761495350151
30
0
41
1
10
33.628577690147
20
-5.04053845245713
30
0
0
SPLINE
5
B9
100
AcDbEntity
8
1
62
256
6
ByLayer
370
13
48
1
60
0
100
AcDbSpline
70
4
71
3
72
22
73
18
40
0
40
0
40
0
40
0
40
0.135878678559076
40
0.135878678559076
40
0.208268834792504
40
0.208268834792504
40
0.280658991025931
40
0.280658991025931
40
0.425439303492785
40
0.425439303492785
40
0.714999928426494
40
0.714999928426494
40
0.787390084659921
40
0.787390084659921
40
0.859780240893348
40
0.859780240893348
40
1
40
1
40
1
40
1
41
1
10
33.6285767320841
20
-5.04053816829824
30
0
41
1
10
32.9218524621587
20
-4.83092565709188
30
0
41
1
10
32.2142917671582
20
-4.59138346114116
30
0
41
1
10
31.1243383679603
20
-4.18241742398592
30
0
41
1
10
30.7444235010487
20
-4.03259872053087
30
0
41
1
10
29.9816195776371
20
-3.71852207917269
30
0
41
1
10
29.6009819331786
20
-3.55508621376919
30
0
41
1
10
28.4634508288186
20
-3.04942946916148
30
0
41
1
10
27.709326444112
20
-2.69148016734053
30
0
41
1
10
25.4499573364119
20
-1.57229257034584
30
0
41
1
10
23.9475622882423
20
-0.766017075097494
30
0
41
1
10
22.0405804624839
20
0.255731673056886
30
0
41
1
10
21.6597343685618
20
0.459693334901232
30
0
41
1
10
20.9011871906261
20
0.863714100425625
30
0
41
1
10
20.5230045351247
20
1.06396479906374
30
0
41
1
10
19.4141762630764
20
1.64456782094351
30
0
41
1
10
18.6855349235442
20
2.01836706587684
30
0
41
1
10
17.9563392992504
20
2.37728435513392
30
0
0
SPLINE
5
BA
100
AcDbEntity
8
1
62
256
6
ByLayer
370
18
48
1
60
0
100
AcDbSpline
70
4
71
3
72
98
73
94
40
0
40
0
40
0
40
0
40
0.042809718832106
40
0.042809718832106
40
0.0774380214377405
40
0.0774380214377405
40
0.0947521727405578
40
0.0947521727405578
40
0.112066324043375
40
0.112066324043375
40
0.181322929254644
40
0.181322929254644
40
0.250579534465913
40
0.250579534465913
40
0.285207837071548
40
0.285207837071548
40
0.319836139677182
40
0.319836139677182
40
0.389092744888451
40
0.389092744888451
40
0.423721047494086
40
0.423721047494086
40
0.441035198796903
40
0.441035198796903
40
0.449692274448312
40
0.449692274448312
40
0.451856543361164
40
0.45293867781759
40
0.453479745045803
40
0.453750278659909
40
0.453750278659909
40
0.453885545466963
40
0.453885545466963
40
0.454020812274016
40
0.454020812274016
40
0.454561879502229
40
0.454561879502229
40
0.455102946730442
40
0.455102946730442
40
0.456185081186869
40
0.456185081186869
40
0.458349350099721
40
0.458349350099721
40
0.467006425751131
40
0.467006425751131
40
0.475663501402541
40
0.475663501402541
40
0.49297765270536
40
0.49297765270536
40
0.527605955311
40
0.527605955311
40
0.59686256052228
40
0.59686256052228
40
0.666119165733559
40
0.666119165733559
40
0.700747468339199
40
0.700747468339199
40
0.709404543990609
40
0.709404543990609
40
0.713733081816314
40
0.713733081816314
40
0.715897350729166
40
0.715897350729166
40
0.716979485185592
40
0.716979485185592
40
0.717520552413805
40
0.717520552413805
40
0.717791086027912
40
0.717791086027912
40
0.718061619642018
40
0.718061619642018
40
0.718196886449072
40
0.718196886449072
40
0.718332153256125
40
0.718602686870232
40
0.719143754098445
40
0.720225888554871
40
0.722390157467724
40
0.72671869529343
40
0.72671869529343
40
0.735375770944841
40
0.735375770944841
40
0.770004073550488
40
0.770004073550488
40
0.804632376156135
40
0.804632376156135
40
0.839260678761781
40
0.839260678761781
40
0.873888981367428
40
0.873888981367428
40
0.943145586578721
40
0.943145586578721
40
1
40
1
40
1
40
1
41
1
10
18.9038794542471
20
1.35656345546064
30
0
41
1
10
18.667860178036
20
1.44659014257147
30
0
41
1
10
18.4321041757386
20
1.52925492942163
30
0
41
1
10
18.0055173900954
20
1.66259768363958
30
0
41
1
10
17.814689679797
20
1.71634813399382
30
0
41
1
10
17.5278469662209
20
1.78676202268048
30
0
41
1
10
17.4321307429091
20
1.80853072935028
30
0
41
1
10
17.2403890150994
20
1.84842596075637
30
0
41
1
10
17.1441399900012
20
1.86658655046398
30
0
41
1
10
16.6653189844605
20
1.94713782101053
30
0
41
1
10
16.2897073725477
20
1.97883833091305
30
0
41
1
10
15.544955196663
20
1.97482779455149
30
0
41
1
10
15.1757528473855
20
1.93919434247184
30
0
41
1
10
14.6193746514331
20
1.83665876129035
30
0
41
1
10
14.4334819258836
20
1.79432073208309
30
0
41
1
10
14.0595844988783
20
1.69371342962114
30
0
41
1
10
13.873334150629
20
1.63590172828631
30
0
41
1
10
13.3175360034846
20
1.44290222539829
30
0
41
1
10
12.9496880592652
20
1.28791016138757
30
0
41
1
10
12.3954557128821
20
1.02327881117381
30
0
41
1
10
12.2103170270401
20
0.929690530630211
30
0
41
1
10
11.9312985528683
20
0.782003560160121
30
0
41
1
10
11.8380743721126
20
0.731556227198126
30
0
41
1
10
11.697823157751
20
0.654145963696607
30
0
41
1
10
11.6510307776363
20
0.628067428515038
30
0
41
1
10
11.5925529262159
20
0.595177843512346
30
0
41
1
10
11.5750088661651
20
0.585288199991709
30
0
41
1
10
11.5545392418136
20
0.573710798143338
30
0
41
1
10
11.5443041733325
20
0.567912368398396
30
0
41
1
10
11.5399176666741
20
0.565425253147026
30
0
41
1
10
11.5377244046672
20
0.564181350157497
30
0
41
1
10
11.5369380861613
20
0.563842420488754
30
0
41
1
10
11.5356020411179
20
0.562837751155001
30
0
41
1
10
11.5356453352563
20
0.56186034205578
30
0
41
1
10
11.537032659393
20
0.557957008894306
30
0
41
1
10
11.5396872514358
20
0.555550048459764
30
0
41
1
10
11.5444300721871
20
0.55074188222892
30
0
41
1
10
11.5469235517325
20
0.54845674612875
30
0
41
1
10
11.5545347158656
20
0.541728627599412
30
0
41
1
10
11.5597948047221
20
0.537425154672945
30
0
41
1
10
11.5757189387892
20
0.524734423537694
30
0
41
1
10
11.5865742173439
20
0.516565649126363
30
0
41
1
10
11.6412426032196
20
0.476197644560926
30
0
41
1
10
11.6861356173629
20
0.445359248650732
30
0
41
1
10
11.7761220172219
20
0.384048920226491
30
0
41
1
10
11.8213789776339
20
0.353747779380114
30
0
41
1
10
11.9575128912184
20
0.263316721557288
30
0
41
1
10
12.04874895164
20
0.203676833315626
30
0
41
1
10
12.3230073522339
20
0.0255212305648627
30
0
41
1
10
12.5066362122981
20
-0.0922017058948654
30
0
41
1
10
13.0584535042657
20
-0.44435104915317
30
0
41
1
10
13.4273004341996
20
-0.678205138377734
30
0
41
1
10
14.164656567816
20
-1.1468221509725
30
0
41
1
10
14.5336069567491
20
-1.3809738273014
30
0
41
1
10
15.0841209010246
20
-1.73720576735082
30
0
41
1
10
15.2674278281277
20
-1.85639294562583
30
0
41
1
10
15.4941793873662
20
-2.00911377750182
30
0
41
1
10
15.5393938856701
20
-2.0398476708591
30
0
41
1
10
15.6065948049855
20
-2.08681876617374
30
0
41
1
10
15.6289014240714
20
-2.10260710269603
30
0
41
1
10
15.6619243467771
20
-2.12690284738432
30
0
41
1
10
15.672866296853
20
-2.13509360536369
30
0
41
1
10
15.6889680181382
20
-2.1478166151683
30
0
41
1
10
15.6942929634841
20
-2.15212655149449
30
0
41
1
10
15.7020421703768
20
-2.15889535072139
30
0
41
1
10
15.7045888785628
20
-2.16119765584074
30
0
41
1
10
15.708200898016
20
-2.16483370828306
30
0
41
1
10
15.7093730975505
20
-2.16607314459728
30
0
41
1
10
15.7115217287613
20
-2.16872080966095
30
0
41
1
10
15.7128560582718
20
-2.17015820367331
30
0
41
1
10
15.7127008312331
20
-2.1725710257486
30
0
41
1
10
15.7118445949482
20
-2.17296767028509
30
0
41
1
10
15.7105574574949
20
-2.17388960398961
30
0
41
1
10
15.7086267589734
20
-2.17527224753502
30
0
41
1
10
15.704121847132
20
-2.17849661675177
30
0
41
1
10
15.6951122543327
20
-2.1849381280806
30
0
41
1
10
15.6770937893387
20
-2.19779228510475
30
0
41
1
10
15.6410614336129
20
-2.22338312110793
30
0
41
1
10
15.6101801555999
20
-2.24511692452842
30
0
41
1
10
15.5484271976054
20
-2.28830532463465
30
0
41
1
10
15.5072780821523
20
-2.31672072415466
30
0
41
1
10
15.301567737185
20
-2.45685546560247
30
0
41
1
10
15.1369681401382
20
-2.56282937194709
30
0
41
1
10
14.8090080171522
20
-2.75907199396792
30
0
41
1
10
14.6453238099116
20
-2.84958018092846
30
0
41
1
10
14.3164950137012
20
-3.01368676671316
30
0
41
1
10
14.1513553631813
20
-3.08728649356485
30
0
41
1
10
13.8171370804097
20
-3.21542677257102
30
0
41
1
10
13.648672829127
20
-3.26962358201624
30
0
41
1
10
13.141667808285
20
-3.39855249873662
30
0
41
1
10
12.7990923340122
20
-3.44037256839641
30
0
41
1
10
12.1485258715639
20
-3.4302988045236
30
0
41
1
10
11.8535990777119
20
-3.39398591713143
30
0
41
1
10
11.5543093433517
20
-3.33171148744319
30
0
0
SPLINE
5
BB
100
AcDbEntity
8
1
62
256
6
ByLayer
370
18
48
1
60
0
100
AcDbSpline
70
4
71
3
72
18
73
14
40
0
40
0
40
0
40
0
40
0.125000000000007
40
0.125000000000007
40
0.250000000000014
40
0.250000000000014
40
0.37500000000002
40
0.37500000000002
40
0.500000000000027
40
0.500000000000027
40
0.750000000000014
40
0.750000000000014
40
1
40
1
40
1
40
1
41
1
10
4.2513250990516
20
1.09582288601627
30
0
41
1
10
4.23711217776574
20
1.10800620489269
30
0
41
1
10
4.22246041628585
20
1.11961661881409
30
0
41
1
10
4.19198218936111
20
1.14130327851515
30
0
41
1
10
4.1759771561982
20
1.15146474144498
30
0
41
1
10
4.14398005737462
20
1.16854144713352
30
0
41
1
10
4.12756104884045
20
1.17563921723004
30
0
41
1
10
4.09665742917585
20
1.18494671914212
30
0
41
1
10
4.08186647357923
20
1.18721381160986
30
0
41
1
10
4.04355236439048
20
1.18642768638406
30
0
41
1
10
4.02571300672435
20
1.17602841909971
30
0
41
1
10
4.00435503239621
20
1.14686803976616
30
0
41
1
10
3.999999958248
20
1.12801819343503
30
0
41
1
10
3.99999995824871
20
1.10723425721875
30
0
0
SPLINE
5
BC
100
AcDbEntity
8
1
62
256
6
ByLayer
370
18
48
1
60
0
100
AcDbSpline
70
4
71
3
72
98
73
94
40
0
40
0
40
0
40
0
40
0.0077555198223446
40
0.0077555198223446
40
0.0289469104053178
40
0.0289469104053178
40
0.0501383009882909
40
0.0501383009882909
40
0.0713296915712641
40
0.0713296915712641
40
0.0925210821542373
40
0.0925210821542373
40
0.11371247273721
40
0.11371247273721
40
0.134903863320184
40
0.134903863320184
40
0.156095253903157
40
0.156095253903157
40
0.198478035069103
40
0.198478035069103
40
0.219669425652077
40
0.219669425652077
40
0.24086081623505
40
0.24086081623505
40
0.262052206818024
40
0.262052206818024
40
0.283243597400997
40
0.283243597400997
40
0.304434987983971
40
0.304434987983971
40
0.325626378566944
40
0.325626378566944
40
0.346817769149918
40
0.346817769149918
40
0.368009159732892
40
0.368009159732892
40
0.389200550315865
40
0.389200550315865
40
0.410391940898839
40
0.410391940898839
40
0.431583331481812
40
0.431583331481812
40
0.452774722064786
40
0.452774722064786
40
0.473966112647759
40
0.473966112647759
40
0.495157503230733
40
0.495157503230733
40
0.516348893813707
40
0.516348893813707
40
0.53754028439668
40
0.53754028439668
40
0.558731674979654
40
0.558731674979654
40
0.579923065562627
40
0.579923065562627
40
0.601114456145601
40
0.601114456145601
40
0.622305846728574
40
0.622305846728574
40
0.643497237311548
40
0.643497237311548
40
0.664688627894521
40
0.664688627894521
40
0.685880018477494
40
0.685880018477494
40
0.707071409060468
40
0.707071409060468
40
0.728262799643441
40
0.728262799643441
40
0.749454190226415
40
0.749454190226415
40
0.770645580809389
40
0.770645580809389
40
0.791836971392362
40
0.791836971392362
40
0.813028361975335
40
0.813028361975335
40
0.834219752558309
40
0.834219752558309
40
0.855411143141282
40
0.855411143141282
40
0.876602533724256
40
0.876602533724256
40
0.918985314890204
40
0.918985314890204
40
0.940176705473177
40
0.940176705473177
40
0.961368096056151
40
0.961368096056151
40
0.982559486639124
40
0.982559486639124
40
1
40
1
40
1
40
1
41
1
10
65.9417198949492
20
-4.64030581104601
30
0
41
1
10
65.8298807336372
20
-4.67891500105884
30
0
41
1
10
65.718010405575
20
-4.71683889425262
30
0
41
1
10
65.3002250865844
20
-4.8557628488177
30
0
41
1
10
64.9934975097465
20
-4.95236005680101
30
0
41
1
10
64.380857095371
20
-5.13472308888197
30
0
41
1
10
64.0748619202674
20
-5.22042191773869
30
0
41
1
10
63.4636743786577
20
-5.3805338861967
30
0
41
1
10
63.1585852365463
20
-5.45501388582554
30
0
41
1
10
62.5476824536778
20
-5.59105904040396
30
0
41
1
10
62.2420157555877
20
-5.65273299432079
30
0
41
1
10
61.630101835953
20
-5.76242712339055
30
0
41
1
10
61.3236958056135
20
-5.81040438922361
30
0
41
1
10
60.7110758485354
20
-5.89492950759634
30
0
41
1
10
60.405128176151
20
-5.93129354469113
30
0
41
1
10
59.7933042095373
20
-5.99066908907423
30
0
41
1
10
59.4875331119746
20
-6.01327536984289
30
0
41
1
10
58.5704809785381
20
-6.06120890406422
30
0
41
1
10
57.9600944333731
20
-6.06912422446976
30
0
41
1
10
57.0403852069685
20
-6.03665372584197
30
0
41
1
10
56.7337430983312
20
-6.01829523344671
30
0
41
1
10
56.1230174181033
20
-5.97031155456239
30
0
41
1
10
55.8187213730175
20
-5.94019507508185
30
0
41
1
10
55.2107663533623
20
-5.86688012947707
30
0
41
1
10
54.9072213220533
20
-5.82334726691258
30
0
41
1
10
54.3007666765806
20
-5.72412077550456
30
0
41
1
10
53.9978202847226
20
-5.66887046177266
30
0
41
1
10
53.3927888806627
20
-5.54612593961076
30
0
41
1
10
53.0905161013444
20
-5.47863789443664
30
0
41
1
10
52.4852340039302
20
-5.33111487468099
30
0
41
1
10
52.1823422814191
20
-5.25134199847813
30
0
41
1
10
51.5760907496724
20
-5.08146227266349
30
0
41
1
10
51.2728180449208
20
-4.99101983400277
30
0
41
1
10
50.6655667054436
20
-4.79821444328877
30
0
41
1
10
50.3611703060087
20
-4.69603756097831
30
0
41
1
10
49.7506659239818
20
-4.48172633060767
30
0
41
1
10
49.4445390773662
20
-4.36977508290923
30
0
41
1
10
48.8309852327679
20
-4.13552126528859
30
0
41
1
10
48.5250800965499
20
-4.01329394739867
30
0
41
1
10
47.9134435817891
20
-3.76018907848322
30
0
41
1
10
47.6076486792211
20
-3.62991297229396
30
0
41
1
10
46.9960725540035
20
-3.36246734401345
30
0
41
1
10
46.6902895601897
20
-3.22496449079509
30
0
41
1
10
46.0788455283206
20
-2.94171612868789
30
0
41
1
10
45.7731376922628
20
-2.79578212308164
30
0
41
1
10
45.1602836947253
20
-2.49963950066547
30
0
41
1
10
44.8532607942724
20
-2.3489949290032
30
0
41
1
10
44.2406547042459
20
-2.04296638009214
30
0
41
1
10
43.9347912944675
20
-1.88742704589598
30
0
41
1
10
43.3238078892485
20
-1.57159624771896
30
0
41
1
10
43.018253188615
20
-1.41229389595435
30
0
41
1
10
42.4066445777459
20
-1.09146614987495
30
0
41
1
10
42.1006516158101
20
-0.929792717963977
30
0
41
1
10
41.488117334554
20
-0.603693736917108
30
0
41
1
10
41.1815105875445
20
-0.438858315026408
30
0
41
1
10
40.5688713845746
20
-0.109620739095107
30
0
41
1
10
40.2627295132991
20
0.0546837174319421
30
0
41
1
10
39.6507544272648
20
0.382455123658048
30
0
41
1
10
39.3449104050729
20
0.545836558410599
30
0
41
1
10
38.7335158695535
20
0.871881150841944
30
0
41
1
10
38.4280721570348
20
1.03475566013623
30
0
41
1
10
37.8160179916645
20
1.35698799299732
30
0
41
1
10
37.5094369587014
20
1.51665375709936
30
0
41
1
10
36.8957035179921
20
1.83232915937575
30
0
41
1
10
36.5893141069953
20
1.98806774923247
30
0
41
1
10
35.9775628699225
20
2.29606683330374
30
0
41
1
10
35.6718737400198
20
2.44766441628911
30
0
41
1
10
35.0601557416928
20
2.74357942119903
30
0
41
1
10
34.7541770412732
20
2.88815268787124
30
0
41
1
10
34.1419891462646
20
3.17186527511507
30
0
41
1
10
33.8359821377295
20
3.31113035064814
30
0
41
1
10
33.2230621175308
20
3.5821601078074
30
0
41
1
10
32.9162168646968
20
3.71303267645538
30
0
41
1
10
32.303556539183
20
3.96570138609147
30
0
41
1
10
31.9974160085785
20
4.08806446154119
30
0
41
1
10
31.3857185690788
20
4.3242017150944
30
0
41
1
10
31.0803290148845
20
4.43828563468597
30
0
41
1
10
30.4686245644458
20
4.65381626200147
30
0
41
1
10
30.1624009909164
20
4.75602798316268
30
0
41
1
10
29.549303178998
20
4.95152881039533
30
0
41
1
10
29.2420117461932
20
5.04455458119662
30
0
41
1
10
28.6304733619013
20
5.21866068609273
30
0
41
1
10
28.3257512716108
20
5.29879725115762
30
0
41
1
10
27.4125395135601
20
5.52124362526121
30
0
41
1
10
26.8056461357693
20
5.64802414069649
30
0
41
1
10
25.8980089120879
20
5.79715553244492
30
0
41
1
10
25.5954226865793
20
5.84036586581109
30
0
41
1
10
24.9900097980695
20
5.91530205196091
30
0
41
1
10
24.6872116592198
20
5.94671848872474
30
0
41
1
10
24.0814180968532
20
5.99610232059104
30
0
41
1
10
23.7786032780438
20
6.0135221068943
30
0
41
1
10
23.2253326661427
20
6.03407545664533
30
0
41
1
10
22.9751351267917
20
6.03931272010561
30
0
41
1
10
22.7244878990068
20
6.04019510120219
30
0
0
SPLINE
5
BD
100
AcDbEntity
8
1
62
256
6
ByLayer
370
18
48
1
60
0
100
AcDbSpline
70
4
71
3
72
44
73
40
40
0
40
0
40
0
40
0
40
0.0308602038020614
40
0.0308602038020614
40
0.0617204076041227
40
0.0617204076041227
40
0.123440815208246
40
0.123440815208246
40
0.246881630416491
40
0.246881630416491
40
0.277741834218552
40
0.277741834218552
40
0.308602038020613
40
0.308602038020613
40
0.339462241822674
40
0.339462241822674
40
0.370322445624735
40
0.370322445624735
40
0.493763260832981
40
0.493763260832981
40
0.555483668437104
40
0.555483668437104
40
0.586343872239166
40
0.586343872239166
40
0.617204076041228
40
0.617204076041228
40
0.678924483645351
40
0.678924483645351
40
0.740644891249475
40
0.740644891249475
40
0.771505095051537
40
0.771505095051537
40
0.802365298853598
40
0.802365298853598
40
0.864085706457721
40
0.864085706457721
40
0.987526521665966
40
0.987526521665966
40
1
40
1
40
1
40
1
41
1
10
76.7774801501727
20
-6.30315304197038
30
0
41
1
10
76.3975944585067
20
-6.32890799587662
30
0
41
1
10
76.0178394950143
20
-6.34384677872876
30
0
41
1
10
75.2577771150105
20
-6.35207050791166
30
0
41
1
10
74.8769959274201
20
-6.34530254298781
30
0
41
1
10
73.7402470651061
20
-6.29290846683901
30
0
41
1
10
72.9876366629718
20
-6.21534167896564
30
0
41
1
10
70.7349837857957
20
-5.86144650759942
30
0
41
1
10
69.2396796102622
20
-5.46399036566834
30
0
41
1
10
67.3427637691192
20
-4.78978677549472
30
0
41
1
10
66.9618570475541
20
-4.64601243546053
30
0
41
1
10
66.2025671026977
20
-4.34408797144991
30
0
41
1
10
65.8234113531084
20
-4.18566701521718
30
0
41
1
10
65.0651759489778
20
-3.85514715981449
30
0
41
1
10
64.6860631319536
20
-3.68309342646918
30
0
41
1
10
63.926913067347
20
-3.32670595551414
30
0
41
1
10
63.5461178206606
20
-3.14198591303074
30
0
41
1
10
61.6478145020686
20
-2.19611152454314
30
0
41
1
10
60.1518788820841
20
-1.37090581365993
30
0
41
1
10
57.8987084429211
20
-0.107699255606548
30
0
41
1
10
57.1460533593996
20
0.317493093080316
30
0
41
1
10
56.0096647564381
20
0.952523212248281
30
0
41
1
10
55.6287927077473
20
1.16397104137795
30
0
41
1
10
54.8687749657512
20
1.58101281076503
30
0
41
1
10
54.4893479119966
20
1.78682729351499
30
0
41
1
10
53.3517116183069
20
2.39429465888864
30
0
41
1
10
52.5935010229429
20
2.78510400473121
30
0
41
1
10
51.0713903549371
20
3.52678740374299
30
0
41
1
10
50.3132719617021
20
3.87423117447935
30
0
41
1
10
49.1753612362111
20
4.35323391880803
30
0
41
1
10
48.7958852470749
20
4.5058017362079
30
0
41
1
10
48.035633730362
20
4.79544562547838
30
0
41
1
10
47.6547931372961
20
4.93250809118109
30
0
41
1
10
46.5184607197836
20
5.31584324452064
30
0
41
1
10
45.7658860556123
20
5.53532499199036
30
0
41
1
10
43.512274002944
20
6.07830818963873
30
0
41
1
10
42.0154261265216
20
6.28630473845814
30
0
41
1
10
40.3418572219097
20
6.32590423738509
30
0
41
1
10
40.1881249765506
20
6.32777179574651
30
0
41
1
10
40.0343817145324
20
6.32787588075186
30
0
0
SPLINE
5
BE
100
AcDbEntity
8
1
62
256
6
ByLayer
370
18
48
1
60
0
100
AcDbSpline
70
4
71
3
72
12
73
8
40
0
40
0
40
0
40
0
40
0.393200016330625
40
0.393200016330625
40
0.696600008165313
40
0.696600008165313
40
1
40
1
40
1
40
1
41
1
10
7.87697008730612
20
-6.04502654447484
30
0
41
1
10
7.38923210005925
20
-6.12285576223994
30
0
41
1
10
6.90058271172646
20
-6.18386078568687
30
0
41
1
10
6.0313878567446
20
-6.26080558372919
30
0
41
1
10
5.65127006911592
20
-6.28387467758856
30
0
41
1
10
4.88940221160976
20
-6.30844876973845
30
0
41
1
10
4.50869477693831
20
-6.30994488946564
30
0
41
1
10
4.12783850281303
20
-6.30062208916104
30
0
0
SPLINE
5
BF
100
AcDbEntity
8
1
62
256
6
ByLayer
370
18
48
1
60
0
100
AcDbSpline
70
4
71
3
72
94
73
90
40
0
40
0
40
0
40
0
40
0.0030729249124135
40
0.0030729249124135
40
0.0236965840981878
40
0.0236965840981878
40
0.064943902469737
40
0.064943902469737
40
0.085567561655512
40
0.085567561655512
40
0.106191220841287
40
0.106191220841287
40
0.126814880027062
40
0.126814880027062
40
0.147438539212837
40
0.147438539212837
40
0.168062198398612
40
0.168062198398612
40
0.188685857584387
40
0.188685857584387
40
0.229933175955938
40
0.229933175955938
40
0.250556835141713
40
0.250556835141713
40
0.271180494327488
40
0.271180494327488
40
0.291804153513263
40
0.291804153513263
40
0.312427812699038
40
0.312427812699038
40
0.353675131070588
40
0.353675131070588
40
0.374298790256362
40
0.374298790256362
40
0.394922449442137
40
0.394922449442137
40
0.415546108627911
40
0.415546108627911
40
0.436169767813686
40
0.436169767813686
40
0.456793426999461
40
0.456793426999461
40
0.477417086185235
40
0.477417086185235
40
0.518664404556784
40
0.518664404556784
40
0.539288063742558
40
0.539288063742558
40
0.559911722928332
40
0.559911722928332
40
0.580535382114106
40
0.580535382114106
40
0.601159041299879
40
0.601159041299879
40
0.621782700485653
40
0.621782700485653
40
0.632094530078541
40
0.632094530078541
40
0.642406359671428
40
0.642406359671428
40
0.683653678042978
40
0.683653678042978
40
0.704277337228753
40
0.704277337228753
40
0.724900996414528
40
0.724900996414528
40
0.745524655600303
40
0.745524655600303
40
0.766148314786078
40
0.766148314786078
40
0.786771973971853
40
0.786771973971853
40
0.807395633157628
40
0.807395633157628
40
0.848642951529178
40
0.848642951529178
40
0.869266610714953
40
0.869266610714953
40
0.889890269900727
40
0.889890269900727
40
0.910513929086502
40
0.910513929086502
40
0.931137588272276
40
0.931137588272276
40
0.972384906643826
40
0.972384906643826
40
0.993008565829601
40
0.993008565829601
40
1
40
1
40
1
40
1
41
1
10
30.5472606419685
20
4.60671524228385
30
0
41
1
10
30.5920550519979
20
4.62391189776997
30
0
41
1
10
30.6368436133904
20
4.64100669071709
30
0
41
1
10
30.9821766997436
20
4.77205167426416
30
0
41
1
10
31.2820627280832
20
4.88195224304371
30
0
41
1
10
32.1837608517556
20
5.19429671753485
30
0
41
1
10
32.7876959980031
20
5.37970640742924
30
0
41
1
10
33.6952092468744
20
5.62569016966305
30
0
41
1
10
33.9978739424204
20
5.70231171552663
30
0
41
1
10
34.6065390255482
20
5.84214957593909
30
0
41
1
10
34.9117179691259
20
5.90563029771641
30
0
41
1
10
35.5189517586824
20
6.01929705763564
30
0
41
1
10
35.8216261198188
20
6.06962887547019
30
0
41
1
10
36.4247556028931
20
6.15737566195025
30
0
41
1
10
36.7258493989046
20
6.19445084134733
30
0
41
1
10
37.3282164264489
20
6.25494234705491
30
0
41
1
10
37.6292343319122
20
6.27847803946707
30
0
41
1
10
38.2305551342134
20
6.31227682257409
30
0
41
1
10
38.5306568872119
20
6.32254246859904
30
0
41
1
10
39.4307986875704
20
6.33290545008325
30
0
41
1
10
40.0335074280967
20
6.31287431814872
30
0
41
1
10
40.9387903535286
20
6.24214897413279
30
0
41
1
10
41.2404104056997
20
6.21155307172123
30
0
41
1
10
41.8462901182887
20
6.13704011383146
30
0
41
1
10
42.1507670551579
20
6.09312841408439
30
0
41
1
10
42.7603849057889
20
5.99198526016699
30
0
41
1
10
43.0641851171714
20
5.93500101484275
30
0
41
1
10
43.669395678094
20
5.80798624173795
30
0
41
1
10
43.9708045610193
20
5.73788974616215
30
0
41
1
10
44.8756189731787
20
5.51138913729767
30
0
41
1
10
45.4778591052696
20
5.33776085550309
30
0
41
1
10
46.3777169458045
20
5.04127372757983
30
0
41
1
10
46.6778477290965
20
4.93717923553533
30
0
41
1
10
47.2792051971149
20
4.71949062789338
30
0
41
1
10
47.5802261060084
20
4.60567585443911
30
0
41
1
10
48.1825738319278
20
4.36755256322326
30
0
41
1
10
48.4836560250151
20
4.24289296675872
30
0
41
1
10
49.0870177935393
20
3.98394692702843
30
0
41
1
10
49.3899206352145
20
3.85058370563735
30
0
41
1
10
49.9975278442252
20
3.57519551704178
30
0
41
1
10
50.3029005053689
20
3.43288126400552
30
0
41
1
10
50.9106290987509
20
3.14102010690266
30
0
41
1
10
51.2128897037834
20
2.99079448697307
30
0
41
1
10
52.1195066066477
20
2.53496852832808
30
0
41
1
10
52.7227969782766
20
2.2228578250301
30
0
41
1
10
53.6235977791545
20
1.73828700767766
30
0
41
1
10
53.9232998640442
20
1.57421425626947
30
0
41
1
10
54.5241081705883
20
1.24545335973397
30
0
41
1
10
54.8247961757864
20
1.080041072928
30
0
41
1
10
55.42634260104
20
0.746446527607702
30
0
41
1
10
55.7271541021979
20
0.57817795054649
30
0
41
1
10
56.3288030144745
20
0.23851665396603
30
0
41
1
10
56.6304294718567
20
0.0685705697247556
30
0
41
1
10
57.2357081074861
20
-0.270741047201625
30
0
41
1
10
57.5392014882704
20
-0.440398953602596
30
0
41
1
10
57.9954621065071
20
-0.695429816520658
30
0
41
1
10
58.1478716613087
20
-0.780613279138947
30
0
41
1
10
58.4517870954483
20
-0.950588700207902
30
0
41
1
10
58.6033393365388
20
-1.03551579290624
30
0
41
1
10
59.3607225245692
20
-1.45677606217296
30
0
41
1
10
59.9653861869082
20
-1.78327643894622
30
0
41
1
10
60.867795099606
20
-2.26274460998741
30
0
41
1
10
61.167554986842
20
-2.42126299911431
30
0
41
1
10
61.768156146238
20
-2.73036469457574
30
0
41
1
10
62.0687034997907
20
-2.88147526006713
30
0
41
1
10
62.6698168593621
20
-3.17765084720966
30
0
41
1
10
62.970398355123
20
-3.32269039774914
30
0
41
1
10
63.5712253482249
20
-3.60714302098523
30
0
41
1
10
63.871697995285
20
-3.74617933602107
30
0
41
1
10
64.4750329469408
20
-4.01450114904205
30
0
41
1
10
64.7774962037087
20
-4.14439981822923
30
0
41
1
10
65.3836364008251
20
-4.39614573288054
30
0
41
1
10
65.6874370257084
20
-4.51818527753792
30
0
41
1
10
66.5994665574662
20
-4.87116991190734
30
0
41
1
10
67.2055288273273
20
-5.08207490014678
30
0
41
1
10
68.110013613723
20
-5.36557992826533
30
0
41
1
10
68.410356405148
20
-5.45488597563553
30
0
41
1
10
69.011022432054
20
-5.62088007241942
30
0
41
1
10
69.3116068081654
20
-5.69740206736975
30
0
41
1
10
69.912645697244
20
-5.83827211610154
30
0
41
1
10
70.2131301537755
20
-5.90259156965104
30
0
41
1
10
70.8136559778955
20
-6.01909871740517
30
0
41
1
10
71.1134397061011
20
-6.07136785491039
30
0
41
1
10
72.0161008358807
20
-6.2075162469024
30
0
41
1
10
72.6208448350919
20
-6.2719980764837
30
0
41
1
10
73.530125741556
20
-6.32873855589042
30
0
41
1
10
73.8344804969447
20
-6.34078593570575
30
0
41
1
10
74.241753591427
20
-6.34751774957482
30
0
41
1
10
74.3448293974961
20
-6.34842876492385
30
0
41
1
10
74.4478621978813
20
-6.34854880153429
30
0
0
SPLINE
5
C0
100
AcDbEntity
8
1
62
256
6
ByLayer
370
18
48
1
60
0
100
AcDbSpline
70
4
71
3
72
8
73
4
40
0
40
0
40
0
40
0
40
1
40
1
40
1
40
1
41
1
10
3.99999995824874
20
1.10723425722372
30
0
41
1
10
3.99999995824874
20
1.10026749099794
30
0
41
1
10
3.99999995824874
20
1.09333241090681
30
0
41
1
10
3.99999995824874
20
1.08642903881469
30
0
0
SPLINE
5
C1
100
AcDbEntity
8
1
62
256
6
ByLayer
370
13
48
1
60
0
100
AcDbSpline
70
4
71
3
72
34
73
30
40
0
40
0
40
0
40
0
40
0.125
40
0.125
40
0.187500000000001
40
0.187500000000001
40
0.250000000000001
40
0.250000000000001
40
0.375000000000001
40
0.375000000000001
40
0.406250000000001
40
0.406250000000001
40
0.437500000000002
40
0.437500000000002
40
0.500000000000002
40
0.500000000000002
40
0.562500000000001
40
0.562500000000001
40
0.625000000000001
40
0.625000000000001
40
0.750000000000001
40
0.750000000000001
40
0.812500000000001
40
0.812500000000001
40
0.843750000000001
40
0.843750000000001
40
0.875
40
0.875
40
1
40
1
40
1
40
1
41
1
10
4.25029789092389
20
-6.01992746023689
30
0
41
1
10
4.25037403712378
20
-5.99827388230051
30
0
41
1
10
4.25044102384101
20
-5.93118630729893
30
0
41
1
10
4.25053303104303
20
-5.76461180891161
30
0
41
1
10
4.2505623127515
20
-5.69789612796345
30
0
41
1
10
4.25061864507867
20
-5.54194887632389
30
0
41
1
10
4.25064528711215
20
-5.45390419205788
30
0
41
1
10
4.25072203558554
20
-5.16061724490962
30
0
41
1
10
4.25076901768472
20
-4.92654801389511
30
0
41
1
10
4.25082603673729
20
-4.5842626639174
30
0
41
1
10
4.25083733274647
20
-4.51338176405889
30
0
41
1
10
4.25085955094389
20
-4.36829725242845
30
0
41
1
10
4.25087050637035
20
-4.29389736295698
30
0
41
1
10
4.25090301526055
20
-4.06521558798477
30
0
41
1
10
4.25092421709971
20
-3.90546671563158
30
0
41
1
10
4.25096608064518
20
-3.57148594677128
30
0
41
1
10
4.25098674196897
20
-3.39725484858977
30
0
41
1
10
4.25102774365186
20
-3.0339198698675
30
0
41
1
10
4.25104807515825
20
-2.8448114070145
30
0
41
1
10
4.2511077097154
20
-2.26344860396915
30
0
41
1
10
4.25114524342138
20
-1.86264757014649
30
0
41
1
10
4.25119704217147
20
-1.24236098673023
30
0
41
1
10
4.25121353276347
20
-1.03239062538935
30
0
41
1
10
4.25123670903454
20
-0.712467323789184
30
0
41
1
10
4.25124416590117
20
-0.605050593215822
30
0
41
1
10
4.25125830310279
20
-0.391144814888293
30
0
41
1
10
4.25126500740822
20
-0.284332538697043
30
0
41
1
10
4.25129653834423
20
0.249037491754962
30
0
41
1
10
4.25131553000725
20
0.673544491216944
30
0
41
1
10
4.25132509905143
20
1.09582287923553
30
0
0
SPLINE
5
C2
100
AcDbEntity
8
1
62
256
6
ByLayer
370
18
48
1
60
0
100
AcDbSpline
70
4
71
3
72
12
73
8
40
0
40
0
40
0
40
0
40
0.500000000000003
40
0.500000000000003
40
0.750000000000002
40
0.750000000000002
40
1
40
1
40
1
40
1
41
1
10
3.99999995824871
20
-6.25880924294736
30
0
41
1
10
3.99999995824868
20
-6.21820817122679
30
0
41
1
10
4.01136125617549
20
-6.17629060644009
30
0
41
1
10
4.04413000380077
20
-6.12152863101664
30
0
41
1
10
4.05792196368094
20
-6.10409372090933
30
0
41
1
10
4.09053434302371
20
-6.07304396338719
30
0
41
1
10
4.10909037743562
20
-6.05952828974102
30
0
41
1
10
4.13026859650802
20
-6.04837332177834
30
0
0
SPLINE
5
C3
100
AcDbEntity
8
1
62
256
6
ByLayer
370
18
48
1
60
0
100
AcDbSpline
70
4
71
3
72
16
73
12
40
0
40
0
40
0
40
0
40
0.25
40
0.25
40
0.374999999999999
40
0.374999999999999
40
0.499999999999999
40
0.499999999999999
40
0.75
40
0.75
40
1
40
1
40
1
40
1
41
1
10
75.8383661269093
20
1.53333460570642
30
0
41
1
10
75.8286575768652
20
1.56189073343265
30
0
41
1
10
75.8225524533006
20
1.59144207719098
30
0
41
1
10
75.8216147695771
20
1.63752410655795
30
0
41
1
10
75.8227161842808
20
1.65281536752701
30
0
41
1
10
75.8284580645727
20
1.68320380650505
30
0
41
1
10
75.8331120909774
20
1.69855713794962
30
0
41
1
10
75.8537821792378
20
1.74083670860537
30
0
41
1
10
75.8768546541986
20
1.76436538355981
30
0
41
1
10
75.9316636168522
20
1.79726544991965
30
0
41
1
10
75.9621152621359
20
1.80695337479511
30
0
41
1
10
75.9934221668771
20
1.81262216209956
30
0
0
SPLINE
5
C4
100
AcDbEntity
8
1
62
256
6
ByLayer
370
18
48
1
60
0
100
AcDbSpline
70
4
71
3
72
14
73
10
40
0
40
0
40
0
40
0
40
0.447594950731894
40
0.447594950731894
40
0.756286080201285
40
0.756286080201285
40
0.910631644935983
40
0.910631644935983
40
1
40
1
40
1
40
1
41
1
10
75.613755952306
20
-6.07038482990288
30
0
41
1
10
74.5168669716157
20
-6.06955047875596
30
0
41
1
10
73.4290669068071
20
-5.98221014642755
30
0
41
1
10
71.5900184710674
20
-5.69730646159491
30
0
41
1
10
70.8389908802162
20
-5.54219099111955
30
0
41
1
10
69.7067391800234
20
-5.25414594206046
30
0
41
1
10
69.3283936632805
20
-5.14888067649207
30
0
41
1
10
68.7288258043833
20
-4.96850336639767
30
0
41
1
10
68.5082148645714
20
-4.89924439427693
30
0
41
1
10
68.2876917939206
20
-4.82726129094283
30
0
0
SPLINE
5
C5
100
AcDbEntity
8
1
62
256
6
ByLayer
370
13
48
1
60
0
100
AcDbSpline
70
4
71
3
72
22
73
18
40
0
40
0
40
0
40
0
40
0.0322322833234278
40
0.0322322833234278
40
0.338487968787365
40
0.338487968787365
40
0.491615811519334
40
0.491615811519334
40
0.568179732885319
40
0.568179732885319
40
0.644743654251304
40
0.644743654251304
40
0.797871496983276
40
0.797871496983276
40
0.950999339715248
40
0.950999339715248
40
1
40
1
40
1
40
1
41
1
10
68.2876917939628
20
-4.82726129095653
30
0
41
1
10
68.127355690765
20
-4.77492440733457
30
0
41
1
10
67.9670660381391
20
-4.72114745700969
30
0
41
1
10
66.2876636263474
20
-4.14286554730174
30
0
41
1
10
64.7902005381546
20
-3.50005693144033
30
0
41
1
10
62.5365855037746
20
-2.42209265555016
30
0
41
1
10
61.7840638991621
20
-2.04390751797857
30
0
41
1
10
60.6487202593297
20
-1.45586054057745
30
0
41
1
10
60.2691207348012
20
-1.25649593396608
30
0
41
1
10
59.5067074070162
20
-0.852598446021801
30
0
41
1
10
59.12646210333
20
-0.649412228364639
30
0
41
1
10
57.9898247769487
20
-0.0396996839147619
30
0
41
1
10
57.2362728712899
20
0.367131319951682
30
0
41
1
10
55.7314639153514
20
1.1700779660033
30
0
41
1
10
54.9797481297813
20
1.565298285539
30
0
41
1
10
53.9846885024049
20
2.0718647954009
30
0
41
1
10
53.7432002144263
20
2.19340853513236
30
0
41
1
10
53.5013476021515
20
2.31350486297109
30
0
0
SPLINE
5
C6
100
AcDbEntity
8
1
62
256
6
ByLayer
370
18
48
1
60
0
100
AcDbSpline
70
4
71
3
72
8
73
4
40
0
40
0
40
0
40
0
40
1
40
1
40
1
40
1
41
1
10
4.76762269844087
20
-6.02799397466862
30
0
41
1
10
4.59521681247344
20
-6.02744680231734
30
0
41
1
10
4.42278656592458
20
-6.02476139986135
30
0
41
1
10
4.2502978909238
20
-6.01992746023689
30
0
0
SPLINE
5
C7
100
AcDbEntity
8
1
62
256
6
ByLayer
370
18
48
1
60
0
100
AcDbSpline
70
4
71
3
72
17
73
13
40
0
40
0
40
0
40
0
40
0.250000000000004
40
0.250000000000004
40
0.375000000000004
40
0.375000000000004
40
0.500000000000004
40
0.750000000000004
40
0.750000000000004
40
0.875000000000002
40
0.875000000000002
40
1
40
1
40
1
40
1
41
1
10
78.0410521978247
20
-3.10381457552745
30
0
41
1
10
77.9436843243378
20
-3.36506797449852
30
0
41
1
10
77.84620440705
20
-3.62622698651856
30
0
41
1
10
77.6998513380171
20
-4.01685603787402
30
0
41
1
10
77.6510401525416
20
-4.14689359981321
30
0
41
1
10
77.5533339170642
20
-4.40643069221611
30
0
41
1
10
77.4066106697748
20
-4.79468487111589
30
0
41
1
10
77.2598128033496
20
-5.18246033219017
30
0
41
1
10
77.1126515256855
20
-5.5679043344966
30
0
41
1
10
77.0635020311325
20
-5.69577148016916
30
0
41
1
10
76.9651568732141
20
-5.95120957626511
30
0
41
1
10
76.9159544252464
20
-6.07873700018433
30
0
41
1
10
76.8666583648497
20
-6.20566385512089
30
0
0
SPLINE
5
C8
100
AcDbEntity
8
1
62
256
6
ByLayer
370
18
48
1
60
0
100
AcDbSpline
70
4
71
3
72
24
73
20
40
0
40
0
40
0
40
0
40
0.25000000000001
40
0.25000000000001
40
0.50000000000002
40
0.50000000000002
40
0.625000000000025
40
0.625000000000025
40
0.687500000000021
40
0.687500000000021
40
0.750000000000017
40
0.750000000000017
40
0.812500000000012
40
0.812500000000012
40
0.875000000000008
40
0.875000000000008
40
0.937500000000004
40
0.937500000000004
40
1
40
1
40
1
40
1
41
1
10
75.9934221668771
20
1.8126221620995
30
0
41
1
10
76.2102316962034
20
1.85188018257426
30
0
41
1
10
76.4251669882271
20
1.89709540151853
30
0
41
1
10
76.848086301537
20
2.00622782413024
30
0
41
1
10
77.0563874837977
20
2.06961404743984
30
0
41
1
10
77.3586049477034
20
2.19430933038237
30
0
41
1
10
77.4576192552125
20
2.2408660735417
30
0
41
1
10
77.6015562367128
20
2.32423692817207
30
0
41
1
10
77.6490439020884
20
2.35455792997283
30
0
41
1
10
77.7395591100634
20
2.4202868466443
30
0
41
1
10
77.7827374125735
20
2.45572296258956
30
0
41
1
10
77.8633161674866
20
2.53380520010864
30
0
41
1
10
77.9003295419375
20
2.57620892528183
30
0
41
1
10
77.9637809383361
20
2.66750365764105
30
0
41
1
10
77.9907471395726
20
2.71729742043755
30
0
41
1
10
78.0304354033754
20
2.82315977754374
30
0
41
1
10
78.0428223684701
20
2.87795602512162
30
0
41
1
10
78.0527607551344
20
2.99130055922845
30
0
41
1
10
78.0501027288975
20
3.04801116013036
30
0
41
1
10
78.0410521978246
20
3.10381457552731
30
0
0
SPLINE
5
C9
100
AcDbEntity
8
1
62
256
6
ByLayer
370
18
48
1
60
0
100
AcDbSpline
70
4
71
3
72
18
73
14
40
0
40
0
40
0
40
0
40
0.007232964101855
40
0.007232964101855
40
0.466316359628072
40
0.466316359628072
40
0.695858057391181
40
0.695858057391181
40
0.810628906272734
40
0.810628906272734
40
0.925399755154286
40
0.925399755154286
40
1
40
1
40
1
40
1
41
1
10
22.3114247510294
20
-0.0015095935665954
30
0
41
1
10
22.3354722820443
20
-0.01460598141486
30
0
41
1
10
22.359522058825
20
-0.0277035010504392
30
0
41
1
10
23.9101610308631
20
-0.872159078274507
30
0
41
1
10
25.4129450299878
20
-1.68942796839963
30
0
41
1
10
27.6732372873482
20
-2.82003891828697
30
0
41
1
10
28.4276853650824
20
-3.18101670754083
30
0
41
1
10
29.5659459774965
20
-3.68985745903299
30
0
41
1
10
29.9469257821453
20
-3.85417164869759
30
0
41
1
10
30.7101928498308
20
-4.16944544201115
30
0
41
1
10
31.0903049091288
20
-4.3195992220657
30
0
41
1
10
31.7157056769779
20
-4.55427313745756
30
0
41
1
10
31.9616379364292
20
-4.6433470861642
30
0
41
1
10
32.207250188606
20
-4.72893938793842
30
0
0
SPLINE
5
CA
100
AcDbEntity
8
1
62
256
6
ByLayer
370
13
48
1
60
0
100
AcDbSpline
70
4
71
3
72
14
73
10
40
0
40
0
40
0
40
0
40
0.387821800775158
40
0.387821800775158
40
0.619356775715892
40
0.619356775715892
40
0.850891750656625
40
0.850891750656625
40
1
40
1
40
1
40
1
41
1
10
32.2072511304596
20
-4.72893971616065
30
0
41
1
10
33.473114922497
20
-5.17007481356157
30
0
41
1
10
34.7304784282449
20
-5.51872760523349
30
0
41
1
10
36.7503176218634
20
-5.90402570223247
30
0
41
1
10
37.5086084646229
20
-6.00989237650629
30
0
41
1
10
39.0354971326589
20
-6.13866082497961
30
0
41
1
10
39.7976602141154
20
-6.16113366181057
30
0
41
1
10
41.0525843340318
20
-6.12836520363246
30
0
41
1
10
41.5431598878754
20
-6.09802571136288
30
0
41
1
10
42.0336791574092
20
-6.0504852401497
30
0
0
SPLINE
5
CB
100
AcDbEntity
8
1
62
256
6
ByLayer
370
18
48
1
60
0
100
AcDbSpline
70
4
71
3
72
20
73
16
40
0
40
0
40
0
40
0
40
0.249999999999998
40
0.249999999999998
40
0.374999999999999
40
0.374999999999999
40
0.499999999999999
40
0.499999999999999
40
0.624999999999999
40
0.624999999999999
40
0.749999999999999
40
0.749999999999999
40
0.875
40
0.875
40
1
40
1
40
1
40
1
41
1
10
11.5543353247121
20
-3.33170225806973
30
0
41
1
10
10.9169758342338
20
-3.04843477909788
30
0
41
1
10
10.2876521758369
20
-2.74137054377439
30
0
41
1
10
9.35108421994255
20
-2.25145628630051
30
0
41
1
10
9.04017641767467
20
-2.08309591857213
30
0
41
1
10
8.42057694671135
20
-1.73601649492255
30
0
41
1
10
8.11186677997182
20
-1.55742738946887
30
0
41
1
10
7.49643162788203
20
-1.19047704325774
30
0
41
1
10
7.18971405556593
20
-1.00203666689794
30
0
41
1
10
6.57858878065656
20
-0.613551304430985
30
0
41
1
10
6.27528183748825
20
-0.414192865906301
30
0
41
1
10
5.67845121975907
20
-0.0056141333767812
30
0
41
1
10
5.38433381858732
20
0.20392227051039
30
0
41
1
10
4.80772717760547
20
0.63734505392739
30
0
41
1
10
4.52514069434307
20
0.861108105042632
30
0
41
1
10
4.25132510543216
20
1.09582288054622
30
0
0
SPLINE
5
CC
100
AcDbEntity
8
1
62
256
6
ByLayer
370
18
48
1
60
0
100
AcDbSpline
70
4
71
3
72
32
73
28
40
0
40
0
40
0
40
0
40
0.0625000000000005
40
0.0625000000000005
40
0.0937500000000007
40
0.0937500000000007
40
0.125000000000001
40
0.125000000000001
40
0.25
40
0.25
40
0.281250000000001
40
0.281250000000001
40
0.312500000000002
40
0.312500000000002
40
0.375000000000002
40
0.375000000000002
40
0.500000000000003
40
0.500000000000003
40
0.562500000000004
40
0.562500000000004
40
0.625000000000005
40
0.625000000000005
40
0.750000000000003
40
0.750000000000003
40
0.875000000000002
40
0.875000000000002
40
1
40
1
40
1
40
1
41
1
10
70.1929349867193
20
2.87758292209853
30
0
41
1
10
70.2145153221518
20
2.71316911161207
30
0
41
1
10
70.2482944709964
20
2.54695475812881
30
0
41
1
10
70.316042396899
20
2.29511234020299
30
0
41
1
10
70.3414777413811
20
2.21074380910551
30
0
41
1
10
70.3979171753879
20
2.04118480099268
30
0
41
1
10
70.4290585889497
20
1.95567578171716
30
0
41
1
10
70.5959182778284
20
1.53222098946196
30
0
41
1
10
70.7651736533995
20
1.20342043278114
30
0
41
1
10
71.010696649603
20
0.801877756356163
30
0
41
1
10
71.0616642073695
20
0.721852230841051
30
0
41
1
10
71.1659940907304
20
0.564031304142276
30
0
41
1
10
71.2193827665263
20
0.486173086859793
30
0
41
1
10
71.3829053668519
20
0.255484634413563
30
0
41
1
10
71.4963831369236
20
0.105529654810198
30
0
41
1
10
71.8482770067424
20
-0.334480750557049
30
0
41
1
10
72.0979478756437
20
-0.614858594870924
30
0
41
1
10
72.4907790731695
20
-1.01966842723723
30
0
41
1
10
72.6250893576785
20
-1.15208413660781
30
0
41
1
10
72.8963442829947
20
-1.40866371117386
30
0
41
1
10
73.0336525279825
20
-1.5332852772932
30
0
41
1
10
73.4499143485293
20
-1.89768450897941
30
0
41
1
10
73.7331448018395
20
-2.12812810837758
30
0
41
1
10
74.3091788788147
20
-2.56812235424385
30
0
41
1
10
74.6020040605719
20
-2.77762595128294
30
0
41
1
10
75.196118231496
20
-3.17816132011828
30
0
41
1
10
75.4979640704718
20
-3.369522783561
30
0
41
1
10
75.8020558328388
20
-3.55145044258165
30
0
0
SPLINE
5
CD
100
AcDbEntity
8
1
62
256
6
ByLayer
370
13
48
1
60
0
100
AcDbSpline
70
4
71
3
72
8
73
4
40
0
40
0
40
0
40
0
40
1
40
1
40
1
40
1
41
1
10
4.12783850281306
20
-6.30062208916092
30
0
41
1
10
4.12864110742132
20
-6.24699114497463
30
0
41
1
10
4.12945112824605
20
-6.1933599302705
30
0
41
1
10
4.13026859650796
20
-6.13972843637779
30
0
0
SPLINE
5
CE
100
AcDbEntity
8
1
62
256
6
ByLayer
370
18
48
1
60
0
100
AcDbSpline
70
4
71
3
72
46
73
42
40
0
40
0
40
0
40
0
40
0.089948307055758
40
0.089948307055758
40
0.134922460583636
40
0.134922460583636
40
0.179896614111515
40
0.179896614111515
40
0.224870767639393
40
0.224870767639393
40
0.269844921167271
40
0.269844921167271
40
0.359793228223027
40
0.359793228223027
40
0.404767381750905
40
0.404767381750905
40
0.449741535278782
40
0.449741535278782
40
0.49471568880666
40
0.49471568880666
40
0.539689842334537
40
0.539689842334537
40
0.584663995862415
40
0.584663995862415
40
0.629638149390292
40
0.629638149390292
40
0.719586456446047
40
0.719586456446047
40
0.764560609973924
40
0.764560609973924
40
0.809534763501802
40
0.809534763501802
40
0.854508917029679
40
0.854508917029679
40
0.899483070557557
40
0.899483070557557
40
0.944457224085434
40
0.944457224085434
40
0.989431377613312
40
0.989431377613312
40
1
40
1
40
1
40
1
41
1
10
18.9038794532995
20
1.35656345582208
30
0
41
1
10
19.5125466446965
20
1.02092166079575
30
0
41
1
10
20.1196332863717
20
0.686050467183094
30
0
41
1
10
21.0253178677967
20
0.17981732227733
30
0
41
1
10
21.3260488768861
20
0.009809212378201
30
0
41
1
10
21.9275586794815
20
-0.328363942189213
30
0
41
1
10
22.2285421334336
20
-0.496164183673585
30
0
41
1
10
22.830348671901
20
-0.830350181184542
30
0
41
1
10
23.1311997241332
20
-0.996684527937987
30
0
41
1
10
23.732422260001
20
-1.32848858005565
30
0
41
1
10
24.0325626529146
20
-1.49436127000567
30
0
41
1
10
24.9363033736844
20
-1.98345128706689
30
0
41
1
10
25.5416994447377
20
-2.30091954848169
30
0
41
1
10
26.4518559770514
20
-2.76805955993871
30
0
41
1
10
26.7566811648142
20
-2.92175373701292
30
0
41
1
10
27.3650830654694
20
-3.21944874057149
30
0
41
1
10
27.6685943600345
20
-3.36417596140848
30
0
41
1
10
28.2738730479329
20
-3.64614222274508
30
0
41
1
10
28.575484453853
20
-3.78360362326785
30
0
41
1
10
29.1773184679913
20
-4.0503903212514
30
0
41
1
10
29.4783394821119
20
-4.17858199255545
30
0
41
1
10
30.0802323865622
20
-4.42534176408373
30
0
41
1
10
30.381074713988
20
-4.54394900195635
30
0
41
1
10
30.9821766997433
20
-4.77205167426408
30
0
41
1
10
31.2820627280828
20
-4.8819522430436
30
0
41
1
10
32.1837608517552
20
-5.19429671753474
30
0
41
1
10
32.7876959980027
20
-5.37970640742913
30
0
41
1
10
33.695209246874
20
-5.62569016966293
30
0
41
1
10
33.99787394242
20
-5.70231171552652
30
0
41
1
10
34.6065390255477
20
-5.842149575939
30
0
41
1
10
34.9117179691255
20
-5.90563029771633
30
0
41
1
10
35.5189517586819
20
-6.01929705763555
30
0
41
1
10
35.8216261198184
20
-6.0696288754701
30
0
41
1
10
36.4247556028926
20
-6.1573756619502
30
0
41
1
10
36.7258493989041
20
-6.19445084134728
30
0
41
1
10
37.3282164264484
20
-6.25494234705488
30
0
41
1
10
37.6292343319116
20
-6.27847803946705
30
0
41
1
10
38.2305551342129
20
-6.31227682257406
30
0
41
1
10
38.5306568872113
20
-6.32254246859901
30
0
41
1
10
38.9012132355938
20
-6.32680853931765
30
0
41
1
10
38.9717584075106
20
-6.32724836682542
30
0
41
1
10
39.0423367483604
20
-6.32731598742407
30
0
0
SPLINE
5
CF
100
AcDbEntity
8
1
62
256
6
ByLayer
370
18
48
1
60
0
100
AcDbSpline
70
4
71
3
72
28
73
24
40
0
40
0
40
0
40
0
40
0.0035712845199735
40
0.0035712845199735
40
0.169642737099982
40
0.169642737099982
40
0.252678463389985
40
0.252678463389985
40
0.335714189679987
40
0.335714189679987
40
0.41874991596999
40
0.41874991596999
40
0.501785642259992
40
0.501785642259992
40
0.667857094839995
40
0.667857094839995
40
0.750892821129996
40
0.750892821129996
40
0.833928547419998
40
0.833928547419998
40
0.916964273709999
40
0.916964273709999
40
1
40
1
40
1
40
1
41
1
10
65.9522225833612
20
4.62064105045326
30
0
41
1
10
65.9652969307923
20
4.62571771050915
30
0
41
1
10
65.9783717067052
20
4.6307863155757
30
0
41
1
10
66.5994665574647
20
4.87116991190683
30
0
41
1
10
67.2055288273259
20
5.0820749001463
30
0
41
1
10
68.1100136137214
20
5.36557992826491
30
0
41
1
10
68.4103564051464
20
5.45488597563511
30
0
41
1
10
69.0110224320525
20
5.62088007241903
30
0
41
1
10
69.3116068081638
20
5.69740206736938
30
0
41
1
10
69.9126456972424
20
5.83827211610119
30
0
41
1
10
70.2131301537739
20
5.90259156965072
30
0
41
1
10
70.8136559778939
20
6.01909871740492
30
0
41
1
10
71.1134397060995
20
6.07136785491016
30
0
41
1
10
72.0161008358791
20
6.20751624690217
30
0
41
1
10
72.6208448350902
20
6.27199807648355
30
0
41
1
10
73.5301257415543
20
6.32873855589034
30
0
41
1
10
73.8344804969431
20
6.3407859357057
30
0
41
1
10
74.4428044586116
20
6.35084091782346
30
0
41
1
10
74.74665920717
20
6.34896536809174
30
0
41
1
10
75.3533590440519
20
6.33152773609189
30
0
41
1
10
75.656062328038
20
6.3159291087853
30
0
41
1
10
76.2607297003738
20
6.27083850435938
30
0
41
1
10
76.5635338737743
20
6.24156689953668
30
0
41
1
10
76.8666583648363
20
6.20566385512251
30
0
0
SPLINE
5
D0
100
AcDbEntity
8
1
62
256
6
ByLayer
370
18
48
1
60
0
100
AcDbSpline
70
4
71
3
72
12
73
8
40
0
40
0
40
0
40
0
40
0.24999999999999
40
0.24999999999999
40
0.49999999999998
40
0.49999999999998
40
1
40
1
40
1
40
1
41
1
10
4.12783850281301
20
-6.30062208916104
30
0
41
1
10
4.10838677691882
20
-6.30014593957807
30
0
41
1
10
4.09080214988217
20
-6.29954521292132
30
0
41
1
10
4.05926039222126
20
-6.29801489746896
30
0
41
1
10
4.04546840990753
20
-6.29708340589002
30
0
41
1
10
4.01210712106359
20
-6.29381183181329
30
0
41
1
10
3.99999995824848
20
-6.29091652621875
30
0
41
1
10
3.99999995824859
20
-6.28747569205112
30
0
0
SPLINE
5
D1
100
AcDbEntity
8
1
62
256
6
ByLayer
370
18
48
1
60
0
100
AcDbSpline
70
4
71
3
72
10
73
6
40
0
40
0
40
0
40
0
40
0.828457639948119
40
0.828457639948119
40
1
40
1
40
1
40
1
41
1
10
76.7774801501669
20
6.30315304197075
30
0
41
1
10
76.3973826501683
20
6.32892235575926
30
0
41
1
10
76.0173048087291
20
6.34387098605771
30
0
41
1
10
75.5580586439875
20
6.34881767646212
30
0
41
1
10
75.4792787857728
20
6.34919898943178
30
0
41
1
10
75.4005156052277
20
6.34911511700585
30
0
0
SPLINE
5
D2
100
AcDbEntity
8
1
62
256
6
ByLayer
370
18
48
1
60
0
100
AcDbSpline
70
4
71
3
72
48
73
44
40
0
40
0
40
0
40
0
40
0.0130507365081077
40
0.0130507365081077
40
0.071837958296816
40
0.071837958296816
40
0.130625180085524
40
0.130625180085524
40
0.160018790979879
40
0.160018790979879
40
0.189412401874233
40
0.189412401874233
40
0.248199623662942
40
0.248199623662942
40
0.277593234557296
40
0.277593234557296
40
0.30698684545165
40
0.30698684545165
40
0.424561289029067
40
0.424561289029067
40
0.453954899923421
40
0.453954899923421
40
0.483348510817775
40
0.483348510817775
40
0.542135732606483
40
0.542135732606483
40
0.659710176183899
40
0.659710176183899
40
0.689103787078252
40
0.689103787078252
40
0.718497397972606
40
0.718497397972606
40
0.74789100886696
40
0.74789100886696
40
0.777284619761314
40
0.777284619761314
40
0.894859063338728
40
0.894859063338728
40
0.953646285127435
40
0.953646285127435
40
0.983039896021789
40
0.983039896021789
40
1
40
1
40
1
40
1
41
1
10
43.2008119437184
20
-6.07748890816831
30
0
41
1
10
43.0329479410694
20
-6.10374840485179
30
0
41
1
10
42.8652899501538
20
-6.12795187427764
30
0
41
1
10
41.9433298563592
20
-6.24983734745061
30
0
41
1
10
41.1922059724279
20
-6.30775126329448
30
0
41
1
10
39.6895474470768
20
-6.33922296825506
30
0
41
1
10
38.9379654781296
20
-6.31278511752984
30
0
41
1
10
37.804968605443
20
-6.20947459270164
30
0
41
1
10
37.4263237982476
20
-6.16444197830145
30
0
41
1
10
36.6662233650372
20
-6.05312603892207
30
0
41
1
10
36.2848443828124
20
-5.98677792133429
30
0
41
1
10
35.1444089034021
20
-5.75809156865077
30
0
41
1
10
34.3859813017634
20
-5.56566980067117
30
0
41
1
10
33.2455425085553
20
-5.22164045926837
30
0
41
1
10
32.8641425098015
20
-5.09747569708867
30
0
41
1
10
32.103790365828
20
-4.83290703616129
30
0
41
1
10
31.7250687007286
20
-4.69261593969023
30
0
41
1
10
29.8362148191018
20
-3.95481600493497
30
0
41
1
10
28.340148266333
20
-3.24854879796425
30
0
41
1
10
26.4536708379227
20
-2.27406119462873
30
0
41
1
10
26.075548340384
20
-2.07459359664685
30
0
41
1
10
25.3166946673086
20
-1.66799704311984
30
0
41
1
10
24.9349841922941
20
-1.46030499487816
30
0
41
1
10
23.7953457902063
20
-0.83375436541894
30
0
41
1
10
23.0410750892872
20
-0.410659937246294
30
0
41
1
10
20.7836474922495
20
0.854718179949771
30
0
41
1
10
19.2863057194721
20
1.69386828190377
30
0
41
1
10
17.3880521223621
20
2.67201017550073
30
0
41
1
10
17.006407963103
20
2.86434494171496
30
0
41
1
10
16.2453796483669
20
3.23748392769446
30
0
41
1
10
15.8654384038859
20
3.41856002972577
30
0
41
1
10
15.105694574993
20
3.76825854276842
30
0
41
1
10
14.7259033482845
20
3.93690048013124
30
0
41
1
10
13.9656338437525
20
4.26053668012375
30
0
41
1
10
13.5847854337102
20
4.41564886976747
30
0
41
1
10
11.680097281139
20
5.15192454342051
30
0
41
1
10
10.1805656198164
20
5.60593420706169
30
0
41
1
10
7.92361933579073
20
6.05075451956111
30
0
41
1
10
7.17035303530275
20
6.15989519503131
30
0
41
1
10
6.03315811275067
20
6.26069087596105
30
0
41
1
10
5.65233639482585
20
6.28382487501813
30
0
41
1
10
5.0512068926588
20
6.30323861489214
30
0
41
1
10
4.83133180930051
20
6.30674467139733
30
0
41
1
10
4.61145332687539
20
6.30664755034684
30
0
0
SPLINE
5
D3
100
AcDbEntity
8
1
62
256
6
ByLayer
370
18
48
1
60
0
100
AcDbSpline
70
4
71
3
72
17
73
13
40
0
40
0
40
0
40
0
40
0.249999999999995
40
0.249999999999995
40
0.374999999999994
40
0.374999999999994
40
0.499999999999993
40
0.749999999999997
40
0.749999999999997
40
0.874999999999998
40
0.874999999999998
40
1
40
1
40
1
40
1
41
1
10
78.0410521978247
20
3.10381457552745
30
0
41
1
10
77.9436843243379
20
3.36506797449852
30
0
41
1
10
77.84620440705
20
3.62622698651856
30
0
41
1
10
77.699851338017
20
4.01685603787405
30
0
41
1
10
77.6510401525416
20
4.14689359981324
30
0
41
1
10
77.5533339170641
20
4.40643069221611
30
0
41
1
10
77.4066106697748
20
4.79468487111592
30
0
41
1
10
77.2598128033496
20
5.18246033219017
30
0
41
1
10
77.1126515256855
20
5.5679043344966
30
0
41
1
10
77.0635020311325
20
5.69577148016916
30
0
41
1
10
76.9651568732142
20
5.95120957626514
30
0
41
1
10
76.9159544252464
20
6.07873700018436
30
0
41
1
10
76.8666583648497
20
6.20566385512092
30
0
0
SPLINE
5
D4
100
AcDbEntity
8
1
62
256
6
ByLayer
370
18
48
1
60
0
100
AcDbSpline
70
4
71
3
72
8
73
4
40
0
40
0
40
0
40
0
40
1
40
1
40
1
40
1
41
1
10
76.777480150173
20
-6.30315304195449
30
0
41
1
10
76.8001572124192
20
-6.24224468842823
30
0
41
1
10
76.8228136409688
20
-6.18129572793811
30
0
41
1
10
76.8454494223566
20
-6.12030613398431
30
0
0
SPLINE
5
D5
100
AcDbEntity
8
1
62
256
6
ByLayer
370
18
48
1
60
0
100
AcDbSpline
70
4
71
3
72
42
73
38
40
0
40
0
40
0
40
0
40
0.249999999999991
40
0.249999999999991
40
0.374999999999986
40
0.374999999999986
40
0.437499999999983
40
0.437499999999983
40
0.499999999999981
40
0.499999999999981
40
0.62499999999998
40
0.62499999999998
40
0.68749999999998
40
0.68749999999998
40
0.718749999999982
40
0.718749999999982
40
0.749999999999984
40
0.749999999999984
40
0.781249999999986
40
0.781249999999986
40
0.812499999999988
40
0.812499999999988
40
0.84374999999999
40
0.84374999999999
40
0.874999999999992
40
0.874999999999992
40
0.906249999999994
40
0.906249999999994
40
0.921874999999995
40
0.921874999999995
40
0.937499999999996
40
0.937499999999996
40
0.953124999999997
40
0.953124999999997
40
0.968749999999998
40
0.968749999999998
40
1
40
1
40
1
40
1
41
1
10
70.1929349867193
20
2.87758292209855
30
0
41
1
10
70.7089104874116
20
2.4816378425422
30
0
41
1
10
71.2344207318063
20
2.12086855884917
30
0
41
1
10
72.0404434911421
20
1.64522561522114
30
0
41
1
10
72.3120679056615
20
1.4975617706933
30
0
41
1
10
72.724469516541
20
1.29438295593601
30
0
41
1
10
72.8627720332842
20
1.22973834072104
30
0
41
1
10
73.1411798795562
20
1.10710008870322
30
0
41
1
10
73.2813113518037
20
1.04912605624801
30
0
41
1
10
73.6997516510551
20
0.887940765795918
30
0
41
1
10
73.9776662521977
20
0.796650881789105
30
0
41
1
10
74.3927371259023
20
0.687563437999273
30
0
41
1
10
74.5307939262938
20
0.65584197334644
30
0
41
1
10
74.7373830213891
20
0.615930528395012
30
0
41
1
10
74.8062230276851
20
0.60390039174942
30
0
41
1
10
74.9433655650756
20
0.582587614556417
30
0
41
1
10
75.011899835949
20
0.572442451933227
30
0
41
1
10
75.1468835786284
20
0.560806364055594
30
0
41
1
10
75.213248920557
20
0.558940530402566
30
0
41
1
10
75.3428507079021
20
0.563828637031605
30
0
41
1
10
75.4064980120731
20
0.570676519606451
30
0
41
1
10
75.5281429231633
20
0.595489524129732
30
0
41
1
10
75.5860612912994
20
0.613256245954688
30
0
41
1
10
75.6937716105115
20
0.66378902453198
30
0
41
1
10
75.7434940613946
20
0.696699109255604
30
0
41
1
10
75.8249736709458
20
0.7812216295996
30
0
41
1
10
75.8572803607605
20
0.834158402379018
30
0
41
1
10
75.8904017886957
20
0.922565742112653
30
0
41
1
10
75.8990184995124
20
0.953719689342563
30
0
41
1
10
75.9114061852387
20
1.01939600441824
30
0
41
1
10
75.9151145189628
20
1.05383779619683
30
0
41
1
10
75.917778062395
20
1.12389441324342
30
0
41
1
10
75.9167847962415
20
1.15975512012574
30
0
41
1
10
75.9106522335592
20
1.23296087482316
30
0
41
1
10
75.9054566043397
20
1.27049846053103
30
0
41
1
10
75.884657200982
20
1.38289849738311
30
0
41
1
10
75.8639644451638
20
1.45804129801934
30
0
41
1
10
75.8383661269093
20
1.53333460570642
30
0
0
SPLINE
5
D6
100
AcDbEntity
8
1
62
256
6
ByLayer
370
13
48
1
60
0
100
AcDbSpline
70
4
71
3
72
12
73
8
40
0
40
0
40
0
40
0
40
0.490677048899573
40
0.490677048899573
40
0.981354097799145
40
0.981354097799145
40
1
40
1
40
1
40
1
41
1
10
4.20240198127433
20
-6.12294430849838
30
0
41
1
10
4.58431288999216
20
-6.1308027816151
30
0
41
1
10
4.96592579137339
20
-6.12796700236348
30
0
41
1
10
5.72931146826704
20
-6.10115817251551
30
0
41
1
10
6.11170663087259
20
-6.07712265461598
30
0
41
1
10
6.5074708520136
20
-6.04146109904337
30
0
41
1
10
6.52195738455066
20
-6.040140809359
30
0
41
1
10
6.53644186640617
20
-6.03880579032443
30
0
0
SPLINE
5
D7
100
AcDbEntity
8
1
62
256
6
ByLayer
370
18
48
1
60
0
100
AcDbSpline
70
4
71
3
72
16
73
12
40
0
40
0
40
0
40
0
40
0.115395006513334
40
0.115395006513334
40
0.2478802203081
40
0.2478802203081
40
0.380365434102867
40
0.380365434102867
40
0.645335861692401
40
0.645335861692401
40
1
40
1
40
1
40
1
41
1
10
57.7392540517142
20
-0.0167909764884655
30
0
41
1
10
58.0680927313484
20
-0.196484377787101
30
0
41
1
10
58.3975003204803
20
-0.376467628459267
30
0
41
1
10
59.1068805288058
20
-0.762685412388095
30
0
41
1
10
59.4875663107747
20
-0.968990535767716
30
0
41
1
10
60.2503560439883
20
-1.37842358759556
30
0
41
1
10
60.6301122215684
20
-1.58032396299433
30
0
41
1
10
61.7658426595574
20
-2.17530736209901
30
0
41
1
10
62.5185585976894
20
-2.55713991209277
30
0
41
1
10
64.2757630037523
20
-3.40383211306496
30
0
41
1
10
65.2793353489184
20
-3.85285456211349
30
0
41
1
10
66.2890206915636
20
-4.25309835646513
30
0
0
SPLINE
5
D8
100
AcDbEntity
8
1
62
256
6
ByLayer
370
13
48
1
60
0
100
AcDbSpline
70
4
71
3
72
20
73
16
40
0
40
0
40
0
40
0
40
0.14190633884365
40
0.14190633884365
40
0.249168046488195
40
0.249168046488195
40
0.35642975413274
40
0.35642975413274
40
0.570953169421828
40
0.570953169421828
40
0.785476584710915
40
0.785476584710915
40
0.892738292355458
40
0.892738292355458
40
1
40
1
40
1
40
1
41
1
10
66.2890197616663
20
-4.25309798784963
30
0
41
1
10
66.7880114050067
20
-4.45090052685049
30
0
41
1
10
67.2884960781602
20
-4.63678943258714
30
0
41
1
10
68.1716639323095
20
-4.93947391223219
30
0
41
1
10
68.5538974951816
20
-5.0622220316022
30
0
41
1
10
69.3134962697989
20
-5.28853380068495
30
0
41
1
10
69.6918534809657
20
-5.39245653870975
30
0
41
1
10
70.8239298729294
20
-5.67575103580577
30
0
41
1
10
71.5745768470298
20
-5.82674781744132
30
0
41
1
10
73.0747211986425
20
-6.04951401229343
30
0
41
1
10
73.8243293052905
20
-6.12138546412442
30
0
41
1
10
74.9528763243397
20
-6.16774536556647
30
0
41
1
10
75.3297697984615
20
-6.1729479824383
30
0
41
1
10
76.0857579553094
20
-6.16241656961012
30
0
41
1
10
76.4649258178537
20
-6.14620711033507
30
0
41
1
10
76.8454494223562
20
-6.12030613398434
30
0
0
LINE
5
76
100
AcDbEntity
8
81
62
256
6
ByLayer
370
18
48
1
60
0
100
AcDbLine
10
79
20
0
30
0
11
84
21
0
31
0
39
0
210
0
220
0
230
1
0
LINE
5
77
100
AcDbEntity
8
1
62
256
6
ByLayer
370
18
48
1
60
0
100
AcDbLine
10
4.608255
20
6.306645
30
0
11
1.320165
21
6.304672
31
0
39
0
210
0
220
0
230
1
0
LINE
5
79
100
AcDbEntity
8
1
62
256
6
ByLayer
370
18
48
1
60
0
100
AcDbLine
10
40.008875
20
6.327885
30
0
11
39.05033
21
6.32731
31
0
39
0
210
0
220
0
230
1
0
LINE
5
7A
100
AcDbEntity
8
1
62
256
6
ByLayer
370
18
48
1
60
0
100
AcDbLine
10
75.409299
20
6.349126
30
0
11
74.4595
21
6.348556
31
0
39
0
210
0
220
0
230
1
0
LINE
5
7B
100
AcDbEntity
8
1
62
256
6
ByLayer
370
18
48
1
60
0
100
AcDbLine
10
74.4595
20
-6.348556
30
0
11
75.408858
21
-6.349125
31
0
39
0
210
0
220
0
230
1
0
LINE
5
7C
100
AcDbEntity
8
1
62
256
6
ByLayer
370
18
48
1
60
0
100
AcDbLine
10
39.05033
20
-6.32731
30
0
11
40.008807
21
-6.327885
31
0
39
0
210
0
220
0
230
1
0
LINE
5
7D
100
AcDbEntity
8
1
62
256
6
ByLayer
370
18
48
1
60
0
100
AcDbLine
10
1.320165
20
-6.304672
30
0
11
4.608288
21
-6.306645
31
0
39
0
210
0
220
0
230
1
0
LINE
5
7E
100
AcDbEntity
8
SK1
62
256
6
ByLayer
370
18
48
1
60
0
100
AcDbLine
10
-43.267949
20
7
30
0
11
-45
21
4
31
0
39
0
210
0
220
0
230
1
0
LINE
5
80
100
AcDbEntity
8
SK1
62
256
6
ByLayer
370
18
48
1
60
0
100
AcDbLine
10
-45
20
-4
30
0
11
-43.267949
21
-7
31
0
39
0
210
0
220
0
230
1
0
LINE
5
81
100
AcDbEntity
8
SK1
62
256
6
ByLayer
370
18
48
1
60
0
100
AcDbLine
10
0
20
7
30
0
11
-43.267949
21
7
31
0
39
0
210
0
220
0
230
1
0
LINE
5
82
100
AcDbEntity
8
SK1
62
256
6
ByLayer
370
18
48
1
60
0
100
AcDbLine
10
-43.267949
20
-7
30
0
11
0
21
-7
31
0
39
0
210
0
220
0
230
1
0
LINE
5
83
100
AcDbEntity
8
SK4
62
256
6
ByLayer
370
18
48
0.05
60
0
100
AcDbLine
10
84
20
0
30
0
11
-50
21
0
31
0
39
0
210
0
220
0
230
1
0
LINE
5
85
100
AcDbEntity
8
4
62
256
6
ByLayer
370
18
48
0.05
60
0
100
AcDbLine
10
79
20
0
30
0
11
0
21
0
31
0
39
0
210
0
220
0
230
1
0
LINE
5
87
100
AcDbEntity
8
80
62
256
6
ByLayer
370
18
48
1
60
0
100
AcDbLine
10
0
20
0
30
0
11
-5
21
0
31
0
39
0
210
0
220
0
230
1
0
LINE
5
88
100
AcDbEntity
8
1
62
256
6
ByLayer
370
18
48
1
60
0
100
AcDbLine
10
79
20
0
30
0
11
76.790359
21
-6.07094
31
0
39
0
210
0
220
0
230
1
0
LINE
5
89
100
AcDbEntity
8
1
62
256
6
ByLayer
370
18
48
1
60
0
100
AcDbLine
10
75.802056
20
-3.55145
30
0
11
78.894058
21
-0.105471
31
0
39
0
210
0
220
0
230
1
0
LINE
5
8A
100
AcDbEntity
8
1
62
256
6
ByLayer
370
18
48
1
60
0
100
AcDbLine
10
79
20
0
30
0
11
78.986619
21
-0.060033
31
0
39
0
210
0
220
0
230
1
0
LINE
5
8B
100
AcDbEntity
8
1
62
256
6
ByLayer
370
13
48
1
60
0
100
AcDbLine
10
78.688653
20
1.125143
30
0
11
77.277714
21
1.125143
31
0
39
0
210
0
220
0
230
1
0
LINE
5
8C
100
AcDbEntity
8
1
62
256
6
ByLayer
370
18
48
1
60
0
100
AcDbLine
10
0
20
-7
30
0
11
0
21
7
31
0
39
0
210
0
220
0
230
1
0
LINE
5
8D
100
AcDbEntity
8
1
62
256
6
ByLayer
370
18
48
1
60
0
100
AcDbLine
10
78.986619
20
0.060033
30
0
11
79
21
0
31
0
39
0
210
0
220
0
230
1
0
LINE
5
8E
100
AcDbEntity
8
1
62
256
6
ByLayer
370
13
48
1
60
0
100
AcDbLine
10
0.659843
20
6.652336
30
0
11
0.659843
21
-6.652336
31
0
39
0
210
0
220
0
230
1
0
LINE
5
8F
100
AcDbEntity
8
1
62
256
6
ByLayer
370
18
48
1
60
0
100
AcDbLine
10
78.907184
20
-0.318357
30
0
11
78.688653
21
-1.125143
31
0
39
0
210
0
220
0
230
1
0
LINE
5
90
100
AcDbEntity
8
1
62
256
6
ByLayer
370
13
48
1
60
0
100
AcDbLine
10
1.320165
20
6.304672
30
0
11
1.320165
21
-6.304672
31
0
39
0
210
0
220
0
230
1
0
LINE
5
91
100
AcDbEntity
8
1
62
256
6
ByLayer
370
18
48
1
60
0
100
AcDbLine
10
78.907184
20
0.318357
30
0
11
78.688653
21
1.125143
31
0
39
0
210
0
220
0
230
1
0
LINE
5
92
100
AcDbEntity
8
1
62
256
6
ByLayer
370
18
48
1
60
0
100
AcDbLine
10
4
20
-6.287476
30
0
11
4
21
1.086429
31
0
39
0
210
0
220
0
230
1
0
LINE
5
93
100
AcDbEntity
8
1
62
256
6
ByLayer
370
13
48
1
60
0
100
AcDbLine
10
77.108256
20
0.778719
30
0
11
78.894058
21
-0.105471
31
0
39
0
210
0
220
0
230
1
0
LINE
5
94
100
AcDbEntity
8
1
62
256
6
ByLayer
370
13
48
1
60
0
100
AcDbLine
10
77.277714
20
1.125143
30
0
11
78.907184
21
0.318357
31
0
39
0
210
0
220
0
230
1
0
LINE
5
95
100
AcDbEntity
8
SK1
62
256
6
ByLayer
370
18
48
1
60
0
100
AcDbLine
10
0
20
-7
30
0
11
0
21
7
31
0
39
0
210
0
220
0
230
1
0
LINE
5
96
100
AcDbEntity
8
SK1
62
256
6
ByLayer
370
18
48
1
60
0
100
AcDbLine
10
-45
20
4
30
0
11
-45
21
-4
31
0
39
0
210
0
220
0
230
1
0
LINE
5
97
100
AcDbEntity
8
SK1
62
256
6
ByLayer
370
18
48
1
60
0
100
AcDbLine
10
-43.267949
20
7
30
0
11
-43.267949
21
-7
31
0
39
0
210
0
220
0
230
1
0
MTEXT
5
D9
100
AcDbEntity
8
SK6
62
256
6
ByLayer
370
13
48
1
60
0
100
AcDbMText
10
19.129169
20
38.732694
30
0
210
0
220
0
230
1
1
\W0.7542;R840-1270-50-A0A1220
40
3.5
41
0
44
1.084337
50
0
71
8
72
5
7
iso_b_vert
0
DIMENSION
5
E6
100
AcDbEntity
8
SK2
62
256
6
ByLayer
370
13
48
1
60
0
100
AcDbDimension
2
DimnDraft3D1
10
76.82
20
-16.563398
30
0
11
36.570059
21
-16.563398
31
0
70
32
71
5
72
1
41
1
210
0
220
0
230
1
3
Standard
100
AcDbAlignedDimension
13
0
23
-1.5875
33
0
14
76.82
24
-7.9375
34
0
50
0
100
AcDbRotatedDimension
1001
ACAD
1000
DSTYLE
1002
{
1070
   279
1070
     0
1070
   172
1070
     1
1070
   173
1070
     1
1070
   340
1005
DA
1070
   271
1070
     2
1070
   272
1070
     2
1070
    77
1070
     1
1070
    73
1070
     0
1070
   171
1070
     3
1070
   274
1070
     4
1070
   177
1070
    35
1070
   176
1070
    35
1070
   178
1070
    35
1070
    48
1040
-0.005
1070
    41
1041
3.5
1070
   147
1041
1.75
1070
    42
1041
1.5875
1070
    44
1041
2.0
1070
   140
1041
3.5
1070
   343
1005
0
1070
   344
1005
0
1002
}
0
DIMENSION
5
F0
100
AcDbEntity
8
SK2
62
256
6
ByLayer
370
13
48
1
60
0
100
AcDbDimension
2
DimnDraft3D2
10
79
20
-35.692985
30
0
11
16.1613
21
-35.692985
31
0
70
32
71
5
72
1
41
1
210
0
220
0
230
1
3
Standard
100
AcDbAlignedDimension
13
-45
23
-8.5875
33
0
14
79
24
-1.5875
34
0
50
0
100
AcDbRotatedDimension
1001
ACAD
1000
DSTYLE
1002
{
1070
   279
1070
     0
1070
   172
1070
     1
1070
   173
1070
     1
1070
   340
1005
DA
1070
   271
1070
     2
1070
   272
1070
     2
1070
    77
1070
     1
1070
    73
1070
     0
1070
   171
1070
     3
1070
   274
1070
     4
1070
   177
1070
    35
1070
   176
1070
    35
1070
   178
1070
    35
1070
    48
1040
-0.005
1070
    41
1041
3.5
1070
   147
1041
1.75
1070
    42
1041
1.5875
1070
    44
1041
2.0
1070
   140
1041
3.5
1070
   343
1005
0
1070
   344
1005
0
1002
}
0
DIMENSION
5
FA
100
AcDbEntity
8
SK2
62
256
6
ByLayer
370
13
48
1
60
0
100
AcDbDimension
2
DimnDraft3D3
10
79
20
17.959119
30
0
11
46.16
21
17.959119
31
0
70
32
71
5
72
1
41
1
210
0
220
0
230
1
3
Standard
100
AcDbAlignedDimension
13
13.32
23
7.9375
33
0
14
79
24
1.5875
34
0
50
0
100
AcDbRotatedDimension
1001
ACAD
1000
DSTYLE
1002
{
1070
   279
1070
     0
1070
   172
1070
     1
1070
   173
1070
     1
1070
   340
1005
DA
1070
   271
1070
     2
1070
   272
1070
     2
1070
    77
1070
     1
1070
    73
1070
     0
1070
   171
1070
     3
1070
   274
1070
     4
1070
   177
1070
    35
1070
   176
1070
    35
1070
   178
1070
    35
1070
    48
1040
-0.005
1070
    41
1041
3.5
1070
   147
1041
1.75
1070
    42
1041
1.5875
1070
    44
1041
2.0
1070
   140
1041
3.5
1070
   343
1005
0
1070
   344
1005
0
1002
}
0
DIMENSION
5
104
100
AcDbEntity
8
SK2
62
256
6
ByLayer
370
13
48
1
60
0
100
AcDbDimension
2
DimnDraft3D4
10
76.82
20
-19.152503
30
0
11
88.981425
21
-19.152503
31
0
70
32
71
5
72
1
41
1
210
0
220
0
230
1
3
Standard
100
AcDbAlignedDimension
13
79
23
-1.5875
33
0
14
76.82
24
-7.9375
34
0
50
0
100
AcDbRotatedDimension
1001
ACAD
1000
DSTYLE
1002
{
1070
   279
1070
     0
1070
   172
1070
     1
1070
   173
1070
     1
1070
   340
1005
DA
1070
   271
1070
     2
1070
   272
1070
     2
1070
    77
1070
     1
1070
    73
1070
     0
1070
   171
1070
     3
1070
   274
1070
     4
1070
   177
1070
    35
1070
   176
1070
    35
1070
   178
1070
    35
1070
    48
1040
-0.005
1070
    41
1041
3.5
1070
   147
1041
1.75
1070
    42
1041
1.5875
1070
    44
1041
2.0
1070
   140
1041
3.5
1070
   343
1005
0
1070
   344
1005
0
1002
}
0
DIMENSION
5
10E
100
AcDbEntity
8
SK2
62
256
6
ByLayer
370
13
48
1
60
0
100
AcDbDimension
2
DimnDraft3D5
10
76.82
20
-25.343428
30
0
11
13.080676
21
-25.343428
31
0
70
32
71
5
72
1
41
1
210
0
220
0
230
1
3
Standard
100
AcDbAlignedDimension
13
-45
23
-8.5875
33
0
14
76.82
24
-7.9375
34
0
50
0
100
AcDbRotatedDimension
1001
ACAD
1000
DSTYLE
1002
{
1070
   279
1070
     0
1070
   172
1070
     1
1070
   173
1070
     1
1070
   340
1005
DA
1070
   271
1070
     2
1070
   272
1070
     2
1070
    77
1070
     1
1070
    73
1070
     0
1070
   171
1070
     3
1070
   274
1070
     4
1070
   177
1070
    35
1070
   176
1070
    35
1070
   178
1070
    35
1070
    48
1040
-0.005
1070
    41
1041
3.5
1070
   147
1041
1.75
1070
    42
1041
1.5875
1070
    44
1041
2.0
1070
   140
1041
3.5
1070
   343
1005
0
1070
   344
1005
0
1002
}
0
DIMENSION
5
119
100
AcDbEntity
8
SK2
62
256
6
ByLayer
370
13
48
1
60
0
100
AcDbDimension
2
DimnDraft3D6
10
-55.625163
20
7
30
0
11
-56.250163
21
25.47418
31
0
70
33
71
5
72
1
41
1
210
0
220
0
230
1
3
Standard
100
AcDbAlignedDimension
13
-46.5875
23
-7
33
0
14
-46.5875
24
7
34
0
1001
ACAD
1000
DSTYLE
1002
{
1070
   279
1070
     0
1070
    74
1070
     0
1070
   173
1070
     1
1070
   340
1005
DA
1070
   271
1070
     3
1070
   272
1070
     2
1070
    77
1070
     1
1070
    73
1070
     0
1070
   171
1070
     3
1070
   274
1070
     4
1070
   177
1070
    35
1070
   176
1070
    35
1070
   178
1070
    35
1070
    48
1040
-0.005
1070
    41
1041
3.5
1070
   147
1041
1.75
1070
    42
1041
1.5875
1070
    44
1041
2.0
1070
   140
1041
3.5
1070
   343
1005
0
1070
   344
1005
0
1002
}
0
DIMENSION
5
124
100
AcDbEntity
8
2
62
256
6
ByLayer
370
13
48
1
60
0
100
AcDbDimension
2
DimnDraft3D7
10
93.083343
20
6.35
30
0
11
88.458343
21
23.417266
31
0
70
33
71
5
72
1
41
1
210
0
220
0
230
1
3
Standard
100
AcDbAlignedDimension
13
78.4075
23
-6.35
33
0
14
78.4075
24
6.35
34
0
1001
ACAD
1000
DSTYLE
1002
{
1070
   279
1070
     0
1070
    74
1070
     0
1070
   173
1070
     1
1070
   340
1005
DA
1070
   271
1070
     3
1070
   272
1070
     2
1070
    77
1070
     1
1070
    73
1070
     0
1070
   171
1070
     3
1070
   274
1070
     4
1070
   177
1070
    35
1070
   176
1070
    35
1070
   178
1070
    35
1070
    48
1040
-0.005
1070
    41
1041
3.5
1070
   147
1041
1.75
1070
    42
1041
1.5875
1070
    44
1041
2.0
1070
   140
1041
3.5
1070
   343
1005
0
1070
   344
1005
0
1002
}
0
ENDSEC
0
SECTION
2
OBJECTS
0
DICTIONARY
5
18f
330
0
100
AcDbDictionary
280
0
281
1
3
ACAD_GROUP
350
190
3
ACAD_MLINESTYLE
350
191
0
DICTIONARY
5
190
330
0
100
AcDbDictionary
280
0
281
1
0
DICTIONARY
5
191
330
0
100
AcDbDictionary
280
0
281
1
3
Standard
350
18
0
MLINESTYLE
5
18
330
191
100
AcDbMlineStyle
2
Standard
70
0
3

62
256
51
90
52
90
71
2
49
-0.5
62
256
6
ByLayer
49
0.5
62
256
6
ByLayer
0
RASTERVARIABLES
5
17d
330

100
AcDbRasterVariables
90
0
70
1
71
1
72
1
0
ENDSEC
0
EOF
