0
SECTION
2
HEADER
9
$ACADVER
1
AC1015
9
$DWGCODEPAGE
3
ANSI_1252
9
$HANDSEED
5
1af
9
$ANGBASE
50
0
9
$ANGDIR
70
0
9
$ATTMODE
70
1
9
$AUNITS
70
0
9
$AUPREC
70
0
9
$CECOLOR
62
256
9
$CELTSCALE
40
1
9
$CELTYPE
6
ByLayer
9
$CELWEIGHT
370
18
9
$CLAYER
8
0
9
$CMLJUST
70
0
9
$CMLSCALE
40
1
9
$CMLSTYLE
2
Standard
9
$DIMSTYLE
2
Standard
9
$TEXTSIZE
40
0.2
9
$TEXTSTYLE
7
Standard
9
$LUNITS
70
2
9
$LUPREC
70
4
9
$EXTNAMES
290
1
9
$INSUNITS
70
4
9
$LTSCALE
40
1
9
$LWDISPLAY
290
1
9
$PDMODE
70
0
9
$PDSIZE
40
0
9
$PLINEGEN
70
0
0
ENDSEC
0
SECTION
2
CLASSES
0
CLASS
1
RASTERVARIABLES
2
AcDbRasterVariables
3
ISM
90
0
280
0
281
0
0
ENDSEC
0
SECTION
2
TABLES
0
TABLE
2
VPORT
5
1a5
100
AcDbSymbolTable
0
VPORT
5
1
100
AcDbSymbolTableRecord
100
AcDbViewportTableRecord
2
*Active
70
0
10
0
20
0
11
1
21
1
12
-1
22
1
13
0
23
0
14
0.5
24
0.5
15
10
25
10
16
0
26
0
36
1
17
0
27
0
37
0
0
ENDTAB
0
TABLE
2
LTYPE
5
1a6
100
AcDbSymbolTable
0
LTYPE
5
14
100
AcDbSymbolTableRecord
100
AcDbLinetypeTableRecord
70
0
2
ByBlock
3

72
65
73
0
40
0
0
LTYPE
5
15
100
AcDbSymbolTableRecord
100
AcDbLinetypeTableRecord
70
0
2
ByLayer
3

72
65
73
0
40
0
0
LTYPE
5
16
100
AcDbSymbolTableRecord
100
AcDbLinetypeTableRecord
70
0
2
CONTINUOUS
3
Solid line
72
65
73
0
40
0
0
LTYPE
5
6A
100
AcDbSymbolTableRecord
100
AcDbLinetypeTableRecord
70
0
2
CENTER
3
____ _ ____ _ ____ _ ____
72
65
73
4
40
47.5
49
22
74
0
49
-8.5
74
0
49
8.5
74
0
49
-8.5
74
0
0
LTYPE
5
6B
100
AcDbSymbolTableRecord
100
AcDbLinetypeTableRecord
70
0
2
DASHED
3
__ __ __ __ __ __ __ __ __
72
65
73
2
40
25.72
49
12.86
74
0
49
-12.86
74
0
0
ENDTAB
0
TABLE
2
LAYER
5
1a7
100
AcDbSymbolTable
0
LAYER
5
10
100
AcDbSymbolTableRecord
100
AcDbLayerTableRecord
2
0
70
0
62
7
6
CONTINUOUS
290
1
370
-3
390
0
0
LAYER
5
6D
100
AcDbSymbolTableRecord
100
AcDbLayerTableRecord
2
81
70
0
62
-3
6
CONTINUOUS
290
1
370
-3
390
0
0
LAYER
5
6F
100
AcDbSymbolTableRecord
100
AcDbLayerTableRecord
2
80
70
0
62
-6
6
CONTINUOUS
290
1
370
-3
390
0
0
LAYER
5
74
100
AcDbSymbolTableRecord
100
AcDbLayerTableRecord
2
2
70
0
62
7
6
CONTINUOUS
290
1
370
-3
390
0
0
LAYER
5
78
100
AcDbSymbolTableRecord
100
AcDbLayerTableRecord
2
1
70
0
62
4
6
CONTINUOUS
290
1
370
-3
390
0
0
LAYER
5
88
100
AcDbSymbolTableRecord
100
AcDbLayerTableRecord
2
4
70
0
62
-2
6
CENTER
290
1
370
-3
390
0
0
LAYER
5
191
100
AcDbSymbolTableRecord
100
AcDbLayerTableRecord
2
SK2
70
0
62
7
6
CONTINUOUS
290
1
370
-3
390
0
0
LAYER
5
192
100
AcDbSymbolTableRecord
100
AcDbLayerTableRecord
2
SK1
70
0
62
4
6
CONTINUOUS
290
1
370
-3
390
0
0
LAYER
5
193
100
AcDbSymbolTableRecord
100
AcDbLayerTableRecord
2
SK4
70
0
62
2
6
CENTER
290
1
370
-3
390
0
0
LAYER
5
194
100
AcDbSymbolTableRecord
100
AcDbLayerTableRecord
2
SK6
70
0
62
5
6
CONTINUOUS
290
1
370
-3
390
0
0
ENDTAB
0
TABLE
2
STYLE
5
1a8
100
AcDbSymbolTable
0
STYLE
5
11
100
AcDbSymbolTableRecord
100
AcDbTextStyleTableRecord
2
Standard
3
txt
70
0
71
0
40
0
41
1
42
0
50
0
0
STYLE
5
ED
100
AcDbSymbolTableRecord
100
AcDbTextStyleTableRecord
2
iso_b_vert
3
simplex.shx
70
0
71
0
40
0
41
1
42
0
50
0
0
STYLE
5
EE
100
AcDbSymbolTableRecord
100
AcDbTextStyleTableRecord
2
DWGDirectTextStyle
3
simplex
70
0
71
0
40
0
41
1
42
0
50
0
0
ENDTAB
0
TABLE
2
DIMSTYLE
5
1a9
100
AcDbSymbolTable
100
AcDbDimStyleTable
0
DIMSTYLE
105
27
100
AcDbSymbolTableRecord
100
AcDbDimStyleTableRecord
2
Standard
70
0
3
<>
41
0.18
42
0.0625
44
0.18
140
0.18
147
0.09
73
0
74
0
77
1
271
2
275
0
278
52
280
0
340
11
0
ENDTAB
0
TABLE
2
VIEW
5
1aa
100
AcDbSymbolTable
0
ENDTAB
0
TABLE
2
UCS
5
1ab
100
AcDbSymbolTable
0
ENDTAB
0
TABLE
2
APPID
5
1ac
100
AcDbSymbolTable
0
APPID
5
12
100
AcDbSymbolTableRecord
100
AcDbRegAppTableRecord
2
ACAD
70
0
0
ENDTAB
0
TABLE
2
BLOCK_RECORD
5
1ad
100
AcDbSymbolTable
0
BLOCK_RECORD
5
1F
100
AcDbSymbolTableRecord
100
AcDbBlockTableRecord
2
*Model_Space
340
0
70
0
0
BLOCK_RECORD
5
1B
100
AcDbSymbolTableRecord
100
AcDbBlockTableRecord
2
*Paper_Space
340
0
70
0
0
BLOCK_RECORD
5
23
100
AcDbSymbolTableRecord
100
AcDbBlockTableRecord
2
*Paper_Space0
340
0
70
0
0
BLOCK_RECORD
5
F0
100
AcDbSymbolTableRecord
100
AcDbBlockTableRecord
2
DimnDraft3D1
340
0
70
0
0
BLOCK_RECORD
5
FA
100
AcDbSymbolTableRecord
100
AcDbBlockTableRecord
2
DimnDraft3D2
340
0
70
0
0
BLOCK_RECORD
5
104
100
AcDbSymbolTableRecord
100
AcDbBlockTableRecord
2
DimnDraft3D3
340
0
70
0
0
BLOCK_RECORD
5
10E
100
AcDbSymbolTableRecord
100
AcDbBlockTableRecord
2
DimnDraft3D4
340
0
70
0
0
BLOCK_RECORD
5
118
100
AcDbSymbolTableRecord
100
AcDbBlockTableRecord
2
DimnDraft3D5
340
0
70
0
0
BLOCK_RECORD
5
122
100
AcDbSymbolTableRecord
100
AcDbBlockTableRecord
2
DimnDraft3D6
340
0
70
0
0
BLOCK_RECORD
5
12D
100
AcDbSymbolTableRecord
100
AcDbBlockTableRecord
2
DimnDraft3D7
340
0
70
0
0
ENDTAB
0
ENDSEC
0
SECTION
2
BLOCKS
0
BLOCK
5
20
100
AcDbEntity
8
0
100
AcDbBlockBegin
2
*Model_Space
70
0
10
0
20
0
30
0
3
*Model_Space
0
ENDBLK
5
21
100
AcDbEntity
8
0
100
AcDbBlockEnd
0
BLOCK
5
1C
100
AcDbEntity
8
0
100
AcDbBlockBegin
2
*Paper_Space
70
0
10
0
20
0
30
0
3
*Paper_Space
0
ENDBLK
5
1D
100
AcDbEntity
8
0
100
AcDbBlockEnd
0
BLOCK
5
24
100
AcDbEntity
8
0
100
AcDbBlockBegin
2
*Paper_Space0
70
0
10
0
20
0
30
0
3
*Paper_Space0
0
ENDBLK
5
25
100
AcDbEntity
8
0
100
AcDbBlockEnd
0
BLOCK
5
F7
100
AcDbEntity
8
0
100
AcDbBlockBegin
2
DimnDraft3D1
70
0
10
0
20
0
30
0
3
DimnDraft3D1
0
MTEXT
5
F1
100
AcDbEntity
8
SK2
62
256
6
ByLayer
370
13
48
1
60
0
100
AcDbMText
10
49.524269
20
-15.638398
30
0
210
0
220
0
230
1
1
\W0.6593;112,84
40
3.5
41
0
44
1.084337
50
0
71
7
72
5
7
iso_b_vert
0
LINE
5
F2
100
AcDbEntity
8
SK2
62
256
6
ByLayer
370
13
48
1
60
0
100
AcDbLine
10
0
20
-1.5875
30
0
11
0
21
-18.513398
31
0
39
0
210
0
220
0
230
1
0
LINE
5
F3
100
AcDbEntity
8
SK2
62
256
6
ByLayer
370
13
48
1
60
0
100
AcDbLine
10
112.84
20
-7.8875
30
0
11
112.84
21
-18.513398
31
0
39
0
210
0
220
0
230
1
0
LINE
5
F4
100
AcDbEntity
8
SK2
62
256
6
ByLayer
370
13
48
1
60
0
100
AcDbLine
10
0
20
-16.513398
30
0
11
112.84
21
-16.513398
31
0
39
0
210
0
220
0
230
1
0
SOLID
5
F5
100
AcDbEntity
8
SK2
62
256
6
ByLayer
370
13
48
1
60
0
100
AcDbTrace
10
0
20
-16.513398
30
0
11
3.499998
21
-16.052615
31
0
12
3.500002
22
-16.974182
32
0
13
0
23
-16.513398
33
0
39
0
210
0
220
0
230
1
0
SOLID
5
F6
100
AcDbEntity
8
SK2
62
256
6
ByLayer
370
13
48
1
60
0
100
AcDbTrace
10
112.84
20
-16.513398
30
0
11
109.340002
21
-16.974182
31
0
12
109.339998
22
-16.052615
32
0
13
112.84
23
-16.513398
33
0
39
0
210
0
220
0
230
1
0
ENDBLK
5
F8
100
AcDbEntity
8
0
100
AcDbBlockEnd
0
BLOCK
5
101
100
AcDbEntity
8
0
100
AcDbBlockBegin
2
DimnDraft3D2
70
0
10
0
20
0
30
0
3
DimnDraft3D2
0
MTEXT
5
FB
100
AcDbEntity
8
SK2
62
256
6
ByLayer
370
13
48
1
60
0
100
AcDbMText
10
28.862221
20
-34.817985
30
0
210
0
220
0
230
1
1
\W0.6930;160,00
40
3.5
41
0
44
1.084337
50
0
71
7
72
5
7
iso_b_vert
0
LINE
5
FC
100
AcDbEntity
8
SK2
62
256
6
ByLayer
370
13
48
1
60
0
100
AcDbLine
10
-45
20
-8.5875
30
0
11
-45
21
-37.692985
31
0
39
0
210
0
220
0
230
1
0
LINE
5
FD
100
AcDbEntity
8
SK2
62
256
6
ByLayer
370
13
48
1
60
0
100
AcDbLine
10
115
20
-1.5875
30
0
11
115
21
-37.692985
31
0
39
0
210
0
220
0
230
1
0
LINE
5
FE
100
AcDbEntity
8
SK2
62
256
6
ByLayer
370
13
48
1
60
0
100
AcDbLine
10
-45
20
-35.692985
30
0
11
115
21
-35.692985
31
0
39
0
210
0
220
0
230
1
0
SOLID
5
FF
100
AcDbEntity
8
SK2
62
256
6
ByLayer
370
13
48
1
60
0
100
AcDbTrace
10
-45
20
-35.692985
30
0
11
-41.500002
21
-35.232202
31
0
12
-41.499998
22
-36.153769
32
0
13
-45
23
-35.692985
33
0
39
0
210
0
220
0
230
1
0
SOLID
5
100
100
AcDbEntity
8
SK2
62
256
6
ByLayer
370
13
48
1
60
0
100
AcDbTrace
10
115
20
-35.692985
30
0
11
111.500002
21
-36.153769
31
0
12
111.499998
22
-35.232202
32
0
13
115
23
-35.692985
33
0
39
0
210
0
220
0
230
1
0
ENDBLK
5
102
100
AcDbEntity
8
0
100
AcDbBlockEnd
0
BLOCK
5
10B
100
AcDbEntity
8
0
100
AcDbBlockBegin
2
DimnDraft3D3
70
0
10
0
20
0
30
0
3
DimnDraft3D3
0
MTEXT
5
105
100
AcDbEntity
8
SK2
62
256
6
ByLayer
370
13
48
1
60
0
100
AcDbMText
10
58.200921
20
18.784119
30
0
210
0
220
0
230
1
1
\W0.6930;102,96
40
3.5
41
0
44
1.084337
50
0
71
7
72
5
7
iso_b_vert
0
LINE
5
106
100
AcDbEntity
8
SK2
62
256
6
ByLayer
370
13
48
1
60
0
100
AcDbLine
10
12.04
20
7.8875
30
0
11
12.04
21
19.909119
31
0
39
0
210
0
220
0
230
1
0
LINE
5
107
100
AcDbEntity
8
SK2
62
256
6
ByLayer
370
13
48
1
60
0
100
AcDbLine
10
115
20
1.5875
30
0
11
115
21
19.909119
31
0
39
0
210
0
220
0
230
1
0
LINE
5
108
100
AcDbEntity
8
SK2
62
256
6
ByLayer
370
13
48
1
60
0
100
AcDbLine
10
12.04
20
17.909119
30
0
11
115
21
17.909119
31
0
39
0
210
0
220
0
230
1
0
SOLID
5
109
100
AcDbEntity
8
SK2
62
256
6
ByLayer
370
13
48
1
60
0
100
AcDbTrace
10
12.04
20
17.909119
30
0
11
15.539998
21
18.369903
31
0
12
15.540002
22
17.448335
32
0
13
12.04
23
17.909119
33
0
39
0
210
0
220
0
230
1
0
SOLID
5
10A
100
AcDbEntity
8
SK2
62
256
6
ByLayer
370
13
48
1
60
0
100
AcDbTrace
10
115
20
17.909119
30
0
11
111.500002
21
17.448335
31
0
12
111.499998
22
18.369903
32
0
13
115
23
17.909119
33
0
39
0
210
0
220
0
230
1
0
ENDBLK
5
10C
100
AcDbEntity
8
0
100
AcDbBlockEnd
0
BLOCK
5
115
100
AcDbEntity
8
0
100
AcDbBlockBegin
2
DimnDraft3D4
70
0
10
0
20
0
30
0
3
DimnDraft3D4
0
MTEXT
5
10F
100
AcDbEntity
8
SK2
62
256
6
ByLayer
370
13
48
1
60
0
100
AcDbMText
10
122.278136
20
-18.227503
30
0
210
0
220
0
230
1
1
\W0.6367;2,16
40
3.5
41
0
44
1.084337
50
0
71
7
72
5
7
iso_b_vert
0
LINE
5
110
100
AcDbEntity
8
SK2
62
256
6
ByLayer
370
13
48
1
60
0
100
AcDbLine
10
115
20
-1.5875
30
0
11
115
21
-21.102503
31
0
39
0
210
0
220
0
230
1
0
LINE
5
111
100
AcDbEntity
8
SK2
62
256
6
ByLayer
370
13
48
1
60
0
100
AcDbLine
10
112.84
20
-7.8875
30
0
11
112.84
21
-21.102503
31
0
39
0
210
0
220
0
230
1
0
LINE
5
112
100
AcDbEntity
8
SK2
62
256
6
ByLayer
370
13
48
1
60
0
100
AcDbLine
10
104.09
20
-19.102503
30
0
11
128.559715
21
-19.102503
31
0
39
0
210
0
220
0
230
1
0
SOLID
5
113
100
AcDbEntity
8
SK2
62
256
6
ByLayer
370
13
48
1
60
0
100
AcDbTrace
10
115
20
-19.102503
30
0
11
118.499998
21
-18.641719
31
0
12
118.500002
22
-19.563287
32
0
13
115
23
-19.102503
33
0
39
0
210
0
220
0
230
1
0
SOLID
5
114
100
AcDbEntity
8
SK2
62
256
6
ByLayer
370
13
48
1
60
0
100
AcDbTrace
10
112.84
20
-19.102503
30
0
11
109.340002
21
-19.563287
31
0
12
109.339998
22
-18.641719
32
0
13
112.84
23
-19.102503
33
0
39
0
210
0
220
0
230
1
0
ENDBLK
5
116
100
AcDbEntity
8
0
100
AcDbBlockEnd
0
BLOCK
5
11F
100
AcDbEntity
8
0
100
AcDbBlockBegin
2
DimnDraft3D5
70
0
10
0
20
0
30
0
3
DimnDraft3D5
0
MTEXT
5
119
100
AcDbEntity
8
SK2
62
256
6
ByLayer
370
13
48
1
60
0
100
AcDbMText
10
25.597387
20
-24.468428
30
0
210
0
220
0
230
1
1
\W0.7079;157,84
40
3.5
41
0
44
1.084337
50
0
71
7
72
5
7
iso_b_vert
0
LINE
5
11A
100
AcDbEntity
8
SK2
62
256
6
ByLayer
370
13
48
1
60
0
100
AcDbLine
10
-45
20
-8.5875
30
0
11
-45
21
-27.343428
31
0
39
0
210
0
220
0
230
1
0
LINE
5
11B
100
AcDbEntity
8
SK2
62
256
6
ByLayer
370
13
48
1
60
0
100
AcDbLine
10
112.84
20
-7.8875
30
0
11
112.84
21
-27.343428
31
0
39
0
210
0
220
0
230
1
0
LINE
5
11C
100
AcDbEntity
8
SK2
62
256
6
ByLayer
370
13
48
1
60
0
100
AcDbLine
10
-45
20
-25.343428
30
0
11
112.84
21
-25.343428
31
0
39
0
210
0
220
0
230
1
0
SOLID
5
11D
100
AcDbEntity
8
SK2
62
256
6
ByLayer
370
13
48
1
60
0
100
AcDbTrace
10
-45
20
-25.343428
30
0
11
-41.500002
21
-24.882645
31
0
12
-41.499998
22
-25.804212
32
0
13
-45
23
-25.343428
33
0
39
0
210
0
220
0
230
1
0
SOLID
5
11E
100
AcDbEntity
8
SK2
62
256
6
ByLayer
370
13
48
1
60
0
100
AcDbTrace
10
112.84
20
-25.343428
30
0
11
109.340002
21
-25.804212
31
0
12
109.339998
22
-24.882645
32
0
13
112.84
23
-25.343428
33
0
39
0
210
0
220
0
230
1
0
ENDBLK
5
120
100
AcDbEntity
8
0
100
AcDbBlockEnd
0
BLOCK
5
12A
100
AcDbEntity
8
0
100
AcDbBlockBegin
2
DimnDraft3D6
70
0
10
0
20
0
30
0
3
DimnDraft3D6
0
MTEXT
5
123
100
AcDbEntity
8
SK2
62
256
6
ByLayer
370
13
48
1
60
0
100
AcDbMText
10
-55.375163
20
26.34918
30
0
210
0
220
0
230
1
1
\W0.7145;14,000
40
3.5
41
0
44
1.084337
50
90
71
7
72
5
7
iso_b_vert
0
MTEXT
5
124
100
AcDbEntity
8
SK2
62
256
6
ByLayer
370
13
48
1
60
0
100
AcDbMText
10
-55.375163
20
21.126524
30
0
210
0
220
0
230
1
1
%%c
40
3.5
41
0
44
1.084337
50
90
71
7
72
5
7
iso_b_vert
0
LINE
5
125
100
AcDbEntity
8
SK2
62
256
6
ByLayer
370
13
48
1
60
0
100
AcDbLine
10
-46.5875
20
-7
30
0
11
-55.625163
21
-7
31
0
39
0
210
0
220
0
230
1
0
LINE
5
126
100
AcDbEntity
8
SK2
62
256
6
ByLayer
370
13
48
1
60
0
100
AcDbLine
10
-46.5875
20
7
30
0
11
-55.625163
21
7
31
0
39
0
210
0
220
0
230
1
0
LINE
5
127
100
AcDbEntity
8
SK2
62
256
6
ByLayer
370
13
48
1
60
0
100
AcDbLine
10
-53.625163
20
-7
30
0
11
-53.625163
21
38.230759
31
0
39
0
210
0
220
0
230
1
0
SOLID
5
128
100
AcDbEntity
8
SK2
62
256
6
ByLayer
370
13
48
1
60
0
100
AcDbTrace
10
-53.625163
20
-7
30
0
11
-54.085946
21
-3.500002
31
0
12
-53.164379
22
-3.499998
32
0
13
-53.625163
23
-7
33
0
39
0
210
0
220
0
230
1
0
SOLID
5
129
100
AcDbEntity
8
SK2
62
256
6
ByLayer
370
13
48
1
60
0
100
AcDbTrace
10
-53.625163
20
7
30
0
11
-53.164379
21
3.500002
31
0
12
-54.085946
22
3.499998
32
0
13
-53.625163
23
7
33
0
39
0
210
0
220
0
230
1
0
ENDBLK
5
12B
100
AcDbEntity
8
0
100
AcDbBlockEnd
0
BLOCK
5
135
100
AcDbEntity
8
0
100
AcDbBlockBegin
2
DimnDraft3D7
70
0
10
0
20
0
30
0
3
DimnDraft3D7
0
MTEXT
5
12E
100
AcDbEntity
8
2
62
256
6
ByLayer
370
13
48
1
60
0
100
AcDbMText
10
125.333343
20
24.242266
30
0
210
0
220
0
230
1
1
\W0.6930;12,600
40
3.5
41
0
44
1.084337
50
90
71
7
72
5
7
iso_b_vert
0
MTEXT
5
12F
100
AcDbEntity
8
2
62
256
6
ByLayer
370
13
48
1
60
0
100
AcDbMText
10
125.333343
20
19.01961
30
0
210
0
220
0
230
1
1
%%c
40
3.5
41
0
44
1.084337
50
90
71
7
72
5
7
iso_b_vert
0
LINE
5
130
100
AcDbEntity
8
2
62
256
6
ByLayer
370
13
48
1
60
0
100
AcDbLine
10
114.4275
20
-6.3
30
0
11
129.083343
21
-6.3
31
0
39
0
210
0
220
0
230
1
0
LINE
5
131
100
AcDbEntity
8
2
62
256
6
ByLayer
370
13
48
1
60
0
100
AcDbLine
10
114.4275
20
6.3
30
0
11
129.083343
21
6.3
31
0
39
0
210
0
220
0
230
1
0
LINE
5
132
100
AcDbEntity
8
2
62
256
6
ByLayer
370
13
48
1
60
0
100
AcDbLine
10
127.083343
20
-6.3
30
0
11
127.083343
21
35.755424
31
0
39
0
210
0
220
0
230
1
0
SOLID
5
133
100
AcDbEntity
8
2
62
256
6
ByLayer
370
13
48
1
60
0
100
AcDbTrace
10
127.083343
20
-6.3
30
0
11
126.622559
21
-2.800002
31
0
12
127.544126
22
-2.799998
32
0
13
127.083343
23
-6.3
33
0
39
0
210
0
220
0
230
1
0
SOLID
5
134
100
AcDbEntity
8
2
62
256
6
ByLayer
370
13
48
1
60
0
100
AcDbTrace
10
127.083343
20
6.3
30
0
11
127.544126
21
2.800002
31
0
12
126.622559
22
2.799998
32
0
13
127.083343
23
6.3
33
0
39
0
210
0
220
0
230
1
0
ENDBLK
5
136
100
AcDbEntity
8
0
100
AcDbBlockEnd
0
ENDSEC
0
SECTION
2
ENTITIES
0
ARC
5
9F
100
AcDbEntity
8
1
62
256
6
ByLayer
370
18
48
1
60
0
100
AcDbCircle
39
0
10
0
20
6.2
30
0
40
0.800000000000004
210
0
220
0
230
1
100
AcDbArc
50
31.377937
51
90
0
ARC
5
A0
100
AcDbEntity
8
1
62
256
6
ByLayer
370
18
48
1
60
0
100
AcDbCircle
39
0
10
-1.366002
20
7.033089
30
0
40
0.799999999999998
210
0
220
0
230
-1
100
AcDbArc
50
269.965623
51
328.622063
0
ARC
5
A1
100
AcDbEntity
8
1
62
256
6
ByLayer
370
18
48
1
60
0
100
AcDbCircle
39
0
10
0
20
-6.2
30
0
40
0.800000000000004
210
0
220
0
230
1
100
AcDbArc
50
270
51
328.622063
0
ARC
5
A2
100
AcDbEntity
8
1
62
256
6
ByLayer
370
18
48
1
60
0
100
AcDbCircle
39
0
10
-1.366002
20
-7.033089
30
0
40
0.799999999999998
210
0
220
0
230
-1
100
AcDbArc
50
31.377937
51
90.034377
0
ELLIPSE
5
A3
100
AcDbEntity
8
1
62
256
6
ByLayer
370
18
48
1
60
0
100
AcDbEllipse
10
10.25
20
6.212036
30
0
11
-0.25
21
3.06151588455594E-17
31
0
210
0
220
0
230
1
40
1
41
8.96008877416583E-06
42
1.58452530942487
0
ELLIPSE
5
A4
100
AcDbEntity
8
1
62
256
6
ByLayer
370
18
48
1
60
0
100
AcDbEllipse
10
10.25
20
-6.212036
30
0
11
-0.25
21
3.06151588455594E-17
31
0
210
0
220
0
230
1
40
1
41
-1.56305917137944
42
-8.96008870666427E-06
0
ELLIPSE
5
A5
100
AcDbEntity
8
1
62
256
6
ByLayer
370
13
48
1
60
0
100
AcDbEllipse
10
113.284854
20
0.908757
30
0
11
0.133113781883907
21
0.268850741253513
31
0
210
0
220
0
230
1
40
0.40558
41
0.884485917130962
42
2.28074931872629
0
ELLIPSE
5
A6
100
AcDbEntity
8
1
62
256
6
ByLayer
370
13
48
1
60
0
100
AcDbEllipse
10
114.021045
20
2.857601
30
0
11
4.17691993717979
21
-2.14730994913599
31
0
210
0
220
0
230
-1
40
0.482873
41
1.53949524921236
42
1.85397326820467
0
ELLIPSE
5
A7
100
AcDbEntity
8
1
62
256
6
ByLayer
370
18
48
1
60
0
100
AcDbEllipse
10
114.860049
20
0.128844
30
0
11
0.0868803724548047
21
0.290676908841348
31
0
210
0
220
0
230
-1
40
0.467765
41
1.67019789522699
42
2.36053717390334
0
ELLIPSE
5
A8
100
AcDbEntity
8
1
62
256
6
ByLayer
370
18
48
1
60
0
100
AcDbEllipse
10
113.834618
20
-2.991893
30
0
11
0.970046809597945
21
2.64480006817797
31
0
210
0
220
0
230
-1
40
0.082138
41
0.755280950345112
42
1.57905254072431
0
ELLIPSE
5
A9
100
AcDbEntity
8
1
62
256
6
ByLayer
370
18
48
1
60
0
100
AcDbEllipse
10
115.000534
20
0.001376
30
0
11
2.31010083791564
21
6.29841237715748
31
0
210
0
220
0
230
-1
40
0.082138
41
2.897751142495
42
2.98982044095202
0
ELLIPSE
5
AA
100
AcDbEntity
8
1
62
256
6
ByLayer
370
18
48
1
60
0
100
AcDbEllipse
10
115.019387
20
0.049952
30
0
11
0.135658546086602
21
-0.401200806368961
31
0
210
0
220
0
230
-1
40
0.065863
41
1.61700363995561
42
2.3229277626813
0
ELLIPSE
5
AB
100
AcDbEntity
8
1
62
256
6
ByLayer
370
18
48
1
60
0
100
AcDbEllipse
10
115.019387
20
-0.049952
30
0
11
0.135658546051186
21
0.40120080627375
31
0
210
0
220
0
230
-1
40
0.065863
41
-2.32292776277525
42
-1.61700363987234
0
ELLIPSE
5
AC
100
AcDbEntity
8
1
62
256
6
ByLayer
370
18
48
1
60
0
100
AcDbEllipse
10
115.000534
20
-0.001376
30
0
11
2.31010088993403
21
-6.29841252632208
31
0
210
0
220
0
230
-1
40
0.082138
41
-2.9898204427456
42
-2.89775114539523
0
ELLIPSE
5
AD
100
AcDbEntity
8
1
62
256
6
ByLayer
370
18
48
1
60
0
100
AcDbEllipse
10
113.834618
20
2.991893
30
0
11
0.97004680955626
21
-2.6448000680818
31
0
210
0
220
0
230
-1
40
0.082138
41
-1.57905254076554
42
-0.755280950344733
0
ELLIPSE
5
AE
100
AcDbEntity
8
1
62
256
6
ByLayer
370
13
48
1
60
0
100
AcDbEllipse
10
114.190503
20
2.991893
30
0
11
4.2232231967905
21
-1.8363820864876
31
0
210
0
220
0
230
-1
40
0.451077
41
1.58913396669225
42
1.90831000300259
0
POINT
5
6C
100
AcDbEntity
8
81
62
256
6
ByLayer
370
18
48
1
60
0
100
AcDbPoint
10
115
20
0
30
0
39
0
210
0
220
0
230
1
50
360
0
POINT
5
6E
100
AcDbEntity
8
80
62
256
6
ByLayer
370
18
48
1
60
0
100
AcDbPoint
10
0
20
0
30
0
39
0
210
0
220
0
230
1
50
360
0
POINT
5
70
100
AcDbEntity
8
SK2
62
256
6
ByLayer
370
18
48
1
60
1
100
AcDbPoint
10
-45
20
-7
30
0
39
0
210
0
220
0
230
1
50
360
0
POINT
5
72
100
AcDbEntity
8
SK2
62
256
6
ByLayer
370
18
48
1
60
1
100
AcDbPoint
10
-45
20
7
30
0
39
0
210
0
220
0
230
1
50
360
0
POINT
5
73
100
AcDbEntity
8
2
62
256
6
ByLayer
370
18
48
1
60
1
100
AcDbPoint
10
112.84
20
-6.3
30
0
39
0
210
0
220
0
230
1
50
360
0
POINT
5
75
100
AcDbEntity
8
2
62
256
6
ByLayer
370
18
48
1
60
1
100
AcDbPoint
10
112.84
20
6.3
30
0
39
0
210
0
220
0
230
1
50
360
0
SPLINE
5
AF
100
AcDbEntity
8
1
62
256
6
ByLayer
370
18
48
1
60
0
100
AcDbSpline
70
4
71
2
72
6
73
3
40
0
40
0
40
0
40
1
40
1
40
1
41
1
10
93.7151657092559
20
0.0047578811799269
30
0
41
1
10
93.7151362812416
20
0.004773562198551
30
0
41
1
10
93.7151068533201
20
0.0047897163947823
30
0
0
SPLINE
5
B0
100
AcDbEntity
8
1
62
256
6
ByLayer
370
18
48
1
60
0
100
AcDbSpline
70
4
71
3
72
35
73
31
40
0
40
0
40
0
40
0
40
0.0547014076516421
40
0.104312208593817
40
0.145036603156616
40
0.176011108483064
40
0.20063270727705
40
0.237583561869578
40
0.279954152858986
40
0.315623398934864
40
0.355381227622691
40
0.392936810730411
40
0.431805880556074
40
0.471322887483687
40
0.510902891255697
40
0.542630548811404
40
0.575516414375922
40
0.614705214103492
40
0.660132615230553
40
0.700658852581013
40
0.73209192763046
40
0.764653132227196
40
0.808725778532806
40
0.85344772859558
40
0.885092511036255
40
0.895889647256871
40
0.911846923244416
40
0.939037076071204
40
0.977440507218837
40
1
40
1
40
1
40
1
41
1
10
76.2119912305149
20
-6.00110356440155
30
0
41
1
10
76.5330643146534
20
-6.00070873612597
30
0
41
1
10
77.1455547797584
20
-6.00047293324093
30
0
41
1
10
78.0091073887646
20
-6.00142836129652
30
0
41
1
10
78.7145380618738
20
-6.00335430983228
30
0
41
1
10
79.2869260868062
20
-6.00361517244073
30
0
41
1
10
79.8334596231791
20
-6.00390093468368
30
0
41
1
10
80.4492915754339
20
-6.00367417726403
30
0
41
1
10
81.1298846395639
20
-6.00376517276098
30
0
41
1
10
81.8272829473225
20
-6.00569580381429
30
0
41
1
10
82.4961092679576
20
-6.00621464290279
30
0
41
1
10
83.1839238063908
20
-6.0058007672454
30
0
41
1
10
83.8702958808814
20
-6.00522725133956
30
0
41
1
10
84.5686649582558
20
-6.00640448379338
30
0
41
1
10
85.2247378586522
20
-6.00911778827333
30
0
41
1
10
85.8415721846763
20
-6.00885901023722
30
0
41
1
10
86.4560855899096
20
-6.00831786114975
30
0
41
1
10
87.151705114617
20
-6.00651740279497
30
0
41
1
10
87.8925444528559
20
-6.00852542424514
30
0
41
1
10
88.5875020311256
20
-6.00950826576144
30
0
41
1
10
89.2061040742019
20
-6.00838705023898
30
0
41
1
10
89.845809186366
20
-6.00739804337377
30
0
41
1
10
90.5643319951632
20
-6.00636823069715
30
0
41
1
10
91.2770632977117
20
-6.0126854383046
30
0
41
1
10
91.7935304677447
20
-6.01398542640859
30
0
41
1
10
92.138349124551
20
-6.0145786851306
30
0
41
1
10
92.4575668313945
20
-6.01485292323773
30
0
41
1
10
92.940362955501
20
-6.01460782809644
30
0
41
1
10
93.4622524693611
20
-6.01346793240992
30
0
41
1
10
93.8231000106519
20
-6.01253161229047
30
0
41
1
10
93.956627042803
20
-6.0121429259336
30
0
0
SPLINE
5
B1
100
AcDbEntity
8
1
62
256
6
ByLayer
370
18
48
1
60
0
100
AcDbSpline
70
4
71
3
72
34
73
30
40
0
40
0
40
0
40
0
40
0.0454708748593953
40
0.0936774765705576
40
0.13392570783224
40
0.173920519721702
40
0.223077181499737
40
0.278608773754542
40
0.312939461846454
40
0.338084436190275
40
0.359313855666962
40
0.389116125748756
40
0.428039802637635
40
0.471049212152581
40
0.509593155467467
40
0.553693965433806
40
0.602557136506158
40
0.661272865566968
40
0.706150670357098
40
0.744652506160567
40
0.790438414820268
40
0.821384056176645
40
0.854896006586507
40
0.890964427049559
40
0.928184791523365
40
0.957704396076863
40
0.975253768801352
40
0.994648159886146
40
1
40
1
40
1
40
1
41
1
10
58.985399315068
20
5.99000448578659
30
0
41
1
10
58.7551704437642
20
5.99022577635492
30
0
41
1
10
58.2829281416773
20
5.99078344774003
30
0
41
1
10
57.6284248803797
20
5.99487791258798
30
0
41
1
10
56.9805934309351
20
5.99380131019078
30
0
41
1
10
56.3310671828163
20
5.9907501531018
30
0
41
1
10
55.603383353769
20
5.99059991460504
30
0
41
1
10
54.904566391007
20
5.99168789788118
30
0
41
1
10
54.326362565363
20
5.99241001153334
30
0
41
1
10
53.9206235415931
20
5.99205617650563
30
0
41
1
10
53.5376531459712
20
5.99019106090688
30
0
41
1
10
53.0854090937982
20
5.98891272886678
30
0
41
1
10
52.5236645263183
20
5.9886763149008
30
0
41
1
10
51.9179713105501
20
5.98936647785138
30
0
41
1
10
51.2862462430431
20
5.98986115050585
30
0
41
1
10
50.6250991694297
20
5.98894487992456
30
0
41
1
10
49.8625672364724
20
5.9851947510092
30
0
41
1
10
49.0960908803639
20
5.98679267483772
30
0
41
1
10
48.3817162970249
20
5.98742293021127
30
0
41
1
10
47.7323347978737
20
5.98743867014298
30
0
41
1
10
47.153019342668
20
5.98450845392247
30
0
41
1
10
46.5987887779956
20
5.98356955676212
30
0
41
1
10
46.0933994479189
20
5.98358780629971
30
0
41
1
10
45.5564509568729
20
5.98400197760782
30
0
41
1
10
45.0396251349247
20
5.98428194594786
30
0
41
1
10
44.6157956822695
20
5.98403065229945
30
0
41
1
10
44.2818157963049
20
5.98341043192022
30
0
41
1
10
44.0694931719615
20
5.98284470409962
30
0
41
1
10
43.9451812915634
20
5.98258006515042
30
0
41
1
10
43.9182931114144
20
5.98252569091778
30
0
0
SPLINE
5
B2
100
AcDbEntity
8
1
62
256
6
ByLayer
370
18
48
1
60
0
100
AcDbSpline
70
4
71
3
72
31
73
27
40
0
40
0
40
0
40
0
40
0.0571421454564826
40
0.116918860276519
40
0.15977863324835
40
0.18828591362726
40
0.213061883104562
40
0.236979109238298
40
0.26137758982665
40
0.292663957006009
40
0.331604535568024
40
0.375242446176073
40
0.435320338840747
40
0.484043008949968
40
0.526882796554303
40
0.570184009732145
40
0.612690830153567
40
0.656100496137008
40
0.700086922814776
40
0.743186500844069
40
0.785389054390658
40
0.835319921801056
40
0.883731923500865
40
0.937632971232649
40
0.981877507024135
40
1
40
1
40
1
40
1
41
1
10
10.2507096113579
20
-5.96199342447014
30
0
41
1
10
10.4990707477295
20
-5.9627871005323
30
0
41
1
10
11.0072481869545
20
-5.96424072445694
30
0
41
1
10
11.7017657900504
20
-5.96586262351502
30
0
41
1
10
12.2717646290438
20
-5.96669335461374
30
0
41
1
10
12.6896701765334
20
-5.96706945406217
30
0
41
1
10
13.02523381808
20
-5.9672485050113
30
0
41
1
10
13.34293902864
20
-5.96732414057274
30
0
41
1
10
13.6889426553681
20
-5.96731546798364
30
0
41
1
10
14.1002447574609
20
-5.96721091966606
30
0
41
1
10
14.5951758872871
20
-5.9670437592869
30
0
41
1
10
15.2152564154169
20
-5.96698659435131
30
0
41
1
10
15.8778523117288
20
-5.96761977367589
30
0
41
1
10
16.5369729713383
20
-5.97076861789176
30
0
41
1
10
17.123180024199
20
-5.97101778572033
30
0
41
1
10
17.6823659154869
20
-5.97157194447146
30
0
41
1
10
18.2440304879657
20
-5.97196726642261
30
0
41
1
10
18.8086759158575
20
-5.97207447451234
30
0
41
1
10
19.3758938925628
20
-5.97324209839323
30
0
41
1
10
19.937869450813
20
-5.97388297220121
30
0
41
1
10
20.5256765624303
20
-5.97318439007344
30
0
41
1
10
21.1365706570963
20
-5.97289602688559
30
0
41
1
10
21.7983268936353
20
-5.97303507644764
30
0
41
1
10
22.4353572442307
20
-5.97501864570182
30
0
41
1
10
22.9406822892572
20
-5.97626389001968
30
0
41
1
10
23.2114046992038
20
-5.97594336230995
30
0
41
1
10
23.2900534535422
20
-5.97579747625682
30
0
0
SPLINE
5
B3
100
AcDbEntity
8
1
62
256
6
ByLayer
370
18
48
1
60
0
100
AcDbSpline
70
4
71
3
72
33
73
29
40
0
40
0
40
0
40
0
40
0.0575924353955949
40
0.105636483216137
40
0.138506718663953
40
0.158440894090758
40
0.180297051038006
40
0.237715602228919
40
0.285468093498733
40
0.332710833289817
40
0.389319867726543
40
0.416890914704731
40
0.439806137305746
40
0.458063036311978
40
0.476522223267922
40
0.50385762596191
40
0.539088327804249
40
0.587585441794626
40
0.626046451265327
40
0.661560650801917
40
0.698631407296676
40
0.735389032268854
40
0.770063954755634
40
0.830314799714079
40
0.898518230709201
40
0.928975453331702
40
0.967435572105816
40
1
40
1
40
1
40
1
41
1
10
40.8327269281241
20
-5.97985688866859
30
0
41
1
10
41.176205228443
20
-5.98019333563434
30
0
41
1
10
41.8062927474161
20
-5.98075739399584
30
0
41
1
10
42.6327779196936
20
-5.98135584618692
30
0
41
1
10
43.2344687746978
20
-5.98173701149841
30
0
41
1
10
43.6798665902602
20
-5.98218036715778
30
0
41
1
10
44.2717916175229
20
-5.98332213701465
30
0
41
1
10
45.029682091072
20
-5.98459496954354
30
0
41
1
10
45.9390891842843
20
-5.98367858476482
30
0
41
1
10
46.8436331937183
20
-5.98315457875293
30
0
41
1
10
47.6277829855233
20
-5.98725615519967
30
0
41
1
10
48.2667764428347
20
-5.98742904317251
30
0
41
1
10
48.6769332402895
20
-5.98716716414717
30
0
41
1
10
49.0327271531874
20
-5.98672379857447
30
0
41
1
10
49.4148982316154
20
-5.98629253569518
30
0
41
1
10
49.8983445886053
20
-5.98581126605572
30
0
41
1
10
50.5610134742299
20
-5.98813706083251
30
0
41
1
10
51.2900646435096
20
-5.99011421316524
30
0
41
1
10
52.0208083936254
20
-5.98921209910972
30
0
41
1
10
52.6833740920691
20
-5.98861341210173
30
0
41
1
10
53.3357781924835
20
-5.98916876838982
30
0
41
1
10
53.9831655827522
20
-5.99265653769513
30
0
41
1
10
54.7688886391637
20
-5.99201623250445
30
0
41
1
10
55.7420893648427
20
-5.98964427640598
30
0
41
1
10
56.6906896336291
20
-5.99307983681373
30
0
41
1
10
57.5070240589689
20
-5.99427604165925
30
0
41
1
10
58.1129372222425
20
-5.99312543408684
30
0
41
1
10
58.5364913250255
20
-5.99289437859417
30
0
41
1
10
58.7307127846566
20
-5.99275830999071
30
0
0
SPLINE
5
B4
100
AcDbEntity
8
1
62
256
6
ByLayer
370
18
48
1
60
0
100
AcDbSpline
70
4
71
3
72
12
73
8
40
0
40
0
40
0
40
0
40
0.0732756263980819
40
0.248748184726068
40
0.441774517546091
40
0.726182085099039
40
1
40
1
40
1
40
1
41
1
10
95.5730068244035
20
-1.55653646173784
30
0
41
1
10
95.5728871970731
20
-1.55653828097596
30
0
41
1
10
95.5748970572275
20
-1.55771562672808
30
0
41
1
10
95.5961057126935
20
-1.56840947471096
30
0
41
1
10
95.6602057243518
20
-1.60122396208308
30
0
41
1
10
95.7728759761745
20
-1.65984711511476
30
0
41
1
10
95.8637432863695
20
-1.70861079879774
30
0
41
1
10
95.9121998251438
20
-1.73483166224267
30
0
0
SPLINE
5
B5
100
AcDbEntity
8
1
62
256
6
ByLayer
370
18
48
1
60
0
100
AcDbSpline
70
4
71
3
72
26
73
22
40
0
40
0
40
0
40
0
40
0.0574465547956169
40
0.15788009968764
40
0.231976980924034
40
0.297424104611631
40
0.364557971849192
40
0.429961341983994
40
0.467469728607869
40
0.504621890231433
40
0.543832885257221
40
0.591184824175351
40
0.647136060948555
40
0.703052877384298
40
0.744998835669698
40
0.777292670195584
40
0.810734177039645
40
0.839547804502773
40
0.883110942138287
40
0.942872419977342
40
1
40
1
40
1
40
1
41
1
10
23.2933456870707
20
5.97548866246592
30
0
41
1
10
23.0438392456504
20
5.97554653906246
30
0
41
1
10
22.3579825760893
20
5.97560240918793
30
0
41
1
10
21.3490897080998
20
5.97210745890564
30
0
41
1
10
20.305809913988
20
5.97369678892926
30
0
41
1
10
19.4072044653728
20
5.97345582146048
30
0
41
1
10
18.5464200260288
20
5.97183422943888
30
0
41
1
10
17.807099103363
20
5.9717208780971
30
0
41
1
10
17.1981363188118
20
5.9711079321068
30
0
41
1
10
16.7030498670139
20
5.97081554909931
30
0
41
1
10
16.1651678614665
20
5.96920573671972
30
0
41
1
10
15.5455569090959
20
5.96694747986444
30
0
41
1
10
14.8533037977279
20
5.96701862574619
30
0
41
1
10
14.1845554481006
20
5.96717528777631
30
0
41
1
10
13.6186682936142
20
5.96734025083856
30
0
41
1
10
13.1504933886079
20
5.96730095160723
30
0
41
1
10
12.7394174493039
20
5.96711168156881
30
0
41
1
10
12.2793389309188
20
5.96670358004911
30
0
41
1
10
11.7048713110963
20
5.96586988878559
30
0
41
1
10
11.0072482202063
20
5.96424072053313
30
0
41
1
10
10.4990707477294
20
5.96278710053221
30
0
41
1
10
10.2507096113579
20
5.96199342447011
30
0
0
SPLINE
5
B6
100
AcDbEntity
8
1
62
256
6
ByLayer
370
18
48
1
60
0
100
AcDbSpline
70
4
71
2
72
6
73
3
40
0
40
0
40
0
40
1
40
1
40
1
41
1
10
111.635922136688
20
-6.0225558703967
30
0
41
1
10
112.221619997016
20
-6.01812858466488
30
0
41
1
10
112.807264686579
20
-6.02630473642188
30
0
0
SPLINE
5
B7
100
AcDbEntity
8
1
62
256
6
ByLayer
370
18
48
1
60
0
100
AcDbSpline
70
4
71
3
72
12
73
8
40
0
40
0
40
0
40
0
40
0.0088340479130622
40
0.150908305583631
40
0.389189703758088
40
0.723946261687969
40
1
40
1
40
1
40
1
41
1
10
60.1624351361501
20
-1.55177833874592
30
0
41
1
10
60.1625415593135
20
-1.55183499085999
30
0
41
1
10
60.1646339946391
20
-1.55293460030688
30
0
41
1
10
60.182454285997
20
-1.56174235668035
30
0
41
1
10
60.2623945554622
20
-1.60216459967259
30
0
41
1
10
60.3672739007752
20
-1.65695950946059
30
0
41
1
10
60.4542952111088
20
-1.70340530050637
30
0
41
1
10
60.4957037422684
20
-1.72570064180667
30
0
0
SPLINE
5
B8
100
AcDbEntity
8
1
62
256
6
ByLayer
370
18
48
1
60
0
100
AcDbSpline
70
4
71
3
72
29
73
25
40
0
40
0
40
0
40
0
40
0.0495476026942927
40
0.097315572673416
40
0.130830900344531
40
0.158668644836709
40
0.181627165478399
40
0.221438627277088
40
0.270076485013964
40
0.323072390817028
40
0.381007431365626
40
0.433980010301258
40
0.47845762200082
40
0.528568153849126
40
0.586937876789745
40
0.632426601206445
40
0.664484190863225
40
0.691580090473467
40
0.731665736072181
40
0.786320541881908
40
0.837343439801782
40
0.880857342220846
40
0.947474095212556
40
1
40
1
40
1
40
1
41
1
10
94.0541464548877
20
6.01201146005434
30
0
41
1
10
93.8097240341395
20
6.01282721791574
30
0
41
1
10
93.3296692517263
20
6.01406342205479
30
0
41
1
10
92.6841273212232
20
6.01517057863481
30
0
41
1
10
92.1459897864282
20
6.0148364725795
30
0
41
1
10
91.7300613205279
20
6.0137730389122
30
0
41
1
10
91.2830474158046
20
6.01248995009479
30
0
41
1
10
90.7334412226092
20
6.00743233752729
30
0
41
1
10
90.0356180882697
20
6.00707225965016
30
0
41
1
10
89.2483946323524
20
6.00824352801041
30
0
41
1
10
88.4397839414284
20
6.01025210526635
30
0
41
1
10
87.6731989406448
20
6.00688830395706
30
0
41
1
10
86.945209913388
20
6.00722046775272
30
0
41
1
10
86.1906044349876
20
6.00864791124002
30
0
41
1
10
85.4310036732376
20
6.00930983487137
30
0
41
1
10
84.7604668147625
20
6.00752096142222
30
0
41
1
10
84.2442236576844
20
6.00556653788811
30
0
41
1
10
83.7546272747939
20
6.00546835813589
30
0
41
1
10
83.1535737193683
20
6.00574024368305
30
0
41
1
10
82.4344547318071
20
6.00638638726073
30
0
41
1
10
81.6984196162034
20
6.00516022534782
30
0
41
1
10
80.903400282788
20
6.00355994245103
30
0
41
1
10
80.1009384640221
20
6.00381246968962
30
0
41
1
10
79.5131341499822
20
6.00387628443443
30
0
41
1
10
79.2540030881742
20
6.00373142103385
30
0
0
SPLINE
5
B9
100
AcDbEntity
8
1
62
256
6
ByLayer
370
18
48
1
60
0
100
AcDbSpline
70
4
71
3
72
8
73
4
40
0
40
0
40
0
40
0
40
1
40
1
40
1
40
1
41
1
10
9.9999999087934
20
-1.88225835197602
30
0
41
1
10
9.9999999087934
20
-1.87206178784822
30
0
41
1
10
9.9999999087934
20
-1.86185154494677
30
0
41
1
10
9.9999999087934
20
-1.85162765275737
30
0
0
SPLINE
5
BA
100
AcDbEntity
8
1
62
256
6
ByLayer
370
18
48
1
60
0
100
AcDbSpline
70
4
71
3
72
65
73
61
40
0
40
0
40
0
40
0
40
0.124999999999996
40
0.124999999999996
40
0.249999999999991
40
0.249999999999991
40
0.374999999999987
40
0.374999999999987
40
0.499999999999983
40
0.499999999999983
40
0.56249999999998
40
0.56249999999998
40
0.624999999999977
40
0.624999999999977
40
0.687499999999975
40
0.687499999999975
40
0.703124999999974
40
0.703124999999974
40
0.710937499999973
40
0.710937499999973
40
0.714843749999974
40
0.714843749999974
40
0.718749999999974
40
0.718749999999974
40
0.720703124999974
40
0.720703124999974
40
0.722656249999974
40
0.726562499999975
40
0.726562499999975
40
0.734374999999975
40
0.734374999999975
40
0.749999999999977
40
0.749999999999977
40
0.78124999999998
40
0.78124999999998
40
0.796874999999981
40
0.796874999999981
40
0.804687499999982
40
0.804687499999982
40
0.812499999999982
40
0.812499999999982
40
0.828124999999983
40
0.828124999999983
40
0.835937499999984
40
0.835937499999984
40
0.843749999999985
40
0.843749999999985
40
0.859374999999986
40
0.859374999999986
40
0.867187499999986
40
0.867187499999986
40
0.874999999999987
40
0.874999999999987
40
0.90624999999999
40
0.90624999999999
40
0.937499999999994
40
0.937499999999994
40
0.968749999999997
40
0.968749999999997
40
1
40
1
40
1
40
1
41
1
10
24.824421118163
20
-1.57893679895866
30
0
41
1
10
23.9963316169938
20
-1.1326388966998
30
0
41
1
10
23.1590092955272
20
-0.694713348521617
30
0
41
1
10
21.456781422271
20
0.142890093623407
30
0
41
1
10
20.6005369721683
20
0.537698734653389
30
0
41
1
10
18.86854462665
20
1.25524497702705
30
0
41
1
10
17.9925676925797
20
1.57782330145054
30
0
41
1
10
16.2122281657373
20
2.13325395839829
30
0
41
1
10
15.3078711320371
20
2.36618341479567
30
0
41
1
10
13.9259498729377
20
2.64193672268044
30
0
41
1
10
13.461102095237
20
2.72164451763223
30
0
41
1
10
12.5224710901808
20
2.85590663967301
30
0
41
1
10
12.0515359144039
20
2.91006371029368
30
0
41
1
10
11.1066780372129
20
2.99233968956025
30
0
41
1
10
10.6323348691368
20
3.02049291811537
30
0
41
1
10
10.0385881427054
20
3.03893249946864
30
0
41
1
10
9.9198041200554
20
3.04178154415823
30
0
41
1
10
9.74157535477119
20
3.0447829969126
30
0
41
1
10
9.68215849744095
20
3.04557136958465
30
0
41
1
10
9.59303704014533
20
3.04643363371142
30
0
41
1
10
9.56333055378462
20
3.04759073453613
30
0
41
1
10
9.50391283723533
20
3.04371159469841
30
0
41
1
10
9.47452168665185
20
3.03902918417083
30
0
41
1
10
9.43276671280961
20
3.02496759868629
30
0
41
1
10
9.41957098755344
20
3.01872170538363
30
0
41
1
10
9.39490454035422
20
3.00446739467526
30
0
41
1
10
9.35800112386519
20
2.98293827816616
30
0
41
1
10
9.32139248816645
20
2.96095601314406
30
0
41
1
10
9.24858570269794
20
2.91635774988691
30
0
41
1
10
9.2005434387718
20
2.88574642296143
30
0
41
1
10
9.05872545806463
20
2.79145582337014
30
0
41
1
10
8.96719326631546
20
2.72531432850954
30
0
41
1
10
8.70331911390559
20
2.51503068999068
30
0
41
1
10
8.54093774749276
20
2.35920272808133
30
0
41
1
10
8.33134777424991
20
2.08902779145697
30
0
41
1
10
8.26872472211522
20
1.99463342657376
30
0
41
1
10
8.18755459804129
20
1.84528847384257
30
0
41
1
10
8.16263182052705
20
1.79421039321346
30
0
41
1
10
8.1174720126711
20
1.68918826861602
30
0
41
1
10
8.09715098998501
20
1.63492854457255
30
0
41
1
10
8.04492618154089
20
1.47065299549979
30
0
41
1
10
8.02144013484551
20
1.35876461994724
30
0
41
1
10
8.00340398055627
20
1.18725269161666
30
0
41
1
10
8.00025983483116
20
1.12946832113585
30
0
41
1
10
7.99976990307675
20
1.01264532655404
30
0
41
1
10
8.00246771517087
20
0.953610545429882
30
0
41
1
10
8.01873445507573
20
0.778701778740071
30
0
41
1
10
8.04039349364885
20
0.663621643990041
30
0
41
1
10
8.08670203227584
20
0.492915762725204
30
0
41
1
10
8.10453616338845
20
0.436111283908957
30
0
41
1
10
8.14397530433476
20
0.324532734533477
30
0
41
1
10
8.16557297963351
20
0.269699048871388
30
0
41
1
10
8.28178629272966
20
-0.0002850568283748
30
0
41
1
10
8.40074718825289
20
-0.203510789161044
30
0
41
1
10
8.67121444295938
20
-0.591525109614395
30
0
41
1
10
8.81965444783015
20
-0.771874100514339
30
0
41
1
10
9.1333474470282
20
-1.11496195186595
30
0
41
1
10
9.2987470307269
20
-1.27755279095518
30
0
41
1
10
9.64177981864714
20
-1.58975187133169
30
0
41
1
10
9.81973815462356
20
-1.73946738384259
30
0
41
1
10
9.99999990873627
20
-1.88225835193174
30
0
0
SPLINE
5
BB
100
AcDbEntity
8
1
62
256
6
ByLayer
370
18
48
1
60
0
100
AcDbSpline
70
4
71
3
72
100
73
96
40
0
40
0
40
0
40
0
40
0.0290564565830345
40
0.0290564565830345
40
0.0451807978356047
40
0.0451807978356047
40
0.0613051390881749
40
0.0613051390881749
40
0.0935538215933168
40
0.0935538215933168
40
0.109678162845888
40
0.109678162845888
40
0.12580250409846
40
0.12580250409846
40
0.158051186603605
40
0.158051186603605
40
0.19029986910875
40
0.19029986910875
40
0.222548551613895
40
0.222548551613895
40
0.25479723411904
40
0.25479723411904
40
0.287045916624185
40
0.287045916624185
40
0.31929459912933
40
0.31929459912933
40
0.335418940381903
40
0.335418940381903
40
0.351543281634476
40
0.351543281634476
40
0.383791964139624
40
0.383791964139624
40
0.399916305392198
40
0.399916305392198
40
0.416040646644772
40
0.416040646644772
40
0.44828932914992
40
0.44828932914992
40
0.464413670402493
40
0.464413670402493
40
0.480538011655066
40
0.480538011655066
40
0.512786694160211
40
0.512786694160211
40
0.528911035412784
40
0.528911035412784
40
0.545035376665356
40
0.545035376665356
40
0.577284059170501
40
0.577284059170501
40
0.593408400423073
40
0.593408400423073
40
0.609532741675645
40
0.609532741675645
40
0.625657082928217
40
0.625657082928217
40
0.641781424180789
40
0.641781424180789
40
0.657905765433361
40
0.657905765433361
40
0.674030106685933
40
0.674030106685933
40
0.690154447938505
40
0.690154447938505
40
0.706278789191078
40
0.706278789191078
40
0.738527471696221
40
0.738527471696221
40
0.754651812948793
40
0.754651812948793
40
0.770776154201364
40
0.770776154201364
40
0.803024836706509
40
0.803024836706509
40
0.819149177959081
40
0.819149177959081
40
0.835273519211653
40
0.835273519211653
40
0.867522201716796
40
0.867522201716796
40
0.883646542969368
40
0.883646542969368
40
0.89977088422194
40
0.89977088422194
40
0.915895225474512
40
0.915895225474512
40
0.932019566727083
40
0.932019566727083
40
0.948143907979655
40
0.948143907979655
40
0.964268249232226
40
0.964268249232226
40
0.99651693173737
40
0.99651693173737
40
1
40
1
40
1
40
1
41
1
10
101.968966274605
20
-4.58821543328901
30
0
41
1
10
101.55261061499
20
-4.73203972255794
30
0
41
1
10
101.135062223149
20
-4.86655997619008
30
0
41
1
10
100.486716700493
20
-5.05978529138503
30
0
41
1
10
100.255588327908
20
-5.12557149017556
30
0
41
1
10
99.7939327945778
20
-5.2508804359432
30
0
41
1
10
99.5635022717358
20
-5.31047925165154
30
0
41
1
10
98.8715995574898
20
-5.47842718360215
30
0
41
1
10
98.4098684898959
20
-5.57599420179056
30
0
41
1
10
97.7163195829005
20
-5.69988662021922
30
0
41
1
10
97.4849566713825
20
-5.7372615083541
30
0
41
1
10
97.021835554929
20
-5.80388829616993
30
0
41
1
10
96.7906746130424
20
-5.8339844465952
30
0
41
1
10
96.0973716017544
20
-5.91415091656472
30
0
41
1
10
95.6350737325949
20
-5.95372795306224
30
0
41
1
10
94.7104620099139
20
-6.0043664534418
30
0
41
1
10
94.2481801657392
20
-6.0155987296335
30
0
41
1
10
93.3235513425668
20
-6.00696669308803
30
0
41
1
10
92.8599459551554
20
-5.98705266102911
30
0
41
1
10
91.9352134580095
20
-5.9147630058151
30
0
41
1
10
91.4732963998686
20
-5.86277066706754
30
0
41
1
10
90.5503636211792
20
-5.72484966135832
30
0
41
1
10
90.0883240295692
20
-5.6448789408995
30
0
41
1
10
89.161641863277
20
-5.45777681018524
30
0
41
1
10
88.6986893286662
20
-5.35100949944524
30
0
41
1
10
88.0062835598057
20
-5.16801200751377
30
0
41
1
10
87.7758365692619
20
-5.10249604850051
30
0
41
1
10
87.31434540941
20
-4.96743619615137
30
0
41
1
10
87.0834364292395
20
-4.89746396974712
30
0
41
1
10
86.3902559529684
20
-4.67869049663344
30
0
41
1
10
85.9270188552433
20
-4.52090146660359
30
0
41
1
10
85.2328497306901
20
-4.26511069435909
30
0
41
1
10
85.0020196962355
20
-4.17652281016856
30
0
41
1
10
84.5403884073933
20
-3.99376688232971
30
0
41
1
10
84.3095190025871
20
-3.90028074882326
30
0
41
1
10
83.6166995887999
20
-3.61465082735072
30
0
41
1
10
83.1546920496034
20
-3.41615361581737
30
0
41
1
10
82.4614532521253
20
-3.10429704093235
30
0
41
1
10
82.2304227981963
20
-2.99788329134279
30
0
41
1
10
81.7679960240266
20
-2.78029658514569
30
0
41
1
10
81.5364313471778
20
-2.66932697838558
30
0
41
1
10
80.8423490497604
20
-2.33417633307278
30
0
41
1
10
80.379892588495
20
-2.10613231538608
30
0
41
1
10
79.686783233993
20
-1.75611132819273
30
0
41
1
10
79.4558365488743
20
-1.63811115418559
30
0
41
1
10
78.9942235882661
20
-1.39899448417751
30
0
41
1
10
78.7633228300934
20
-1.2782407336264
30
0
41
1
10
78.0693641643327
20
-0.914602127057123
30
0
41
1
10
77.605159594898
20
-0.67010417271365
30
0
41
1
10
76.9110816027019
20
-0.302097302320647
30
0
41
1
10
76.6799220317239
20
-0.179154423870671
30
0
41
1
10
76.2181218340933
20
0.0674903839841647
30
0
41
1
10
75.9875173121088
20
0.19125928323291
30
0
41
1
10
75.5257008376277
20
0.437407410267269
30
0
41
1
10
75.2945819719515
20
0.559958695715693
30
0
41
1
10
74.831954276812
20
0.804164698033816
30
0
41
1
10
74.6004564961353
20
0.925823358029078
30
0
41
1
10
74.137088010521
20
1.16823704008084
30
0
41
1
10
73.9051711361055
20
1.28900262706242
30
0
41
1
10
73.4424013566382
20
1.52893905124827
30
0
41
1
10
73.2115288609218
20
1.64844814425888
30
0
41
1
10
72.7496898420214
20
1.884247338731
30
0
41
1
10
72.5187507243165
20
2.00051332055139
30
0
41
1
10
72.0566778798377
20
2.22991455846776
30
0
41
1
10
71.8255568113557
20
2.34331293906212
30
0
41
1
10
71.1320098730411
20
2.6791908301374
30
0
41
1
10
70.6693797799188
20
2.89794588457198
30
0
41
1
10
69.9750944307112
20
3.21579811083603
30
0
41
1
10
69.7438023958065
20
3.31931035696235
30
0
41
1
10
69.2813572285642
20
3.52093801184071
30
0
41
1
10
69.050203171081
20
3.61898191565794
30
0
41
1
10
68.3568203801414
20
3.9074937586449
30
0
41
1
10
67.8946912986228
20
4.09094810270093
30
0
41
1
10
67.2021345003642
20
4.35199285243462
30
0
41
1
10
66.9711007889415
20
4.43624740423019
30
0
41
1
10
66.508235468027
20
4.59833786601993
30
0
41
1
10
66.2763104087514
20
4.67612743594265
30
0
41
1
10
65.5815901551545
20
4.89927112457619
30
0
41
1
10
65.1189675975781
20
5.03726258541963
30
0
41
1
10
64.4263559785771
20
5.22582516341453
30
0
41
1
10
64.1957035728072
20
5.28563457005237
30
0
41
1
10
63.7337624205456
20
5.39775551299223
30
0
41
1
10
63.5025860684293
20
5.45018690141004
30
0
41
1
10
63.0397470273125
20
5.54731030736568
30
0
41
1
10
62.808069792039
20
5.5917462833311
30
0
41
1
10
62.3443215387303
20
5.67521862787552
30
0
41
1
10
62.1128503125213
20
5.71378516635983
30
0
41
1
10
61.6511668005749
20
5.78381991990881
30
0
41
1
10
61.4210261922367
20
5.8154490607252
30
0
41
1
10
60.9610702541738
20
5.87102513897665
30
0
41
1
10
60.7313141106658
20
5.89498847589357
30
0
41
1
10
60.0426435950357
20
5.95464755111135
30
0
41
1
10
59.5843677625535
20
5.97683257897214
30
0
41
1
10
59.0771364246643
20
5.98824776603004
30
0
41
1
10
59.0277046078591
20
5.98920142005267
30
0
41
1
10
58.9782820631335
20
5.98999358783479
30
0
0
SPLINE
5
BC
100
AcDbEntity
8
1
62
256
6
ByLayer
370
18
48
1
60
0
100
AcDbSpline
70
4
71
3
72
36
73
32
40
0
40
0
40
0
40
0
40
0.0851817196187991
40
0.0851817196187991
40
0.136004957417755
40
0.136004957417755
40
0.18682819521671
40
0.18682819521671
40
0.288474670814621
40
0.288474670814621
40
0.339297908613577
40
0.339297908613577
40
0.390121146412533
40
0.390121146412533
40
0.440944384211488
40
0.440944384211488
40
0.491767622010444
40
0.491767622010444
40
0.542590859809399
40
0.542590859809399
40
0.593414097608355
40
0.593414097608355
40
0.644237335407311
40
0.644237335407311
40
0.695060573206266
40
0.695060573206266
40
0.796707048804177
40
0.796707048804177
40
0.898353524402089
40
0.898353524402089
40
1
40
1
40
1
40
1
41
1
10
31.1707192646431
20
-4.56026771945477
30
0
41
1
10
30.7822321852458
20
-4.69306604768374
30
0
41
1
10
30.392951245447
20
-4.81827173207265
30
0
41
1
10
29.7731104516219
20
-5.00423858485911
30
0
41
1
10
29.5417271991258
20
-5.07073199979772
30
0
41
1
10
29.0796123686403
20
-5.19699680496976
30
0
41
1
10
28.8487332700663
20
-5.25627176905735
30
0
41
1
10
28.1553040992424
20
-5.4229289112929
30
0
41
1
10
27.6923762420247
20
-5.52181651496639
30
0
41
1
10
26.9971364529195
20
-5.64960510662138
30
0
41
1
10
26.7650453609813
20
-5.6888221490284
30
0
41
1
10
26.3016184418989
20
-5.76006122049782
30
0
41
1
10
26.0704168309162
20
-5.79209912045914
30
0
41
1
10
25.6078741827322
20
-5.84728356505215
30
0
41
1
10
25.3766219829309
20
-5.87034673934761
30
0
41
1
10
24.914006107526
20
-5.91066957449516
30
0
41
1
10
24.6826837034024
20
-5.92746437722784
30
0
41
1
10
24.2200221079833
20
-5.95379489459108
30
0
41
1
10
23.9886679600868
20
-5.96336599885959
30
0
41
1
10
23.5259744094359
20
-5.97503102256968
30
0
41
1
10
23.2947903291572
20
-5.97721334684735
30
0
41
1
10
22.8316489432808
20
-5.97329047025676
30
0
41
1
10
22.5995935041154
20
-5.96678080258059
30
0
41
1
10
22.1363432344185
20
-5.9462536047096
30
0
41
1
10
21.9049110442219
20
-5.93241520249478
30
0
41
1
10
21.21120174706
20
-5.88077346361013
30
0
41
1
10
20.7496182906943
20
-5.83250123777566
30
0
41
1
10
19.8279522588439
20
-5.70574161555021
30
0
41
1
10
19.3667029943063
20
-5.62686838533844
30
0
41
1
10
18.4424303479026
20
-5.44217981493304
30
0
41
1
10
17.9794257895755
20
-5.33661119626487
30
0
41
1
10
17.5155867372099
20
-5.21643773981842
30
0
0
SPLINE
5
BD
100
AcDbEntity
8
1
62
256
6
ByLayer
370
18
48
1
60
0
100
AcDbSpline
70
4
71
3
72
8
73
4
40
0
40
0
40
0
40
0
40
1
40
1
40
1
40
1
41
1
10
112.883404302652
20
-5.98594245834735
30
0
41
1
10
112.853853845595
20
-6.01057263906253
30
0
41
1
10
112.828634688105
20
-6.02298222867884
30
0
41
1
10
112.807816378223
20
-6.02297500012961
30
0
0
SPLINE
5
BE
100
AcDbEntity
8
1
62
256
6
ByLayer
370
18
48
1
60
0
100
AcDbSpline
70
4
71
3
72
22
73
18
40
0
40
0
40
0
40
0
40
0.0134881222415522
40
0.0134881222415522
40
0.327164551477953
40
0.327164551477953
40
0.405583658787055
40
0.405583658787055
40
0.484002766096156
40
0.484002766096156
40
0.640840980714361
40
0.640840980714361
40
0.797679195332567
40
0.797679195332567
40
0.954517409950773
40
0.954517409950773
40
1
40
1
40
1
40
1
41
1
10
22.9024878990689
20
0.0110556657306233
30
0
41
1
10
22.9482464276352
20
-0.0135829652743951
30
0
41
1
10
22.9940038808341
20
-0.0382205653210406
30
0
41
1
10
24.1038787370505
20
-0.635762116948655
30
0
41
1
10
25.1674566534595
20
-1.20802134558059
30
0
41
1
10
26.5084074862148
20
-1.89951139752972
30
0
41
1
10
26.7771663421621
20
-2.03662703078908
30
0
41
1
10
27.3161321861499
20
-2.30790500146381
30
0
41
1
10
27.5858616114639
20
-2.44182108141916
30
0
41
1
10
28.3934260278516
20
-2.83617667011592
30
0
41
1
10
28.9308248713887
20
-3.08972581403393
30
0
41
1
10
30.0060076832044
20
-3.57447701761979
30
0
41
1
10
30.5437907844249
20
-3.80562255976022
30
0
41
1
10
31.6222760980859
20
-4.24148491384446
30
0
41
1
10
32.1594289601113
20
-4.44465583644376
30
0
41
1
10
32.8492695513363
20
-4.68565158800834
30
0
41
1
10
33.0041953971336
20
-4.73845340724523
30
0
41
1
10
33.1589961395101
20
-4.78985526400862
30
0
0
SPLINE
5
BF
100
AcDbEntity
8
1
62
256
6
ByLayer
370
13
48
1
60
0
100
AcDbSpline
70
4
71
3
72
16
73
12
40
0
40
0
40
0
40
0
40
0.296155930526449
40
0.296155930526449
40
0.642536620211277
40
0.642536620211277
40
0.815726965053691
40
0.815726965053691
40
0.988917309896105
40
0.988917309896105
40
1
40
1
40
1
40
1
41
1
10
33.1589970887596
20
-4.78985557920856
30
0
41
1
10
34.0717989066297
20
-5.0929529836923
30
0
41
1
10
34.9802508582617
20
-5.34737344163563
30
0
41
1
10
36.9543215537134
20
-5.7826776459473
30
0
41
1
10
38.0205783815273
20
-5.9434049974725
30
0
41
1
10
39.637391144522
20
-6.06208157662411
30
0
41
1
10
40.1758177512019
20
-6.08090855849551
30
0
41
1
10
41.2509062905146
20
-6.076883447542
30
0
41
1
10
41.7880517839744
20
-6.05409026134598
30
0
41
1
10
42.3604551161474
20
-6.0079478625423
30
0
41
1
10
42.3948898607921
20
-6.00508719115606
30
0
41
1
10
42.4293319660435
20
-6.00214132946778
30
0
0
SPLINE
5
C0
100
AcDbEntity
8
1
62
256
6
ByLayer
370
18
48
1
60
0
100
AcDbSpline
70
4
71
3
72
16
73
12
40
0
40
0
40
0
40
0
40
0.165792135841612
40
0.165792135841612
40
0.253235268846358
40
0.253235268846358
40
0.340678401851103
40
0.340678401851103
40
0.690450933870086
40
0.690450933870086
40
1
40
1
40
1
40
1
41
1
10
93.7631491642203
20
-0.0212541774317287
30
0
41
1
10
94.2680859713498
20
-0.294984247606948
30
0
41
1
10
94.7742259390661
20
-0.569401277294645
30
0
41
1
10
95.5507022903331
20
-0.986730278743408
30
0
41
1
10
95.8198515398294
20
-1.13071352258964
30
0
41
1
10
96.357810881109
20
-1.41638933313425
30
0
41
1
10
96.6259251910492
20
-1.55772755337566
30
0
41
1
10
97.9631370299843
20
-2.25535218769153
30
0
41
1
10
99.0222358443416
20
-2.7841028676558
30
0
41
1
10
101.015863118242
20
-3.6986540758418
30
0
41
1
10
101.950586291369
20
-4.09407817041853
30
0
41
1
10
102.890769692473
20
-4.4450858527421
30
0
0
SPLINE
5
C1
100
AcDbEntity
8
1
62
256
6
ByLayer
370
13
48
1
60
0
100
AcDbSpline
70
4
71
3
72
22
73
18
40
0
40
0
40
0
40
0
40
0.0369178969951682
40
0.0369178969951682
40
0.197431580829308
40
0.197431580829308
40
0.277688422746382
40
0.277688422746382
40
0.357945264663455
40
0.357945264663455
40
0.678972632331734
40
0.678972632331734
40
0.839486316165871
40
0.839486316165871
40
0.919743158082935
40
0.919743158082935
40
1
40
1
40
1
40
1
41
1
10
102.890768757643
20
-4.44508550373311
30
0
41
1
10
103.012938505236
20
-4.49069631079945
30
0
41
1
10
103.135200448981
20
-4.5355571448475
30
0
41
1
10
103.789611774852
20
-4.77133290009942
30
0
41
1
10
104.323706602526
20
-4.9484113068014
30
0
41
1
10
105.129570760317
20
-5.18951659289132
30
0
41
1
10
105.399086994977
20
-5.26578777168268
30
0
41
1
10
105.93570465321
20
-5.40854383795426
30
0
41
1
10
106.203341278554
20
-5.47519010889579
30
0
41
1
10
107.539010417827
20
-5.78450975971552
30
0
41
1
10
108.599644845264
20
-5.95545663548415
30
0
41
1
10
110.193229818949
20
-6.09128513404141
30
0
41
1
10
110.72483880218
20
-6.11646829733979
30
0
41
1
10
111.524422610801
20
-6.12333323437696
30
0
41
1
10
111.791311532971
20
-6.1204713186041
30
0
41
1
10
112.326061780069
20
-6.10433151339902
30
0
41
1
10
112.593967290163
20
-6.09072887426638
30
0
41
1
10
112.862387113132
20
-6.07252651685602
30
0
0
SPLINE
5
C2
100
AcDbEntity
8
1
62
256
6
ByLayer
370
18
48
1
60
0
100
AcDbSpline
70
4
71
3
72
22
73
18
40
0
40
0
40
0
40
0
40
0.125000000000003
40
0.125000000000003
40
0.250000000000006
40
0.250000000000006
40
0.500000000000013
40
0.500000000000013
40
0.625000000000012
40
0.625000000000012
40
0.75000000000001
40
0.75000000000001
40
0.875000000000009
40
0.875000000000009
40
0.937500000000005
40
0.937500000000005
40
1
40
1
40
1
40
1
41
1
10
114.043841537102
20
-3.09340441265311
30
0
41
1
10
113.995771531909
20
-3.2223114349857
30
0
41
1
10
113.947657957231
20
-3.35112398298241
30
0
41
1
10
113.851413832689
20
-3.60869767785886
30
0
41
1
10
113.803268191578
20
-3.73741736469307
30
0
41
1
10
113.658728763234
20
-4.12327241976178
30
0
41
1
10
113.562230915649
20
-4.38024420791152
30
0
41
1
10
113.417135988262
20
-4.76383100050882
30
0
41
1
10
113.368690734585
20
-4.89128273926065
30
0
41
1
10
113.271801708101
20
-5.14619378964449
30
0
41
1
10
113.223346520407
20
-5.27356244608615
30
0
41
1
10
113.126377635748
20
-5.52777937109252
30
0
41
1
10
113.077846794338
20
-5.65471609304234
30
0
41
1
10
113.005037088649
20
-5.84398764042669
30
0
41
1
10
112.980766217064
20
-5.90687221815301
30
0
41
1
10
112.932221548089
20
-6.0320200043875
30
0
41
1
10
112.90794767935
20
-6.09426806012698
30
0
41
1
10
112.883673857079
20
-6.15652598445536
30
0
0
SPLINE
5
C3
100
AcDbEntity
8
1
62
256
6
ByLayer
370
18
48
1
60
0
100
AcDbSpline
70
4
71
3
72
12
73
8
40
0
40
0
40
0
40
0
40
0.25
40
0.25
40
0.5
40
0.5
40
1
40
1
40
1
40
1
41
1
10
10.1287059833417
20
5.65637266608289
30
0
41
1
10
10.1091386139456
20
5.6609410417891
30
0
41
1
10
10.0914427460323
20
5.66647142100675
30
0
41
1
10
10.0596881067234
20
5.67932114904684
30
0
41
1
10
10.0458031951022
20
5.68662769211355
30
0
41
1
10
10.0122015054207
20
5.70990356587569
30
0
41
1
10
9.99999990879326
20
5.72758416636142
30
0
41
1
10
9.99999990879326
20
5.74502622045822
30
0
0
SPLINE
5
C4
100
AcDbEntity
8
1
62
256
6
ByLayer
370
13
48
1
60
0
100
AcDbSpline
70
4
71
3
72
14
73
10
40
0
40
0
40
0
40
0
40
0.359774640965245
40
0.359774640965245
40
0.676777617298045
40
0.676777617298045
40
0.993780593630845
40
0.993780593630845
40
1
40
1
40
1
40
1
41
1
10
10.2504864418196
20
5.63029619428315
30
0
41
1
10
10.250526395245
20
5.70935714363628
30
0
41
1
10
10.250562895052
20
5.77453635391493
30
0
41
1
10
10.2506268850271
20
5.87107601273681
30
0
41
1
10
10.2506546023533
20
5.90492122844404
30
0
41
1
10
10.2507066399093
20
5.95014576898157
30
0
41
1
10
10.2507310221466
20
5.96162205192954
30
0
41
1
10
10.2507548781288
20
5.96203455614838
30
0
41
1
10
10.2507551075443
20
5.9620390361849
30
0
41
1
10
10.2507558639558
20
5.96203753989332
30
0
0
SPLINE
5
C5
100
AcDbEntity
8
1
62
256
6
ByLayer
370
18
48
1
60
0
100
AcDbSpline
70
4
71
3
72
18
73
14
40
0
40
0
40
0
40
0
40
0.0269829217139504
40
0.0269829217139504
40
0.144299339810773
40
0.144299339810773
40
0.261615757907597
40
0.261615757907597
40
0.496248594101243
40
0.496248594101243
40
0.730881430294889
40
0.730881430294889
40
1
40
1
40
1
40
1
41
1
10
76.2617441972602
20
-6.0012170612776
30
0
41
1
10
76.1999295403375
20
-6.00126306825916
30
0
41
1
10
76.138077491459
20
-6.00103712026521
30
0
41
1
10
75.8070944418897
20
-5.99836823661238
30
0
41
1
10
75.5377107173898
20
-5.99101474119254
30
0
41
1
10
75.0000764070714
20
-5.96614029763225
30
0
41
1
10
74.7315590659303
20
-5.9486335778339
30
0
41
1
10
73.9263341735628
20
-5.88109729746344
30
0
41
1
10
73.3898288165769
20
-5.81596464319446
30
0
41
1
10
72.314922632252
20
-5.64628290096769
30
0
41
1
10
71.7753071721754
20
-5.54128665858531
30
0
41
1
10
70.6241000829408
20
-5.27774642355123
30
0
41
1
10
70.0120604218868
20
-5.11357549200741
30
0
41
1
10
69.4014160080174
20
-4.92812009438464
30
0
0
SPLINE
5
C6
100
AcDbEntity
8
1
62
256
6
ByLayer
370
13
48
1
60
0
100
AcDbSpline
70
4
71
3
72
22
73
18
40
0
40
0
40
0
40
0
40
0.0899430487533333
40
0.0899430487533333
40
0.300824017352697
40
0.300824017352697
40
0.406264501652378
40
0.406264501652378
40
0.511704985952059
40
0.511704985952059
40
0.61714547025174
40
0.61714547025174
40
0.72258595455142
40
0.72258595455142
40
0.933466923150784
40
0.933466923150784
40
1
40
1
40
1
40
1
41
1
10
69.4014150516952
20
-4.92811980394538
30
0
41
1
10
68.9472709015559
20
-4.79019420875085
30
0
41
1
10
68.4938984746458
20
-4.6404959858088
30
0
41
1
10
66.9779632094905
20
-4.10332292007672
30
0
41
1
10
65.9150642237621
20
-3.66757678851647
30
0
41
1
10
64.3077245889353
20
-2.94217558135278
30
0
41
1
10
63.7684631610413
20
-2.68808314467324
30
0
41
1
10
62.6918438171241
20
-2.16455143358087
30
0
41
1
10
62.1539707323668
20
-1.89451770993449
30
0
41
1
10
61.0766328999992
20
-1.34237815179694
30
0
41
1
10
60.5385551015429
20
-1.06128222762843
30
0
41
1
10
59.4617671527557
20
-0.493942430623434
30
0
41
1
10
58.9225101827334
20
-0.206820215195336
30
0
41
1
10
57.3149370301156
20
0.648187590172398
30
0
41
1
10
56.2518885633258
20
1.21126435940687
30
0
41
1
10
54.853519392924
20
1.92207710846213
30
0
41
1
10
54.518081243427
20
2.09015755870684
30
0
41
1
10
54.1823100830512
20
2.255348110933
30
0
0
SPLINE
5
C7
100
AcDbEntity
8
1
62
256
6
ByLayer
370
18
48
1
60
0
100
AcDbSpline
70
4
71
3
72
14
73
10
40
0
40
0
40
0
40
0
40
0.291376368285654
40
0.291376368285654
40
0.769046305170972
40
0.769046305170972
40
0.888463789392304
40
0.888463789392304
40
1
40
1
40
1
40
1
41
1
10
111.631121595551
20
-6.02253696817778
30
0
41
1
10
110.980012638892
20
-6.02212358820728
30
0
41
1
10
110.331306642196
20
-5.99142277959265
30
0
41
1
10
108.620812936951
20
-5.83292659052529
30
0
41
1
10
107.560139276117
20
-5.65558676061227
30
0
41
1
10
106.22457175732
20
-5.34055868745287
30
0
41
1
10
105.956966562652
20
-5.27288501472839
30
0
41
1
10
105.438155962185
20
-5.1330838680139
30
0
41
1
10
105.186591546318
20
-5.06141084266082
30
0
41
1
10
104.935738307922
20
-4.98624195772027
30
0
0
SPLINE
5
C8
100
AcDbEntity
8
1
62
256
6
ByLayer
370
13
48
1
60
0
100
AcDbSpline
70
4
71
3
72
24
73
20
40
0
40
0
40
0
40
0
40
0.0034065068072688
40
0.0034065068072688
40
0.106637657595323
40
0.106637657595323
40
0.313099959171431
40
0.313099959171431
40
0.519562260747539
40
0.519562260747539
40
0.571177836141564
40
0.571177836141564
40
0.622793411535589
40
0.622793411535589
40
0.726024562323635
40
0.726024562323635
40
0.932486863899722
40
0.932486863899722
40
1
40
1
40
1
40
1
41
1
10
104.935738307988
20
-4.98624195773991
30
0
41
1
10
104.918012737069
20
-4.98093044009963
30
0
41
1
10
104.900290717056
20
-4.97560146765355
30
0
41
1
10
104.345648867107
20
-4.80824364138496
30
0
41
1
10
103.811768318065
20
-4.63035164303929
30
0
41
1
10
102.216061080123
20
-4.05426073794993
30
0
41
1
10
101.160080297873
20
-3.61359109582949
30
0
41
1
10
99.0448043832356
20
-2.64905455179675
30
0
41
1
10
97.9856507602231
20
-2.12497917202322
30
0
41
1
10
96.648566427099
20
-1.43565988171423
30
0
41
1
10
96.3804954526763
20
-1.29609300642804
30
0
41
1
10
95.8426678053291
20
-1.01418221737475
30
0
41
1
10
95.5737399864001
20
-0.87225989363202
30
0
41
1
10
94.7697885971668
20
-0.446245900375743
30
0
41
1
10
94.2362089979096
20
-0.161216018248808
30
0
41
1
10
92.6391521840606
20
0.690364199676736
30
0
41
1
10
91.5792894492141
20
1.25322820575917
30
0
41
1
10
90.1677722849354
20
1.97185186049555
30
0
41
1
10
89.8194921880293
20
2.14658328666172
30
0
41
1
10
89.4704067352546
20
2.31830212088738
30
0
0
SPLINE
5
C9
100
AcDbEntity
8
1
62
256
6
ByLayer
370
18
48
1
60
0
100
AcDbSpline
70
4
71
3
72
14
73
10
40
0
40
0
40
0
40
0
40
0.0381682643686742
40
0.0381682643686742
40
0.24448111757536
40
0.24448111757536
40
0.65710682398873
40
0.65710682398873
40
1
40
1
40
1
40
1
41
1
10
41.0503600386596
20
-5.97887240432365
30
0
41
1
10
40.950969859262
20
-5.97982888328869
30
0
41
1
10
40.8515738507506
20
-5.98008760835384
30
0
41
1
10
40.2148229209179
20
-5.97727004440264
30
0
41
1
10
39.6765966089861
20
-5.95441679438497
30
0
41
1
10
38.0606385796828
20
-5.82481030448031
30
0
41
1
10
36.9945756803233
20
-5.6584725915543
30
0
41
1
10
35.0463538577588
20
-5.22158971434459
30
0
41
1
10
34.1634253196087
20
-4.97372468581258
30
0
41
1
10
33.276643085321
20
-4.68101268130101
30
0
0
SPLINE
5
CA
100
AcDbEntity
8
1
62
256
6
ByLayer
370
13
48
1
60
0
100
AcDbSpline
70
4
71
3
72
26
73
22
40
0
40
0
40
0
40
0
40
0.0375632730572561
40
0.0375632730572561
40
0.148699151949129
40
0.148699151949129
40
0.259835030841003
40
0.259835030841003
40
0.370970909732876
40
0.370970909732876
40
0.426538849178813
40
0.426538849178813
40
0.48210678862475
40
0.48210678862475
40
0.704378546408494
40
0.704378546408494
40
0.926650304192238
40
0.926650304192238
40
0.982218243638175
40
0.982218243638175
40
1
40
1
40
1
40
1
41
1
10
33.2766430843878
20
-4.68101268099295
30
0
41
1
10
33.0963024613244
20
-4.62148525336059
30
0
41
1
10
32.9158024594321
20
-4.56010307167961
30
0
41
1
10
32.2004678272451
20
-4.30992911021599
30
0
41
1
10
31.6634421049572
20
-4.10708669440376
30
0
41
1
10
30.5854894656889
20
-3.67291955308278
30
0
41
1
10
30.0479417975863
20
-3.44306468626462
30
0
41
1
10
28.9732056252032
20
-2.96175730112938
30
0
41
1
10
28.4359876665939
20
-2.71042005221429
30
0
41
1
10
27.6287667497676
20
-2.32001360664108
30
0
41
1
10
27.3591611634953
20
-2.18752559495613
30
0
41
1
10
26.8204669415358
20
-1.91931259888193
30
0
41
1
10
26.551826862129
20
-1.78381318634123
30
0
41
1
10
25.2113826763475
20
-1.1008527746736
30
0
41
1
10
24.1479315851529
20
-0.536842938951963
30
0
41
1
10
22.0200024666774
20
0.590153251651657
30
0
41
1
10
20.955863197788
20
1.15378890195944
30
0
41
1
10
19.6132143414522
20
1.83487279190726
30
0
41
1
10
19.3437459931813
20
1.97016000358488
30
0
41
1
10
18.9881137895938
20
2.14631958422566
30
0
41
1
10
18.9019743071989
20
2.18880597877981
30
0
41
1
10
18.8159038536681
20
2.23106456283205
30
0
0
SPLINE
5
CB
100
AcDbEntity
8
1
62
256
6
ByLayer
370
18
48
1
60
0
100
AcDbSpline
70
2053
71
3
72
60
73
56
40
0
40
0
40
0
40
0
40
0.0312500000000026
40
0.0312500000000026
40
0.0625000000000051
40
0.0625000000000051
40
0.0937500000000077
40
0.0937500000000077
40
0.12500000000001
40
0.12500000000001
40
0.156250000000013
40
0.156250000000013
40
0.187500000000015
40
0.187500000000015
40
0.25000000000002
40
0.25000000000002
40
0.281250000000022
40
0.281250000000022
40
0.312500000000023
40
0.312500000000023
40
0.375000000000021
40
0.375000000000021
40
0.437500000000018
40
0.437500000000018
40
0.468750000000017
40
0.468750000000017
40
0.500000000000017
40
0.500000000000017
40
0.531250000000016
40
0.531250000000016
40
0.562500000000015
40
0.562500000000015
40
0.593750000000014
40
0.593750000000014
40
0.625000000000013
40
0.625000000000013
40
0.656250000000012
40
0.656250000000012
40
0.687500000000011
40
0.687500000000011
40
0.750000000000009
40
0.750000000000009
40
0.781250000000008
40
0.781250000000008
40
0.812500000000006
40
0.812500000000006
40
0.843750000000005
40
0.843750000000005
40
0.875000000000004
40
0.875000000000004
40
0.906250000000003
40
0.906250000000003
40
0.937500000000002
40
0.937500000000002
40
1
40
1
40
1
40
1
41
1
10
113.294200623281
20
-3.48932801311907
30
0
41
1
10
113.323093532096
20
-3.44808760184657
30
0
41
1
10
113.351389130697
20
-3.40389067905573
30
0
41
1
10
113.406681604496
20
-3.3090685310859
30
0
41
1
10
113.433979582702
20
-3.25781478438083
30
0
41
1
10
113.485331388412
20
-3.15093652814505
30
0
41
1
10
113.509323459485
20
-3.09559208629486
30
0
41
1
10
113.553414447868
20
-2.98049796484923
30
0
41
1
10
113.57296494759
20
-2.92199964814824
30
0
41
1
10
113.605433429825
20
-2.80703542430058
30
0
41
1
10
113.618690175471
20
-2.74906635728715
30
0
41
1
10
113.637050868901
20
-2.64077939644858
30
0
41
1
10
113.642415366266
20
-2.58943766953354
30
0
41
1
10
113.646954354351
20
-2.44883789190129
30
0
41
1
10
113.634535834538
20
-2.37500125330703
30
0
41
1
10
113.59981747716
20
-2.29665583994199
30
0
41
1
10
113.585450728979
20
-2.27562902749503
30
0
41
1
10
113.552863662221
20
-2.24391648417861
30
0
41
1
10
113.534539926784
20
-2.23297002310181
30
0
41
1
10
113.474026646907
20
-2.21370951530901
30
0
41
1
10
113.428031699848
20
-2.2191174430387
30
0
41
1
10
113.326786380985
20
-2.26209695070094
30
0
41
1
10
113.273359204799
20
-2.29885935920908
30
0
41
1
10
113.188942137331
20
-2.37729058534734
30
0
41
1
10
113.160256284103
20
-2.40729565926949
30
0
41
1
10
113.103266931622
20
-2.4737108380784
30
0
41
1
10
113.074751801468
20
-2.51030360603721
30
0
41
1
10
113.017676243019
20
-2.59098610804702
30
0
41
1
10
112.988796064561
20
-2.63563674138348
30
0
41
1
10
112.933037855106
20
-2.7305979958681
30
0
41
1
10
112.906096249981
20
-2.78088155302748
30
0
41
1
10
112.854390235427
20
-2.88795803219466
30
0
41
1
10
112.829906324789
20
-2.9443212165607
30
0
41
1
10
112.786019361423
20
-3.05872469121889
30
0
41
1
10
112.766113749924
20
-3.11823759127375
30
0
41
1
10
112.733551826821
20
-3.23383850731597
30
0
41
1
10
112.720543113524
20
-3.29087041697227
30
0
41
1
10
112.702039145396
20
-3.40037878392019
30
0
41
1
10
112.69677648568
20
-3.45114057221187
30
0
41
1
10
112.692115093354
20
-3.59229078542614
30
0
41
1
10
112.704399122412
20
-3.66696182797722
30
0
41
1
10
112.73873311594
20
-3.74611856231854
30
0
41
1
10
112.752918731322
20
-3.76743520877449
30
0
41
1
10
112.785477386672
20
-3.79993852985569
30
0
41
1
10
112.803712280755
20
-3.81111046109785
30
0
41
1
10
112.843679077707
20
-3.82437058297253
30
0
41
1
10
112.865536731732
20
-3.82638154472497
30
0
41
1
10
112.911355973168
20
-3.82171614364646
30
0
41
1
10
112.935439386281
20
-3.81511651917808
30
0
41
1
10
112.985867352635
20
-3.79369766261479
30
0
41
1
10
113.012363234101
20
-3.77873261975944
30
0
41
1
10
113.066161767786
20
-3.7413682551946
30
0
41
1
10
113.093610297564
20
-3.71894272691873
30
0
41
1
10
113.177632830086
20
-3.64023741071099
30
0
41
1
10
113.236414805651
20
-3.57180883566406
30
0
41
1
10
113.294200623281
20
-3.48932801311907
30
0
0
SPLINE
5
CC
100
AcDbEntity
8
1
62
256
6
ByLayer
370
18
48
1
60
0
100
AcDbSpline
70
4
71
3
72
24
73
20
40
0
40
0
40
0
40
0
40
0.125
40
0.125
40
0.1875
40
0.1875
40
0.25
40
0.25
40
0.499999999999997
40
0.499999999999997
40
0.562499999999998
40
0.562499999999998
40
0.624999999999999
40
0.624999999999999
40
0.749999999999999
40
0.749999999999999
40
0.875
40
0.875
40
1
40
1
40
1
40
1
41
1
10
112.807816378218
20
-6.02297500012961
30
0
41
1
10
112.720487810129
20
-6.02294496980366
30
0
41
1
10
112.637344087946
20
-6.0102905781315
30
0
41
1
10
112.519221720693
20
-5.97141933557111
30
0
41
1
10
112.480949139634
20
-5.95513925156024
30
0
41
1
10
112.406696634481
20
-5.91566285995131
30
0
41
1
10
112.370601513753
20
-5.89236245290817
30
0
41
1
10
112.198223228296
20
-5.75941981853023
30
0
41
1
10
112.084944983885
20
-5.60113264090171
30
0
41
1
10
111.97563317045
20
-5.33518219117178
30
0
41
1
10
111.95540600416
20
-5.27854345579595
30
0
41
1
10
111.91835162573
20
-5.15809544800518
30
0
41
1
10
111.9014855342
20
-5.09404341251962
30
0
41
1
10
111.856889303574
20
-4.89384918927615
30
0
41
1
10
111.834870012133
20
-4.74906359496808
30
0
41
1
10
111.806005661746
20
-4.43721219723227
30
0
41
1
10
111.799159944462
20
-4.2701473604387
30
0
41
1
10
111.801062108479
20
-3.91312172572381
30
0
41
1
10
111.809960955239
20
-3.7224306360423
30
0
41
1
10
111.826598306975
20
-3.52484476941677
30
0
0
SPLINE
5
CD
100
AcDbEntity
8
1
62
256
6
ByLayer
370
18
48
1
60
0
100
AcDbSpline
70
4
71
3
72
106
73
102
40
0
40
0
40
0
40
0
40
0.0107685914330937
40
0.0107685914330937
40
0.026792692099034
40
0.026792692099034
40
0.0428167927649743
40
0.0428167927649743
40
0.0588408934309146
40
0.0588408934309146
40
0.074864994096855
40
0.074864994096855
40
0.0908890947627953
40
0.0908890947627953
40
0.122937296094676
40
0.122937296094676
40
0.138961396760616
40
0.138961396760616
40
0.154985497426557
40
0.154985497426557
40
0.187033698758437
40
0.187033698758437
40
0.203057799424376
40
0.203057799424376
40
0.219081900090316
40
0.219081900090316
40
0.251130101422194
40
0.251130101422194
40
0.267154202088133
40
0.267154202088133
40
0.283178302754073
40
0.283178302754073
40
0.315226504085951
40
0.315226504085951
40
0.33125060475189
40
0.33125060475189
40
0.347274705417829
40
0.347274705417829
40
0.379322906749706
40
0.379322906749706
40
0.395347007415645
40
0.395347007415645
40
0.411371108081584
40
0.411371108081584
40
0.427395208747523
40
0.427395208747523
40
0.443419309413461
40
0.443419309413461
40
0.475467510745339
40
0.475467510745339
40
0.491491611411278
40
0.491491611411278
40
0.507515712077217
40
0.507515712077217
40
0.539563913409094
40
0.539563913409094
40
0.555588014075034
40
0.555588014075034
40
0.571612114740973
40
0.571612114740973
40
0.603660316072851
40
0.603660316072851
40
0.61968441673879
40
0.61968441673879
40
0.635708517404729
40
0.635708517404729
40
0.667756718736606
40
0.667756718736606
40
0.683780819402544
40
0.683780819402544
40
0.699804920068483
40
0.699804920068483
40
0.715829020734422
40
0.715829020734422
40
0.731853121400361
40
0.731853121400361
40
0.763901322732239
40
0.763901322732239
40
0.779925423398178
40
0.779925423398178
40
0.795949524064117
40
0.795949524064117
40
0.827997725395995
40
0.827997725395995
40
0.860045926727874
40
0.860045926727874
40
0.876070027393813
40
0.876070027393813
40
0.892094128059752
40
0.892094128059752
40
0.908118228725691
40
0.908118228725691
40
0.92414232939163
40
0.92414232939163
40
0.940166430057569
40
0.940166430057569
40
0.956190530723509
40
0.956190530723509
40
0.988238732055387
40
0.988238732055387
40
1
40
1
40
1
40
1
41
1
10
23.2960749388635
20
5.97584498877154
30
0
41
1
10
23.4512122037914
20
5.97533411660811
30
0
41
1
10
23.6063356974563
20
5.97303556951249
30
0
41
1
10
23.9926492722317
20
5.96321911019209
30
0
41
1
10
24.2238634496615
20
5.95361591501558
30
0
41
1
10
24.6865576883699
20
5.92720360364169
30
0
41
1
10
24.9180544530883
20
5.91035775397435
30
0
41
1
10
25.381311650703
20
5.8698961495673
30
0
41
1
10
25.6132252840721
20
5.84671465410793
30
0
41
1
10
26.0762304345464
20
5.79133431019784
30
0
41
1
10
26.307213124585
20
5.75925121296328
30
0
41
1
10
26.769426185339
20
5.68809760689805
30
0
41
1
10
27.000575243631
20
5.64900075322214
30
0
41
1
10
27.6939980418075
20
5.52146247979323
30
0
41
1
10
28.1563447830288
20
5.42269813266671
30
0
41
1
10
28.8497372975318
20
5.25602076309667
30
0
41
1
10
29.0807703984751
20
5.19669476856649
30
0
41
1
10
29.5435815142704
20
5.07021087167999
30
0
41
1
10
29.7754496470563
20
5.00355613499394
30
0
41
1
10
30.4700816930776
20
4.79509176684525
30
0
41
1
10
30.9326831408012
20
4.64434718339481
30
0
41
1
10
31.6258425076728
20
4.40203173316419
30
0
41
1
10
31.8567371022534
20
4.31874078890161
30
0
41
1
10
32.318381596813
20
4.14563350721463
30
0
41
1
10
32.5494659175153
20
4.05607734774307
30
0
41
1
10
33.2437391518054
20
3.78005143063129
30
0
41
1
10
33.7081488127613
20
3.58582122893071
30
0
41
1
10
34.4024173075596
20
3.28249152773125
30
0
41
1
10
34.6335837678083
20
3.17937876944887
30
0
41
1
10
35.0954360440489
20
2.96893655471001
30
0
41
1
10
35.3261794383774
20
2.86156613348317
30
0
41
1
10
36.0193297793619
20
2.53478539429693
30
0
41
1
10
36.4820401883906
20
2.31026868977543
30
0
41
1
10
37.1769928379086
20
1.96495269800619
30
0
41
1
10
37.4089249357935
20
1.84830652126399
30
0
41
1
10
37.871885911975
20
1.61276738389307
30
0
41
1
10
38.1029060433804
20
1.49364925107807
30
0
41
1
10
38.7963186826841
20
1.13504824579411
30
0
41
1
10
39.2586098443184
20
0.893438712330294
30
0
41
1
10
39.9522049666331
20
0.528134299739804
30
0
41
1
10
40.183427676857
20
0.405868004918659
30
0
41
1
10
40.6458816323217
20
0.160315646246147
30
0
41
1
10
40.8769956773064
20
0.036823055820264
30
0
41
1
10
41.339929563345
20
-0.209898528572808
30
0
41
1
10
41.5716648560773
20
-0.332874112180377
30
0
41
1
10
42.0344954250083
20
-0.577566757706478
30
0
41
1
10
42.2657623390547
20
-0.699367569497014
30
0
41
1
10
42.9592685581902
20
-1.06313805133885
30
0
41
1
10
43.4211380988927
20
-1.30358657719884
30
0
41
1
10
44.1133831872155
20
-1.66147637377716
30
0
41
1
10
44.344382400063
20
-1.7796901998598
30
0
41
1
10
44.8070856268529
20
-2.01287602016046
30
0
41
1
10
45.0388986191208
20
-2.12810102536338
30
0
41
1
10
45.734215072219
20
-2.46915388635438
30
0
41
1
10
46.1967933234632
20
-2.68996504420389
30
0
41
1
10
46.8893671810166
20
-3.0131575718294
30
0
41
1
10
47.1201161784394
20
-3.11946436552927
30
0
41
1
10
47.5821124604038
20
-3.32787611840831
30
0
41
1
10
47.8132435606414
20
-3.42957327238761
30
0
41
1
10
48.5071330352719
20
-3.72701265108051
30
0
41
1
10
48.9711192245224
20
-3.91570344955665
30
0
41
1
10
49.6653623643477
20
-4.18470636814027
30
0
41
1
10
49.8963752248097
20
-4.27210519671164
30
0
41
1
10
50.3587465929442
20
-4.44153027018655
30
0
41
1
10
50.5899683444731
20
-4.52418991168403
30
0
41
1
10
51.283538638177
20
-4.76121215570905
30
0
41
1
10
51.7459765884011
20
-4.90554473175089
30
0
41
1
10
52.4398898907374
20
-5.10464578205261
30
0
41
1
10
52.671119953202
20
-5.16813807287394
30
0
41
1
10
53.134416524237
20
-5.28886804992422
30
0
41
1
10
53.3659140433213
20
-5.34592303650635
30
0
41
1
10
53.8279990638627
20
-5.45368473253495
30
0
41
1
10
54.058612867731
20
-5.50399277818394
30
0
41
1
10
54.5189555647947
20
-5.59603867944816
30
0
41
1
10
54.7487354999651
20
-5.63828650946516
30
0
41
1
10
55.4369803285196
20
-5.75445614077481
30
0
41
1
10
55.8941399002797
20
-5.81773127314904
30
0
41
1
10
56.580745327608
20
-5.89288320223807
30
0
41
1
10
56.8096013678347
20
-5.91499022611686
30
0
41
1
10
57.2673170991373
20
-5.95062017121163
30
0
41
1
10
57.4961974795623
20
-5.96424454712434
30
0
41
1
10
58.1829445541302
20
-5.99353567078313
30
0
41
1
10
58.6404749550774
20
-5.99752990594118
30
0
41
1
10
59.5593019535511
20
-5.97791081466448
30
0
41
1
10
60.0199754400741
20
-5.95614592602286
30
0
41
1
10
60.7139466272293
20
-5.89671154858942
30
0
41
1
10
60.9459670833031
20
-5.87269439269718
30
0
41
1
10
61.4088512862752
20
-5.81706688564492
30
0
41
1
10
61.6398557855393
20
-5.78542594658367
30
0
41
1
10
62.1021822147724
20
-5.71550814783748
30
0
41
1
10
62.333380006931
20
-5.67708615336625
30
0
41
1
10
62.7957363520735
20
-5.59406313616296
30
0
41
1
10
63.0268900978205
20
-5.54985598276633
30
0
41
1
10
63.489210476575
20
-5.45313753037345
30
0
41
1
10
63.7203761868274
20
-5.40086068051409
30
0
41
1
10
64.1827631287275
20
-5.28891136850783
30
0
41
1
10
64.413874171844
20
-5.22911988960843
30
0
41
1
10
65.1084799286284
20
-5.04031697662279
30
0
41
1
10
65.572283587746
20
-4.90209176354657
30
0
41
1
10
66.2047520818422
20
-4.69917139219311
30
0
41
1
10
66.3744409914425
20
-4.64287774582564
30
0
41
1
10
66.5440548178173
20
-4.58484415026825
30
0
0
SPLINE
5
CE
100
AcDbEntity
8
1
62
256
6
ByLayer
370
18
48
1
60
0
100
AcDbSpline
70
4
71
3
72
30
73
26
40
0
40
0
40
0
40
0
40
0.0921496088864679
40
0.0921496088864679
40
0.205630907775666
40
0.205630907775666
40
0.262371557220262
40
0.262371557220262
40
0.319112206664858
40
0.319112206664858
40
0.432593505554052
40
0.432593505554052
40
0.489334154998646
40
0.489334154998646
40
0.546074804443239
40
0.546074804443239
40
0.659556103332427
40
0.659556103332427
40
0.716296752777021
40
0.716296752777021
40
0.773037402221615
40
0.773037402221615
40
0.886518701110808
40
0.886518701110808
40
1
40
1
40
1
40
1
41
1
10
94.0445235186883
20
6.01208439674701
30
0
41
1
10
94.4193544766385
20
6.01092236796413
30
0
41
1
10
94.7945144291638
20
5.99971691813886
30
0
41
1
10
95.6324358301963
20
5.95392895426667
30
0
41
1
10
96.0958977642408
20
5.91429760566285
30
0
41
1
10
96.7896267243728
20
5.83411743319377
30
0
41
1
10
97.0205316256959
20
5.80405708137206
30
0
41
1
10
97.4826000736115
20
5.73761919540604
30
0
41
1
10
97.7135926107683
20
5.70034183201759
30
0
41
1
10
98.4064810191171
20
5.57666256118901
30
0
41
1
10
98.8683472039955
20
5.47916364560615
30
0
41
1
10
99.5612896958482
20
5.31104259475404
30
0
41
1
10
99.7922028086143
20
5.25134016747444
30
0
41
1
10
100.255094083868
20
5.1257154427972
30
0
41
1
10
100.486725199167
20
5.05978255749199
30
0
41
1
10
101.180785945447
20
4.85293341494065
30
0
41
1
10
101.642967304251
20
4.7028223530192
30
0
41
1
10
102.335499963922
20
4.46008824313185
30
0
41
1
10
102.566115988009
20
4.37612039896257
30
0
41
1
10
103.027725222691
20
4.20320786557321
30
0
41
1
10
103.258834928067
20
4.11439495574777
30
0
41
1
10
103.952923479741
20
3.84010006863232
30
0
41
1
10
104.416805396827
20
3.6467299366663
30
0
41
1
10
105.341073200935
20
3.2421849670171
30
0
41
1
10
105.801850482977
20
3.0303038340773
30
0
41
1
10
106.263655923513
20
2.81291066666063
30
0
0
SPLINE
5
CF
100
AcDbEntity
8
1
62
256
6
ByLayer
370
18
48
1
60
0
100
AcDbSpline
70
4
71
3
72
40
73
36
40
0
40
0
40
0
40
0
40
0.0928851279607511
40
0.0928851279607511
40
0.185770255921502
40
0.185770255921502
40
0.232212819901879
40
0.232212819901879
40
0.278655383882255
40
0.278655383882255
40
0.371540511843009
40
0.371540511843009
40
0.417983075823385
40
0.417983075823385
40
0.464425639803762
40
0.464425639803762
40
0.510868203784138
40
0.510868203784138
40
0.557310767764515
40
0.557310767764515
40
0.603753331744892
40
0.603753331744892
40
0.650195895725268
40
0.650195895725268
40
0.743081023686022
40
0.743081023686022
40
0.789523587666399
40
0.789523587666399
40
0.835966151646777
40
0.835966151646777
40
0.928851279607532
40
0.928851279607532
40
0.97529384358791
40
0.97529384358791
40
1
40
1
40
1
40
1
41
1
10
24.8244360187909
20
-1.57890269323198
30
0
41
1
10
25.2856554395009
20
-1.82913237502265
30
0
41
1
10
25.7462840887172
20
-2.07088624229274
30
0
41
1
10
26.6646652298216
20
-2.54169832288275
30
0
41
1
10
27.1224162218836
20
-2.7707368666114
30
0
41
1
10
27.8060173465339
20
-3.10599975456753
30
0
41
1
10
28.033506757549
20
-3.21613584085063
30
0
41
1
10
28.489412859296
20
-3.43056865730804
30
0
41
1
10
28.7175674116482
20
-3.53529473157664
30
0
41
1
10
29.4022758415444
20
-3.84264773505328
30
0
41
1
10
29.8590707345421
20
-4.03849508515847
30
0
41
1
10
30.5438397081895
20
-4.31962511197293
30
0
41
1
10
30.7718021907989
20
-4.41149806707307
30
0
41
1
10
31.2292812492371
20
-4.58866146921935
30
0
41
1
10
31.4587012232754
20
-4.67410466127942
30
0
41
1
10
31.9185983563037
20
-4.83914963556208
30
0
41
1
10
32.1490834714402
20
-4.91874039372482
30
0
41
1
10
32.6109541073385
20
-5.07221935610829
30
0
41
1
10
32.8425386043937
20
-5.14615630212381
30
0
41
1
10
33.3035171143409
20
-5.28744788130948
30
0
41
1
10
33.5331025246216
20
-5.35506190565903
30
0
41
1
10
33.9913999740493
20
-5.48323720122465
30
0
41
1
10
34.2205536219451
20
-5.54340508731767
30
0
41
1
10
34.9076161937067
20
-5.71292840748433
30
0
41
1
10
35.3650950384454
20
-5.81139848373309
30
0
41
1
10
36.0494418935524
20
-5.93820509279024
30
0
41
1
10
36.2772456402327
20
-5.97697017858906
30
0
41
1
10
36.7321176806569
20
-6.04738911125682
30
0
41
1
10
36.9595763442305
20
-6.07882558496505
30
0
41
1
10
37.6435144396583
20
-6.16136151735594
30
0
41
1
10
38.1007352330664
20
-6.20118032615258
30
0
41
1
10
38.7873332416057
20
-6.23838111608143
30
0
41
1
10
39.0163338488328
20
-6.24700436623553
30
0
41
1
10
39.3672691542544
20
-6.25427368458546
30
0
41
1
10
39.4891143222204
20
-6.25569033477387
30
0
41
1
10
39.6111063943583
20
-6.25599387512418
30
0
0
SPLINE
5
D0
100
AcDbEntity
8
1
62
256
6
ByLayer
370
18
48
1
60
0
100
AcDbSpline
70
4
71
3
72
102
73
98
40
0
40
0
40
0
40
0
40
0.0208411384141226
40
0.0208411384141226
40
0.0521802886656348
40
0.0521802886656348
40
0.067849863791391
40
0.067849863791391
40
0.0835194389171469
40
0.0835194389171469
40
0.11485858916866
40
0.11485858916866
40
0.130528164294416
40
0.130528164294416
40
0.146197739420173
40
0.146197739420173
40
0.177536889671687
40
0.177536889671687
40
0.193206464797443
40
0.193206464797443
40
0.2088760399232
40
0.2088760399232
40
0.240215190174712
40
0.240215190174712
40
0.255884765300468
40
0.255884765300468
40
0.271554340426224
40
0.271554340426224
40
0.302893490677736
40
0.302893490677736
40
0.318563065803492
40
0.318563065803492
40
0.334232640929248
40
0.334232640929248
40
0.36557179118076
40
0.36557179118076
40
0.381241366306517
40
0.381241366306517
40
0.396910941432274
40
0.396910941432274
40
0.428250091683787
40
0.428250091683787
40
0.459589241935301
40
0.459589241935301
40
0.475258817061058
40
0.475258817061058
40
0.490928392186814
40
0.490928392186814
40
0.52226754243833
40
0.52226754243833
40
0.537937117564086
40
0.537937117564086
40
0.553606692689843
40
0.553606692689843
40
0.584945842941357
40
0.584945842941357
40
0.600615418067113
40
0.600615418067113
40
0.616284993192869
40
0.616284993192869
40
0.647624143444379
40
0.647624143444379
40
0.663293718570135
40
0.663293718570135
40
0.67896329369589
40
0.67896329369589
40
0.710302443947401
40
0.710302443947401
40
0.725972019073156
40
0.725972019073156
40
0.741641594198912
40
0.741641594198912
40
0.757311169324667
40
0.757311169324667
40
0.772980744450423
40
0.772980744450423
40
0.788650319576178
40
0.788650319576178
40
0.804319894701933
40
0.804319894701933
40
0.835659044953443
40
0.835659044953443
40
0.851328620079198
40
0.851328620079198
40
0.866998195204953
40
0.866998195204953
40
0.898337345456465
40
0.898337345456465
40
0.914006920582221
40
0.914006920582221
40
0.929676495707976
40
0.929676495707976
40
0.961015645959485
40
0.961015645959485
40
0.992354796210995
40
0.992354796210995
40
1
40
1
40
1
40
1
41
1
10
66.5517234527554
20
4.56949294632304
30
0
41
1
10
66.8551484575085
20
4.68548621122073
30
0
41
1
10
67.1586594785361
20
4.79576954995247
30
0
41
1
10
67.9183200283649
20
5.05856900497909
30
0
41
1
10
68.3742576038819
20
5.20447208136542
30
0
41
1
10
69.0568294734619
20
5.40577965223039
30
0
41
1
10
69.2842382829134
20
5.46980996474454
30
0
41
1
10
69.7405698940894
20
5.59017873105969
30
0
41
1
10
69.9692247170354
20
5.64678174116949
30
0
41
1
10
70.6562913417955
20
5.80622033999231
30
0
41
1
10
71.1157986528181
20
5.89875277941948
30
0
41
1
10
71.806425235313
20
6.01664819832391
30
0
41
1
10
72.0368812673026
20
6.05255791052005
30
0
41
1
10
72.4978790554665
20
6.11602478513177
30
0
41
1
10
72.7285049815326
20
6.14371829340962
30
0
41
1
10
73.420306052646
20
6.21515508076635
30
0
41
1
10
73.8814201059608
20
6.2473189809574
30
0
41
1
10
74.5719387022553
20
6.27236183701811
30
0
41
1
10
74.8017550067586
20
6.27681827513746
30
0
41
1
10
75.2617452791116
20
6.27772219997689
30
0
41
1
10
75.4923508489127
20
6.27419385679977
30
0
41
1
10
76.1854953876713
20
6.25188112145491
30
0
41
1
10
76.6468978498126
20
6.22148532890338
30
0
41
1
10
77.334777298601
20
6.15293016272443
30
0
41
1
10
77.563474690888
20
6.1262225688732
30
0
41
1
10
78.0196189142954
20
6.0649596093011
30
0
41
1
10
78.2475213180516
20
6.03059390873133
30
0
41
1
10
78.9318703079154
20
5.91717646337537
30
0
41
1
10
79.3882664386186
20
5.82756341540249
30
0
41
1
10
80.0720010262941
20
5.67163975659506
30
0
41
1
10
80.2997740425596
20
5.61606504447226
30
0
41
1
10
80.7549102075447
20
5.49745509780644
30
0
41
1
10
80.9821737746738
20
5.43429545661769
30
0
41
1
10
81.6662645032924
20
5.23619168599976
30
0
41
1
10
82.1243451775689
20
5.09186389925347
30
0
41
1
10
82.8132381292359
20
4.85565475151839
30
0
41
1
10
83.0431767340696
20
4.77362447905395
30
0
41
1
10
83.503545546315
20
4.60261483032025
30
0
41
1
10
83.7340163899007
20
4.51319071991065
30
0
41
1
10
84.4252182911891
20
4.23792308898516
30
0
41
1
10
84.8865859542476
20
4.04566548616589
30
0
41
1
10
85.8084498966527
20
3.64158025313859
30
0
41
1
10
86.2688215042118
20
3.4295318699005
30
0
41
1
10
86.9584995406914
20
3.09586747111072
30
0
41
1
10
87.1889052308275
20
2.98306661798344
30
0
41
1
10
87.6507781813013
20
2.75445894598974
30
0
41
1
10
87.8819476679728
20
2.63866033109829
30
0
41
1
10
88.5732162047866
20
2.28767476815642
30
0
41
1
10
89.0320908567853
20
2.04838922961841
30
0
41
1
10
89.7165788058511
20
1.6799554500831
30
0
41
1
10
89.9442927353885
20
1.55589012790455
30
0
41
1
10
90.4003801097283
20
1.30805488391837
30
0
41
1
10
90.628498642795
20
1.18383134844052
30
0
41
1
10
91.3127335647199
20
0.809644110197695
30
0
41
1
10
91.7687269791548
20
0.558167507208481
30
0
41
1
10
92.4515566348821
20
0.176202314151965
30
0
41
1
10
92.6787608199855
20
0.0476928156199392
30
0
41
1
10
93.1345362619674
20
-0.20770127466966
30
0
41
1
10
93.3629778624118
20
-0.334819803796165
30
0
41
1
10
94.0495131306942
20
-0.715257567302899
30
0
41
1
10
94.5088260241367
20
-0.967634339311189
30
0
41
1
10
95.1993285981214
20
-1.34610372543477
30
0
41
1
10
95.4298883565772
20
-1.47269300284944
30
0
41
1
10
95.8904620666328
20
-1.72352642399054
30
0
41
1
10
96.1209347897355
20
-1.84701628934266
30
0
41
1
10
96.8124303869824
20
-2.21268737054811
30
0
41
1
10
97.2735117888871
20
-2.45013062785688
30
0
41
1
10
97.9641839546115
20
-2.79857801668015
30
0
41
1
10
98.1942402749411
20
-2.91344711243403
30
0
41
1
10
98.6539718293181
20
-3.14061452834841
30
0
41
1
10
98.8841281113394
20
-3.25214490496896
30
0
41
1
10
99.3457650541931
20
-3.46999178954746
30
0
41
1
10
99.5769587202728
20
-3.57651369283181
30
0
41
1
10
100.037839527869
20
-3.78423132384401
30
0
41
1
10
100.267807969874
20
-3.88555927143079
30
0
41
1
10
100.726648440861
20
-4.08341943448139
30
0
41
1
10
100.955519087789
20
-4.17995312943702
30
0
41
1
10
101.412024468335
20
-4.36834486196693
30
0
41
1
10
101.639607970145
20
-4.46023916081407
30
0
41
1
10
102.323466735856
20
-4.72505253368121
30
0
41
1
10
102.779753136976
20
-4.8887067262196
30
0
41
1
10
103.463517359842
20
-5.11669460910596
30
0
41
1
10
103.691337502857
20
-5.18974593289687
30
0
41
1
10
104.146631932621
20
-5.33000225013058
30
0
41
1
10
104.373866942947
20
-5.39741861484848
30
0
41
1
10
105.057072842624
20
-5.58877932565588
30
0
41
1
10
105.514826312012
20
-5.7017795142024
30
0
41
1
10
106.203422289419
20
-5.85083181034327
30
0
41
1
10
106.433299884732
20
-5.89707376824583
30
0
41
1
10
106.893611204415
20
-5.98261190563321
30
0
41
1
10
107.124266937731
20
-6.02198595256982
30
0
41
1
10
107.81494216135
20
-6.12873217068838
30
0
41
1
10
108.275945728193
20
-6.18361137528666
30
0
41
1
10
109.197716189528
20
-6.26264858035742
30
0
41
1
10
109.658396537314
20
-6.28682265244248
30
0
41
1
10
110.230460705452
20
-6.29728416302132
30
0
41
1
10
110.342648498168
20
-6.29838255082615
30
0
41
1
10
110.454928901685
20
-6.29853245658248
30
0
0
SPLINE
5
D1
100
AcDbEntity
8
1
62
256
6
ByLayer
370
13
48
1
60
0
100
AcDbSpline
70
4
71
3
72
32
73
28
40
0
40
0
40
0
40
0
40
0.0818321628742329
40
0.0818321628742329
40
0.123567064561768
40
0.123567064561768
40
0.165301966249302
40
0.165301966249302
40
0.332241572999442
40
0.332241572999442
40
0.415711376374512
40
0.415711376374512
40
0.499181179749581
40
0.499181179749581
40
0.66612078649972
40
0.66612078649972
40
0.707855688187255
40
0.707855688187255
40
0.74959058987479
40
0.74959058987479
40
0.83306039324986
40
0.83306039324986
40
0.91653019662493
40
0.91653019662493
40
0.958265098312465
40
0.958265098312465
40
1
40
1
40
1
40
1
41
1
10
10.2507557950722
20
-5.96203764488544
30
0
41
1
10
10.2507786952179
20
-5.96200828852847
30
0
41
1
10
10.2508006572824
20
-5.95133280690067
30
0
41
1
10
10.2508332283291
20
-5.91868953455102
30
0
41
1
10
10.2508441525389
20
-5.90475908512852
30
0
41
1
10
10.2508656897344
20
-5.87145969281192
30
0
41
1
10
10.2508763265151
20
-5.85208133634257
30
0
41
1
10
10.2509291729775
20
-5.741798851678
30
0
41
1
10
10.2509705148184
20
-5.61116959941339
30
0
41
1
10
10.2510353923548
20
-5.35097220625136
30
0
41
1
10
10.2510575269163
20
-5.25309038356357
30
0
41
1
10
10.2511022655538
20
-5.03867925903037
30
0
41
1
10
10.25112495948
20
-4.92182940641186
30
0
41
1
10
10.2511940349789
20
-4.54223620878176
30
0
41
1
10
10.2512404583509
20
-4.256711596071
30
0
41
1
10
10.2512969314654
20
-3.86013360029477
30
0
41
1
10
10.2513081373849
20
-3.77881313275813
30
0
41
1
10
10.2513302752927
20
-3.61209905108836
30
0
41
1
10
10.2513412059955
20
-3.52668973032561
30
0
41
1
10
10.251373061803
20
-3.26719890546067
30
0
41
1
10
10.2513931838037
20
-3.08894161702253
30
0
41
1
10
10.2514302578008
20
-2.72216552914637
30
0
41
1
10
10.2514472115055
20
-2.53364622796022
30
0
41
1
10
10.2514693684526
20
-2.24310679989685
30
0
41
1
10
10.25147620634
20
-2.14496424328757
30
0
41
1
10
10.2514886070281
20
-1.9460429035725
30
0
41
1
10
10.2514941832082
20
-1.84495450327867
30
0
41
1
10
10.2514989809861
20
-1.7433989599358
30
0
0
SPLINE
5
D2
100
AcDbEntity
8
1
62
256
6
ByLayer
370
18
48
1
60
0
100
AcDbSpline
70
4
71
3
72
22
73
18
40
0
40
0
40
0
40
0
40
0.124999999999999
40
0.124999999999999
40
0.249999999999997
40
0.249999999999997
40
0.312499999999997
40
0.312499999999997
40
0.374999999999998
40
0.374999999999998
40
0.499999999999998
40
0.499999999999998
40
0.749999999999999
40
0.749999999999999
40
0.874999999999999
40
0.874999999999999
40
1
40
1
40
1
40
1
41
1
10
10.2514989862976
20
-1.74339896434935
30
0
41
1
10
10.5239883288191
20
-1.96978974788277
30
0
41
1
10
10.8051247094538
20
-2.17930901495424
30
0
41
1
10
11.3787817698804
20
-2.57486789470229
30
0
41
1
10
11.6713944291884
20
-2.76074287108574
30
0
41
1
10
12.1168835801067
20
-3.02535860625795
30
0
41
1
10
12.2664882123712
20
-3.11117699861177
30
0
41
1
10
12.5676954196266
20
-3.27843900054796
30
0
41
1
10
12.7193989030027
20
-3.35992701042738
30
0
41
1
10
13.1748426655316
20
-3.59702949645865
30
0
41
1
10
13.4796917253104
20
-3.74577198460187
30
0
41
1
10
14.3974608899689
20
-4.16754915408134
30
0
41
1
10
15.0135058573025
20
-4.41617170600955
30
0
41
1
10
15.9450229804881
20
-4.74847085891506
30
0
41
1
10
16.2567352533144
20
-4.85306339565145
30
0
41
1
10
16.8835378128561
20
-5.0459614092764
30
0
41
1
10
17.1985875917435
20
-5.13479023129989
30
0
41
1
10
17.51563320841
20
-5.2164299619883
30
0
0
SPLINE
5
D3
100
AcDbEntity
8
1
62
256
6
ByLayer
370
18
48
1
60
0
100
AcDbSpline
70
4
71
3
72
18
73
14
40
0
40
0
40
0
40
0
40
0.0038623198429545
40
0.0038623198429545
40
0.17178841663647
40
0.17178841663647
40
0.339714513429985
40
0.339714513429985
40
0.507640610223501
40
0.507640610223501
40
0.675566707017016
40
0.675566707017016
40
1
40
1
40
1
40
1
41
1
10
58.315294885902
20
0.0042943249897576
30
0
41
1
10
58.3276224267479
20
-0.0023707535487176
30
0
41
1
10
58.3399511411853
20
-0.0090366244641018
30
0
41
1
10
58.888360998441
20
-0.305555644335527
30
0
41
1
10
59.4279084449792
20
-0.597306650700546
30
0
41
1
10
60.5051544179142
20
-1.17308179503652
30
0
41
1
10
61.0435164990032
20
-1.45800078451472
30
0
41
1
10
62.1213386160443
20
-2.01696836761482
30
0
41
1
10
62.6594301158016
20
-2.29001227192219
30
0
41
1
10
63.736536316438
20
-2.8186733870223
30
0
41
1
10
64.276041033363
20
-3.07486177135271
30
0
41
1
10
65.8473384665023
20
-3.78848241527487
30
0
41
1
10
66.8744491757887
20
-4.21221492762604
30
0
41
1
10
67.9011475925292
20
-4.57939526417863
30
0
0
SPLINE
5
D4
100
AcDbEntity
8
1
62
256
6
ByLayer
370
13
48
1
60
0
100
AcDbSpline
70
4
71
3
72
22
73
18
40
0
40
0
40
0
40
0
40
0.0107628381840069
40
0.0107628381840069
40
0.327318952631204
40
0.327318952631204
40
0.4855970098548
40
0.4855970098548
40
0.643875067078397
40
0.643875067078397
40
0.723014095690196
40
0.723014095690196
40
0.802153124301994
40
0.802153124301994
40
0.960431181525594
40
0.960431181525594
40
1
40
1
40
1
40
1
41
1
10
67.9011475923237
20
-4.57939526410524
30
0
41
1
10
67.9372837332404
20
-4.59231870897221
30
0
41
1
10
67.9734193634132
20
-4.60517209755855
30
0
41
1
10
69.0723694205434
20
-4.99392489483063
30
0
41
1
10
70.1359327766426
20
-5.3080261545839
30
0
41
1
10
71.7452424279807
20
-5.66996437660868
30
0
41
1
10
72.2851266561602
20
-5.77235290131568
30
0
41
1
10
73.3604438210715
20
-5.93594456659116
30
0
41
1
10
73.8971577339176
20
-5.99762432706942
30
0
41
1
10
74.7027057705425
20
-6.05939270982029
30
0
41
1
10
74.9713369907517
20
-6.07487331332925
30
0
41
1
10
75.5092147423141
20
-6.09547924298903
30
0
41
1
10
75.778763241945
20
-6.10059050925733
30
0
41
1
10
76.5863024884318
20
-6.10013202217112
30
0
41
1
10
77.1216354597551
20
-6.07887416850551
30
0
41
1
10
77.788644753668
20
-6.02708443685916
30
0
41
1
10
77.9219465070535
20
-6.01546621698236
30
0
41
1
10
78.0551671911424
20
-6.00259877602289
30
0
0
SPLINE
5
D5
100
AcDbEntity
8
1
62
256
6
ByLayer
370
18
48
1
60
0
100
AcDbSpline
70
4
71
3
72
81
73
77
40
0
40
0
40
0
40
0
40
0.0400472865726569
40
0.0400472865726569
40
0.109755585888725
40
0.109755585888725
40
0.144609735546759
40
0.144609735546759
40
0.179463885204793
40
0.179463885204793
40
0.249172184520861
40
0.249172184520861
40
0.284026334178895
40
0.284026334178895
40
0.318880483836929
40
0.318880483836929
40
0.353734633494963
40
0.353734633494963
40
0.388588783152998
40
0.388588783152998
40
0.423442932811032
40
0.423442932811032
40
0.440870007640049
40
0.449583545054557
40
0.449583545054557
40
0.450128141142964
40
0.450400439187167
40
0.450400439187167
40
0.450672737231371
40
0.450672737231371
40
0.451217333319777
40
0.451217333319777
40
0.451761929408184
40
0.451761929408184
40
0.453940313761811
40
0.453940313761811
40
0.458297082469065
40
0.458297082469065
40
0.475724157298082
40
0.475724157298082
40
0.493151232127099
40
0.493151232127099
40
0.528005381785133
40
0.528005381785133
40
0.597713681101201
40
0.597713681101201
40
0.667421980417269
40
0.667421980417269
40
0.684849055246285
40
0.684849055246285
40
0.702276130075302
40
0.702276130075302
40
0.710989667489811
40
0.710989667489811
40
0.713168051843438
40
0.713168051843438
40
0.714257244020251
40
0.714257244020251
40
0.714529542064455
40
0.714529542064455
40
0.714801840108658
40
0.714801840108658
40
0.715346436197065
40
0.719703204904319
40
0.719703204904319
40
0.737130279733336
40
0.737130279733336
40
0.806838579049405
40
0.806838579049405
40
0.84169272870744
40
0.84169272870744
40
0.876546878365474
40
0.876546878365474
40
0.946255177681543
40
0.946255177681543
40
1
40
1
40
1
40
1
41
1
10
24.8244360193945
20
-1.57890269355198
30
0
41
1
10
24.6036176325973
20
-1.46183908724703
30
0
41
1
10
24.3831254629111
20
-1.34817782721444
30
0
41
1
10
23.7790422602394
20
-1.04862605222371
30
0
41
1
10
23.3956357034259
20
-0.87159872061136
30
0
41
1
10
22.8164405179448
20
-0.636475244390027
30
0
41
1
10
22.6242138965396
20
-0.56387569583822
30
0
41
1
10
22.2437655706177
20
-0.432636009473072
30
0
41
1
10
22.0550265868622
20
-0.373784847636983
30
0
41
1
10
21.4915811464079
20
-0.218850883874978
30
0
41
1
10
21.1196529042498
20
-0.144449250563213
30
0
41
1
10
20.5600229515801
20
-0.0800449326666808
30
0
41
1
10
20.3731865223697
20
-0.0664258420598571
30
0
41
1
10
19.9976991635496
20
-0.0553900371699569
30
0
41
1
10
19.8090846778763
20
-0.0580414922196155
30
0
41
1
10
19.4336791697347
20
-0.0794555749686481
30
0
41
1
10
19.2462748593479
20
-0.098182113257792
30
0
41
1
10
18.8709054017958
20
-0.15125784276168
30
0
41
1
10
18.6826443431926
20
-0.185690125378557
30
0
41
1
10
18.3070207300709
20
-0.269208978917675
30
0
41
1
10
18.1194405400922
20
-0.318301595696056
30
0
41
1
10
17.837687623264
20
-0.402406761365768
30
0
41
1
10
17.6967166010774
20
-0.447077401558033
30
0
41
1
10
17.5554742700055
20
-0.495587870333594
30
0
41
1
10
17.5054114400606
20
-0.513217257477123
30
0
41
1
10
17.5009940334476
20
-0.514775223230856
30
0
41
1
10
17.4965766267579
20
-0.516336779877406
30
0
41
1
10
17.4936316724405
20
-0.517378620904225
30
0
41
1
10
17.4916976599901
20
-0.517955226244737
30
0
41
1
10
17.4930582467258
20
-0.521543277576001
30
0
41
1
10
17.4958372949179
20
-0.523438911672571
30
0
41
1
10
17.5006226758989
20
-0.527235905448805
30
0
41
1
10
17.5031377078501
20
-0.529047373469012
30
0
41
1
10
17.5159231207254
20
-0.537955620157391
30
0
41
1
10
17.5267823859752
20
-0.544638983989245
30
0
41
1
10
17.559497517497
20
-0.564481849194721
30
0
41
1
10
17.5817956131225
20
-0.577291774060853
30
0
41
1
10
17.6938582990377
20
-0.640884804897411
30
0
41
1
10
17.7853447945799
20
-0.690153876089198
30
0
41
1
10
17.9685797006738
20
-0.788667442293331
30
0
41
1
10
18.0605997453359
20
-0.837675532635018
30
0
41
1
10
18.3371564113531
20
-0.984555940353744
30
0
41
1
10
18.5222230451432
20
-1.0822811292679
30
0
41
1
10
19.078288867765
20
-1.37614341982794
30
0
41
1
10
19.449776911166
20
-1.57365701633833
30
0
41
1
10
20.1927636297659
20
-1.97386051078908
30
0
41
1
10
20.5643645059326
20
-2.17603207060478
30
0
41
1
10
21.026206593106
20
-2.43587352857037
30
0
41
1
10
21.1184443794023
20
-2.48820352667681
30
0
41
1
10
21.3024033571274
20
-2.59406096356901
30
0
41
1
10
21.3942027112865
20
-2.64745495915273
30
0
41
1
10
21.5305818222185
20
-2.7299756317833
30
0
41
1
10
21.5759822954509
20
-2.75765575502757
30
0
41
1
10
21.631189574286
20
-2.79470773630658
30
0
41
1
10
21.6421700995441
20
-2.80223672288437
30
0
41
1
10
21.6580943397054
20
-2.81427468080867
30
0
41
1
10
21.6633918724847
20
-2.81834903426716
30
0
41
1
10
21.6693394773722
20
-2.82421020077806
30
0
41
1
10
21.6705024296984
20
-2.82542777134057
30
0
41
1
10
21.6725047544616
20
-2.82811269734242
30
0
41
1
10
21.673674936473
20
-2.83016409765358
30
0
41
1
10
21.6698327876024
20
-2.83355145768442
30
0
41
1
10
21.6467800984369
20
-2.85387220107628
30
0
41
1
10
21.6237300624522
20
-2.87416103126711
30
0
41
1
10
21.5212931707566
20
-2.96419547466496
30
0
41
1
10
21.4393971998964
20
-3.03575697604245
30
0
41
1
10
21.0298374431402
20
-3.39056500845987
30
0
41
1
10
20.7045355965224
20
-3.66295624619855
30
0
41
1
10
20.210570668594
20
-4.04021847145486
30
0
41
1
10
20.0443291464798
20
-4.16103187216595
30
0
41
1
10
19.7123892576691
20
-4.38601570724887
30
0
41
1
10
19.5461350412499
20
-4.49063824425772
30
0
41
1
10
19.0430351329417
20
-4.77756349470283
30
0
41
1
10
18.7013847097098
20
-4.93286662128801
30
0
41
1
10
18.0706203646516
20
-5.12899123918001
30
0
41
1
10
17.7947846904401
20
-5.18546665395755
30
0
41
1
10
17.5155999609265
20
-5.21643627294711
30
0
0
SPLINE
5
D6
100
AcDbEntity
8
1
62
256
6
ByLayer
370
18
48
1
60
0
100
AcDbSpline
70
4
71
3
72
30
73
26
40
0
40
0
40
0
40
0
40
0.0624999999999991
40
0.0624999999999991
40
0.0937499999999998
40
0.0937499999999998
40
0.125000000000001
40
0.125000000000001
40
0.250000000000004
40
0.250000000000004
40
0.312500000000005
40
0.312500000000005
40
0.375000000000006
40
0.375000000000006
40
0.500000000000009
40
0.500000000000009
40
0.562500000000011
40
0.562500000000011
40
0.625000000000012
40
0.625000000000012
40
0.750000000000008
40
0.750000000000008
40
0.875000000000004
40
0.875000000000004
40
1
40
1
40
1
40
1
41
1
10
106.263655923513
20
2.81291066666063
30
0
41
1
10
106.287055561316
20
2.65010097860923
30
0
41
1
10
106.322330250211
20
2.48574904873539
30
0
41
1
10
106.391797655473
20
2.23707106743106
30
0
41
1
10
106.417719012115
20
2.15381923764397
30
0
41
1
10
106.474952315795
20
1.9866154889591
30
0
41
1
10
106.506407187753
20
1.90232744675498
30
0
41
1
10
106.674721245744
20
1.48441696430663
30
0
41
1
10
106.844018888054
20
1.16048624184407
30
0
41
1
10
107.137469242493
20
0.686445595180317
30
0
41
1
10
107.24213504191
20
0.530314482088954
30
0
41
1
10
107.459098376267
20
0.227466657487952
30
0
41
1
10
107.571894589621
20
0.0799071657681338
30
0
41
1
10
107.921368219496
20
-0.352842788285727
30
0
41
1
10
108.169043327412
20
-0.628182920308802
30
0
41
1
10
108.558066323044
20
-1.02550959303247
30
0
41
1
10
108.691046623542
20
-1.15563248030557
30
0
41
1
10
108.959628979045
20
-1.40848101156675
30
0
41
1
10
109.095440050943
20
-1.53144841570793
30
0
41
1
10
109.506919758783
20
-1.89114724847388
30
0
41
1
10
109.78660343717
20
-2.11874682693716
30
0
41
1
10
110.354998790387
20
-2.5534126241468
30
0
41
1
10
110.643724041647
20
-2.76044796453741
30
0
41
1
10
111.229235761294
20
-3.15618413753876
30
0
41
1
10
111.526279437917
20
-3.34505533341075
30
0
41
1
10
111.826598306975
20
-3.52484476941677
30
0
0
SPLINE
5
D7
100
AcDbEntity
8
1
62
256
6
ByLayer
370
18
48
1
60
0
100
AcDbSpline
70
4
71
3
72
40
73
36
40
0
40
0
40
0
40
0
40
0.250000000000003
40
0.250000000000003
40
0.375
40
0.375
40
0.499999999999997
40
0.499999999999997
40
0.624999999999994
40
0.624999999999994
40
0.687499999999997
40
0.687499999999997
40
0.718749999999998
40
0.718749999999998
40
0.749999999999999
40
0.749999999999999
40
0.812499999999994
40
0.812499999999994
40
0.828124999999995
40
0.828124999999995
40
0.843749999999995
40
0.843749999999995
40
0.859374999999996
40
0.859374999999996
40
0.874999999999996
40
0.874999999999996
40
0.906249999999997
40
0.906249999999997
40
0.921874999999998
40
0.921874999999998
40
0.937499999999998
40
0.937499999999998
40
0.968749999999999
40
0.968749999999999
40
1
40
1
40
1
40
1
41
1
10
106.263655923513
20
2.81291066666066
30
0
41
1
10
106.776824038167
20
2.42429203489905
30
0
41
1
10
107.299231195242
20
2.0699223552661
30
0
41
1
10
108.100309577131
20
1.60312006379556
30
0
41
1
10
108.370244737852
20
1.45830303079413
30
0
41
1
10
108.916691572939
20
1.19304797407454
30
0
41
1
10
109.194507866354
20
1.0721924536812
30
0
41
1
10
109.746544944439
20
0.863404006792933
30
0
41
1
10
110.021684340939
20
0.774861218948104
30
0
41
1
10
110.43288261116
20
0.66928805506177
30
0
41
1
10
110.569695492985
20
0.638662487899268
30
0
41
1
10
110.774497067515
20
0.600256372788351
30
0
41
1
10
110.842617749288
20
0.588726705197558
30
0
41
1
10
110.978195593607
20
0.568373501779632
30
0
41
1
10
111.045824303148
20
0.55896654229673
30
0
41
1
10
111.246338257809
20
0.542141303379481
30
0
41
1
10
111.377585713374
20
0.544143896107556
30
0
41
1
10
111.52765151975
20
0.573754928121986
30
0
41
1
10
111.556978983186
20
0.581065228706592
30
0
41
1
10
111.61394508358
20
0.599104610089569
30
0
41
1
10
111.641685168233
20
0.609628324988734
30
0
41
1
10
111.69441995915
20
0.63623336857313
30
0
41
1
10
111.719591636383
20
0.652141258857569
30
0
41
1
10
111.766423287019
20
0.687265295098683
30
0
41
1
10
111.788173910337
20
0.706743694251685
30
0
41
1
10
111.848065058081
20
0.771348225139661
30
0
41
1
10
111.880942426047
20
0.823447171884226
30
0
41
1
10
111.914277436158
20
0.911115212317156
30
0
41
1
10
111.922908431042
20
0.942041071825571
30
0
41
1
10
111.935197939935
20
1.00730679158531
30
0
41
1
10
111.938830467858
20
1.04181546232317
30
0
41
1
10
111.942366529888
20
1.14700398274337
30
0
41
1
10
111.935194399442
20
1.22084787681788
30
0
41
1
10
111.906220494098
20
1.37086777086057
30
0
41
1
10
111.884793207013
20
1.44591241247187
30
0
41
1
10
111.858399791664
20
1.52098187965694
30
0
0
SPLINE
5
D8
100
AcDbEntity
8
1
62
256
6
ByLayer
370
18
48
1
60
0
100
AcDbSpline
70
4
71
3
72
16
73
12
40
0
40
0
40
0
40
0
40
0.250000000000007
40
0.250000000000007
40
0.375000000000006
40
0.375000000000006
40
0.500000000000004
40
0.500000000000004
40
0.750000000000002
40
0.750000000000002
40
1
40
1
40
1
40
1
41
1
10
111.858399791664
20
1.52098187965694
30
0
41
1
10
111.848328093354
20
1.54962830588755
30
0
41
1
10
111.841645836814
20
1.57923739949015
30
0
41
1
10
111.839653633271
20
1.62563544950154
30
0
41
1
10
111.840390149216
20
1.64105538995963
30
0
41
1
10
111.845485513355
20
1.6717449136909
30
0
41
1
10
111.849977827794
20
1.68705117198365
30
0
41
1
10
111.870311074805
20
1.72952894388388
30
0
41
1
10
111.893649769751
20
1.75363075120694
30
0
41
1
10
111.948016614777
20
1.78667558499512
30
0
41
1
10
111.978942683688
20
1.79671555664385
30
0
41
1
10
112.010401848594
20
1.80247700215818
30
0
0
SPLINE
5
D9
100
AcDbEntity
8
1
62
256
6
ByLayer
370
18
48
1
60
0
100
AcDbSpline
70
4
71
3
72
18
73
14
40
0
40
0
40
0
40
0
40
0.25
40
0.25
40
0.5
40
0.5
40
0.625
40
0.625
40
0.75
40
0.75
40
0.875
40
0.875
40
1
40
1
40
1
40
1
41
1
10
9.99999990879343
20
-1.85162765275734
30
0
41
1
10
9.9999999087934
20
-1.81866004315356
30
0
41
1
10
10.0041833868244
20
-1.78749861737342
30
0
41
1
10
10.0253867991359
20
-1.73093009559014
30
0
41
1
10
10.0432058917818
20
-1.70585109084698
30
0
41
1
10
10.0812048679945
20
-1.68566890313227
30
0
41
1
10
10.0960242134472
20
-1.68179990337862
30
0
41
1
10
10.1269817193141
20
-1.68087247241297
30
0
41
1
10
10.1434879396079
20
-1.68372220235571
30
0
41
1
10
10.1758213136418
20
-1.69441400465956
30
0
41
1
10
10.1919144997217
20
-1.70226855101146
30
0
41
1
10
10.2224819264477
20
-1.72077628596898
30
0
41
1
10
10.23720257713
20
-1.73152115933883
30
0
41
1
10
10.2514989809861
20
-1.7433989599358
30
0
0
SPLINE
5
DA
100
AcDbEntity
8
1
62
256
6
ByLayer
370
18
48
1
60
0
100
AcDbSpline
70
4
71
3
72
24
73
20
40
0
40
0
40
0
40
0
40
0.25
40
0.25
40
0.375
40
0.375
40
0.5
40
0.5
40
0.625
40
0.625
40
0.75
40
0.75
40
0.8125
40
0.8125
40
0.875
40
0.875
40
0.9375
40
0.9375
40
1
40
1
40
1
40
1
41
1
10
112.010401848594
20
1.80247700215818
30
0
41
1
10
112.226619030167
20
1.84207511337999
30
0
41
1
10
112.442267424105
20
1.88733104384812
30
0
41
1
10
112.762474218777
20
1.97017066950343
30
0
41
1
10
112.868408738496
20
2.00025530568226
30
0
41
1
10
113.078016372783
20
2.06751371756403
30
0
41
1
10
113.181922020674
20
2.10474727925094
30
0
41
1
10
113.384215896874
20
2.1892840693277
30
0
41
1
10
113.482828847541
20
2.23649577625886
30
0
41
1
10
113.671440229653
20
2.34801875543923
30
0
41
1
10
113.762104575325
20
2.41271330937667
30
0
41
1
10
113.879016041273
20
2.52943338150146
30
0
41
1
10
113.915044288409
20
2.5721489430172
30
0
41
1
10
113.975759198085
20
2.66328270140946
30
0
41
1
10
114.000848835504
20
2.71200052513899
30
0
41
1
10
114.037850394638
20
2.8173944262528
30
0
41
1
10
114.048840538842
20
2.8718808774199
30
0
41
1
10
114.056460483016
20
2.98213005674168
30
0
41
1
10
114.052989756236
20
3.038761690331
30
0
41
1
10
114.043841537096
20
3.09340441269308
30
0
0
SPLINE
5
DB
100
AcDbEntity
8
1
62
256
6
ByLayer
370
18
48
1
60
0
100
AcDbSpline
70
4
71
3
72
22
73
18
40
0
40
0
40
0
40
0
40
0.125
40
0.125
40
0.25
40
0.25
40
0.5
40
0.5
40
0.625
40
0.625
40
0.75
40
0.75
40
0.875000000000001
40
0.875000000000001
40
0.9375
40
0.9375
40
1
40
1
40
1
40
1
41
1
10
114.043841537089
20
3.09340441269012
30
0
41
1
10
113.995771531895
20
3.22231143502185
30
0
41
1
10
113.947657957218
20
3.35112398301772
30
0
41
1
10
113.851413832676
20
3.60869767789248
30
0
41
1
10
113.803268191566
20
3.73741736472584
30
0
41
1
10
113.658728763222
20
4.12327241979199
30
0
41
1
10
113.562230915638
20
4.38024420794005
30
0
41
1
10
113.417135988252
20
4.76383100053474
30
0
41
1
10
113.368690734576
20
4.89128273928566
30
0
41
1
10
113.271801708092
20
5.14619378966782
30
0
41
1
10
113.223346520398
20
5.27356244610868
30
0
41
1
10
113.12637763574
20
5.52777937111335
30
0
41
1
10
113.077846794331
20
5.65471609306232
30
0
41
1
10
113.005037088642
20
5.84398764044531
30
0
41
1
10
112.980766217057
20
5.90687221817117
30
0
41
1
10
112.932221548082
20
6.03202000440473
30
0
41
1
10
112.907947679344
20
6.0942680601438
30
0
41
1
10
112.883673857073
20
6.15652598447176
30
0
0
SPLINE
5
DC
100
AcDbEntity
8
1
62
256
6
ByLayer
370
18
48
1
60
0
100
AcDbSpline
70
4
71
3
72
8
73
4
40
0
40
0
40
0
40
0
40
1
40
1
40
1
40
1
41
1
10
112.795205058411
20
-6.25332222274204
30
0
41
1
10
112.817619246328
20
-6.19309584370828
30
0
41
1
10
112.840013263022
20
-6.13283060543247
30
0
41
1
10
112.862387113132
20
-6.07252651685604
30
0
0
SPLINE
5
DD
100
AcDbEntity
8
1
62
256
6
ByLayer
370
18
48
1
60
0
100
AcDbSpline
70
4
71
3
72
60
73
56
40
0
40
0
40
0
40
0
40
0.043591972325611
40
0.043591972325611
40
0.087183944651222
40
0.087183944651222
40
0.130775916976833
40
0.130775916976833
40
0.152571903139639
40
0.152571903139639
40
0.174367889302446
40
0.174367889302446
40
0.217959861628058
40
0.217959861628058
40
0.239755847790866
40
0.239755847790866
40
0.261551833953673
40
0.261551833953673
40
0.348735778604902
40
0.348735778604902
40
0.370531764767709
40
0.370531764767709
40
0.392327750930517
40
0.392327750930517
40
0.43591972325613
40
0.43591972325613
40
0.479511695581744
40
0.479511695581744
40
0.523103667907357
40
0.523103667907357
40
0.566695640232971
40
0.566695640232971
40
0.610287612558584
40
0.610287612558584
40
0.653879584884198
40
0.653879584884198
40
0.675675571047004
40
0.675675571047004
40
0.69747155720981
40
0.69747155720981
40
0.741063529535422
40
0.741063529535422
40
0.762859515698227
40
0.762859515698227
40
0.784655501861033
40
0.784655501861033
40
0.87183944651226
40
0.87183944651226
40
0.893635432675065
40
0.893635432675065
40
0.91543141883787
40
0.91543141883787
40
0.959023391163479
40
0.959023391163479
40
1
40
1
40
1
40
1
41
1
10
112.795205058411
20
-6.25332222274204
30
0
41
1
10
112.26090134547
20
-6.28941917491457
30
0
41
1
10
111.72615090556
20
-6.30416809011049
30
0
41
1
10
110.65575738742
20
-6.29106747955444
30
0
41
1
10
110.121860593068
20
-6.26325980815392
30
0
41
1
10
109.054457940726
20
-6.16595305334977
30
0
41
1
10
108.520948770056
20
-6.09644304143038
30
0
41
1
10
107.719111504338
20
-5.96144886328887
30
0
41
1
10
107.451308925937
20
-5.91127441456604
30
0
41
1
10
106.916401612182
20
-5.8011298855705
30
0
41
1
10
106.649288264619
20
-5.74116977804971
30
0
41
1
10
105.848452557015
20
-5.54707384747149
30
0
41
1
10
105.315213431428
20
-5.39873814115899
30
0
41
1
10
104.514389439021
20
-5.14960500096137
30
0
41
1
10
104.24728345992
20
-5.062126863261
30
0
41
1
10
103.712427805501
20
-4.87859668312473
30
0
41
1
10
103.44452478422
20
-4.78246622570856
30
0
41
1
10
102.107660882102
20
-4.28288122332373
30
0
41
1
10
101.042979306499
20
-3.82171993785602
30
0
41
1
10
99.7050912666147
20
-3.18636023376971
30
0
41
1
10
99.4372738569312
20
-3.05638164778259
30
0
41
1
10
98.9026696314701
20
-2.79199857758431
30
0
41
1
10
98.6356386311319
20
-2.65747167783081
30
0
41
1
10
97.8348806264659
20
-2.24768572771797
30
0
41
1
10
97.3014544935124
20
-1.96628073578987
30
0
41
1
10
96.233105335437
20
-1.39092267178987
30
0
41
1
10
95.6971756628755
20
-1.09670162950525
30
0
41
1
10
94.6283344285449
20
-0.504890856472485
30
0
41
1
10
94.0947884403945
20
-0.206952887219529
30
0
41
1
10
93.0269893751459
20
0.388563988764389
30
0
41
1
10
92.4924139940571
20
0.686353377094179
30
0
41
1
10
91.4214779877952
20
1.27631207620311
30
0
41
1
10
90.8874972224185
20
1.56718544116365
30
0
41
1
10
89.8200577731283
20
2.13649543072685
30
0
41
1
10
89.2864237850338
20
2.41463003763513
30
0
41
1
10
88.4842577700676
20
2.81892552053989
30
0
41
1
10
88.2163224810298
20
2.95165530863912
30
0
41
1
10
87.6811179470882
20
3.2116724165175
30
0
41
1
10
87.4138822784908
20
3.33895679715607
30
0
41
1
10
86.6126554736061
20
3.71172721123642
30
0
41
1
10
86.0790577876184
20
3.94801273831553
30
0
41
1
10
85.2778374898157
20
4.28178421731664
30
0
41
1
10
85.0106332511299
20
4.38960532632461
30
0
41
1
10
84.4756431066922
20
4.59791556171962
30
0
41
1
10
84.2076534466388
20
4.69844056055081
30
0
41
1
10
82.8701529672836
20
5.17973827023198
30
0
41
1
10
81.8049325335492
20
5.49802599695283
30
0
41
1
10
80.466646519154
20
5.8001650066922
30
0
41
1
10
80.1987096317371
20
5.85577856062892
30
0
41
1
10
79.6638659327172
20
5.95679045952846
30
0
41
1
10
79.3967039220598
20
6.00224735744357
30
0
41
1
10
78.5955106244994
20
6.1232812239185
30
0
41
1
10
78.061845464782
20
6.18356275385111
30
0
41
1
10
77.0251083036727
20
6.25989432077182
30
0
41
1
10
76.5211566357255
20
6.27828781761096
30
0
41
1
10
76.0183362971364
20
6.27787901227415
30
0
0
SPLINE
5
DE
100
AcDbEntity
8
1
62
256
6
ByLayer
370
18
48
1
60
0
100
AcDbSpline
70
4
71
3
72
50
73
46
40
0
40
0
40
0
40
0
40
0.0510527444563417
40
0.0510527444563417
40
0.0747764258449332
40
0.0747764258449332
40
0.0985001072335246
40
0.0985001072335246
40
0.145947470010707
40
0.145947470010707
40
0.193394832787891
40
0.193394832787891
40
0.240842195565074
40
0.240842195565074
40
0.288289558342257
40
0.288289558342257
40
0.33573692111944
40
0.33573692111944
40
0.383184283896623
40
0.383184283896623
40
0.430631646673806
40
0.430631646673806
40
0.47807900945099
40
0.47807900945099
40
0.501802690839581
40
0.501802690839581
40
0.525526372228172
40
0.525526372228172
40
0.620421097782535
40
0.620421097782535
40
0.644144779171126
40
0.644144779171126
40
0.667868460559718
40
0.667868460559718
40
0.715315823336901
40
0.715315823336901
40
0.762763186114084
40
0.762763186114084
40
0.810210548891268
40
0.810210548891268
40
0.857657911668451
40
0.857657911668451
40
0.905105274445634
40
0.905105274445634
40
1
40
1
40
1
40
1
41
1
10
43.9586505515087
20
-5.98642101431452
30
0
41
1
10
43.383683963811
20
-6.07924551538881
30
0
41
1
10
42.8087741951526
20
-6.14866757189847
30
0
41
1
10
41.964533073149
20
-6.21491451475788
30
0
41
1
10
41.696344070486
20
-6.23069171954683
30
0
41
1
10
41.1609999393194
20
-6.25160386033539
30
0
41
1
10
40.8935918414531
20
-6.25676395199656
30
0
41
1
10
40.0917101555153
20
-6.25640785749704
30
0
41
1
10
39.5575854463115
20
-6.23505556969747
30
0
41
1
10
38.4878053828604
20
-6.15034171782662
30
0
41
1
10
37.9511563203983
20
-6.08679668079768
30
0
41
1
10
36.8807330384711
20
-5.91936483932201
30
0
41
1
10
36.3464949636492
20
-5.81550743369795
30
0
41
1
10
35.2774790427158
20
-5.56922789954035
30
0
41
1
10
34.7424997935804
20
-5.42681177809206
30
0
41
1
10
33.6699958129603
20
-5.1054389929408
30
0
41
1
10
33.1352530580806
20
-4.927324293764
30
0
41
1
10
32.066261052402
20
-4.53926986929491
30
0
41
1
10
31.5319332846805
20
-4.32942623632886
30
0
41
1
10
30.4612005520618
20
-3.88107751136147
30
0
41
1
10
29.9245084968289
20
-3.64242839008855
30
0
41
1
10
28.8545995369969
20
-3.14372004026282
30
0
41
1
10
28.3203703487784
20
-2.88327396104668
30
0
41
1
10
27.5182232787599
20
-2.47899005364602
30
0
41
1
10
27.2507011625033
20
-2.3419694520754
30
0
41
1
10
26.7150617265978
20
-2.06391788042654
30
0
41
1
10
26.4467141765488
20
-1.92276212116749
30
0
41
1
10
25.1072073876821
20
-1.21064527448905
30
0
41
1
10
24.0405647024701
20
-0.619617324304784
30
0
41
1
10
22.7007254977846
20
0.122987156631609
30
0
41
1
10
22.4324023875571
20
0.271763292768639
30
0
41
1
10
21.8968227156427
20
0.567996306762069
30
0
41
1
10
21.6293260328778
20
0.715616540244639
30
0
41
1
10
20.8271268122024
20
1.15593756589047
30
0
41
1
10
20.2927292395144
20
1.44612674060471
30
0
41
1
10
19.2224093061379
20
2.01565478733565
30
0
41
1
10
18.6855812347759
20
2.29555987024739
30
0
41
1
10
17.614710351215
20
2.83625424956259
30
0
41
1
10
17.0802061250612
20
3.09726982657961
30
0
41
1
10
16.010697387529
20
3.59696990863614
30
0
41
1
10
15.4757623691184
20
3.83590265806549
30
0
41
1
10
14.4029026164724
20
4.28691678278611
30
0
41
1
10
13.8683101018567
20
4.49761524895743
30
0
41
1
10
12.2664404255801
20
5.08144707386435
30
0
41
1
10
11.2007380880649
20
5.40608631821721
30
0
41
1
10
10.1287059833417
20
5.65637266608289
30
0
0
SPLINE
5
DF
100
AcDbEntity
8
1
62
256
6
ByLayer
370
18
48
1
60
0
100
AcDbSpline
70
4
71
3
72
12
73
8
40
0
40
0
40
0
40
0
40
0.250000000000016
40
0.250000000000016
40
0.500000000000031
40
0.500000000000031
40
1
40
1
40
1
40
1
41
1
10
112.862387113132
20
-6.07252651685604
30
0
41
1
10
112.867260028074
20
-6.05939258180052
30
0
41
1
10
112.871928594721
20
-6.04601957327799
30
0
41
1
10
112.879647956094
20
-6.02193428194141
30
0
41
1
10
112.88268123309
20
-6.01125020785454
30
0
41
1
10
112.888176648406
20
-5.98738711943952
30
0
41
1
10
112.88709349985
20
-5.98286752811808
30
0
41
1
10
112.883404302653
20
-5.98594245834622
30
0
0
SPLINE
5
E0
100
AcDbEntity
8
1
62
256
6
ByLayer
370
18
48
1
60
0
100
AcDbSpline
70
4
71
3
72
100
73
96
40
0
40
0
40
0
40
0
40
0.0122314568570221
40
0.0122314568570221
40
0.0279128119173095
40
0.0279128119173095
40
0.0435941669775969
40
0.0435941669775969
40
0.0592755220378843
40
0.0592755220378843
40
0.0749568770981717
40
0.0749568770981717
40
0.106319587218747
40
0.106319587218747
40
0.122000942279035
40
0.122000942279035
40
0.137682297339323
40
0.137682297339323
40
0.169045007459898
40
0.169045007459898
40
0.184726362520186
40
0.184726362520186
40
0.200407717580473
40
0.200407717580473
40
0.231770427701049
40
0.231770427701049
40
0.247451782761337
40
0.247451782761337
40
0.263133137821625
40
0.263133137821625
40
0.294495847942201
40
0.294495847942201
40
0.31017720300249
40
0.31017720300249
40
0.325858558062778
40
0.325858558062778
40
0.357221268183353
40
0.357221268183353
40
0.388583978303929
40
0.388583978303929
40
0.404265333364216
40
0.404265333364216
40
0.419946688424504
40
0.419946688424504
40
0.451309398545079
40
0.451309398545079
40
0.466990753605367
40
0.466990753605367
40
0.482672108665655
40
0.482672108665655
40
0.51403481878623
40
0.51403481878623
40
0.529716173846518
40
0.529716173846518
40
0.545397528906806
40
0.545397528906806
40
0.576760239027382
40
0.576760239027382
40
0.59244159408767
40
0.59244159408767
40
0.608122949147958
40
0.608122949147958
40
0.639485659268535
40
0.639485659268535
40
0.655167014328824
40
0.655167014328824
40
0.670848369389112
40
0.670848369389112
40
0.702211079509688
40
0.702211079509688
40
0.717892434569977
40
0.717892434569977
40
0.733573789630265
40
0.733573789630265
40
0.764936499750842
40
0.764936499750842
40
0.796299209871419
40
0.796299209871419
40
0.827661919991996
40
0.827661919991996
40
0.859024630112573
40
0.859024630112573
40
0.874705985172862
40
0.874705985172862
40
0.89038734023315
40
0.89038734023315
40
0.921750050353727
40
0.921750050353727
40
0.937431405414014
40
0.937431405414014
40
0.953112760474302
40
0.953112760474302
40
0.984475470594877
40
0.984475470594877
40
1
40
1
40
1
40
1
41
1
10
31.15160699691
20
4.55809030002536
30
0
41
1
10
31.3302516243244
20
4.62611511258106
30
0
41
1
10
31.509289909228
20
4.69225960892408
30
0
41
1
10
31.9185983563035
20
4.83914963556202
30
0
41
1
10
32.14908347144
20
4.91874039372476
30
0
41
1
10
32.6109541073383
20
5.07221935610823
30
0
41
1
10
32.8425386043934
20
5.14615630212376
30
0
41
1
10
33.3035171143406
20
5.28744788130939
30
0
41
1
10
33.5331025246213
20
5.35506190565894
30
0
41
1
10
33.991399974049
20
5.4832372012246
30
0
41
1
10
34.2205536219448
20
5.54340508731761
30
0
41
1
10
34.9076161937064
20
5.71292840748427
30
0
41
1
10
35.365095038445
20
5.81139848373303
30
0
41
1
10
36.0494418935521
20
5.93820509279018
30
0
41
1
10
36.2772456402323
20
5.97697017858903
30
0
41
1
10
36.7321176806566
20
6.04738911125676
30
0
41
1
10
36.9595763442302
20
6.07882558496502
30
0
41
1
10
37.6435144396579
20
6.16136151735591
30
0
41
1
10
38.1007352330661
20
6.20118032615255
30
0
41
1
10
38.7873332416053
20
6.23838111608143
30
0
41
1
10
39.0163338488324
20
6.24700436623553
30
0
41
1
10
39.4744822255034
20
6.25649450971801
30
0
41
1
10
39.7035000554293
20
6.25732573714285
30
0
41
1
10
40.3936297397227
20
6.24796801746984
30
0
41
1
10
40.8574272325137
20
6.2260398873677
30
0
41
1
10
41.5498929133467
20
6.1700438154401
30
0
41
1
10
41.7804444276473
20
6.14751345030371
30
0
41
1
10
42.2408522825325
20
6.09457481536549
30
0
41
1
10
42.470464305274
20
6.06403927709408
30
0
41
1
10
43.1602218577296
20
5.9612839978937
30
0
41
1
10
43.6217493452404
20
5.87838484491655
30
0
41
1
10
44.3150366685096
20
5.73200116473541
30
0
41
1
10
44.5465414656381
20
5.6794594336059
30
0
41
1
10
45.0076774870289
20
5.56727457533796
30
0
41
1
10
45.2374359947681
20
5.50752918649599
30
0
41
1
10
45.9247850129859
20
5.31768902972885
30
0
41
1
10
46.3828476311184
20
5.17933005177071
30
0
41
1
10
47.2973989212816
20
4.87891663070729
30
0
41
1
10
47.7538056885705
20
4.71676326772928
30
0
41
1
10
48.4362299982307
20
4.4541732844649
30
0
41
1
10
48.6634721152858
20
4.36354501879259
30
0
41
1
10
49.1191872552878
20
4.17837892665847
30
0
41
1
10
49.3473946736272
20
4.08350983071071
30
0
41
1
10
50.0327036398897
20
3.79163343596773
30
0
41
1
10
50.4904865103667
20
3.58740171313218
30
0
41
1
10
51.1776513380376
20
3.26467586412014
30
0
41
1
10
51.4065712651548
20
3.15397911353691
30
0
41
1
10
51.8662805373081
20
2.92975619687519
30
0
41
1
10
52.0971362769793
20
2.81599858097189
30
0
41
1
10
52.790617372071
20
2.46989945135741
30
0
41
1
10
53.2511227025067
20
2.23430242741819
30
0
41
1
10
53.938226596753
20
1.87198769089883
30
0
41
1
10
54.1664980127765
20
1.74944988949289
30
0
41
1
10
54.6224844168291
20
1.50257171127021
30
0
41
1
10
54.8506359571608
20
1.37901849811544
30
0
41
1
10
55.5351279056141
20
1.00726474711521
30
0
41
1
10
55.9914759797541
20
0.757923460907733
30
0
41
1
10
56.6749924823582
20
0.379770048397916
30
0
41
1
10
56.902665093588
20
0.253029073590085
30
0
41
1
10
57.3575663782769
20
-0.0020575335342699
30
0
41
1
10
57.5851723551803
20
-0.129710132062598
30
0
41
1
10
58.2699903110767
20
-0.510142135696697
30
0
41
1
10
58.7283640972272
20
-0.761931842392357
30
0
41
1
10
59.4175649739829
20
-1.13894907771561
30
0
41
1
10
59.6475792826736
20
-1.26449881438541
30
0
41
1
10
60.1080591860589
20
-1.51558724534976
30
0
41
1
10
60.3385624433402
20
-1.64144109148046
30
0
41
1
10
61.0302987869148
20
-2.0118387350056
30
0
41
1
10
61.4917871641546
20
-2.25168147183362
30
0
41
1
10
62.1831944059562
20
-2.60329373162961
30
0
41
1
10
62.413537153922
20
-2.71911045444057
30
0
41
1
10
62.8738180725232
20
-2.94816437014845
30
0
41
1
10
63.1035116757174
20
-3.06178089441178
30
0
41
1
10
63.7939819351672
20
-3.39549467935453
30
0
41
1
10
64.2575265541034
20
-3.60831932056243
30
0
41
1
10
65.1788340051347
20
-4.01361131253074
30
0
41
1
10
65.6372279002834
20
-4.20659401998577
30
0
41
1
10
66.5493570222308
20
-4.57303354651032
30
0
41
1
10
67.0058254170829
20
-4.74289763489983
30
0
41
1
10
67.9183200283635
20
-5.05856900497866
30
0
41
1
10
68.3742576038806
20
-5.204472081365
30
0
41
1
10
69.0568294734605
20
-5.40577965223002
30
0
41
1
10
69.2842382829121
20
-5.46980996474417
30
0
41
1
10
69.740569894088
20
-5.59017873105935
30
0
41
1
10
69.9692247170339
20
-5.64678174116915
30
0
41
1
10
70.6562913417941
20
-5.80622033999202
30
0
41
1
10
71.1157986528167
20
-5.89875277941923
30
0
41
1
10
71.8064252353115
20
-6.01664819832365
30
0
41
1
10
72.0368812673011
20
-6.05255791051985
30
0
41
1
10
72.497879055465
20
-6.1160247851316
30
0
41
1
10
72.7285049815311
20
-6.14371829340945
30
0
41
1
10
73.4203060526445
20
-6.21515508076624
30
0
41
1
10
73.8814201059591
20
-6.24731898095732
30
0
41
1
10
74.5696367959272
20
-6.27227835438762
30
0
41
1
10
74.7971582902113
20
-6.27672875031701
30
0
41
1
10
75.0248498093652
20
-6.2772554762231
30
0
0
SPLINE
5
E1
100
AcDbEntity
8
1
62
256
6
ByLayer
370
18
48
1
60
0
100
AcDbSpline
70
4
71
3
72
28
73
24
40
0
40
0
40
0
40
0
40
0.11649627754244
40
0.11649627754244
40
0.179603686289412
40
0.179603686289412
40
0.242711095036385
40
0.242711095036385
40
0.368925912530328
40
0.368925912530328
40
0.432033321277297
40
0.432033321277297
40
0.495140730024265
40
0.495140730024265
40
0.621355547518204
40
0.621355547518204
40
0.747570365012141
40
0.747570365012141
40
0.810677773759108
40
0.810677773759108
40
0.873785182506074
40
0.873785182506074
40
1
40
1
40
1
40
1
41
1
10
101.9728815239
20
4.58906286015164
30
0
41
1
10
102.393732204408
20
4.75018613116109
30
0
41
1
10
102.814853030152
20
4.90041010300794
30
0
41
1
10
103.463517359839
20
5.11669460910508
30
0
41
1
10
103.691337502854
20
5.18974593289602
30
0
41
1
10
104.146631932618
20
5.33000225012972
30
0
41
1
10
104.373866942945
20
5.39741861484765
30
0
41
1
10
105.057072842621
20
5.58877932565514
30
0
41
1
10
105.514826312009
20
5.70177951420175
30
0
41
1
10
106.203422289416
20
5.85083181034267
30
0
41
1
10
106.433299884729
20
5.89707376824526
30
0
41
1
10
106.893611204413
20
5.9826119056327
30
0
41
1
10
107.124266937728
20
6.02198595256934
30
0
41
1
10
107.814942161347
20
6.12873217068804
30
0
41
1
10
108.27594572819
20
6.18361137528635
30
0
41
1
10
109.197716189525
20
6.26264858035722
30
0
41
1
10
109.658396537311
20
6.28682265244237
30
0
41
1
10
110.348211927101
20
6.29943751524922
30
0
41
1
10
110.578152705468
20
6.29963816747301
30
0
41
1
10
111.039624165175
20
6.2921123563485
30
0
41
1
10
111.270755057178
20
6.28440056748764
30
0
41
1
10
111.963128029867
20
6.24963689893687
30
0
41
1
10
112.42404951898
20
6.21101973997764
30
0
41
1
10
112.883673857066
20
6.15652598445692
30
0
0
SPLINE
5
E2
100
AcDbEntity
8
1
62
256
6
ByLayer
370
18
48
1
60
0
100
AcDbSpline
70
4
71
3
72
10
73
6
40
0
40
0
40
0
40
0
40
0.584104786992643
40
0.584104786992643
40
1
40
1
40
1
40
1
41
1
10
112.795205058418
20
6.25332222274162
30
0
41
1
10
112.528076195388
20
6.2713691454172
30
0
41
1
10
112.26085802536
20
6.28408095300927
30
0
41
1
10
111.803009332877
20
6.296719768549
30
0
41
1
10
111.612408770995
20
6.29927002644337
30
0
41
1
10
111.42190837274
20
6.29912111135673
30
0
0
SPLINE
5
E3
100
AcDbEntity
8
1
62
256
6
ByLayer
370
18
48
1
60
0
100
AcDbSpline
70
4
71
3
72
58
73
54
40
0
40
0
40
0
40
0
40
0.045396882708255
40
0.045396882708255
40
0.0661446220343627
40
0.0661446220343627
40
0.0868923613604703
40
0.0868923613604703
40
0.128387840012686
40
0.128387840012686
40
0.149135579338793
40
0.149135579338793
40
0.1698833186649
40
0.1698833186649
40
0.211378797317114
40
0.211378797317114
40
0.252874275969328
40
0.252874275969328
40
0.273622015295435
40
0.273622015295435
40
0.294369754621542
40
0.294369754621542
40
0.335865233273757
40
0.335865233273757
40
0.377360711925971
40
0.377360711925971
40
0.4603516692304
40
0.4603516692304
40
0.543342626534828
40
0.543342626534828
40
0.584838105187043
40
0.584838105187043
40
0.626333583839257
40
0.626333583839257
40
0.647081323165364
40
0.647081323165364
40
0.667829062491471
40
0.667829062491471
40
0.709324541143686
40
0.709324541143686
40
0.7508200197959
40
0.7508200197959
40
0.771567759122007
40
0.771567759122007
40
0.792315498448114
40
0.792315498448114
40
0.833810977100328
40
0.833810977100328
40
0.875306455752543
40
0.875306455752543
40
0.958297413056971
40
0.958297413056971
40
1
40
1
40
1
40
1
41
1
10
79.2798421406866
20
-6.01935490847904
30
0
41
1
10
78.6955695317
20
-6.11180487416587
30
0
41
1
10
78.1117037552341
20
-6.1799140499524
30
0
41
1
10
77.2592958683491
20
-6.24264168921468
30
0
41
1
10
76.9913918175634
20
-6.257075209899
30
0
41
1
10
76.4559569152024
20
-6.27528538800908
30
0
41
1
10
76.1885571029647
20
-6.27907032878497
30
0
41
1
10
75.3868640771016
20
-6.27455947281209
30
0
41
1
10
74.8531893440695
20
-6.25039511412552
30
0
41
1
10
74.051991242794
20
-6.18263055390941
30
0
41
1
10
73.7847625532745
20
-6.15480211966468
30
0
41
1
10
73.2496556864136
20
-6.08874337918365
30
0
41
1
10
72.9815570130869
20
-6.05047015759032
30
0
41
1
10
72.1785948220891
20
-5.92063208424344
30
0
41
1
10
71.64458680715
20
-5.81394383595827
30
0
41
1
10
70.5766981318069
20
-5.56205730834779
30
0
41
1
10
70.0426052336254
20
-5.41702095446436
30
0
41
1
10
69.2393936010684
20
-5.17233412939976
30
0
41
1
10
68.9712841886641
20
-5.08623055054386
30
0
41
1
10
68.4362367826791
20
-4.90581421431779
30
0
41
1
10
68.1690331766462
20
-4.8114342001889
30
0
41
1
10
67.3677463183475
20
-4.51654767378591
30
0
41
1
10
66.8339493077521
20
-4.30434610810019
30
0
41
1
10
65.7646328330157
20
-3.8519786582587
30
0
41
1
10
65.2283183804693
20
-3.61111341233558
30
0
41
1
10
63.6238435119818
20
-2.8562247994447
30
0
41
1
10
62.5575418282318
20
-2.30998647436877
30
0
41
1
10
60.4140168310069
20
-1.16323506350204
30
0
41
1
10
59.3479361490237
20
-0.570266362818728
30
0
41
1
10
57.7429521739634
20
0.322744353064394
30
0
41
1
10
57.2065312054114
20
0.620856989957957
30
0
41
1
10
56.1370939153637
20
1.208768748339
30
0
41
1
10
55.6032644029922
20
1.49946367316645
30
0
41
1
10
54.8016599860388
20
1.92673797489715
30
0
41
1
10
54.5343154179766
20
2.06770266905539
30
0
41
1
10
53.9989798715434
20
2.34608425830334
30
0
41
1
10
53.7307610061178
20
2.48363025953478
30
0
41
1
10
52.9274652731148
20
2.88898427776761
30
0
41
1
10
52.3932473304271
20
3.14978346038419
30
0
41
1
10
51.3248341409943
20
3.64849835709131
30
0
41
1
10
50.7904925854414
20
3.88619898676828
30
0
41
1
10
49.9870556492287
20
4.22267767261533
30
0
41
1
10
49.7188696069751
20
4.33151737634682
30
0
41
1
10
49.1835698668753
20
4.54124147108448
30
0
41
1
10
48.9162005271734
20
4.6422291232644
30
0
41
1
10
48.1143967585232
20
4.93297408895478
30
0
41
1
10
47.5804289147388
20
5.11069902088141
30
0
41
1
10
46.5108512860868
20
5.4308612478377
30
0
41
1
10
45.9742600618108
20
5.57348980629976
30
0
41
1
10
44.3688872280343
20
5.94233677146929
30
0
41
1
10
43.3024115460267
20
6.11005315212884
30
0
41
1
10
41.6912167478876
20
6.23630047670613
30
0
41
1
10
41.1538533681395
20
6.25713251322281
30
0
41
1
10
40.6167211705791
20
6.25664204522195
30
0
0
SPLINE
5
E4
100
AcDbEntity
8
SK1
62
256
6
ByLayer
370
18
48
1
60
0
100
AcDbSpline
70
4
71
3
72
14
73
10
40
0
40
0
40
0
40
0
40
0.500000000000006
40
0.500000000000006
40
0.750000000000006
40
0.750000000000006
40
0.875000000000003
40
0.875000000000003
40
1
40
1
40
1
40
1
41
1
10
-43.4
20
0.820691924787269
30
0
41
1
10
-43.3790445776494
20
0.831858292431122
30
0
41
1
10
-43.3587362712602
20
0.848654360757308
30
0
41
1
10
-43.3304966181166
20
0.885089045086346
30
0
41
1
10
-43.3215144183093
20
0.899131811410598
30
0
41
1
10
-43.3103236218556
20
0.924019399158084
30
0
41
1
10
-43.3069030532022
20
0.933146655221719
30
0
41
1
10
-43.3017205322973
20
0.953064203622858
30
0
41
1
10
-43.3
20
0.963880758573595
30
0
41
1
10
-43.3
20
0.97457884994185
30
0
0
SPLINE
5
E5
100
AcDbEntity
8
SK1
62
256
6
ByLayer
370
18
48
1
60
0
100
AcDbSpline
70
4
71
3
72
8
73
4
40
0
40
0
40
0
40
0
40
1
40
1
40
1
40
1
41
1
10
-45
20
0.0426193548180152
30
0
41
1
10
-44.9861720353187
20
0.0349957791889892
30
0
41
1
10
-44.9723342692865
20
0.0273737163806516
30
0
41
1
10
-44.9584870316789
20
0.0197531222735847
30
0
0
SPLINE
5
E6
100
AcDbEntity
8
SK1
62
256
6
ByLayer
370
18
48
1
60
0
100
AcDbSpline
70
4
71
3
72
8
73
4
40
0
40
0
40
0
40
0
40
1
40
1
40
1
40
1
41
1
10
-44.9146041230418
20
2.38735393097693
30
0
41
1
10
-44.9406545363151
20
2.40946042613757
30
0
41
1
10
-44.969275861472
20
2.42407610511077
30
0
41
1
10
-45
20
2.43111693798008
30
0
0
SPLINE
5
E7
100
AcDbEntity
8
SK1
62
256
6
ByLayer
370
18
48
1
60
0
100
AcDbSpline
70
4
71
3
72
10
73
6
40
0
40
0
40
0
40
0
40
0.5
40
0.5
40
1
40
1
40
1
40
1
41
1
10
-45
20
-0.0426193548179867
30
0
41
1
10
-44.737713827477
20
0.101983160357975
30
0
41
1
10
-44.4719013472695
20
0.246041396348517
30
0
41
1
10
-43.9377246739738
20
0.533671468803107
30
0
41
1
10
-43.6692078212184
20
0.677241057797914
30
0
41
1
10
-43.4
20
0.820691924787354
30
0
0
SPLINE
5
E8
100
AcDbEntity
8
SK1
62
256
6
ByLayer
370
18
48
1
60
0
100
AcDbSpline
70
4
71
3
72
10
73
6
40
0
40
0
40
0
40
0
40
0.5
40
0.5
40
1
40
1
40
1
40
1
41
1
10
-43.4
20
3.2036756127296
30
0
41
1
10
-43.6546302957082
20
3.06799256861962
30
0
41
1
10
-43.908637868078
20
2.93220155207561
30
0
41
1
10
-44.4141736669069
20
2.66020598291053
30
0
41
1
10
-44.6657859193823
20
2.52401432462568
30
0
41
1
10
-44.9146041230418
20
2.38735393097693
30
0
0
SPLINE
5
E9
100
AcDbEntity
8
SK1
62
256
6
ByLayer
370
18
48
1
60
0
100
AcDbSpline
70
4
71
3
72
14
73
10
40
0
40
0
40
0
40
0
40
0.25
40
0.25
40
0.5
40
0.5
40
0.75
40
0.75
40
1
40
1
40
1
40
1
41
1
10
-45
20
2.43111693798011
30
0
41
1
10
-45
20
2.42960534948492
30
0
41
1
10
-45
20
2.42147662840225
30
0
41
1
10
-45
20
2.39190519920541
30
0
41
1
10
-45
20
2.37088491139804
30
0
41
1
10
-45
20
2.31668101788495
30
0
41
1
10
-45
20
2.28308173830916
30
0
41
1
10
-45
20
2.20651088900999
30
0
41
1
10
-45
20
2.16332429474596
30
0
41
1
10
-45
20
2.11505147901579
30
0
0
SPLINE
5
EA
100
AcDbEntity
8
SK1
62
256
6
ByLayer
370
18
48
1
60
0
100
AcDbSpline
70
4
71
3
72
14
73
10
40
0
40
0
40
0
40
0
40
0.125000000000002
40
0.125000000000002
40
0.250000000000004
40
0.250000000000004
40
0.500000000000006
40
0.500000000000006
40
1
40
1
40
1
40
1
41
1
10
-43.3
20
3.16692384284869
30
0
41
1
10
-43.3
20
3.17646218157023
30
0
41
1
10
-43.3017012565589
20
3.18445503160717
30
0
41
1
10
-43.3069010451287
20
3.19714609663907
30
0
41
1
10
-43.3102603620514
20
3.20179776810812
30
0
41
1
10
-43.3216024497887
20
3.21293640702902
30
0
41
1
10
-43.3304674144333
20
3.21631368849427
30
0
41
1
10
-43.3586594529452
20
3.22036633370254
30
0
41
1
10
-43.3789281721554
20
3.21490400854543
30
0
41
1
10
-43.4
20
3.2036756127296
30
0
0
SPLINE
5
EB
100
AcDbEntity
8
SK1
62
256
6
ByLayer
370
18
48
1
60
0
100
AcDbSpline
70
4
71
3
72
26
73
22
40
0
40
0
40
0
40
0
40
0.125
40
0.125
40
0.25
40
0.25
40
0.375
40
0.375
40
0.4375
40
0.4375
40
0.5
40
0.5
40
0.5625
40
0.5625
40
0.625000000000001
40
0.625000000000001
40
0.75
40
0.75
40
0.875
40
0.875
40
1
40
1
40
1
40
1
41
1
10
-44.9999999999996
20
2.11505147901565
30
0
41
1
10
-44.954092233972
20
2.12230826248344
30
0
41
1
10
-44.9089960485943
20
2.1300599844096
30
0
41
1
10
-44.821182698761
20
2.14701426244278
30
0
41
1
10
-44.778431603551
20
2.15619612604658
30
0
41
1
10
-44.6969149451062
20
2.17699041028089
30
0
41
1
10
-44.6588279071158
20
2.1884155272474
30
0
41
1
10
-44.610893032609
20
2.20784846408813
30
0
41
1
10
-44.596718117707
20
2.21461896676067
30
0
41
1
10
-44.5731700322999
20
2.22893974530658
30
0
41
1
10
-44.5637045878649
20
2.2366172778548
30
0
41
1
10
-44.5521015780944
20
2.25236870074042
30
0
41
1
10
-44.5499234157519
20
2.26047713654361
30
0
41
1
10
-44.5537617083829
20
2.27666225667178
30
0
41
1
10
-44.5596338073056
20
2.28450446631544
30
0
41
1
10
-44.5876808846858
20
2.30737048770291
30
0
41
1
10
-44.6189463504376
20
2.32076249154645
30
0
41
1
10
-44.6918532646973
20
2.34421228681569
30
0
41
1
10
-44.7331637560982
20
2.35424151740767
30
0
41
1
10
-44.8213463658135
20
2.37235832717755
30
0
41
1
10
-44.8675272700891
20
2.38025575675522
30
0
41
1
10
-44.9146041230418
20
2.38735393097693
30
0
0
LINE
5
76
100
AcDbEntity
8
81
62
256
6
ByLayer
370
18
48
1
60
0
100
AcDbLine
10
115
20
0
30
0
11
120
21
0
31
0
39
0
210
0
220
0
230
1
0
LINE
5
77
100
AcDbEntity
8
1
62
256
6
ByLayer
370
18
48
1
60
0
100
AcDbLine
10
10
20
6.23827
30
0
11
1.366482
21
6.23309
31
0
39
0
210
0
220
0
230
1
0
LINE
5
79
100
AcDbEntity
8
1
62
256
6
ByLayer
370
18
48
1
60
0
100
AcDbLine
10
40.622599
20
6.256643
30
0
11
39.649572
21
6.256059
31
0
39
0
210
0
220
0
230
1
0
LINE
5
7A
100
AcDbEntity
8
1
62
256
6
ByLayer
370
18
48
1
60
0
100
AcDbLine
10
76.02342
20
6.277884
30
0
11
75.059992
21
6.277306
31
0
39
0
210
0
220
0
230
1
0
LINE
5
7B
100
AcDbEntity
8
1
62
256
6
ByLayer
370
18
48
1
60
0
100
AcDbLine
10
111.425838
20
6.299125
30
0
11
110.469621
21
6.298551
31
0
39
0
210
0
220
0
230
1
0
LINE
5
7C
100
AcDbEntity
8
1
62
256
6
ByLayer
370
18
48
1
60
0
100
AcDbLine
10
110.469621
20
-6.298551
30
0
11
111.425388
21
-6.299125
31
0
39
0
210
0
220
0
230
1
0
LINE
5
7D
100
AcDbEntity
8
1
62
256
6
ByLayer
370
18
48
1
60
0
100
AcDbLine
10
75.059992
20
-6.277306
30
0
11
76.022982
21
-6.277884
31
0
39
0
210
0
220
0
230
1
0
LINE
5
7E
100
AcDbEntity
8
1
62
256
6
ByLayer
370
18
48
1
60
0
100
AcDbLine
10
39.649572
20
-6.256059
30
0
11
40.622593
21
-6.256643
31
0
39
0
210
0
220
0
230
1
0
LINE
5
7F
100
AcDbEntity
8
1
62
256
6
ByLayer
370
18
48
1
60
0
100
AcDbLine
10
1.366482
20
-6.23309
30
0
11
10
21
-6.23827
31
0
39
0
210
0
220
0
230
1
0
LINE
5
80
100
AcDbEntity
8
SK1
62
256
6
ByLayer
370
18
48
1
60
0
100
AcDbLine
10
-43.267949
20
7
30
0
11
-45
21
4
31
0
39
0
210
0
220
0
230
1
0
LINE
5
82
100
AcDbEntity
8
SK1
62
256
6
ByLayer
370
18
48
1
60
0
100
AcDbLine
10
-45
20
-4
30
0
11
-43.267949
21
-7
31
0
39
0
210
0
220
0
230
1
0
LINE
5
83
100
AcDbEntity
8
SK1
62
256
6
ByLayer
370
18
48
1
60
0
100
AcDbLine
10
0
20
7
30
0
11
-43.267949
21
7
31
0
39
0
210
0
220
0
230
1
0
LINE
5
84
100
AcDbEntity
8
SK1
62
256
6
ByLayer
370
18
48
1
60
0
100
AcDbLine
10
-43.267949
20
-7
30
0
11
0
21
-7
31
0
39
0
210
0
220
0
230
1
0
LINE
5
85
100
AcDbEntity
8
SK4
62
256
6
ByLayer
370
18
48
0.05
60
0
100
AcDbLine
10
120
20
0
30
0
11
-50
21
0
31
0
39
0
210
0
220
0
230
1
0
LINE
5
87
100
AcDbEntity
8
4
62
256
6
ByLayer
370
18
48
0.05
60
0
100
AcDbLine
10
115
20
0
30
0
11
0
21
0
31
0
39
0
210
0
220
0
230
1
0
LINE
5
89
100
AcDbEntity
8
80
62
256
6
ByLayer
370
18
48
1
60
0
100
AcDbLine
10
0
20
0
30
0
11
-5
21
0
31
0
39
0
210
0
220
0
230
1
0
LINE
5
8A
100
AcDbEntity
8
1
62
256
6
ByLayer
370
13
48
1
60
0
100
AcDbLine
10
114.689805
20
1.120889
30
0
11
113.284854
21
1.120889
31
0
39
0
210
0
220
0
230
1
0
LINE
5
8B
100
AcDbEntity
8
1
62
256
6
ByLayer
370
18
48
1
60
0
100
AcDbLine
10
0
20
-7
30
0
11
0
21
7
31
0
39
0
210
0
220
0
230
1
0
LINE
5
8C
100
AcDbEntity
8
1
62
256
6
ByLayer
370
18
48
1
60
0
100
AcDbLine
10
115
20
0
30
0
11
112.807816
21
-6.022975
31
0
39
0
210
0
220
0
230
1
0
LINE
5
8D
100
AcDbEntity
8
1
62
256
6
ByLayer
370
18
48
1
60
0
100
AcDbLine
10
114.986724
20
0.059558
30
0
11
115
21
0
31
0
39
0
210
0
220
0
230
1
0
LINE
5
8E
100
AcDbEntity
8
1
62
256
6
ByLayer
370
18
48
1
60
0
100
AcDbLine
10
114.907409
20
-0.317527
30
0
11
114.689805
21
-1.120889
31
0
39
0
210
0
220
0
230
1
0
LINE
5
8F
100
AcDbEntity
8
1
62
256
6
ByLayer
370
18
48
1
60
0
100
AcDbLine
10
111.826598
20
-3.524845
30
0
11
114.894075
21
-0.106198
31
0
39
0
210
0
220
0
230
1
0
LINE
5
90
100
AcDbEntity
8
1
62
256
6
ByLayer
370
18
48
1
60
0
100
AcDbLine
10
10
20
6.23827
30
0
11
10
21
5.745026
31
0
39
0
210
0
220
0
230
1
0
LINE
5
91
100
AcDbEntity
8
1
62
256
6
ByLayer
370
18
48
1
60
0
100
AcDbLine
10
114.907409
20
0.317527
30
0
11
114.689805
21
1.120889
31
0
39
0
210
0
220
0
230
1
0
LINE
5
92
100
AcDbEntity
8
1
62
256
6
ByLayer
370
13
48
1
60
0
100
AcDbLine
10
0.683001
20
6.616545
30
0
11
0.683001
21
-6.616545
31
0
39
0
210
0
220
0
230
1
0
LINE
5
93
100
AcDbEntity
8
1
62
256
6
ByLayer
370
13
48
1
60
0
100
AcDbLine
10
1.366482
20
6.23309
30
0
11
1.366482
21
-6.23309
31
0
39
0
210
0
220
0
230
1
0
LINE
5
94
100
AcDbEntity
8
1
62
256
6
ByLayer
370
18
48
1
60
0
100
AcDbLine
10
10
20
-6.23827
30
0
11
10
21
-1.882258
31
0
39
0
210
0
220
0
230
1
0
LINE
5
95
100
AcDbEntity
8
1
62
256
6
ByLayer
370
13
48
1
60
0
100
AcDbLine
10
113.115395
20
0.774465
30
0
11
114.894075
21
-0.106198
31
0
39
0
210
0
220
0
230
1
0
LINE
5
96
100
AcDbEntity
8
1
62
256
6
ByLayer
370
18
48
1
60
0
100
AcDbLine
10
115
20
0
30
0
11
114.986724
21
-0.059558
31
0
39
0
210
0
220
0
230
1
0
LINE
5
97
100
AcDbEntity
8
1
62
256
6
ByLayer
370
13
48
1
60
0
100
AcDbLine
10
113.284854
20
1.120889
30
0
11
114.907409
21
0.317527
31
0
39
0
210
0
220
0
230
1
0
LINE
5
98
100
AcDbEntity
8
SK1
62
256
6
ByLayer
370
18
48
1
60
0
100
AcDbLine
10
-43.267949
20
7
30
0
11
-43.267949
21
-7
31
0
39
0
210
0
220
0
230
1
0
LINE
5
99
100
AcDbEntity
8
SK1
62
256
6
ByLayer
370
18
48
1
60
0
100
AcDbLine
10
-45
20
4
30
0
11
-45
21
2.431117
31
0
39
0
210
0
220
0
230
1
0
LINE
5
9A
100
AcDbEntity
8
SK1
62
256
6
ByLayer
370
13
48
1
60
0
100
AcDbLine
10
-43.4
20
3.203676
30
0
11
-43.4
21
0.820747
31
0
39
0
210
0
220
0
230
1
0
LINE
5
9B
100
AcDbEntity
8
SK1
62
256
6
ByLayer
370
18
48
1
60
0
100
AcDbLine
10
-43.3
20
0.974579
30
0
11
-43.3
21
3.166924
31
0
39
0
210
0
220
0
230
1
0
LINE
5
9C
100
AcDbEntity
8
SK1
62
256
6
ByLayer
370
18
48
1
60
0
100
AcDbLine
10
0
20
-7
30
0
11
0
21
7
31
0
39
0
210
0
220
0
230
1
0
LINE
5
9D
100
AcDbEntity
8
SK1
62
256
6
ByLayer
370
18
48
1
60
0
100
AcDbLine
10
-45
20
2.115051
30
0
11
-45
21
0.042619
31
0
39
0
210
0
220
0
230
1
0
LINE
5
9E
100
AcDbEntity
8
SK1
62
256
6
ByLayer
370
18
48
1
60
0
100
AcDbLine
10
-45
20
-0.042619
30
0
11
-45
21
-4
31
0
39
0
210
0
220
0
230
1
0
MTEXT
5
EC
100
AcDbEntity
8
SK6
62
256
6
ByLayer
370
13
48
1
60
0
100
AcDbMText
10
37.129169
20
38.682694
30
0
210
0
220
0
230
1
1
\W0.7415;R840-1260-70-A1A1220
40
3.5
41
0
44
1.084337
50
0
71
8
72
5
7
iso_b_vert
0
DIMENSION
5
F9
100
AcDbEntity
8
SK2
62
256
6
ByLayer
370
13
48
1
60
0
100
AcDbDimension
2
DimnDraft3D1
10
112.84
20
-16.513398
30
0
11
54.590059
21
-16.513398
31
0
70
32
71
5
72
1
41
1
210
0
220
0
230
1
3
Standard
100
AcDbAlignedDimension
13
0
23
-1.5875
33
0
14
112.84
24
-7.8875
34
0
50
0
100
AcDbRotatedDimension
1001
ACAD
1000
DSTYLE
1002
{
1070
   279
1070
     0
1070
   172
1070
     1
1070
   173
1070
     1
1070
   340
1005
ED
1070
   271
1070
     2
1070
   272
1070
     2
1070
    77
1070
     1
1070
    73
1070
     0
1070
   171
1070
     3
1070
   274
1070
     4
1070
   177
1070
    35
1070
   176
1070
    35
1070
   178
1070
    35
1070
    48
1040
-0.005
1070
    41
1041
3.5
1070
   147
1041
1.75
1070
    42
1041
1.5875
1070
    44
1041
2.0
1070
   140
1041
3.5
1070
   343
1005
0
1070
   344
1005
0
1002
}
0
DIMENSION
5
103
100
AcDbEntity
8
SK2
62
256
6
ByLayer
370
13
48
1
60
0
100
AcDbDimension
2
DimnDraft3D2
10
115
20
-35.692985
30
0
11
34.1813
21
-35.692985
31
0
70
32
71
5
72
1
41
1
210
0
220
0
230
1
3
Standard
100
AcDbAlignedDimension
13
-45
23
-8.5875
33
0
14
115
24
-1.5875
34
0
50
0
100
AcDbRotatedDimension
1001
ACAD
1000
DSTYLE
1002
{
1070
   279
1070
     0
1070
   172
1070
     1
1070
   173
1070
     1
1070
   340
1005
ED
1070
   271
1070
     2
1070
   272
1070
     2
1070
    77
1070
     1
1070
    73
1070
     0
1070
   171
1070
     3
1070
   274
1070
     4
1070
   177
1070
    35
1070
   176
1070
    35
1070
   178
1070
    35
1070
    48
1040
-0.005
1070
    41
1041
3.5
1070
   147
1041
1.75
1070
    42
1041
1.5875
1070
    44
1041
2.0
1070
   140
1041
3.5
1070
   343
1005
0
1070
   344
1005
0
1002
}
0
DIMENSION
5
10D
100
AcDbEntity
8
SK2
62
256
6
ByLayer
370
13
48
1
60
0
100
AcDbDimension
2
DimnDraft3D3
10
115
20
17.909119
30
0
11
63.52
21
17.909119
31
0
70
32
71
5
72
1
41
1
210
0
220
0
230
1
3
Standard
100
AcDbAlignedDimension
13
12.04
23
7.8875
33
0
14
115
24
1.5875
34
0
50
0
100
AcDbRotatedDimension
1001
ACAD
1000
DSTYLE
1002
{
1070
   279
1070
     0
1070
   172
1070
     1
1070
   173
1070
     1
1070
   340
1005
ED
1070
   271
1070
     2
1070
   272
1070
     2
1070
    77
1070
     1
1070
    73
1070
     0
1070
   171
1070
     3
1070
   274
1070
     4
1070
   177
1070
    35
1070
   176
1070
    35
1070
   178
1070
    35
1070
    48
1040
-0.005
1070
    41
1041
3.5
1070
   147
1041
1.75
1070
    42
1041
1.5875
1070
    44
1041
2.0
1070
   140
1041
3.5
1070
   343
1005
0
1070
   344
1005
0
1002
}
0
DIMENSION
5
117
100
AcDbEntity
8
SK2
62
256
6
ByLayer
370
13
48
1
60
0
100
AcDbDimension
2
DimnDraft3D4
10
112.84
20
-19.102503
30
0
11
124.981425
21
-19.102503
31
0
70
32
71
5
72
1
41
1
210
0
220
0
230
1
3
Standard
100
AcDbAlignedDimension
13
115
23
-1.5875
33
0
14
112.84
24
-7.8875
34
0
50
0
100
AcDbRotatedDimension
1001
ACAD
1000
DSTYLE
1002
{
1070
   279
1070
     0
1070
   172
1070
     1
1070
   173
1070
     1
1070
   340
1005
ED
1070
   271
1070
     2
1070
   272
1070
     2
1070
    77
1070
     1
1070
    73
1070
     0
1070
   171
1070
     3
1070
   274
1070
     4
1070
   177
1070
    35
1070
   176
1070
    35
1070
   178
1070
    35
1070
    48
1040
-0.005
1070
    41
1041
3.5
1070
   147
1041
1.75
1070
    42
1041
1.5875
1070
    44
1041
2.0
1070
   140
1041
3.5
1070
   343
1005
0
1070
   344
1005
0
1002
}
0
DIMENSION
5
121
100
AcDbEntity
8
SK2
62
256
6
ByLayer
370
13
48
1
60
0
100
AcDbDimension
2
DimnDraft3D5
10
112.84
20
-25.343428
30
0
11
31.100676
21
-25.343428
31
0
70
32
71
5
72
1
41
1
210
0
220
0
230
1
3
Standard
100
AcDbAlignedDimension
13
-45
23
-8.5875
33
0
14
112.84
24
-7.8875
34
0
50
0
100
AcDbRotatedDimension
1001
ACAD
1000
DSTYLE
1002
{
1070
   279
1070
     0
1070
   172
1070
     1
1070
   173
1070
     1
1070
   340
1005
ED
1070
   271
1070
     2
1070
   272
1070
     2
1070
    77
1070
     1
1070
    73
1070
     0
1070
   171
1070
     3
1070
   274
1070
     4
1070
   177
1070
    35
1070
   176
1070
    35
1070
   178
1070
    35
1070
    48
1040
-0.005
1070
    41
1041
3.5
1070
   147
1041
1.75
1070
    42
1041
1.5875
1070
    44
1041
2.0
1070
   140
1041
3.5
1070
   343
1005
0
1070
   344
1005
0
1002
}
0
DIMENSION
5
12C
100
AcDbEntity
8
SK2
62
256
6
ByLayer
370
13
48
1
60
0
100
AcDbDimension
2
DimnDraft3D6
10
-55.625163
20
7
30
0
11
-56.250163
21
25.47418
31
0
70
33
71
5
72
1
41
1
210
0
220
0
230
1
3
Standard
100
AcDbAlignedDimension
13
-46.5875
23
-7
33
0
14
-46.5875
24
7
34
0
1001
ACAD
1000
DSTYLE
1002
{
1070
   279
1070
     0
1070
    74
1070
     0
1070
   173
1070
     1
1070
   340
1005
ED
1070
   271
1070
     3
1070
   272
1070
     2
1070
    77
1070
     1
1070
    73
1070
     0
1070
   171
1070
     3
1070
   274
1070
     4
1070
   177
1070
    35
1070
   176
1070
    35
1070
   178
1070
    35
1070
    48
1040
-0.005
1070
    41
1041
3.5
1070
   147
1041
1.75
1070
    42
1041
1.5875
1070
    44
1041
2.0
1070
   140
1041
3.5
1070
   343
1005
0
1070
   344
1005
0
1002
}
0
DIMENSION
5
137
100
AcDbEntity
8
2
62
256
6
ByLayer
370
13
48
1
60
0
100
AcDbDimension
2
DimnDraft3D7
10
129.083343
20
6.3
30
0
11
124.458343
21
23.367266
31
0
70
33
71
5
72
1
41
1
210
0
220
0
230
1
3
Standard
100
AcDbAlignedDimension
13
114.4275
23
-6.3
33
0
14
114.4275
24
6.3
34
0
1001
ACAD
1000
DSTYLE
1002
{
1070
   279
1070
     0
1070
    74
1070
     0
1070
   173
1070
     1
1070
   340
1005
ED
1070
   271
1070
     3
1070
   272
1070
     2
1070
    77
1070
     1
1070
    73
1070
     0
1070
   171
1070
     3
1070
   274
1070
     4
1070
   177
1070
    35
1070
   176
1070
    35
1070
   178
1070
    35
1070
    48
1040
-0.005
1070
    41
1041
3.5
1070
   147
1041
1.75
1070
    42
1041
1.5875
1070
    44
1041
2.0
1070
   140
1041
3.5
1070
   343
1005
0
1070
   344
1005
0
1002
}
0
ENDSEC
0
SECTION
2
OBJECTS
0
DICTIONARY
5
1a2
330
0
100
AcDbDictionary
280
0
281
1
3
ACAD_GROUP
350
1a3
3
ACAD_MLINESTYLE
350
1a4
0
DICTIONARY
5
1a3
330
0
100
AcDbDictionary
280
0
281
1
0
DICTIONARY
5
1a4
330
0
100
AcDbDictionary
280
0
281
1
3
Standard
350
18
0
MLINESTYLE
5
18
330
1a4
100
AcDbMlineStyle
2
Standard
70
0
3

62
256
51
90
52
90
71
2
49
-0.5
62
256
6
ByLayer
49
0.5
62
256
6
ByLayer
0
RASTERVARIABLES
5
190
330

100
AcDbRasterVariables
90
0
70
1
71
1
72
1
0
ENDSEC
0
EOF
