0
SECTION
2
HEADER
9
$ACADVER
1
AC1015
9
$DWGCODEPAGE
3
ANSI_1252
9
$HANDSEED
5
1a9
9
$ANGBASE
50
0
9
$ANGDIR
70
0
9
$ATTMODE
70
1
9
$AUNITS
70
0
9
$AUPREC
70
0
9
$CECOLOR
62
256
9
$CELTSCALE
40
1
9
$CELTYPE
6
ByLayer
9
$CELWEIGHT
370
18
9
$CLAYER
8
0
9
$CMLJUST
70
0
9
$CMLSCALE
40
1
9
$CMLSTYLE
2
Standard
9
$DIMSTYLE
2
Standard
9
$TEXTSIZE
40
0.2
9
$TEXTSTYLE
7
Standard
9
$LUNITS
70
2
9
$LUPREC
70
4
9
$EXTNAMES
290
1
9
$INSUNITS
70
4
9
$LTSCALE
40
1
9
$LWDISPLAY
290
1
9
$PDMODE
70
0
9
$PDSIZE
40
0
9
$PLINEGEN
70
0
0
ENDSEC
0
SECTION
2
CLASSES
0
CLASS
1
RASTERVARIABLES
2
AcDbRasterVariables
3
ISM
90
0
280
0
281
0
0
ENDSEC
0
SECTION
2
TABLES
0
TABLE
2
VPORT
5
19f
100
AcDbSymbolTable
0
VPORT
5
1
100
AcDbSymbolTableRecord
100
AcDbViewportTableRecord
2
*Active
70
0
10
0
20
0
11
1
21
1
12
-1
22
1
13
0
23
0
14
0.5
24
0.5
15
10
25
10
16
0
26
0
36
1
17
0
27
0
37
0
0
ENDTAB
0
TABLE
2
LTYPE
5
1a0
100
AcDbSymbolTable
0
LTYPE
5
14
100
AcDbSymbolTableRecord
100
AcDbLinetypeTableRecord
70
0
2
ByBlock
3

72
65
73
0
40
0
0
LTYPE
5
15
100
AcDbSymbolTableRecord
100
AcDbLinetypeTableRecord
70
0
2
ByLayer
3

72
65
73
0
40
0
0
LTYPE
5
16
100
AcDbSymbolTableRecord
100
AcDbLinetypeTableRecord
70
0
2
CONTINUOUS
3
Solid line
72
65
73
0
40
0
0
LTYPE
5
6A
100
AcDbSymbolTableRecord
100
AcDbLinetypeTableRecord
70
0
2
CENTER
3
____ _ ____ _ ____ _ ____
72
65
73
4
40
47.5
49
22
74
0
49
-8.5
74
0
49
8.5
74
0
49
-8.5
74
0
0
LTYPE
5
6B
100
AcDbSymbolTableRecord
100
AcDbLinetypeTableRecord
70
0
2
DASHED
3
__ __ __ __ __ __ __ __ __
72
65
73
2
40
25.72
49
12.86
74
0
49
-12.86
74
0
0
ENDTAB
0
TABLE
2
LAYER
5
1a1
100
AcDbSymbolTable
0
LAYER
5
10
100
AcDbSymbolTableRecord
100
AcDbLayerTableRecord
2
0
70
0
62
7
6
CONTINUOUS
290
1
370
-3
390
0
0
LAYER
5
6D
100
AcDbSymbolTableRecord
100
AcDbLayerTableRecord
2
81
70
0
62
-3
6
CONTINUOUS
290
1
370
-3
390
0
0
LAYER
5
6F
100
AcDbSymbolTableRecord
100
AcDbLayerTableRecord
2
80
70
0
62
-6
6
CONTINUOUS
290
1
370
-3
390
0
0
LAYER
5
74
100
AcDbSymbolTableRecord
100
AcDbLayerTableRecord
2
2
70
0
62
7
6
CONTINUOUS
290
1
370
-3
390
0
0
LAYER
5
78
100
AcDbSymbolTableRecord
100
AcDbLayerTableRecord
2
1
70
0
62
4
6
CONTINUOUS
290
1
370
-3
390
0
0
LAYER
5
86
100
AcDbSymbolTableRecord
100
AcDbLayerTableRecord
2
4
70
0
62
-2
6
CENTER
290
1
370
-3
390
0
0
LAYER
5
18b
100
AcDbSymbolTableRecord
100
AcDbLayerTableRecord
2
SK2
70
0
62
7
6
CONTINUOUS
290
1
370
-3
390
0
0
LAYER
5
18c
100
AcDbSymbolTableRecord
100
AcDbLayerTableRecord
2
SK1
70
0
62
4
6
CONTINUOUS
290
1
370
-3
390
0
0
LAYER
5
18d
100
AcDbSymbolTableRecord
100
AcDbLayerTableRecord
2
SK4
70
0
62
2
6
CENTER
290
1
370
-3
390
0
0
LAYER
5
18e
100
AcDbSymbolTableRecord
100
AcDbLayerTableRecord
2
SK6
70
0
62
5
6
CONTINUOUS
290
1
370
-3
390
0
0
ENDTAB
0
TABLE
2
STYLE
5
1a2
100
AcDbSymbolTable
0
STYLE
5
11
100
AcDbSymbolTableRecord
100
AcDbTextStyleTableRecord
2
Standard
3
txt
70
0
71
0
40
0
41
1
42
0
50
0
0
STYLE
5
E7
100
AcDbSymbolTableRecord
100
AcDbTextStyleTableRecord
2
iso_b_vert
3
simplex.shx
70
0
71
0
40
0
41
1
42
0
50
0
0
STYLE
5
E8
100
AcDbSymbolTableRecord
100
AcDbTextStyleTableRecord
2
DWGDirectTextStyle
3
simplex
70
0
71
0
40
0
41
1
42
0
50
0
0
ENDTAB
0
TABLE
2
DIMSTYLE
5
1a3
100
AcDbSymbolTable
100
AcDbDimStyleTable
0
DIMSTYLE
105
27
100
AcDbSymbolTableRecord
100
AcDbDimStyleTableRecord
2
Standard
70
0
3
<>
41
0.18
42
0.0625
44
0.18
140
0.18
147
0.09
73
0
74
0
77
1
271
2
275
0
278
52
280
0
340
11
0
ENDTAB
0
TABLE
2
VIEW
5
1a4
100
AcDbSymbolTable
0
ENDTAB
0
TABLE
2
UCS
5
1a5
100
AcDbSymbolTable
0
ENDTAB
0
TABLE
2
APPID
5
1a6
100
AcDbSymbolTable
0
APPID
5
12
100
AcDbSymbolTableRecord
100
AcDbRegAppTableRecord
2
ACAD
70
0
0
ENDTAB
0
TABLE
2
BLOCK_RECORD
5
1a7
100
AcDbSymbolTable
0
BLOCK_RECORD
5
1F
100
AcDbSymbolTableRecord
100
AcDbBlockTableRecord
2
*Model_Space
340
0
70
0
0
BLOCK_RECORD
5
1B
100
AcDbSymbolTableRecord
100
AcDbBlockTableRecord
2
*Paper_Space
340
0
70
0
0
BLOCK_RECORD
5
23
100
AcDbSymbolTableRecord
100
AcDbBlockTableRecord
2
*Paper_Space0
340
0
70
0
0
BLOCK_RECORD
5
EA
100
AcDbSymbolTableRecord
100
AcDbBlockTableRecord
2
DimnDraft3D1
340
0
70
0
0
BLOCK_RECORD
5
F4
100
AcDbSymbolTableRecord
100
AcDbBlockTableRecord
2
DimnDraft3D2
340
0
70
0
0
BLOCK_RECORD
5
FE
100
AcDbSymbolTableRecord
100
AcDbBlockTableRecord
2
DimnDraft3D3
340
0
70
0
0
BLOCK_RECORD
5
108
100
AcDbSymbolTableRecord
100
AcDbBlockTableRecord
2
DimnDraft3D4
340
0
70
0
0
BLOCK_RECORD
5
112
100
AcDbSymbolTableRecord
100
AcDbBlockTableRecord
2
DimnDraft3D5
340
0
70
0
0
BLOCK_RECORD
5
11C
100
AcDbSymbolTableRecord
100
AcDbBlockTableRecord
2
DimnDraft3D6
340
0
70
0
0
BLOCK_RECORD
5
127
100
AcDbSymbolTableRecord
100
AcDbBlockTableRecord
2
DimnDraft3D7
340
0
70
0
0
ENDTAB
0
ENDSEC
0
SECTION
2
BLOCKS
0
BLOCK
5
20
100
AcDbEntity
8
0
100
AcDbBlockBegin
2
*Model_Space
70
0
10
0
20
0
30
0
3
*Model_Space
0
ENDBLK
5
21
100
AcDbEntity
8
0
100
AcDbBlockEnd
0
BLOCK
5
1C
100
AcDbEntity
8
0
100
AcDbBlockBegin
2
*Paper_Space
70
0
10
0
20
0
30
0
3
*Paper_Space
0
ENDBLK
5
1D
100
AcDbEntity
8
0
100
AcDbBlockEnd
0
BLOCK
5
24
100
AcDbEntity
8
0
100
AcDbBlockBegin
2
*Paper_Space0
70
0
10
0
20
0
30
0
3
*Paper_Space0
0
ENDBLK
5
25
100
AcDbEntity
8
0
100
AcDbBlockEnd
0
BLOCK
5
F1
100
AcDbEntity
8
0
100
AcDbBlockBegin
2
DimnDraft3D1
70
0
10
0
20
0
30
0
3
DimnDraft3D1
0
MTEXT
5
EB
100
AcDbEntity
8
SK2
62
256
6
ByLayer
370
13
48
1
60
0
100
AcDbMText
10
32.161375
20
-15.588398
30
0
210
0
220
0
230
1
1
\W0.7317;76,86
40
3.5
41
0
44
1.084337
50
0
71
7
72
5
7
iso_b_vert
0
LINE
5
EC
100
AcDbEntity
8
SK2
62
256
6
ByLayer
370
13
48
1
60
0
100
AcDbLine
10
0
20
-1.5875
30
0
11
0
21
-18.463398
31
0
39
0
210
0
220
0
230
1
0
LINE
5
ED
100
AcDbEntity
8
SK2
62
256
6
ByLayer
370
13
48
1
60
0
100
AcDbLine
10
76.86
20
-7.8375
30
0
11
76.86
21
-18.463398
31
0
39
0
210
0
220
0
230
1
0
LINE
5
EE
100
AcDbEntity
8
SK2
62
256
6
ByLayer
370
13
48
1
60
0
100
AcDbLine
10
0
20
-16.463398
30
0
11
76.86
21
-16.463398
31
0
39
0
210
0
220
0
230
1
0
SOLID
5
EF
100
AcDbEntity
8
SK2
62
256
6
ByLayer
370
13
48
1
60
0
100
AcDbTrace
10
0
20
-16.463398
30
0
11
3.499998
21
-16.002615
31
0
12
3.500002
22
-16.924182
32
0
13
0
23
-16.463398
33
0
39
0
210
0
220
0
230
1
0
SOLID
5
F0
100
AcDbEntity
8
SK2
62
256
6
ByLayer
370
13
48
1
60
0
100
AcDbTrace
10
76.86
20
-16.463398
30
0
11
73.360002
21
-16.924182
31
0
12
73.359998
22
-16.002615
32
0
13
76.86
23
-16.463398
33
0
39
0
210
0
220
0
230
1
0
ENDBLK
5
F2
100
AcDbEntity
8
0
100
AcDbBlockEnd
0
BLOCK
5
FB
100
AcDbEntity
8
0
100
AcDbBlockBegin
2
DimnDraft3D2
70
0
10
0
20
0
30
0
3
DimnDraft3D2
0
MTEXT
5
F5
100
AcDbEntity
8
SK2
62
256
6
ByLayer
370
13
48
1
60
0
100
AcDbMText
10
10.698011
20
-34.817985
30
0
210
0
220
0
230
1
1
\W0.7145;124,00
40
3.5
41
0
44
1.084337
50
0
71
7
72
5
7
iso_b_vert
0
LINE
5
F6
100
AcDbEntity
8
SK2
62
256
6
ByLayer
370
13
48
1
60
0
100
AcDbLine
10
-45
20
-8.5875
30
0
11
-45
21
-37.692985
31
0
39
0
210
0
220
0
230
1
0
LINE
5
F7
100
AcDbEntity
8
SK2
62
256
6
ByLayer
370
13
48
1
60
0
100
AcDbLine
10
79
20
-1.5875
30
0
11
79
21
-37.692985
31
0
39
0
210
0
220
0
230
1
0
LINE
5
F8
100
AcDbEntity
8
SK2
62
256
6
ByLayer
370
13
48
1
60
0
100
AcDbLine
10
-45
20
-35.692985
30
0
11
79
21
-35.692985
31
0
39
0
210
0
220
0
230
1
0
SOLID
5
F9
100
AcDbEntity
8
SK2
62
256
6
ByLayer
370
13
48
1
60
0
100
AcDbTrace
10
-45
20
-35.692985
30
0
11
-41.500002
21
-35.232202
31
0
12
-41.499998
22
-36.153769
32
0
13
-45
23
-35.692985
33
0
39
0
210
0
220
0
230
1
0
SOLID
5
FA
100
AcDbEntity
8
SK2
62
256
6
ByLayer
370
13
48
1
60
0
100
AcDbTrace
10
79
20
-35.692985
30
0
11
75.500002
21
-36.153769
31
0
12
75.499998
22
-35.232202
32
0
13
79
23
-35.692985
33
0
39
0
210
0
220
0
230
1
0
ENDBLK
5
FC
100
AcDbEntity
8
0
100
AcDbBlockEnd
0
BLOCK
5
105
100
AcDbEntity
8
0
100
AcDbBlockBegin
2
DimnDraft3D3
70
0
10
0
20
0
30
0
3
DimnDraft3D3
0
MTEXT
5
FF
100
AcDbEntity
8
SK2
62
256
6
ByLayer
370
13
48
1
60
0
100
AcDbMText
10
41.862895
20
18.734119
30
0
210
0
220
0
230
1
1
\W0.7756;64,64
40
3.5
41
0
44
1.084337
50
0
71
7
72
5
7
iso_b_vert
0
LINE
5
100
100
AcDbEntity
8
SK2
62
256
6
ByLayer
370
13
48
1
60
0
100
AcDbLine
10
14.36
20
7.8375
30
0
11
14.36
21
19.859119
31
0
39
0
210
0
220
0
230
1
0
LINE
5
101
100
AcDbEntity
8
SK2
62
256
6
ByLayer
370
13
48
1
60
0
100
AcDbLine
10
79
20
1.5875
30
0
11
79
21
19.859119
31
0
39
0
210
0
220
0
230
1
0
LINE
5
102
100
AcDbEntity
8
SK2
62
256
6
ByLayer
370
13
48
1
60
0
100
AcDbLine
10
14.36
20
17.859119
30
0
11
79
21
17.859119
31
0
39
0
210
0
220
0
230
1
0
SOLID
5
103
100
AcDbEntity
8
SK2
62
256
6
ByLayer
370
13
48
1
60
0
100
AcDbTrace
10
14.36
20
17.859119
30
0
11
17.859998
21
18.319903
31
0
12
17.860002
22
17.398335
32
0
13
14.36
23
17.859119
33
0
39
0
210
0
220
0
230
1
0
SOLID
5
104
100
AcDbEntity
8
SK2
62
256
6
ByLayer
370
13
48
1
60
0
100
AcDbTrace
10
79
20
17.859119
30
0
11
75.500002
21
17.398335
31
0
12
75.499998
22
18.319903
32
0
13
79
23
17.859119
33
0
39
0
210
0
220
0
230
1
0
ENDBLK
5
106
100
AcDbEntity
8
0
100
AcDbBlockEnd
0
BLOCK
5
10F
100
AcDbEntity
8
0
100
AcDbBlockBegin
2
DimnDraft3D4
70
0
10
0
20
0
30
0
3
DimnDraft3D4
0
MTEXT
5
109
100
AcDbEntity
8
SK2
62
256
6
ByLayer
370
13
48
1
60
0
100
AcDbMText
10
86.093925
20
-18.177503
30
0
210
0
220
0
230
1
1
\W0.6611;2,14
40
3.5
41
0
44
1.084337
50
0
71
7
72
5
7
iso_b_vert
0
LINE
5
10A
100
AcDbEntity
8
SK2
62
256
6
ByLayer
370
13
48
1
60
0
100
AcDbLine
10
79
20
-1.5875
30
0
11
79
21
-21.052503
31
0
39
0
210
0
220
0
230
1
0
LINE
5
10B
100
AcDbEntity
8
SK2
62
256
6
ByLayer
370
13
48
1
60
0
100
AcDbLine
10
76.86
20
-7.8375
30
0
11
76.86
21
-21.052503
31
0
39
0
210
0
220
0
230
1
0
LINE
5
10C
100
AcDbEntity
8
SK2
62
256
6
ByLayer
370
13
48
1
60
0
100
AcDbLine
10
68.11
20
-19.052503
30
0
11
92.743925
21
-19.052503
31
0
39
0
210
0
220
0
230
1
0
SOLID
5
10D
100
AcDbEntity
8
SK2
62
256
6
ByLayer
370
13
48
1
60
0
100
AcDbTrace
10
79
20
-19.052503
30
0
11
82.499998
21
-18.591719
31
0
12
82.500002
22
-19.513287
32
0
13
79
23
-19.052503
33
0
39
0
210
0
220
0
230
1
0
SOLID
5
10E
100
AcDbEntity
8
SK2
62
256
6
ByLayer
370
13
48
1
60
0
100
AcDbTrace
10
76.86
20
-19.052503
30
0
11
73.360002
21
-19.513287
31
0
12
73.359998
22
-18.591719
32
0
13
76.86
23
-19.052503
33
0
39
0
210
0
220
0
230
1
0
ENDBLK
5
110
100
AcDbEntity
8
0
100
AcDbBlockEnd
0
BLOCK
5
119
100
AcDbEntity
8
0
100
AcDbBlockBegin
2
DimnDraft3D5
70
0
10
0
20
0
30
0
3
DimnDraft3D5
0
MTEXT
5
113
100
AcDbEntity
8
SK2
62
256
6
ByLayer
370
13
48
1
60
0
100
AcDbMText
10
8.239097
20
-24.468428
30
0
210
0
220
0
230
1
1
\W0.6440;121,86
40
3.5
41
0
44
1.084337
50
0
71
7
72
5
7
iso_b_vert
0
LINE
5
114
100
AcDbEntity
8
SK2
62
256
6
ByLayer
370
13
48
1
60
0
100
AcDbLine
10
-45
20
-8.5875
30
0
11
-45
21
-27.343428
31
0
39
0
210
0
220
0
230
1
0
LINE
5
115
100
AcDbEntity
8
SK2
62
256
6
ByLayer
370
13
48
1
60
0
100
AcDbLine
10
76.86
20
-7.8375
30
0
11
76.86
21
-27.343428
31
0
39
0
210
0
220
0
230
1
0
LINE
5
116
100
AcDbEntity
8
SK2
62
256
6
ByLayer
370
13
48
1
60
0
100
AcDbLine
10
-45
20
-25.343428
30
0
11
76.86
21
-25.343428
31
0
39
0
210
0
220
0
230
1
0
SOLID
5
117
100
AcDbEntity
8
SK2
62
256
6
ByLayer
370
13
48
1
60
0
100
AcDbTrace
10
-45
20
-25.343428
30
0
11
-41.500002
21
-24.882645
31
0
12
-41.499998
22
-25.804212
32
0
13
-45
23
-25.343428
33
0
39
0
210
0
220
0
230
1
0
SOLID
5
118
100
AcDbEntity
8
SK2
62
256
6
ByLayer
370
13
48
1
60
0
100
AcDbTrace
10
76.86
20
-25.343428
30
0
11
73.360002
21
-25.804212
31
0
12
73.359998
22
-24.882645
32
0
13
76.86
23
-25.343428
33
0
39
0
210
0
220
0
230
1
0
ENDBLK
5
11A
100
AcDbEntity
8
0
100
AcDbBlockEnd
0
BLOCK
5
124
100
AcDbEntity
8
0
100
AcDbBlockBegin
2
DimnDraft3D6
70
0
10
0
20
0
30
0
3
DimnDraft3D6
0
MTEXT
5
11D
100
AcDbEntity
8
SK2
62
256
6
ByLayer
370
13
48
1
60
0
100
AcDbMText
10
-55.375163
20
26.34918
30
0
210
0
220
0
230
1
1
\W0.7145;14,000
40
3.5
41
0
44
1.084337
50
90
71
7
72
5
7
iso_b_vert
0
MTEXT
5
11E
100
AcDbEntity
8
SK2
62
256
6
ByLayer
370
13
48
1
60
0
100
AcDbMText
10
-55.375163
20
21.126524
30
0
210
0
220
0
230
1
1
%%c
40
3.5
41
0
44
1.084337
50
90
71
7
72
5
7
iso_b_vert
0
LINE
5
11F
100
AcDbEntity
8
SK2
62
256
6
ByLayer
370
13
48
1
60
0
100
AcDbLine
10
-46.5875
20
-7
30
0
11
-55.625163
21
-7
31
0
39
0
210
0
220
0
230
1
0
LINE
5
120
100
AcDbEntity
8
SK2
62
256
6
ByLayer
370
13
48
1
60
0
100
AcDbLine
10
-46.5875
20
7
30
0
11
-55.625163
21
7
31
0
39
0
210
0
220
0
230
1
0
LINE
5
121
100
AcDbEntity
8
SK2
62
256
6
ByLayer
370
13
48
1
60
0
100
AcDbLine
10
-53.625163
20
-7
30
0
11
-53.625163
21
38.230759
31
0
39
0
210
0
220
0
230
1
0
SOLID
5
122
100
AcDbEntity
8
SK2
62
256
6
ByLayer
370
13
48
1
60
0
100
AcDbTrace
10
-53.625163
20
-7
30
0
11
-54.085946
21
-3.500002
31
0
12
-53.164379
22
-3.499998
32
0
13
-53.625163
23
-7
33
0
39
0
210
0
220
0
230
1
0
SOLID
5
123
100
AcDbEntity
8
SK2
62
256
6
ByLayer
370
13
48
1
60
0
100
AcDbTrace
10
-53.625163
20
7
30
0
11
-53.164379
21
3.500002
31
0
12
-54.085946
22
3.499998
32
0
13
-53.625163
23
7
33
0
39
0
210
0
220
0
230
1
0
ENDBLK
5
125
100
AcDbEntity
8
0
100
AcDbBlockEnd
0
BLOCK
5
12F
100
AcDbEntity
8
0
100
AcDbBlockBegin
2
DimnDraft3D7
70
0
10
0
20
0
30
0
3
DimnDraft3D7
0
MTEXT
5
128
100
AcDbEntity
8
2
62
256
6
ByLayer
370
13
48
1
60
0
100
AcDbMText
10
89.333343
20
24.192266
30
0
210
0
220
0
230
1
1
\W0.6930;12,500
40
3.5
41
0
44
1.084337
50
90
71
7
72
5
7
iso_b_vert
0
MTEXT
5
129
100
AcDbEntity
8
2
62
256
6
ByLayer
370
13
48
1
60
0
100
AcDbMText
10
89.333343
20
18.96961
30
0
210
0
220
0
230
1
1
%%c
40
3.5
41
0
44
1.084337
50
90
71
7
72
5
7
iso_b_vert
0
LINE
5
12A
100
AcDbEntity
8
2
62
256
6
ByLayer
370
13
48
1
60
0
100
AcDbLine
10
78.4475
20
-6.25
30
0
11
93.083343
21
-6.25
31
0
39
0
210
0
220
0
230
1
0
LINE
5
12B
100
AcDbEntity
8
2
62
256
6
ByLayer
370
13
48
1
60
0
100
AcDbLine
10
78.4475
20
6.25
30
0
11
93.083343
21
6.25
31
0
39
0
210
0
220
0
230
1
0
LINE
5
12C
100
AcDbEntity
8
2
62
256
6
ByLayer
370
13
48
1
60
0
100
AcDbLine
10
91.083343
20
-6.25
30
0
11
91.083343
21
35.705424
31
0
39
0
210
0
220
0
230
1
0
SOLID
5
12D
100
AcDbEntity
8
2
62
256
6
ByLayer
370
13
48
1
60
0
100
AcDbTrace
10
91.083343
20
-6.25
30
0
11
90.622559
21
-2.750002
31
0
12
91.544126
22
-2.749998
32
0
13
91.083343
23
-6.25
33
0
39
0
210
0
220
0
230
1
0
SOLID
5
12E
100
AcDbEntity
8
2
62
256
6
ByLayer
370
13
48
1
60
0
100
AcDbTrace
10
91.083343
20
6.25
30
0
11
91.544126
21
2.750002
31
0
12
90.622559
22
2.749998
32
0
13
91.083343
23
6.25
33
0
39
0
210
0
220
0
230
1
0
ENDBLK
5
130
100
AcDbEntity
8
0
100
AcDbBlockEnd
0
ENDSEC
0
SECTION
2
ENTITIES
0
ARC
5
9B
100
AcDbEntity
8
1
62
256
6
ByLayer
370
18
48
1
60
0
100
AcDbCircle
39
0
10
0
20
6.2
30
0
40
0.800000000000002
210
0
220
0
230
1
100
AcDbArc
50
30.194092
51
90
0
ARC
5
9C
100
AcDbEntity
8
1
62
256
6
ByLayer
370
18
48
1
60
0
100
AcDbCircle
39
0
10
-1.382923
20
7.004689
30
0
40
0.800000000000002
210
0
220
0
230
-1
100
AcDbArc
50
269.965623
51
329.805908
0
ARC
5
9D
100
AcDbEntity
8
1
62
256
6
ByLayer
370
18
48
1
60
0
100
AcDbCircle
39
0
10
-1.382923
20
-7.004689
30
0
40
0.800000000000002
210
0
220
0
230
-1
100
AcDbArc
50
30.194092
51
90.034377
0
ARC
5
9E
100
AcDbEntity
8
1
62
256
6
ByLayer
370
18
48
1
60
0
100
AcDbCircle
39
0
10
0
20
-6.2
30
0
40
0.800000000000002
210
0
220
0
230
1
100
AcDbArc
50
270
51
329.805908
0
ELLIPSE
5
9F
100
AcDbEntity
8
1
62
256
6
ByLayer
370
13
48
1
60
0
100
AcDbEllipse
10
4.179035
20
-6.038719
30
0
11
-0.0450573134277859
21
0.0892739520054437
31
0
210
0
220
0
230
1
40
0.447245
41
0.0583722092092793
42
1.39184214351405
0
ELLIPSE
5
A0
100
AcDbEntity
8
1
62
256
6
ByLayer
370
18
48
1
60
0
100
AcDbEllipse
10
79.019612
20
0.049121
30
0
11
0.135658546004926
21
-0.401200806156318
31
0
210
0
220
0
230
-1
40
0.065863
41
1.61789206274197
42
2.32292776272068
0
ELLIPSE
5
A1
100
AcDbEntity
8
1
62
256
6
ByLayer
370
13
48
1
60
0
100
AcDbEllipse
10
78.024832
20
2.836961
30
0
11
4.14714555880008
21
-2.13200325906316
31
0
210
0
220
0
230
-1
40
0.482873
41
1.53949524921358
42
1.85359116194561
0
ELLIPSE
5
A2
100
AcDbEntity
8
1
62
256
6
ByLayer
370
13
48
1
60
0
100
AcDbEllipse
10
4.250178
20
-6.023024
30
0
11
0.00295328450997375
21
0.0999563810399474
31
0
210
0
220
0
230
1
40
0.471292
41
0.0600863966353342
42
1.6185078945961
0
ELLIPSE
5
A3
100
AcDbEntity
8
1
62
256
6
ByLayer
370
18
48
1
60
0
100
AcDbEllipse
10
77.842974
20
2.971253
30
0
11
0.962348025379327
21
-2.62380959141063
31
0
210
0
220
0
230
-1
40
0.082138
41
-1.57504095482018
42
-0.755280950344346
0
ELLIPSE
5
A4
100
AcDbEntity
8
1
62
256
6
ByLayer
370
13
48
1
60
0
100
AcDbEllipse
10
77.295097
20
0.902965
30
0
11
0.133113781883889
21
0.268850741253523
31
0
210
0
220
0
230
1
40
0.40558
41
0.884485917131019
42
2.28074931872635
0
ELLIPSE
5
A5
100
AcDbEntity
8
1
62
256
6
ByLayer
370
18
48
1
60
0
100
AcDbEllipse
10
79.019612
20
-0.049121
30
0
11
0.135658546051466
21
0.40120080627642
31
0
210
0
220
0
230
-1
40
0.065863
41
-2.32292776272125
42
-1.61789206293562
0
ELLIPSE
5
A6
100
AcDbEntity
8
1
62
256
6
ByLayer
370
18
48
1
60
0
100
AcDbEllipse
10
77.842974
20
-2.971253
30
0
11
0.962348025398553
21
2.62380959145577
31
0
210
0
220
0
230
-1
40
0.082138
41
0.755280950346995
42
1.57504095480911
0
ELLIPSE
5
A7
100
AcDbEntity
8
1
62
256
6
ByLayer
370
18
48
1
60
0
100
AcDbEllipse
10
79.000529
20
0.001365
30
0
11
2.2917666320767
21
6.24842478139539
31
0
210
0
220
0
230
-1
40
0.082138
41
2.89727907442714
42
2.98951815635327
0
ELLIPSE
5
A8
100
AcDbEntity
8
1
62
256
6
ByLayer
370
18
48
1
60
0
100
AcDbEllipse
10
79.000529
20
-0.001365
30
0
11
2.2917667171721
21
-6.24842502567136
31
0
210
0
220
0
230
-1
40
0.082138
41
-2.98951815931846
42
-2.89727907922041
0
ELLIPSE
5
A9
100
AcDbEntity
8
1
62
256
6
ByLayer
370
13
48
1
60
0
100
AcDbEllipse
10
78.194291
20
2.971253
30
0
11
4.19339567745802
21
-1.82117064043598
31
0
210
0
220
0
230
-1
40
0.450826
41
1.58947096280648
42
1.90851508640956
0
ELLIPSE
5
AA
100
AcDbEntity
8
1
62
256
6
ByLayer
370
18
48
1
60
0
100
AcDbEllipse
10
78.860066
20
0.128116
30
0
11
0.0868803724541228
21
0.290676908844944
31
0
210
0
220
0
230
-1
40
0.467765
41
1.66930947213922
42
2.3605371739107
0
POINT
5
6C
100
AcDbEntity
8
81
62
256
6
ByLayer
370
18
48
1
60
0
100
AcDbPoint
10
79
20
0
30
0
39
0
210
0
220
0
230
1
50
360
0
POINT
5
6E
100
AcDbEntity
8
80
62
256
6
ByLayer
370
18
48
1
60
0
100
AcDbPoint
10
0
20
0
30
0
39
0
210
0
220
0
230
1
50
360
0
POINT
5
70
100
AcDbEntity
8
SK2
62
256
6
ByLayer
370
18
48
1
60
1
100
AcDbPoint
10
-45
20
-7
30
0
39
0
210
0
220
0
230
1
50
360
0
POINT
5
72
100
AcDbEntity
8
SK2
62
256
6
ByLayer
370
18
48
1
60
1
100
AcDbPoint
10
-45
20
7
30
0
39
0
210
0
220
0
230
1
50
360
0
POINT
5
73
100
AcDbEntity
8
2
62
256
6
ByLayer
370
18
48
1
60
1
100
AcDbPoint
10
76.86
20
-6.25
30
0
39
0
210
0
220
0
230
1
50
360
0
POINT
5
75
100
AcDbEntity
8
2
62
256
6
ByLayer
370
18
48
1
60
1
100
AcDbPoint
10
76.86
20
6.25
30
0
39
0
210
0
220
0
230
1
50
360
0
SPLINE
5
AB
100
AcDbEntity
8
1
62
256
6
ByLayer
370
18
48
1
60
0
100
AcDbSpline
70
4
71
3
72
31
73
27
40
0
40
0
40
0
40
0
40
0.0335941545247593
40
0.073499114131369
40
0.108977731586906
40
0.140928820957065
40
0.188699191984156
40
0.244510473747051
40
0.295513823323666
40
0.341465759726252
40
0.390605211860892
40
0.440716139755571
40
0.481289533648514
40
0.511199050376934
40
0.543800510762399
40
0.593563440576335
40
0.638489223312242
40
0.674119116681558
40
0.718469839038963
40
0.768678830647626
40
0.812338431906835
40
0.858901250179606
40
0.917406971851031
40
0.969969276745013
40
0.995000896957275
40
1
40
1
40
1
40
1
41
1
10
58.3011420849352
20
5.96145548447291
30
0
41
1
10
58.1319011156985
20
5.96141353700941
30
0
41
1
10
57.7632973161437
20
5.96135038272462
30
0
41
1
10
57.2300082489401
20
5.96347016983648
30
0
41
1
10
56.6956795051108
20
5.96170623778502
30
0
41
1
10
56.1184655894197
20
5.96135088324999
30
0
41
1
10
55.4406795175043
20
5.96202467803744
30
0
41
1
10
54.6669311635588
20
5.96060896469706
30
0
41
1
10
53.9024639970922
20
5.96013554786532
30
0
41
1
10
53.1713455583576
20
5.96106527073957
30
0
41
1
10
52.4446645772749
20
5.95991648056071
30
0
41
1
10
51.7450410403461
20
5.95909280111007
30
0
41
1
10
51.1412366205933
20
5.95935218014264
30
0
41
1
10
50.6270619092173
20
5.95898859125654
30
0
41
1
10
50.0648304547116
20
5.95794493218514
30
0
41
1
10
49.4286416447612
20
5.95795610156668
30
0
41
1
10
48.7768491398276
20
5.95834665267012
30
0
41
1
10
48.1516966405935
20
5.95763909846227
30
0
41
1
10
47.5001894857996
20
5.95690519544772
30
0
41
1
10
46.8085055374631
20
5.95748253761718
30
0
41
1
10
46.1057227632308
20
5.95685336616648
30
0
41
1
10
45.3614346565749
20
5.95567408381189
30
0
41
1
10
44.5725925572653
20
5.95613621010415
30
0
41
1
10
43.8915079646276
20
5.95543500884929
30
0
41
1
10
43.4781746560871
20
5.95498443101764
30
0
41
1
10
43.3278915362729
20
5.95488603925264
30
0
41
1
10
43.3028746342065
20
5.95487117052966
30
0
0
SPLINE
5
AC
100
AcDbEntity
8
1
62
256
6
ByLayer
370
18
48
1
60
0
100
AcDbSpline
70
4
71
3
72
12
73
8
40
0
40
0
40
0
40
0
40
0.0499096646180876
40
0.222848134827444
40
0.556363050245336
40
0.726785794137453
40
1
40
1
40
1
40
1
41
1
10
59.6360456433133
20
-1.57110382876505
30
0
41
1
10
59.6360892603358
20
-1.57114862748935
30
0
41
1
10
59.6386351545005
20
-1.57240604533979
30
0
41
1
10
59.6728283661999
20
-1.58835735377701
30
0
41
1
10
59.7599704515073
20
-1.63048632135619
30
0
41
1
10
59.7806814460517
20
-1.64140514808119
30
0
41
1
10
59.8420746809511
20
-1.67380092404582
30
0
41
1
10
59.8892696111963
20
-1.69893967351541
30
0
0
SPLINE
5
AD
100
AcDbEntity
8
1
62
256
6
ByLayer
370
18
48
1
60
0
100
AcDbSpline
70
4
71
3
72
35
73
31
40
0
40
0
40
0
40
0
40
0.0462189691309649
40
0.0880433525075694
40
0.122492585882467
40
0.150323661858591
40
0.173425029704601
40
0.200715067702334
40
0.23369197764168
40
0.263862823065446
40
0.287859340654007
40
0.316110254832318
40
0.352007524401954
40
0.3885820727526
40
0.419941058896209
40
0.453669886355319
40
0.497933657778247
40
0.55477502923533
40
0.601983628240016
40
0.640196697809797
40
0.682731598909232
40
0.73250822491122
40
0.793599756124974
40
0.83300009621785
40
0.860642322538204
40
0.885963219673948
40
0.914106533991541
40
0.940819416947549
40
0.977343373252177
40
1
40
1
40
1
40
1
41
1
10
40.2295354877623
20
-5.95287442986472
30
0
41
1
10
40.5014263025423
20
-5.95253520402338
30
0
41
1
10
41.0198123704708
20
-5.95234111035586
30
0
41
1
10
41.7542269091329
20
-5.95290983405823
30
0
41
1
10
42.360706751831
20
-5.9548324708191
30
0
41
1
10
42.8682538543808
20
-5.95447709194238
30
0
41
1
10
43.3332627991839
20
-5.95481990559327
30
0
41
1
10
43.8289447728408
20
-5.9553697372227
30
0
41
1
10
44.3668975826428
20
-5.9558681479119
30
0
41
1
10
44.8852106246232
20
-5.9560410198018
30
0
41
1
10
45.3754387649165
20
-5.95588332630476
30
0
41
1
10
45.8997085276828
20
-5.95643025428481
30
0
41
1
10
46.4988093077095
20
-5.95729246810026
30
0
41
1
10
47.1163808200978
20
-5.95739442713671
30
0
41
1
10
47.7210694978122
20
-5.95688816067261
30
0
41
1
10
48.3714863770937
20
-5.95814723750865
30
0
41
1
10
49.1734706939193
20
-5.95814738395902
30
0
41
1
10
50.0556379028564
20
-5.95821721947718
30
0
41
1
10
50.901814036351
20
-5.95951338229014
30
0
41
1
10
51.6629000264165
20
-5.95905722780938
30
0
41
1
10
52.4392403199084
20
-5.95988362492733
30
0
41
1
10
53.3517409219104
20
-5.9612195180587
30
0
41
1
10
54.2452626469423
20
-5.95973842236955
30
0
41
1
10
55.0080513336272
20
-5.96159324978322
30
0
41
1
10
55.5557351440409
20
-5.96159435295175
30
0
41
1
10
56.0383385185816
20
-5.96112950689755
30
0
41
1
10
56.5146252416475
20
-5.9615340229027
30
0
41
1
10
57.0562781318761
20
-5.96264440300533
30
0
41
1
10
57.5676056391281
20
-5.96370144026093
30
0
41
1
10
57.9195169996689
20
-5.96347220129525
30
0
41
1
10
58.054285936474
20
-5.9632981374082
30
0
0
SPLINE
5
AE
100
AcDbEntity
8
1
62
256
6
ByLayer
370
18
48
1
60
0
100
AcDbSpline
70
4
71
3
72
34
73
30
40
0
40
0
40
0
40
0
40
0.0458847173471255
40
0.0883022902766939
40
0.124430962985401
40
0.153548601259468
40
0.178356650516891
40
0.206736668448017
40
0.241316265699172
40
0.273060136292795
40
0.298082440334672
40
0.327976489737545
40
0.366629725660798
40
0.403728129859951
40
0.432128838454364
40
0.462683555457332
40
0.500845238063022
40
0.555595586934493
40
0.611282282554427
40
0.679443688103603
40
0.74754593130929
40
0.818961544251619
40
0.852506396079038
40
0.886576263399774
40
0.922628502373506
40
0.952677693605819
40
0.972374563643278
40
0.999153166746328
40
1
40
1
40
1
40
1
41
1
10
4.78846636152915
20
-5.93184234240235
30
0
41
1
10
5.05830294149334
20
-5.93121826660962
30
0
41
1
10
5.57835403223035
20
-5.93067268977379
30
0
41
1
10
6.33159644322896
20
-5.93123247984789
30
0
41
1
10
6.95556791807675
20
-5.93380385267648
30
0
41
1
10
7.50470181898163
20
-5.93422937520623
30
0
41
1
10
7.97394640382254
20
-5.93251374741189
30
0
41
1
10
8.50540048536945
20
-5.93211278981508
30
0
41
1
10
9.06520357516206
20
-5.9351973554613
30
0
41
1
10
9.60727805313246
20
-5.93587305204446
30
0
41
1
10
10.1259690823739
20
-5.93617322329203
30
0
41
1
10
10.6855439654179
20
-5.9367203448453
30
0
41
1
10
11.3173888952499
20
-5.93734515367407
30
0
41
1
10
11.9406334164242
20
-5.93697031954292
30
0
41
1
10
12.5143905856532
20
-5.93702022741482
30
0
41
1
10
13.0954771183325
20
-5.93772448053528
30
0
41
1
10
13.8335660020406
20
-5.93838162385612
30
0
41
1
10
14.7222768920741
20
-5.93826033100004
30
0
41
1
10
15.7906011362768
20
-5.93998368018126
30
0
41
1
10
16.9387316860232
20
-5.93947271392685
30
0
41
1
10
18.1809617729298
20
-5.9412882510683
30
0
41
1
10
19.2161353035986
20
-5.94246021416686
30
0
41
1
10
20.0477368567677
20
-5.94318272226181
30
0
41
1
10
20.6678089995285
20
-5.94268937789658
30
0
41
1
10
21.2670193732866
20
-5.94314955923466
30
0
41
1
10
21.7800856847616
20
-5.94476405377196
30
0
41
1
10
22.2381528812407
20
-5.94471112193762
30
0
41
1
10
22.5201377594673
20
-5.94427668067038
30
0
41
1
10
22.68523031774
20
-5.9442156979666
30
0
41
1
10
22.6902911061095
20
-5.94421385603792
30
0
0
SPLINE
5
AF
100
AcDbEntity
8
1
62
256
6
ByLayer
370
18
48
1
60
0
100
AcDbSpline
70
4
71
2
72
6
73
3
40
0
40
0
40
0
40
1
40
1
40
1
41
1
10
75.6523170279397
20
-5.9743866988554
30
0
41
1
10
76.2376426357744
20
-5.97215209619077
30
0
41
1
10
76.8223273287726
20
-5.97698505963206
30
0
0
SPLINE
5
B0
100
AcDbEntity
8
1
62
256
6
ByLayer
370
18
48
1
60
0
100
AcDbSpline
70
4
71
3
72
31
73
27
40
0
40
0
40
0
40
0
40
0.0066714149129422
40
0.0393412770031848
40
0.0652459557957364
40
0.0975252817516178
40
0.134776490091025
40
0.189235812440052
40
0.246678629894077
40
0.311450492171629
40
0.376290708671077
40
0.440402808135866
40
0.502114540980168
40
0.550710315288707
40
0.603846503215866
40
0.648119981842708
40
0.684050903673025
40
0.716102976203065
40
0.757308852189829
40
0.803349761593302
40
0.840435607262048
40
0.873208050743636
40
0.915738879482047
40
0.958583664602572
40
0.993791315935122
40
1
40
1
40
1
40
1
41
1
10
22.6866219891958
20
5.94425377760371
30
0
41
1
10
22.6536959071597
20
5.94427134035769
30
0
41
1
10
22.4595189104907
20
5.94437066506944
30
0
41
1
10
22.1377284365634
20
5.94481967363646
30
0
41
1
10
21.688486596108
20
5.94454554833604
30
0
41
1
10
21.2168910950798
20
5.94307654784504
30
0
41
1
10
20.6040724702703
20
5.94265732527828
30
0
41
1
10
19.8669168680224
20
5.94353309009585
30
0
41
1
10
18.9937351302895
20
5.94137341504813
30
0
41
1
10
18.0692460660352
20
5.94143611189531
30
0
41
1
10
17.1117989202008
20
5.93980122865125
30
0
41
1
10
16.1694739415923
20
5.93966811568413
30
0
41
1
10
15.3074443875134
20
5.93934442352193
30
0
41
1
10
14.499616971183
20
5.93816472499722
30
0
41
1
10
13.7781728074926
20
5.93835330515054
30
0
41
1
10
13.1195769080843
20
5.93775434356846
30
0
41
1
10
12.5645109121175
20
5.93706507780487
30
0
41
1
10
12.025715596801
20
5.93694947126255
30
0
41
1
10
11.4358580282047
20
5.93728785241746
30
0
41
1
10
10.8214271723051
20
5.93692552877116
30
0
41
1
10
10.2487838456472
20
5.93625040249901
30
0
41
1
10
9.69265405501986
20
5.93592397901651
30
0
41
1
10
9.11243014423493
20
5.93540608650807
30
0
41
1
10
8.52422421933002
20
5.93217171023122
30
0
41
1
10
8.10226898305987
20
5.93239847409211
30
0
41
1
10
7.90268783402726
20
5.93290321318543
30
0
41
1
10
7.87286830650788
20
5.93298325620142
30
0
0
SPLINE
5
B1
100
AcDbEntity
8
1
62
256
6
ByLayer
370
18
48
1
60
0
100
AcDbSpline
70
4
71
3
72
11
73
7
40
0
40
0
40
0
40
0
40
0.14911494005864
40
0.302896231946826
40
0.522750239585777
40
1
40
1
40
1
40
1
41
1
10
24.2604635233165
20
-1.58113289402624
30
0
41
1
10
24.2604414975092
20
-1.58117181933304
30
0
41
1
10
24.2641273412418
20
-1.58309578629448
30
0
41
1
10
24.2916327126024
20
-1.59700914901251
30
0
41
1
10
24.367492490339
20
-1.63578186326481
30
0
41
1
10
24.4395896186324
20
-1.67393112459572
30
0
41
1
10
24.4978334529888
20
-1.70509355373812
30
0
0
SPLINE
5
B2
100
AcDbEntity
8
1
62
256
6
ByLayer
370
13
48
1
60
0
100
AcDbSpline
70
4
71
3
72
10
73
6
40
0
40
0
40
0
40
0
40
0.50100206726383
40
0.50100206726383
40
1
40
1
40
1
40
1
41
1
10
4.20298258413334
20
-6.02640072101943
30
0
41
1
10
4.58509418343647
20
-6.03466255626944
30
0
41
1
10
4.96698928656784
20
-6.03238635918757
30
0
41
1
10
5.72955805274913
20
-6.00703205084923
30
0
41
1
10
6.11047549808865
20
-5.98398113256695
30
0
41
1
10
6.48952126760454
20
-5.95094346382848
30
0
0
SPLINE
5
B3
100
AcDbEntity
8
1
62
256
6
ByLayer
370
18
48
1
60
0
100
AcDbSpline
70
4
71
3
72
16
73
12
40
0
40
0
40
0
40
0
40
0.109831979361597
40
0.109831979361597
40
0.236366102094522
40
0.236366102094522
40
0.362900224827447
40
0.362900224827447
40
0.615968470293301
40
0.615968470293301
40
1
40
1
40
1
40
1
41
1
10
57.7641063211981
20
-0.0141416641129979
30
0
41
1
10
58.0919425569007
20
-0.190492938226839
30
0
41
1
10
58.4203308911152
20
-0.367136560775123
30
0
41
1
10
59.1287662350336
20
-0.746916425431436
30
0
41
1
10
59.5093607009566
20
-0.949978269844621
30
0
41
1
10
60.2727188928179
20
-1.35337830376784
30
0
41
1
10
60.6526704554523
20
-1.55226148267201
30
0
41
1
10
61.7886556160051
20
-2.13826956968558
30
0
41
1
10
62.5411587647647
20
-2.51413302559979
30
0
41
1
10
64.4312579315746
20
-3.41070618019924
30
0
41
1
10
65.5664239972222
20
-3.90587850622561
30
0
41
1
10
66.709409612166
20
-4.33698396319986
30
0
0
SPLINE
5
B4
100
AcDbEntity
8
1
62
256
6
ByLayer
370
13
48
1
60
0
100
AcDbSpline
70
4
71
3
72
20
73
16
40
0
40
0
40
0
40
0
40
0.107640540304742
40
0.107640540304742
40
0.219185472766649
40
0.219185472766649
40
0.330730405228556
40
0.330730405228556
40
0.553820270152371
40
0.553820270152371
40
0.776910135076187
40
0.776910135076187
40
0.888455067538093
40
0.888455067538093
40
1
40
1
40
1
40
1
41
1
10
66.7094086768282
20
-4.33698361041391
30
0
41
1
10
67.0728276219138
20
-4.47405611739279
30
0
41
1
10
67.4370370911484
20
-4.60465172623935
30
0
41
1
10
68.1810599630704
20
-4.856160572258
30
0
41
1
10
68.5609421615822
20
-4.97659588077593
30
0
41
1
10
69.3240508500736
20
-5.20102918373905
30
0
41
1
10
69.704638888163
20
-5.30422001904151
30
0
41
1
10
70.8421910787931
20
-5.58516307261357
30
0
41
1
10
71.5960182855131
20
-5.73473265704718
30
0
41
1
10
73.101527617511
20
-5.95517459347954
30
0
41
1
10
73.8533223115668
20
-6.0261469312762
30
0
41
1
10
74.9843375420154
20
-6.07181636574666
30
0
41
1
10
75.3619183336893
20
-6.07689891661431
30
0
41
1
10
76.1189933776031
20
-6.06639672699745
30
0
41
1
10
76.4985513483327
20
-6.05036123679884
30
0
41
1
10
76.8793308929018
20
-6.02474343139113
30
0
0
SPLINE
5
B5
100
AcDbEntity
8
1
62
256
6
ByLayer
370
18
48
1
60
0
100
AcDbSpline
70
4
71
3
72
18
73
14
40
0
40
0
40
0
40
0
40
0.250000000000001
40
0.250000000000001
40
0.375000000000001
40
0.375000000000001
40
0.500000000000002
40
0.500000000000002
40
0.750000000000003
40
0.750000000000003
40
0.875000000000002
40
0.875000000000002
40
1
40
1
40
1
40
1
41
1
10
78.0544027445009
20
-3.06143487855107
30
0
41
1
10
77.9588076880424
20
-3.31799375401604
30
0
41
1
10
77.8631095646018
20
-3.57439287527271
30
0
41
1
10
77.7192908233808
20
-3.95832004323668
30
0
41
1
10
77.6713290041103
20
-4.08611745978499
30
0
41
1
10
77.5753352427427
20
-4.3411500641466
30
0
41
1
10
77.5272918034885
20
-4.46829307039087
30
0
41
1
10
77.3831205182485
20
-4.84939362128745
30
0
41
1
10
77.2869789174158
20
-5.10324088273396
30
0
41
1
10
77.1424610447122
20
-5.48156257485863
30
0
41
1
10
77.0942093904302
20
-5.60703616077603
30
0
41
1
10
76.9976505311587
20
-5.85753793978364
30
0
41
1
10
76.9493457755662
20
-5.98258577157657
30
0
41
1
10
76.9009667170015
20
-6.10703785918415
30
0
0
SPLINE
5
B6
100
AcDbEntity
8
1
62
256
6
ByLayer
370
13
48
1
60
0
100
AcDbSpline
70
4
71
3
72
38
73
34
40
0
40
0
40
0
40
0
40
0.124999999999999
40
0.124999999999999
40
0.187499999999999
40
0.187499999999999
40
0.249999999999999
40
0.249999999999999
40
0.312499999999998
40
0.312499999999998
40
0.343749999999998
40
0.343749999999998
40
0.374999999999998
40
0.374999999999998
40
0.499999999999999
40
0.499999999999999
40
0.562499999999999
40
0.562499999999999
40
0.624999999999999
40
0.624999999999999
40
0.749999999999999
40
0.749999999999999
40
0.781249999999999
40
0.781249999999999
40
0.812499999999999
40
0.812499999999999
40
0.875
40
0.875
40
0.9375
40
0.9375
40
0.96875
40
0.96875
40
1
40
1
40
1
40
1
41
1
10
4.25029753818981
20
-5.9231641531448
30
0
41
1
10
4.25037441457528
20
-5.90077175570082
30
0
41
1
10
4.25044283572223
20
-5.83400397648339
30
0
41
1
10
4.25053750936729
20
-5.66748983454542
30
0
41
1
10
4.25056740815984
20
-5.60134773530675
30
0
41
1
10
4.25062437894556
20
-5.44937877694784
30
0
41
1
10
4.2506515206253
20
-5.36342628082554
30
0
41
1
10
4.25070390782261
20
-5.17170486123428
30
0
41
1
10
4.25072915209847
20
-5.0659371436281
30
0
41
1
10
4.25076611020015
20
-4.89200889937794
30
0
41
1
10
4.25077830834053
20
-4.83130768555142
30
0
41
1
10
4.25080221913075
20
-4.70607374691571
30
0
41
1
10
4.25081395550109
20
-4.64144667003478
30
0
41
1
10
4.25087175471
20
-4.30844855918733
30
0
41
1
10
4.25091527498961
20
-4.01081687657054
30
0
41
1
10
4.25097917504937
20
-3.51709255919113
30
0
41
1
10
4.25100028003615
20
-3.34401964190823
30
0
41
1
10
4.25104148010863
20
-2.98760624640599
30
0
41
1
10
4.25106166016187
20
-2.80366232533075
30
0
41
1
10
4.25112101556473
20
-2.23446360490061
30
0
41
1
10
4.25115818610135
20
-1.84079217157478
30
0
41
1
10
4.25120066861362
20
-1.33191760208882
30
0
41
1
10
4.25120895884547
20
-1.22928504372416
30
0
41
1
10
4.25122506956257
20
-1.02227826289018
30
0
41
1
10
4.25123289271394
20
-0.917837230114628
30
0
41
1
10
4.25125530961944
20
-0.605347712889312
30
0
41
1
10
4.25126894825414
20
-0.396993463804762
30
0
41
1
10
4.25129312030509
20
0.0197694010286682
30
0
41
1
10
4.25130365460697
20
0.228178019645839
30
0
41
1
10
4.25131660741394
20
0.540832031044545
30
0
41
1
10
4.25132044859981
20
0.645056896149015
30
0
41
1
10
4.25132706918058
20
0.853520575686218
30
0
41
1
10
4.25132985421621
20
0.958057967622238
30
0
41
1
10
4.25133203011896
20
1.06181762567712
30
0
0
SPLINE
5
B7
100
AcDbEntity
8
1
62
256
6
ByLayer
370
18
48
1
60
0
100
AcDbSpline
70
4
71
3
72
12
73
8
40
0
40
0
40
0
40
0
40
0.500000000000003
40
0.500000000000003
40
0.750000000000002
40
0.750000000000002
40
1
40
1
40
1
40
1
41
1
10
3.99999986486853
20
-6.16155160200785
30
0
41
1
10
3.99999986486853
20
-6.12079541527964
30
0
41
1
10
4.01149989942635
20
-6.07871027293709
30
0
41
1
10
4.04464839682581
20
-6.02381964905047
30
0
41
1
10
4.05858039149285
20
-6.00637841555161
30
0
41
1
10
4.09157356915782
20
-5.97532127653147
30
0
41
1
10
4.11033263045604
20
-5.96184350167499
30
0
41
1
10
4.13172513029514
20
-5.95077244368034
30
0
0
SPLINE
5
B8
100
AcDbEntity
8
1
62
256
6
ByLayer
370
18
48
1
60
0
100
AcDbSpline
70
4
71
3
72
56
73
52
40
0
40
0
40
0
40
0
40
0.124999999999995
40
0.124999999999995
40
0.249999999999989
40
0.249999999999989
40
0.374999999999984
40
0.374999999999984
40
0.499999999999978
40
0.499999999999978
40
0.562499999999976
40
0.562499999999976
40
0.624999999999973
40
0.624999999999973
40
0.68749999999997
40
0.68749999999997
40
0.718749999999969
40
0.718749999999969
40
0.72265624999997
40
0.72265624999997
40
0.72656249999997
40
0.72656249999997
40
0.734374999999972
40
0.734374999999972
40
0.749999999999974
40
0.749999999999974
40
0.781249999999978
40
0.781249999999978
40
0.79687499999998
40
0.79687499999998
40
0.812499999999981
40
0.812499999999981
40
0.820312499999982
40
0.820312499999982
40
0.828124999999983
40
0.828124999999983
40
0.843749999999984
40
0.843749999999984
40
0.859374999999986
40
0.859374999999986
40
0.874999999999987
40
0.874999999999987
40
0.90624999999999
40
0.90624999999999
40
0.921874999999991
40
0.921874999999991
40
0.937499999999993
40
0.937499999999993
40
0.968749999999996
40
0.968749999999996
40
1
40
1
40
1
40
1
41
1
10
18.9146571777155
20
1.34299499643527
30
0
41
1
10
18.087938757491
20
1.7901004305385
30
0
41
1
10
17.2521351362065
20
2.20478687201407
30
0
41
1
10
15.5536428718194
20
2.9615920511863
30
0
41
1
10
14.698757198196
20
3.29954769894852
30
0
41
1
10
12.9708693387336
20
3.88751683199382
30
0
41
1
10
12.0972923498393
20
4.13759575663715
30
0
41
1
10
10.3226122007627
20
4.5520300386649
30
0
41
1
10
9.42151104144841
20
4.7165685796374
30
0
41
1
10
8.04517400720979
20
4.906305723027
30
0
41
1
10
7.58230401358452
20
4.96007950565729
30
0
41
1
10
6.64787642328989
20
5.04985290616341
30
0
41
1
10
6.17792882284127
20
5.08568957967361
30
0
41
1
10
5.23625775135625
20
5.14019579097339
30
0
41
1
10
4.76369311501296
20
5.15894302239869
30
0
41
1
10
4.05337800133455
20
5.17452367355637
30
0
41
1
10
3.81642574750921
20
5.17761797160316
30
0
41
1
10
3.54987168359625
20
5.17870224036778
30
0
41
1
10
3.51998755524892
20
5.17821648653353
30
0
41
1
10
3.46141726896991
20
5.17207140035003
30
0
41
1
10
3.43291512481349
20
5.16692310063442
30
0
41
1
10
3.35741735974116
20
5.13927591571249
30
0
41
1
10
3.30763275153373
20
5.12019396255249
30
0
41
1
10
3.16007008173608
20
5.06077829064552
30
0
41
1
10
3.06393327691401
20
5.01820503107518
30
0
41
1
10
2.78682919422289
20
4.8809669785648
30
0
41
1
10
2.61599249070252
20
4.77695506949414
30
0
41
1
10
2.39191320318363
20
4.589907121534
30
0
41
1
10
2.3226520667846
20
4.52200241375573
30
0
41
1
10
2.20241719478938
20
4.37725842081065
30
0
41
1
10
2.15082522258578
20
4.29999331326079
30
0
41
1
10
2.08878140751827
20
4.17499725076115
30
0
41
1
10
2.07071991104294
20
4.13179914780176
30
0
41
1
10
2.0408545887795
20
4.04423575319962
30
0
41
1
10
2.02891676038561
20
3.9996258454683
30
0
41
1
10
2.00209163368271
20
3.86324689668689
30
0
41
1
10
1.99619500868559
20
3.76874050992038
30
0
41
1
10
2.00856953177632
20
3.57330511416291
30
0
41
1
10
2.02655017600196
20
3.47547240620099
30
0
41
1
10
2.08223091376044
20
3.27937073543373
30
0
41
1
10
2.12034574290891
20
3.18040662397769
30
0
41
1
10
2.25601191285855
20
2.89061708561962
30
0
41
1
10
2.37436906536649
20
2.70481895382218
30
0
41
1
10
2.57829902919067
20
2.43243281254934
30
0
41
1
10
2.65044196532312
20
2.34325197495093
30
0
41
1
10
2.79981161231163
20
2.16918223864656
30
0
41
1
10
2.87729054296406
20
2.08397106822224
30
0
41
1
10
3.11648490820747
20
1.83266326489419
30
0
41
1
10
3.28487431221919
20
1.67083373652613
30
0
41
1
10
3.63423810450169
20
1.3548739038801
30
0
41
1
10
3.81582717933426
20
1.20035692939223
30
0
41
1
10
3.99999986486603
20
1.05044565180018
30
0
0
SPLINE
5
B9
100
AcDbEntity
8
1
62
256
6
ByLayer
370
18
48
1
60
0
100
AcDbSpline
70
4
71
3
72
8
73
4
40
0
40
0
40
0
40
0
40
1
40
1
40
1
40
1
41
1
10
76.8129617064963
20
-6.20346286174208
30
0
41
1
10
76.8351049463994
20
-6.14392723443424
30
0
41
1
10
76.8572280123458
20
-6.08435409807015
30
0
41
1
10
76.8793308929015
20
-6.02474343139116
30
0
0
SPLINE
5
BA
100
AcDbEntity
8
1
62
256
6
ByLayer
370
18
48
1
60
0
100
AcDbSpline
70
4
71
3
72
36
73
32
40
0
40
0
40
0
40
0
40
0.0637158098835919
40
0.0637158098835919
40
0.127431619767184
40
0.127431619767184
40
0.191147429650776
40
0.191147429650776
40
0.223005334592571
40
0.223005334592571
40
0.254863239534367
40
0.254863239534367
40
0.382294859301551
40
0.382294859301551
40
0.446010669185143
40
0.446010669185143
40
0.509726479068734
40
0.509726479068734
40
0.637158098835918
40
0.637158098835918
40
0.669016003777714
40
0.669016003777714
40
0.70087390871951
40
0.70087390871951
40
0.764589718603101
40
0.764589718603101
40
0.892021338370284
40
0.892021338370284
40
0.955737148253876
40
0.955737148253876
40
1
40
1
40
1
40
1
41
1
10
3.99999986486853
20
1.06842697364158
30
0
41
1
10
3.99999986486853
20
0.856000728972219
30
0
41
1
10
3.99999986486853
20
0.642579638106696
30
0
41
1
10
3.99999986486853
20
0.216757758140687
30
0
41
1
10
3.9999998648685
20
0.0038742143038633
30
0
41
1
10
3.9999998648685
20
-0.421838426872085
30
0
41
1
10
3.99999986486847
20
-0.634667527100873
30
0
41
1
10
3.9999998648685
20
-0.953869273036048
30
0
41
1
10
3.99999986486856
20
-1.06055053498119
30
0
41
1
10
3.99999986486853
20
-1.27207998026483
30
0
41
1
10
3.99999986486853
20
-1.37697241365541
30
0
41
1
10
3.99999986486853
20
-1.89713901912697
30
0
41
1
10
3.9999998648685
20
-2.29966576227815
30
0
41
1
10
3.99999986486853
20
-2.88261910212353
30
0
41
1
10
3.99999986486856
20
-3.07152885400109
30
0
41
1
10
3.99999986486856
20
-3.43748046189066
30
0
41
1
10
3.99999986486853
20
-3.61543719814611
30
0
41
1
10
3.99999986486853
20
-4.12465632718468
30
0
41
1
10
3.9999998648685
20
-4.43243961692315
30
0
41
1
10
3.99999986486856
20
-4.7782090600532
30
0
41
1
10
3.9999998648685
20
-4.84539525353665
30
0
41
1
10
3.9999998648685
20
-4.97576862679136
30
0
41
1
10
3.99999986486853
20
-5.03911756551793
30
0
41
1
10
3.99999986486853
20
-5.22179027124341
30
0
41
1
10
3.99999986486856
20
-5.33329675215452
30
0
41
1
10
3.99999986486856
20
-5.63798411947829
30
0
41
1
10
3.9999998648685
20
-5.80165183451882
30
0
41
1
10
3.9999998648685
20
-5.98605255034889
30
0
41
1
10
3.9999998648685
20
-6.03674221128188
30
0
41
1
10
3.99999986486856
20
-6.10367271421191
30
0
41
1
10
3.99999986486856
20
-6.12579884905426
30
0
41
1
10
3.99999986486856
20
-6.14256202635565
30
0
0
SPLINE
5
BB
100
AcDbEntity
8
1
62
256
6
ByLayer
370
18
48
1
60
0
100
AcDbSpline
70
4
71
3
72
20
73
16
40
0
40
0
40
0
40
0
40
0.009895147765479
40
0.009895147765479
40
0.470195191859427
40
0.470195191859427
40
0.700345213906402
40
0.700345213906402
40
0.757882719418148
40
0.757882719418148
40
0.815420224929894
40
0.815420224929894
40
0.930495235953383
40
0.930495235953383
40
1
40
1
40
1
40
1
41
1
10
22.2926365467854
20
0.0242015081038289
30
0
41
1
10
22.3254560955672
20
0.0066086638780973
30
0
41
1
10
22.3582645912759
20
-0.0109788454790021
30
0
41
1
10
23.9164599285276
20
-0.846280775401311
30
0
41
1
10
25.4194995199888
20
-1.65127070065586
30
0
41
1
10
27.6812424619759
20
-2.76584444615631
30
0
41
1
10
28.4363578362288
20
-3.12186635337019
30
0
41
1
10
29.385878988882
20
-3.54021108106943
30
0
41
1
10
29.576071320259
20
-3.62253413357473
30
0
41
1
10
29.9571435265652
20
-3.78429117733506
30
0
41
1
10
30.1482769434832
20
-3.86382665577796
30
0
41
1
10
30.7206317463513
20
-4.09687926700204
30
0
41
1
10
31.1007345730969
20
-4.24491946945082
30
0
41
1
10
31.7087543800235
20
-4.46990282290213
30
0
41
1
10
31.9373470870763
20
-4.55176349546147
30
0
41
1
10
32.1656694719662
20
-4.63067819864131
30
0
0
SPLINE
5
BC
100
AcDbEntity
8
1
62
256
6
ByLayer
370
13
48
1
60
0
100
AcDbSpline
70
4
71
3
72
14
73
10
40
0
40
0
40
0
40
0
40
0.388959356399097
40
0.388959356399097
40
0.618028096623503
40
0.618028096623503
40
0.847096836847909
40
0.847096836847909
40
1
40
1
40
1
40
1
41
1
10
32.1656685270103
20
-4.63067787203769
30
0
41
1
10
33.4494270398614
20
-5.07438133172667
30
0
41
1
10
34.7246397759981
20
-5.42495301291783
30
0
41
1
10
36.7629670424871
20
-5.80925511796741
30
0
41
1
10
37.5216697682552
20
-5.9141015942337
30
0
41
1
10
39.0492665711848
20
-6.04206386647527
30
0
41
1
10
39.8117941581899
20
-6.06476001301479
30
0
41
1
10
41.0852755089065
20
-6.03292712460481
30
0
41
1
10
41.5940430956987
20
-6.00164999374158
30
0
41
1
10
42.1028458237904
20
-5.95215695040608
30
0
0
SPLINE
5
BD
100
AcDbEntity
8
1
62
256
6
ByLayer
370
18
48
1
60
0
100
AcDbSpline
70
4
71
3
72
96
73
92
40
0
40
0
40
0
40
0
40
0.0263125231160821
40
0.0263125231160821
40
0.047565578875465
40
0.047565578875465
40
0.068818634634848
40
0.068818634634848
40
0.0900716903942309
40
0.0900716903942309
40
0.111324746153614
40
0.111324746153614
40
0.132577801912997
40
0.132577801912997
40
0.15383085767238
40
0.15383085767238
40
0.175083913431763
40
0.175083913431763
40
0.196336969191146
40
0.196336969191146
40
0.217590024950529
40
0.217590024950529
40
0.238843080709912
40
0.238843080709912
40
0.281349192228677
40
0.281349192228677
40
0.30260224798806
40
0.30260224798806
40
0.323855303747443
40
0.323855303747443
40
0.345108359506826
40
0.345108359506826
40
0.366361415266209
40
0.366361415266209
40
0.387614471025592
40
0.387614471025592
40
0.408867526784975
40
0.408867526784975
40
0.430120582544358
40
0.430120582544358
40
0.451373638303741
40
0.451373638303741
40
0.472626694063124
40
0.472626694063124
40
0.493879749822507
40
0.493879749822507
40
0.51513280558189
40
0.51513280558189
40
0.536385861341273
40
0.536385861341273
40
0.557638917100656
40
0.557638917100656
40
0.578891972860039
40
0.578891972860039
40
0.600145028619421
40
0.600145028619421
40
0.621398084378804
40
0.621398084378804
40
0.642651140138187
40
0.642651140138187
40
0.66390419589757
40
0.66390419589757
40
0.685157251656953
40
0.685157251656953
40
0.706410307416336
40
0.706410307416336
40
0.727663363175719
40
0.727663363175719
40
0.748916418935102
40
0.748916418935102
40
0.770169474694484
40
0.770169474694484
40
0.791422530453867
40
0.791422530453867
40
0.81267558621325
40
0.81267558621325
40
0.833928641972633
40
0.833928641972633
40
0.855181697732016
40
0.855181697732016
40
0.876434753491399
40
0.876434753491399
40
0.918940865010165
40
0.918940865010165
40
0.940193920769547
40
0.940193920769547
40
0.96144697652893
40
0.96144697652893
40
0.982700032288312
40
0.982700032288312
40
1
40
1
40
1
40
1
41
1
10
65.9567932497016
20
-4.55005492878746
30
0
41
1
10
65.5768957939495
20
-4.67950546443328
30
0
41
1
10
65.1967334380418
20
-4.80122217322409
30
0
41
1
10
64.5082228151337
20
-5.00704077570899
30
0
41
1
10
64.2008971393622
20
-5.09368496196896
30
0
41
1
10
63.586946235492
20
-5.25588583508983
30
0
41
1
10
63.2805396964123
20
-5.33161697684668
30
0
41
1
10
62.6675156549003
20
-5.47064636261703
30
0
41
1
10
62.3608209550389
20
-5.53384818838447
30
0
41
1
10
61.7468690737311
20
-5.64661261026438
30
0
41
1
10
61.4395645364616
20
-5.69572428662912
30
0
41
1
10
60.824514902507
20
-5.78279451318727
30
0
41
1
10
60.5171677310725
20
-5.82083243626374
30
0
41
1
10
59.9028965721513
20
-5.88361451645079
30
0
41
1
10
59.595911812523
20
-5.90815256217834
30
0
41
1
10
58.9821490040758
20
-5.94360057493748
30
0
41
1
10
58.675371170228
20
-5.95525748600733
30
0
41
1
10
58.0621254100558
20
-5.96563612376855
30
0
41
1
10
57.7552762599845
20
-5.96419007386328
30
0
41
1
10
57.1404117284954
20
-5.94672229942924
30
0
41
1
10
56.832106365602
20
-5.93067076018917
30
0
41
1
10
56.2179496746406
20
-5.8869050004528
30
0
41
1
10
55.9119447297152
20
-5.85893763719096
30
0
41
1
10
54.9956838506514
20
-5.7554528665583
30
0
41
1
10
54.3865725722269
20
-5.65970159443452
30
0
41
1
10
53.4748788445059
20
-5.48263505847575
30
0
41
1
10
53.1715116987165
20
-5.41743107021301
30
0
41
1
10
52.5641447868423
20
-5.27461029002896
30
0
41
1
10
52.2602497772913
20
-5.197111137636
30
0
41
1
10
51.6520296336916
20
-5.03203617012164
30
0
41
1
10
51.3477048538536
20
-4.94421462235357
30
0
41
1
10
50.7387431078074
20
-4.75659376703331
30
0
41
1
10
50.4337943365253
20
-4.65684806400066
30
0
41
1
10
49.8220742704389
20
-4.44759802083499
30
0
41
1
10
49.51546509724
20
-4.33830080590309
30
0
41
1
10
48.9006713828051
20
-4.10956392111868
30
0
41
1
10
48.5926042084917
20
-3.98979043691872
30
0
41
1
10
47.9783244763573
20
-3.74121331929362
30
0
41
1
10
47.6712840371834
20
-3.61312503998991
30
0
41
1
10
47.0572573180268
20
-3.35040395527574
30
0
41
1
10
46.7503088706614
20
-3.21534060528629
30
0
41
1
10
46.1365533056672
20
-2.93730698768903
30
0
41
1
10
45.8299135255681
20
-2.79380656229873
30
0
41
1
10
45.2154145240588
20
-2.50236892357245
30
0
41
1
10
44.9073731530481
20
-2.35409011858863
30
0
41
1
10
44.2917603514072
20
-2.05240151024466
30
0
41
1
10
43.9844021382895
20
-1.89921311736501
30
0
41
1
10
43.3707059782117
20
-1.58794670787833
30
0
41
1
10
43.064097091012
20
-1.43053837240029
30
0
41
1
10
42.4503409332364
20
-1.11399396618879
30
0
41
1
10
42.1433387658821
20
-0.954546858379416
30
0
41
1
10
41.528956763051
20
-0.633077284649062
30
0
41
1
10
41.2216961053936
20
-0.47096915777945
30
0
41
1
10
40.6065322548076
20
-0.14540300819985
30
0
41
1
10
40.2988133951505
20
0.0172429935360014
30
0
41
1
10
39.684201678683
20
0.341335585490071
30
0
41
1
10
39.3771462459976
20
0.502832852389986
30
0
41
1
10
38.7634058254945
20
0.824835356794864
30
0
41
1
10
38.4569429392008
20
0.985790525511561
30
0
41
1
10
37.84320162035
20
1.30436700777921
30
0
41
1
10
37.5359870020655
20
1.46209218457361
30
0
41
1
10
36.9207082288001
20
1.77399998317279
30
0
41
1
10
36.6124481404985
20
1.92832142360047
30
0
41
1
10
35.9977417392274
20
2.2331768245277
30
0
41
1
10
35.6908548611198
20
2.3835044556669
30
0
41
1
10
35.0768611637805
20
2.67659001006879
30
0
41
1
10
34.7698511500109
20
2.81969176602078
30
0
41
1
10
34.1557477617469
20
3.10037381276464
30
0
41
1
10
33.8487760607738
20
3.23794300844582
30
0
41
1
10
33.2345429970814
20
3.5061682389171
30
0
41
1
10
32.9264587180025
20
3.63596342550147
30
0
41
1
10
32.3110496365607
20
3.88656245609499
30
0
41
1
10
32.0040497607052
20
4.00769055294759
30
0
41
1
10
31.3917073928342
20
4.24095292731693
30
0
41
1
10
31.0865695298508
20
4.35348036986719
30
0
41
1
10
30.4769937824329
20
4.56584714745449
30
0
41
1
10
30.1724768526283
20
4.66637192705656
30
0
41
1
10
29.5637833644292
20
4.85841115365301
30
0
41
1
10
29.2596346333062
20
4.94954515875275
30
0
41
1
10
28.6519850343359
20
5.12091967091729
30
0
41
1
10
28.3484128981631
20
5.20036504506157
30
0
41
1
10
27.4361786837906
20
5.421242194645
30
0
41
1
10
26.8268400664991
20
5.54792077584872
30
0
41
1
10
25.9105241063884
20
5.69815802703462
30
0
41
1
10
25.6042894076695
20
5.74186675478271
30
0
41
1
10
24.9900375278395
20
5.81776477829857
30
0
41
1
10
24.6815494435749
20
5.84970023138405
30
0
41
1
10
24.0659943569989
20
5.89966434145566
30
0
41
1
10
23.7590213224349
20
5.91719125633253
30
0
41
1
10
23.202134368914
20
5.93788934742736
30
0
41
1
10
22.9522048106097
20
5.94316540801628
30
0
41
1
10
22.702237211072
20
5.9441646224239
30
0
0
SPLINE
5
BE
100
AcDbEntity
8
1
62
256
6
ByLayer
370
13
48
1
60
0
100
AcDbSpline
70
4
71
3
72
8
73
4
40
0
40
0
40
0
40
0
40
1
40
1
40
1
40
1
41
1
10
4.12932138045676
20
-6.20002538513023
30
0
41
1
10
4.13011550447632
20
-6.14756978748125
30
0
41
1
10
4.13091674625573
20
-6.09511390565308
30
0
41
1
10
4.13172513029514
20
-6.04265773074673
30
0
0
SPLINE
5
BF
100
AcDbEntity
8
1
62
256
6
ByLayer
370
18
48
1
60
0
100
AcDbSpline
70
4
71
3
72
8
73
4
40
0
40
0
40
0
40
0
40
1
40
1
40
1
40
1
41
1
10
4.13172513029514
20
-5.95077244368031
30
0
41
1
10
4.16856761898478
20
-5.93170569916609
30
0
41
1
10
4.20894394692655
20
-5.92242305897167
30
0
41
1
10
4.25029753818981
20
-5.9231641531448
30
0
0
SPLINE
5
C0
100
AcDbEntity
8
1
62
256
6
ByLayer
370
18
48
1
60
0
100
AcDbSpline
70
4
71
3
72
18
73
14
40
0
40
0
40
0
40
0
40
0.25
40
0.25
40
0.5
40
0.5
40
0.625
40
0.625
40
0.75
40
0.75
40
0.875
40
0.875
40
1
40
1
40
1
40
1
41
1
10
11.4730438292817
20
-3.25748073985494
30
0
41
1
10
10.8435246101385
20
-2.98133652536663
30
0
41
1
10
10.2214521832556
20
-2.68221290054896
30
0
41
1
10
8.98659438669165
20
-2.04572509757722
30
0
41
1
10
8.37393113906302
20
-1.70719676878684
30
0
41
1
10
7.46046184798021
20
-1.17025719570052
30
0
41
1
10
7.15692466949304
20
-0.986355332535197
30
0
41
1
10
6.55205383200442
20
-0.607012487368905
30
0
41
1
10
6.25295779296127
20
-0.412987415000515
30
0
41
1
10
5.66318859478909
20
-0.0144102711565779
30
0
41
1
10
5.37244823529673
20
0.190126995615031
30
0
41
1
10
4.80216703433871
20
0.613505911971544
30
0
41
1
10
4.52253290640837
20
0.832225772118477
30
0
41
1
10
4.25133203687153
20
1.06181761999008
30
0
0
SPLINE
5
C1
100
AcDbEntity
8
1
62
256
6
ByLayer
370
18
48
1
60
0
100
AcDbSpline
70
4
71
3
72
46
73
42
40
0
40
0
40
0
40
0
40
0.0308690409223088
40
0.0308690409223088
40
0.0617380818446176
40
0.0617380818446176
40
0.123476163689236
40
0.123476163689236
40
0.246952327378473
40
0.246952327378473
40
0.277821368300782
40
0.277821368300782
40
0.308690409223091
40
0.308690409223091
40
0.3395594501454
40
0.3395594501454
40
0.370428491067708
40
0.370428491067708
40
0.493904654756945
40
0.493904654756945
40
0.555642736601562
40
0.555642736601562
40
0.586511777523871
40
0.586511777523871
40
0.61738081844618
40
0.61738081844618
40
0.679118900290798
40
0.679118900290798
40
0.709987941213107
40
0.709987941213107
40
0.740856982135417
40
0.740856982135417
40
0.864333145824654
40
0.864333145824654
40
0.895202186746963
40
0.895202186746963
40
0.926071227669272
40
0.926071227669272
40
0.98780930951389
40
0.98780930951389
40
1
40
1
40
1
40
1
41
1
10
76.8129617064963
20
-6.20346286174208
30
0
41
1
10
76.4325419865271
20
-6.22896253807801
30
0
41
1
10
76.0522516498905
20
-6.24378691949659
30
0
41
1
10
75.2911313651117
20
-6.25206307116733
30
0
41
1
10
74.909829083281
20
-6.245463478527
30
0
41
1
10
73.7714558510323
20
-6.19398589097713
30
0
41
1
10
73.0177224857518
20
-6.11757433965909
30
0
41
1
10
70.7617991874257
20
-5.76871413848465
30
0
41
1
10
69.2644523010121
20
-5.37666079777125
30
0
41
1
10
67.3658570709768
20
-4.71216741421551
30
0
41
1
10
66.9843868643837
20
-4.57036871912169
30
0
41
1
10
66.2239190837934
20
-4.2725000272695
30
0
41
1
10
65.8442162131452
20
-4.11620584584131
30
0
41
1
10
65.084985880332
20
-3.79013809075232
30
0
41
1
10
64.7053975987834
20
-3.6204494510184
30
0
41
1
10
63.9453670952794
20
-3.26907728689125
30
0
41
1
10
63.5643550057755
20
-3.08710257347636
30
0
41
1
10
61.6616219364987
20
-2.15376504177345
30
0
41
1
10
60.1629423355084
20
-1.33950816329738
30
0
41
1
10
57.9073779299727
20
-0.0945433422083681
30
0
41
1
10
57.1541747344821
20
0.324192590615127
30
0
41
1
10
56.0175315919974
20
0.949142503805888
30
0
41
1
10
55.6367402875158
20
1.15713652053498
30
0
41
1
10
54.8751870973971
20
1.56823928756413
30
0
41
1
10
54.4950814880129
20
1.77106227055745
30
0
41
1
10
53.3556650543425
20
2.36945238585812
30
0
41
1
10
52.5967342206332
20
2.75404811645882
30
0
41
1
10
51.4544297895069
20
3.30113104913937
30
0
41
1
10
51.0736577649025
20
3.47811233130742
30
0
41
1
10
50.3157232284807
20
3.81781899250422
30
0
41
1
10
49.9379166799632
20
3.98091613929853
30
0
41
1
10
48.0528372661959
20
4.7604884113249
30
0
41
1
10
46.5562223581917
20
5.26741872473434
30
0
41
1
10
44.6653100538726
20
5.71577143541651
30
0
41
1
10
44.2861179133072
20
5.79617560831758
30
0
41
1
10
43.5247493713662
20
5.9374082881254
30
0
41
1
10
43.1436045689764
20
5.99802223188379
30
0
41
1
10
42.0030552614514
20
6.14839674391828
30
0
41
1
10
41.2442513115111
20
6.2071016785531
30
0
41
1
10
40.3331658336826
20
6.22647129164207
30
0
41
1
10
40.1827711103553
20
6.22800215939625
30
0
41
1
10
40.0323289253002
20
6.22787083635328
30
0
0
SPLINE
5
C2
100
AcDbEntity
8
1
62
256
6
ByLayer
370
18
48
1
60
0
100
AcDbSpline
70
4
71
3
72
12
73
8
40
0
40
0
40
0
40
0
40
0.0993337722366042
40
0.0993337722366042
40
0.399555848157737
40
0.399555848157737
40
1
40
1
40
1
40
1
41
1
10
7.92962566012272
20
-5.94547818748183
30
0
41
1
10
7.80351838340201
20
-5.96542175219986
30
0
41
1
10
7.67746039011695
20
-5.98424509489701
30
0
41
1
10
7.17102848004166
20
-6.05533497234498
30
0
41
1
10
6.79106408639782
20
-6.09839568658586
30
0
41
1
10
5.65137618423867
20
-6.19613976222894
30
0
41
1
10
4.89180931559539
20
-6.21943142723487
30
0
41
1
10
4.12932138045679
20
-6.20002538513037
30
0
0
SPLINE
5
C3
100
AcDbEntity
8
1
62
256
6
ByLayer
370
18
48
1
60
0
100
AcDbSpline
70
4
71
3
72
18
73
14
40
0
40
0
40
0
40
0
40
0.125
40
0.125
40
0.25
40
0.25
40
0.375
40
0.375
40
0.5
40
0.5
40
0.75
40
0.75
40
1
40
1
40
1
40
1
41
1
10
4.25133203011896
20
1.06181762570725
30
0
41
1
10
4.23704078583751
20
1.07391623436197
30
0
41
1
10
4.22230431084316
20
1.08542121876587
30
0
41
1
10
4.19163653420989
20
1.10683769391161
30
0
41
1
10
4.17554045845432
20
1.11682048077409
30
0
41
1
10
4.14339872269969
20
1.13344589815006
30
0
41
1
10
4.12692577269453
20
1.14026113156873
30
0
41
1
10
4.09602155570084
20
1.14893595509724
30
0
41
1
10
4.0812860729429
20
1.15085196429777
30
0
41
1
10
4.04317771932955
20
1.14911183849105
30
0
41
1
10
4.02553230402654
20
1.13823453771514
30
0
41
1
10
4.00434088497593
20
1.1084374253152
30
0
41
1
10
3.99999986486856
20
1.08937533668205
30
0
41
1
10
3.99999986486856
20
1.06842697364155
30
0
0
SPLINE
5
C4
100
AcDbEntity
8
1
62
256
6
ByLayer
370
18
48
1
60
0
100
AcDbSpline
70
4
71
3
72
8
73
4
40
0
40
0
40
0
40
0
40
1
40
1
40
1
40
1
41
1
10
3.99999986486853
20
1.06842697364158
30
0
41
1
10
3.99999986486853
20
1.06241024784916
30
0
41
1
10
3.99999986486856
20
1.05641646854664
30
0
41
1
10
3.99999986486856
20
1.05044565179833
30
0
0
SPLINE
5
C5
100
AcDbEntity
8
1
62
256
6
ByLayer
370
18
48
1
60
0
100
AcDbSpline
70
4
71
3
72
96
73
92
40
0
40
0
40
0
40
0
40
0.0030734302131402
40
0.0030734302131402
40
0.0237004446070905
40
0.0237004446070905
40
0.0649544733949912
40
0.0649544733949912
40
0.0855814877889416
40
0.0855814877889416
40
0.106208502182892
40
0.106208502182892
40
0.126835516576842
40
0.126835516576842
40
0.147462530970793
40
0.147462530970793
40
0.168089545364743
40
0.168089545364743
40
0.188716559758693
40
0.188716559758693
40
0.229970588546593
40
0.229970588546593
40
0.250597602940544
40
0.250597602940544
40
0.271224617334494
40
0.271224617334494
40
0.291851631728444
40
0.291851631728444
40
0.312478646122395
40
0.312478646122395
40
0.353732674910296
40
0.353732674910296
40
0.374359689304247
40
0.374359689304247
40
0.394986703698197
40
0.394986703698197
40
0.415613718092148
40
0.415613718092148
40
0.436240732486099
40
0.436240732486099
40
0.456867746880049
40
0.456867746880049
40
0.477494761274
40
0.477494761274
40
0.518748790061901
40
0.518748790061901
40
0.539375804455852
40
0.539375804455852
40
0.560002818849804
40
0.560002818849804
40
0.580629833243755
40
0.580629833243755
40
0.601256847637706
40
0.601256847637706
40
0.621883862031657
40
0.621883862031657
40
0.632197369228632
40
0.632197369228632
40
0.642510876425607
40
0.642510876425607
40
0.683764905213508
40
0.683764905213508
40
0.704391919607458
40
0.704391919607458
40
0.725018934001408
40
0.725018934001408
40
0.745645948395359
40
0.745645948395359
40
0.766272962789309
40
0.766272962789309
40
0.786899977183259
40
0.786899977183259
40
0.80752699157721
40
0.80752699157721
40
0.82815400597116
40
0.82815400597116
40
0.84878102036511
40
0.84878102036511
40
0.869408034759061
40
0.869408034759061
40
0.890035049153011
40
0.890035049153011
40
0.910662063546962
40
0.910662063546962
40
0.931289077940912
40
0.931289077940912
40
0.972543106728813
40
0.972543106728813
40
0.993170121122763
40
0.993170121122763
40
1
40
1
40
1
40
1
41
1
10
30.5634778461389
20
4.530235706067
30
0
41
1
10
30.6082899843309
20
4.54718431028951
30
0
41
1
10
30.6530954494479
20
4.56403269447168
30
0
41
1
10
30.9985520226574
20
4.69319008039554
30
0
41
1
10
31.2985121564797
20
4.80152320902548
30
0
41
1
10
32.2004202894032
20
5.10923158698958
30
0
41
1
10
32.8042582414115
20
5.29189875521371
30
0
41
1
10
33.7113095378988
20
5.5343111746914
30
0
41
1
10
34.0138117767294
20
5.60979500171243
30
0
41
1
10
34.6220053691951
20
5.74756138206195
30
0
41
1
10
34.9276679357819
20
5.81028554196163
30
0
41
1
10
35.5358541203031
20
5.92260465687704
30
0
41
1
10
35.838945344059
20
5.97235245728399
30
0
41
1
10
36.4428554491758
20
6.05908084140938
30
0
41
1
10
36.7443621890369
20
6.09569771678687
30
0
41
1
10
37.3473493576404
20
6.15549280697849
30
0
41
1
10
37.648611642917
20
6.17877416054353
30
0
41
1
10
38.2502940351118
20
6.21225523889913
30
0
41
1
10
38.5504817853659
20
6.22245749548915
30
0
41
1
10
39.4509589903281
20
6.23291989798403
30
0
41
1
10
40.0536030907371
20
6.21338310900103
30
0
41
1
10
40.9582672630936
20
6.14408177574887
30
0
41
1
10
41.2596174594202
20
6.11407586451944
30
0
41
1
10
41.8648931991243
20
6.04105445864246
30
0
41
1
10
42.1686579771573
20
5.99806295117551
30
0
41
1
10
42.7779415215647
20
5.89881439208787
30
0
41
1
10
43.083036184515
20
5.84260636076615
30
0
41
1
10
43.6894706972221
20
5.71746439151795
30
0
41
1
10
43.9915110143474
20
5.64844547423479
30
0
41
1
10
44.8978855145627
20
5.42541260670635
30
0
41
1
10
45.5007312132063
20
5.25434917235901
30
0
41
1
10
46.401138060599
20
4.96238508376851
30
0
41
1
10
46.7014688068496
20
4.86001962638801
30
0
41
1
10
47.3028978372389
20
4.64585670620497
30
0
41
1
10
47.6038460773422
20
4.53389427186687
30
0
41
1
10
48.2058339058298
20
4.29965966851555
30
0
41
1
10
48.5065831662547
20
4.1769654298119
30
0
41
1
10
49.1093521027449
20
3.92258838941262
30
0
41
1
10
49.4118367889556
20
3.79161873926216
30
0
41
1
10
50.0183356630027
20
3.52119184730674
30
0
41
1
10
50.3223816933907
20
3.38177887943044
30
0
41
1
10
50.9317404897808
20
3.09371243851703
30
0
41
1
10
51.2349643174925
20
2.94538613022689
30
0
41
1
10
52.1440047140232
20
2.49590674130016
30
0
41
1
10
52.7484024752231
20
2.18815696590514
30
0
41
1
10
53.650176340217
20
1.71034109699985
30
0
41
1
10
53.9502505047621
20
1.54885444384127
30
0
41
1
10
54.5514471080734
20
1.22521567530137
30
0
41
1
10
54.8521940869837
20
1.06239945891664
30
0
41
1
10
55.4535941642548
20
0.734068186544476
30
0
41
1
10
55.754155789064
20
0.56838310414912
30
0
41
1
10
56.3552389684775
20
0.234342925537987
30
0
41
1
10
56.6565756401578
20
0.0675019060972204
30
0
41
1
10
57.2608341849268
20
-0.265798100248901
30
0
41
1
10
57.5636653170181
20
-0.432426204157423
30
0
41
1
10
58.0187022399991
20
-0.682872059143136
30
0
41
1
10
58.1705140804119
20
-0.766436473895482
30
0
41
1
10
58.4743565382879
20
-0.933835500280821
30
0
41
1
10
58.6265340808078
20
-1.01778710334023
30
0
41
1
10
59.3867954352802
20
-1.43357960382861
30
0
41
1
10
59.9931177528597
20
-1.75580232295445
30
0
41
1
10
60.8972112414857
20
-2.22889945623066
30
0
41
1
10
61.197489250984
20
-2.38514720235665
30
0
41
1
10
61.7989413615628
20
-2.68951124442179
30
0
41
1
10
62.0997428806715
20
-2.83830020598737
30
0
41
1
10
62.7010649390097
20
-3.12987700140576
30
0
41
1
10
63.00159678719
20
-3.27264615434586
30
0
41
1
10
63.6020051957796
20
-3.5526348576696
30
0
41
1
10
63.9023453853814
20
-3.68911273574815
30
0
41
1
10
64.50491518136
20
-3.95266195115786
30
0
41
1
10
64.8068205575667
20
-4.08023569496646
30
0
41
1
10
65.4114961145171
20
-4.32745728772605
30
0
41
1
10
65.7141200687077
20
-4.44729731810111
30
0
41
1
10
66.3205994254762
20
-4.67829623587184
30
0
41
1
10
66.6258125046495
20
-4.78862308123593
30
0
41
1
10
67.2339398482125
20
-4.99745813043558
30
0
41
1
10
67.5372162000618
20
-5.09617462275133
30
0
41
1
10
68.1418389966153
20
-5.28271033482326
30
0
41
1
10
68.4428125697891
20
-5.37084636077785
30
0
41
1
10
69.0448347836625
20
-5.53420657611753
30
0
41
1
10
69.3458859293771
20
-5.60950729452085
30
0
41
1
10
69.9475155963401
20
-5.74807531181062
30
0
41
1
10
70.2481179562955
20
-5.81131971046511
30
0
41
1
10
70.8485170440211
20
-5.92584186612751
30
0
41
1
10
71.1482062669346
20
-5.9771109453319
30
0
41
1
10
72.0501465268501
20
-6.11054205867734
30
0
41
1
10
72.6535767306289
20
-6.1736963953704
30
0
41
1
10
73.5597566260662
20
-6.22921184677594
30
0
41
1
10
73.8626304681287
20
-6.24095264729516
30
0
41
1
10
74.2676010664853
20
-6.24750730586871
30
0
41
1
10
74.3684454904305
20
-6.24839278078591
30
0
41
1
10
74.4693218938586
20
-6.2485334128142
30
0
0
SPLINE
5
C6
100
AcDbEntity
8
1
62
256
6
ByLayer
370
18
48
1
60
0
100
AcDbSpline
70
4
71
3
72
85
73
81
40
0
40
0
40
0
40
0
40
0.0429277888050632
40
0.0429277888050632
40
0.112247805120068
40
0.112247805120068
40
0.146907813277569
40
0.146907813277569
40
0.181567821435072
40
0.181567821435072
40
0.250887837750076
40
0.250887837750076
40
0.285547845907578
40
0.285547845907578
40
0.32020785406508
40
0.32020785406508
40
0.389527870380085
40
0.389527870380085
40
0.424187878537587
40
0.424187878537587
40
0.441517882616338
40
0.441517882616338
40
0.450182884655713
40
0.450182884655713
40
0.451266009910635
40
0.451807572538096
40
0.452078353851827
40
0.452213744508692
40
0.452213744508692
40
0.452349135165557
40
0.452349135165557
40
0.452619916479288
40
0.452619916479288
40
0.452890697793018
40
0.452890697793018
40
0.453432260420479
40
0.453432260420479
40
0.454515385675401
40
0.454515385675401
40
0.458847886695087
40
0.458847886695087
40
0.476177890773834
40
0.476177890773834
40
0.49350789485258
40
0.49350789485258
40
0.528167903010073
40
0.528167903010073
40
0.59748791932506
40
0.59748791932506
40
0.666807935640046
40
0.666807935640046
40
0.701467943797539
40
0.701467943797539
40
0.710132945836912
40
0.710132945836912
40
0.714465446856599
40
0.714465446856599
40
0.715548572111521
40
0.715548572111521
40
0.715819353425251
40
0.715819353425251
40
0.716090134738982
40
0.716090134738982
40
0.716631697366442
40
0.718797947876286
40
0.736127951955034
40
0.736127951955034
40
0.770787960112532
40
0.770787960112532
40
0.805447968270029
40
0.805447968270029
40
0.840107976427526
40
0.840107976427526
40
0.874767984585024
40
0.874767984585024
40
0.909427992742521
40
0.909427992742521
40
0.944088000900018
40
0.944088000900018
40
1
40
1
40
1
40
1
41
1
10
18.914673762554
20
1.34302296889879
30
0
41
1
10
18.6766847313661
20
1.43111074080863
30
0
41
1
10
18.4391971387484
20
1.51178351650046
30
0
41
1
10
17.8187729384145
20
1.699401717836
30
0
41
1
10
17.4362074758298
20
1.79193952215508
30
0
41
1
10
16.8590559261066
20
1.88552991826208
30
0
41
1
10
16.665880722009
20
1.90911743751758
30
0
41
1
10
16.2844186001088
20
1.93939858851559
30
0
41
1
10
16.0952642214604
20
1.9462641730689
30
0
41
1
10
15.5308959604777
20
1.94205287433491
30
0
41
1
10
15.1587826382141
20
1.90609733015305
30
0
41
1
10
14.5997352308716
20
1.80441351867165
30
0
41
1
10
14.4132365701521
20
1.76258160432752
30
0
41
1
10
14.0387520907971
20
1.663531995824
30
0
41
1
10
13.8502089194957
20
1.60610283174753
30
0
41
1
10
13.2866982968284
20
1.413746075484
30
0
41
1
10
12.9122881934211
20
1.25851245989193
30
0
41
1
10
12.3481690721883
20
0.993009644030451
30
0
41
1
10
12.1602245384655
20
0.899300231849253
30
0
41
1
10
11.8778825268916
20
0.751908598495959
30
0
41
1
10
11.7837771555995
20
0.701680694634092
30
0
41
1
10
11.642546392313
20
0.624806594216693
30
0
41
1
10
11.5954673798849
20
0.598931886816246
30
0
41
1
10
11.5424967862802
20
0.569554161172732
30
0
41
1
10
11.5336681910555
20
0.564652262828673
30
0
41
1
10
11.523367834901
20
0.558923606279478
30
0
41
1
10
11.5182176158457
20
0.556056865557281
30
0
41
1
10
11.5160103694233
20
0.554827745850247
30
0
41
1
10
11.5145388697702
20
0.55400821808982
30
0
41
1
10
11.5135880051497
20
0.553697039612359
30
0
41
1
10
11.5128950007552
20
0.551341685120775
30
0
41
1
10
11.5142560897667
20
0.549776523499247
30
0
41
1
10
11.5162884333316
20
0.547109611164984
30
0
41
1
10
11.5174349819162
20
0.545854624615828
30
0
41
1
10
11.520958331036
20
0.542210067953647
30
0
41
1
10
11.5234544816202
20
0.53992640648201
30
0
41
1
10
11.5310789439143
20
0.533210217838246
30
0
41
1
10
11.5363663549319
20
0.528932724020052
30
0
41
1
10
11.5630445374364
20
0.507920450732996
30
0
41
1
10
11.5852348271843
20
0.492159290758423
30
0
41
1
10
11.6966087961756
20
0.413906772652211
30
0
41
1
10
11.7878877364832
20
0.354321425893772
30
0
41
1
10
11.9706044159236
20
0.235299975467854
30
0
41
1
10
12.0623700856061
20
0.176360435073576
30
0
41
1
10
12.3381885251995
20
0.0002511615657284
30
0
41
1
10
12.5227903564858
20
-0.116187874349066
30
0
41
1
10
13.0774868509583
20
-0.464519760738625
30
0
41
1
10
13.4481318494819
20
-0.695982383225783
30
0
41
1
10
14.1891724174802
20
-1.15965554547574
30
0
41
1
10
14.559858072257
20
-1.39148398343087
30
0
41
1
10
15.1128888839036
20
-1.74442376240643
30
0
41
1
10
15.2971007927494
20
-1.86239814882183
30
0
41
1
10
15.5244925412568
20
-2.014478008048
30
0
41
1
10
15.5698478615237
20
-2.0450950206297
30
0
41
1
10
15.6368266167953
20
-2.09249724216468
30
0
41
1
10
15.6592057923809
20
-2.10830618558143
30
0
41
1
10
15.6855467992846
20
-2.13003405336522
30
0
41
1
10
15.690895141337
20
-2.13439092556436
30
0
41
1
10
15.6964430614738
20
-2.14080328635939
30
0
41
1
10
15.6976417097835
20
-2.1421446626529
30
0
41
1
10
15.698465818644
20
-2.14529853082129
30
0
41
1
10
15.6964672651773
20
-2.14609858462441
30
0
41
1
10
15.6925778709406
20
-2.14880687958456
30
0
41
1
10
15.6796133366417
20
-2.15782761776063
30
0
41
1
10
15.5836782427801
20
-2.22432557917171
30
0
41
1
10
15.4903748259864
20
-2.28719776445576
30
0
41
1
10
15.2415932483423
20
-2.45008512572881
30
0
41
1
10
15.0756970102787
20
-2.55234895184807
30
0
41
1
10
14.7448392517719
20
-2.74106166390575
30
0
41
1
10
14.5795358409485
20
-2.8277474220848
30
0
41
1
10
14.2471512738366
20
-2.9841109842919
30
0
41
1
10
14.0800739510828
20
-3.05378907308824
30
0
41
1
10
13.7417243298935
20
-3.17406769513656
30
0
41
1
10
13.5715394789211
20
-3.22420156509361
30
0
41
1
10
13.2296171678143
20
-3.30253805195875
30
0
41
1
10
13.0574450889843
20
-3.33089009237668
30
0
41
1
10
12.7083285968235
20
-3.36522139628869
30
0
41
1
10
12.5310156250499
20
-3.3711790733191
30
0
41
1
10
12.0605209935726
20
-3.35714403627861
30
0
41
1
10
11.7686550408054
20
-3.31922575449485
30
0
41
1
10
11.4730178871186
20
-3.25749311321698
30
0
0
SPLINE
5
C7
100
AcDbEntity
8
1
62
256
6
ByLayer
370
18
48
1
60
0
100
AcDbSpline
70
4
71
3
72
26
73
22
40
0
40
0
40
0
40
0
40
0.250000000000011
40
0.250000000000011
40
0.375000000000009
40
0.375000000000009
40
0.500000000000007
40
0.500000000000007
40
0.625000000000005
40
0.625000000000005
40
0.687500000000004
40
0.687500000000004
40
0.750000000000003
40
0.750000000000003
40
0.812500000000003
40
0.812500000000003
40
0.875000000000002
40
0.875000000000002
40
0.937500000000001
40
0.937500000000001
40
1
40
1
40
1
40
1
41
1
10
76.030216116801
20
1.79096706263166
30
0
41
1
10
76.2450791629218
20
1.82999149224796
30
0
41
1
10
76.4589245829971
20
1.87481582873005
30
0
41
1
10
76.7755772751493
20
1.95644691466006
30
0
41
1
10
76.8803144824217
20
1.98608122869143
30
0
41
1
10
77.0875094626582
20
2.05224915372222
30
0
41
1
10
77.1901364718009
20
2.08879635970462
30
0
41
1
10
77.3912757607188
20
2.17224955558226
30
0
41
1
10
77.4891520725077
20
2.21876398302388
30
0
41
1
10
77.6292531944673
20
2.30066888375345
30
0
41
1
10
77.6748191418172
20
2.33002180828254
30
0
41
1
10
77.7628117267197
20
2.3944558933903
30
0
41
1
10
77.804994907624
20
2.42940457021533
30
0
41
1
10
77.8827551634503
20
2.50540122309687
30
0
41
1
10
77.9188617104723
20
2.54703501921918
30
0
41
1
10
77.9808053814567
20
2.63708863967696
30
0
41
1
10
78.0064539716487
20
2.68508278490148
30
0
41
1
10
78.0447036544176
20
2.78841233270993
30
0
41
1
10
78.0565697251024
20
2.84229500497977
30
0
41
1
10
78.0657691170117
20
2.95124294710291
30
0
41
1
10
78.0631414481778
20
3.00724683767538
30
0
41
1
10
78.0544027445027
20
3.06143487855181
30
0
0
SPLINE
5
C8
100
AcDbEntity
8
1
62
256
6
ByLayer
370
18
48
1
60
0
100
AcDbSpline
70
4
71
3
72
28
73
24
40
0
40
0
40
0
40
0
40
0.0624999999999976
40
0.0624999999999976
40
0.0937499999999964
40
0.0937499999999964
40
0.124999999999995
40
0.124999999999995
40
0.249999999999994
40
0.249999999999994
40
0.312499999999995
40
0.312499999999995
40
0.374999999999995
40
0.374999999999995
40
0.499999999999994
40
0.499999999999994
40
0.562499999999994
40
0.562499999999994
40
0.624999999999995
40
0.624999999999995
40
0.749999999999997
40
0.749999999999997
40
1
40
1
40
1
40
1
41
1
10
70.3420222203327
20
2.74644352956167
30
0
41
1
10
70.3672719611764
20
2.58525026902282
30
0
41
1
10
70.4041089039281
20
2.42276362747441
30
0
41
1
10
70.4754295436378
20
2.17724044036399
30
0
41
1
10
70.5018868086471
20
2.0950998172809
30
0
41
1
10
70.5600152676012
20
1.93023658447774
30
0
41
1
10
70.5918180096545
20
1.84720447554005
30
0
41
1
10
70.7618562202344
20
1.43470107969139
30
0
41
1
10
70.9312406501216
20
1.11548924668432
30
0
41
1
10
71.2229195541699
20
0.648836853378356
30
0
41
1
10
71.3268654126047
20
0.494929793948899
30
0
41
1
10
71.5421605821023
20
0.196174761642084
30
0
41
1
10
71.6539116864659
20
0.050624241154253
30
0
41
1
10
71.9996787758878
20
-0.376222036011512
30
0
41
1
10
72.2439744472208
20
-0.647930823816637
30
0
41
1
10
72.6274239341946
20
-1.03963400782536
30
0
41
1
10
72.7584837585208
20
-1.16777211917559
30
0
41
1
10
73.0245449830942
20
-1.41757038893539
30
0
41
1
10
73.1590297354508
20
-1.53883034074118
30
0
41
1
10
73.5662249862359
20
-1.89324785116156
30
0
41
1
10
73.8426581549436
20
-2.11708892166678
30
0
41
1
10
74.6843701031158
20
-2.75754831068872
30
0
41
1
10
75.2619186267262
20
-3.14345992760019
30
0
41
1
10
75.8525219763499
20
-3.4967000688774
30
0
0
SPLINE
5
C9
100
AcDbEntity
8
1
62
256
6
ByLayer
370
18
48
1
60
0
100
AcDbSpline
70
4
71
3
72
18
73
14
40
0
40
0
40
0
40
0
40
0.250000000000002
40
0.250000000000002
40
0.375000000000002
40
0.375000000000002
40
0.500000000000003
40
0.500000000000003
40
0.750000000000003
40
0.750000000000003
40
0.875000000000002
40
0.875000000000002
40
1
40
1
40
1
40
1
41
1
10
78.0544027445009
20
3.06143487855115
30
0
41
1
10
77.9588076880424
20
3.3179937540161
30
0
41
1
10
77.8631095646017
20
3.57439287527279
30
0
41
1
10
77.7192908233808
20
3.95832004323671
30
0
41
1
10
77.6713290041103
20
4.08611745978504
30
0
41
1
10
77.5753352427427
20
4.34115006414663
30
0
41
1
10
77.5272918034886
20
4.46829307039093
30
0
41
1
10
77.3831205182485
20
4.84939362128748
30
0
41
1
10
77.2869789174159
20
5.10324088273396
30
0
41
1
10
77.1424610447123
20
5.48156257485863
30
0
41
1
10
77.0942093904301
20
5.60703616077603
30
0
41
1
10
76.9976505311587
20
5.85753793978364
30
0
41
1
10
76.9493457755662
20
5.98258577157654
30
0
41
1
10
76.9009667170015
20
6.10703785918412
30
0
0
SPLINE
5
CA
100
AcDbEntity
8
1
62
256
6
ByLayer
370
18
48
1
60
0
100
AcDbSpline
70
4
71
3
72
40
73
36
40
0
40
0
40
0
40
0
40
0.249999999999993
40
0.249999999999993
40
0.374999999999992
40
0.374999999999992
40
0.49999999999999
40
0.49999999999999
40
0.624999999999989
40
0.624999999999989
40
0.687499999999988
40
0.687499999999988
40
0.718749999999988
40
0.718749999999988
40
0.749999999999987
40
0.749999999999987
40
0.781249999999987
40
0.781249999999987
40
0.812499999999987
40
0.812499999999987
40
0.843749999999986
40
0.843749999999986
40
0.859374999999988
40
0.859374999999988
40
0.874999999999989
40
0.874999999999989
40
0.89062499999999
40
0.89062499999999
40
0.906249999999992
40
0.906249999999992
40
0.937499999999994
40
0.937499999999994
40
0.968749999999997
40
0.968749999999997
40
1
40
1
40
1
40
1
41
1
10
70.3420222203326
20
2.74644352956164
30
0
41
1
10
70.8530088026797
20
2.36499788984969
30
0
41
1
10
71.3726637364897
20
2.01698267446861
30
0
41
1
10
72.1687887912136
20
1.55914402619519
30
0
41
1
10
72.4369130089631
20
1.41713372531433
30
0
41
1
10
72.9793908516276
20
1.15713749840342
30
0
41
1
10
73.2550941007123
20
1.03874270345992
30
0
41
1
10
73.8028476266678
20
0.834429095822998
30
0
41
1
10
74.0757126687537
20
0.747966582003158
30
0
41
1
10
74.483261476024
20
0.645400334091875
30
0
41
1
10
74.6188194112642
20
0.61573606321997
30
0
41
1
10
74.8216735155856
20
0.578729054773362
30
0
41
1
10
74.8892338577106
20
0.56763937596719
30
0
41
1
10
75.0237232818594
20
0.548142586590131
30
0
41
1
10
75.0909011478483
20
0.539116014213761
30
0
41
1
10
75.2228979016633
20
0.52998100837948
30
0
41
1
10
75.2881259326515
20
0.5290684097221
30
0
41
1
10
75.4144583572873
20
0.535747293851387
30
0
41
1
10
75.4756221895924
20
0.543367081325499
30
0
41
1
10
75.5929351838455
20
0.569326160616839
30
0
41
1
10
75.6491211116816
20
0.587586860608582
30
0
41
1
10
75.7279006739646
20
0.626733436273668
30
0
41
1
10
75.7532356243176
20
0.641851578172805
30
0
41
1
10
75.7999121545382
20
0.676136657809593
30
0
41
1
10
75.8214150489106
20
0.695428051304361
30
0
41
1
10
75.8601733328326
20
0.738983820680744
30
0
41
1
10
75.8777134667654
20
0.763288605376715
30
0
41
1
10
75.9079118097049
20
0.815535369813801
30
0
41
1
10
75.9205704872723
20
0.843388603436949
30
0
41
1
10
75.9514013862887
20
0.932012860923606
30
0
41
1
10
75.962231856173
20
0.998888715378882
30
0
41
1
10
75.9647783681754
20
1.1382311568567
30
0
41
1
10
75.9567729129544
20
1.2120556692997
30
0
41
1
10
75.9269930746866
20
1.36014968874224
30
0
41
1
10
75.9054127467903
20
1.43442818922057
30
0
41
1
10
75.8790153945687
20
1.50887336062257
30
0
0
SPLINE
5
CB
100
AcDbEntity
8
1
62
256
6
ByLayer
370
18
48
1
60
0
100
AcDbSpline
70
4
71
3
72
14
73
10
40
0
40
0
40
0
40
0
40
0.470997173519107
40
0.470997173519107
40
0.795937498164328
40
0.795937498164328
40
0.958407660486937
40
0.958407660486937
40
1
40
1
40
1
40
1
41
1
10
75.647163369041
20
-5.97437694213392
30
0
41
1
10
74.5505990763106
20
-5.9736279157633
30
0
41
1
10
73.4615627090979
20
-5.88779189341597
30
0
41
1
10
71.6178125571549
20
-5.60651414512213
30
0
41
1
10
70.8640601367735
20
-5.45315459254041
30
0
41
1
10
69.726789309715
20
-5.16793334010785
30
0
41
1
10
69.3462222359047
20
-5.06352233467487
30
0
41
1
10
68.8673621551323
20
-4.92145308448366
30
0
41
1
10
68.7698661846329
20
-4.89197315140598
30
0
41
1
10
68.6724692861747
20
-4.86198105285047
30
0
0
SPLINE
5
CC
100
AcDbEntity
8
1
62
256
6
ByLayer
370
13
48
1
60
0
100
AcDbSpline
70
4
71
3
72
22
73
18
40
0
40
0
40
0
40
0
40
0.0559188452533322
40
0.0559188452533322
40
0.356557743441845
40
0.356557743441845
40
0.506877192536101
40
0.506877192536101
40
0.582036917083229
40
0.582036917083229
40
0.657196641630357
40
0.657196641630357
40
0.807516090724611
40
0.807516090724611
40
0.957835539818865
40
0.957835539818865
40
1
40
1
40
1
40
1
41
1
10
68.6724692860794
20
-4.86198105282114
30
0
41
1
10
68.3894093483476
20
-4.77481645431666
30
0
41
1
10
68.1071862029058
20
-4.68332595197674
30
0
41
1
10
66.3118791712071
20
-4.07408782767482
30
0
41
1
10
64.8175960601209
20
-3.44251925784843
30
0
41
1
10
62.5655568255354
20
-2.38246229203105
30
0
41
1
10
61.8131504817848
20
-2.01028907089241
30
0
41
1
10
60.6774366006499
20
-1.43127363915698
30
0
41
1
10
60.2976116513662
20
-1.23493701745653
30
0
41
1
10
59.534579473929
20
-0.837093088946773
30
0
41
1
10
59.1543428756834
20
-0.637119052635228
30
0
41
1
10
58.0172127936792
20
-0.0366951859009248
30
0
41
1
10
57.2632279675464
20
0.363886844353033
30
0
41
1
10
55.7575556955333
20
1.1544278963778
30
0
41
1
10
55.0054472730314
20
1.54355896838419
30
0
41
1
10
54.0397560770112
20
2.02728800463754
30
0
41
1
10
53.8280225806664
20
2.13229198941465
30
0
41
1
10
53.6160278024376
20
2.23621195028102
30
0
0
SPLINE
5
CD
100
AcDbEntity
8
1
62
256
6
ByLayer
370
18
48
1
60
0
100
AcDbSpline
70
4
71
3
72
8
73
4
40
0
40
0
40
0
40
0
40
1
40
1
40
1
40
1
41
1
10
4.7932051238511
20
-5.93197684697108
30
0
41
1
10
4.61225675616018
20
-5.93136043336332
30
0
41
1
10
4.4313003773178
20
-5.92842635857912
30
0
41
1
10
4.25029753818978
20
-5.9231641531448
30
0
0
SPLINE
5
CE
100
AcDbEntity
8
1
62
256
6
ByLayer
370
18
48
1
60
0
100
AcDbSpline
70
4
71
3
72
12
73
8
40
0
40
0
40
0
40
0
40
0.250000000000002
40
0.250000000000002
40
0.500000000000004
40
0.500000000000004
40
1
40
1
40
1
40
1
41
1
10
76.8793308929014
20
-6.02474343139116
30
0
41
1
10
76.8841956731777
20
-6.01162329554336
30
0
41
1
10
76.8888542313307
20
-5.99827293541372
30
0
41
1
10
76.896562883126
20
-5.97421979052396
30
0
41
1
10
76.8995948276955
20
-5.96354938888123
30
0
41
1
10
76.905111551257
20
-5.93964475054042
30
0
41
1
10
76.9040455162307
20
-5.93509077576527
30
0
41
1
10
76.9003598883563
20
-5.93816475271441
30
0
0
SPLINE
5
CF
100
AcDbEntity
8
1
62
256
6
ByLayer
370
13
48
1
60
0
100
AcDbSpline
70
4
71
3
72
12
73
8
40
0
40
0
40
0
40
0
40
0.5
40
0.5
40
0.75
40
0.75
40
1
40
1
40
1
40
1
41
1
10
3.99999986486853
20
-6.16155160200785
30
0
41
1
10
3.99999986486853
20
-6.13863529175319
30
0
41
1
10
4.0115221357085
20
-6.11493925048904
30
0
41
1
10
4.04466910945655
20
-6.08397278538317
30
0
41
1
10
4.05859523135874
20
-6.07412307587916
30
0
41
1
10
4.09157490839613
20
-6.05656414339569
30
0
41
1
10
4.11032821458377
20
-6.04893259074987
30
0
41
1
10
4.13172513029514
20
-6.04265773074673
30
0
0
SPLINE
5
D0
100
AcDbEntity
8
1
62
256
6
ByLayer
370
18
48
1
60
0
100
AcDbSpline
70
4
71
3
72
12
73
8
40
0
40
0
40
0
40
0
40
0.25
40
0.25
40
0.5
40
0.5
40
1
40
1
40
1
40
1
41
1
10
4.12932138045673
20
-6.20002538513037
30
0
41
1
10
4.10967214135403
20
-6.19952529333381
30
0
41
1
10
4.09189744505929
20
-6.19889302616286
30
0
41
1
10
4.05999180664705
20
-6.1972819561114
30
0
41
1
10
4.04604099689354
20
-6.19630195328998
30
0
41
1
10
4.01226854496539
20
-6.1928616946843
30
0
41
1
10
3.99999986486827
20
-6.18982023015948
30
0
41
1
10
3.9999998648683
20
-6.18621688236303
30
0
0
SPLINE
5
D1
100
AcDbEntity
8
1
62
256
6
ByLayer
370
18
48
1
60
0
100
AcDbSpline
70
4
71
3
72
12
73
8
40
0
40
0
40
0
40
0
40
0.30525865427542
40
0.30525865427542
40
0.641453832125914
40
0.641453832125914
40
1
40
1
40
1
40
1
41
1
10
40.3975438877465
20
-5.95256294656579
30
0
41
1
10
39.704695220932
20
-5.95693674075338
30
0
41
1
10
39.0126467558575
20
-5.92749549029662
30
0
41
1
10
37.5561944137432
20
-5.79553940523829
30
0
41
1
10
36.7979366207336
20
-5.68638321696497
30
0
41
1
10
35.2373027127519
20
-5.38491590293833
30
0
41
1
10
34.4347724596857
20
-5.18744593300582
30
0
41
1
10
33.6312527245758
20
-4.95199520877219
30
0
0
SPLINE
5
D2
100
AcDbEntity
8
1
62
256
6
ByLayer
370
13
48
1
60
0
100
AcDbSpline
70
4
71
3
72
27
73
23
40
0
40
0
40
0
40
0
40
0.134463871193498
40
0.134463871193498
40
0.206483852517585
40
0.206483852517585
40
0.242493843179628
40
0.242493843179628
40
0.278503833841672
40
0.278503833841672
40
0.422543796489843
40
0.422543796489843
40
0.710623721786185
40
0.710623721786185
40
0.746633712448227
40
0.746633712448227
40
0.782643703110269
40
0.854663684434351
40
0.854663684434351
40
0.998703647082516
40
0.998703647082516
40
1
40
1
40
1
40
1
41
1
10
33.6312527245025
20
-4.95199520875076
30
0
41
1
10
32.9279123425512
20
-4.74589945891566
30
0
41
1
10
32.2238138266806
20
-4.51070313237565
30
0
41
1
10
31.1374337875749
20
-4.10886951341232
30
0
41
1
10
30.7574882159317
20
-3.96118924419443
30
0
41
1
10
30.1854204601869
20
-3.72906808989197
30
0
41
1
10
29.9944214557806
20
-3.64991695082046
30
0
41
1
10
29.6135831822345
20
-3.48902698355229
30
0
41
1
10
29.4234988389074
20
-3.40719005147781
30
0
41
1
10
28.4744770208738
20
-2.99153614457839
30
0
41
1
10
27.7195999890932
20
-2.63855986437397
30
0
41
1
10
25.4585181079693
20
-1.53542789863852
30
0
41
1
10
23.9556925618763
20
-0.741393345509778
30
0
41
1
10
22.2405240836478
20
0.162952976484178
30
0
41
1
10
22.049409221143
20
0.263675904099358
30
0
41
1
10
21.6682347294599
20
0.464291264545267
30
0
41
1
10
21.0975255226756
20
0.764247082844605
30
0
41
1
10
20.5294121071792
20
1.06017661401927
30
0
41
1
10
19.3953328601604
20
1.64426430514618
30
0
41
1
10
18.6423802012133
20
2.02382975568753
30
0
41
1
10
17.8823025538947
20
2.39057720843709
30
0
41
1
10
17.875522883184
20
2.3938471801271
30
0
41
1
10
17.8687431861225
20
2.39711585072203
30
0
0
SPLINE
5
D3
100
AcDbEntity
8
1
62
256
6
ByLayer
370
18
48
1
60
0
100
AcDbSpline
70
2053
71
3
72
62
73
58
40
0
40
0
40
0
40
0
40
0.0312500000000008
40
0.0312500000000008
40
0.0625000000000017
40
0.0625000000000017
40
0.0937500000000025
40
0.0937500000000025
40
0.125000000000003
40
0.125000000000003
40
0.156250000000004
40
0.156250000000004
40
0.187500000000005
40
0.187500000000005
40
0.218750000000006
40
0.218750000000006
40
0.250000000000007
40
0.250000000000007
40
0.281250000000008
40
0.281250000000008
40
0.312500000000009
40
0.312500000000009
40
0.37500000000001
40
0.37500000000001
40
0.437500000000012
40
0.437500000000012
40
0.468750000000012
40
0.468750000000012
40
0.500000000000011
40
0.500000000000011
40
0.53125000000001
40
0.53125000000001
40
0.56250000000001
40
0.56250000000001
40
0.593750000000009
40
0.593750000000009
40
0.625000000000008
40
0.625000000000008
40
0.656250000000007
40
0.656250000000007
40
0.687500000000007
40
0.687500000000007
40
0.750000000000006
40
0.750000000000006
40
0.781250000000005
40
0.781250000000005
40
0.812500000000004
40
0.812500000000004
40
0.843750000000003
40
0.843750000000003
40
0.875000000000003
40
0.875000000000003
40
0.906250000000002
40
0.906250000000002
40
0.937500000000001
40
0.937500000000001
40
1
40
1
40
1
40
1
41
1
10
77.0515535220644
20
-2.5431500764928
30
0
41
1
10
77.022612819113
20
-2.58358779500406
30
0
41
1
10
76.9942195316274
20
-2.62704544316659
30
0
41
1
10
76.9386288942242
20
-2.72055834058275
30
0
41
1
10
76.9111266835818
20
-2.77123843016767
30
0
41
1
10
76.8592665313031
20
-2.8772190706147
30
0
41
1
10
76.8349731211829
20
-2.93223765367773
30
0
41
1
10
76.7901704648245
20
-3.04696440148552
30
0
41
1
10
76.7702268415617
20
-3.10539840353633
30
0
41
1
10
76.7368731342297
20
-3.22057097673081
30
0
41
1
10
76.723119983073
20
-3.27879045726118
30
0
41
1
10
76.7036910502328
20
-3.38788526655921
30
0
41
1
10
76.6977415827372
20
-3.4398227322848
30
0
41
1
10
76.6934903903794
20
-3.53500858661627
30
0
41
1
10
76.6951307390551
20
-3.57752808115083
30
0
41
1
10
76.7051708075745
20
-3.65346093203325
30
0
41
1
10
76.7134542143468
20
-3.68581335821608
30
0
41
1
10
76.7354386515038
20
-3.74030187915523
30
0
41
1
10
76.749263545273
20
-3.76250602822094
30
0
41
1
10
76.7808828021108
20
-3.7964772798
30
0
41
1
10
76.7987723758216
20
-3.80851936304933
30
0
41
1
10
76.858169824769
20
-3.83090691835565
30
0
41
1
10
76.9036774678841
20
-3.82724468133031
30
0
41
1
10
77.0041807673446
20
-3.78716584496365
30
0
41
1
10
77.0574077418135
20
-3.75151394905242
30
0
41
1
10
77.1417530423319
20
-3.6743977793399
30
0
41
1
10
77.170326879507
20
-3.6448992631496
30
0
41
1
10
77.2272712074983
20
-3.57933469718387
30
0
41
1
10
77.2558111097625
20
-3.54312349413476
30
0
41
1
10
77.3130403169725
20
-3.46313830463205
30
0
41
1
10
77.3419973096827
20
-3.41887785717688
30
0
41
1
10
77.3978537104169
20
-3.32499676294461
30
0
41
1
10
77.4249406302256
20
-3.27519950152404
30
0
41
1
10
77.4771555321671
20
-3.16895306544745
30
0
41
1
10
77.5019240732781
20
-3.11311032187982
30
0
41
1
10
77.5467121183343
20
-2.99927179367449
30
0
41
1
10
77.5672087182531
20
-2.93988477199852
30
0
41
1
10
77.6011259039509
20
-2.82410187704011
30
0
41
1
10
77.6148881013278
20
-2.76687214932059
30
0
41
1
10
77.6350373178826
20
-2.65604469387944
30
0
41
1
10
77.6410842613986
20
-2.60454061372036
30
0
41
1
10
77.6479213225429
20
-2.46100092361752
30
0
41
1
10
77.6367042070891
20
-2.38438446910678
30
0
41
1
10
77.6034712347847
20
-2.30307343265608
30
0
41
1
10
77.5895829795994
20
-2.28109891658718
30
0
41
1
10
77.5575625124361
20
-2.24736930222824
30
0
41
1
10
77.539554924629
20
-2.23561306507932
30
0
41
1
10
77.4999949755788
20
-2.22116694621772
30
0
41
1
10
77.4783468404644
20
-2.21855799898668
30
0
41
1
10
77.4329248903682
20
-2.22196173067448
30
0
41
1
10
77.4090176319104
20
-2.22789937246014
30
0
41
1
10
77.3589024407072
20
-2.24792083670681
30
0
41
1
10
77.3325896814588
20
-2.26212382197045
30
0
41
1
10
77.2791282870475
20
-2.29788524372407
30
0
41
1
10
77.2518138066896
20
-2.31948383498965
30
0
41
1
10
77.168080098421
20
-2.39568110138953
30
0
41
1
10
77.1094349279673
20
-2.46227463947028
30
0
41
1
10
77.0515535220644
20
-2.5431500764928
30
0
0
SPLINE
5
D4
100
AcDbEntity
8
1
62
256
6
ByLayer
370
18
48
1
60
0
100
AcDbSpline
70
4
71
3
72
10
73
6
40
0
40
0
40
0
40
0
40
0.825039737933682
40
0.825039737933682
40
1
40
1
40
1
40
1
41
1
10
76.8129617064963
20
6.20346286174205
30
0
41
1
10
76.4325382187962
20
6.22896279063042
30
0
41
1
10
76.0521355214121
20
6.24379449991284
30
0
41
1
10
75.5906047221545
20
6.24880536110174
30
0
41
1
10
75.5098549258841
20
6.24919889394127
30
0
41
1
10
75.4291224582039
20
6.24911141781448
30
0
0
SPLINE
5
D5
100
AcDbEntity
8
1
62
256
6
ByLayer
370
18
48
1
60
0
100
AcDbSpline
70
4
71
3
72
48
73
44
40
0
40
0
40
0
40
0
40
0.0716970379631826
40
0.0716970379631826
40
0.101117475130504
40
0.101117475130504
40
0.130537912297826
40
0.130537912297826
40
0.159958349465148
40
0.159958349465148
40
0.189378786632471
40
0.189378786632471
40
0.307060535301757
40
0.307060535301757
40
0.365901409636401
40
0.365901409636401
40
0.395321846803723
40
0.395321846803723
40
0.424742283971045
40
0.424742283971045
40
0.483583158305689
40
0.483583158305689
40
0.513003595473011
40
0.513003595473011
40
0.542424032640333
40
0.542424032640333
40
0.571844469807655
40
0.571844469807655
40
0.601264906974976
40
0.601264906974976
40
0.66010578130962
40
0.66010578130962
40
0.777787529978907
40
0.777787529978907
40
0.807207967146229
40
0.807207967146229
40
0.836628404313551
40
0.836628404313551
40
0.895469278648194
40
0.895469278648194
40
0.954310152982839
40
0.954310152982839
40
1
40
1
40
1
40
1
41
1
10
43.2369342173723
20
-5.98038363626907
30
0
41
1
10
42.3202049414296
20
-6.12182018676495
30
0
41
1
10
41.4015676296786
20
-6.20415170089541
30
0
41
1
10
40.0943322765548
20
-6.2313843410231
30
0
41
1
10
39.7126526518836
20
-6.22864007197339
30
0
41
1
10
38.9517526272811
20
-6.20188171966029
30
0
41
1
10
38.5718013615636
20
-6.1778885274492
30
0
41
1
10
37.8118901626927
20
-6.10895308042151
30
0
41
1
10
37.4319142992516
20
-6.06402092174386
30
0
41
1
10
36.6710942348922
20
-5.95349311856751
30
0
41
1
10
36.2895397873175
20
-5.88772730559617
30
0
41
1
10
34.3867658216197
20
-5.51002694049677
30
0
41
1
10
32.8870134290723
20
-5.05361168678476
30
0
41
1
10
30.6293089362816
20
-4.1860910597473
30
0
41
1
10
29.8752464646016
20
-3.86666425054429
30
0
41
1
10
28.7369501190709
20
-3.34808443348894
30
0
41
1
10
28.355516377002
20
-3.1683163387691
30
0
41
1
10
27.5935900387381
20
-2.79904876997452
30
0
41
1
10
27.2132649708263
20
-2.60962914943423
30
0
41
1
10
26.0728741490366
20
-2.02927487348094
30
0
41
1
10
25.3133127357249
20
-1.62637810799524
30
0
41
1
10
24.1696638020077
20
-1.00720520198303
30
0
41
1
10
23.7885571174144
20
-0.798796254273526
30
0
41
1
10
23.0277137410563
20
-0.380808677275212
30
0
41
1
10
22.6476572141352
20
-0.171046827109791
30
0
41
1
10
21.8873706287007
20
0.248366763532545
30
0
41
1
10
21.5071852873364
20
0.45809999128582
30
0
41
1
10
20.7457176450373
20
0.875774472940151
30
0
41
1
10
20.3637718395966
20
1.08404213192466
30
0
41
1
10
19.2233334448536
20
1.6990994740633
30
0
41
1
10
18.4685081366787
20
2.09768122024715
30
0
41
1
10
16.2088672670999
20
3.23997304875451
30
0
41
1
10
14.7094884806204
20
3.93124206532693
30
0
41
1
10
12.8089445266023
20
4.65129489894605
30
0
41
1
10
12.4267196833775
20
4.78831102141478
30
0
41
1
10
11.6668512059086
20
5.04392364238603
30
0
41
1
10
11.2883631854545
20
5.16285113808925
30
0
41
1
10
10.1558232881882
20
5.49205218519722
30
0
41
1
10
9.40487071494377
20
5.67488404325289
30
0
41
1
10
7.90358316322965
20
5.96256827749696
30
0
41
1
10
7.15364614897675
20
6.0676788402146
30
0
41
1
10
5.81598706501549
20
6.18172259605197
30
0
41
1
10
5.22943739687403
20
6.20694637718708
30
0
41
1
10
4.63955117779867
20
6.20664790445352
30
0
0
SPLINE
5
D6
100
AcDbEntity
8
1
62
256
6
ByLayer
370
18
48
1
60
0
100
AcDbSpline
70
4
71
3
72
8
73
4
40
0
40
0
40
0
40
0
40
1
40
1
40
1
40
1
41
1
10
76.9003598883552
20
-5.93816475271552
30
0
41
1
10
76.8710078998264
20
-5.96264561166902
30
0
41
1
10
76.8459656496582
20
-5.97496662037244
30
0
41
1
10
76.8252997889031
20
-5.97493972407216
30
0
0
SPLINE
5
D7
100
AcDbEntity
8
1
62
256
6
ByLayer
370
18
48
1
60
0
100
AcDbSpline
70
4
71
3
72
48
73
44
40
0
40
0
40
0
40
0
40
0.0482275827722553
40
0.0482275827722553
40
0.0964551655445107
40
0.0964551655445107
40
0.144682748316766
40
0.144682748316766
40
0.192910331089021
40
0.192910331089021
40
0.241137913861277
40
0.241137913861277
40
0.289365496633532
40
0.289365496633532
40
0.337593079405787
40
0.337593079405787
40
0.385820662178043
40
0.385820662178043
40
0.434048244950298
40
0.434048244950298
40
0.482275827722553
40
0.482275827722553
40
0.530503410494809
40
0.530503410494809
40
0.578730993267064
40
0.578730993267064
40
0.626958576039319
40
0.626958576039319
40
0.675186158811575
40
0.675186158811575
40
0.72341374158383
40
0.72341374158383
40
0.771641324356085
40
0.771641324356085
40
0.819868907128341
40
0.819868907128341
40
0.868096489900596
40
0.868096489900596
40
0.916324072672851
40
0.916324072672851
40
0.964551655445107
40
0.964551655445107
40
1
40
1
40
1
40
1
41
1
10
11.4730072707291
20
-3.25749089637557
30
0
41
1
10
11.7813023340863
20
-3.39343230756228
30
0
41
1
10
12.089346156151
20
-3.52498149991894
30
0
41
1
10
12.7048849767635
20
-3.78049448776181
30
0
41
1
10
13.0123326269843
20
-3.90442408464057
30
0
41
1
10
13.6268867322841
20
-4.14323315864365
30
0
41
1
10
13.9338577689358
20
-4.25821564229366
30
0
41
1
10
14.5487355531309
20
-4.47794329256465
30
0
41
1
10
14.8565631143239
20
-4.58294433567937
30
0
41
1
10
15.4728772751979
20
-4.7830220584087
30
0
41
1
10
15.7814940748712
20
-4.87792819118044
30
0
41
1
10
16.3956321762302
20
-5.05585346586238
30
0
41
1
10
16.7017685707441
20
-5.13905955021124
30
0
41
1
10
17.3134917685123
20
-5.2937248369972
30
0
41
1
10
17.6188511990287
20
-5.36529648403703
30
0
41
1
10
18.2285333901544
20
-5.49592310418504
30
0
41
1
10
18.5328148459525
20
-5.55501090643338
30
0
41
1
10
19.1407747197296
20
-5.66166546708629
30
0
41
1
10
19.4448280924032
20
-5.70927723940741
30
0
41
1
10
20.0531247581652
20
-5.79057938001438
30
0
41
1
10
20.3573569732853
20
-5.82455786816547
30
0
41
1
10
20.9660021430015
20
-5.88035925301466
30
0
41
1
10
21.2702400344095
20
-5.90240125767949
30
0
41
1
10
21.8800104028716
20
-5.93386554681572
30
0
41
1
10
22.1856646206733
20
-5.94225159295755
30
0
41
1
10
22.7983030703569
20
-5.94572985169717
30
0
41
1
10
23.1052905977673
20
-5.94094001026639
30
0
41
1
10
23.7205109081512
20
-5.91910577955855
30
0
41
1
10
24.02867901924
20
-5.90209409713287
30
0
41
1
10
24.644040643147
20
-5.85327528852059
30
0
41
1
10
24.9515030063501
20
-5.8219770036678
30
0
41
1
10
25.5660456580449
20
-5.74707684722071
30
0
41
1
10
25.8730821212566
20
-5.70373682765273
30
0
41
1
10
26.4869360754381
20
-5.60414880292112
30
0
41
1
10
26.7942058432602
20
-5.54734677138518
30
0
41
1
10
27.4096662475857
20
-5.42172047592516
30
0
41
1
10
27.7180777051327
20
-5.3527623403227
30
0
41
1
10
28.3340066941949
20
-5.20406453199789
30
0
41
1
10
28.6412223488348
20
-5.12386412693616
30
0
41
1
10
29.2555851409268
20
-4.95077599377859
30
0
41
1
10
29.5628554732515
20
-4.85872502638003
30
0
41
1
10
30.0959530515391
20
-4.69049908906453
30
0
41
1
10
30.3217798661415
20
-4.61678899682479
30
0
41
1
10
30.5476146470656
20
-4.54017007197351
30
0
0
SPLINE
5
D8
100
AcDbEntity
8
1
62
256
6
ByLayer
370
18
48
1
60
0
100
AcDbSpline
70
4
71
3
72
30
73
26
40
0
40
0
40
0
40
0
40
0.0074058727676554
40
0.0074058727676554
40
0.0837592671701428
40
0.0837592671701428
40
0.16011266157263
40
0.16011266157263
40
0.236466055975118
40
0.236466055975118
40
0.312819450377605
40
0.312819450377605
40
0.389172844780093
40
0.389172844780093
40
0.465526239182579
40
0.465526239182579
40
0.541879633585067
40
0.541879633585067
40
0.694586422390044
40
0.694586422390044
40
0.770939816792533
40
0.770939816792533
40
0.847293211195022
40
0.847293211195022
40
1
40
1
40
1
40
1
41
1
10
58.2675208764524
20
5.96191811678489
30
0
41
1
10
58.2971112288976
20
5.96155905767421
30
0
41
1
10
58.3267058370396
20
5.96113744665132
30
0
41
1
10
58.661467033777
20
5.95566714282865
30
0
41
1
10
58.9674678632557
20
5.94423799280443
30
0
41
1
10
59.581000862413
20
5.90921432157717
30
0
41
1
10
59.8890167980577
20
5.88484131329895
30
0
41
1
10
60.5048762123908
20
5.82227251915648
30
0
41
1
10
60.812047824891
20
5.78440204951721
30
0
41
1
10
61.4264962488928
20
5.69772528738827
30
0
41
1
10
61.7337058605288
20
5.64883380602939
30
0
41
1
10
62.3479836449366
20
5.53639435993617
30
0
41
1
10
62.6550858101448
20
5.47330023985717
30
0
41
1
10
63.2693801445186
20
5.33430678312098
30
0
41
1
10
63.5766337316147
20
5.25849898439009
30
0
41
1
10
64.192726617275
20
5.09595158838115
30
0
41
1
10
64.5010173054631
20
5.00911208964982
30
0
41
1
10
65.4239421969139
20
4.733464392851
30
0
41
1
10
66.0371142602458
20
4.52929561369839
30
0
41
1
10
66.9589940947433
20
4.19224677953042
30
0
41
1
10
67.2664810369788
20
4.07484999135522
30
0
41
1
10
67.8818826200497
20
3.83050948826104
30
0
41
1
10
68.1899341460123
20
3.70314874604603
30
0
41
1
10
69.1131446603499
20
3.31079453166541
30
0
41
1
10
69.7279633931687
20
3.0353690709405
30
0
41
1
10
70.3420222203324
20
2.74644352956179
30
0
0
SPLINE
5
D9
100
AcDbEntity
8
1
62
256
6
ByLayer
370
13
48
1
60
0
100
AcDbSpline
70
4
71
3
72
8
73
4
40
0
40
0
40
0
40
0
40
1
40
1
40
1
40
1
41
1
10
4.13172513029514
20
-6.04265773074673
30
0
41
1
10
4.1540621376879
20
-6.03124672345427
30
0
41
1
10
4.17827783565576
20
-6.0258665666986
30
0
41
1
10
4.20298258413331
20
-6.02640072101943
30
0
0
SPLINE
5
DA
100
AcDbEntity
8
1
62
256
6
ByLayer
370
18
48
1
60
0
100
AcDbSpline
70
4
71
3
72
24
73
20
40
0
40
0
40
0
40
0
40
0.125000000000004
40
0.125000000000004
40
0.187500000000004
40
0.187500000000004
40
0.250000000000005
40
0.250000000000005
40
0.500000000000003
40
0.500000000000003
40
0.562500000000003
40
0.562500000000003
40
0.625000000000002
40
0.625000000000002
40
0.750000000000001
40
0.750000000000001
40
0.875000000000001
40
0.875000000000001
40
1
40
1
40
1
40
1
41
1
10
76.8252997889079
20
-5.97493972407216
30
0
41
1
10
76.7387096734457
20
-5.97486170544877
30
0
41
1
10
76.6562759469443
20
-5.96224456172527
30
0
41
1
10
76.5391662376978
20
-5.92358611185901
30
0
41
1
10
76.5012224994892
20
-5.90740307330037
30
0
41
1
10
76.4276086898763
20
-5.86817772656966
30
0
41
1
10
76.3918260927221
20
-5.84503277175838
30
0
41
1
10
76.2209574544521
20
-5.71302832082475
30
0
41
1
10
76.1086552417499
20
-5.55595374913304
30
0
41
1
10
76.0002692748812
20
-5.29210466687036
30
0
41
1
10
75.9802125317964
20
-5.23591553965306
30
0
41
1
10
75.9434691741719
20
-5.11642597986628
30
0
41
1
10
75.9267476407945
20
-5.05289664705174
30
0
41
1
10
75.8825380841199
20
-4.85437796097997
30
0
41
1
10
75.8607047834763
20
-4.71080436494597
30
0
41
1
10
75.8320829473105
20
-4.40154650456969
30
0
41
1
10
75.8252937782413
20
-4.23586317132498
30
0
41
1
10
75.8271860702104
20
-3.88175996039132
30
0
41
1
10
75.8360172714052
20
-3.6926413743852
30
0
41
1
10
75.8525219763499
20
-3.4967000688774
30
0
0
SPLINE
5
DB
100
AcDbEntity
8
1
62
256
6
ByLayer
370
18
48
1
60
0
100
AcDbSpline
70
4
71
3
72
48
73
44
40
0
40
0
40
0
40
0
40
0.0899199594705522
40
0.0899199594705522
40
0.134879939205829
40
0.134879939205829
40
0.179839918941106
40
0.179839918941106
40
0.224799898676383
40
0.224799898676383
40
0.26975987841166
40
0.26975987841166
40
0.359679837882213
40
0.359679837882213
40
0.382159827749851
40
0.382159827749851
40
0.404639817617488
40
0.404639817617488
40
0.449599797352764
40
0.449599797352764
40
0.49455977708804
40
0.49455977708804
40
0.539519756823316
40
0.539519756823316
40
0.584479736558592
40
0.584479736558592
40
0.629439716293868
40
0.629439716293868
40
0.719359675764419
40
0.719359675764419
40
0.764319655499693
40
0.764319655499693
40
0.809279635234968
40
0.809279635234968
40
0.854239614970242
40
0.854239614970242
40
0.899199594705517
40
0.899199594705517
40
0.944159574440791
40
0.944159574440791
40
0.989119554176066
40
0.989119554176066
40
1
40
1
40
1
40
1
41
1
10
18.9146737618149
20
1.34302296917238
30
0
41
1
10
19.5236038901305
20
1.01263369305568
30
0
41
1
10
20.1309625130216
20
0.683009547734969
30
0
41
1
10
21.0370875458876
20
0.184588246100219
30
0
41
1
10
21.3379733384914
20
0.0171687504100362
30
0
41
1
10
21.9397931304341
20
-0.315812012431678
30
0
41
1
10
22.2409152735176
20
-0.481033116397867
30
0
41
1
10
22.8429775422503
20
-0.810094305654587
30
0
41
1
10
23.1439448961974
20
-0.973883493986534
30
0
41
1
10
23.7453766807234
20
-1.30064303498321
30
0
41
1
10
24.0456256875274
20
-1.46399448477285
30
0
41
1
10
24.9496053409154
20
-1.94556620753272
30
0
41
1
10
25.5550410773683
20
-2.25813506035359
30
0
41
1
10
26.3134154844904
20
-2.64147077108748
30
0
41
1
10
26.4651847537593
20
-2.71773805500544
30
0
41
1
10
26.7695549058555
20
-2.86834245541976
30
0
41
1
10
26.9221558511776
20
-2.94279215816326
30
0
41
1
10
27.3789290309858
20
-3.16286836186131
30
0
41
1
10
27.6827321561321
20
-3.30552625050913
30
0
41
1
10
28.2885528874555
20
-3.5834810424067
30
0
41
1
10
28.5904011743558
20
-3.7190239405042
30
0
41
1
10
29.1927374245688
20
-3.98198563236184
30
0
41
1
10
29.4939911884606
20
-4.10830008484859
30
0
41
1
10
30.0962484690603
20
-4.35148323626797
30
0
41
1
10
30.3972352266044
20
-4.46837309466343
30
0
41
1
10
30.9985520226569
20
-4.69319008039534
30
0
41
1
10
31.2985121564791
20
-4.80152320902528
30
0
41
1
10
32.2004202894026
20
-5.10923158698941
30
0
41
1
10
32.8042582414109
20
-5.29189875521354
30
0
41
1
10
33.7113095378982
20
-5.53431117469123
30
0
41
1
10
34.0138117767288
20
-5.60979500171226
30
0
41
1
10
34.6220053691943
20
-5.7475613820618
30
0
41
1
10
34.9276679357812
20
-5.81028554196149
30
0
41
1
10
35.5358541203024
20
-5.9226046568769
30
0
41
1
10
35.8389453440583
20
-5.97235245728388
30
0
41
1
10
36.4428554491749
20
-6.05908084140927
30
0
41
1
10
36.7443621890361
20
-6.09569771678679
30
0
41
1
10
37.3473493576396
20
-6.15549280697843
30
0
41
1
10
37.6486116429161
20
-6.17877416054347
30
0
41
1
10
38.2502940351109
20
-6.2122552388991
30
0
41
1
10
38.550481785365
20
-6.22245749548912
30
0
41
1
10
38.9232802209776
20
-6.22678894026237
30
0
41
1
10
38.9959536435233
20
-6.22724475005896
30
0
41
1
10
39.0686578250095
20
-6.22731212242431
30
0
0
SPLINE
5
DC
100
AcDbEntity
8
1
62
256
6
ByLayer
370
18
48
1
60
0
100
AcDbSpline
70
4
71
3
72
30
73
26
40
0
40
0
40
0
40
0
40
0.0045622507813586
40
0.0045622507813586
40
0.0875153965495796
40
0.0875153965495796
40
0.170468542317801
40
0.170468542317801
40
0.253421688086021
40
0.253421688086021
40
0.336374833854242
40
0.336374833854242
40
0.419327979622463
40
0.419327979622463
40
0.502281125390683
40
0.502281125390683
40
0.668187416927122
40
0.668187416927122
40
0.751140562695342
40
0.751140562695342
40
0.834093708463562
40
0.834093708463562
40
0.917046854231781
40
0.917046854231781
40
1
40
1
40
1
40
1
41
1
10
65.9673326214617
20
4.54370079278374
30
0
41
1
10
65.9840065041276
20
4.55007918689469
30
0
41
1
10
66.0006821943961
20
4.55644454655888
30
0
41
1
10
66.3205994254739
20
4.67829623587104
30
0
41
1
10
66.6258125046473
20
4.78862308123513
30
0
41
1
10
67.2339398482102
20
4.99745813043486
30
0
41
1
10
67.5372162000596
20
5.09617462275065
30
0
41
1
10
68.1418389966131
20
5.28271033482258
30
0
41
1
10
68.4428125697869
20
5.37084636077722
30
0
41
1
10
69.0448347836603
20
5.53420657611693
30
0
41
1
10
69.3458859293748
20
5.60950729452028
30
0
41
1
10
69.9475155963378
20
5.74807531181014
30
0
41
1
10
70.2481179562932
20
5.81131971046463
30
0
41
1
10
70.8485170440187
20
5.92584186612709
30
0
41
1
10
71.1482062669322
20
5.9771109453315
30
0
41
1
10
72.0501465268477
20
6.11054205867705
30
0
41
1
10
72.6535767306266
20
6.17369639537017
30
0
41
1
10
73.5597566260637
20
6.22921184677583
30
0
41
1
10
73.8626304681261
20
6.24095264729507
30
0
41
1
10
74.4710994801824
20
6.25080103293797
30
0
41
1
10
74.7763220886341
20
6.24893009732764
30
0
41
1
10
75.3845370065938
20
6.23160612010579
30
0
41
1
10
75.6877987392842
20
6.21610469213718
30
0
41
1
10
76.2938606009803
20
6.17146185944603
30
0
41
1
10
76.5973453745661
20
6.14253172656547
30
0
41
1
10
76.9009667169888
20
6.10703785918568
30
0
0
SPLINE
5
DD
100
AcDbEntity
8
1
62
256
6
ByLayer
370
18
48
1
60
0
100
AcDbSpline
70
4
71
3
72
14
73
10
40
0
40
0
40
0
40
0
40
0.25
40
0.25
40
0.5
40
0.5
40
0.75
40
0.75
40
1
40
1
40
1
40
1
41
1
10
75.8790153945687
20
1.50887336062257
30
0
41
1
10
75.8688440712366
20
1.53755827956758
30
0
41
1
10
75.8621334713787
20
1.5671699219744
30
0
41
1
10
75.8594066596139
20
1.62916903087355
30
0
41
1
10
75.8635529593703
20
1.6614913244031
30
0
41
1
10
75.8903923561744
20
1.71815237163406
30
0
41
1
10
75.9135531446661
20
1.742242742477
30
0
41
1
10
75.9680258081623
20
1.7753557843424
30
0
41
1
10
75.9987943300153
20
1.78526009101282
30
0
41
1
10
76.0302161168002
20
1.79096706263465
30
0
0
SPLINE
5
DE
100
AcDbEntity
8
SK1
62
256
6
ByLayer
370
18
48
1
60
0
100
AcDbSpline
70
4
71
3
72
14
73
10
40
0
40
0
40
0
40
0
40
0.25
40
0.25
40
0.5
40
0.5
40
0.75
40
0.75
40
1
40
1
40
1
40
1
41
1
10
-45
20
2.2586962602893
30
0
41
1
10
-45
20
2.26043794585189
30
0
41
1
10
-45
20
2.25559407190002
30
0
41
1
10
-45
20
2.23254371212266
30
0
41
1
10
-45
20
2.21436124791055
30
0
41
1
10
-45
20
2.16615126292646
30
0
41
1
10
-45
20
2.13556920226634
30
0
41
1
10
-45
20
2.06379739608966
30
0
41
1
10
-45
20
2.02296655597064
30
0
41
1
10
-45
20
1.97720272291383
30
0
0
SPLINE
5
DF
100
AcDbEntity
8
SK1
62
256
6
ByLayer
370
18
48
1
60
0
100
AcDbSpline
70
4
71
3
72
10
73
6
40
0
40
0
40
0
40
0
40
0.5
40
0.5
40
1
40
1
40
1
40
1
41
1
10
-43.4
20
2.88163483716014
30
0
41
1
10
-43.6546098392415
20
2.76891884126095
30
0
41
1
10
-43.9085982740033
20
2.65611261097644
30
0
41
1
10
-44.4140952600553
20
2.43015712028728
30
0
41
1
10
-44.6656877740945
20
2.31701857205712
30
0
41
1
10
-44.9144858217227
20
2.20349129854068
30
0
0
SPLINE
5
E0
100
AcDbEntity
8
SK1
62
256
6
ByLayer
370
18
48
1
60
0
100
AcDbSpline
70
4
71
3
72
26
73
22
40
0
40
0
40
0
40
0
40
0.125
40
0.125
40
0.250000000000001
40
0.250000000000001
40
0.375000000000001
40
0.375000000000001
40
0.437500000000001
40
0.437500000000001
40
0.500000000000001
40
0.500000000000001
40
0.562500000000001
40
0.562500000000001
40
0.625000000000001
40
0.625000000000001
40
0.75
40
0.75
40
0.875
40
0.875
40
1
40
1
40
1
40
1
41
1
10
-44.9999999999996
20
1.97720272291372
30
0
41
1
10
-44.9540840576389
20
1.98323293191052
30
0
41
1
10
-44.9089798554928
20
1.98967436082725
30
0
41
1
10
-44.8211510138023
20
2.00376268258199
30
0
41
1
10
-44.7783924451424
20
2.01139238725082
30
0
41
1
10
-44.6968616789376
20
2.02867125451471
30
0
41
1
10
-44.6587676761525
20
2.03816484563794
30
0
41
1
10
-44.6108217325466
20
2.05431278428838
30
0
41
1
10
-44.5966434939808
20
2.0599387105618
30
0
41
1
10
-44.5730889563791
20
2.07183822541862
30
0
41
1
10
-44.5636202601344
20
2.07821745486004
30
0
41
1
10
-44.5520090998186
20
2.0913061042495
30
0
41
1
10
-44.5498265410754
20
2.09804308686918
30
0
41
1
10
-44.5536552471308
20
2.11149301047271
30
0
41
1
10
-44.5595226576683
20
2.11800982893257
30
0
41
1
10
-44.5875540907843
20
2.13701114763791
30
0
41
1
10
-44.6188134269553
20
2.14814206091114
30
0
41
1
10
-44.6917172772219
20
2.16763290422568
30
0
41
1
10
-44.7330278445799
20
2.17596881968294
30
0
41
1
10
-44.8212124796756
20
2.19102666300256
30
0
41
1
10
-44.8674024104999
20
2.19759153316431
30
0
41
1
10
-44.9144858217227
20
2.20349129854068
30
0
0
SPLINE
5
E1
100
AcDbEntity
8
SK1
62
256
6
ByLayer
370
18
48
1
60
0
100
AcDbSpline
70
4
71
3
72
8
73
4
40
0
40
0
40
0
40
0
40
1
40
1
40
1
40
1
41
1
10
-45
20
0.255439107483568
30
0
41
1
10
-44.813403614718
20
0.169972091038204
30
0
41
1
10
-44.6250189262168
20
0.0847323306083752
30
0
41
1
10
-44.4356589351179
20
-0.0003690099155449
30
0
0
SPLINE
5
E2
100
AcDbEntity
8
SK1
62
256
6
ByLayer
370
18
48
1
60
0
100
AcDbSpline
70
4
71
3
72
14
73
10
40
0
40
0
40
0
40
0
40
0.500000000000003
40
0.500000000000003
40
0.750000000000001
40
0.750000000000001
40
0.875
40
0.875
40
1
40
1
40
1
40
1
41
1
10
-43.4
20
0.46179722458308
30
0
41
1
10
-43.3790445776494
20
0.47107420817008
30
0
41
1
10
-43.3587362712601
20
0.486069460388194
30
0
41
1
10
-43.3304966181166
20
0.520076208824605
30
0
41
1
10
-43.3215144183093
20
0.533361020892357
30
0
41
1
10
-43.3103236218556
20
0.557349392469149
30
0
41
1
10
-43.3069030532022
20
0.566211078877899
30
0
41
1
10
-43.3017205322973
20
0.585763639135337
30
0
41
1
10
-43.3
20
0.596484857069441
30
0
41
1
10
-43.3
20
0.607248490839879
30
0
0
SPLINE
5
E3
100
AcDbEntity
8
SK1
62
256
6
ByLayer
370
18
48
1
60
0
100
AcDbSpline
70
4
71
3
72
8
73
4
40
0
40
0
40
0
40
0
40
1
40
1
40
1
40
1
41
1
10
-44.9144858217227
20
2.20349129854068
30
0
41
1
10
-44.9405726710434
20
2.22935882773072
30
0
41
1
10
-44.9692321311345
20
2.24781776067107
30
0
41
1
10
-45
20
2.2586962602893
30
0
0
SPLINE
5
E4
100
AcDbEntity
8
SK1
62
256
6
ByLayer
370
18
48
1
60
0
100
AcDbSpline
70
4
71
3
72
14
73
10
40
0
40
0
40
0
40
0
40
0.125000000000001
40
0.125000000000001
40
0.250000000000001
40
0.250000000000001
40
0.500000000000004
40
0.500000000000004
40
1
40
1
40
1
40
1
41
1
10
-43.3
20
2.83349909441068
30
0
41
1
10
-43.3
20
2.84328404878798
30
0
41
1
10
-43.3017012565589
20
2.85166133000385
30
0
41
1
10
-43.3069010451287
20
2.86522414445324
30
0
41
1
10
-43.3102603620514
20
2.87034734493761
30
0
41
1
10
-43.3216024497887
20
2.8829598246783
30
0
41
1
10
-43.3304674144333
20
2.8873511258341
30
0
41
1
10
-43.3586594529452
20
2.89445305862114
30
0
41
1
10
-43.3789281721554
20
2.89096335355995
30
0
41
1
10
-43.4
20
2.88163483716014
30
0
0
SPLINE
5
E5
100
AcDbEntity
8
SK1
62
256
6
ByLayer
370
18
48
1
60
0
100
AcDbSpline
70
4
71
3
72
10
73
6
40
0
40
0
40
0
40
0
40
0.5
40
0.5
40
1
40
1
40
1
40
1
41
1
10
-45
20
-0.255439107483568
30
0
41
1
10
-44.7377192756495
20
-0.135306282040659
30
0
41
1
10
-44.4719053575424
20
-0.0156224517830026
30
0
41
1
10
-43.9377266802981
20
0.223340629524898
30
0
41
1
10
-43.6692088236261
20
0.342618245678608
30
0
41
1
10
-43.4
20
0.461797224583165
30
0
0
LINE
5
76
100
AcDbEntity
8
81
62
256
6
ByLayer
370
18
48
1
60
0
100
AcDbLine
10
79
20
0
30
0
11
84
21
0
31
0
39
0
210
0
220
0
230
1
0
LINE
5
77
100
AcDbEntity
8
1
62
256
6
ByLayer
370
18
48
1
60
0
100
AcDbLine
10
4.636846
20
6.206642
30
0
11
1.383403
21
6.204689
31
0
39
0
210
0
220
0
230
1
0
LINE
5
79
100
AcDbEntity
8
1
62
256
6
ByLayer
370
18
48
1
60
0
100
AcDbLine
10
40.037232
20
6.227882
30
0
11
39.075177
21
6.227305
31
0
39
0
210
0
220
0
230
1
0
LINE
5
7A
100
AcDbEntity
8
1
62
256
6
ByLayer
370
18
48
1
60
0
100
AcDbLine
10
75.438436
20
6.249122
30
0
11
74.4855
21
6.248551
31
0
39
0
210
0
220
0
230
1
0
LINE
5
7B
100
AcDbEntity
8
1
62
256
6
ByLayer
370
18
48
1
60
0
100
AcDbLine
10
74.4855
20
-6.248551
30
0
11
75.437992
21
-6.249122
31
0
39
0
210
0
220
0
230
1
0
LINE
5
7C
100
AcDbEntity
8
1
62
256
6
ByLayer
370
18
48
1
60
0
100
AcDbLine
10
39.075177
20
-6.227305
30
0
11
40.037838
21
-6.227882
31
0
39
0
210
0
220
0
230
1
0
LINE
5
7D
100
AcDbEntity
8
1
62
256
6
ByLayer
370
18
48
1
60
0
100
AcDbLine
10
1.383403
20
-6.204689
30
0
11
4.636925
21
-6.206642
31
0
39
0
210
0
220
0
230
1
0
LINE
5
7E
100
AcDbEntity
8
SK1
62
256
6
ByLayer
370
18
48
1
60
0
100
AcDbLine
10
0
20
7
30
0
11
-43.267949
21
7
31
0
39
0
210
0
220
0
230
1
0
LINE
5
80
100
AcDbEntity
8
SK1
62
256
6
ByLayer
370
18
48
1
60
0
100
AcDbLine
10
-43.267949
20
-7
30
0
11
0
21
-7
31
0
39
0
210
0
220
0
230
1
0
LINE
5
81
100
AcDbEntity
8
SK1
62
256
6
ByLayer
370
18
48
1
60
0
100
AcDbLine
10
-43.267949
20
7
30
0
11
-45
21
4
31
0
39
0
210
0
220
0
230
1
0
LINE
5
82
100
AcDbEntity
8
SK1
62
256
6
ByLayer
370
18
48
1
60
0
100
AcDbLine
10
-45
20
-4
30
0
11
-43.267949
21
-7
31
0
39
0
210
0
220
0
230
1
0
LINE
5
83
100
AcDbEntity
8
SK4
62
256
6
ByLayer
370
18
48
0.05
60
0
100
AcDbLine
10
84
20
0
30
0
11
-50
21
0
31
0
39
0
210
0
220
0
230
1
0
LINE
5
85
100
AcDbEntity
8
4
62
256
6
ByLayer
370
18
48
0.05
60
0
100
AcDbLine
10
79
20
0
30
0
11
0
21
0
31
0
39
0
210
0
220
0
230
1
0
LINE
5
87
100
AcDbEntity
8
80
62
256
6
ByLayer
370
18
48
1
60
0
100
AcDbLine
10
0
20
0
30
0
11
-5
21
0
31
0
39
0
210
0
220
0
230
1
0
LINE
5
88
100
AcDbEntity
8
1
62
256
6
ByLayer
370
13
48
1
60
0
100
AcDbLine
10
78.691374
20
1.115097
30
0
11
77.295097
21
1.115097
31
0
39
0
210
0
220
0
230
1
0
LINE
5
89
100
AcDbEntity
8
1
62
256
6
ByLayer
370
18
48
1
60
0
100
AcDbLine
10
75.852522
20
-3.4967
30
0
11
78.894092
21
-0.106926
31
0
39
0
210
0
220
0
230
1
0
LINE
5
8A
100
AcDbEntity
8
1
62
256
6
ByLayer
370
18
48
1
60
0
100
AcDbLine
10
78.907634
20
0.316696
30
0
11
78.691374
21
1.115097
31
0
39
0
210
0
220
0
230
1
0
LINE
5
8B
100
AcDbEntity
8
1
62
256
6
ByLayer
370
18
48
1
60
0
100
AcDbLine
10
0
20
-7
30
0
11
0
21
7
31
0
39
0
210
0
220
0
230
1
0
LINE
5
8C
100
AcDbEntity
8
1
62
256
6
ByLayer
370
18
48
1
60
0
100
AcDbLine
10
78.907634
20
-0.316696
30
0
11
78.691374
21
-1.115097
31
0
39
0
210
0
220
0
230
1
0
LINE
5
8D
100
AcDbEntity
8
1
62
256
6
ByLayer
370
13
48
1
60
0
100
AcDbLine
10
1.383403
20
6.204689
30
0
11
1.383403
21
-6.204689
31
0
39
0
210
0
220
0
230
1
0
LINE
5
8E
100
AcDbEntity
8
1
62
256
6
ByLayer
370
13
48
1
60
0
100
AcDbLine
10
77.125638
20
0.768673
30
0
11
78.894092
21
-0.106926
31
0
39
0
210
0
220
0
230
1
0
LINE
5
8F
100
AcDbEntity
8
1
62
256
6
ByLayer
370
13
48
1
60
0
100
AcDbLine
10
0.691461
20
6.602345
30
0
11
0.691461
21
-6.602345
31
0
39
0
210
0
220
0
230
1
0
LINE
5
90
100
AcDbEntity
8
1
62
256
6
ByLayer
370
18
48
1
60
0
100
AcDbLine
10
79
20
0
30
0
11
78.98683
21
-0.059084
31
0
39
0
210
0
220
0
230
1
0
LINE
5
91
100
AcDbEntity
8
1
62
256
6
ByLayer
370
18
48
1
60
0
100
AcDbLine
10
79
20
0
30
0
11
76.8253
21
-5.97494
31
0
39
0
210
0
220
0
230
1
0
LINE
5
92
100
AcDbEntity
8
1
62
256
6
ByLayer
370
13
48
1
60
0
100
AcDbLine
10
77.295097
20
1.115097
30
0
11
78.907634
21
0.316696
31
0
39
0
210
0
220
0
230
1
0
LINE
5
93
100
AcDbEntity
8
1
62
256
6
ByLayer
370
18
48
1
60
0
100
AcDbLine
10
78.98683
20
0.059084
30
0
11
79
21
0
31
0
39
0
210
0
220
0
230
1
0
LINE
5
94
100
AcDbEntity
8
SK1
62
256
6
ByLayer
370
18
48
1
60
0
100
AcDbLine
10
0
20
-7
30
0
11
0
21
7
31
0
39
0
210
0
220
0
230
1
0
LINE
5
95
100
AcDbEntity
8
SK1
62
256
6
ByLayer
370
13
48
1
60
0
100
AcDbLine
10
-43.4
20
2.881635
30
0
11
-43.4
21
0.461826
31
0
39
0
210
0
220
0
230
1
0
LINE
5
96
100
AcDbEntity
8
SK1
62
256
6
ByLayer
370
18
48
1
60
0
100
AcDbLine
10
-43.3
20
0.607248
30
0
11
-43.3
21
2.833499
31
0
39
0
210
0
220
0
230
1
0
LINE
5
97
100
AcDbEntity
8
SK1
62
256
6
ByLayer
370
18
48
1
60
0
100
AcDbLine
10
-45
20
1.977203
30
0
11
-45
21
0.255439
31
0
39
0
210
0
220
0
230
1
0
LINE
5
98
100
AcDbEntity
8
SK1
62
256
6
ByLayer
370
18
48
1
60
0
100
AcDbLine
10
-43.267949
20
7
30
0
11
-43.267949
21
-7
31
0
39
0
210
0
220
0
230
1
0
LINE
5
99
100
AcDbEntity
8
SK1
62
256
6
ByLayer
370
18
48
1
60
0
100
AcDbLine
10
-45
20
4
30
0
11
-45
21
2.258696
31
0
39
0
210
0
220
0
230
1
0
LINE
5
9A
100
AcDbEntity
8
SK1
62
256
6
ByLayer
370
18
48
1
60
0
100
AcDbLine
10
-45
20
-0.255439
30
0
11
-45
21
-4
31
0
39
0
210
0
220
0
230
1
0
MTEXT
5
E6
100
AcDbEntity
8
SK6
62
256
6
ByLayer
370
13
48
1
60
0
100
AcDbMText
10
19.129169
20
38.632694
30
0
210
0
220
0
230
1
1
\W0.7415;R840-1250-50-A1A1220
40
3.5
41
0
44
1.084337
50
0
71
8
72
5
7
iso_b_vert
0
DIMENSION
5
F3
100
AcDbEntity
8
SK2
62
256
6
ByLayer
370
13
48
1
60
0
100
AcDbDimension
2
DimnDraft3D1
10
76.86
20
-16.463398
30
0
11
36.610059
21
-16.463398
31
0
70
32
71
5
72
1
41
1
210
0
220
0
230
1
3
Standard
100
AcDbAlignedDimension
13
0
23
-1.5875
33
0
14
76.86
24
-7.8375
34
0
50
0
100
AcDbRotatedDimension
1001
ACAD
1000
DSTYLE
1002
{
1070
   279
1070
     0
1070
   172
1070
     1
1070
   173
1070
     1
1070
   340
1005
E7
1070
   271
1070
     2
1070
   272
1070
     2
1070
    77
1070
     1
1070
    73
1070
     0
1070
   171
1070
     3
1070
   274
1070
     4
1070
   177
1070
    35
1070
   176
1070
    35
1070
   178
1070
    35
1070
    48
1040
-0.005
1070
    41
1041
3.5
1070
   147
1041
1.75
1070
    42
1041
1.5875
1070
    44
1041
2.0
1070
   140
1041
3.5
1070
   343
1005
0
1070
   344
1005
0
1002
}
0
DIMENSION
5
FD
100
AcDbEntity
8
SK2
62
256
6
ByLayer
370
13
48
1
60
0
100
AcDbDimension
2
DimnDraft3D2
10
79
20
-35.692985
30
0
11
16.2013
21
-35.692985
31
0
70
32
71
5
72
1
41
1
210
0
220
0
230
1
3
Standard
100
AcDbAlignedDimension
13
-45
23
-8.5875
33
0
14
79
24
-1.5875
34
0
50
0
100
AcDbRotatedDimension
1001
ACAD
1000
DSTYLE
1002
{
1070
   279
1070
     0
1070
   172
1070
     1
1070
   173
1070
     1
1070
   340
1005
E7
1070
   271
1070
     2
1070
   272
1070
     2
1070
    77
1070
     1
1070
    73
1070
     0
1070
   171
1070
     3
1070
   274
1070
     4
1070
   177
1070
    35
1070
   176
1070
    35
1070
   178
1070
    35
1070
    48
1040
-0.005
1070
    41
1041
3.5
1070
   147
1041
1.75
1070
    42
1041
1.5875
1070
    44
1041
2.0
1070
   140
1041
3.5
1070
   343
1005
0
1070
   344
1005
0
1002
}
0
DIMENSION
5
107
100
AcDbEntity
8
SK2
62
256
6
ByLayer
370
13
48
1
60
0
100
AcDbDimension
2
DimnDraft3D3
10
79
20
17.859119
30
0
11
46.68
21
17.859119
31
0
70
32
71
5
72
1
41
1
210
0
220
0
230
1
3
Standard
100
AcDbAlignedDimension
13
14.36
23
7.8375
33
0
14
79
24
1.5875
34
0
50
0
100
AcDbRotatedDimension
1001
ACAD
1000
DSTYLE
1002
{
1070
   279
1070
     0
1070
   172
1070
     1
1070
   173
1070
     1
1070
   340
1005
E7
1070
   271
1070
     2
1070
   272
1070
     2
1070
    77
1070
     1
1070
    73
1070
     0
1070
   171
1070
     3
1070
   274
1070
     4
1070
   177
1070
    35
1070
   176
1070
    35
1070
   178
1070
    35
1070
    48
1040
-0.005
1070
    41
1041
3.5
1070
   147
1041
1.75
1070
    42
1041
1.5875
1070
    44
1041
2.0
1070
   140
1041
3.5
1070
   343
1005
0
1070
   344
1005
0
1002
}
0
DIMENSION
5
111
100
AcDbEntity
8
SK2
62
256
6
ByLayer
370
13
48
1
60
0
100
AcDbDimension
2
DimnDraft3D4
10
76.86
20
-19.052503
30
0
11
88.981425
21
-19.052503
31
0
70
32
71
5
72
1
41
1
210
0
220
0
230
1
3
Standard
100
AcDbAlignedDimension
13
79
23
-1.5875
33
0
14
76.86
24
-7.8375
34
0
50
0
100
AcDbRotatedDimension
1001
ACAD
1000
DSTYLE
1002
{
1070
   279
1070
     0
1070
   172
1070
     1
1070
   173
1070
     1
1070
   340
1005
E7
1070
   271
1070
     2
1070
   272
1070
     2
1070
    77
1070
     1
1070
    73
1070
     0
1070
   171
1070
     3
1070
   274
1070
     4
1070
   177
1070
    35
1070
   176
1070
    35
1070
   178
1070
    35
1070
    48
1040
-0.005
1070
    41
1041
3.5
1070
   147
1041
1.75
1070
    42
1041
1.5875
1070
    44
1041
2.0
1070
   140
1041
3.5
1070
   343
1005
0
1070
   344
1005
0
1002
}
0
DIMENSION
5
11B
100
AcDbEntity
8
SK2
62
256
6
ByLayer
370
13
48
1
60
0
100
AcDbDimension
2
DimnDraft3D5
10
76.86
20
-25.343428
30
0
11
13.120676
21
-25.343428
31
0
70
32
71
5
72
1
41
1
210
0
220
0
230
1
3
Standard
100
AcDbAlignedDimension
13
-45
23
-8.5875
33
0
14
76.86
24
-7.8375
34
0
50
0
100
AcDbRotatedDimension
1001
ACAD
1000
DSTYLE
1002
{
1070
   279
1070
     0
1070
   172
1070
     1
1070
   173
1070
     1
1070
   340
1005
E7
1070
   271
1070
     2
1070
   272
1070
     2
1070
    77
1070
     1
1070
    73
1070
     0
1070
   171
1070
     3
1070
   274
1070
     4
1070
   177
1070
    35
1070
   176
1070
    35
1070
   178
1070
    35
1070
    48
1040
-0.005
1070
    41
1041
3.5
1070
   147
1041
1.75
1070
    42
1041
1.5875
1070
    44
1041
2.0
1070
   140
1041
3.5
1070
   343
1005
0
1070
   344
1005
0
1002
}
0
DIMENSION
5
126
100
AcDbEntity
8
SK2
62
256
6
ByLayer
370
13
48
1
60
0
100
AcDbDimension
2
DimnDraft3D6
10
-55.625163
20
7
30
0
11
-56.250163
21
25.47418
31
0
70
33
71
5
72
1
41
1
210
0
220
0
230
1
3
Standard
100
AcDbAlignedDimension
13
-46.5875
23
-7
33
0
14
-46.5875
24
7
34
0
1001
ACAD
1000
DSTYLE
1002
{
1070
   279
1070
     0
1070
    74
1070
     0
1070
   173
1070
     1
1070
   340
1005
E7
1070
   271
1070
     3
1070
   272
1070
     2
1070
    77
1070
     1
1070
    73
1070
     0
1070
   171
1070
     3
1070
   274
1070
     4
1070
   177
1070
    35
1070
   176
1070
    35
1070
   178
1070
    35
1070
    48
1040
-0.005
1070
    41
1041
3.5
1070
   147
1041
1.75
1070
    42
1041
1.5875
1070
    44
1041
2.0
1070
   140
1041
3.5
1070
   343
1005
0
1070
   344
1005
0
1002
}
0
DIMENSION
5
131
100
AcDbEntity
8
2
62
256
6
ByLayer
370
13
48
1
60
0
100
AcDbDimension
2
DimnDraft3D7
10
93.083343
20
6.25
30
0
11
88.458343
21
23.317266
31
0
70
33
71
5
72
1
41
1
210
0
220
0
230
1
3
Standard
100
AcDbAlignedDimension
13
78.4475
23
-6.25
33
0
14
78.4475
24
6.25
34
0
1001
ACAD
1000
DSTYLE
1002
{
1070
   279
1070
     0
1070
    74
1070
     0
1070
   173
1070
     1
1070
   340
1005
E7
1070
   271
1070
     3
1070
   272
1070
     2
1070
    77
1070
     1
1070
    73
1070
     0
1070
   171
1070
     3
1070
   274
1070
     4
1070
   177
1070
    35
1070
   176
1070
    35
1070
   178
1070
    35
1070
    48
1040
-0.005
1070
    41
1041
3.5
1070
   147
1041
1.75
1070
    42
1041
1.5875
1070
    44
1041
2.0
1070
   140
1041
3.5
1070
   343
1005
0
1070
   344
1005
0
1002
}
0
ENDSEC
0
SECTION
2
OBJECTS
0
DICTIONARY
5
19c
330
0
100
AcDbDictionary
280
0
281
1
3
ACAD_GROUP
350
19d
3
ACAD_MLINESTYLE
350
19e
0
DICTIONARY
5
19d
330
0
100
AcDbDictionary
280
0
281
1
0
DICTIONARY
5
19e
330
0
100
AcDbDictionary
280
0
281
1
3
Standard
350
18
0
MLINESTYLE
5
18
330
19e
100
AcDbMlineStyle
2
Standard
70
0
3

62
256
51
90
52
90
71
2
49
-0.5
62
256
6
ByLayer
49
0.5
62
256
6
ByLayer
0
RASTERVARIABLES
5
18a
330

100
AcDbRasterVariables
90
0
70
1
71
1
72
1
0
ENDSEC
0
EOF
