0
SECTION
2
HEADER
9
$ACADVER
1
AC1015
9
$DWGCODEPAGE
3
ANSI_1252
9
$HANDSEED
5
1a9
9
$ANGBASE
50
0
9
$ANGDIR
70
0
9
$ATTMODE
70
1
9
$AUNITS
70
0
9
$AUPREC
70
0
9
$CECOLOR
62
256
9
$CELTSCALE
40
1
9
$CELTYPE
6
ByLayer
9
$CELWEIGHT
370
18
9
$CLAYER
8
0
9
$CMLJUST
70
0
9
$CMLSCALE
40
1
9
$CMLSTYLE
2
Standard
9
$DIMSTYLE
2
Standard
9
$TEXTSIZE
40
0.2
9
$TEXTSTYLE
7
Standard
9
$LUNITS
70
2
9
$LUPREC
70
4
9
$EXTNAMES
290
1
9
$INSUNITS
70
4
9
$LTSCALE
40
1
9
$LWDISPLAY
290
1
9
$PDMODE
70
0
9
$PDSIZE
40
0
9
$PLINEGEN
70
0
0
ENDSEC
0
SECTION
2
CLASSES
0
CLASS
1
RASTERVARIABLES
2
AcDbRasterVariables
3
ISM
90
0
280
0
281
0
0
ENDSEC
0
SECTION
2
TABLES
0
TABLE
2
VPORT
5
19f
100
AcDbSymbolTable
0
VPORT
5
1
100
AcDbSymbolTableRecord
100
AcDbViewportTableRecord
2
*Active
70
0
10
0
20
0
11
1
21
1
12
-1
22
1
13
0
23
0
14
0.5
24
0.5
15
10
25
10
16
0
26
0
36
1
17
0
27
0
37
0
0
ENDTAB
0
TABLE
2
LTYPE
5
1a0
100
AcDbSymbolTable
0
LTYPE
5
14
100
AcDbSymbolTableRecord
100
AcDbLinetypeTableRecord
70
0
2
ByBlock
3

72
65
73
0
40
0
0
LTYPE
5
15
100
AcDbSymbolTableRecord
100
AcDbLinetypeTableRecord
70
0
2
ByLayer
3

72
65
73
0
40
0
0
LTYPE
5
16
100
AcDbSymbolTableRecord
100
AcDbLinetypeTableRecord
70
0
2
CONTINUOUS
3
Solid line
72
65
73
0
40
0
0
LTYPE
5
6A
100
AcDbSymbolTableRecord
100
AcDbLinetypeTableRecord
70
0
2
CENTER
3
____ _ ____ _ ____ _ ____
72
65
73
4
40
47.5
49
22
74
0
49
-8.5
74
0
49
8.5
74
0
49
-8.5
74
0
0
LTYPE
5
6B
100
AcDbSymbolTableRecord
100
AcDbLinetypeTableRecord
70
0
2
DASHED
3
__ __ __ __ __ __ __ __ __
72
65
73
2
40
25.72
49
12.86
74
0
49
-12.86
74
0
0
ENDTAB
0
TABLE
2
LAYER
5
1a1
100
AcDbSymbolTable
0
LAYER
5
10
100
AcDbSymbolTableRecord
100
AcDbLayerTableRecord
2
0
70
0
62
7
6
CONTINUOUS
290
1
370
-3
390
0
0
LAYER
5
6D
100
AcDbSymbolTableRecord
100
AcDbLayerTableRecord
2
81
70
0
62
-3
6
CONTINUOUS
290
1
370
-3
390
0
0
LAYER
5
6F
100
AcDbSymbolTableRecord
100
AcDbLayerTableRecord
2
80
70
0
62
-6
6
CONTINUOUS
290
1
370
-3
390
0
0
LAYER
5
74
100
AcDbSymbolTableRecord
100
AcDbLayerTableRecord
2
2
70
0
62
7
6
CONTINUOUS
290
1
370
-3
390
0
0
LAYER
5
78
100
AcDbSymbolTableRecord
100
AcDbLayerTableRecord
2
1
70
0
62
4
6
CONTINUOUS
290
1
370
-3
390
0
0
LAYER
5
86
100
AcDbSymbolTableRecord
100
AcDbLayerTableRecord
2
4
70
0
62
-2
6
CENTER
290
1
370
-3
390
0
0
LAYER
5
18b
100
AcDbSymbolTableRecord
100
AcDbLayerTableRecord
2
SK2
70
0
62
7
6
CONTINUOUS
290
1
370
-3
390
0
0
LAYER
5
18c
100
AcDbSymbolTableRecord
100
AcDbLayerTableRecord
2
SK1
70
0
62
4
6
CONTINUOUS
290
1
370
-3
390
0
0
LAYER
5
18d
100
AcDbSymbolTableRecord
100
AcDbLayerTableRecord
2
SK4
70
0
62
2
6
CENTER
290
1
370
-3
390
0
0
LAYER
5
18e
100
AcDbSymbolTableRecord
100
AcDbLayerTableRecord
2
SK6
70
0
62
5
6
CONTINUOUS
290
1
370
-3
390
0
0
ENDTAB
0
TABLE
2
STYLE
5
1a2
100
AcDbSymbolTable
0
STYLE
5
11
100
AcDbSymbolTableRecord
100
AcDbTextStyleTableRecord
2
Standard
3
txt
70
0
71
0
40
0
41
1
42
0
50
0
0
STYLE
5
E7
100
AcDbSymbolTableRecord
100
AcDbTextStyleTableRecord
2
iso_b_vert
3
simplex.shx
70
0
71
0
40
0
41
1
42
0
50
0
0
STYLE
5
E8
100
AcDbSymbolTableRecord
100
AcDbTextStyleTableRecord
2
DWGDirectTextStyle
3
simplex
70
0
71
0
40
0
41
1
42
0
50
0
0
ENDTAB
0
TABLE
2
DIMSTYLE
5
1a3
100
AcDbSymbolTable
100
AcDbDimStyleTable
0
DIMSTYLE
105
27
100
AcDbSymbolTableRecord
100
AcDbDimStyleTableRecord
2
Standard
70
0
3
<>
41
0.18
42
0.0625
44
0.18
140
0.18
147
0.09
73
0
74
0
77
1
271
2
275
0
278
52
280
0
340
11
0
ENDTAB
0
TABLE
2
VIEW
5
1a4
100
AcDbSymbolTable
0
ENDTAB
0
TABLE
2
UCS
5
1a5
100
AcDbSymbolTable
0
ENDTAB
0
TABLE
2
APPID
5
1a6
100
AcDbSymbolTable
0
APPID
5
12
100
AcDbSymbolTableRecord
100
AcDbRegAppTableRecord
2
ACAD
70
0
0
ENDTAB
0
TABLE
2
BLOCK_RECORD
5
1a7
100
AcDbSymbolTable
0
BLOCK_RECORD
5
1F
100
AcDbSymbolTableRecord
100
AcDbBlockTableRecord
2
*Model_Space
340
0
70
0
0
BLOCK_RECORD
5
1B
100
AcDbSymbolTableRecord
100
AcDbBlockTableRecord
2
*Paper_Space
340
0
70
0
0
BLOCK_RECORD
5
23
100
AcDbSymbolTableRecord
100
AcDbBlockTableRecord
2
*Paper_Space0
340
0
70
0
0
BLOCK_RECORD
5
EA
100
AcDbSymbolTableRecord
100
AcDbBlockTableRecord
2
DimnDraft3D1
340
0
70
0
0
BLOCK_RECORD
5
F4
100
AcDbSymbolTableRecord
100
AcDbBlockTableRecord
2
DimnDraft3D2
340
0
70
0
0
BLOCK_RECORD
5
FE
100
AcDbSymbolTableRecord
100
AcDbBlockTableRecord
2
DimnDraft3D3
340
0
70
0
0
BLOCK_RECORD
5
108
100
AcDbSymbolTableRecord
100
AcDbBlockTableRecord
2
DimnDraft3D4
340
0
70
0
0
BLOCK_RECORD
5
112
100
AcDbSymbolTableRecord
100
AcDbBlockTableRecord
2
DimnDraft3D5
340
0
70
0
0
BLOCK_RECORD
5
11C
100
AcDbSymbolTableRecord
100
AcDbBlockTableRecord
2
DimnDraft3D6
340
0
70
0
0
BLOCK_RECORD
5
127
100
AcDbSymbolTableRecord
100
AcDbBlockTableRecord
2
DimnDraft3D7
340
0
70
0
0
ENDTAB
0
ENDSEC
0
SECTION
2
BLOCKS
0
BLOCK
5
20
100
AcDbEntity
8
0
100
AcDbBlockBegin
2
*Model_Space
70
0
10
0
20
0
30
0
3
*Model_Space
0
ENDBLK
5
21
100
AcDbEntity
8
0
100
AcDbBlockEnd
0
BLOCK
5
1C
100
AcDbEntity
8
0
100
AcDbBlockBegin
2
*Paper_Space
70
0
10
0
20
0
30
0
3
*Paper_Space
0
ENDBLK
5
1D
100
AcDbEntity
8
0
100
AcDbBlockEnd
0
BLOCK
5
24
100
AcDbEntity
8
0
100
AcDbBlockBegin
2
*Paper_Space0
70
0
10
0
20
0
30
0
3
*Paper_Space0
0
ENDBLK
5
25
100
AcDbEntity
8
0
100
AcDbBlockEnd
0
BLOCK
5
F1
100
AcDbEntity
8
0
100
AcDbBlockBegin
2
DimnDraft3D1
70
0
10
0
20
0
30
0
3
DimnDraft3D1
0
MTEXT
5
EB
100
AcDbEntity
8
SK2
62
256
6
ByLayer
370
13
48
1
60
0
100
AcDbMText
10
32.171375
20
-15.538398
30
0
210
0
220
0
230
1
1
\W0.7317;76,87
40
3.5
41
0
44
1.084337
50
0
71
7
72
5
7
iso_b_vert
0
LINE
5
EC
100
AcDbEntity
8
SK2
62
256
6
ByLayer
370
13
48
1
60
0
100
AcDbLine
10
0
20
-1.5875
30
0
11
0
21
-18.413398
31
0
39
0
210
0
220
0
230
1
0
LINE
5
ED
100
AcDbEntity
8
SK2
62
256
6
ByLayer
370
13
48
1
60
0
100
AcDbLine
10
76.87
20
-7.7875
30
0
11
76.87
21
-18.413398
31
0
39
0
210
0
220
0
230
1
0
LINE
5
EE
100
AcDbEntity
8
SK2
62
256
6
ByLayer
370
13
48
1
60
0
100
AcDbLine
10
0
20
-16.413398
30
0
11
76.87
21
-16.413398
31
0
39
0
210
0
220
0
230
1
0
SOLID
5
EF
100
AcDbEntity
8
SK2
62
256
6
ByLayer
370
13
48
1
60
0
100
AcDbTrace
10
0
20
-16.413398
30
0
11
3.499998
21
-15.952615
31
0
12
3.500002
22
-16.874182
32
0
13
0
23
-16.413398
33
0
39
0
210
0
220
0
230
1
0
SOLID
5
F0
100
AcDbEntity
8
SK2
62
256
6
ByLayer
370
13
48
1
60
0
100
AcDbTrace
10
76.87
20
-16.413398
30
0
11
73.370002
21
-16.874182
31
0
12
73.369998
22
-15.952615
32
0
13
76.87
23
-16.413398
33
0
39
0
210
0
220
0
230
1
0
ENDBLK
5
F2
100
AcDbEntity
8
0
100
AcDbBlockEnd
0
BLOCK
5
FB
100
AcDbEntity
8
0
100
AcDbBlockBegin
2
DimnDraft3D2
70
0
10
0
20
0
30
0
3
DimnDraft3D2
0
MTEXT
5
F5
100
AcDbEntity
8
SK2
62
256
6
ByLayer
370
13
48
1
60
0
100
AcDbMText
10
10.708011
20
-34.817985
30
0
210
0
220
0
230
1
1
\W0.7145;124,00
40
3.5
41
0
44
1.084337
50
0
71
7
72
5
7
iso_b_vert
0
LINE
5
F6
100
AcDbEntity
8
SK2
62
256
6
ByLayer
370
13
48
1
60
0
100
AcDbLine
10
-45
20
-8.5875
30
0
11
-45
21
-37.692985
31
0
39
0
210
0
220
0
230
1
0
LINE
5
F7
100
AcDbEntity
8
SK2
62
256
6
ByLayer
370
13
48
1
60
0
100
AcDbLine
10
79
20
-1.5875
30
0
11
79
21
-37.692985
31
0
39
0
210
0
220
0
230
1
0
LINE
5
F8
100
AcDbEntity
8
SK2
62
256
6
ByLayer
370
13
48
1
60
0
100
AcDbLine
10
-45
20
-35.692985
30
0
11
79
21
-35.692985
31
0
39
0
210
0
220
0
230
1
0
SOLID
5
F9
100
AcDbEntity
8
SK2
62
256
6
ByLayer
370
13
48
1
60
0
100
AcDbTrace
10
-45
20
-35.692985
30
0
11
-41.500002
21
-35.232202
31
0
12
-41.499998
22
-36.153769
32
0
13
-45
23
-35.692985
33
0
39
0
210
0
220
0
230
1
0
SOLID
5
FA
100
AcDbEntity
8
SK2
62
256
6
ByLayer
370
13
48
1
60
0
100
AcDbTrace
10
79
20
-35.692985
30
0
11
75.500002
21
-36.153769
31
0
12
75.499998
22
-35.232202
32
0
13
79
23
-35.692985
33
0
39
0
210
0
220
0
230
1
0
ENDBLK
5
FC
100
AcDbEntity
8
0
100
AcDbBlockEnd
0
BLOCK
5
105
100
AcDbEntity
8
0
100
AcDbBlockBegin
2
DimnDraft3D3
70
0
10
0
20
0
30
0
3
DimnDraft3D3
0
MTEXT
5
FF
100
AcDbEntity
8
SK2
62
256
6
ByLayer
370
13
48
1
60
0
100
AcDbMText
10
42.739605
20
18.684119
30
0
210
0
220
0
230
1
1
\W0.6977;64,13
40
3.5
41
0
44
1.084337
50
0
71
7
72
5
7
iso_b_vert
0
LINE
5
100
100
AcDbEntity
8
SK2
62
256
6
ByLayer
370
13
48
1
60
0
100
AcDbLine
10
14.87
20
7.7875
30
0
11
14.87
21
19.809119
31
0
39
0
210
0
220
0
230
1
0
LINE
5
101
100
AcDbEntity
8
SK2
62
256
6
ByLayer
370
13
48
1
60
0
100
AcDbLine
10
79
20
1.5875
30
0
11
79
21
19.809119
31
0
39
0
210
0
220
0
230
1
0
LINE
5
102
100
AcDbEntity
8
SK2
62
256
6
ByLayer
370
13
48
1
60
0
100
AcDbLine
10
14.87
20
17.809119
30
0
11
79
21
17.809119
31
0
39
0
210
0
220
0
230
1
0
SOLID
5
103
100
AcDbEntity
8
SK2
62
256
6
ByLayer
370
13
48
1
60
0
100
AcDbTrace
10
14.87
20
17.809119
30
0
11
18.369998
21
18.269903
31
0
12
18.370002
22
17.348335
32
0
13
14.87
23
17.809119
33
0
39
0
210
0
220
0
230
1
0
SOLID
5
104
100
AcDbEntity
8
SK2
62
256
6
ByLayer
370
13
48
1
60
0
100
AcDbTrace
10
79
20
17.809119
30
0
11
75.500002
21
17.348335
31
0
12
75.499998
22
18.269903
32
0
13
79
23
17.809119
33
0
39
0
210
0
220
0
230
1
0
ENDBLK
5
106
100
AcDbEntity
8
0
100
AcDbBlockEnd
0
BLOCK
5
10F
100
AcDbEntity
8
0
100
AcDbBlockBegin
2
DimnDraft3D4
70
0
10
0
20
0
30
0
3
DimnDraft3D4
0
MTEXT
5
109
100
AcDbEntity
8
SK2
62
256
6
ByLayer
370
13
48
1
60
0
100
AcDbMText
10
86.278136
20
-18.127503
30
0
210
0
220
0
230
1
1
\W0.6367;2,13
40
3.5
41
0
44
1.084337
50
0
71
7
72
5
7
iso_b_vert
0
LINE
5
10A
100
AcDbEntity
8
SK2
62
256
6
ByLayer
370
13
48
1
60
0
100
AcDbLine
10
79
20
-1.5875
30
0
11
79
21
-21.002503
31
0
39
0
210
0
220
0
230
1
0
LINE
5
10B
100
AcDbEntity
8
SK2
62
256
6
ByLayer
370
13
48
1
60
0
100
AcDbLine
10
76.87
20
-7.7875
30
0
11
76.87
21
-21.002503
31
0
39
0
210
0
220
0
230
1
0
LINE
5
10C
100
AcDbEntity
8
SK2
62
256
6
ByLayer
370
13
48
1
60
0
100
AcDbLine
10
68.12
20
-19.002503
30
0
11
92.559715
21
-19.002503
31
0
39
0
210
0
220
0
230
1
0
SOLID
5
10D
100
AcDbEntity
8
SK2
62
256
6
ByLayer
370
13
48
1
60
0
100
AcDbTrace
10
79
20
-19.002503
30
0
11
82.499998
21
-18.541719
31
0
12
82.500002
22
-19.463287
32
0
13
79
23
-19.002503
33
0
39
0
210
0
220
0
230
1
0
SOLID
5
10E
100
AcDbEntity
8
SK2
62
256
6
ByLayer
370
13
48
1
60
0
100
AcDbTrace
10
76.87
20
-19.002503
30
0
11
73.370002
21
-19.463287
31
0
12
73.369998
22
-18.541719
32
0
13
76.87
23
-19.002503
33
0
39
0
210
0
220
0
230
1
0
ENDBLK
5
110
100
AcDbEntity
8
0
100
AcDbBlockEnd
0
BLOCK
5
119
100
AcDbEntity
8
0
100
AcDbBlockBegin
2
DimnDraft3D5
70
0
10
0
20
0
30
0
3
DimnDraft3D5
0
MTEXT
5
113
100
AcDbEntity
8
SK2
62
256
6
ByLayer
370
13
48
1
60
0
100
AcDbMText
10
8.249097
20
-24.468428
30
0
210
0
220
0
230
1
1
\W0.6440;121,87
40
3.5
41
0
44
1.084337
50
0
71
7
72
5
7
iso_b_vert
0
LINE
5
114
100
AcDbEntity
8
SK2
62
256
6
ByLayer
370
13
48
1
60
0
100
AcDbLine
10
-45
20
-8.5875
30
0
11
-45
21
-27.343428
31
0
39
0
210
0
220
0
230
1
0
LINE
5
115
100
AcDbEntity
8
SK2
62
256
6
ByLayer
370
13
48
1
60
0
100
AcDbLine
10
76.87
20
-7.7875
30
0
11
76.87
21
-27.343428
31
0
39
0
210
0
220
0
230
1
0
LINE
5
116
100
AcDbEntity
8
SK2
62
256
6
ByLayer
370
13
48
1
60
0
100
AcDbLine
10
-45
20
-25.343428
30
0
11
76.87
21
-25.343428
31
0
39
0
210
0
220
0
230
1
0
SOLID
5
117
100
AcDbEntity
8
SK2
62
256
6
ByLayer
370
13
48
1
60
0
100
AcDbTrace
10
-45
20
-25.343428
30
0
11
-41.500002
21
-24.882645
31
0
12
-41.499998
22
-25.804212
32
0
13
-45
23
-25.343428
33
0
39
0
210
0
220
0
230
1
0
SOLID
5
118
100
AcDbEntity
8
SK2
62
256
6
ByLayer
370
13
48
1
60
0
100
AcDbTrace
10
76.87
20
-25.343428
30
0
11
73.370002
21
-25.804212
31
0
12
73.369998
22
-24.882645
32
0
13
76.87
23
-25.343428
33
0
39
0
210
0
220
0
230
1
0
ENDBLK
5
11A
100
AcDbEntity
8
0
100
AcDbBlockEnd
0
BLOCK
5
124
100
AcDbEntity
8
0
100
AcDbBlockBegin
2
DimnDraft3D6
70
0
10
0
20
0
30
0
3
DimnDraft3D6
0
MTEXT
5
11D
100
AcDbEntity
8
SK2
62
256
6
ByLayer
370
13
48
1
60
0
100
AcDbMText
10
-55.375163
20
26.34918
30
0
210
0
220
0
230
1
1
\W0.7145;14,000
40
3.5
41
0
44
1.084337
50
90
71
7
72
5
7
iso_b_vert
0
MTEXT
5
11E
100
AcDbEntity
8
SK2
62
256
6
ByLayer
370
13
48
1
60
0
100
AcDbMText
10
-55.375163
20
21.126524
30
0
210
0
220
0
230
1
1
%%c
40
3.5
41
0
44
1.084337
50
90
71
7
72
5
7
iso_b_vert
0
LINE
5
11F
100
AcDbEntity
8
SK2
62
256
6
ByLayer
370
13
48
1
60
0
100
AcDbLine
10
-46.5875
20
-7
30
0
11
-55.625163
21
-7
31
0
39
0
210
0
220
0
230
1
0
LINE
5
120
100
AcDbEntity
8
SK2
62
256
6
ByLayer
370
13
48
1
60
0
100
AcDbLine
10
-46.5875
20
7
30
0
11
-55.625163
21
7
31
0
39
0
210
0
220
0
230
1
0
LINE
5
121
100
AcDbEntity
8
SK2
62
256
6
ByLayer
370
13
48
1
60
0
100
AcDbLine
10
-53.625163
20
-7
30
0
11
-53.625163
21
38.230759
31
0
39
0
210
0
220
0
230
1
0
SOLID
5
122
100
AcDbEntity
8
SK2
62
256
6
ByLayer
370
13
48
1
60
0
100
AcDbTrace
10
-53.625163
20
-7
30
0
11
-54.085946
21
-3.500002
31
0
12
-53.164379
22
-3.499998
32
0
13
-53.625163
23
-7
33
0
39
0
210
0
220
0
230
1
0
SOLID
5
123
100
AcDbEntity
8
SK2
62
256
6
ByLayer
370
13
48
1
60
0
100
AcDbTrace
10
-53.625163
20
7
30
0
11
-53.164379
21
3.500002
31
0
12
-54.085946
22
3.499998
32
0
13
-53.625163
23
7
33
0
39
0
210
0
220
0
230
1
0
ENDBLK
5
125
100
AcDbEntity
8
0
100
AcDbBlockEnd
0
BLOCK
5
12F
100
AcDbEntity
8
0
100
AcDbBlockBegin
2
DimnDraft3D7
70
0
10
0
20
0
30
0
3
DimnDraft3D7
0
MTEXT
5
128
100
AcDbEntity
8
2
62
256
6
ByLayer
370
13
48
1
60
0
100
AcDbMText
10
89.333343
20
24.142266
30
0
210
0
220
0
230
1
1
\W0.7145;12,400
40
3.5
41
0
44
1.084337
50
90
71
7
72
5
7
iso_b_vert
0
MTEXT
5
129
100
AcDbEntity
8
2
62
256
6
ByLayer
370
13
48
1
60
0
100
AcDbMText
10
89.333343
20
18.91961
30
0
210
0
220
0
230
1
1
%%c
40
3.5
41
0
44
1.084337
50
90
71
7
72
5
7
iso_b_vert
0
LINE
5
12A
100
AcDbEntity
8
2
62
256
6
ByLayer
370
13
48
1
60
0
100
AcDbLine
10
78.4575
20
-6.2
30
0
11
93.083343
21
-6.2
31
0
39
0
210
0
220
0
230
1
0
LINE
5
12B
100
AcDbEntity
8
2
62
256
6
ByLayer
370
13
48
1
60
0
100
AcDbLine
10
78.4575
20
6.2
30
0
11
93.083343
21
6.2
31
0
39
0
210
0
220
0
230
1
0
LINE
5
12C
100
AcDbEntity
8
2
62
256
6
ByLayer
370
13
48
1
60
0
100
AcDbLine
10
91.083343
20
-6.2
30
0
11
91.083343
21
36.023845
31
0
39
0
210
0
220
0
230
1
0
SOLID
5
12D
100
AcDbEntity
8
2
62
256
6
ByLayer
370
13
48
1
60
0
100
AcDbTrace
10
91.083343
20
-6.2
30
0
11
90.622559
21
-2.700002
31
0
12
91.544126
22
-2.699998
32
0
13
91.083343
23
-6.2
33
0
39
0
210
0
220
0
230
1
0
SOLID
5
12E
100
AcDbEntity
8
2
62
256
6
ByLayer
370
13
48
1
60
0
100
AcDbTrace
10
91.083343
20
6.2
30
0
11
91.544126
21
2.700002
31
0
12
90.622559
22
2.699998
32
0
13
91.083343
23
6.2
33
0
39
0
210
0
220
0
230
1
0
ENDBLK
5
130
100
AcDbEntity
8
0
100
AcDbBlockEnd
0
ENDSEC
0
SECTION
2
ENTITIES
0
ARC
5
9B
100
AcDbEntity
8
1
62
256
6
ByLayer
370
18
48
1
60
0
100
AcDbCircle
39
0
10
0
20
6.2
30
0
40
0.799999999999999
210
0
220
0
230
1
100
AcDbArc
50
28.14372
51
90
0
ARC
5
9C
100
AcDbEntity
8
1
62
256
6
ByLayer
370
18
48
1
60
0
100
AcDbCircle
39
0
10
0
20
-6.2
30
0
40
0.799999999999999
210
0
220
0
230
1
100
AcDbArc
50
270
51
331.85628
0
ARC
5
9D
100
AcDbEntity
8
1
62
256
6
ByLayer
370
18
48
1
60
0
100
AcDbCircle
39
0
10
-1.410828
20
6.954696
30
0
40
0.800000000000005
210
0
220
0
230
-1
100
AcDbArc
50
269.965623
51
331.85628
0
ARC
5
9E
100
AcDbEntity
8
1
62
256
6
ByLayer
370
18
48
1
60
0
100
AcDbCircle
39
0
10
-1.410828
20
-6.954696
30
0
40
0.800000000000005
210
0
220
0
230
-1
100
AcDbArc
50
28.14372
51
90.034377
0
ELLIPSE
5
9F
100
AcDbEntity
8
1
62
256
6
ByLayer
370
13
48
1
60
0
100
AcDbEllipse
10
78.027157
20
2.817044
30
0
11
4.11737117999425
21
-2.11669656886381
31
0
210
0
220
0
230
-1
40
0.482873
41
1.53949524917493
42
1.85291718398959
0
ELLIPSE
5
A0
100
AcDbEntity
8
1
62
256
6
ByLayer
370
18
48
1
60
0
100
AcDbEllipse
10
77.851134
20
2.951336
30
0
11
0.954649241175983
21
-2.6028191146788
31
0
210
0
220
0
230
-1
40
0.082138
41
-1.57480719435424
42
-0.755280950345252
0
ELLIPSE
5
A1
100
AcDbEntity
8
1
62
256
6
ByLayer
370
13
48
1
60
0
100
AcDbEllipse
10
4.179475
20
-5.990064
30
0
11
-0.0447162305425732
21
0.0894452834198844
31
0
210
0
220
0
230
1
40
0.445459
41
0.05976454901631
42
1.3959283381844
0
ELLIPSE
5
A2
100
AcDbEntity
8
1
62
256
6
ByLayer
370
18
48
1
60
0
100
AcDbEllipse
10
77.851134
20
-2.951336
30
0
11
0.954649241192799
21
2.60281911471814
31
0
210
0
220
0
230
-1
40
0.082138
41
0.755280950346817
42
1.57480719434401
0
ELLIPSE
5
A3
100
AcDbEntity
8
1
62
256
6
ByLayer
370
13
48
1
60
0
100
AcDbEllipse
10
77.303878
20
0.897898
30
0
11
0.133113781883896
21
0.268850741253519
31
0
210
0
220
0
230
1
40
0.40558
41
0.884485917130896
42
2.28074931872642
0
ELLIPSE
5
A4
100
AcDbEntity
8
1
62
256
6
ByLayer
370
13
48
1
60
0
100
AcDbEllipse
10
78.196616
20
2.951336
30
0
11
4.16356743192892
21
-1.8059605959721
31
0
210
0
220
0
230
-1
40
0.450572
41
1.58981253502502
42
1.90872049254041
0
ELLIPSE
5
A5
100
AcDbEntity
8
1
62
256
6
ByLayer
370
18
48
1
60
0
100
AcDbEllipse
10
79.019837
20
-0.04829
30
0
11
0.135658545985284
21
0.401200806105424
31
0
210
0
220
0
230
-1
40
0.065863
41
-2.32292776272543
42
-1.61878136986408
0
ELLIPSE
5
A6
100
AcDbEntity
8
1
62
256
6
ByLayer
370
18
48
1
60
0
100
AcDbEllipse
10
78.860083
20
0.127388
30
0
11
0.0868803724496564
21
0.290676908891499
31
0
210
0
220
0
230
-1
40
0.467765
41
1.66842016505513
42
2.3605371739403
0
ELLIPSE
5
A7
100
AcDbEntity
8
1
62
256
6
ByLayer
370
18
48
1
60
0
100
AcDbEllipse
10
79.000525
20
-0.001354
30
0
11
2.27343241740646
21
-6.19843716066986
31
0
210
0
220
0
230
-1
40
0.082138
41
-2.9892355833639
42
-2.8969420698264
0
ELLIPSE
5
A8
100
AcDbEntity
8
1
62
256
6
ByLayer
370
18
48
1
60
0
100
AcDbEllipse
10
79.019837
20
0.04829
30
0
11
0.135658546092012
21
-0.401200806380359
31
0
210
0
220
0
230
-1
40
0.065863
41
1.61878137032073
42
2.32292776274345
0
ELLIPSE
5
A9
100
AcDbEntity
8
1
62
256
6
ByLayer
370
13
48
1
60
0
100
AcDbEllipse
10
4.250179
20
-5.974627
30
0
11
0.00300524425724297
21
0.0999548323341814
31
0
210
0
220
0
230
1
40
0.468333
41
0.0615701389212279
42
1.61984036518439
0
ELLIPSE
5
AA
100
AcDbEntity
8
1
62
256
6
ByLayer
370
18
48
1
60
0
100
AcDbEllipse
10
79.000525
20
0.001354
30
0
11
2.27343241513715
21
6.19843715404633
31
0
210
0
220
0
230
-1
40
0.082138
41
2.89694206969613
42
2.9892355832842
0
POINT
5
6C
100
AcDbEntity
8
81
62
256
6
ByLayer
370
18
48
1
60
0
100
AcDbPoint
10
79
20
0
30
0
39
0
210
0
220
0
230
1
50
360
0
POINT
5
6E
100
AcDbEntity
8
80
62
256
6
ByLayer
370
18
48
1
60
0
100
AcDbPoint
10
0
20
0
30
0
39
0
210
0
220
0
230
1
50
360
0
POINT
5
70
100
AcDbEntity
8
SK2
62
256
6
ByLayer
370
18
48
1
60
1
100
AcDbPoint
10
-45
20
-7
30
0
39
0
210
0
220
0
230
1
50
360
0
POINT
5
72
100
AcDbEntity
8
SK2
62
256
6
ByLayer
370
18
48
1
60
1
100
AcDbPoint
10
-45
20
7
30
0
39
0
210
0
220
0
230
1
50
360
0
POINT
5
73
100
AcDbEntity
8
2
62
256
6
ByLayer
370
18
48
1
60
1
100
AcDbPoint
10
76.87
20
-6.2
30
0
39
0
210
0
220
0
230
1
50
360
0
POINT
5
75
100
AcDbEntity
8
2
62
256
6
ByLayer
370
18
48
1
60
1
100
AcDbPoint
10
76.87
20
6.2
30
0
39
0
210
0
220
0
230
1
50
360
0
SPLINE
5
AB
100
AcDbEntity
8
1
62
256
6
ByLayer
370
18
48
1
60
0
100
AcDbSpline
70
4
71
3
72
30
73
26
40
0
40
0
40
0
40
0
40
0.006253592225681
40
0.0391928761966096
40
0.0648162389075009
40
0.0972766262959882
40
0.135101319824132
40
0.189770684650126
40
0.247257372493026
40
0.312725653728267
40
0.377900417807344
40
0.442249817051528
40
0.504672007501456
40
0.553596429312816
40
0.606976894583294
40
0.651747980546744
40
0.688193714920447
40
0.720495327048112
40
0.76196673256244
40
0.80852474911773
40
0.846098942375413
40
0.879150798576096
40
0.922010816068111
40
0.965299186773948
40
1
40
1
40
1
40
1
41
1
10
22.6723353606375
20
5.89625208866769
30
0
41
1
10
22.6417246855556
20
5.89626998712487
30
0
41
1
10
22.4498683055003
20
5.89637669172822
30
0
41
1
10
22.132871589407
20
5.89681317726192
30
0
41
1
10
21.6864373527042
20
5.8965164401975
30
0
41
1
10
21.2163670865889
20
5.89507042157467
30
0
41
1
10
20.6038040737752
20
5.89466762521789
30
0
41
1
10
19.8685928422833
20
5.89551974208331
30
0
41
1
10
18.9978583519309
20
5.89338460987321
30
0
41
1
10
18.0756243318029
20
5.89345220021175
30
0
41
1
10
17.1197518920075
20
5.89183629723595
30
0
41
1
10
16.1788101848467
20
5.89167640416815
30
0
41
1
10
15.3175380804438
20
5.89138147506358
30
0
41
1
10
14.5099972200655
20
5.89018710805385
30
0
41
1
10
13.7891603703619
20
5.89036664354828
30
0
41
1
10
13.1297727584159
20
5.8897919191383
30
0
41
1
10
12.5730274728067
20
5.8890890406056
30
0
41
1
10
12.0335612298654
20
5.88895819072386
30
0
41
1
10
11.4434522476714
20
5.88928789975253
30
0
41
1
10
10.8277877476948
20
5.88892951060498
30
0
41
1
10
10.2535052590928
20
5.88824749784814
30
0
41
1
10
9.69653095800439
20
5.88792458360066
30
0
41
1
10
9.11581404532279
20
5.88741372284511
30
0
41
1
10
8.53120850603167
20
5.88418841076364
30
0
41
1
10
8.14392144122741
20
5.88434060332
30
0
41
1
10
7.97677037050104
20
5.88469793818931
30
0
0
SPLINE
5
AC
100
AcDbEntity
8
1
62
256
6
ByLayer
370
18
48
1
60
0
100
AcDbSpline
70
4
71
3
72
12
73
8
40
0
40
0
40
0
40
0
40
0.0427474650836124
40
0.216547457456484
40
0.452069079025047
40
0.65878989255773
40
1
40
1
40
1
40
1
41
1
10
59.6737228477452
20
-1.57268431292297
30
0
41
1
10
59.6737749451276
20
-1.57272558646713
30
0
41
1
10
59.6759212219826
20
-1.57376840429717
30
0
41
1
10
59.7011494814356
20
-1.58531147154818
30
0
41
1
10
59.7949862132456
20
-1.63035824432555
30
0
41
1
10
59.832523051034
20
-1.64858636591202
30
0
41
1
10
59.9023026321465
20
-1.68492839855276
30
0
41
1
10
59.9504821624873
20
-1.71060715547424
30
0
0
SPLINE
5
AD
100
AcDbEntity
8
1
62
256
6
ByLayer
370
18
48
1
60
0
100
AcDbSpline
70
4
71
3
72
35
73
31
40
0
40
0
40
0
40
0
40
0.0460314731199162
40
0.0878192173644528
40
0.1223455423047
40
0.150246115157329
40
0.173424321105992
40
0.200833003742456
40
0.233937897548498
40
0.264168972719746
40
0.288195891951113
40
0.316600536670787
40
0.352660713744262
40
0.389168605543404
40
0.420283713705368
40
0.454013031818928
40
0.498588646483449
40
0.5551578447796
40
0.602182884105264
40
0.640773911691055
40
0.683107855822681
40
0.732576097325744
40
0.79411672476083
40
0.830339693489161
40
0.856775024243783
40
0.878825072646468
40
0.903059091650664
40
0.930207586130543
40
0.967659040089735
40
1
40
1
40
1
40
1
41
1
10
40.2452784083417
20
-5.9048728518371
30
0
41
1
10
40.5156160829245
20
-5.90453074334195
30
0
41
1
10
41.0318478167726
20
-5.90433027085493
30
0
41
1
10
41.764187633195
20
-5.90489742306858
30
0
41
1
10
42.370467078184
20
-5.9068231376005
30
0
41
1
10
42.8785455451147
20
-5.90647191679858
30
0
41
1
10
43.3443986613284
20
-5.90681371052659
30
0
41
1
10
43.8412257250441
20
-5.90736325304923
30
0
41
1
10
44.3801497557019
20
-5.90785853674902
30
0
41
1
10
44.8989428128502
20
-5.90802950116301
30
0
41
1
10
45.38984734597
20
-5.90787282074217
30
0
41
1
10
45.9153504763754
20
-5.90843030399083
30
0
41
1
10
46.5149889438656
20
-5.90927989097241
30
0
41
1
10
47.1307086877918
20
-5.90937700647791
30
0
41
1
10
47.7326005835222
20
-5.90887947798566
30
0
41
1
10
48.3823966178737
20
-5.91013409299046
30
0
41
1
10
49.1833523940534
20
-5.91013953037859
30
0
41
1
10
50.0632713501079
20
-5.91019412270108
30
0
41
1
10
50.9076492555004
20
-5.91150120557552
30
0
41
1
10
51.6674924583425
20
-5.9110467620232
30
0
41
1
10
52.4418321630013
20
-5.91183553776276
30
0
41
1
10
53.3525048928169
20
-5.91321816408188
30
0
41
1
10
54.2266999645395
20
-5.91175795895623
30
0
41
1
10
54.9646086201586
20
-5.91339002847872
30
0
41
1
10
55.466734771707
20
-5.91366009953276
30
0
41
1
10
55.8975628576983
20
-5.91314391670855
30
0
41
1
10
56.3343102122848
20
-5.91324046328353
30
0
41
1
10
56.858727347885
20
-5.91408546432231
30
0
41
1
10
57.4348885346018
20
-5.91561719363705
30
0
41
1
10
57.8491642312604
20
-5.91544108613695
30
0
41
1
10
58.0412871124401
20
-5.91521632492876
30
0
0
SPLINE
5
AE
100
AcDbEntity
8
1
62
256
6
ByLayer
370
18
48
1
60
0
100
AcDbSpline
70
4
71
3
72
31
73
27
40
0
40
0
40
0
40
0
40
0.0323289504349584
40
0.0723344393833491
40
0.108254383686371
40
0.140935470966174
40
0.188847488845171
40
0.243831737496686
40
0.294694193427628
40
0.340760735477432
40
0.390039618581721
40
0.440326938330731
40
0.481057916436471
40
0.511083702999248
40
0.543849179971835
40
0.593852955339534
40
0.638905259779297
40
0.674690762197237
40
0.719300218468159
40
0.769648224469169
40
0.813455964092415
40
0.860252297430303
40
0.918673969844735
40
0.971160492905569
40
0.99620996425047
40
1
40
1
40
1
40
1
41
1
10
58.2947374702276
20
5.9133178048329
30
0
41
1
10
58.1322298798129
20
5.91325497786514
30
0
41
1
10
57.7702420312294
20
5.91316818369449
30
0
41
1
10
57.2417899232497
20
5.91542196277223
30
0
41
1
10
56.7023005502575
20
5.91367695012858
30
0
41
1
10
56.1197619727222
20
5.91333201900338
30
0
41
1
10
55.4431304569385
20
5.91399556730687
30
0
41
1
10
54.6751552200238
20
5.91257705390609
30
0
41
1
10
53.9165527870496
20
5.91211959356451
30
0
41
1
10
53.1864087816449
20
5.91304409940389
30
0
41
1
10
52.4591087687459
20
5.91190167934582
30
0
41
1
10
51.758590213794
20
5.91107811907139
30
0
41
1
10
51.1538209525802
20
5.91133912975042
30
0
41
1
10
50.6384986323184
20
5.91097942594993
30
0
41
1
10
50.0748516022556
20
5.90993674662275
30
0
41
1
10
49.437332602275
20
5.90994828847917
30
0
41
1
10
48.7842901953717
20
5.91033785254794
30
0
41
1
10
48.1577527483458
20
5.90961600975942
30
0
41
1
10
47.5048545033872
20
5.90890075434581
30
0
41
1
10
46.8118959353388
20
5.90946655410005
30
0
41
1
10
46.1079940851695
20
5.90882512139817
30
0
41
1
10
45.3637853851919
20
5.90766864274352
30
0
41
1
10
44.5762357875163
20
5.90812000446854
30
0
41
1
10
43.8972944221608
20
5.90741987901546
30
0
41
1
10
43.4911576271227
20
5.90698040786373
30
0
41
1
10
43.3471396102576
20
5.90688435071667
30
0
41
1
10
43.3282131226424
20
5.90687262733147
30
0
0
SPLINE
5
AF
100
AcDbEntity
8
1
62
256
6
ByLayer
370
18
48
1
60
0
100
AcDbSpline
70
4
71
3
72
34
73
30
40
0
40
0
40
0
40
0
40
0.0454547954978326
40
0.0877093436907937
40
0.123895772687433
40
0.153068651462706
40
0.177940147072491
40
0.206440593734787
40
0.241151643654467
40
0.272931779820012
40
0.297962354396751
40
0.328048303291507
40
0.366921829860063
40
0.404019262591729
40
0.43242513200519
40
0.463215353375369
40
0.501554212620759
40
0.556168976374464
40
0.612053633970367
40
0.680213133663131
40
0.748191556407703
40
0.819759478879141
40
0.852980020298547
40
0.887010010516518
40
0.923356422472719
40
0.953276860148006
40
0.972636915487376
40
0.999567889042436
40
1
40
1
40
1
40
1
41
1
10
4.80201094884654
20
-5.88383371257694
30
0
41
1
10
5.06878402292887
20
-5.88318382714087
30
0
41
1
10
5.58438214196053
20
-5.88260138428987
30
0
41
1
10
6.33329318976084
20
-5.88317469368201
30
0
41
1
10
6.95601494013181
20
-5.88579511125943
30
0
41
1
10
7.50531812953673
20
-5.88622466239215
30
0
41
1
10
7.97544214344759
20
-5.88446501631637
30
0
41
1
10
8.50805210778788
20
-5.8841037082164
30
0
41
1
10
9.0685938780419
20
-5.88720581236478
30
0
41
1
10
9.61096909715937
20
-5.88787371802312
30
0
41
1
10
10.1302857218167
20
-5.88817127859437
30
0
41
1
10
10.6915206184017
20
-5.88872149774494
30
0
41
1
10
11.3248597926365
20
-5.88934625552096
30
0
41
1
10
11.9484920817461
20
-5.88897673036675
30
0
41
1
10
12.5228086409709
20
-5.8890424755885
30
0
41
1
10
13.1055222098639
20
-5.88976275920541
30
0
41
1
10
13.8441321092089
20
-5.89039104507293
30
0
41
1
10
14.7329392967113
20
-5.89029345322945
30
0
41
1
10
15.7999911059127
20
-5.89200353484131
30
0
41
1
10
16.9468057767005
20
-5.8915019668751
30
0
41
1
10
18.1873017284317
20
-5.89330838039379
30
0
41
1
10
19.2191312112515
20
-5.89445637665733
30
0
41
1
10
20.0482009871473
20
-5.89518044722826
30
0
41
1
10
20.6669093003231
20
-5.89469835571148
30
0
41
1
10
21.2659605169513
20
-5.8951400449788
30
0
41
1
10
21.7772131960293
20
-5.89673354366229
30
0
41
1
10
22.2327309407263
20
-5.89671166348131
30
0
41
1
10
22.5106261313345
20
-5.89627953628101
30
0
41
1
10
22.6738913894633
20
-5.89621187705288
30
0
41
1
10
22.6764696398252
20
-5.89621081396848
30
0
0
SPLINE
5
B0
100
AcDbEntity
8
1
62
256
6
ByLayer
370
18
48
1
60
0
100
AcDbSpline
70
4
71
2
72
6
73
3
40
0
40
0
40
0
40
1
40
1
40
1
41
1
10
75.6683614271428
20
-5.92638408168671
30
0
41
1
10
76.2544341879789
20
-5.92416776165268
30
0
41
1
10
76.8398840542014
20
-5.92897474210127
30
0
0
SPLINE
5
B1
100
AcDbEntity
8
1
62
256
6
ByLayer
370
18
48
1
60
0
100
AcDbSpline
70
4
71
3
72
11
73
7
40
0
40
0
40
0
40
0
40
0.181142936097238
40
0.329413335773502
40
0.54137688727549
40
1
40
1
40
1
40
1
41
1
10
24.3126141466934
20
-1.58916685490774
30
0
41
1
10
24.3124764188637
20
-1.58920664026925
30
0
41
1
10
24.3168723261132
20
-1.59156463527887
30
0
41
1
10
24.3467486219028
20
-1.60649703047616
30
0
41
1
10
24.4216778556714
20
-1.64446549741231
30
0
41
1
10
24.4924659367067
20
-1.68155139772455
30
0
41
1
10
24.5493220376684
20
-1.7116789527129
30
0
0
SPLINE
5
B2
100
AcDbEntity
8
1
62
256
6
ByLayer
370
18
48
1
60
0
100
AcDbSpline
70
4
71
3
72
48
73
44
40
0
40
0
40
0
40
0
40
0.0482368871554051
40
0.0482368871554051
40
0.0964737743108103
40
0.0964737743108103
40
0.144710661466215
40
0.144710661466215
40
0.192947548621621
40
0.192947548621621
40
0.241184435777026
40
0.241184435777026
40
0.289421322932431
40
0.289421322932431
40
0.337658210087836
40
0.337658210087836
40
0.385895097243241
40
0.385895097243241
40
0.434131984398646
40
0.434131984398646
40
0.482368871554051
40
0.482368871554051
40
0.530605758709457
40
0.530605758709457
40
0.578842645864862
40
0.578842645864862
40
0.627079533020267
40
0.627079533020267
40
0.675316420175672
40
0.675316420175672
40
0.723553307331077
40
0.723553307331077
40
0.771790194486482
40
0.771790194486482
40
0.820027081641887
40
0.820027081641887
40
0.868263968797293
40
0.868263968797293
40
0.916500855952698
40
0.916500855952698
40
0.964737743108103
40
0.964737743108103
40
1
40
1
40
1
40
1
41
1
10
11.4332069524216
20
-3.22111973975325
30
0
41
1
10
11.7412107801512
20
-3.3560347698031
30
0
41
1
10
12.0489636559126
20
-3.48657825571965
30
0
41
1
10
12.6639271742286
20
-3.74016657052596
30
0
41
1
10
12.9710921573363
20
-3.8631954476777
30
0
41
1
10
13.5850751889764
20
-4.10036339031814
30
0
41
1
10
13.8917587952312
20
-4.21458054584636
30
0
41
1
10
14.506042118274
20
-4.43284465105921
30
0
41
1
10
14.8135666678729
20
-4.53714787768854
30
0
41
1
10
15.4292542329488
20
-4.73600629903061
30
0
41
1
10
15.7375650623302
20
-4.83040818807234
30
0
41
1
10
16.3524169124846
20
-5.00775333457102
30
0
41
1
10
16.6593888271196
20
-5.09081715283077
30
0
41
1
10
17.2737075407402
20
-5.24545576941526
30
0
41
1
10
17.5808282513245
20
-5.31715896949569
30
0
41
1
10
18.1950331471605
20
-5.44823609065
30
0
41
1
10
18.502068617832
20
-5.50759935078781
30
0
41
1
10
19.1164867849356
20
-5.61475222240102
30
0
41
1
10
19.4245084537974
20
-5.66266753935756
30
0
41
1
10
20.0404225430143
20
-5.74435617600952
30
0
41
1
10
20.347951473681
20
-5.77833475370002
30
0
41
1
10
20.962264620082
20
-5.83391318674364
30
0
41
1
10
21.2688843762449
20
-5.85572661410393
30
0
41
1
10
21.8826199860217
20
-5.88663226681572
30
0
41
1
10
22.1897173291104
20
-5.89469312398626
30
0
41
1
10
22.8042864358511
20
-5.89753915489862
30
0
41
1
10
23.1117644921637
20
-5.89244121273737
30
0
41
1
10
23.7270807066516
20
-5.87011074424458
30
0
41
1
10
24.0347202676506
20
-5.85293008505474
30
0
41
1
10
24.64944500837
20
-5.80392933896576
30
0
41
1
10
24.9566074030064
20
-5.77261117463004
30
0
41
1
10
25.5705874093295
20
-5.69777645659579
30
0
41
1
10
25.877337573564
20
-5.65450707950882
30
0
41
1
10
26.4907593129971
20
-5.5552200173959
30
0
41
1
10
26.7978873393492
20
-5.49867039967498
30
0
41
1
10
27.4130201722492
20
-5.37360222417726
30
0
41
1
10
27.7212591112229
20
-5.30497152049472
30
0
41
1
10
28.3363750412405
20
-5.15712664927887
30
0
41
1
10
28.6432082560983
20
-5.07739875281447
30
0
41
1
10
29.2570054761555
20
-4.90550504953038
30
0
41
1
10
29.5639985549262
20
-4.81407828100771
30
0
41
1
10
30.0954217773594
20
-4.64737634112259
30
0
41
1
10
30.3198380411961
20
-4.57456942353608
30
0
41
1
10
30.5442733471811
20
-4.49891250121402
30
0
0
SPLINE
5
B3
100
AcDbEntity
8
1
62
256
6
ByLayer
370
18
48
1
60
0
100
AcDbSpline
70
4
71
3
72
32
73
28
40
0
40
0
40
0
40
0
40
0.0121571577521057
40
0.0121571577521057
40
0.0881450686942512
40
0.0881450686942512
40
0.164132979636397
40
0.164132979636397
40
0.240120890578542
40
0.240120890578542
40
0.316108801520688
40
0.316108801520688
40
0.392096712462834
40
0.392096712462834
40
0.46808462340498
40
0.46808462340498
40
0.544072534347125
40
0.544072534347125
40
0.620060445289271
40
0.620060445289271
40
0.696048356231416
40
0.696048356231416
40
0.772036267173563
40
0.772036267173563
40
0.848024178115708
40
0.848024178115708
40
1
40
1
40
1
40
1
41
1
10
58.290710170583
20
5.9134021702194
30
0
41
1
10
58.3397787029535
20
5.91271892545603
30
0
41
1
10
58.3888516723578
20
5.91186555811848
30
0
41
1
10
58.7447032076208
20
5.90446342942016
30
0
41
1
10
59.0519424104897
20
5.89175275926829
30
0
41
1
10
59.6670760108432
20
5.85406046974191
30
0
41
1
10
59.9751854349506
20
5.82830228828607
30
0
41
1
10
60.5897110049046
20
5.76346121380928
30
0
41
1
10
60.8963583248402
20
5.72450442280683
30
0
41
1
10
61.5100906981729
20
5.63595936347406
30
0
41
1
10
61.8169517507493
20
5.58627112992468
30
0
41
1
10
62.4307114755105
20
5.47210579746681
30
0
41
1
10
62.7376218446375
20
5.40809778102207
30
0
41
1
10
63.3516943619618
20
5.26750211397118
30
0
41
1
10
63.6594254622707
20
5.1910711252678
30
0
41
1
10
64.2749251082788
20
5.02763440802087
30
0
41
1
10
64.5823575115397
20
4.94057678998891
30
0
41
1
10
65.196573659757
20
4.75631803799453
30
0
41
1
10
65.5032227931571
20
4.65914743473519
30
0
41
1
10
66.1165468611045
20
4.45461000165699
30
0
41
1
10
66.4235026639697
20
4.34737749101521
30
0
41
1
10
67.0379082087754
20
4.12253621638979
30
0
41
1
10
67.3453719422212
20
4.00510186333136
30
0
41
1
10
67.9608613535285
20
3.76067601815259
30
0
41
1
10
68.2681679570185
20
3.63370988990849
30
0
41
1
10
69.189816440277
20
3.24319759137629
30
0
41
1
10
69.803796617466
20
2.9688741035244
30
0
41
1
10
70.41737898321
20
2.68100519787643
30
0
0
SPLINE
5
B4
100
AcDbEntity
8
1
62
256
6
ByLayer
370
18
48
1
60
0
100
AcDbSpline
70
4
71
3
72
8
73
4
40
0
40
0
40
0
40
0
40
1
40
1
40
1
40
1
41
1
10
76.8306976996276
20
-6.15362152020617
30
0
41
1
10
76.8525745625452
20
-6.0947719108274
30
0
41
1
10
76.8744314873913
20
-6.03588628258328
30
0
41
1
10
76.896268463625
20
-5.97696461643076
30
0
0
SPLINE
5
B5
100
AcDbEntity
8
1
62
256
6
ByLayer
370
18
48
1
60
0
100
AcDbSpline
70
4
71
3
72
18
73
14
40
0
40
0
40
0
40
0
40
0.25
40
0.25
40
0.5
40
0.5
40
0.75
40
0.75
40
0.8125
40
0.8125
40
0.874999999999999
40
0.874999999999999
40
1
40
1
40
1
40
1
41
1
10
11.4331223837927
20
-3.22107834606612
30
0
41
1
10
10.8073024098694
20
-2.94838930086448
30
0
41
1
10
10.1895648057802
20
-2.65352091141057
30
0
41
1
10
8.96484900895646
20
-2.02707310326787
30
0
41
1
10
8.35806681562499
20
-1.69434666025768
30
0
41
1
10
7.15360211236941
20
-0.991945328910901
30
0
41
1
10
6.55578790804472
20
-0.622646668883618
30
0
41
1
10
5.81712532747488
20
-0.127441484399412
30
0
41
1
10
5.66958063442559
20
-0.026474501116212
30
0
41
1
10
5.3772392680479
20
0.178365961914807
30
0
41
1
10
5.23242507683386
20
0.28224002639999
30
0
41
1
10
4.80272416623552
20
0.598998703934541
30
0
41
1
10
4.52242173656424
20
0.816837907392937
30
0
41
1
10
4.25133912385886
20
1.04488535983114
30
0
0
SPLINE
5
B6
100
AcDbEntity
8
1
62
256
6
ByLayer
370
13
48
1
60
0
100
AcDbSpline
70
4
71
3
72
12
73
8
40
0
40
0
40
0
40
0
40
0.5
40
0.5
40
0.75
40
0.75
40
1
40
1
40
1
40
1
41
1
10
3.99999982568727
20
-6.11291561363413
30
0
41
1
10
3.99999982568724
20
-6.08999514660431
30
0
41
1
10
4.01159112951001
20
-6.06629000154754
30
0
41
1
10
4.04493189771432
20
-6.03533517417327
30
0
41
1
10
4.05893151971009
20
-6.02549798239647
30
0
41
1
10
4.09209994785832
20
-6.00796726185004
30
0
41
1
10
4.1109542619763
20
-6.00035902427658
30
0
41
1
10
4.13245919609733
20
-5.99411812145837
30
0
0
SPLINE
5
B7
100
AcDbEntity
8
1
62
256
6
ByLayer
370
18
48
1
60
0
100
AcDbSpline
70
4
71
3
72
20
73
16
40
0
40
0
40
0
40
0
40
0.0041779564209585
40
0.0041779564209585
40
0.468430945800003
40
0.468430945800003
40
0.700557440489523
40
0.700557440489523
40
0.758589064161905
40
0.758589064161905
40
0.816620687834287
40
0.816620687834287
40
0.932683935179051
40
0.932683935179051
40
1
40
1
40
1
40
1
41
1
10
22.3543723153253
20
-0.0010830944970053
30
0
41
1
10
22.3681013828968
20
-0.0083842635856968
30
0
41
1
10
22.3818277164405
20
-0.0156840490318757
30
0
41
1
10
23.9204740249402
20
-0.833953983491966
30
0
41
1
10
25.4237425916447
20
-1.63283878882996
30
0
41
1
10
27.6863594927458
20
-2.73940071895245
30
0
41
1
10
28.4418575471113
20
-3.09293963803302
30
0
41
1
10
29.3919250105101
20
-3.50842388118889
30
0
41
1
10
29.5822300007945
20
-3.59018693949716
30
0
41
1
10
29.9635330922806
20
-3.75084857214768
30
0
41
1
10
30.15476943825
20
-3.82984085721034
30
0
41
1
10
30.7271080729596
20
-4.06117930658547
30
0
41
1
10
31.1072271171393
20
-4.20815244624615
30
0
41
1
10
31.7062087993713
20
-4.42819851232665
30
0
41
1
10
31.9257607601149
20
-4.50636301285704
30
0
41
1
10
32.1450661688927
20
-4.5818383892906
30
0
0
SPLINE
5
B8
100
AcDbEntity
8
1
62
256
6
ByLayer
370
13
48
1
60
0
100
AcDbSpline
70
4
71
3
72
14
73
10
40
0
40
0
40
0
40
0
40
0.391304726665852
40
0.391304726665852
40
0.620137599273847
40
0.620137599273847
40
0.848970471881841
40
0.848970471881841
40
1
40
1
40
1
40
1
41
1
10
32.1450671142625
20
-4.58183871464573
30
0
41
1
10
33.4382263807269
20
-5.02688780527495
30
0
41
1
10
34.7228130263148
20
-5.37843590535789
30
0
41
1
10
36.7708840325413
20
-5.76214411151813
30
0
41
1
10
37.5298402631065
20
-5.86642333955072
30
0
41
1
10
39.0578717267034
20
-5.99385381870465
30
0
41
1
10
39.8206201419975
20
-6.01659274405625
30
0
41
1
10
41.0887599665842
20
-5.98548035722442
30
0
41
1
10
41.5920689941808
20
-5.95511918386998
30
0
41
1
10
42.0954837903751
20
-5.90705473755858
30
0
0
SPLINE
5
B9
100
AcDbEntity
8
1
62
256
6
ByLayer
370
18
48
1
60
0
100
AcDbSpline
70
4
71
3
72
46
73
42
40
0
40
0
40
0
40
0
40
0.0898997273395075
40
0.0898997273395075
40
0.134849591009261
40
0.134849591009261
40
0.179799454679015
40
0.179799454679015
40
0.224749318348769
40
0.224749318348769
40
0.269699182018523
40
0.269699182018523
40
0.359598909358028
40
0.359598909358028
40
0.404548773027781
40
0.404548773027781
40
0.449498636697534
40
0.449498636697534
40
0.494448500367287
40
0.494448500367287
40
0.53939836403704
40
0.53939836403704
40
0.584348227706793
40
0.584348227706793
40
0.629298091376546
40
0.629298091376546
40
0.719197818716054
40
0.719197818716054
40
0.764147682385808
40
0.764147682385808
40
0.809097546055563
40
0.809097546055563
40
0.854047409725317
40
0.854047409725317
40
0.898997273395072
40
0.898997273395072
40
0.943947137064826
40
0.943947137064826
40
0.988897000734581
40
0.988897000734581
40
1
40
1
40
1
40
1
41
1
10
18.9191919538228
20
1.33661986878758
30
0
41
1
10
19.5240985383157
20
1.01109962781533
30
0
41
1
10
20.1295079359387
20
0.685241754720579
30
0
41
1
10
21.0355929528754
20
0.190918572986362
30
0
41
1
10
21.3369493203469
20
0.0246027352901308
30
0
41
1
10
21.9406800497899
20
-0.306777995693409
30
0
41
1
10
22.2432551583434
20
-0.471469812207772
30
0
41
1
10
22.8491975515007
20
-0.800006950707314
30
0
41
1
10
23.1525490976249
20
-0.963776432097205
30
0
41
1
10
23.7571454944143
20
-1.28965998546863
30
0
41
1
10
24.0585071322947
20
-1.4522928693672
30
0
41
1
10
24.9644435574751
20
-1.93094944631937
30
0
41
1
10
25.5693093526099
20
-2.24067285567895
30
0
41
1
10
26.4755496800059
20
-2.69516560085202
30
0
41
1
10
26.7782991124865
20
-2.84420535170534
30
0
41
1
10
27.3838537968389
20
-3.13369263636636
30
0
41
1
10
27.6864413853916
20
-3.27470796945533
30
0
41
1
10
28.2908448615308
20
-3.54994490657205
30
0
41
1
10
28.5924859263431
20
-3.68441679972196
30
0
41
1
10
29.1954478624091
20
-3.9457247523157
30
0
41
1
10
29.4975401477097
20
-4.07146552660041
30
0
41
1
10
30.1024841498227
20
-4.31392169124533
30
0
41
1
10
30.4054422887568
20
-4.43069998335574
30
0
41
1
10
31.0112089565258
20
-4.65543959837066
30
0
41
1
10
31.3129279752207
20
-4.76354457425663
30
0
41
1
10
32.218877015506
20
-5.06996146370597
30
0
41
1
10
32.823602038921
20
-5.25120268059518
30
0
41
1
10
33.7291980182809
20
-5.49114152569337
30
0
41
1
10
34.0307909032069
20
-5.56569936673134
30
0
41
1
10
34.6362755081624
20
-5.70165216180487
30
0
41
1
10
34.9395388158798
20
-5.76337852022021
30
0
41
1
10
35.5445753596449
20
-5.8742979492086
30
0
41
1
10
35.8466262199318
20
-5.92356878978165
30
0
41
1
10
36.4495525857529
20
-6.00963293554668
30
0
41
1
10
36.7511551081898
20
-6.04605871811037
30
0
41
1
10
37.3553891023274
20
-6.10565273798068
30
0
41
1
10
37.6578133295357
20
-6.12891645456318
30
0
41
1
10
38.2628897744986
20
-6.16238194190166
30
0
41
1
10
38.5655704482739
20
-6.17258104833985
30
0
41
1
10
38.9423056369433
20
-6.1768452327681
30
0
41
1
10
39.0169396040108
20
-6.17728360202523
30
0
41
1
10
39.0915798941988
20
-6.17731613915547
30
0
0
SPLINE
5
BA
100
AcDbEntity
8
1
62
256
6
ByLayer
370
18
48
1
60
0
100
AcDbSpline
70
4
71
3
72
28
73
24
40
0
40
0
40
0
40
0
40
0.0074440439769811
40
0.0074440439769811
40
0.172870036647486
40
0.172870036647486
40
0.255583032982738
40
0.255583032982738
40
0.338296029317989
40
0.338296029317989
40
0.42100902565324
40
0.42100902565324
40
0.503722021988492
40
0.503722021988492
40
0.669148014658994
40
0.669148014658994
40
0.751861010994246
40
0.751861010994246
40
0.834574007329497
40
0.834574007329497
40
0.917287003664748
40
0.917287003664748
40
1
40
1
40
1
40
1
41
1
10
65.9735411567911
20
4.50477901181489
30
0
41
1
10
66.0007293747173
20
4.51509920609092
30
0
41
1
10
66.0279143850019
20
4.52538026764768
30
0
41
1
10
66.6591352532133
20
4.76320236422359
30
0
41
1
10
67.2637159844196
20
4.96789906529705
30
0
41
1
10
68.1686157045789
20
5.24445314034412
30
0
41
1
10
68.4695782504676
20
5.33177798885819
30
0
41
1
10
69.0731734794679
20
5.49375704172908
30
0
41
1
10
69.3756658694962
20
5.56860847134266
30
0
41
1
10
69.9815077119853
20
5.70653787158921
30
0
41
1
10
70.283937131831
20
5.76938306060779
30
0
41
1
10
70.8873401025759
20
5.88297970978118
30
0
41
1
10
71.1883736888722
20
5.933631726849
30
0
41
1
10
72.0934679506293
20
6.06518651748672
30
0
41
1
10
72.6977205462853
20
6.12705317283968
30
0
41
1
10
73.6034888857982
20
6.18076019701638
30
0
41
1
10
73.9060753300921
20
6.191885694934
30
0
41
1
10
74.5101955919121
20
6.20076436106424
30
0
41
1
10
74.8119379992831
20
6.19857369374392
30
0
41
1
10
75.4144081983652
20
6.18097603409808
30
0
41
1
10
75.7148498359928
20
6.16548983788559
30
0
41
1
10
76.3158297434931
20
6.12127168701804
30
0
41
1
10
76.6168670847283
20
6.0927203034172
30
0
41
1
10
76.9181109842749
20
6.05773677673611
30
0
0
SPLINE
5
BB
100
AcDbEntity
8
1
62
256
6
ByLayer
370
18
48
1
60
0
100
AcDbSpline
70
4
71
3
72
14
73
10
40
0
40
0
40
0
40
0
40
0.25
40
0.25
40
0.5
40
0.5
40
0.75
40
0.75
40
1
40
1
40
1
40
1
41
1
10
75.8992191426165
20
1.49674842635596
30
0
41
1
10
75.8888035370512
20
1.52549450590334
30
0
41
1
10
75.8818088642824
20
1.55517265852387
30
0
41
1
10
75.8783513149804
20
1.61738051698293
30
0
41
1
10
75.8821290623516
20
1.64981146765342
30
0
41
1
10
75.9085995808219
20
1.7067942660359
30
0
41
1
10
75.9317330739316
20
1.73113113650044
30
0
41
1
10
75.986156067423
20
1.76445274674921
30
0
41
1
10
76.0170696282174
20
1.77445011321657
30
0
41
1
10
76.0485760155026
20
1.78017627717244
30
0
0
SPLINE
5
BC
100
AcDbEntity
8
1
62
256
6
ByLayer
370
18
48
1
60
0
100
AcDbSpline
70
4
71
3
72
14
73
10
40
0
40
0
40
0
40
0
40
0.469013091171255
40
0.469013091171255
40
0.792584528160677
40
0.792584528160677
40
0.954370246655391
40
0.954370246655391
40
1
40
1
40
1
40
1
41
1
10
75.6637619724371
20
-5.92637367209139
30
0
41
1
10
74.5669096932465
20
-5.92566008175666
30
0
41
1
10
73.4776407877314
20
-5.84049899523731
30
0
41
1
10
71.6337781384096
20
-5.56147161249217
30
0
41
1
10
70.8800628882405
20
-5.40934557588716
30
0
41
1
10
69.7430403079183
20
-5.1264893315745
30
0
41
1
10
69.362982891616
20
-5.02306989642784
30
0
41
1
10
68.8738275519885
20
-4.87912272012991
30
0
41
1
10
68.7663316448492
20
-4.84682002240476
30
0
41
1
10
68.6589478080353
20
-4.81389861844951
30
0
0
SPLINE
5
BD
100
AcDbEntity
8
1
62
256
6
ByLayer
370
13
48
1
60
0
100
AcDbSpline
70
4
71
3
72
24
73
20
40
0
40
0
40
0
40
0
40
0.0536355009209298
40
0.0536355009209298
40
0.352456071202456
40
0.352456071202456
40
0.501866356343219
40
0.501866356343219
40
0.5765714989136
40
0.5765714989136
40
0.613924070198792
40
0.613924070198792
40
0.651276641483984
40
0.651276641483984
40
0.800686926624751
40
0.800686926624751
40
0.950097211765518
40
0.950097211765518
40
1
40
1
40
1
40
1
41
1
10
68.6589487640985
20
-4.81389891155638
30
0
41
1
10
68.3855901129713
20
-4.73009347317921
30
0
41
1
10
68.1129576990013
20
-4.64227869994377
30
0
41
1
10
66.3259251869356
20
-4.04068965151694
30
0
41
1
10
64.8307823609676
20
-3.41366585290112
30
0
41
1
10
62.5786007951331
20
-2.36194657926305
30
0
41
1
10
61.8263929743375
20
-1.99272954367302
30
0
41
1
10
60.6912110316523
20
-1.41870025519879
30
0
41
1
10
60.311636556048
20
-1.22406957076098
30
0
41
1
10
59.7398531449841
20
-0.92832250867545
30
0
41
1
10
59.5489152145282
20
-0.82913828294889
30
0
41
1
10
59.1682235325267
20
-0.630765959266597
30
0
41
1
10
58.9782149744668
20
-0.531434907467229
30
0
41
1
10
58.029587939059
20
-0.0345715466662853
30
0
41
1
10
57.2749966769658
20
0.363107150483046
30
0
41
1
10
55.7685749584982
20
1.147633416459
30
0
41
1
10
55.0163301088457
20
1.53365706397949
30
0
41
1
10
54.0104750711424
20
2.03337387036621
30
0
41
1
10
53.7583904507961
20
2.1571238431805
30
0
41
1
10
53.5059502575352
20
2.27929951362083
30
0
0
SPLINE
5
BE
100
AcDbEntity
8
1
62
256
6
ByLayer
370
18
48
1
60
0
100
AcDbSpline
70
4
71
3
72
8
73
4
40
0
40
0
40
0
40
0
40
1
40
1
40
1
40
1
41
1
10
4.80715792116112
20
-5.88397220455818
30
0
41
1
10
4.62155010392459
20
-5.88332882369693
30
0
41
1
10
4.43594368699519
20
-5.8802667013247
30
0
41
1
10
4.2502976816009
20
-5.87477526047562
30
0
0
SPLINE
5
BF
100
AcDbEntity
8
1
62
256
6
ByLayer
370
13
48
1
60
0
100
AcDbSpline
70
4
71
3
72
8
73
4
40
0
40
0
40
0
40
0
40
1
40
1
40
1
40
1
41
1
10
4.13245919609733
20
-5.99411812145837
30
0
41
1
10
4.15467605754247
20
-5.98287394666173
30
0
41
1
10
4.17873120582345
20
-5.97757865632437
30
0
41
1
10
4.2032753867482
20
-5.97812175859838
30
0
0
SPLINE
5
C0
100
AcDbEntity
8
1
62
256
6
ByLayer
370
18
48
1
60
0
100
AcDbSpline
70
4
71
3
72
50
73
46
40
0
40
0
40
0
40
0
40
0.0308738159611521
40
0.0308738159611521
40
0.0617476319223041
40
0.0617476319223041
40
0.123495263844608
40
0.123495263844608
40
0.246990527689217
40
0.246990527689217
40
0.27786434365037
40
0.27786434365037
40
0.308738159611522
40
0.308738159611522
40
0.339611975572674
40
0.339611975572674
40
0.370485791533826
40
0.370485791533826
40
0.432233423456132
40
0.432233423456132
40
0.463107239417284
40
0.463107239417284
40
0.493981055378437
40
0.493981055378437
40
0.555728687300741
40
0.555728687300741
40
0.586602503261894
40
0.586602503261894
40
0.617476319223046
40
0.617476319223046
40
0.679223951145352
40
0.679223951145352
40
0.710097767106504
40
0.710097767106504
40
0.740971583067657
40
0.740971583067657
40
0.864466846912267
40
0.864466846912267
40
0.89534066287342
40
0.89534066287342
40
0.926214478834573
40
0.926214478834573
40
0.987962110756878
40
0.987962110756878
40
1
40
1
40
1
40
1
41
1
10
76.8306976996275
20
-6.15362152020617
30
0
41
1
10
76.4504734281354
20
-6.17896123023624
30
0
41
1
10
76.0703772178597
20
-6.19372212913942
30
0
41
1
10
75.309653437215
20
-6.20206415686894
30
0
41
1
10
74.9285535696578
20
-6.19559493883719
30
0
41
1
10
73.7907401230102
20
-6.14478968531432
30
0
41
1
10
73.0373495196667
20
-6.06919913168866
30
0
41
1
10
70.7825100228253
20
-5.7238626824915
30
0
41
1
10
69.2859644237303
20
-5.33555554517912
30
0
41
1
10
67.3889783191032
20
-4.67752585241476
30
0
41
1
10
67.0077246947815
20
-4.5370637694993
30
0
41
1
10
66.2475491925063
20
-4.24192587103587
30
0
41
1
10
65.8680117295235
20
-4.08706397020757
30
0
41
1
10
65.1091644154137
20
-3.76398933722032
30
0
41
1
10
64.729794587911
20
-3.59586092551541
30
0
41
1
10
63.9702654161994
20
-3.24773703666057
30
0
41
1
10
63.5898656446358
20
-3.06761382818158
30
0
41
1
10
62.4477603421743
20
-2.51215270453653
30
0
41
1
10
61.6893077251037
20
-2.12351488410428
30
0
41
1
10
60.5506980501939
20
-1.52231584867738
30
0
41
1
10
60.170953953986
20
-1.3189689156539
30
0
41
1
10
59.4102015983908
20
-0.907865395546992
30
0
41
1
10
59.0292140314791
20
-0.700085105261451
30
0
41
1
10
57.8892211124698
20
-0.0758073570606825
30
0
41
1
10
57.1309412241142
20
0.342384707872071
30
0
41
1
10
55.9912028819949
20
0.963734011764814
30
0
41
1
10
55.6103375150384
20
1.16995496753995
30
0
41
1
10
54.849250502027
20
1.57716733735268
30
0
41
1
10
54.4693656862497
20
1.77806444845956
30
0
41
1
10
53.3305335689408
20
2.37064384046531
30
0
41
1
10
52.5719210841447
20
2.75137460033596
30
0
41
1
10
51.4300749319416
20
3.29275890013693
30
0
41
1
10
51.0496567347418
20
3.46775890610547
30
0
41
1
10
50.2922433980307
20
3.80366555625028
30
0
41
1
10
49.9146855405161
20
3.96492231792271
30
0
41
1
10
48.030732909544
20
4.73547199549947
30
0
41
1
10
46.5347786925618
20
5.23593384472309
30
0
41
1
10
44.6448892208554
20
5.67751577030444
30
0
41
1
10
44.2659097820758
20
5.75663124365062
30
0
41
1
10
43.5050007300069
20
5.89543606055673
30
0
41
1
10
43.1240197468336
20
5.95492792242644
30
0
41
1
10
41.9840370799943
20
6.10218579902789
30
0
41
1
10
41.2256283963567
20
6.15915559693187
30
0
41
1
10
40.3170065817645
20
6.17686822588516
30
0
41
1
10
40.1686127076093
20
6.17815157923019
30
0
41
1
10
40.0201667166186
20
6.17782937720307
30
0
0
SPLINE
5
C1
100
AcDbEntity
8
1
62
256
6
ByLayer
370
18
48
1
60
0
100
AcDbSpline
70
4
71
3
72
12
73
8
40
0
40
0
40
0
40
0
40
0.124101080113675
40
0.124101080113675
40
0.416067386742452
40
0.416067386742452
40
1
40
1
40
1
40
1
41
1
10
8.03777075701305
20
-5.8827100469276
30
0
41
1
10
7.87584279122981
20
-5.90881083533444
30
0
41
1
10
7.71386568432925
20
-5.9331063547142
30
0
41
1
10
7.17141954420828
20
-6.00827858456017
30
0
41
1
10
6.79137727415159
20
-6.05074139030285
30
0
41
1
10
5.65160404020671
20
-6.14692148395915
30
0
41
1
10
4.89217780374577
20
-6.16947546635851
30
0
41
1
10
4.13006897597677
20
-6.14972175980498
30
0
0
SPLINE
5
C2
100
AcDbEntity
8
1
62
256
6
ByLayer
370
18
48
1
60
0
100
AcDbSpline
70
2053
71
3
72
62
73
58
40
0
40
0
40
0
40
0
40
0.0312499999999982
40
0.0312499999999982
40
0.0624999999999963
40
0.0624999999999963
40
0.0937499999999945
40
0.0937499999999945
40
0.124999999999993
40
0.124999999999993
40
0.156249999999991
40
0.156249999999991
40
0.187499999999989
40
0.187499999999989
40
0.218749999999987
40
0.218749999999987
40
0.249999999999985
40
0.249999999999985
40
0.281249999999984
40
0.281249999999984
40
0.312499999999982
40
0.312499999999982
40
0.37499999999998
40
0.37499999999998
40
0.437499999999979
40
0.437499999999979
40
0.46874999999998
40
0.46874999999998
40
0.499999999999981
40
0.499999999999981
40
0.531249999999982
40
0.531249999999982
40
0.562499999999983
40
0.562499999999983
40
0.593749999999984
40
0.593749999999984
40
0.624999999999985
40
0.624999999999985
40
0.656249999999985
40
0.656249999999985
40
0.687499999999986
40
0.687499999999986
40
0.749999999999988
40
0.749999999999988
40
0.78124999999999
40
0.78124999999999
40
0.812499999999991
40
0.812499999999991
40
0.843749999999993
40
0.843749999999993
40
0.874999999999994
40
0.874999999999994
40
0.906249999999996
40
0.906249999999996
40
0.937499999999997
40
0.937499999999997
40
1
40
1
40
1
40
1
41
1
10
77.0515535220644
20
-2.54315007649277
30
0
41
1
10
77.022612819113
20
-2.58358779500404
30
0
41
1
10
76.9942195316273
20
-2.62704544316659
30
0
41
1
10
76.9386288942242
20
-2.72055834058275
30
0
41
1
10
76.9111266835818
20
-2.77123843016767
30
0
41
1
10
76.8592665313031
20
-2.8772190706147
30
0
41
1
10
76.8349731211827
20
-2.93223765367773
30
0
41
1
10
76.7901704648243
20
-3.04696440148552
30
0
41
1
10
76.7702268415616
20
-3.10539840353636
30
0
41
1
10
76.7368731342296
20
-3.22057097673084
30
0
41
1
10
76.723119983073
20
-3.27879045726124
30
0
41
1
10
76.7036910502329
20
-3.38788526655927
30
0
41
1
10
76.6977415827372
20
-3.43982273228485
30
0
41
1
10
76.6934903903793
20
-3.53500858661633
30
0
41
1
10
76.695130739055
20
-3.57752808115086
30
0
41
1
10
76.7051708075744
20
-3.65346093203328
30
0
41
1
10
76.7134542143468
20
-3.68581335821614
30
0
41
1
10
76.7354386515038
20
-3.74030187915525
30
0
41
1
10
76.7492635452729
20
-3.76250602822097
30
0
41
1
10
76.7808828021107
20
-3.7964772798
30
0
41
1
10
76.7987723758217
20
-3.80851936304936
30
0
41
1
10
76.8581698247691
20
-3.83090691835565
30
0
41
1
10
76.9036774678842
20
-3.82724468133028
30
0
41
1
10
77.0041807673447
20
-3.78716584496362
30
0
41
1
10
77.0574077418136
20
-3.7515139490524
30
0
41
1
10
77.1417530423321
20
-3.67439777933984
30
0
41
1
10
77.170326879507
20
-3.64489926314951
30
0
41
1
10
77.2272712074982
20
-3.57933469718375
30
0
41
1
10
77.2558111097625
20
-3.54312349413468
30
0
41
1
10
77.3130403169725
20
-3.46313830463194
30
0
41
1
10
77.3419973096828
20
-3.41887785717677
30
0
41
1
10
77.3978537104169
20
-3.32499676294449
30
0
41
1
10
77.4249406302256
20
-3.27519950152393
30
0
41
1
10
77.4771555321671
20
-3.16895306544734
30
0
41
1
10
77.5019240732781
20
-3.1131103218797
30
0
41
1
10
77.5467121183343
20
-2.99927179367435
30
0
41
1
10
77.5672087182531
20
-2.93988477199841
30
0
41
1
10
77.601125903951
20
-2.82410187703999
30
0
41
1
10
77.6148881013278
20
-2.76687214932051
30
0
41
1
10
77.6350373178826
20
-2.65604469387935
30
0
41
1
10
77.6410842613987
20
-2.60454061372028
30
0
41
1
10
77.6479213225429
20
-2.46100092361746
30
0
41
1
10
77.6367042070893
20
-2.38438446910672
30
0
41
1
10
77.6034712347848
20
-2.30307343265605
30
0
41
1
10
77.5895829795994
20
-2.28109891658716
30
0
41
1
10
77.557562512436
20
-2.24736930222821
30
0
41
1
10
77.539554924629
20
-2.23561306507929
30
0
41
1
10
77.4999949755788
20
-2.22116694621769
30
0
41
1
10
77.4783468404644
20
-2.21855799898665
30
0
41
1
10
77.4329248903683
20
-2.22196173067448
30
0
41
1
10
77.4090176319104
20
-2.22789937246012
30
0
41
1
10
77.3589024407072
20
-2.24792083670678
30
0
41
1
10
77.3325896814588
20
-2.26212382197042
30
0
41
1
10
77.2791282870475
20
-2.29788524372404
30
0
41
1
10
77.2518138066896
20
-2.31948383498965
30
0
41
1
10
77.1680800984211
20
-2.3956811013895
30
0
41
1
10
77.1094349279672
20
-2.46227463947022
30
0
41
1
10
77.0515535220644
20
-2.54315007649277
30
0
0
SPLINE
5
C3
100
AcDbEntity
8
1
62
256
6
ByLayer
370
18
48
1
60
0
100
AcDbSpline
70
4
71
3
72
18
73
14
40
0
40
0
40
0
40
0
40
0.125
40
0.125
40
0.25
40
0.25
40
0.375
40
0.375
40
0.5
40
0.5
40
0.75
40
0.75
40
1
40
1
40
1
40
1
41
1
10
4.25133912285079
20
1.04488536067913
30
0
41
1
10
4.23700813389883
20
1.05694126308268
30
0
41
1
10
4.22222873953729
20
1.06839293082413
30
0
41
1
10
4.19146511684275
20
1.08967237389823
30
0
41
1
10
4.17532393607436
20
1.09956404412375
30
0
41
1
10
4.14310955129329
20
1.11596107472917
30
0
41
1
10
4.12661158444945
20
1.12263281650451
30
0
41
1
10
4.09570786134648
20
1.13099008767892
30
0
41
1
10
4.08100196675412
20
1.13273093321686
30
0
41
1
10
4.04299536428459
20
1.13051735753291
30
0
41
1
10
4.02544537397631
20
1.11940573937119
30
0
41
1
10
4.00433424077394
20
1.08929319785221
30
0
41
1
10
3.99999982568653
20
1.07012523393505
30
0
41
1
10
3.99999982568724
20
1.0490943545679
30
0
0
SPLINE
5
C4
100
AcDbEntity
8
1
62
256
6
ByLayer
370
13
48
1
60
0
100
AcDbSpline
70
4
71
3
72
10
73
6
40
0
40
0
40
0
40
0
40
0.502260223133055
40
0.502260223133055
40
1
40
1
40
1
40
1
41
1
10
4.2032753867482
20
-5.97812175859838
30
0
41
1
10
4.58550825063475
20
-5.98657963047506
30
0
41
1
10
4.96756494993807
20
-5.98457632668786
30
0
41
1
10
5.72861761636003
20
-5.95996899223746
30
0
41
1
10
6.10720436171232
20
-5.93752988997676
30
0
41
1
10
6.48406115273198
20
-5.90529675495426
30
0
0
SPLINE
5
C5
100
AcDbEntity
8
1
62
256
6
ByLayer
370
18
48
1
60
0
100
AcDbSpline
70
4
71
3
72
18
73
14
40
0
40
0
40
0
40
0
40
0.110305644771283
40
0.110305644771283
40
0.173918815037898
40
0.173918815037898
40
0.237531985304514
40
0.237531985304514
40
0.364758325837745
40
0.364758325837745
40
0.619211006904211
40
0.619211006904211
40
1
40
1
40
1
40
1
41
1
10
57.777563362868
20
-0.0134463314297193
30
0
41
1
10
58.1053017070677
20
-0.188348935992508
30
0
41
1
10
58.4336334707001
20
-0.363563708903712
30
0
41
1
10
58.9526355893948
20
-0.639588047423103
30
0
41
1
10
59.1427596330175
20
-0.740470507527675
30
0
41
1
10
59.523704639786
20
-0.941868160075018
30
0
41
1
10
59.7147918530129
20
-1.04253073000811
30
0
41
1
10
60.2868069440425
20
-1.34243677882051
30
0
41
1
10
60.6665016311853
20
-1.53960902192017
30
0
41
1
10
61.8019422510032
20
-2.12060745331428
30
0
41
1
10
62.5542358972676
20
-2.49352677849913
30
0
41
1
10
64.428680126603
20
-3.37568794112255
30
0
41
1
10
65.5486972892227
20
-3.86104458463902
30
0
41
1
10
66.6764754798587
20
-4.28486565370298
30
0
0
SPLINE
5
C6
100
AcDbEntity
8
1
62
256
6
ByLayer
370
13
48
1
60
0
100
AcDbSpline
70
4
71
3
72
20
73
16
40
0
40
0
40
0
40
0
40
0.111801500923397
40
0.111801500923397
40
0.222826313307972
40
0.222826313307972
40
0.333851125692545
40
0.333851125692545
40
0.555900750461698
40
0.555900750461698
40
0.777950375230849
40
0.777950375230849
40
0.888975187615425
40
0.888975187615425
40
1
40
1
40
1
40
1
41
1
10
66.6764754804296
20
-4.28486565391759
30
0
41
1
10
67.0559161927694
20
-4.42746015492608
30
0
41
1
10
67.4362354414312
20
-4.56308892444463
30
0
41
1
10
68.1968451097848
20
-4.81814803044429
30
0
41
1
10
68.5773337069629
20
-4.9377974558181
30
0
41
1
10
69.3407470660175
20
-5.16048723937007
30
0
41
1
10
69.7209255945742
20
-5.26271975925971
30
0
41
1
10
70.8582158048183
20
-5.54130205060815
30
0
41
1
10
71.6119988203436
20
-5.68964265530249
30
0
41
1
10
73.1175885917366
20
-5.90825759090012
30
0
41
1
10
73.8695051567179
20
-5.97863168792685
30
0
41
1
10
75.0007675289318
20
-6.02386079340155
30
0
41
1
10
75.3784415844456
20
-6.02887286684535
30
0
41
1
10
76.1357161311439
20
-6.01838132850639
30
0
41
1
10
76.5153791096046
20
-6.00243890136747
30
0
41
1
10
76.896268463625
20
-5.97696461643076
30
0
0
SPLINE
5
C7
100
AcDbEntity
8
1
62
256
6
ByLayer
370
18
48
1
60
0
100
AcDbSpline
70
4
71
3
72
66
73
62
40
0
40
0
40
0
40
0
40
0.125
40
0.125
40
0.249999999999999
40
0.249999999999999
40
0.374999999999999
40
0.374999999999999
40
0.499999999999999
40
0.499999999999999
40
0.562499999999999
40
0.562499999999999
40
0.593749999999999
40
0.593749999999999
40
0.624999999999999
40
0.624999999999999
40
0.687499999999998
40
0.687499999999998
40
0.718749999999997
40
0.718749999999997
40
0.720703124999997
40
0.720703124999997
40
0.722656249999997
40
0.722656249999997
40
0.726562499999997
40
0.726562499999997
40
0.728515624999997
40
0.728515624999997
40
0.730468749999996
40
0.730468749999996
40
0.734374999999996
40
0.734374999999996
40
0.749999999999997
40
0.749999999999997
40
0.781249999999997
40
0.781249999999997
40
0.796874999999997
40
0.796874999999997
40
0.812499999999997
40
0.812499999999997
40
0.820312499999997
40
0.820312499999997
40
0.828124999999997
40
0.828124999999997
40
0.843749999999997
40
0.843749999999997
40
0.851562499999997
40
0.851562499999997
40
0.859374999999997
40
0.859374999999997
40
0.874999999999997
40
0.874999999999997
40
0.906249999999997
40
0.906249999999997
40
0.921874999999998
40
0.921874999999998
40
0.937499999999998
40
0.937499999999998
40
0.968749999999999
40
0.968749999999999
40
1
40
1
40
1
40
1
41
1
10
18.9191762465748
20
1.33659232536488
30
0
41
1
10
18.093510528058
20
1.77948278914269
30
0
41
1
10
17.2587675088709
20
2.18996749660204
30
0
41
1
10
15.5627367102375
20
2.93886355907634
30
0
41
1
10
14.7091447560014
20
3.27320390707462
30
0
41
1
10
12.9843163643576
20
3.85495513750391
30
0
41
1
10
12.112504297726
20
4.1024326823576
30
0
41
1
10
10.3420873495445
20
4.51276053711803
30
0
41
1
10
9.44348374330642
20
4.67578790530371
30
0
41
1
10
8.07156825687775
20
4.86399762049609
30
0
41
1
10
7.61028393175582
20
4.91738461407687
30
0
41
1
10
6.91202288498621
20
4.9843112322234
30
0
41
1
10
6.67814390989852
20
5.00442605517947
30
0
41
1
10
6.21017577141453
20
5.04024437696023
30
0
41
1
10
5.97585036565036
20
5.05597303400427
30
0
41
1
10
5.27182601490873
20
5.09682636916315
30
0
41
1
10
4.80094048166842
20
5.11565930540758
30
0
41
1
10
4.09285558477563
20
5.13155182633091
30
0
41
1
10
3.85661921973841
20
5.13477855104839
30
0
41
1
10
3.60573296889461
20
5.13597587965361
30
0
41
1
10
3.59097562008952
20
5.13603809855945
30
0
41
1
10
3.56146225631471
20
5.13614609269075
30
0
41
1
10
3.54670019817962
20
5.13626638304029
30
0
41
1
10
3.50255116411694
20
5.13493683141019
30
0
41
1
10
3.47324717301302
20
5.1324685075534
30
0
41
1
10
3.42966745874583
20
5.12408901356696
30
0
41
1
10
3.41562950945971
20
5.12053455568901
30
0
41
1
10
3.39039868162661
20
5.11137935184871
30
0
41
1
10
3.37786999283037
20
5.10671662690606
30
0
41
1
10
3.34030665470556
20
5.0926671934605
30
0
41
1
10
3.31540063636052
20
5.083132007492
30
0
41
1
10
3.19158277316768
20
5.03456460198811
30
0
41
1
10
3.09457453656148
20
4.99275518537488
30
0
41
1
10
2.81491408672994
20
4.85813607973588
30
0
41
1
10
2.64249035832276
20
4.75628318899498
30
0
41
1
10
2.41557602287679
20
4.57415736153229
30
0
41
1
10
2.34501853309223
20
4.50817760246852
30
0
41
1
10
2.21922947649401
20
4.36403842089115
30
0
41
1
10
2.16534384711423
20
4.28744670948552
30
0
41
1
10
2.1001142726517
20
4.16444786604558
30
0
41
1
10
2.08097786282883
20
4.12209221668377
30
0
41
1
10
2.04837166177495
20
4.03438398203579
30
0
41
1
10
2.03502291212274
20
3.98923181810363
30
0
41
1
10
2.00462594078468
20
3.85235527210861
30
0
41
1
10
1.99683703807057
20
3.75826035262676
30
0
41
1
10
2.00330758121859
20
3.61273403901455
30
0
41
1
10
2.00855067393061
20
3.56322416699191
30
0
41
1
10
2.02468833307978
20
3.46450183227841
30
0
41
1
10
2.03554689716953
20
3.41521908004771
30
0
41
1
10
2.07568577536497
20
3.26753730051831
30
0
41
1
10
2.112688439527
20
3.16889465891634
30
0
41
1
10
2.24768516442637
20
2.87588597187235
30
0
41
1
10
2.36617154438611
20
2.68944698219528
30
0
41
1
10
2.56976950478628
20
2.41720357448429
30
0
41
1
10
2.6424112079074
20
2.32740944193253
30
0
41
1
10
2.79310579713493
20
2.15209762198248
30
0
41
1
10
2.87121861626861
20
2.0664474920161
30
0
41
1
10
3.11216750356158
20
1.8142118714857
30
0
41
1
10
3.28152714264809
20
1.65227431968756
30
0
41
1
10
3.63234701268738
20
1.33670004935323
30
0
41
1
10
3.81386816930592
20
1.18311038235578
30
0
41
1
10
3.99999982568639
20
1.03255412168608
30
0
0
SPLINE
5
C8
100
AcDbEntity
8
1
62
256
6
ByLayer
370
18
48
1
60
0
100
AcDbSpline
70
4
71
3
72
8
73
4
40
0
40
0
40
0
40
0
40
1
40
1
40
1
40
1
41
1
10
76.9173035512958
20
-5.89039695931947
30
0
41
1
10
76.8881545654267
20
-5.91472336895441
30
0
41
1
10
76.8632881287411
20
-5.92696647875209
30
0
41
1
10
76.84277047878
20
-5.9269393981333
30
0
0
SPLINE
5
C9
100
AcDbEntity
8
1
62
256
6
ByLayer
370
18
48
1
60
0
100
AcDbSpline
70
4
71
3
72
34
73
30
40
0
40
0
40
0
40
0
40
0.127435658841649
40
0.127435658841649
40
0.191153488262473
40
0.191153488262473
40
0.223012402972885
40
0.223012402972885
40
0.254871317683298
40
0.254871317683298
40
0.382306976524946
40
0.382306976524946
40
0.446024805945771
40
0.446024805945771
40
0.509742635366595
40
0.509742635366595
40
0.637178294208245
40
0.637178294208245
40
0.669037208918657
40
0.669037208918657
40
0.700896123629069
40
0.700896123629069
40
0.764613953049894
40
0.764613953049894
40
0.892049611891543
40
0.892049611891543
40
0.955767441312367
40
0.955767441312367
40
1
40
1
40
1
40
1
41
1
10
3.99999982568721
20
1.04909435457301
30
0
41
1
10
3.99999982568724
20
0.627948395663736
30
0
41
1
10
3.99999982568721
20
0.205934724243207
30
0
41
1
10
3.99999982568721
20
-0.426453901912453
30
0
41
1
10
3.99999982568724
20
-0.637251411287906
30
0
41
1
10
3.99999982568721
20
-0.95344967998679
30
0
41
1
10
3.99999982568724
20
-1.05911187550538
30
0
41
1
10
3.99999982568727
20
-1.26843580934573
30
0
41
1
10
3.99999982568724
20
-1.37224213259418
30
0
41
1
10
3.99999982568721
20
-1.88705801152452
30
0
41
1
10
3.99999982568727
20
-2.28555664620774
30
0
41
1
10
3.99999982568727
20
-2.86282032815132
30
0
41
1
10
3.99999982568724
20
-3.04975704151749
30
0
41
1
10
3.99999982568724
20
-3.412074108626
30
0
41
1
10
3.99999982568727
20
-3.58827512682106
30
0
41
1
10
3.99999982568724
20
-4.09238272724542
30
0
41
1
10
3.99999982568721
20
-4.397189966458
30
0
41
1
10
3.99999982568721
20
-4.73973829017555
30
0
41
1
10
3.99999982568721
20
-4.80630554852152
30
0
41
1
10
3.99999982568721
20
-4.93549194532892
30
0
41
1
10
3.99999982568727
20
-4.9982759438125
30
0
41
1
10
3.99999982568727
20
-5.17927697311552
30
0
41
1
10
3.99999982568724
20
-5.28980033728706
30
0
41
1
10
3.99999982568724
20
-5.59191074085797
30
0
41
1
10
3.99999982568724
20
-5.75435195773656
30
0
41
1
10
3.99999982568724
20
-5.93766176539876
30
0
41
1
10
3.99999982568721
20
-5.98811431945984
30
0
41
1
10
3.99999982568721
20
-6.05485318942104
30
0
41
1
10
3.99999982568724
20
-6.07696038467083
30
0
41
1
10
3.99999982568724
20
-6.09377664543794
30
0
0
SPLINE
5
CA
100
AcDbEntity
8
1
62
256
6
ByLayer
370
18
48
1
60
0
100
AcDbSpline
70
4
71
3
72
98
73
94
40
0
40
0
40
0
40
0
40
0.0032366213145645
40
0.0032366213145645
40
0.0245304340487555
40
0.0245304340487555
40
0.0458242467829465
40
0.0458242467829465
40
0.0671180595171375
40
0.0671180595171375
40
0.0884118722513285
40
0.0884118722513285
40
0.109705684985519
40
0.109705684985519
40
0.130999497719711
40
0.130999497719711
40
0.152293310453901
40
0.152293310453901
40
0.173587123188092
40
0.173587123188092
40
0.194880935922284
40
0.194880935922284
40
0.216174748656475
40
0.216174748656475
40
0.237468561390665
40
0.237468561390665
40
0.280056186859047
40
0.280056186859047
40
0.301349999593238
40
0.301349999593238
40
0.32264381232743
40
0.32264381232743
40
0.343937625061621
40
0.343937625061621
40
0.365231437795812
40
0.365231437795812
40
0.386525250530002
40
0.386525250530002
40
0.407819063264193
40
0.407819063264193
40
0.429112875998384
40
0.429112875998384
40
0.450406688732576
40
0.450406688732576
40
0.471700501466767
40
0.471700501466767
40
0.492994314200958
40
0.492994314200958
40
0.514288126935148
40
0.514288126935148
40
0.535581939669339
40
0.535581939669339
40
0.55687575240353
40
0.55687575240353
40
0.578169565137722
40
0.578169565137722
40
0.599463377871913
40
0.599463377871913
40
0.620757190606103
40
0.620757190606103
40
0.642051003340295
40
0.642051003340295
40
0.663344816074485
40
0.663344816074485
40
0.684638628808676
40
0.684638628808676
40
0.705932441542867
40
0.705932441542867
40
0.727226254277058
40
0.727226254277058
40
0.748520067011249
40
0.748520067011249
40
0.76981387974544
40
0.76981387974544
40
0.791107692479631
40
0.791107692479631
40
0.812401505213822
40
0.812401505213822
40
0.833695317948014
40
0.833695317948014
40
0.854989130682205
40
0.854989130682205
40
0.876282943416395
40
0.876282943416395
40
0.918870568884777
40
0.918870568884777
40
0.940164381618968
40
0.940164381618968
40
0.961458194353159
40
0.961458194353159
40
0.98275200708735
40
0.98275200708735
40
1
40
1
40
1
40
1
41
1
10
65.9518393520719
20
-4.50918986576986
30
0
41
1
10
65.9052011326184
20
-4.52497242292543
30
0
41
1
10
65.8585629396827
20
-4.54064166932781
30
0
41
1
10
65.5050926012988
20
-4.6585455993029
30
0
41
1
10
65.1980035617219
20
-4.75588064213088
30
0
41
1
10
64.582423896309
20
-4.94056529418501
30
0
41
1
10
64.2748858100762
20
-5.02763836523459
30
0
41
1
10
63.6605671204375
20
-5.19077444125358
30
0
41
1
10
63.3538955187528
20
-5.26696142636936
30
0
41
1
10
62.7408302467543
20
-5.40739959436516
30
0
41
1
10
62.434150001515
20
-5.47141559510743
30
0
41
1
10
61.8202522317738
20
-5.58570725836057
30
0
41
1
10
61.5130032731309
20
-5.63551217606508
30
0
41
1
10
60.8980237295348
20
-5.72429093087891
30
0
41
1
10
60.5904254626014
20
-5.76337533743524
30
0
41
1
10
59.9759469252967
20
-5.82823240625262
30
0
41
1
10
59.6688780612675
20
-5.85391594559039
30
0
41
1
10
59.0549871849398
20
-5.89160002623191
30
0
41
1
10
58.7481206241738
20
-5.90434223442321
30
0
41
1
10
58.134810562352
20
-5.91719944522723
30
0
41
1
10
57.8281648886943
20
-5.9170970151458
30
0
41
1
10
57.2136519917873
20
-5.9024944967482
30
0
41
1
10
56.9056065491384
20
-5.88785429249572
30
0
41
1
10
56.2901299451022
20
-5.84679643667326
30
0
41
1
10
55.9829548385084
20
-5.82023641859487
30
0
41
1
10
55.0624561798413
20
-5.72074274986878
30
0
41
1
10
54.4486301180484
20
-5.6272299813748
30
0
41
1
10
53.5272258772874
20
-5.4527247923825
30
0
41
1
10
53.2202338203753
20
-5.38822554448578
30
0
41
1
10
52.6047501096077
20
-5.24624126879257
30
0
41
1
10
52.2969611460431
20
-5.16900310154765
30
0
41
1
10
51.6821708782327
20
-5.00469630104703
30
0
41
1
10
51.3750070418302
20
-4.91734632776974
30
0
41
1
10
50.7614095358806
20
-4.73094088576906
30
0
41
1
10
50.4548124891625
20
-4.6317943549692
30
0
41
1
10
49.8406816642643
20
-4.42412852258244
30
0
41
1
10
49.5333115366135
20
-4.31578810187435
30
0
41
1
10
48.9179683211032
20
-4.0894350960192
30
0
41
1
10
48.6098681860224
20
-3.97111809677071
30
0
41
1
10
47.9953644340193
20
-3.72498655509403
30
0
41
1
10
47.6882388579102
20
-3.59811046863814
30
0
41
1
10
47.0740213941592
20
-3.33795014009965
30
0
41
1
10
46.7669844995484
20
-3.20420628523746
30
0
41
1
10
46.1530374243921
20
-2.92894796011859
30
0
41
1
10
45.8463289477223
20
-2.78684986488659
30
0
41
1
10
45.2318412869463
20
-2.49805031743469
30
0
41
1
10
44.923861024621
20
-2.35115764102122
30
0
41
1
10
44.3080710189836
20
-2.05217193543066
30
0
41
1
10
44.0006123335015
20
-1.90037240852197
30
0
41
1
10
43.3866862435779
20
-1.59196244420122
30
0
41
1
10
43.0800711829509
20
-1.43579412702903
30
0
41
1
10
42.466251672295
20
-1.12187641843636
30
0
41
1
10
42.159215413815
20
-0.963769482069466
30
0
41
1
10
41.5447703248851
20
-0.645028674923594
30
0
41
1
10
41.2374216954314
20
-0.48441129413942
30
0
41
1
10
40.6223043382221
20
-0.161453244005941
30
0
41
1
10
40.3144876400054
20
2.21733993442E-05
30
0
41
1
10
39.6997582346731
20
0.321640623412179
30
0
41
1
10
39.3926489060896
20
0.481902089103699
30
0
41
1
10
38.7787763325513
20
0.801361946398089
30
0
41
1
10
38.4722502100817
20
0.961049868002675
30
0
41
1
10
37.8585366862251
20
1.27734660781007
30
0
41
1
10
37.551346997431
20
1.43393668277167
30
0
41
1
10
36.9361311914656
20
1.74356049917091
30
0
41
1
10
36.6278348753945
20
1.89676740394398
30
0
41
1
10
36.0128782161256
20
2.19941360564849
30
0
41
1
10
35.7059717867618
20
2.34882989325456
30
0
41
1
10
35.0919358205127
20
2.6400680611448
30
0
41
1
10
34.7849175524217
20
2.78223890482056
30
0
41
1
10
34.1708027390756
20
3.0610716578955
30
0
41
1
10
33.8637831215519
20
3.19764772016364
30
0
41
1
10
33.2496605114612
20
3.46422029283392
30
0
41
1
10
32.941947853286
20
3.59320405132928
30
0
41
1
10
32.3259297440507
20
3.84263675986378
30
0
41
1
10
32.0182077976723
20
3.96336260656901
30
0
41
1
10
31.4034997692232
20
4.19614526827743
30
0
41
1
10
31.0967409485628
20
4.30860711169771
30
0
41
1
10
30.482942706028
20
4.52134465160307
30
0
41
1
10
30.1758194608399
20
4.62218328210272
30
0
41
1
10
29.5611072116364
20
4.81495818450102
30
0
41
1
10
29.2535187755906
20
4.90653392479248
30
0
41
1
10
28.6379837772155
20
5.07880869331481
30
0
41
1
10
28.3302508647415
20
5.15866910230491
30
0
41
1
10
27.4078504224241
20
5.38015711982166
30
0
41
1
10
26.7934048759305
20
5.50636226112434
30
0
41
1
10
25.8726871739524
20
5.65519519784436
30
0
41
1
10
25.5654777887867
20
5.69847633915344
30
0
41
1
10
24.9501136004577
20
5.77332410337505
30
0
41
1
10
24.6416870838823
20
5.8046689958264
30
0
41
1
10
24.0261306875725
20
5.85349025246026
30
0
41
1
10
23.719134525096
20
5.87049374252808
30
0
41
1
10
23.1634170365387
20
5.89048797882441
30
0
41
1
10
22.9146842776378
20
5.89547474967415
30
0
41
1
10
22.6659077150504
20
5.89624446039943
30
0
0
SPLINE
5
CB
100
AcDbEntity
8
1
62
256
6
ByLayer
370
13
48
1
60
0
100
AcDbSpline
70
4
71
3
72
8
73
4
40
0
40
0
40
0
40
0
40
1
40
1
40
1
40
1
41
1
10
4.1300689759768
20
-6.14972175980483
30
0
41
1
10
4.13085873919778
20
-6.09785417398624
30
0
41
1
10
4.13165547212523
20
-6.04598629753332
30
0
41
1
10
4.1324591960973
20
-5.99411812145837
30
0
0
SPLINE
5
CC
100
AcDbEntity
8
1
62
256
6
ByLayer
370
18
48
1
60
0
100
AcDbSpline
70
4
71
3
72
92
73
88
40
0
40
0
40
0
40
0
40
0.0032387782852934
40
0.0032387782852934
40
0.0238632733748083
40
0.0238632733748083
40
0.0651122635538374
40
0.0651122635538374
40
0.0857367586433523
40
0.0857367586433523
40
0.106361253732867
40
0.106361253732867
40
0.126985748822382
40
0.126985748822382
40
0.147610243911897
40
0.147610243911897
40
0.168234739001412
40
0.168234739001412
40
0.188859234090927
40
0.188859234090927
40
0.230108224269957
40
0.230108224269957
40
0.250732719359472
40
0.250732719359472
40
0.271357214448987
40
0.271357214448987
40
0.291981709538503
40
0.291981709538503
40
0.312606204628018
40
0.312606204628018
40
0.353855194807048
40
0.353855194807048
40
0.374479689896563
40
0.374479689896563
40
0.395104184986079
40
0.395104184986079
40
0.415728680075594
40
0.415728680075594
40
0.436353175165109
40
0.436353175165109
40
0.456977670254624
40
0.456977670254624
40
0.47760216534414
40
0.47760216534414
40
0.51885115552317
40
0.51885115552317
40
0.539475650612686
40
0.539475650612686
40
0.560100145702201
40
0.560100145702201
40
0.580724640791716
40
0.580724640791716
40
0.601349135881231
40
0.601349135881231
40
0.621973630970747
40
0.621973630970747
40
0.642598126060262
40
0.642598126060262
40
0.683847116239293
40
0.683847116239293
40
0.704471611328808
40
0.704471611328808
40
0.725096106418323
40
0.725096106418323
40
0.745720601507838
40
0.745720601507838
40
0.766345096597354
40
0.766345096597354
40
0.786969591686869
40
0.786969591686869
40
0.807594086776384
40
0.807594086776384
40
0.848843076955415
40
0.848843076955415
40
0.86946757204493
40
0.86946757204493
40
0.890092067134446
40
0.890092067134446
40
0.910716562223961
40
0.910716562223961
40
0.931341057313477
40
0.931341057313477
40
0.972590047492509
40
0.972590047492509
40
0.993214542582025
40
0.993214542582025
40
1
40
1
40
1
40
1
41
1
10
30.5656319364221
20
4.48980533613624
30
0
41
1
10
30.613196895024
20
4.5076689749263
30
0
41
1
10
30.6607621811847
20
4.52542373984968
30
0
41
1
10
31.0112089565258
20
4.65543959837063
30
0
41
1
10
31.3129279752207
20
4.76354457425663
30
0
41
1
10
32.218877015506
20
5.06996146370597
30
0
41
1
10
32.823602038921
20
5.25120268059516
30
0
41
1
10
33.7291980182809
20
5.49114152569337
30
0
41
1
10
34.030790903207
20
5.56569936673134
30
0
41
1
10
34.6362755081625
20
5.70165216180487
30
0
41
1
10
34.9395388158798
20
5.76337852022021
30
0
41
1
10
35.5445753596449
20
5.8742979492086
30
0
41
1
10
35.8466262199318
20
5.92356878978165
30
0
41
1
10
36.449552585753
20
6.00963293554668
30
0
41
1
10
36.7511551081899
20
6.04605871811037
30
0
41
1
10
37.3553891023275
20
6.10565273798068
30
0
41
1
10
37.6578133295357
20
6.12891645456318
30
0
41
1
10
38.2628897744986
20
6.16238194190166
30
0
41
1
10
38.5655704482739
20
6.17258104833982
30
0
41
1
10
39.4719039244001
20
6.18283964167523
30
0
41
1
10
40.0767777143164
20
6.16304289379983
30
0
41
1
10
40.9821879978364
20
6.09375390472488
30
0
41
1
10
41.283366253541
20
6.06382410626469
30
0
41
1
10
41.8875745340518
20
5.99125503072824
30
0
41
1
10
42.190587396888
20
5.94857595493164
30
0
41
1
10
42.7965415256043
20
5.85046026145474
30
0
41
1
10
43.0990160387568
20
5.79511860806977
30
0
41
1
10
43.7025567701172
20
5.67148812296759
30
0
41
1
10
44.0037942913183
20
5.60325552129436
30
0
41
1
10
44.9094908381122
20
5.38225936577655
30
0
41
1
10
45.5141258472384
20
5.21213381085224
30
0
41
1
10
46.4207953542514
20
4.92030133956143
30
0
41
1
10
46.7234682010456
20
4.81795623958928
30
0
41
1
10
47.3282385177795
20
4.60413422517632
30
0
41
1
10
47.6304664851338
20
4.49244867972882
30
0
41
1
10
48.2342231331571
20
4.2590402637565
30
0
41
1
10
48.5354137833676
20
4.13683634516724
30
0
41
1
10
49.1385779253411
20
3.88421352378515
30
0
41
1
10
49.4408588713708
20
3.75427205904492
30
0
41
1
10
50.0461641950759
20
3.48629913391588
30
0
41
1
10
50.3494383458021
20
3.34819873893579
30
0
41
1
10
50.9539500860141
20
3.06441497339532
30
0
41
1
10
51.2551998836377
20
2.91818852921469
30
0
41
1
10
52.160641104261
20
2.47414152400839
30
0
41
1
10
52.7650884556421
20
2.16884182232977
30
0
41
1
10
53.6705359566373
20
1.69259444301494
30
0
41
1
10
53.9728520509876
20
1.53133504518749
30
0
41
1
10
54.5782771472183
20
1.20805536105306
30
0
41
1
10
54.8807785850307
20
1.04557173095185
30
0
41
1
10
55.4849675612003
20
0.718213127523086
30
0
41
1
10
55.7865145924007
20
0.553080974253504
30
0
41
1
10
56.3890663227243
20
0.220901742958887
30
0
41
1
10
56.6908811959142
20
0.0553379749478893
30
0
41
1
10
57.2952792748973
20
-0.275287780322117
30
0
41
1
10
57.5978216017726
20
-0.440424813870749
30
0
41
1
10
58.2032202975686
20
-0.771046846748675
30
0
41
1
10
58.5050593771569
20
-0.936858128807842
30
0
41
1
10
59.4105820914448
20
-1.42762927271318
30
0
41
1
10
60.0149728595525
20
-1.74625113286569
30
0
41
1
10
60.919943994944
20
-2.21611780363315
30
0
41
1
10
61.2212291275443
20
-2.37153218835144
30
0
41
1
10
61.8260411756727
20
-2.67484918407922
30
0
41
1
10
62.1292686976487
20
-2.82351976028377
30
0
41
1
10
62.7341616531895
20
-3.11426767068565
30
0
41
1
10
63.0361362307505
20
-3.25650792897255
30
0
41
1
10
63.6387973377342
20
-3.53513307944618
30
0
41
1
10
63.9401296117388
20
-3.67050849148836
30
0
41
1
10
64.543889313812
20
-3.9319093487729
30
0
41
1
10
64.8460613242447
20
-4.05832516236921
30
0
41
1
10
65.4506006360777
20
-4.30309130262549
30
0
41
1
10
65.7530759319169
20
-4.42183068552197
30
0
41
1
10
66.6591352532134
20
-4.76320236422353
30
0
41
1
10
67.2637159844197
20
-4.96789906529708
30
0
41
1
10
68.168615704579
20
-5.24445314034412
30
0
41
1
10
68.4695782504676
20
-5.33177798885819
30
0
41
1
10
69.073173479468
20
-5.49375704172908
30
0
41
1
10
69.3756658694963
20
-5.56860847134266
30
0
41
1
10
69.9815077119854
20
-5.70653787158921
30
0
41
1
10
70.2839371318311
20
-5.76938306060782
30
0
41
1
10
70.887340102576
20
-5.88297970978118
30
0
41
1
10
71.1883736888722
20
-5.93363172684903
30
0
41
1
10
72.0934679506294
20
-6.06518651748669
30
0
41
1
10
72.6977205462854
20
-6.12705317283971
30
0
41
1
10
73.6034888857982
20
-6.18076019701638
30
0
41
1
10
73.9060753300921
20
-6.191885694934
30
0
41
1
10
74.307513222594
20
-6.19778556826191
30
0
41
1
10
74.4068565934871
20
-6.19852847096314
30
0
41
1
10
74.5061588223449
20
-6.19855451377751
30
0
0
SPLINE
5
CD
100
AcDbEntity
8
1
62
256
6
ByLayer
370
18
48
1
60
0
100
AcDbSpline
70
4
71
3
72
8
73
4
40
0
40
0
40
0
40
0
40
1
40
1
40
1
40
1
41
1
10
4.1324591960973
20
-5.90196832234341
30
0
41
1
10
4.1691123169515
20
-5.88316777262858
30
0
41
1
10
4.20921836985127
20
-5.87402655430736
30
0
41
1
10
4.2502976816009
20
-5.87477526047562
30
0
0
SPLINE
5
CE
100
AcDbEntity
8
1
62
256
6
ByLayer
370
18
48
1
60
0
100
AcDbSpline
70
4
71
3
72
12
73
8
40
0
40
0
40
0
40
0
40
0.305059591684171
40
0.305059591684171
40
0.640296641926652
40
0.640296641926652
40
1
40
1
40
1
40
1
41
1
10
40.4109727912481
20
-5.90458089690594
30
0
41
1
10
39.7163853890216
20
-5.90884821575068
30
0
41
1
10
39.0226103457063
20
-5.87940348613031
30
0
41
1
10
37.5642153751903
20
-5.7478204563983
30
0
41
1
10
36.8057010966139
20
-5.63923302800288
30
0
41
1
10
35.2396349995645
20
-5.33858350257822
30
0
41
1
10
34.4319645658586
20
-5.14089135127131
30
0
41
1
10
33.6233215015453
20
-4.90510628280143
30
0
0
SPLINE
5
CF
100
AcDbEntity
8
1
62
256
6
ByLayer
370
13
48
1
60
0
100
AcDbSpline
70
4
71
3
72
25
73
21
40
0
40
0
40
0
40
0
40
0.133884446256789
40
0.133884446256789
40
0.206096852637839
40
0.206096852637839
40
0.242203055828364
40
0.242203055828364
40
0.27830925901889
40
0.27830925901889
40
0.422734071780992
40
0.422734071780992
40
0.711583697305197
40
0.711583697305197
40
0.747689900495722
40
0.747689900495722
40
0.783796103686247
40
0.856008510067294
40
0.856008510067294
40
1
40
1
40
1
40
1
41
1
10
33.623322461256
20
-4.90510656263498
30
0
41
1
10
32.9246836672789
20
-4.70139669082201
30
0
41
1
10
32.2253188694807
20
-4.46925295290256
30
0
41
1
10
31.1437499468264
20
-4.07208237091689
30
0
41
1
10
30.7637858276609
20
-3.92547010051808
30
0
41
1
10
30.1917302448195
20
-3.69506413078824
30
0
41
1
10
30.0006229805548
20
-3.61645490157707
30
0
41
1
10
29.6195567802519
20
-3.4566637274047
30
0
41
1
10
29.4293610794978
20
-3.37538851894416
30
0
41
1
10
28.4797986254181
20
-2.96260391936175
30
0
41
1
10
27.7245413522826
20
-2.61211785648467
30
0
41
1
10
25.462584432956
20
-1.51701710789072
30
0
41
1
10
23.9595206831006
20
-0.729096331365724
30
0
41
1
10
22.2448679800093
20
0.167663472529853
30
0
41
1
10
22.0537707498797
20
0.267559544329998
30
0
41
1
10
21.672248564242
20
0.466722039753762
30
0
41
1
10
21.1010386004292
20
0.76448731755633
30
0
41
1
10
20.5324931250047
20
1.05819466947068
30
0
41
1
10
19.3999238027738
20
1.63664323811449
30
0
41
1
10
18.6488499687797
20
2.01207290275849
30
0
41
1
10
17.8976170432267
20
2.37151984183689
30
0
0
SPLINE
5
D0
100
AcDbEntity
8
1
62
256
6
ByLayer
370
18
48
1
60
0
100
AcDbSpline
70
4
71
3
72
91
73
87
40
0
40
0
40
0
40
0
40
0.0427976160793846
40
0.0427976160793846
40
0.112099405792983
40
0.112099405792983
40
0.129424853221383
40
0.129424853221383
40
0.146750300649782
40
0.146750300649782
40
0.181401195506581
40
0.181401195506581
40
0.250702985220179
40
0.250702985220179
40
0.285353880076978
40
0.285353880076978
40
0.320004774933777
40
0.320004774933777
40
0.354655669790577
40
0.354655669790577
40
0.389306564647376
40
0.389306564647376
40
0.423957459504175
40
0.423957459504175
40
0.441282906932574
40
0.441282906932574
40
0.449945630646774
40
0.449945630646774
40
0.452111311575324
40
0.453194152039599
40
0.453464862155668
40
0.453464862155668
40
0.453735572271737
40
0.453735572271737
40
0.454006282387805
40
0.454006282387805
40
0.454276992503874
40
0.454276992503874
40
0.456442673432424
40
0.456442673432424
40
0.458608354360974
40
0.458608354360974
40
0.467271078075174
40
0.467271078075174
40
0.475933801789375
40
0.475933801789375
40
0.493259249217775
40
0.493259249217775
40
0.527910144074577
40
0.527910144074577
40
0.597211933788179
40
0.597211933788179
40
0.666513723501782
40
0.666513723501782
40
0.701164618358584
40
0.701164618358584
40
0.709827342072784
40
0.709827342072784
40
0.714158703929884
40
0.714158703929884
40
0.716324384858434
40
0.716324384858434
40
0.717407225322709
40
0.717407225322709
40
0.717677935438778
40
0.717677935438778
40
0.717813290496812
40
0.717813290496812
40
0.717948645554847
40
0.717948645554847
40
0.718490065786984
40
0.735815513215384
40
0.735815513215384
40
0.770466408072182
40
0.770466408072182
40
0.805117302928981
40
0.805117302928981
40
0.83976819778578
40
0.83976819778578
40
0.874419092642579
40
0.874419092642579
40
0.943720882356177
40
0.943720882356177
40
0.978371777212976
40
0.978371777212976
40
1
40
1
40
1
40
1
41
1
10
18.919191954301
20
1.33661986861333
30
0
41
1
10
18.6823706027199
20
1.42293796902393
30
0
41
1
10
18.4459574663634
20
1.50202085089742
30
0
41
1
10
17.8270438275642
20
1.68639820207406
30
0
41
1
10
17.4447682347368
20
1.77753260488126
30
0
41
1
10
16.9639623863408
20
1.8545231761947
30
0
41
1
10
16.8674772258523
20
1.86808929026233
30
0
41
1
10
16.6756466872125
20
1.8911617541701
30
0
41
1
10
16.5801527932279
20
1.90069844000252
30
0
41
1
10
16.2947604924104
20
1.92325934939365
30
0
41
1
10
16.1059546676279
20
1.93022626982068
30
0
41
1
10
15.5423581424384
20
1.92682305996507
30
0
41
1
10
15.1703989382365
20
1.89207470815225
30
0
41
1
10
14.6113404875246
20
1.79280208255872
30
0
41
1
10
14.4247966675097
20
1.75187455117029
30
0
41
1
10
14.0501753182621
20
1.65478111616469
30
0
41
1
10
13.861710325755
20
1.59845127609975
30
0
41
1
10
13.4865655049518
20
1.47267548736309
30
0
41
1
10
13.2993974502551
20
1.40313470365916
30
0
41
1
10
12.9247603984885
20
1.25189869672423
30
0
41
1
10
12.7370515378357
20
1.17008866349934
30
0
41
1
10
12.3615554996936
20
0.995944970792095
30
0
41
1
10
12.1738445199369
20
0.903660214648369
30
0
41
1
10
11.8919676328289
20
0.758477299291229
30
0
41
1
10
11.7980054602667
20
0.70898150340463
30
0
41
1
10
11.6570102302988
20
0.633217546063264
30
0
41
1
10
11.610010351157
20
0.607713345260635
30
0
41
1
10
11.5512521875203
20
0.575534010585812
30
0
41
1
10
11.5336244513426
20
0.565857961592826
30
0
41
1
10
11.5145271576363
20
0.555339858443062
30
0
41
1
10
11.5071819655032
20
0.551288757837199
30
0
41
1
10
11.504243882897
20
0.549667864610342
30
0
41
1
10
11.5019475989609
20
0.549206008715686
30
0
41
1
10
11.5018599700147
20
0.545931117601441
30
0
41
1
10
11.5031115745334
20
0.544508664922233
30
0
41
1
10
11.5051926704206
20
0.541892001955119
30
0
41
1
10
11.5063404552531
20
0.540663340519444
30
0
41
1
10
11.5170026012244
20
0.529852022488257
30
0
41
1
10
11.5279126116906
20
0.521756495243579
30
0
41
1
10
11.5494859511515
20
0.50538887146223
30
0
41
1
10
11.5604457026123
20
0.497429378636298
30
0
41
1
10
11.6155814547442
20
0.458066754856475
30
0
41
1
10
11.6606758847011
20
0.427845155578211
30
0
41
1
10
11.75109154538
20
0.367798343077766
30
0
41
1
10
11.7965382690249
20
0.338109976878343
30
0
41
1
10
11.9332151778566
20
0.249503235543983
30
0
41
1
10
12.0247918870144
20
0.191047697895442
30
0
41
1
10
12.3000530169849
20
0.0164233947903085
30
0
41
1
10
12.4842991329308
20
-0.0989659622352974
30
0
41
1
10
13.0379076425668
20
-0.444112666269035
30
0
41
1
10
13.4079014139688
20
-0.673291385294505
30
0
41
1
10
14.1477958546207
20
-1.13265886188927
30
0
41
1
10
14.5179402389602
20
-1.3622431643617
30
0
41
1
10
15.0702877589178
20
-1.71156630854247
30
0
41
1
10
15.2542269025874
20
-1.82842579494604
30
0
41
1
10
15.481689789352
20
-1.97833019302982
30
0
41
1
10
15.5270589767279
20
-2.00851008013896
30
0
41
1
10
15.5944453105598
20
-2.05474104832416
30
0
41
1
10
15.6168197333093
20
-2.07029129026338
30
0
41
1
10
15.6498222378375
20
-2.09436123548042
30
0
41
1
10
15.6607661134951
20
-2.10248537085485
30
0
41
1
10
15.6766102382103
20
-2.11533034759174
30
0
41
1
10
15.681910862804
20
-2.11965457909193
30
0
41
1
10
15.687713091106
20
-2.12581175052304
30
0
41
1
10
15.6888582485677
20
-2.12708640014085
30
0
41
1
10
15.6901598237916
20
-2.12922578452492
30
0
41
1
10
15.69060872426
20
-2.13003495050523
30
0
41
1
10
15.6903223967723
20
-2.13159766928084
30
0
41
1
10
15.6894156905173
20
-2.13193320616475
30
0
41
1
10
15.6861285128681
20
-2.13419055848527
30
0
41
1
10
15.5993471799397
20
-2.19373814384781
30
0
41
1
10
15.5125816841623
20
-2.25173882491424
30
0
41
1
10
15.2602001714452
20
-2.41562552180625
30
0
41
1
10
15.0918418705062
20
-2.51850092391348
30
0
41
1
10
14.7559681079425
20
-2.70825869738883
30
0
41
1
10
14.588119620074
20
-2.79537165009219
30
0
41
1
10
14.2505433745632
20
-2.95236731972051
30
0
41
1
10
14.080819275579
20
-3.02225008160465
30
0
41
1
10
13.7370511320347
20
-3.14269261870541
30
0
41
1
10
13.5648598453576
20
-3.19255276125634
30
0
41
1
10
13.0458199671207
20
-3.30927706727897
30
0
41
1
10
12.6955973196691
20
-3.34332227662023
30
0
41
1
10
12.1509360023089
20
-3.32681057985613
30
0
41
1
10
11.9656328027006
20
-3.30990063509429
30
0
41
1
10
11.6651032645263
20
-3.2661032476415
30
0
41
1
10
11.5493294521523
20
-3.24537381308807
30
0
41
1
10
11.4331682104658
20
-3.22111164799352
30
0
0
SPLINE
5
D1
100
AcDbEntity
8
1
62
256
6
ByLayer
370
18
48
1
60
0
100
AcDbSpline
70
4
71
3
72
8
73
4
40
0
40
0
40
0
40
0
40
1
40
1
40
1
40
1
41
1
10
3.99999982568724
20
1.04909435457301
30
0
41
1
10
3.99999982568724
20
1.04356179000371
30
0
41
1
10
3.99999982568727
20
1.0380483748477
30
0
41
1
10
3.99999982568727
20
1.03255412168548
30
0
0
SPLINE
5
D2
100
AcDbEntity
8
1
62
256
6
ByLayer
370
18
48
1
60
0
100
AcDbSpline
70
4
71
3
72
24
73
20
40
0
40
0
40
0
40
0
40
0.0625000000000002
40
0.0625000000000002
40
0.125000000000001
40
0.125000000000001
40
0.250000000000001
40
0.250000000000001
40
0.312500000000001
40
0.312500000000001
40
0.375000000000001
40
0.375000000000001
40
0.500000000000002
40
0.500000000000002
40
0.625000000000002
40
0.625000000000002
40
0.750000000000003
40
0.750000000000003
40
1
40
1
40
1
40
1
41
1
10
70.41737898321
20
2.6810051978764
30
0
41
1
10
70.4443689243572
20
2.52164235998737
30
0
41
1
10
70.4826125939976
20
2.36122963758746
30
0
41
1
10
70.5798085021175
20
2.03847224590638
30
0
41
1
10
70.6389990505316
20
1.87558299320202
30
0
41
1
10
70.8444670486253
20
1.38766816757771
30
0
41
1
10
71.0135694213051
20
1.07352962835836
30
0
41
1
10
71.3032483875127
20
0.614812637761759
30
0
41
1
10
71.4063639858813
20
0.463441844650305
30
0
41
1
10
71.619953150025
20
0.169283172007624
30
0
41
1
10
71.7306748364673
20
0.0260156139074752
30
0
41
1
10
72.0728911644798
20
-0.394030964435899
30
0
41
1
10
72.3142004183728
20
-0.661283595265388
30
0
41
1
10
72.8186316373583
20
-1.1746167133671
30
0
41
1
10
73.0833203848333
20
-1.4212363867905
30
0
41
1
10
73.6200650139517
20
-1.88740504633054
30
0
41
1
10
73.8932392904269
20
-2.10822572211165
30
0
41
1
10
74.7247568812272
20
-2.74005451958951
30
0
41
1
10
75.2949550676602
20
-3.12078667238893
30
0
41
1
10
75.8777619864471
20
-3.46931758462637
30
0
0
SPLINE
5
D3
100
AcDbEntity
8
1
62
256
6
ByLayer
370
18
48
1
60
0
100
AcDbSpline
70
4
71
3
72
18
73
14
40
0
40
0
40
0
40
0
40
0.25
40
0.25
40
0.374999999999997
40
0.374999999999997
40
0.499999999999995
40
0.499999999999995
40
0.749999999999995
40
0.749999999999995
40
0.874999999999997
40
0.874999999999997
40
1
40
1
40
1
40
1
41
1
10
78.0610943925223
20
3.04018869691919
30
0
41
1
10
77.9664187090546
20
3.29431627066214
30
0
41
1
10
77.8716213117071
20
3.54829932160163
30
0
41
1
10
77.7292283751923
20
3.92844748029665
30
0
41
1
10
77.6817258220577
20
4.05503084318781
30
0
41
1
10
77.5866000165064
20
4.30777876182316
30
0
41
1
10
77.5389576026141
20
4.43387683032068
30
0
41
1
10
77.395935855879
20
4.81184311842151
30
0
41
1
10
77.3005213783969
20
5.06370586587593
30
0
41
1
10
77.1572546515812
20
5.43865896601488
30
0
41
1
10
77.1094547360949
20
5.562934937758
30
0
41
1
10
77.0138175372809
20
5.8108898748898
30
0
41
1
10
76.9659847716555
20
5.93464101723066
30
0
41
1
10
76.918110984286
20
6.05773677673469
30
0
0
SPLINE
5
D4
100
AcDbEntity
8
1
62
256
6
ByLayer
370
13
48
1
60
0
100
AcDbSpline
70
4
71
3
72
36
73
32
40
0
40
0
40
0
40
0
40
0.125
40
0.125
40
0.187500000000001
40
0.187500000000001
40
0.250000000000001
40
0.250000000000001
40
0.312500000000001
40
0.312500000000001
40
0.343750000000001
40
0.343750000000001
40
0.375000000000002
40
0.375000000000002
40
0.500000000000002
40
0.500000000000002
40
0.562500000000001
40
0.562500000000001
40
0.625000000000001
40
0.625000000000001
40
0.750000000000001
40
0.750000000000001
40
0.781250000000001
40
0.781250000000001
40
0.812500000000001
40
0.812500000000001
40
0.875
40
0.875
40
0.9375
40
0.9375
40
1
40
1
40
1
40
1
41
1
10
4.2502976816009
20
-5.87477526047564
30
0
41
1
10
4.25037523575975
20
-5.85201338235092
30
0
41
1
10
4.25044448139639
20
-5.78538938288528
30
0
41
1
10
4.25054048529682
20
-5.61986472354579
30
0
41
1
10
4.25057084411566
20
-5.55416860817132
30
0
41
1
10
4.25062872600188
20
-5.40333429807188
30
0
41
1
10
4.25065632191669
20
-5.31806777550591
30
0
41
1
10
4.25070959524316
20
-5.12795752960756
30
0
41
1
10
4.2507352714494
20
-5.02311496821923
30
0
41
1
10
4.25077284650038
20
-4.85076317349882
30
0
41
1
10
4.2507852468936
20
-4.79061498710064
30
0
41
1
10
4.25080955045618
20
-4.66651009127276
30
0
41
1
10
4.25082147528184
20
-4.60247227750926
30
0
41
1
10
4.2508801734858
20
-4.27254312170194
30
0
41
1
10
4.25092427359047
20
-3.97775380849762
30
0
41
1
10
4.25098877679153
20
-3.48891510039664
30
0
41
1
10
4.25101004317665
20
-3.31754525475569
30
0
41
1
10
4.25105147428178
20
-2.96462723533591
30
0
41
1
10
4.25107172188606
20
-2.78250850026177
30
0
41
1
10
4.25113113900272
20
-2.21902917058065
30
0
41
1
10
4.25116818833223
20
-1.82911432757351
30
0
41
1
10
4.2512103176478
20
-1.32541878185788
30
0
41
1
10
4.2512185281733
20
-1.22383758295118
30
0
41
1
10
4.25123446320282
20
-1.01896591619132
30
0
41
1
10
4.25124219698574
20
-0.915521445855887
30
0
41
1
10
4.25126433080993
20
-0.605963304621866
30
0
41
1
10
4.25127775349694
20
-0.39959254130099
30
0
41
1
10
4.25130146170548
20
0.0131463953325692
30
0
41
1
10
4.25131174804247
20
0.219514568492173
30
0
41
1
10
4.2513285152537
20
0.632248308325842
30
0
41
1
10
4.25133500922135
20
0.839201076276993
30
0
41
1
10
4.25133912285079
20
1.04488536065577
30
0
0
SPLINE
5
D5
100
AcDbEntity
8
1
62
256
6
ByLayer
370
18
48
1
60
0
100
AcDbSpline
70
4
71
3
72
18
73
14
40
0
40
0
40
0
40
0
40
0.250000000000001
40
0.250000000000001
40
0.375
40
0.375
40
0.499999999999998
40
0.499999999999998
40
0.750000000000001
40
0.750000000000001
40
0.875000000000001
40
0.875000000000001
40
1
40
1
40
1
40
1
41
1
10
78.0610943925223
20
-3.04018869691916
30
0
41
1
10
77.9664187090546
20
-3.29431627066214
30
0
41
1
10
77.8716213117071
20
-3.54829932160163
30
0
41
1
10
77.7292283751923
20
-3.92844748029665
30
0
41
1
10
77.6817258220577
20
-4.05503084318781
30
0
41
1
10
77.5866000165064
20
-4.30777876182316
30
0
41
1
10
77.5389576026142
20
-4.43387683032068
30
0
41
1
10
77.395935855879
20
-4.81184311842148
30
0
41
1
10
77.3005213783969
20
-5.06370586587593
30
0
41
1
10
77.1572546515812
20
-5.43865896601488
30
0
41
1
10
77.1094547360949
20
-5.562934937758
30
0
41
1
10
77.0138175372809
20
-5.8108898748898
30
0
41
1
10
76.9659847716554
20
-5.93464101723063
30
0
41
1
10
76.9181109842859
20
-6.05773677673469
30
0
0
SPLINE
5
D6
100
AcDbEntity
8
1
62
256
6
ByLayer
370
18
48
1
60
0
100
AcDbSpline
70
4
71
3
72
12
73
8
40
0
40
0
40
0
40
0
40
0.25
40
0.25
40
0.500000000000001
40
0.500000000000001
40
1
40
1
40
1
40
1
41
1
10
76.8962684636249
20
-5.97696461643076
30
0
41
1
10
76.9011269810381
20
-5.9638551118021
30
0
41
1
10
76.9057778368107
20
-5.9505221327619
30
0
41
1
10
76.9134779540359
20
-5.92649414464083
30
0
41
1
10
76.9165084582071
20
-5.91583510653282
30
0
41
1
10
76.9220402175145
20
-5.8919016220766
30
0
41
1
10
76.9209865951146
20
-5.88732325949866
30
0
41
1
10
76.9173035512957
20
-5.8903969593195
30
0
0
SPLINE
5
D7
100
AcDbEntity
8
1
62
256
6
ByLayer
370
18
48
1
60
0
100
AcDbSpline
70
4
71
3
72
10
73
6
40
0
40
0
40
0
40
0
40
0.823002011695791
40
0.823002011695791
40
1
40
1
40
1
40
1
41
1
10
76.8306976996276
20
6.15362152020617
30
0
41
1
10
76.4502579802454
20
6.17897558857015
30
0
41
1
10
76.0698392788403
20
6.19374600814402
30
0
41
1
10
75.6071523997427
20
6.19879791566453
30
0
41
1
10
75.5252572971266
20
6.19919910534637
30
0
41
1
10
75.4433800276312
20
6.19910952484094
30
0
0
SPLINE
5
D8
100
AcDbEntity
8
1
62
256
6
ByLayer
370
18
48
1
60
0
100
AcDbSpline
70
4
71
3
72
46
73
42
40
0
40
0
40
0
40
0
40
0.0138739863253254
40
0.0138739863253254
40
0.0726752243800496
40
0.0726752243800496
40
0.102075843407411
40
0.102075843407411
40
0.131476462434773
40
0.131476462434773
40
0.190277700489496
40
0.190277700489496
40
0.307880176598943
40
0.307880176598943
40
0.366681414653666
40
0.366681414653666
40
0.396082033681028
40
0.396082033681028
40
0.425482652708389
40
0.425482652708389
40
0.484283890763112
40
0.484283890763112
40
0.513684509790473
40
0.513684509790473
40
0.543085128817834
40
0.543085128817834
40
0.660687604927279
40
0.660687604927279
40
0.69008822395464
40
0.69008822395464
40
0.719488842982001
40
0.719488842982001
40
0.778290081036724
40
0.778290081036724
40
0.89589255714617
40
0.89589255714617
40
0.925293176173532
40
0.925293176173532
40
0.954693795200893
40
0.954693795200893
40
1
40
1
40
1
40
1
41
1
10
43.3124880696943
20
-5.92296952129624
30
0
41
1
10
43.132810498472
20
-5.95097919240604
30
0
41
1
10
42.9532222548943
20
-5.9767172333068
30
0
41
1
10
42.0133366286209
20
-6.09945060009073
30
0
41
1
10
41.254314729425
20
-6.15754419770258
30
0
41
1
10
40.112585832902
20
-6.18135086597917
30
0
41
1
10
39.7310212904856
20
-6.17869768167981
30
0
41
1
10
38.9696313743952
20
-6.15226536605491
30
0
41
1
10
38.5895270587608
20
-6.12851002784606
30
0
41
1
10
37.4495012658968
20
-6.02608763252431
30
0
41
1
10
36.6895299210452
20
-5.91621240981124
30
0
41
1
10
34.4023022380117
20
-5.46620548023253
30
0
41
1
10
32.901383509774
20
-5.01292574971481
30
0
41
1
10
30.6444554605837
20
-4.15268768526718
30
0
41
1
10
29.8910772790744
20
-3.83611682222772
30
0
41
1
10
28.7545374378073
20
-3.32257312992286
30
0
41
1
10
28.3743998574919
20
-3.14489743777494
30
0
41
1
10
27.6117323920703
20
-2.77831061863773
30
0
41
1
10
27.2311514138321
20
-2.59031268017225
30
0
41
1
10
26.0903496397255
20
-2.01448363070915
30
0
41
1
10
25.3309893924525
20
-1.61495250858417
30
0
41
1
10
24.188427084397
20
-1.00138357221704
30
0
41
1
10
23.8066675842534
20
-0.794306275146255
30
0
41
1
10
23.0471125844312
20
-0.380395522465847
30
0
41
1
10
22.6685911635402
20
-0.173164788796328
30
0
41
1
10
20.7800437844308
20
0.860282426067926
30
0
41
1
10
19.2824141713961
20
1.67874442697436
30
0
41
1
10
17.3922342802513
20
2.62808207509346
30
0
41
1
10
17.013268272158
20
2.81422609726539
30
0
41
1
10
16.252686233588
20
3.17762398248035
30
0
41
1
10
15.8706271111043
20
3.35501479644265
30
0
41
1
10
14.7311110162492
20
3.86582703237292
30
0
41
1
10
13.9765449554886
20
4.17998131637412
30
0
41
1
10
11.7174995053477
20
5.03055646770611
30
0
41
1
10
10.2180762213969
20
5.47539821483377
30
0
41
1
10
8.31691262721208
20
5.83922339649939
30
0
41
1
10
7.9348391993675
20
5.90244850016501
30
0
41
1
10
7.1732436053359
20
6.00806095056313
30
0
41
1
10
6.79303023121025
20
6.05057525895347
30
0
41
1
10
5.82714939538729
20
6.13214897031077
30
0
41
1
10
5.24158251444692
20
6.1569231426989
30
0
41
1
10
4.65478713205687
20
6.1566462816541
30
0
0
SPLINE
5
D9
100
AcDbEntity
8
1
62
256
6
ByLayer
370
18
48
1
60
0
100
AcDbSpline
70
4
71
3
72
12
73
8
40
0
40
0
40
0
40
0
40
0.25000000000001
40
0.25000000000001
40
0.50000000000002
40
0.50000000000002
40
1
40
1
40
1
40
1
41
1
10
4.1300689759768
20
-6.14972175980498
30
0
41
1
10
4.1103204203107
20
-6.1492098812395
30
0
41
1
10
4.09245002131792
20
-6.14856194854212
30
0
41
1
10
4.0603609189973
20
-6.14691051234013
30
0
41
1
10
4.04633008447624
20
-6.14590619545103
30
0
41
1
10
4.0123499779385
20
-6.14238104551603
30
0
41
1
10
3.99999982568698
20
-6.1392657291168
30
0
41
1
10
3.99999982568698
20
-6.13558012386218
30
0
0
SPLINE
5
DA
100
AcDbEntity
8
1
62
256
6
ByLayer
370
18
48
1
60
0
100
AcDbSpline
70
4
71
3
72
12
73
8
40
0
40
0
40
0
40
0
40
0.5
40
0.5
40
0.75
40
0.75
40
1
40
1
40
1
40
1
41
1
10
3.99999982568727
20
-6.11291561363413
30
0
41
1
10
3.99999982568727
20
-6.07208469320841
30
0
41
1
10
4.01156863248792
20
-6.02991475670535
30
0
41
1
10
4.0449111622909
20
-5.97495667286142
30
0
41
1
10
4.05891676347335
20
-5.95750998005065
30
0
41
1
10
4.09209887675974
20
-5.92645392718632
30
0
41
1
10
4.11095895081615
20
-5.91299648095216
30
0
41
1
10
4.1324591960973
20
-5.90196832234341
30
0
0
SPLINE
5
DB
100
AcDbEntity
8
1
62
256
6
ByLayer
370
18
48
1
60
0
100
AcDbSpline
70
4
71
3
72
24
73
20
40
0
40
0
40
0
40
0
40
0.125000000000001
40
0.125000000000001
40
0.187500000000001
40
0.187500000000001
40
0.250000000000001
40
0.250000000000001
40
0.499999999999998
40
0.499999999999998
40
0.562499999999998
40
0.562499999999998
40
0.624999999999998
40
0.624999999999998
40
0.749999999999999
40
0.749999999999999
40
0.875
40
0.875
40
1
40
1
40
1
40
1
41
1
10
76.8427704787749
20
-5.92693939813327
30
0
41
1
10
76.7568900391994
20
-5.92686117591521
30
0
41
1
10
76.675131247198
20
-5.91434810089851
30
0
41
1
10
76.5589791319926
20
-5.87601025527542
30
0
41
1
10
76.5213454350776
20
-5.85996156799268
30
0
41
1
10
76.4483326369764
20
-5.8210621645037
30
0
41
1
10
76.4128420536643
20
-5.79810972371152
30
0
41
1
10
76.2433669413387
20
-5.66720458142117
30
0
41
1
10
76.1319739754443
20
-5.51143869228326
30
0
41
1
10
76.0244558989558
20
-5.24978641750167
30
0
41
1
10
76.0045591200555
20
-5.19406507644993
30
0
41
1
10
75.9681073750003
20
-5.07557021007244
30
0
41
1
10
75.9515179239192
20
-5.01257026675526
30
0
41
1
10
75.9076549508271
20
-4.81570669990612
30
0
41
1
10
75.885988512212
20
-4.67332925678966
30
0
41
1
10
75.8575742858363
20
-4.36664589091774
30
0
41
1
10
75.8508258674477
20
-4.20234089510393
30
0
41
1
10
75.8526700643482
20
-3.85118157593121
30
0
41
1
10
75.8614111291122
20
-3.66363349340281
30
0
41
1
10
75.8777619864471
20
-3.46931758462637
30
0
0
SPLINE
5
DC
100
AcDbEntity
8
1
62
256
6
ByLayer
370
18
48
1
60
0
100
AcDbSpline
70
4
71
3
72
24
73
20
40
0
40
0
40
0
40
0
40
0.25
40
0.25
40
0.375
40
0.375
40
0.5
40
0.5
40
0.625
40
0.625
40
0.75
40
0.75
40
0.8125
40
0.8125
40
0.875
40
0.875
40
0.9375
40
0.9375
40
1
40
1
40
1
40
1
41
1
10
76.0485760155026
20
1.78017627717244
30
0
41
1
10
76.2620358664533
20
1.81897177896943
30
0
41
1
10
76.4745614105143
20
1.86342104042143
30
0
41
1
10
76.7892054615628
20
1.94436824613692
30
0
41
1
10
76.8933535738282
20
1.97376604213193
30
0
41
1
10
77.0995865403721
20
2.0394717595598
30
0
41
1
10
77.201622404989
20
2.07574352022195
30
0
41
1
10
77.4006078841186
20
2.1580481503571
30
0
41
1
10
77.4978038902273
20
2.20400831459068
30
0
41
1
10
77.6843573998106
20
2.3126301801411
30
0
41
1
10
77.7736805168922
20
2.37516653303194
30
0
41
1
10
77.8902782259623
20
2.48859197519147
30
0
41
1
10
77.9260575383738
20
2.52973654788556
30
0
41
1
10
77.9871652196555
20
2.61801703382207
30
0
41
1
10
78.0129207463246
20
2.66565356485069
30
0
41
1
10
78.0513433347006
20
2.76862758538166
30
0
41
1
10
78.063159792898
20
2.82169365560273
30
0
41
1
10
78.0724477207572
20
2.93092339404825
30
0
41
1
10
78.0697795736554
20
2.98624110701229
30
0
41
1
10
78.0610943925226
20
3.04018869691905
30
0
0
SPLINE
5
DD
100
AcDbEntity
8
1
62
256
6
ByLayer
370
18
48
1
60
0
100
AcDbSpline
70
4
71
3
72
40
73
36
40
0
40
0
40
0
40
0
40
0.250000000000003
40
0.250000000000003
40
0.375000000000003
40
0.375000000000003
40
0.500000000000002
40
0.500000000000002
40
0.562500000000002
40
0.562500000000002
40
0.625000000000002
40
0.625000000000002
40
0.687500000000001
40
0.687500000000001
40
0.718750000000001
40
0.718750000000001
40
0.750000000000001
40
0.750000000000001
40
0.812500000000001
40
0.812500000000001
40
0.843750000000001
40
0.843750000000001
40
0.859375000000001
40
0.859375000000001
40
0.875000000000001
40
0.875000000000001
40
0.890625000000001
40
0.890625000000001
40
0.906250000000001
40
0.906250000000001
40
0.9375
40
0.9375
40
0.96875
40
0.96875
40
1
40
1
40
1
40
1
41
1
10
70.4173789832098
20
2.68100519787612
30
0
41
1
10
70.9256256789635
20
2.30706330240898
30
0
41
1
10
71.4411833250022
20
1.96615611915641
30
0
41
1
10
72.2287032513441
20
1.51888365172488
30
0
41
1
10
72.4935465882328
20
1.38035124318901
30
0
41
1
10
73.0284989967124
20
1.12707978042937
30
0
41
1
10
73.2986039109887
20
1.01232194127533
30
0
41
1
10
73.7084469859965
20
0.861357651743901
30
0
41
1
10
73.8453297318565
20
0.814792114876667
30
0
41
1
10
74.1180719845921
20
0.730269042158113
30
0
41
1
10
74.2541646942019
20
0.692227906599413
30
0
41
1
10
74.5257482830259
20
0.625268525573347
30
0
41
1
10
74.661011633698
20
0.596394382546862
30
0
41
1
10
74.862642265282
20
0.560657582832164
30
0
41
1
10
74.9296450049493
20
0.550005332545112
30
0
41
1
10
75.0630987662018
20
0.531333900969315
30
0
41
1
10
75.1297133111478
20
0.522838612465932
30
0
41
1
10
75.3260811364273
20
0.510715490598727
30
0
41
1
10
75.4524163560629
20
0.516211615592653
30
0
41
1
10
75.6287173267562
20
0.557333044731593
30
0
41
1
10
75.6849522517406
20
0.576631986599807
30
0
41
1
10
75.7616153888661
20
0.616601236164627
30
0
41
1
10
75.7859611206023
20
0.631813513015487
30
0
41
1
10
75.8315703403154
20
0.667055812431499
30
0
41
1
10
75.8525315364585
20
0.687148759180644
30
0
41
1
10
75.8898488780263
20
0.731219737193442
30
0
41
1
10
75.9064578902767
20
0.755233166452001
30
0
41
1
10
75.935353497777
20
0.807431199061341
30
0
41
1
10
75.947696987772
20
0.835830786635199
30
0
41
1
10
75.976959877197
20
0.924879211980766
30
0
41
1
10
75.9865725205073
20
0.990326893938487
30
0
41
1
10
75.9874536225159
20
1.12971039961505
30
0
41
1
10
75.9789413359066
20
1.20139684940045
30
0
41
1
10
75.948362566432
20
1.34778963105336
30
0
41
1
10
75.9261013886912
20
1.42255598701791
30
0
41
1
10
75.8992191426165
20
1.49674842635596
30
0
0
SPLINE
5
DE
100
AcDbEntity
8
SK1
62
256
6
ByLayer
370
18
48
1
60
0
100
AcDbSpline
70
4
71
3
72
8
73
4
40
0
40
0
40
0
40
0
40
1
40
1
40
1
40
1
41
1
10
-44.9144858217227
20
2.20349129854068
30
0
41
1
10
-44.9405726710434
20
2.22935882773072
30
0
41
1
10
-44.9692321311345
20
2.24781776067107
30
0
41
1
10
-45
20
2.2586962602893
30
0
0
SPLINE
5
DF
100
AcDbEntity
8
SK1
62
256
6
ByLayer
370
18
48
1
60
0
100
AcDbSpline
70
4
71
3
72
8
73
4
40
0
40
0
40
0
40
0
40
1
40
1
40
1
40
1
41
1
10
-45
20
0.255439107483568
30
0
41
1
10
-44.813403614718
20
0.169972091038204
30
0
41
1
10
-44.6250189262168
20
0.0847323306083752
30
0
41
1
10
-44.4356589351179
20
-0.0003690099155165
30
0
0
SPLINE
5
E0
100
AcDbEntity
8
SK1
62
256
6
ByLayer
370
18
48
1
60
0
100
AcDbSpline
70
4
71
3
72
14
73
10
40
0
40
0
40
0
40
0
40
0.500000000000004
40
0.500000000000004
40
0.750000000000002
40
0.750000000000002
40
0.875000000000001
40
0.875000000000001
40
1
40
1
40
1
40
1
41
1
10
-43.4
20
0.46179722458308
30
0
41
1
10
-43.3790445776494
20
0.47107420817008
30
0
41
1
10
-43.3587362712601
20
0.486069460388194
30
0
41
1
10
-43.3304966181166
20
0.520076208824605
30
0
41
1
10
-43.3215144183093
20
0.533361020892357
30
0
41
1
10
-43.3103236218556
20
0.557349392469149
30
0
41
1
10
-43.3069030532022
20
0.566211078877899
30
0
41
1
10
-43.3017205322973
20
0.585763639135337
30
0
41
1
10
-43.3
20
0.596484857069441
30
0
41
1
10
-43.3
20
0.607248490839879
30
0
0
SPLINE
5
E1
100
AcDbEntity
8
SK1
62
256
6
ByLayer
370
18
48
1
60
0
100
AcDbSpline
70
4
71
3
72
10
73
6
40
0
40
0
40
0
40
0
40
0.5
40
0.5
40
1
40
1
40
1
40
1
41
1
10
-43.4
20
2.88163483716014
30
0
41
1
10
-43.6546098392415
20
2.76891884126095
30
0
41
1
10
-43.9085982740033
20
2.65611261097644
30
0
41
1
10
-44.4140952600553
20
2.43015712028728
30
0
41
1
10
-44.6656877740945
20
2.31701857205712
30
0
41
1
10
-44.9144858217227
20
2.20349129854068
30
0
0
SPLINE
5
E2
100
AcDbEntity
8
SK1
62
256
6
ByLayer
370
18
48
1
60
0
100
AcDbSpline
70
4
71
3
72
26
73
22
40
0
40
0
40
0
40
0
40
0.125000000000001
40
0.125000000000001
40
0.250000000000001
40
0.250000000000001
40
0.375000000000002
40
0.375000000000002
40
0.437500000000002
40
0.437500000000002
40
0.500000000000002
40
0.500000000000002
40
0.562500000000002
40
0.562500000000002
40
0.625000000000002
40
0.625000000000002
40
0.750000000000001
40
0.750000000000001
40
0.875000000000001
40
0.875000000000001
40
1
40
1
40
1
40
1
41
1
10
-44.9999999999996
20
1.97720272291372
30
0
41
1
10
-44.9540840576389
20
1.98323293191052
30
0
41
1
10
-44.9089798554928
20
1.98967436082725
30
0
41
1
10
-44.8211510138023
20
2.00376268258196
30
0
41
1
10
-44.7783924451423
20
2.01139238725079
30
0
41
1
10
-44.6968616789376
20
2.02867125451468
30
0
41
1
10
-44.6587676761524
20
2.03816484563794
30
0
41
1
10
-44.6108217325466
20
2.05431278428838
30
0
41
1
10
-44.5966434939808
20
2.0599387105618
30
0
41
1
10
-44.573088956379
20
2.07183822541862
30
0
41
1
10
-44.5636202601343
20
2.07821745486004
30
0
41
1
10
-44.5520090998185
20
2.0913061042495
30
0
41
1
10
-44.5498265410753
20
2.09804308686918
30
0
41
1
10
-44.5536552471307
20
2.11149301047268
30
0
41
1
10
-44.5595226576683
20
2.11800982893257
30
0
41
1
10
-44.5875540907842
20
2.13701114763791
30
0
41
1
10
-44.6188134269552
20
2.14814206091114
30
0
41
1
10
-44.6917172772218
20
2.16763290422568
30
0
41
1
10
-44.7330278445799
20
2.17596881968296
30
0
41
1
10
-44.8212124796756
20
2.19102666300256
30
0
41
1
10
-44.8674024104999
20
2.19759153316431
30
0
41
1
10
-44.9144858217227
20
2.20349129854068
30
0
0
SPLINE
5
E3
100
AcDbEntity
8
SK1
62
256
6
ByLayer
370
18
48
1
60
0
100
AcDbSpline
70
4
71
3
72
14
73
10
40
0
40
0
40
0
40
0
40
0.125000000000001
40
0.125000000000001
40
0.250000000000002
40
0.250000000000002
40
0.500000000000004
40
0.500000000000004
40
1
40
1
40
1
40
1
41
1
10
-43.3
20
2.83349909441068
30
0
41
1
10
-43.3
20
2.84328404878798
30
0
41
1
10
-43.3017012565589
20
2.85166133000385
30
0
41
1
10
-43.3069010451287
20
2.86522414445324
30
0
41
1
10
-43.3102603620514
20
2.87034734493761
30
0
41
1
10
-43.3216024497887
20
2.8829598246783
30
0
41
1
10
-43.3304674144333
20
2.8873511258341
30
0
41
1
10
-43.3586594529452
20
2.89445305862114
30
0
41
1
10
-43.3789281721554
20
2.89096335355995
30
0
41
1
10
-43.4
20
2.88163483716014
30
0
0
SPLINE
5
E4
100
AcDbEntity
8
SK1
62
256
6
ByLayer
370
18
48
1
60
0
100
AcDbSpline
70
4
71
3
72
10
73
6
40
0
40
0
40
0
40
0
40
0.5
40
0.5
40
1
40
1
40
1
40
1
41
1
10
-45
20
-0.255439107483568
30
0
41
1
10
-44.7377192756495
20
-0.135306282040659
30
0
41
1
10
-44.4719053575424
20
-0.0156224517830026
30
0
41
1
10
-43.9377266802981
20
0.223340629524927
30
0
41
1
10
-43.6692088236261
20
0.342618245678608
30
0
41
1
10
-43.4
20
0.461797224583165
30
0
0
SPLINE
5
E5
100
AcDbEntity
8
SK1
62
256
6
ByLayer
370
18
48
1
60
0
100
AcDbSpline
70
4
71
3
72
14
73
10
40
0
40
0
40
0
40
0
40
0.25
40
0.25
40
0.5
40
0.5
40
0.75
40
0.75
40
1
40
1
40
1
40
1
41
1
10
-45
20
2.25869626028933
30
0
41
1
10
-45
20
2.26043794585192
30
0
41
1
10
-45
20
2.25559407190005
30
0
41
1
10
-45
20
2.23254371212269
30
0
41
1
10
-45
20
2.21436124791055
30
0
41
1
10
-45
20
2.16615126292646
30
0
41
1
10
-45
20
2.13556920226634
30
0
41
1
10
-45
20
2.06379739608966
30
0
41
1
10
-45
20
2.02296655597064
30
0
41
1
10
-45
20
1.97720272291383
30
0
0
LINE
5
76
100
AcDbEntity
8
81
62
256
6
ByLayer
370
18
48
1
60
0
100
AcDbLine
10
79
20
0
30
0
11
84
21
0
31
0
39
0
210
0
220
0
230
1
0
LINE
5
77
100
AcDbEntity
8
1
62
256
6
ByLayer
370
18
48
1
60
0
100
AcDbLine
10
4.65154
20
6.15664
30
0
11
1.411308
21
6.154696
31
0
39
0
210
0
220
0
230
1
0
LINE
5
79
100
AcDbEntity
8
1
62
256
6
ByLayer
370
18
48
1
60
0
100
AcDbLine
10
40.0517
20
6.17788
30
0
11
39.088959
21
6.177303
31
0
39
0
210
0
220
0
230
1
0
LINE
5
7A
100
AcDbEntity
8
1
62
256
6
ByLayer
370
18
48
1
60
0
100
AcDbLine
10
75.452993
20
6.199121
30
0
11
74.499652
21
6.198549
31
0
39
0
210
0
220
0
230
1
0
LINE
5
7B
100
AcDbEntity
8
1
62
256
6
ByLayer
370
18
48
1
60
0
100
AcDbLine
10
74.499652
20
-6.198549
30
0
11
75.452546
21
-6.199121
31
0
39
0
210
0
220
0
230
1
0
LINE
5
7C
100
AcDbEntity
8
1
62
256
6
ByLayer
370
18
48
1
60
0
100
AcDbLine
10
39.088959
20
-6.177303
30
0
11
40.051856
21
-6.17788
31
0
39
0
210
0
220
0
230
1
0
LINE
5
7D
100
AcDbEntity
8
1
62
256
6
ByLayer
370
18
48
1
60
0
100
AcDbLine
10
1.411308
20
-6.154696
30
0
11
4.651595
21
-6.15664
31
0
39
0
210
0
220
0
230
1
0
LINE
5
7E
100
AcDbEntity
8
SK1
62
256
6
ByLayer
370
18
48
1
60
0
100
AcDbLine
10
0
20
7
30
0
11
-43.267949
21
7
31
0
39
0
210
0
220
0
230
1
0
LINE
5
80
100
AcDbEntity
8
SK1
62
256
6
ByLayer
370
18
48
1
60
0
100
AcDbLine
10
-43.267949
20
-7
30
0
11
0
21
-7
31
0
39
0
210
0
220
0
230
1
0
LINE
5
81
100
AcDbEntity
8
SK1
62
256
6
ByLayer
370
18
48
1
60
0
100
AcDbLine
10
-43.267949
20
7
30
0
11
-45
21
4
31
0
39
0
210
0
220
0
230
1
0
LINE
5
82
100
AcDbEntity
8
SK1
62
256
6
ByLayer
370
18
48
1
60
0
100
AcDbLine
10
-45
20
-4
30
0
11
-43.267949
21
-7
31
0
39
0
210
0
220
0
230
1
0
LINE
5
83
100
AcDbEntity
8
SK4
62
256
6
ByLayer
370
18
48
0.05
60
0
100
AcDbLine
10
84
20
0
30
0
11
-50
21
0
31
0
39
0
210
0
220
0
230
1
0
LINE
5
85
100
AcDbEntity
8
4
62
256
6
ByLayer
370
18
48
0.05
60
0
100
AcDbLine
10
79
20
0
30
0
11
0
21
0
31
0
39
0
210
0
220
0
230
1
0
LINE
5
87
100
AcDbEntity
8
80
62
256
6
ByLayer
370
18
48
1
60
0
100
AcDbLine
10
0
20
0
30
0
11
-5
21
0
31
0
39
0
210
0
220
0
230
1
0
LINE
5
88
100
AcDbEntity
8
1
62
256
6
ByLayer
370
18
48
1
60
0
100
AcDbLine
10
79
20
0
30
0
11
78.986936
21
-0.05861
31
0
39
0
210
0
220
0
230
1
0
LINE
5
89
100
AcDbEntity
8
1
62
256
6
ByLayer
370
13
48
1
60
0
100
AcDbLine
10
77.303878
20
1.11003
30
0
11
78.907859
21
0.315865
31
0
39
0
210
0
220
0
230
1
0
LINE
5
8A
100
AcDbEntity
8
1
62
256
6
ByLayer
370
18
48
1
60
0
100
AcDbLine
10
75.877762
20
-3.469318
30
0
11
78.894109
21
-0.107654
31
0
39
0
210
0
220
0
230
1
0
LINE
5
8B
100
AcDbEntity
8
1
62
256
6
ByLayer
370
18
48
1
60
0
100
AcDbLine
10
78.986936
20
0.05861
30
0
11
79
21
0
31
0
39
0
210
0
220
0
230
1
0
LINE
5
8C
100
AcDbEntity
8
1
62
256
6
ByLayer
370
18
48
1
60
0
100
AcDbLine
10
0
20
-7
30
0
11
0
21
7
31
0
39
0
210
0
220
0
230
1
0
LINE
5
8D
100
AcDbEntity
8
1
62
256
6
ByLayer
370
18
48
1
60
0
100
AcDbLine
10
78.907859
20
0.315865
30
0
11
78.692746
21
1.11003
31
0
39
0
210
0
220
0
230
1
0
LINE
5
8E
100
AcDbEntity
8
1
62
256
6
ByLayer
370
13
48
1
60
0
100
AcDbLine
10
77.134419
20
0.763606
30
0
11
78.894109
21
-0.107654
31
0
39
0
210
0
220
0
230
1
0
LINE
5
8F
100
AcDbEntity
8
1
62
256
6
ByLayer
370
18
48
1
60
0
100
AcDbLine
10
78.907859
20
-0.315865
30
0
11
78.692746
21
-1.11003
31
0
39
0
210
0
220
0
230
1
0
LINE
5
90
100
AcDbEntity
8
1
62
256
6
ByLayer
370
13
48
1
60
0
100
AcDbLine
10
78.692746
20
1.11003
30
0
11
77.303878
21
1.11003
31
0
39
0
210
0
220
0
230
1
0
LINE
5
91
100
AcDbEntity
8
1
62
256
6
ByLayer
370
18
48
1
60
0
100
AcDbLine
10
79
20
0
30
0
11
76.84277
21
-5.926939
31
0
39
0
210
0
220
0
230
1
0
LINE
5
92
100
AcDbEntity
8
1
62
256
6
ByLayer
370
13
48
1
60
0
100
AcDbLine
10
1.411308
20
6.154696
30
0
11
1.411308
21
-6.154696
31
0
39
0
210
0
220
0
230
1
0
LINE
5
93
100
AcDbEntity
8
1
62
256
6
ByLayer
370
13
48
1
60
0
100
AcDbLine
10
0.705414
20
6.577348
30
0
11
0.705414
21
-6.577348
31
0
39
0
210
0
220
0
230
1
0
LINE
5
94
100
AcDbEntity
8
SK1
62
256
6
ByLayer
370
13
48
1
60
0
100
AcDbLine
10
-43.4
20
2.881635
30
0
11
-43.4
21
0.461826
31
0
39
0
210
0
220
0
230
1
0
LINE
5
95
100
AcDbEntity
8
SK1
62
256
6
ByLayer
370
18
48
1
60
0
100
AcDbLine
10
-43.267949
20
7
30
0
11
-43.267949
21
-7
31
0
39
0
210
0
220
0
230
1
0
LINE
5
96
100
AcDbEntity
8
SK1
62
256
6
ByLayer
370
18
48
1
60
0
100
AcDbLine
10
-45
20
1.977203
30
0
11
-45
21
0.255439
31
0
39
0
210
0
220
0
230
1
0
LINE
5
97
100
AcDbEntity
8
SK1
62
256
6
ByLayer
370
18
48
1
60
0
100
AcDbLine
10
-43.3
20
0.607248
30
0
11
-43.3
21
2.833499
31
0
39
0
210
0
220
0
230
1
0
LINE
5
98
100
AcDbEntity
8
SK1
62
256
6
ByLayer
370
18
48
1
60
0
100
AcDbLine
10
-45
20
-0.255439
30
0
11
-45
21
-4
31
0
39
0
210
0
220
0
230
1
0
LINE
5
99
100
AcDbEntity
8
SK1
62
256
6
ByLayer
370
18
48
1
60
0
100
AcDbLine
10
-45
20
4
30
0
11
-45
21
2.258696
31
0
39
0
210
0
220
0
230
1
0
LINE
5
9A
100
AcDbEntity
8
SK1
62
256
6
ByLayer
370
18
48
1
60
0
100
AcDbLine
10
0
20
-7
30
0
11
0
21
7
31
0
39
0
210
0
220
0
230
1
0
MTEXT
5
E6
100
AcDbEntity
8
SK6
62
256
6
ByLayer
370
13
48
1
60
0
100
AcDbMText
10
19.129169
20
38.582694
30
0
210
0
220
0
230
1
1
\W0.7470;R840-1240-50-A1A1220
40
3.5
41
0
44
1.084337
50
0
71
8
72
5
7
iso_b_vert
0
DIMENSION
5
F3
100
AcDbEntity
8
SK2
62
256
6
ByLayer
370
13
48
1
60
0
100
AcDbDimension
2
DimnDraft3D1
10
76.87
20
-16.413398
30
0
11
36.620059
21
-16.413398
31
0
70
32
71
5
72
1
41
1
210
0
220
0
230
1
3
Standard
100
AcDbAlignedDimension
13
0
23
-1.5875
33
0
14
76.87
24
-7.7875
34
0
50
0
100
AcDbRotatedDimension
1001
ACAD
1000
DSTYLE
1002
{
1070
   279
1070
     0
1070
   172
1070
     1
1070
   173
1070
     1
1070
   340
1005
E7
1070
   271
1070
     2
1070
   272
1070
     2
1070
    77
1070
     1
1070
    73
1070
     0
1070
   171
1070
     3
1070
   274
1070
     4
1070
   177
1070
    35
1070
   176
1070
    35
1070
   178
1070
    35
1070
    48
1040
-0.005
1070
    41
1041
3.5
1070
   147
1041
1.75
1070
    42
1041
1.5875
1070
    44
1041
2.0
1070
   140
1041
3.5
1070
   343
1005
0
1070
   344
1005
0
1002
}
0
DIMENSION
5
FD
100
AcDbEntity
8
SK2
62
256
6
ByLayer
370
13
48
1
60
0
100
AcDbDimension
2
DimnDraft3D2
10
79
20
-35.692985
30
0
11
16.2113
21
-35.692985
31
0
70
32
71
5
72
1
41
1
210
0
220
0
230
1
3
Standard
100
AcDbAlignedDimension
13
-45
23
-8.5875
33
0
14
79
24
-1.5875
34
0
50
0
100
AcDbRotatedDimension
1001
ACAD
1000
DSTYLE
1002
{
1070
   279
1070
     0
1070
   172
1070
     1
1070
   173
1070
     1
1070
   340
1005
E7
1070
   271
1070
     2
1070
   272
1070
     2
1070
    77
1070
     1
1070
    73
1070
     0
1070
   171
1070
     3
1070
   274
1070
     4
1070
   177
1070
    35
1070
   176
1070
    35
1070
   178
1070
    35
1070
    48
1040
-0.005
1070
    41
1041
3.5
1070
   147
1041
1.75
1070
    42
1041
1.5875
1070
    44
1041
2.0
1070
   140
1041
3.5
1070
   343
1005
0
1070
   344
1005
0
1002
}
0
DIMENSION
5
107
100
AcDbEntity
8
SK2
62
256
6
ByLayer
370
13
48
1
60
0
100
AcDbDimension
2
DimnDraft3D3
10
79
20
17.809119
30
0
11
46.935
21
17.809119
31
0
70
32
71
5
72
1
41
1
210
0
220
0
230
1
3
Standard
100
AcDbAlignedDimension
13
14.87
23
7.7875
33
0
14
79
24
1.5875
34
0
50
0
100
AcDbRotatedDimension
1001
ACAD
1000
DSTYLE
1002
{
1070
   279
1070
     0
1070
   172
1070
     1
1070
   173
1070
     1
1070
   340
1005
E7
1070
   271
1070
     2
1070
   272
1070
     2
1070
    77
1070
     1
1070
    73
1070
     0
1070
   171
1070
     3
1070
   274
1070
     4
1070
   177
1070
    35
1070
   176
1070
    35
1070
   178
1070
    35
1070
    48
1040
-0.005
1070
    41
1041
3.5
1070
   147
1041
1.75
1070
    42
1041
1.5875
1070
    44
1041
2.0
1070
   140
1041
3.5
1070
   343
1005
0
1070
   344
1005
0
1002
}
0
DIMENSION
5
111
100
AcDbEntity
8
SK2
62
256
6
ByLayer
370
13
48
1
60
0
100
AcDbDimension
2
DimnDraft3D4
10
76.87
20
-19.002503
30
0
11
88.981425
21
-19.002503
31
0
70
32
71
5
72
1
41
1
210
0
220
0
230
1
3
Standard
100
AcDbAlignedDimension
13
79
23
-1.5875
33
0
14
76.87
24
-7.7875
34
0
50
0
100
AcDbRotatedDimension
1001
ACAD
1000
DSTYLE
1002
{
1070
   279
1070
     0
1070
   172
1070
     1
1070
   173
1070
     1
1070
   340
1005
E7
1070
   271
1070
     2
1070
   272
1070
     2
1070
    77
1070
     1
1070
    73
1070
     0
1070
   171
1070
     3
1070
   274
1070
     4
1070
   177
1070
    35
1070
   176
1070
    35
1070
   178
1070
    35
1070
    48
1040
-0.005
1070
    41
1041
3.5
1070
   147
1041
1.75
1070
    42
1041
1.5875
1070
    44
1041
2.0
1070
   140
1041
3.5
1070
   343
1005
0
1070
   344
1005
0
1002
}
0
DIMENSION
5
11B
100
AcDbEntity
8
SK2
62
256
6
ByLayer
370
13
48
1
60
0
100
AcDbDimension
2
DimnDraft3D5
10
76.87
20
-25.343428
30
0
11
13.130676
21
-25.343428
31
0
70
32
71
5
72
1
41
1
210
0
220
0
230
1
3
Standard
100
AcDbAlignedDimension
13
-45
23
-8.5875
33
0
14
76.87
24
-7.7875
34
0
50
0
100
AcDbRotatedDimension
1001
ACAD
1000
DSTYLE
1002
{
1070
   279
1070
     0
1070
   172
1070
     1
1070
   173
1070
     1
1070
   340
1005
E7
1070
   271
1070
     2
1070
   272
1070
     2
1070
    77
1070
     1
1070
    73
1070
     0
1070
   171
1070
     3
1070
   274
1070
     4
1070
   177
1070
    35
1070
   176
1070
    35
1070
   178
1070
    35
1070
    48
1040
-0.005
1070
    41
1041
3.5
1070
   147
1041
1.75
1070
    42
1041
1.5875
1070
    44
1041
2.0
1070
   140
1041
3.5
1070
   343
1005
0
1070
   344
1005
0
1002
}
0
DIMENSION
5
126
100
AcDbEntity
8
SK2
62
256
6
ByLayer
370
13
48
1
60
0
100
AcDbDimension
2
DimnDraft3D6
10
-55.625163
20
7
30
0
11
-56.250163
21
25.47418
31
0
70
33
71
5
72
1
41
1
210
0
220
0
230
1
3
Standard
100
AcDbAlignedDimension
13
-46.5875
23
-7
33
0
14
-46.5875
24
7
34
0
1001
ACAD
1000
DSTYLE
1002
{
1070
   279
1070
     0
1070
    74
1070
     0
1070
   173
1070
     1
1070
   340
1005
E7
1070
   271
1070
     3
1070
   272
1070
     2
1070
    77
1070
     1
1070
    73
1070
     0
1070
   171
1070
     3
1070
   274
1070
     4
1070
   177
1070
    35
1070
   176
1070
    35
1070
   178
1070
    35
1070
    48
1040
-0.005
1070
    41
1041
3.5
1070
   147
1041
1.75
1070
    42
1041
1.5875
1070
    44
1041
2.0
1070
   140
1041
3.5
1070
   343
1005
0
1070
   344
1005
0
1002
}
0
DIMENSION
5
131
100
AcDbEntity
8
2
62
256
6
ByLayer
370
13
48
1
60
0
100
AcDbDimension
2
DimnDraft3D7
10
93.083343
20
6.2
30
0
11
88.458343
21
23.267266
31
0
70
33
71
5
72
1
41
1
210
0
220
0
230
1
3
Standard
100
AcDbAlignedDimension
13
78.4575
23
-6.2
33
0
14
78.4575
24
6.2
34
0
1001
ACAD
1000
DSTYLE
1002
{
1070
   279
1070
     0
1070
    74
1070
     0
1070
   173
1070
     1
1070
   340
1005
E7
1070
   271
1070
     3
1070
   272
1070
     2
1070
    77
1070
     1
1070
    73
1070
     0
1070
   171
1070
     3
1070
   274
1070
     4
1070
   177
1070
    35
1070
   176
1070
    35
1070
   178
1070
    35
1070
    48
1040
-0.005
1070
    41
1041
3.5
1070
   147
1041
1.75
1070
    42
1041
1.5875
1070
    44
1041
2.0
1070
   140
1041
3.5
1070
   343
1005
0
1070
   344
1005
0
1002
}
0
ENDSEC
0
SECTION
2
OBJECTS
0
DICTIONARY
5
19c
330
0
100
AcDbDictionary
280
0
281
1
3
ACAD_GROUP
350
19d
3
ACAD_MLINESTYLE
350
19e
0
DICTIONARY
5
19d
330
0
100
AcDbDictionary
280
0
281
1
0
DICTIONARY
5
19e
330
0
100
AcDbDictionary
280
0
281
1
3
Standard
350
18
0
MLINESTYLE
5
18
330
19e
100
AcDbMlineStyle
2
Standard
70
0
3

62
256
51
90
52
90
71
2
49
-0.5
62
256
6
ByLayer
49
0.5
62
256
6
ByLayer
0
RASTERVARIABLES
5
18a
330

100
AcDbRasterVariables
90
0
70
1
71
1
72
1
0
ENDSEC
0
EOF
