0
SECTION
2
HEADER
9
$ACADVER
1
AC1015
9
$DWGCODEPAGE
3
ANSI_1252
9
$HANDSEED
5
1a9
9
$ANGBASE
50
0
9
$ANGDIR
70
0
9
$ATTMODE
70
1
9
$AUNITS
70
0
9
$AUPREC
70
0
9
$CECOLOR
62
256
9
$CELTSCALE
40
1
9
$CELTYPE
6
ByLayer
9
$CELWEIGHT
370
18
9
$CLAYER
8
0
9
$CMLJUST
70
0
9
$CMLSCALE
40
1
9
$CMLSTYLE
2
Standard
9
$DIMSTYLE
2
Standard
9
$TEXTSIZE
40
0.2
9
$TEXTSTYLE
7
Standard
9
$LUNITS
70
2
9
$LUPREC
70
4
9
$EXTNAMES
290
1
9
$INSUNITS
70
4
9
$LTSCALE
40
1
9
$LWDISPLAY
290
1
9
$PDMODE
70
0
9
$PDSIZE
40
0
9
$PLINEGEN
70
0
0
ENDSEC
0
SECTION
2
CLASSES
0
CLASS
1
RASTERVARIABLES
2
AcDbRasterVariables
3
ISM
90
0
280
0
281
0
0
ENDSEC
0
SECTION
2
TABLES
0
TABLE
2
VPORT
5
19f
100
AcDbSymbolTable
0
VPORT
5
1
100
AcDbSymbolTableRecord
100
AcDbViewportTableRecord
2
*Active
70
0
10
0
20
0
11
1
21
1
12
-1
22
1
13
0
23
0
14
0.5
24
0.5
15
10
25
10
16
0
26
0
36
1
17
0
27
0
37
0
0
ENDTAB
0
TABLE
2
LTYPE
5
1a0
100
AcDbSymbolTable
0
LTYPE
5
14
100
AcDbSymbolTableRecord
100
AcDbLinetypeTableRecord
70
0
2
ByBlock
3

72
65
73
0
40
0
0
LTYPE
5
15
100
AcDbSymbolTableRecord
100
AcDbLinetypeTableRecord
70
0
2
ByLayer
3

72
65
73
0
40
0
0
LTYPE
5
16
100
AcDbSymbolTableRecord
100
AcDbLinetypeTableRecord
70
0
2
CONTINUOUS
3
Solid line
72
65
73
0
40
0
0
LTYPE
5
6A
100
AcDbSymbolTableRecord
100
AcDbLinetypeTableRecord
70
0
2
CENTER
3
____ _ ____ _ ____ _ ____
72
65
73
4
40
47.5
49
22
74
0
49
-8.5
74
0
49
8.5
74
0
49
-8.5
74
0
0
LTYPE
5
6B
100
AcDbSymbolTableRecord
100
AcDbLinetypeTableRecord
70
0
2
DASHED
3
__ __ __ __ __ __ __ __ __
72
65
73
2
40
25.72
49
12.86
74
0
49
-12.86
74
0
0
ENDTAB
0
TABLE
2
LAYER
5
1a1
100
AcDbSymbolTable
0
LAYER
5
10
100
AcDbSymbolTableRecord
100
AcDbLayerTableRecord
2
0
70
0
62
7
6
CONTINUOUS
290
1
370
-3
390
0
0
LAYER
5
6D
100
AcDbSymbolTableRecord
100
AcDbLayerTableRecord
2
81
70
0
62
-3
6
CONTINUOUS
290
1
370
-3
390
0
0
LAYER
5
6F
100
AcDbSymbolTableRecord
100
AcDbLayerTableRecord
2
80
70
0
62
-6
6
CONTINUOUS
290
1
370
-3
390
0
0
LAYER
5
74
100
AcDbSymbolTableRecord
100
AcDbLayerTableRecord
2
2
70
0
62
7
6
CONTINUOUS
290
1
370
-3
390
0
0
LAYER
5
78
100
AcDbSymbolTableRecord
100
AcDbLayerTableRecord
2
1
70
0
62
4
6
CONTINUOUS
290
1
370
-3
390
0
0
LAYER
5
86
100
AcDbSymbolTableRecord
100
AcDbLayerTableRecord
2
4
70
0
62
-2
6
CENTER
290
1
370
-3
390
0
0
LAYER
5
18b
100
AcDbSymbolTableRecord
100
AcDbLayerTableRecord
2
SK2
70
0
62
7
6
CONTINUOUS
290
1
370
-3
390
0
0
LAYER
5
18c
100
AcDbSymbolTableRecord
100
AcDbLayerTableRecord
2
SK1
70
0
62
4
6
CONTINUOUS
290
1
370
-3
390
0
0
LAYER
5
18d
100
AcDbSymbolTableRecord
100
AcDbLayerTableRecord
2
SK4
70
0
62
2
6
CENTER
290
1
370
-3
390
0
0
LAYER
5
18e
100
AcDbSymbolTableRecord
100
AcDbLayerTableRecord
2
SK6
70
0
62
5
6
CONTINUOUS
290
1
370
-3
390
0
0
ENDTAB
0
TABLE
2
STYLE
5
1a2
100
AcDbSymbolTable
0
STYLE
5
11
100
AcDbSymbolTableRecord
100
AcDbTextStyleTableRecord
2
Standard
3
txt
70
0
71
0
40
0
41
1
42
0
50
0
0
STYLE
5
E7
100
AcDbSymbolTableRecord
100
AcDbTextStyleTableRecord
2
iso_b_vert
3
simplex.shx
70
0
71
0
40
0
41
1
42
0
50
0
0
STYLE
5
E8
100
AcDbSymbolTableRecord
100
AcDbTextStyleTableRecord
2
DWGDirectTextStyle
3
simplex
70
0
71
0
40
0
41
1
42
0
50
0
0
ENDTAB
0
TABLE
2
DIMSTYLE
5
1a3
100
AcDbSymbolTable
100
AcDbDimStyleTable
0
DIMSTYLE
105
27
100
AcDbSymbolTableRecord
100
AcDbDimStyleTableRecord
2
Standard
70
0
3
<>
41
0.18
42
0.0625
44
0.18
140
0.18
147
0.09
73
0
74
0
77
1
271
2
275
0
278
52
280
0
340
11
0
ENDTAB
0
TABLE
2
VIEW
5
1a4
100
AcDbSymbolTable
0
ENDTAB
0
TABLE
2
UCS
5
1a5
100
AcDbSymbolTable
0
ENDTAB
0
TABLE
2
APPID
5
1a6
100
AcDbSymbolTable
0
APPID
5
12
100
AcDbSymbolTableRecord
100
AcDbRegAppTableRecord
2
ACAD
70
0
0
ENDTAB
0
TABLE
2
BLOCK_RECORD
5
1a7
100
AcDbSymbolTable
0
BLOCK_RECORD
5
1F
100
AcDbSymbolTableRecord
100
AcDbBlockTableRecord
2
*Model_Space
340
0
70
0
0
BLOCK_RECORD
5
1B
100
AcDbSymbolTableRecord
100
AcDbBlockTableRecord
2
*Paper_Space
340
0
70
0
0
BLOCK_RECORD
5
23
100
AcDbSymbolTableRecord
100
AcDbBlockTableRecord
2
*Paper_Space0
340
0
70
0
0
BLOCK_RECORD
5
EA
100
AcDbSymbolTableRecord
100
AcDbBlockTableRecord
2
DimnDraft3D1
340
0
70
0
0
BLOCK_RECORD
5
F4
100
AcDbSymbolTableRecord
100
AcDbBlockTableRecord
2
DimnDraft3D2
340
0
70
0
0
BLOCK_RECORD
5
FE
100
AcDbSymbolTableRecord
100
AcDbBlockTableRecord
2
DimnDraft3D3
340
0
70
0
0
BLOCK_RECORD
5
108
100
AcDbSymbolTableRecord
100
AcDbBlockTableRecord
2
DimnDraft3D4
340
0
70
0
0
BLOCK_RECORD
5
112
100
AcDbSymbolTableRecord
100
AcDbBlockTableRecord
2
DimnDraft3D5
340
0
70
0
0
BLOCK_RECORD
5
11C
100
AcDbSymbolTableRecord
100
AcDbBlockTableRecord
2
DimnDraft3D6
340
0
70
0
0
BLOCK_RECORD
5
127
100
AcDbSymbolTableRecord
100
AcDbBlockTableRecord
2
DimnDraft3D7
340
0
70
0
0
ENDTAB
0
ENDSEC
0
SECTION
2
BLOCKS
0
BLOCK
5
20
100
AcDbEntity
8
0
100
AcDbBlockBegin
2
*Model_Space
70
0
10
0
20
0
30
0
3
*Model_Space
0
ENDBLK
5
21
100
AcDbEntity
8
0
100
AcDbBlockEnd
0
BLOCK
5
1C
100
AcDbEntity
8
0
100
AcDbBlockBegin
2
*Paper_Space
70
0
10
0
20
0
30
0
3
*Paper_Space
0
ENDBLK
5
1D
100
AcDbEntity
8
0
100
AcDbBlockEnd
0
BLOCK
5
24
100
AcDbEntity
8
0
100
AcDbBlockBegin
2
*Paper_Space0
70
0
10
0
20
0
30
0
3
*Paper_Space0
0
ENDBLK
5
25
100
AcDbEntity
8
0
100
AcDbBlockEnd
0
BLOCK
5
F1
100
AcDbEntity
8
0
100
AcDbBlockBegin
2
DimnDraft3D1
70
0
10
0
20
0
30
0
3
DimnDraft3D1
0
MTEXT
5
EB
100
AcDbEntity
8
SK2
62
256
6
ByLayer
370
13
48
1
60
0
100
AcDbMText
10
32.191375
20
-15.488398
30
0
210
0
220
0
230
1
1
\W0.7402;76,89
40
3.5
41
0
44
1.084337
50
0
71
7
72
5
7
iso_b_vert
0
LINE
5
EC
100
AcDbEntity
8
SK2
62
256
6
ByLayer
370
13
48
1
60
0
100
AcDbLine
10
0
20
-1.5875
30
0
11
0
21
-18.363398
31
0
39
0
210
0
220
0
230
1
0
LINE
5
ED
100
AcDbEntity
8
SK2
62
256
6
ByLayer
370
13
48
1
60
0
100
AcDbLine
10
76.89
20
-7.7375
30
0
11
76.89
21
-18.363398
31
0
39
0
210
0
220
0
230
1
0
LINE
5
EE
100
AcDbEntity
8
SK2
62
256
6
ByLayer
370
13
48
1
60
0
100
AcDbLine
10
0
20
-16.363398
30
0
11
76.89
21
-16.363398
31
0
39
0
210
0
220
0
230
1
0
SOLID
5
EF
100
AcDbEntity
8
SK2
62
256
6
ByLayer
370
13
48
1
60
0
100
AcDbTrace
10
0
20
-16.363398
30
0
11
3.499998
21
-15.902615
31
0
12
3.500002
22
-16.824182
32
0
13
0
23
-16.363398
33
0
39
0
210
0
220
0
230
1
0
SOLID
5
F0
100
AcDbEntity
8
SK2
62
256
6
ByLayer
370
13
48
1
60
0
100
AcDbTrace
10
76.89
20
-16.363398
30
0
11
73.390002
21
-16.824182
31
0
12
73.389998
22
-15.902615
32
0
13
76.89
23
-16.363398
33
0
39
0
210
0
220
0
230
1
0
ENDBLK
5
F2
100
AcDbEntity
8
0
100
AcDbBlockEnd
0
BLOCK
5
FB
100
AcDbEntity
8
0
100
AcDbBlockBegin
2
DimnDraft3D2
70
0
10
0
20
0
30
0
3
DimnDraft3D2
0
MTEXT
5
F5
100
AcDbEntity
8
SK2
62
256
6
ByLayer
370
13
48
1
60
0
100
AcDbMText
10
10.728011
20
-34.817985
30
0
210
0
220
0
230
1
1
\W0.7145;124,00
40
3.5
41
0
44
1.084337
50
0
71
7
72
5
7
iso_b_vert
0
LINE
5
F6
100
AcDbEntity
8
SK2
62
256
6
ByLayer
370
13
48
1
60
0
100
AcDbLine
10
-45
20
-8.5875
30
0
11
-45
21
-37.692985
31
0
39
0
210
0
220
0
230
1
0
LINE
5
F7
100
AcDbEntity
8
SK2
62
256
6
ByLayer
370
13
48
1
60
0
100
AcDbLine
10
79
20
-1.5875
30
0
11
79
21
-37.692985
31
0
39
0
210
0
220
0
230
1
0
LINE
5
F8
100
AcDbEntity
8
SK2
62
256
6
ByLayer
370
13
48
1
60
0
100
AcDbLine
10
-45
20
-35.692985
30
0
11
79
21
-35.692985
31
0
39
0
210
0
220
0
230
1
0
SOLID
5
F9
100
AcDbEntity
8
SK2
62
256
6
ByLayer
370
13
48
1
60
0
100
AcDbTrace
10
-45
20
-35.692985
30
0
11
-41.500002
21
-35.232202
31
0
12
-41.499998
22
-36.153769
32
0
13
-45
23
-35.692985
33
0
39
0
210
0
220
0
230
1
0
SOLID
5
FA
100
AcDbEntity
8
SK2
62
256
6
ByLayer
370
13
48
1
60
0
100
AcDbTrace
10
79
20
-35.692985
30
0
11
75.500002
21
-36.153769
31
0
12
75.499998
22
-35.232202
32
0
13
79
23
-35.692985
33
0
39
0
210
0
220
0
230
1
0
ENDBLK
5
FC
100
AcDbEntity
8
0
100
AcDbBlockEnd
0
BLOCK
5
105
100
AcDbEntity
8
0
100
AcDbBlockBegin
2
DimnDraft3D3
70
0
10
0
20
0
30
0
3
DimnDraft3D3
0
MTEXT
5
FF
100
AcDbEntity
8
SK2
62
256
6
ByLayer
370
13
48
1
60
0
100
AcDbMText
10
43.183816
20
18.634119
30
0
210
0
220
0
230
1
1
\W0.7211;63,61
40
3.5
41
0
44
1.084337
50
0
71
7
72
5
7
iso_b_vert
0
LINE
5
100
100
AcDbEntity
8
SK2
62
256
6
ByLayer
370
13
48
1
60
0
100
AcDbLine
10
15.39
20
7.7375
30
0
11
15.39
21
19.759119
31
0
39
0
210
0
220
0
230
1
0
LINE
5
101
100
AcDbEntity
8
SK2
62
256
6
ByLayer
370
13
48
1
60
0
100
AcDbLine
10
79
20
1.5875
30
0
11
79
21
19.759119
31
0
39
0
210
0
220
0
230
1
0
LINE
5
102
100
AcDbEntity
8
SK2
62
256
6
ByLayer
370
13
48
1
60
0
100
AcDbLine
10
15.39
20
17.759119
30
0
11
79
21
17.759119
31
0
39
0
210
0
220
0
230
1
0
SOLID
5
103
100
AcDbEntity
8
SK2
62
256
6
ByLayer
370
13
48
1
60
0
100
AcDbTrace
10
15.39
20
17.759119
30
0
11
18.889998
21
18.219903
31
0
12
18.890002
22
17.298335
32
0
13
15.39
23
17.759119
33
0
39
0
210
0
220
0
230
1
0
SOLID
5
104
100
AcDbEntity
8
SK2
62
256
6
ByLayer
370
13
48
1
60
0
100
AcDbTrace
10
79
20
17.759119
30
0
11
75.500002
21
17.298335
31
0
12
75.499998
22
18.219903
32
0
13
79
23
17.759119
33
0
39
0
210
0
220
0
230
1
0
ENDBLK
5
106
100
AcDbEntity
8
0
100
AcDbBlockEnd
0
BLOCK
5
10F
100
AcDbEntity
8
0
100
AcDbBlockBegin
2
DimnDraft3D4
70
0
10
0
20
0
30
0
3
DimnDraft3D4
0
MTEXT
5
109
100
AcDbEntity
8
SK2
62
256
6
ByLayer
370
13
48
1
60
0
100
AcDbMText
10
86.715636
20
-18.077503
30
0
210
0
220
0
230
1
1
\W0.6132;2,11
40
3.5
41
0
44
1.084337
50
0
71
7
72
5
7
iso_b_vert
0
LINE
5
10A
100
AcDbEntity
8
SK2
62
256
6
ByLayer
370
13
48
1
60
0
100
AcDbLine
10
79
20
-1.5875
30
0
11
79
21
-20.952503
31
0
39
0
210
0
220
0
230
1
0
LINE
5
10B
100
AcDbEntity
8
SK2
62
256
6
ByLayer
370
13
48
1
60
0
100
AcDbLine
10
76.89
20
-7.7375
30
0
11
76.89
21
-20.952503
31
0
39
0
210
0
220
0
230
1
0
LINE
5
10C
100
AcDbEntity
8
SK2
62
256
6
ByLayer
370
13
48
1
60
0
100
AcDbLine
10
68.14
20
-18.952503
30
0
11
92.122215
21
-18.952503
31
0
39
0
210
0
220
0
230
1
0
SOLID
5
10D
100
AcDbEntity
8
SK2
62
256
6
ByLayer
370
13
48
1
60
0
100
AcDbTrace
10
79
20
-18.952503
30
0
11
82.499998
21
-18.491719
31
0
12
82.500002
22
-19.413287
32
0
13
79
23
-18.952503
33
0
39
0
210
0
220
0
230
1
0
SOLID
5
10E
100
AcDbEntity
8
SK2
62
256
6
ByLayer
370
13
48
1
60
0
100
AcDbTrace
10
76.89
20
-18.952503
30
0
11
73.390002
21
-19.413287
31
0
12
73.389998
22
-18.491719
32
0
13
76.89
23
-18.952503
33
0
39
0
210
0
220
0
230
1
0
ENDBLK
5
110
100
AcDbEntity
8
0
100
AcDbBlockEnd
0
BLOCK
5
119
100
AcDbEntity
8
0
100
AcDbBlockBegin
2
DimnDraft3D5
70
0
10
0
20
0
30
0
3
DimnDraft3D5
0
MTEXT
5
113
100
AcDbEntity
8
SK2
62
256
6
ByLayer
370
13
48
1
60
0
100
AcDbMText
10
8.269097
20
-24.468428
30
0
210
0
220
0
230
1
1
\W0.6501;121,89
40
3.5
41
0
44
1.084337
50
0
71
7
72
5
7
iso_b_vert
0
LINE
5
114
100
AcDbEntity
8
SK2
62
256
6
ByLayer
370
13
48
1
60
0
100
AcDbLine
10
-45
20
-8.5875
30
0
11
-45
21
-27.343428
31
0
39
0
210
0
220
0
230
1
0
LINE
5
115
100
AcDbEntity
8
SK2
62
256
6
ByLayer
370
13
48
1
60
0
100
AcDbLine
10
76.89
20
-7.7375
30
0
11
76.89
21
-27.343428
31
0
39
0
210
0
220
0
230
1
0
LINE
5
116
100
AcDbEntity
8
SK2
62
256
6
ByLayer
370
13
48
1
60
0
100
AcDbLine
10
-45
20
-25.343428
30
0
11
76.89
21
-25.343428
31
0
39
0
210
0
220
0
230
1
0
SOLID
5
117
100
AcDbEntity
8
SK2
62
256
6
ByLayer
370
13
48
1
60
0
100
AcDbTrace
10
-45
20
-25.343428
30
0
11
-41.500002
21
-24.882645
31
0
12
-41.499998
22
-25.804212
32
0
13
-45
23
-25.343428
33
0
39
0
210
0
220
0
230
1
0
SOLID
5
118
100
AcDbEntity
8
SK2
62
256
6
ByLayer
370
13
48
1
60
0
100
AcDbTrace
10
76.89
20
-25.343428
30
0
11
73.390002
21
-25.804212
31
0
12
73.389998
22
-24.882645
32
0
13
76.89
23
-25.343428
33
0
39
0
210
0
220
0
230
1
0
ENDBLK
5
11A
100
AcDbEntity
8
0
100
AcDbBlockEnd
0
BLOCK
5
124
100
AcDbEntity
8
0
100
AcDbBlockBegin
2
DimnDraft3D6
70
0
10
0
20
0
30
0
3
DimnDraft3D6
0
MTEXT
5
11D
100
AcDbEntity
8
SK2
62
256
6
ByLayer
370
13
48
1
60
0
100
AcDbMText
10
-55.375163
20
26.34918
30
0
210
0
220
0
230
1
1
\W0.7145;14,000
40
3.5
41
0
44
1.084337
50
90
71
7
72
5
7
iso_b_vert
0
MTEXT
5
11E
100
AcDbEntity
8
SK2
62
256
6
ByLayer
370
13
48
1
60
0
100
AcDbMText
10
-55.375163
20
21.126524
30
0
210
0
220
0
230
1
1
%%c
40
3.5
41
0
44
1.084337
50
90
71
7
72
5
7
iso_b_vert
0
LINE
5
11F
100
AcDbEntity
8
SK2
62
256
6
ByLayer
370
13
48
1
60
0
100
AcDbLine
10
-46.5875
20
-7
30
0
11
-55.625163
21
-7
31
0
39
0
210
0
220
0
230
1
0
LINE
5
120
100
AcDbEntity
8
SK2
62
256
6
ByLayer
370
13
48
1
60
0
100
AcDbLine
10
-46.5875
20
7
30
0
11
-55.625163
21
7
31
0
39
0
210
0
220
0
230
1
0
LINE
5
121
100
AcDbEntity
8
SK2
62
256
6
ByLayer
370
13
48
1
60
0
100
AcDbLine
10
-53.625163
20
-7
30
0
11
-53.625163
21
38.230759
31
0
39
0
210
0
220
0
230
1
0
SOLID
5
122
100
AcDbEntity
8
SK2
62
256
6
ByLayer
370
13
48
1
60
0
100
AcDbTrace
10
-53.625163
20
-7
30
0
11
-54.085946
21
-3.500002
31
0
12
-53.164379
22
-3.499998
32
0
13
-53.625163
23
-7
33
0
39
0
210
0
220
0
230
1
0
SOLID
5
123
100
AcDbEntity
8
SK2
62
256
6
ByLayer
370
13
48
1
60
0
100
AcDbTrace
10
-53.625163
20
7
30
0
11
-53.164379
21
3.500002
31
0
12
-54.085946
22
3.499998
32
0
13
-53.625163
23
7
33
0
39
0
210
0
220
0
230
1
0
ENDBLK
5
125
100
AcDbEntity
8
0
100
AcDbBlockEnd
0
BLOCK
5
12F
100
AcDbEntity
8
0
100
AcDbBlockBegin
2
DimnDraft3D7
70
0
10
0
20
0
30
0
3
DimnDraft3D7
0
MTEXT
5
128
100
AcDbEntity
8
2
62
256
6
ByLayer
370
13
48
1
60
0
100
AcDbMText
10
89.333343
20
24.092266
30
0
210
0
220
0
230
1
1
\W0.6930;12,300
40
3.5
41
0
44
1.084337
50
90
71
7
72
5
7
iso_b_vert
0
MTEXT
5
129
100
AcDbEntity
8
2
62
256
6
ByLayer
370
13
48
1
60
0
100
AcDbMText
10
89.333343
20
18.86961
30
0
210
0
220
0
230
1
1
%%c
40
3.5
41
0
44
1.084337
50
90
71
7
72
5
7
iso_b_vert
0
LINE
5
12A
100
AcDbEntity
8
2
62
256
6
ByLayer
370
13
48
1
60
0
100
AcDbLine
10
78.4775
20
-6.15
30
0
11
93.083343
21
-6.15
31
0
39
0
210
0
220
0
230
1
0
LINE
5
12B
100
AcDbEntity
8
2
62
256
6
ByLayer
370
13
48
1
60
0
100
AcDbLine
10
78.4775
20
6.15
30
0
11
93.083343
21
6.15
31
0
39
0
210
0
220
0
230
1
0
LINE
5
12C
100
AcDbEntity
8
2
62
256
6
ByLayer
370
13
48
1
60
0
100
AcDbLine
10
91.083343
20
-6.15
30
0
11
91.083343
21
35.605424
31
0
39
0
210
0
220
0
230
1
0
SOLID
5
12D
100
AcDbEntity
8
2
62
256
6
ByLayer
370
13
48
1
60
0
100
AcDbTrace
10
91.083343
20
-6.15
30
0
11
90.622559
21
-2.650002
31
0
12
91.544126
22
-2.649998
32
0
13
91.083343
23
-6.15
33
0
39
0
210
0
220
0
230
1
0
SOLID
5
12E
100
AcDbEntity
8
2
62
256
6
ByLayer
370
13
48
1
60
0
100
AcDbTrace
10
91.083343
20
6.15
30
0
11
91.544126
21
2.650002
31
0
12
90.622559
22
2.649998
32
0
13
91.083343
23
6.15
33
0
39
0
210
0
220
0
230
1
0
ENDBLK
5
130
100
AcDbEntity
8
0
100
AcDbBlockEnd
0
ENDSEC
0
SECTION
2
ENTITIES
0
ARC
5
9B
100
AcDbEntity
8
1
62
256
6
ByLayer
370
18
48
1
60
0
100
AcDbCircle
39
0
10
0
20
6.2
30
0
40
0.8
210
0
220
0
230
1
100
AcDbArc
50
26.131833
51
90
0
ARC
5
9C
100
AcDbEntity
8
1
62
256
6
ByLayer
370
18
48
1
60
0
100
AcDbCircle
39
0
10
-1.436453
20
6.904701
30
0
40
0.8
210
0
220
0
230
-1
100
AcDbArc
50
269.965623
51
333.868167
0
ARC
5
9D
100
AcDbEntity
8
1
62
256
6
ByLayer
370
18
48
1
60
0
100
AcDbCircle
39
0
10
-1.436453
20
-6.904701
30
0
40
0.8
210
0
220
0
230
-1
100
AcDbArc
50
26.131833
51
90.034377
0
ARC
5
9E
100
AcDbEntity
8
1
62
256
6
ByLayer
370
18
48
1
60
0
100
AcDbCircle
39
0
10
0
20
-6.2
30
0
40
0.8
210
0
220
0
230
1
100
AcDbArc
50
270
51
333.868167
0
ELLIPSE
5
9F
100
AcDbEntity
8
1
62
256
6
ByLayer
370
18
48
1
60
0
100
AcDbEllipse
10
77.859309
20
2.931362
30
0
11
0.946950456965039
21
-2.58182863792948
31
0
210
0
220
0
230
-1
40
0.082138
41
-1.57453336187228
42
-0.75528095034603
0
ELLIPSE
5
A0
100
AcDbEntity
8
1
62
256
6
ByLayer
370
18
48
1
60
0
100
AcDbEllipse
10
79.020062
20
-0.047459
30
0
11
0.135658546042388
21
0.40120080625223
31
0
210
0
220
0
230
-1
40
0.065863
41
-2.32292776273994
42
-1.61967156482775
0
ELLIPSE
5
A1
100
AcDbEntity
8
1
62
256
6
ByLayer
370
13
48
1
60
0
100
AcDbEllipse
10
78.199057
20
2.931362
30
0
11
4.13373844657256
21
-1.79075198426859
31
0
210
0
220
0
230
-1
40
0.450313
41
1.59015877661988
42
1.90895891545206
0
ELLIPSE
5
A2
100
AcDbEntity
8
1
62
256
6
ByLayer
370
18
48
1
60
0
100
AcDbEllipse
10
79.020062
20
0.047459
30
0
11
0.135658546092295
21
-0.40120080638136
31
0
210
0
220
0
230
-1
40
0.065863
41
1.61967156503649
42
2.32292776274088
0
ELLIPSE
5
A3
100
AcDbEntity
8
1
62
256
6
ByLayer
370
18
48
1
60
0
100
AcDbEllipse
10
79.000521
20
0.001343
30
0
11
2.25509815696166
21
6.14844940781336
31
0
210
0
220
0
230
-1
40
0.082138
41
2.89661819895233
42
2.98895240498668
0
ELLIPSE
5
A4
100
AcDbEntity
8
1
62
256
6
ByLayer
370
13
48
1
60
0
100
AcDbEllipse
10
4.179918
20
-5.941407
30
0
11
-0.0443739762718631
21
0.0896155691262636
31
0
210
0
220
0
230
1
40
0.443648
41
0.0611590191903835
42
1.40000966109133
0
ELLIPSE
5
A5
100
AcDbEntity
8
1
62
256
6
ByLayer
370
13
48
1
60
0
100
AcDbEllipse
10
78.029599
20
2.79707
30
0
11
4.08759680174598
21
-2.10138987883924
31
0
210
0
220
0
230
-1
40
0.482873
41
1.53949524918454
42
1.85227499626841
0
ELLIPSE
5
A6
100
AcDbEntity
8
1
62
256
6
ByLayer
370
18
48
1
60
0
100
AcDbEllipse
10
79.000521
20
-0.001343
30
0
11
2.25509823857537
21
-6.14844964213319
31
0
210
0
220
0
230
-1
40
0.082138
41
-2.98895240788731
42
-2.89661820363721
0
ELLIPSE
5
A7
100
AcDbEntity
8
1
62
256
6
ByLayer
370
18
48
1
60
0
100
AcDbEllipse
10
78.8601
20
0.126659
30
0
11
0.0868803724544254
21
0.290676908839815
31
0
210
0
220
0
230
-1
40
0.467765
41
1.66752997021137
42
2.36053717391099
0
ELLIPSE
5
A8
100
AcDbEntity
8
1
62
256
6
ByLayer
370
13
48
1
60
0
100
AcDbEllipse
10
4.250179
20
-5.926226
30
0
11
0.00305606134893421
21
0.0999532915367551
31
0
210
0
220
0
230
1
40
0.465357
41
0.0630502890986501
42
1.62116682653203
0
ELLIPSE
5
A9
100
AcDbEntity
8
1
62
256
6
ByLayer
370
18
48
1
60
0
100
AcDbEllipse
10
77.859309
20
-2.931362
30
0
11
0.946950456994706
21
2.58182863799863
31
0
210
0
220
0
230
-1
40
0.082138
41
0.755280950347971
42
1.5745333618536
0
ELLIPSE
5
AA
100
AcDbEntity
8
1
62
256
6
ByLayer
370
13
48
1
60
0
100
AcDbEllipse
10
77.312775
20
0.892773
30
0
11
0.133113781883896
21
0.268850741253519
31
0
210
0
220
0
230
1
40
0.40558
41
0.884485917130897
42
2.28074931872647
0
POINT
5
6C
100
AcDbEntity
8
81
62
256
6
ByLayer
370
18
48
1
60
0
100
AcDbPoint
10
79
20
0
30
0
39
0
210
0
220
0
230
1
50
360
0
POINT
5
6E
100
AcDbEntity
8
80
62
256
6
ByLayer
370
18
48
1
60
0
100
AcDbPoint
10
0
20
0
30
0
39
0
210
0
220
0
230
1
50
360
0
POINT
5
70
100
AcDbEntity
8
SK2
62
256
6
ByLayer
370
18
48
1
60
1
100
AcDbPoint
10
-45
20
-7
30
0
39
0
210
0
220
0
230
1
50
360
0
POINT
5
72
100
AcDbEntity
8
SK2
62
256
6
ByLayer
370
18
48
1
60
1
100
AcDbPoint
10
-45
20
7
30
0
39
0
210
0
220
0
230
1
50
360
0
POINT
5
73
100
AcDbEntity
8
2
62
256
6
ByLayer
370
18
48
1
60
1
100
AcDbPoint
10
76.89
20
-6.15
30
0
39
0
210
0
220
0
230
1
50
360
0
POINT
5
75
100
AcDbEntity
8
2
62
256
6
ByLayer
370
18
48
1
60
1
100
AcDbPoint
10
76.89
20
6.15
30
0
39
0
210
0
220
0
230
1
50
360
0
SPLINE
5
AB
100
AcDbEntity
8
1
62
256
6
ByLayer
370
18
48
1
60
0
100
AcDbSpline
70
4
71
3
72
30
73
26
40
0
40
0
40
0
40
0
40
0.0056558795537846
40
0.0387154033672553
40
0.0639297347925698
40
0.0964101409712513
40
0.134632969175523
40
0.189265773317505
40
0.246508065613084
40
0.312364465231521
40
0.377576356268029
40
0.441844240165077
40
0.504680400843083
40
0.553709370834091
40
0.607076107392949
40
0.652126630493061
40
0.688916521291836
40
0.72131997463912
40
0.762859419388324
40
0.809712097425434
40
0.847599197102568
40
0.880776279559576
40
0.923762057970726
40
0.967288936684659
40
1
40
1
40
1
40
1
41
1
10
22.65592320488
20
5.84821368112176
30
0
41
1
10
22.6283342519306
20
5.84823263877183
30
0
41
1
10
22.4394730952438
20
5.84835619382685
30
0
41
1
10
22.1279478795908
20
5.84882903273345
30
0
41
1
10
21.6843246242551
20
5.84850181873253
30
0
41
1
10
21.2158128325455
20
5.84706077896561
30
0
41
1
10
20.6034624475698
20
5.84667143168954
30
0
41
1
10
19.8701763628635
20
5.84751011161813
30
0
41
1
10
19.0018746581494
20
5.84539528263483
30
0
41
1
10
18.0818888846632
20
5.84546762681742
30
0
41
1
10
17.127582815764
20
5.84387066652181
30
0
41
1
10
16.1880308978077
20
5.84368414219603
30
0
41
1
10
15.3275474604847
20
5.84341768182429
30
0
41
1
10
14.5202859496346
20
5.84220943948498
30
0
41
1
10
13.8000722634065
20
5.84237899744153
30
0
41
1
10
13.1399491476768
20
5.84182871233904
30
0
41
1
10
12.5815433327119
20
5.84111287314832
30
0
41
1
10
12.041384265776
20
5.84096667710824
30
0
41
1
10
11.4510194960591
20
5.84128754317109
30
0
41
1
10
10.8341406823524
20
5.84093343672862
30
0
41
1
10
10.2582264942331
20
5.84024421161217
30
0
41
1
10
9.70039901035304
20
5.83992479185173
30
0
41
1
10
9.11918708954332
20
5.83942099687067
30
0
41
1
10
8.54449311321733
20
5.83624191496924
30
0
41
1
10
8.1674401712157
20
5.83629962189471
30
0
41
1
10
8.00978223294337
20
5.83659928125022
30
0
0
SPLINE
5
AC
100
AcDbEntity
8
1
62
256
6
ByLayer
370
18
48
1
60
0
100
AcDbSpline
70
4
71
3
72
12
73
8
40
0
40
0
40
0
40
0
40
0.0434519535754199
40
0.216149316254264
40
0.452006049582567
40
0.660422624328495
40
1
40
1
40
1
40
1
41
1
10
59.712874159143
20
-1.5745979957203
30
0
41
1
10
59.7129239761649
20
-1.5746379719113
30
0
41
1
10
59.7150912152668
20
-1.57567798461835
30
0
41
1
10
59.7403297733441
20
-1.58711381473319
30
0
41
1
10
59.8364670372793
20
-1.63281853357759
30
0
41
1
10
59.9041226499216
20
-1.66558656586849
30
0
41
1
10
59.9721339888972
20
-1.70070134894891
30
0
41
1
10
60.0150699595112
20
-1.72354860075785
30
0
0
SPLINE
5
AD
100
AcDbEntity
8
1
62
256
6
ByLayer
370
18
48
1
60
0
100
AcDbSpline
70
4
71
3
72
34
73
30
40
0
40
0
40
0
40
0
40
0.0450244310577817
40
0.0871242060935905
40
0.123384787052421
40
0.152626857275837
40
0.177573537933998
40
0.206208453033464
40
0.241066816770811
40
0.272898095561898
40
0.297948637565792
40
0.32824341715603
40
0.367353456811774
40
0.404467135908776
40
0.432895988371774
40
0.463936502487719
40
0.502464838608884
40
0.556966168854844
40
0.613085640613947
40
0.681262739355781
40
0.749159331756331
40
0.820908179339157
40
0.85039707935979
40
0.88022522198823
40
0.913003231358612
40
0.942621022570495
40
0.965130439182916
40
0.992033634029083
40
1
40
1
40
1
40
1
41
1
10
4.81616496435132
20
-5.83582670078948
30
0
41
1
10
5.07973377163572
20
-5.83515232309281
30
0
41
1
10
5.59066366034995
20
-5.83453382558861
30
0
41
1
10
6.33505686335965
20
-5.83511622437345
30
0
41
1
10
6.95646571801845
20
-5.8377859980086
30
0
41
1
10
7.50592358546854
20
-5.83821906790999
30
0
41
1
10
7.97694375039302
20
-5.83641667392018
30
0
41
1
10
8.51069276435251
20
-5.8360964071731
30
0
41
1
10
9.07197309979458
20
-5.83921401030324
30
0
41
1
10
9.61464063945928
20
-5.83987401479703
30
0
41
1
10
10.1345911979344
20
-5.84016888033815
30
0
41
1
10
10.6974786527414
20
-5.8407226146814
30
0
41
1
10
11.3323043382983
20
-5.84134690231821
30
0
41
1
10
11.956329032374
20
-5.84098289545023
30
0
41
1
10
12.5312270765641
20
-5.84106462628171
30
0
41
1
10
13.1155482632096
20
-5.84180028390338
30
0
41
1
10
13.8546192271581
20
-5.84239958199652
30
0
41
1
10
14.743520217915
20
-5.8423262477599
30
0
41
1
10
15.8092616368117
20
-5.84402281644904
30
0
41
1
10
16.954802118675
20
-5.84352777825819
30
0
41
1
10
18.1935131067742
20
-5.84533969038034
30
0
41
1
10
19.2016285636007
20
-5.84639401308331
30
0
41
1
10
19.9828322081912
20
-5.84717481101697
30
0
41
1
10
20.5317516730064
20
-5.84679977501057
30
0
41
1
10
21.0814647453485
20
-5.84681868287652
30
0
41
1
10
21.5874677113769
20
-5.84823833823197
30
0
41
1
10
22.0586844221463
20
-5.8488936736322
30
0
41
1
10
22.4001842594641
20
-5.84841902775617
30
0
41
1
10
22.6076348063618
20
-5.84826588269024
30
0
41
1
10
22.6550209123607
20
-5.8482256158517
30
0
0
SPLINE
5
AE
100
AcDbEntity
8
1
62
256
6
ByLayer
370
18
48
1
60
0
100
AcDbSpline
70
4
71
3
72
30
73
26
40
0
40
0
40
0
40
0
40
0.0311622601167227
40
0.0714274624946416
40
0.107933663950732
40
0.141479009041082
40
0.189727774052602
40
0.244095847016881
40
0.295013457573554
40
0.341377178674429
40
0.390990981551017
40
0.441654405382248
40
0.482704946838894
40
0.512966341242712
40
0.546026632968479
40
0.596470118940314
40
0.641827465948011
40
0.677912057508823
40
0.722958008932165
40
0.773643987341019
40
0.817775071611268
40
0.864987811767034
40
0.923554495878045
40
0.976174083250614
40
1
40
1
40
1
40
1
41
1
10
58.2880533926249
20
5.86517495614711
30
0
41
1
10
58.1323749107047
20
5.86509116488006
30
0
41
1
10
57.7770967912642
20
5.86497753207794
30
0
41
1
10
57.2535633052984
20
5.86737348618502
30
0
41
1
10
56.708912685204
20
5.86564638707355
30
0
41
1
10
56.1210411528508
20
5.86531464343344
30
0
41
1
10
55.4455416144302
20
5.86596576482725
30
0
41
1
10
54.6833300807962
20
5.86454574773853
30
0
41
1
10
53.9306089359405
20
5.86410396089607
30
0
41
1
10
53.2014593775876
20
5.86502304607956
30
0
41
1
10
52.4735438616776
20
5.86388706055044
30
0
41
1
10
51.7721330050365
20
5.86306370237423
30
0
41
1
10
51.1664023207562
20
5.86332616369998
30
0
41
1
10
50.6499293503305
20
5.86297100085238
30
0
41
1
10
50.0848709235268
20
5.86192974513801
30
0
41
1
10
49.446023109831
20
5.86194066263181
30
0
41
1
10
48.7917302487968
20
5.8623290633235
30
0
41
1
10
48.1638077199763
20
5.86159301312716
30
0
41
1
10
47.5095207199633
20
5.86089650401718
30
0
41
1
10
46.8152897053184
20
5.86145060929647
30
0
41
1
10
46.1102870421336
20
5.86079692360886
30
0
41
1
10
45.3661757446927
20
5.85966365700261
30
0
41
1
10
44.5799306109693
20
5.86010373875047
30
0
41
1
10
43.9097791668093
20
5.85941180049574
30
0
41
1
10
43.5303182662307
20
5.85900449004001
30
0
41
1
10
43.4120541664781
20
5.85891542488508
30
0
0
SPLINE
5
AF
100
AcDbEntity
8
1
62
256
6
ByLayer
370
18
48
1
60
0
100
AcDbSpline
70
4
71
2
72
6
73
3
40
0
40
0
40
0
40
1
40
1
40
1
41
1
10
75.684418821459
20
-5.87838144320096
30
0
41
1
10
76.2712317987736
20
-5.87618343270208
30
0
41
1
10
76.8574395353319
20
-5.88096423269187
30
0
0
SPLINE
5
B0
100
AcDbEntity
8
1
62
256
6
ByLayer
370
18
48
1
60
0
100
AcDbSpline
70
4
71
3
72
36
73
32
40
0
40
0
40
0
40
0
40
0.0458402888093689
40
0.0875887916344699
40
0.122190617380997
40
0.150159483592759
40
0.173413654822806
40
0.200939823680711
40
0.234170855132422
40
0.264460796158716
40
0.28851700005396
40
0.317074974779265
40
0.353294407810088
40
0.389730836686118
40
0.420597923053856
40
0.454333888941555
40
0.499219025618981
40
0.547790140735207
40
0.590295137341111
40
0.624346624701775
40
0.658942664150526
40
0.696241136359102
40
0.74067078005954
40
0.794592348867307
40
0.831288746413908
40
0.857955916364092
40
0.880081133514654
40
0.904383330674999
40
0.93160097865389
40
0.968876448932264
40
1
40
1
40
1
40
1
41
1
10
40.2610338615748
20
-5.85687127128261
30
0
41
1
10
40.5298137870436
20
-5.85652632971201
30
0
41
1
10
41.043883909685
20
-5.85631950299304
30
0
41
1
10
41.7741410842432
20
-5.85688508525325
30
0
41
1
10
42.3802169120983
20
-5.85881381892
30
0
41
1
10
42.8888256818688
20
-5.85846678085477
30
0
41
1
10
43.3555219774809
20
-5.85880755474309
30
0
41
1
10
43.8534894244475
20
-5.85935678057257
30
0
41
1
10
44.3933797357429
20
-5.85984896698486
30
0
41
1
10
44.9126486931645
20
-5.86001805169681
30
0
41
1
10
45.4042322551378
20
-5.85986252337966
30
0
41
1
10
45.9309575893337
20
-5.86043033505587
30
0
41
1
10
46.5311062132191
20
-5.86126740812998
30
0
41
1
10
47.1449325621838
20
-5.86135930924473
30
0
41
1
10
47.744046568935
20
-5.86087252950125
30
0
41
1
10
48.3932507050313
20
-5.86211348455197
30
0
41
1
10
49.1474293396325
20
-5.86217070184216
30
0
41
1
10
49.9536075598536
20
-5.86201486190382
30
0
41
1
10
50.6955483805959
20
-5.86332873391424
30
0
41
1
10
51.3546248124053
20
-5.86323669586565
30
0
41
1
10
51.9828289604306
20
-5.86312836927891
30
0
41
1
10
52.6725610488503
20
-5.86440703641313
30
0
41
1
10
53.4769240936665
20
-5.86487728743651
30
0
41
1
10
54.2775406765426
20
-5.86384674774399
30
0
41
1
10
54.9733441250491
20
-5.86535491226104
30
0
41
1
10
55.4792261589576
20
-5.865627866366
30
0
41
1
10
55.9115069931276
20
-5.86507042442571
30
0
41
1
10
56.3489190605504
20
-5.86519924160916
30
0
41
1
10
56.8718620541892
20
-5.86607014313051
30
0
41
1
10
57.4393293036316
20
-5.86755319233475
30
0
41
1
10
57.8446918044179
20
-5.86739403233602
30
0
41
1
10
58.0293078743386
20
-5.86718831429496
30
0
0
SPLINE
5
B1
100
AcDbEntity
8
1
62
256
6
ByLayer
370
18
48
1
60
0
100
AcDbSpline
70
4
71
3
72
11
73
7
40
0
40
0
40
0
40
0
40
0.187647456453977
40
0.335565516614739
40
0.546446721211357
40
1
40
1
40
1
40
1
41
1
10
24.3666561744372
20
-1.59785537713319
30
0
41
1
10
24.3665485324956
20
-1.59790401987672
30
0
41
1
10
24.370967670431
20
-1.60024573028031
30
0
41
1
10
24.4012686240116
20
-1.61524212227562
30
0
41
1
10
24.4748736760429
20
-1.65218471187123
30
0
41
1
10
24.5444755547171
20
-1.68829319243031
30
0
41
1
10
24.6001674804185
20
-1.71751642912284
30
0
0
SPLINE
5
B2
100
AcDbEntity
8
1
62
256
6
ByLayer
370
18
48
1
60
0
100
AcDbSpline
70
4
71
3
72
12
73
8
40
0
40
0
40
0
40
0
40
0.25000000000001
40
0.25000000000001
40
0.500000000000019
40
0.500000000000019
40
1
40
1
40
1
40
1
41
1
10
4.13082078028262
20
-6.09941495081171
30
0
41
1
10
4.11097252469838
20
-6.09889141222806
30
0
41
1
10
4.09300596581343
20
-6.0982278869366
30
0
41
1
10
4.06073235704605
20
-6.09653609580391
30
0
41
1
10
4.04662107944066
20
-6.0955074271991
30
0
41
1
10
4.01243189950159
20
-6.09189701639917
30
0
41
1
10
3.99999979050412
20
-6.08870732641569
30
0
41
1
10
3.99999979050409
20
-6.08493878230095
30
0
0
SPLINE
5
B3
100
AcDbEntity
8
1
62
256
6
ByLayer
370
18
48
1
60
0
100
AcDbSpline
70
4
71
3
72
18
73
14
40
0
40
0
40
0
40
0
40
0.249999999999998
40
0.249999999999998
40
0.374999999999999
40
0.374999999999999
40
0.5
40
0.5
40
0.749999999999998
40
0.749999999999998
40
0.874999999999999
40
0.874999999999999
40
1
40
1
40
1
40
1
41
1
10
78.0678361100023
20
-3.01879089324731
30
0
41
1
10
77.9740335467596
20
-3.27061705466338
30
0
41
1
10
77.8801028228097
20
-3.52226511977887
30
0
41
1
10
77.7390166865283
20
-3.89894606593137
30
0
41
1
10
77.6919494211308
20
-4.02437701213847
30
0
41
1
10
77.5976932013328
20
-4.27483056584836
30
0
41
1
10
77.5504864543692
20
-4.3997934687591
30
0
41
1
10
77.4087458943714
20
-4.77427843559937
30
0
41
1
10
77.3141951696723
20
-5.02379125482355
30
0
41
1
10
77.1722238918847
20
-5.39526289011198
30
0
41
1
10
77.1248572657856
20
-5.51839853420884
30
0
41
1
10
77.0300802499891
20
-5.76396719040753
30
0
41
1
10
76.9826780183547
20
-5.88653118159439
30
0
41
1
10
76.9352361882569
20
-6.00845941273303
30
0
0
SPLINE
5
B4
100
AcDbEntity
8
1
62
256
6
ByLayer
370
13
48
1
60
0
100
AcDbSpline
70
4
71
3
72
12
73
8
40
0
40
0
40
0
40
0
40
0.499500488566467
40
0.499500488566467
40
0.999000977132934
40
0.999000977132934
40
1
40
1
40
1
40
1
41
1
10
4.20356974159651
20
-5.92983818816271
30
0
41
1
10
4.58592839577327
20
-5.93848797325501
30
0
41
1
10
4.96815105082334
20
-5.93675336312648
30
0
41
1
10
5.73304832279356
20
-5.91271302625049
30
0
41
1
10
6.11434787050356
20
-5.89044099961575
30
0
41
1
10
6.4950764001039
20
-5.85821403003345
30
0
41
1
10
6.49583634945023
20
-5.85814966387801
30
0
41
1
10
6.49659629434314
20
-5.85808525826477
30
0
0
SPLINE
5
B5
100
AcDbEntity
8
1
62
256
6
ByLayer
370
18
48
1
60
0
100
AcDbSpline
70
4
71
3
72
18
73
14
40
0
40
0
40
0
40
0
40
0.112396390785007
40
0.112396390785007
40
0.17736511891692
40
0.17736511891692
40
0.242333847048833
40
0.242333847048833
40
0.372271303312656
40
0.372271303312656
40
0.632146215840306
40
0.632146215840306
40
1
40
1
40
1
40
1
41
1
10
57.7923708223166
20
-0.0134796278839815
30
0
41
1
10
58.1196695560636
20
-0.186753454572511
30
0
41
1
10
58.4476045244501
20
-0.360359419222988
30
0
41
1
10
58.9664811532731
20
-0.634116184580677
30
0
41
1
10
59.156851335637
20
-0.734323931729591
30
0
41
1
10
59.5383159632997
20
-0.93438809911143
30
0
41
1
10
59.7294711432887
20
-1.0342826099556
30
0
41
1
10
60.3009642087767
20
-1.33152524424196
30
0
41
1
10
60.6803853614147
20
-1.52698587801797
30
0
41
1
10
61.815204755763
20
-2.1030469326416
30
0
41
1
10
62.5673459693435
20
-2.47294356923504
30
0
41
1
10
64.3811282702583
20
-3.31980435070821
30
0
41
1
10
65.4412304961879
20
-3.77772311205584
30
0
41
1
10
66.5080567330032
20
-4.18193037220422
30
0
0
SPLINE
5
B6
100
AcDbEntity
8
1
62
256
6
ByLayer
370
13
48
1
60
0
100
AcDbSpline
70
4
71
3
72
22
73
18
40
0
40
0
40
0
40
0
40
0.127494200314051
40
0.127494200314051
40
0.182025812794424
40
0.182025812794424
40
0.236557425274796
40
0.236557425274796
40
0.34562065023554
40
0.34562065023554
40
0.563747100157027
40
0.563747100157027
40
0.781873550078514
40
0.781873550078514
40
0.890936775039257
40
0.890936775039257
40
1
40
1
40
1
40
1
41
1
10
66.5080567331345
20
-4.18193037225393
30
0
41
1
10
66.9485760064375
20
-4.3488376738909
30
0
41
1
10
67.3902417712962
20
-4.5065867835483
30
0
41
1
10
68.023409120968
20
-4.71718842389214
30
0
41
1
10
68.2134233649594
20
-4.77841781639657
30
0
41
1
10
68.5942121059278
20
-4.89698807247007
30
0
41
1
10
68.785248473342
20
-4.95440408761712
30
0
41
1
10
69.3575093248094
20
-5.11995111610912
30
0
41
1
10
69.7375310843547
20
-5.22129664225531
30
0
41
1
10
70.8744587264271
20
-5.49748200251281
30
0
41
1
10
71.6281430118532
20
-5.64457779978918
30
0
41
1
10
73.1337273976599
20
-5.86134590928302
30
0
41
1
10
73.8857345040691
20
-5.93111770728351
30
0
41
1
10
75.0172134738201
20
-5.97590465743397
30
0
41
1
10
75.3949733555616
20
-5.9808463518963
30
0
41
1
10
76.1524379925533
20
-5.97036628218311
30
0
41
1
10
76.5322041130997
20
-5.9545175234685
30
0
41
1
10
76.91320391882
20
-5.92918750549134
30
0
0
SPLINE
5
B7
100
AcDbEntity
8
1
62
256
6
ByLayer
370
18
48
1
60
0
100
AcDbSpline
70
4
71
3
72
34
73
30
40
0
40
0
40
0
40
0
40
0.127439724775787
40
0.127439724775787
40
0.191159587163681
40
0.191159587163681
40
0.223019518357627
40
0.223019518357627
40
0.254879449551574
40
0.254879449551574
40
0.382319174327361
40
0.382319174327361
40
0.446039036715255
40
0.446039036715255
40
0.509758899103148
40
0.509758899103148
40
0.637198623878935
40
0.637198623878935
40
0.669058555072882
40
0.669058555072882
40
0.700918486266828
40
0.700918486266828
40
0.764638348654722
40
0.764638348654722
40
0.892078073430509
40
0.892078073430509
40
0.955797935818403
40
0.955797935818403
40
1
40
1
40
1
40
1
41
1
10
3.99999979050446
20
1.02988029680387
30
0
41
1
10
3.99999979050446
20
0.612629663541128
30
0
41
1
10
3.99999979050446
20
0.195257634782763
30
0
41
1
10
3.99999979050449
20
-0.430975378095752
30
0
41
1
10
3.99999979050449
20
-0.639749115324406
30
0
41
1
10
3.99999979050452
20
-0.952955086413681
30
0
41
1
10
3.99999979050449
20
-1.05757560590826
30
0
41
1
10
3.99999979050452
20
-1.26470335174864
30
0
41
1
10
3.99999979050446
20
-1.36742802227818
30
0
41
1
10
3.99999979050446
20
-1.87691453965954
30
0
41
1
10
3.99999979050446
20
-2.27139926173138
30
0
41
1
10
3.99999979050449
20
-2.84299133747356
30
0
41
1
10
3.99999979050449
20
-3.02795799696341
30
0
41
1
10
3.99999979050449
20
-3.38665202508398
30
0
41
1
10
3.99999979050446
20
-3.56109959463802
30
0
41
1
10
3.99999979050446
20
-4.06011271075312
30
0
41
1
10
3.99999979050446
20
-4.36195179232894
30
0
41
1
10
3.99999979050446
20
-4.70128555527552
30
0
41
1
10
3.99999979050446
20
-4.76723502044595
30
0
41
1
10
3.99999979050446
20
-4.895236395273
30
0
41
1
10
3.99999979050452
20
-4.95745525457986
30
0
41
1
10
3.99999979050452
20
-5.13678759404308
30
0
41
1
10
3.99999979050449
20
-5.24632895507716
30
0
41
1
10
3.99999979050449
20
-5.54586345032618
30
0
41
1
10
3.99999979050446
20
-5.70707587358515
30
0
41
1
10
3.99999979050449
20
-5.88928713239071
30
0
41
1
10
3.99999979050446
20
-5.93949940813891
30
0
41
1
10
3.99999979050446
20
-6.0060400051409
30
0
41
1
10
3.99999979050449
20
-6.02812505033137
30
0
41
1
10
3.99999979050449
20
-6.04499070321225
30
0
0
SPLINE
5
B8
100
AcDbEntity
8
1
62
256
6
ByLayer
370
18
48
1
60
0
100
AcDbSpline
70
4
71
3
72
8
73
4
40
0
40
0
40
0
40
0
40
1
40
1
40
1
40
1
41
1
10
3.99999979050452
20
1.02988029680435
30
0
41
1
10
3.99999979050452
20
1.02483733879072
30
0
41
1
10
3.99999979050446
20
1.01981008837154
30
0
41
1
10
3.99999979050446
20
1.01479855507335
30
0
0
SPLINE
5
B9
100
AcDbEntity
8
1
62
256
6
ByLayer
370
18
48
1
60
0
100
AcDbSpline
70
4
71
3
72
40
73
36
40
0
40
0
40
0
40
0
40
0.250000000000003
40
0.250000000000003
40
0.375000000000002
40
0.375000000000002
40
0.500000000000001
40
0.500000000000001
40
0.562499999999998
40
0.562499999999998
40
0.624999999999995
40
0.624999999999995
40
0.687499999999993
40
0.687499999999993
40
0.718749999999994
40
0.718749999999994
40
0.749999999999994
40
0.749999999999994
40
0.812499999999992
40
0.812499999999992
40
0.84374999999999
40
0.84374999999999
40
0.859374999999991
40
0.859374999999991
40
0.874999999999992
40
0.874999999999992
40
0.890624999999993
40
0.890624999999993
40
0.906249999999994
40
0.906249999999994
40
0.937499999999996
40
0.937499999999996
40
0.968749999999998
40
0.968749999999998
40
1
40
1
40
1
40
1
41
1
10
70.4932624400978
20
2.61571846503773
30
0
41
1
10
70.9988452427127
20
2.24903033908572
30
0
41
1
10
71.5112533165148
20
1.91461592763488
30
0
41
1
10
72.2932796117218
20
1.47642410674067
30
0
41
1
10
72.5561623534784
20
1.34079756760633
30
0
41
1
10
73.0869159254172
20
1.09313097218211
30
0
41
1
10
73.3547806003837
20
0.981061810575284
30
0
41
1
10
73.761020278711
20
0.833965486952366
30
0
41
1
10
73.8967700621448
20
0.788620529540367
30
0
41
1
10
74.1671225600736
20
0.706477679106428
30
0
41
1
10
74.3019908419544
20
0.669588427296844
30
0
41
1
10
74.5710652897198
20
0.604801416796306
30
0
41
1
10
74.705102997195
20
0.576942512036169
30
0
41
1
10
74.9048248119545
20
0.542626692389632
30
0
41
1
10
74.9711994214664
20
0.532427055816555
30
0
41
1
10
75.1033798871303
20
0.514624079637855
30
0
41
1
10
75.1693166962523
20
0.506703623841418
30
0
41
1
10
75.3636337910221
20
0.496162914930665
30
0
41
1
10
75.4884878274731
20
0.502486938593535
30
0
41
1
10
75.6626405753714
20
0.544993935391034
30
0
41
1
10
75.7179732600967
20
0.564703936371927
30
0
41
1
10
75.7932301120564
20
0.605509100952077
30
0
41
1
10
75.8170903329032
20
0.621023294483877
30
0
41
1
10
75.8616047373527
20
0.65705533270193
30
0
41
1
10
75.8818617955097
20
0.677442690978808
30
0
41
1
10
75.9181781857282
20
0.721857561613547
30
0
41
1
10
75.9343128073918
20
0.746012655069251
30
0
41
1
10
75.9622925047342
20
0.798451463635246
30
0
41
1
10
75.9741658088099
20
0.826912429116931
30
0
41
1
10
76.0020316095808
20
0.915940202688091
30
0
41
1
10
76.0107919059848
20
0.981352624065522
30
0
41
1
10
76.0101414965646
20
1.12013052165329
30
0
41
1
10
76.001010085002
20
1.19141896157507
30
0
41
1
10
75.9693325085354
20
1.33688939199976
30
0
41
1
10
75.9466026647794
20
1.41108401718645
30
0
41
1
10
75.9193887519275
20
1.48467292506876
30
0
0
SPLINE
5
BA
100
AcDbEntity
8
1
62
256
6
ByLayer
370
18
48
1
60
0
100
AcDbSpline
70
4
71
3
72
8
73
4
40
0
40
0
40
0
40
0
40
1
40
1
40
1
40
1
41
1
10
4.13319718052546
20
-5.85316187745377
30
0
41
1
10
4.169659211332
20
-5.83462642275356
30
0
41
1
10
4.20949385387971
20
-5.82562583420452
30
0
41
1
10
4.25029781825415
20
-5.82638168476493
30
0
0
SPLINE
5
BB
100
AcDbEntity
8
1
62
256
6
ByLayer
370
18
48
1
60
0
100
AcDbSpline
70
4
71
3
72
12
73
8
40
0
40
0
40
0
40
0
40
0.25000000000001
40
0.25000000000001
40
0.500000000000021
40
0.500000000000021
40
1
40
1
40
1
40
1
41
1
10
76.9132039188198
20
-5.92918750549134
30
0
41
1
10
76.9180561928094
20
-5.91608859244556
30
0
41
1
10
76.922699367066
20
-5.90277293680006
30
0
41
1
10
76.9303909636594
20
-5.87876997645708
30
0
41
1
10
76.9334199084515
20
-5.86812261556051
30
0
41
1
10
76.9389666404471
20
-5.84416025636483
30
0
41
1
10
76.9379253869712
20
-5.83955764521784
30
0
41
1
10
76.9342449194552
20
-5.84263104367952
30
0
0
SPLINE
5
BC
100
AcDbEntity
8
1
62
256
6
ByLayer
370
18
48
1
60
0
100
AcDbSpline
70
4
71
3
72
12
73
8
40
0
40
0
40
0
40
0
40
0.500000000000003
40
0.500000000000003
40
0.750000000000002
40
0.750000000000002
40
1
40
1
40
1
40
1
41
1
10
3.99999979050449
20
-6.06427488520688
30
0
41
1
10
3.99999979050449
20
-6.02336922777801
30
0
41
1
10
4.01163756577387
20
-5.98111497485235
30
0
41
1
10
4.04517553493946
20
-5.92608934045356
30
0
41
1
10
4.05925503268756
20
-5.90863753201106
30
0
41
1
10
4.09262721966888
20
-5.87758312705245
30
0
41
1
10
4.11158880812434
20
-5.86414648250525
30
0
41
1
10
4.13319718052546
20
-5.85316187745377
30
0
0
SPLINE
5
BD
100
AcDbEntity
8
1
62
256
6
ByLayer
370
18
48
1
60
0
100
AcDbSpline
70
4
71
3
72
8
73
4
40
0
40
0
40
0
40
0
40
1
40
1
40
1
40
1
41
1
10
76.9342449194552
20
-5.84263104367949
30
0
41
1
10
76.9052999224666
20
-5.86680175265386
30
0
41
1
10
76.8806100636249
20
-5.87896633911791
30
0
41
1
10
76.8602411649406
20
-5.87893908240451
30
0
0
SPLINE
5
BE
100
AcDbEntity
8
1
62
256
6
ByLayer
370
18
48
1
60
0
100
AcDbSpline
70
4
71
3
72
96
73
92
40
0
40
0
40
0
40
0
40
0.0015996543734213
40
0.0015996543734213
40
0.0229284378293045
40
0.0229284378293045
40
0.0655860047410717
40
0.0655860047410717
40
0.0869147881969557
40
0.0869147881969557
40
0.10824357165284
40
0.10824357165284
40
0.129572355108724
40
0.129572355108724
40
0.150901138564608
40
0.150901138564608
40
0.172229922020492
40
0.172229922020492
40
0.193558705476375
40
0.193558705476375
40
0.21488748893226
40
0.21488748893226
40
0.236216272388143
40
0.236216272388143
40
0.278873839299911
40
0.278873839299911
40
0.300202622755796
40
0.300202622755796
40
0.32153140621168
40
0.32153140621168
40
0.342860189667564
40
0.342860189667564
40
0.364188973123449
40
0.364188973123449
40
0.385517756579333
40
0.385517756579333
40
0.406846540035217
40
0.406846540035217
40
0.428175323491102
40
0.428175323491102
40
0.449504106946986
40
0.449504106946986
40
0.470832890402871
40
0.470832890402871
40
0.492161673858755
40
0.492161673858755
40
0.513490457314639
40
0.513490457314639
40
0.534819240770524
40
0.534819240770524
40
0.556148024226408
40
0.556148024226408
40
0.577476807682292
40
0.577476807682292
40
0.598805591138177
40
0.598805591138177
40
0.620134374594061
40
0.620134374594061
40
0.641463158049946
40
0.641463158049946
40
0.66279194150583
40
0.66279194150583
40
0.684120724961714
40
0.684120724961714
40
0.705449508417598
40
0.705449508417598
40
0.726778291873483
40
0.726778291873483
40
0.748107075329367
40
0.748107075329367
40
0.769435858785251
40
0.769435858785251
40
0.790764642241136
40
0.790764642241136
40
0.81209342569702
40
0.81209342569702
40
0.833422209152904
40
0.833422209152904
40
0.854750992608789
40
0.854750992608789
40
0.876079776064673
40
0.876079776064673
40
0.918737342976441
40
0.918737342976441
40
0.940066126432326
40
0.940066126432326
40
0.961394909888211
40
0.961394909888211
40
0.982723693344096
40
0.982723693344096
40
1
40
1
40
1
40
1
41
1
10
65.9479368591209
20
-4.46802597128772
30
0
41
1
10
65.9248787437679
20
-4.47577146657807
30
0
41
1
10
65.9018205902478
20
-4.48348926535206
30
0
41
1
10
65.5713192407966
20
-4.59371512475889
30
0
41
1
10
65.2638369195832
20
-4.69143541256608
30
0
41
1
10
64.3391742280603
20
-4.96952406613943
30
0
41
1
10
63.7228792822926
20
-5.13425638577723
30
0
41
1
10
62.801499145485
20
-5.34674384451537
30
0
41
1
10
62.4943155119763
20
-5.41147291239335
30
0
41
1
10
61.8793904819628
20
-5.52722357290969
30
0
41
1
10
61.5716595166415
20
-5.57779881386563
30
0
41
1
10
60.9556806840971
20
-5.66782852339594
30
0
41
1
10
60.6474098910498
20
-5.70763760192239
30
0
41
1
10
60.0315994535389
20
-5.77419696745625
30
0
41
1
10
59.7238877004553
20
-5.80082119078889
30
0
41
1
10
59.1087494018115
20
-5.8402947949709
30
0
41
1
10
58.8012753237164
20
-5.85387509522585
30
0
41
1
10
58.1867256663074
20
-5.86860804776677
30
0
41
1
10
57.8796558069728
20
-5.8695213320139
30
0
41
1
10
57.2643076465638
20
-5.85703918727387
30
0
41
1
10
56.9560655007839
20
-5.8434634402206
30
0
41
1
10
56.3390987030716
20
-5.80446063202928
30
0
41
1
10
56.0311137090752
20
-5.7789872355238
30
0
41
1
10
55.1087005052335
20
-5.68282672702912
30
0
41
1
10
54.4939166232176
20
-5.5915141740561
30
0
41
1
10
53.5710251431563
20
-5.420647708475
30
0
41
1
10
53.2635604635422
20
-5.35744920995492
30
0
41
1
10
52.6474519275187
20
-5.21800265139279
30
0
41
1
10
52.3387649010339
20
-5.14185053103517
30
0
41
1
10
51.7225549691874
20
-4.97987380446503
30
0
41
1
10
51.4147089134198
20
-4.89373049872461
30
0
41
1
10
50.7997522958784
20
-4.70993185439289
30
0
41
1
10
50.4926573594946
20
-4.61199260211546
30
0
41
1
10
49.8775719959217
20
-4.40674849928294
30
0
41
1
10
49.569751711242
20
-4.29965219997283
30
0
41
1
10
48.9535736314924
20
-4.07594412645093
30
0
41
1
10
48.644899102064
20
-3.95907267553352
30
0
41
1
10
48.0288085607606
20
-3.71527778708881
30
0
41
1
10
47.7210180014125
20
-3.58941881300893
30
0
41
1
10
47.105452286377
20
-3.33155750697148
30
0
41
1
10
46.7977795093796
20
-3.19901368854687
30
0
41
1
10
46.1826266188244
20
-2.92628254866182
30
0
41
1
10
45.8753531299887
20
-2.78551686856011
30
0
41
1
10
45.2600128289307
20
-2.49905631677973
30
0
41
1
10
44.9519132095475
20
-2.35352114119453
30
0
41
1
10
44.3347092198699
20
-2.05675268929912
30
0
41
1
10
44.026279654306
20
-1.90594423512431
30
0
41
1
10
43.4107473842668
20
-1.59981605443957
30
0
41
1
10
43.1034809096298
20
-1.44460999344056
30
0
41
1
10
42.4884276892749
20
-1.13274949079997
30
0
41
1
10
42.1808179243814
20
-0.975716846949922
30
0
41
1
10
41.565337873378
20
-0.65922115215534
30
0
41
1
10
41.2574743639802
20
-0.499851210570483
30
0
41
1
10
40.64156908014
20
-0.179173579126569
30
0
41
1
10
40.3329191858088
20
-0.01844232801011
30
0
41
1
10
39.7166084749817
20
0.301471222395861
30
0
41
1
10
39.4087699476435
20
0.460845881843511
30
0
41
1
10
38.7935219771897
20
0.778424496934008
30
0
41
1
10
38.486336989666
20
0.937112158997252
30
0
41
1
10
37.8715875023505
20
1.2516596291938
30
0
41
1
10
37.563942137859
20
1.40734982281702
30
0
41
1
10
36.947933792755
20
1.71509329817235
30
0
41
1
10
36.6393441504434
20
1.8673105003713
30
0
41
1
10
36.0226689325603
20
2.16843542421682
30
0
41
1
10
35.7150319831514
20
2.31720710283622
30
0
41
1
10
35.0996835505481
20
2.60709324667928
30
0
41
1
10
34.7920771043992
20
2.74855221629738
30
0
41
1
10
34.1768809810567
20
3.02591148564329
30
0
41
1
10
33.8693432103007
20
3.16167621228252
30
0
41
1
10
33.2544160028194
20
3.42676012946689
30
0
41
1
10
32.946604978018
20
3.55501630931238
30
0
41
1
10
32.3297471713774
20
3.80318254909972
30
0
41
1
10
32.0210140792398
20
3.92351187026631
30
0
41
1
10
31.4049124424209
20
4.15524683066124
30
0
41
1
10
31.0975017796317
20
4.26714789862962
30
0
41
1
10
30.4827029035608
20
4.47892539319528
30
0
41
1
10
30.1751568644106
20
4.57929785218394
30
0
41
1
10
29.559705465775
20
4.77110992870905
30
0
41
1
10
29.2518127916154
20
4.86220253855524
30
0
41
1
10
28.6357900669504
20
5.03349064288588
30
0
41
1
10
28.3273781548699
20
5.11307464306051
30
0
41
1
10
27.4025142270993
20
5.33393544347791
30
0
41
1
10
26.7866425036964
20
5.45961988844448
30
0
41
1
10
25.8643618173502
20
5.60782189688044
30
0
41
1
10
25.5567547758718
20
5.6509206356553
30
0
41
1
10
24.9406934186858
20
5.72543645660664
30
0
41
1
10
24.6322929029036
20
5.75675431649572
30
0
41
1
10
24.014826197579
20
5.80574587345058
30
0
41
1
10
23.7069853097829
20
5.82245696983259
30
0
41
1
10
23.1499139450544
20
5.84233428999187
30
0
41
1
10
22.9006198717074
20
5.84737104387338
30
0
41
1
10
22.65133501075
20
5.84820284334813
30
0
0
SPLINE
5
BF
100
AcDbEntity
8
1
62
256
6
ByLayer
370
18
48
1
60
0
100
AcDbSpline
70
4
71
3
72
18
73
14
40
0
40
0
40
0
40
0
40
0.25
40
0.25
40
0.5
40
0.5
40
0.75
40
0.75
40
0.8125
40
0.8125
40
0.875000000000001
40
0.875000000000001
40
1
40
1
40
1
40
1
41
1
10
11.3937019501964
20
-3.18509070583571
30
0
41
1
10
10.7717292857295
20
-2.9159131635341
30
0
41
1
10
10.1575954618084
20
-2.62497651273688
30
0
41
1
10
8.93987474175898
20
-2.0068014065447
30
0
41
1
10
8.33648309336448
20
-1.67840986687807
30
0
41
1
10
7.13868143375601
20
-0.985008564022507
30
0
41
1
10
6.54415119318764
20
-0.620320514177962
30
0
41
1
10
5.80948086224777
20
-0.131071633588107
30
0
41
1
10
5.66273000768319
20
-0.0313092931125425
30
0
41
1
10
5.37186133707021
20
0.171172560644379
30
0
41
1
10
5.22776884720409
20
0.273863419961088
30
0
41
1
10
4.80017836797518
20
0.587052931028836
30
0
41
1
10
4.52121294522863
20
0.802488896128835
30
0
41
1
10
4.25134605192773
20
1.02807061320007
30
0
0
SPLINE
5
C0
100
AcDbEntity
8
1
62
256
6
ByLayer
370
18
48
1
60
0
100
AcDbSpline
70
4
71
3
72
24
73
20
40
0
40
0
40
0
40
0
40
0.125000000000001
40
0.125000000000001
40
0.187500000000002
40
0.187500000000002
40
0.250000000000003
40
0.250000000000003
40
0.500000000000003
40
0.500000000000003
40
0.562500000000002
40
0.562500000000002
40
0.625000000000002
40
0.625000000000002
40
0.750000000000001
40
0.750000000000001
40
0.875000000000001
40
0.875000000000001
40
1
40
1
40
1
40
1
41
1
10
76.8602411649453
20
-5.87893908240451
30
0
41
1
10
76.7750703920136
20
-5.87886067426174
30
0
41
1
10
76.6939865266545
20
-5.86645169638172
30
0
41
1
10
76.5787919987162
20
-5.82843450606856
30
0
41
1
10
76.5414683416272
20
-5.81252018863296
30
0
41
1
10
76.4690565536871
20
-5.7739467689369
30
0
41
1
10
76.4338579788221
20
-5.75118686201111
30
0
41
1
10
76.2657763056586
20
-5.62138106824878
30
0
41
1
10
76.1552925801796
20
-5.46692388621713
30
0
41
1
10
76.0486423973553
20
-5.20746859028333
30
0
41
1
10
76.0289055838313
20
-5.1522150768736
30
0
41
1
10
75.9927454529055
20
-5.03471500592869
30
0
41
1
10
75.9762880712755
20
-4.97224446940336
30
0
41
1
10
75.9327716242497
20
-4.77703594200307
30
0
41
1
10
75.9112720264054
20
-4.63585461739501
30
0
41
1
10
75.8830653790449
20
-4.33174574626022
30
0
41
1
10
75.8763577020412
20
-4.16881912218986
30
0
41
1
10
75.8781537749077
20
-3.82060386737101
30
0
41
1
10
75.8868046854751
20
-3.6346262918135
30
0
41
1
10
75.9030016873534
20
-3.44193573629806
30
0
0
SPLINE
5
C1
100
AcDbEntity
8
1
62
256
6
ByLayer
370
18
48
1
60
0
100
AcDbSpline
70
2053
71
3
72
60
73
56
40
0
40
0
40
0
40
0
40
0.0312500000000015
40
0.0312500000000015
40
0.062500000000003
40
0.062500000000003
40
0.0937500000000045
40
0.0937500000000045
40
0.125000000000006
40
0.125000000000006
40
0.156250000000007
40
0.156250000000007
40
0.187500000000009
40
0.187500000000009
40
0.250000000000012
40
0.250000000000012
40
0.281250000000013
40
0.281250000000013
40
0.312500000000014
40
0.312500000000014
40
0.375000000000016
40
0.375000000000016
40
0.437500000000017
40
0.437500000000017
40
0.468750000000017
40
0.468750000000017
40
0.500000000000016
40
0.500000000000016
40
0.531250000000015
40
0.531250000000015
40
0.562500000000015
40
0.562500000000015
40
0.593750000000014
40
0.593750000000014
40
0.625000000000013
40
0.625000000000013
40
0.656250000000012
40
0.656250000000012
40
0.687500000000012
40
0.687500000000012
40
0.75000000000001
40
0.75000000000001
40
0.781250000000009
40
0.781250000000009
40
0.812500000000008
40
0.812500000000008
40
0.843750000000006
40
0.843750000000006
40
0.875000000000005
40
0.875000000000005
40
0.906250000000004
40
0.906250000000004
40
0.937500000000003
40
0.937500000000003
40
1
40
1
40
1
40
1
41
1
10
77.2942945913744
20
-3.48918545053743
30
0
41
1
10
77.3231854086901
20
-3.44794491075766
30
0
41
1
10
77.3514787042006
20
-3.40374770336683
30
0
41
1
10
77.4067659477511
20
-3.30892381546201
30
0
41
1
10
77.4340611813841
20
-3.25766800825861
30
0
41
1
10
77.485403879625
20
-3.15078955146402
30
0
41
1
10
77.5093907895518
20
-3.09544478857614
30
0
41
1
10
77.553469641542
20
-2.98034905114764
30
0
41
1
10
77.5730103584437
20
-2.92185793933712
30
0
41
1
10
77.605460494255
20
-2.80690324280715
30
0
41
1
10
77.6187065203867
20
-2.74894170517109
30
0
41
1
10
77.6370452952528
20
-2.64067972286537
30
0
41
1
10
77.6423994871689
20
-2.58934686340106
30
0
41
1
10
77.6469100234258
20
-2.44879690381532
30
0
41
1
10
77.6344799904613
20
-2.37498546942717
30
0
41
1
10
77.5997522561467
20
-2.29666666520046
30
0
41
1
10
77.5853840474258
20
-2.27564758236699
30
0
41
1
10
77.5527956678348
20
-2.24394656427728
30
0
41
1
10
77.5344710625422
20
-2.23300377913162
30
0
41
1
10
77.4739601779458
20
-2.2137535626961
30
0
41
1
10
77.427966398047
20
-2.21916455217209
30
0
41
1
10
77.3267268738953
20
-2.26215113800322
30
0
41
1
10
77.2733024001762
20
-2.2989172950422
30
0
41
1
10
77.1888882602927
20
-2.377358977336
30
0
41
1
10
77.1602046262906
20
-2.40736687496155
30
0
41
1
10
77.1032190848925
20
-2.47378904381998
30
0
41
1
10
77.0747058509104
20
-2.51038576790944
30
0
41
1
10
77.017634061677
20
-2.591077596785
30
0
41
1
10
76.9887559696182
20
-2.63573358336711
30
0
41
1
10
76.933005766481
20
-2.73069976843667
30
0
41
1
10
76.9060681753106
20
-2.78098592744917
30
0
41
1
10
76.8543704096163
20
-2.88806851311858
30
0
41
1
10
76.8298933807299
20
-2.94442914799362
30
0
41
1
10
76.7860185918017
20
-3.05883025678952
30
0
41
1
10
76.7661199143773
20
-3.1183402197909
30
0
41
1
10
76.7335732271021
20
-3.23392814171785
30
0
41
1
10
76.7205712624152
20
-3.29095723502513
30
0
41
1
10
76.7020836573832
20
-3.40044282208765
30
0
41
1
10
76.6968283677565
20
-3.45119397092571
30
0
41
1
10
76.6921885999695
20
-3.59231258006645
30
0
41
1
10
76.7044849056127
20
-3.66695327219986
30
0
41
1
10
76.7388320137731
20
-3.74607371220458
30
0
41
1
10
76.7530217239875
20
-3.76737938944655
30
0
41
1
10
76.7855855589843
20
-3.79986106934479
30
0
41
1
10
76.8038224770773
20
-3.81102365906295
30
0
41
1
10
76.8437925182098
20
-3.82426720260327
30
0
41
1
10
76.8656508532442
20
-3.82627081751303
30
0
41
1
10
76.9114701899603
20
-3.82159347638171
30
0
41
1
10
76.9355533486167
20
-3.81498911016504
30
0
41
1
10
76.9859803845536
20
-3.79356255299305
30
0
41
1
10
77.0124751219563
20
-3.77859477365325
30
0
41
1
10
77.0662705322097
20
-3.74122708297745
30
0
41
1
10
77.0937174243971
20
-3.718800678706
30
0
41
1
10
77.1777350041023
20
-3.64009383168741
30
0
41
1
10
77.2365129567432
20
-3.57166653009696
30
0
41
1
10
77.2942945913744
20
-3.48918545053743
30
0
0
SPLINE
5
C2
100
AcDbEntity
8
1
62
256
6
ByLayer
370
18
48
1
60
0
100
AcDbSpline
70
4
71
3
72
85
73
81
40
0
40
0
40
0
40
0
40
0.0428459959099526
40
0.0428459959099526
40
0.112191588502374
40
0.112191588502374
40
0.12952798665048
40
0.12952798665048
40
0.146864384798585
40
0.146864384798585
40
0.181537181094796
40
0.181537181094796
40
0.250882773687219
40
0.250882773687219
40
0.28555556998343
40
0.28555556998343
40
0.320228366279641
40
0.320228366279641
40
0.389573958872063
40
0.389573958872063
40
0.424246755168273
40
0.424246755168273
40
0.441583153316379
40
0.441583153316379
40
0.450251352390432
40
0.450251352390432
40
0.452418402158945
40
0.452960164601073
40
0.453231045822137
40
0.453231045822137
40
0.45336648643267
40
0.45336648643267
40
0.453501927043202
40
0.453501927043202
40
0.45404368948533
40
0.45404368948533
40
0.454585451927458
40
0.454585451927458
40
0.458919551464484
40
0.458919551464484
40
0.476255949612587
40
0.476255949612587
40
0.493592347760691
40
0.493592347760691
40
0.528265144056897
40
0.528265144056897
40
0.597610736649311
40
0.597610736649311
40
0.666956329241724
40
0.666956329241724
40
0.701629125537931
40
0.701629125537931
40
0.710297324611983
40
0.710297324611983
40
0.714631424149009
40
0.714631424149009
40
0.715173186591137
40
0.715173186591137
40
0.715714949033265
40
0.715714949033265
40
0.715985830254329
40
0.715985830254329
40
0.716256711475394
40
0.716798473917522
40
0.718965523686035
40
0.736301921834137
40
0.736301921834137
40
0.770974718130343
40
0.770974718130343
40
0.805647514426548
40
0.805647514426548
40
0.840320310722754
40
0.840320310722754
40
0.874993107018959
40
0.874993107018959
40
0.94433869961137
40
0.94433869961137
40
0.979011495907576
40
0.979011495907576
40
1
40
1
40
1
40
1
41
1
10
18.9231356639692
20
1.33051097729563
30
0
41
1
10
18.685489791407
20
1.41578672213265
30
0
41
1
10
18.4482563871912
20
1.49385108079653
30
0
41
1
10
17.8274138606774
20
1.67563249517306
30
0
41
1
10
17.4440456454668
20
1.76529244233922
30
0
41
1
10
16.9620046532937
20
1.84083019169685
30
0
41
1
10
16.8652467876208
20
1.85413097164431
30
0
41
1
10
16.672698085856
20
1.87673551516826
30
0
41
1
10
16.5768390357312
20
1.88605872273465
30
0
41
1
10
16.2903382880355
20
1.90803935020904
30
0
41
1
10
16.1007762098493
20
1.91469968362668
30
0
41
1
10
15.5349018781267
20
1.91060308893225
30
0
41
1
10
15.1614135172995
20
1.87569274992038
30
0
41
1
10
14.6002022961851
20
1.77657228354309
30
0
41
1
10
14.4129640550988
20
1.73576158948472
30
0
41
1
10
14.0370226454962
20
1.6390308828197
30
0
41
1
10
13.8478847452545
20
1.58293648796976
30
0
41
1
10
13.2830749964103
20
1.39506442356901
30
0
41
1
10
12.9076924719897
20
1.24319444503243
30
0
41
1
10
12.3425028073902
20
0.983189631312712
30
0
41
1
10
12.1542168081087
20
0.89136563518565
30
0
41
1
10
11.8714143779025
20
0.746872721883221
30
0
41
1
10
11.7771618906642
20
0.697620969266609
30
0
41
1
10
11.6357216787727
20
0.622225171198124
30
0
41
1
10
11.5885730931231
20
0.596844596651096
30
0
41
1
10
11.5296331133086
20
0.564823419160064
30
0
41
1
10
11.5148976642362
20
0.556799555663616
30
0
41
1
10
11.4986881332468
20
0.547948170706292
30
0
41
1
10
11.4942673401134
20
0.545532124784813
30
0
41
1
10
11.4920569397548
20
0.544323762800531
30
0
41
1
10
11.4911605456319
20
0.544075182740556
30
0
41
1
10
11.4901554285516
20
0.542775601155029
30
0
41
1
10
11.490436043571
20
0.541825138224567
30
0
41
1
10
11.4922019213814
20
0.538048325041359
30
0
41
1
10
11.4948230740594
20
0.535692434034587
30
0
41
1
10
11.49969906344
20
0.530982804948991
30
0
41
1
10
11.5022462957514
20
0.528742989561863
30
0
41
1
10
11.5255316758828
20
0.508963678256833
30
0
41
1
10
11.5480098063662
20
0.493392331114535
30
0
41
1
10
11.6596624725697
20
0.415201131637389
30
0
41
1
10
11.7516205183951
20
0.356208341937247
30
0
41
1
10
11.9354209414874
20
0.238165774170142
30
0
41
1
10
12.0277581447813
20
0.17973708586058
30
0
41
1
10
12.3052734869429
20
0.0051890581955547
30
0
41
1
10
12.4910073488653
20
-0.110176514405225
30
0
41
1
10
13.0490794627435
20
-0.455269222873085
30
0
41
1
10
13.4220306259467
20
-0.684504608824767
30
0
41
1
10
14.167763466297
20
-1.14383342425097
30
0
41
1
10
14.5408282805962
20
-1.37353061654252
30
0
41
1
10
15.0974244970264
20
-1.72322147759186
30
0
41
1
10
15.2827894960932
20
-1.8400691252979
30
0
41
1
10
15.5115882333812
20
-1.99076961898686
30
0
41
1
10
15.5572219438837
20
-2.02110081262549
30
0
41
1
10
15.6245839548493
20
-2.06814887563297
30
0
41
1
10
15.647183780087
20
-2.08375098527858
30
0
41
1
10
15.6708201443415
20
-2.10349979737424
30
0
41
1
10
15.6734117227077
20
-2.10573614358
30
0
41
1
10
15.6783688111295
20
-2.11042404515439
30
0
41
1
10
15.681220813331
20
-2.11276280138165
30
0
41
1
10
15.6829987241263
20
-2.11736668815206
30
0
41
1
10
15.6812157065459
20
-2.11834522706968
30
0
41
1
10
15.6785852746999
20
-2.12012565575981
30
0
41
1
10
15.6746396250159
20
-2.12279524447544
30
0
41
1
10
15.6601722599146
20
-2.13257209317212
30
0
41
1
10
15.5628450424069
20
-2.19808269316201
30
0
41
1
10
15.4681629864452
20
-2.25995485254765
30
0
41
1
10
15.215627433206
20
-2.42009088334558
30
0
41
1
10
15.0471860903874
20
-2.52036767891357
30
0
41
1
10
14.7109755389651
20
-2.70494590223393
30
0
41
1
10
14.5428722727362
20
-2.78946983611255
30
0
41
1
10
14.204647621879
20
-2.94132390401668
30
0
41
1
10
14.0345292421553
20
-3.0086535119037
30
0
41
1
10
13.6898952494913
20
-3.12410277539854
30
0
41
1
10
13.5173269426161
20
-3.17152639343664
30
0
41
1
10
12.9970517232409
20
-3.28146954307317
30
0
41
1
10
12.646029824019
20
-3.31162103610151
30
0
41
1
10
12.1010782351038
20
-3.29116225430829
30
0
41
1
10
11.9157258765339
20
-3.27325624675052
30
0
41
1
10
11.6186010628047
20
-3.22889241208887
30
0
41
1
10
11.5063352012818
20
-3.2086181979235
30
0
41
1
10
11.3937491371171
20
-3.18512470567765
30
0
0
SPLINE
5
C3
100
AcDbEntity
8
1
62
256
6
ByLayer
370
13
48
1
60
0
100
AcDbSpline
70
4
71
3
72
12
73
8
40
0
40
0
40
0
40
0
40
0.500000000000014
40
0.500000000000014
40
0.750000000000007
40
0.750000000000007
40
1
40
1
40
1
40
1
41
1
10
3.99999979050446
20
-6.06427488520688
30
0
41
1
10
3.99999979050446
20
-6.0413504857051
30
0
41
1
10
4.01166032982448
20
-6.0176367385404
30
0
41
1
10
4.0451962904485
20
-5.98669371696775
30
0
41
1
10
4.05926969991904
20
-5.97686927323687
30
0
41
1
10
4.09262801467972
20
-5.95936712450822
30
0
41
1
10
4.11158383963553
20
-5.95178245028106
30
0
41
1
10
4.13319718052546
20
-5.9455758135326
30
0
0
SPLINE
5
C4
100
AcDbEntity
8
1
62
256
6
ByLayer
370
18
48
1
60
0
100
AcDbSpline
70
4
71
3
72
92
73
88
40
0
40
0
40
0
40
0
40
0.003341160318968
40
0.003341160318968
40
0.0239656444679776
40
0.0239656444679776
40
0.0652146127659976
40
0.0652146127659976
40
0.0858390969150081
40
0.0858390969150081
40
0.106463581064019
40
0.106463581064019
40
0.127088065213029
40
0.127088065213029
40
0.147712549362039
40
0.147712549362039
40
0.16833703351105
40
0.16833703351105
40
0.18896151766006
40
0.18896151766006
40
0.230210485958081
40
0.230210485958081
40
0.250834970107091
40
0.250834970107091
40
0.271459454256102
40
0.271459454256102
40
0.292083938405112
40
0.292083938405112
40
0.312708422554122
40
0.312708422554122
40
0.353957390852142
40
0.353957390852142
40
0.374581875001152
40
0.374581875001152
40
0.395206359150162
40
0.395206359150162
40
0.415830843299171
40
0.415830843299171
40
0.436455327448181
40
0.436455327448181
40
0.457079811597191
40
0.457079811597191
40
0.4777042957462
40
0.4777042957462
40
0.51895326404422
40
0.51895326404422
40
0.53957774819323
40
0.53957774819323
40
0.56020223234224
40
0.56020223234224
40
0.580826716491251
40
0.580826716491251
40
0.601451200640261
40
0.601451200640261
40
0.622075684789271
40
0.622075684789271
40
0.642700168938281
40
0.642700168938281
40
0.6839491372363
40
0.6839491372363
40
0.704573621385309
40
0.704573621385309
40
0.725198105534319
40
0.725198105534319
40
0.745822589683328
40
0.745822589683328
40
0.766447073832337
40
0.766447073832337
40
0.787071557981347
40
0.787071557981347
40
0.807696042130356
40
0.807696042130356
40
0.848945010428376
40
0.848945010428376
40
0.869569494577385
40
0.869569494577385
40
0.890193978726394
40
0.890193978726394
40
0.910818462875404
40
0.910818462875404
40
0.931442947024413
40
0.931442947024413
40
0.972691915322431
40
0.972691915322431
40
0.993316399471441
40
0.993316399471441
40
1
40
1
40
1
40
1
41
1
10
30.5669399563464
20
4.44907646251704
30
0
41
1
10
30.6160149706713
20
4.46737817770477
30
0
41
1
10
30.6650949437945
20
4.48556690514817
30
0
41
1
10
31.0171682013637
20
4.61522706137299
30
0
41
1
10
31.3190148898624
20
4.72259446169272
30
0
41
1
10
32.2252839664479
20
5.02683087068252
30
0
41
1
10
32.8301167080735
20
5.20679228867795
30
0
41
1
10
33.7357381912997
20
5.44507849351584
30
0
41
1
10
34.0373420652413
20
5.51910859681496
30
0
41
1
10
34.6427758125942
20
5.65410872478481
30
0
41
1
10
34.9462051569505
20
5.71545704004319
30
0
41
1
10
35.5514775233294
20
5.8256982449885
30
0
41
1
10
35.8536134082152
20
5.8746795264741
30
0
41
1
10
36.4566872359254
20
5.96024506258993
30
0
41
1
10
36.7583685505751
20
5.99645406669313
30
0
41
1
10
37.362655876303
20
6.05573455886721
30
0
41
1
10
37.6650721823821
20
6.07889380495124
30
0
41
1
10
38.2700648411666
20
6.11225846831164
30
0
41
1
10
38.5726925172261
20
6.1224660555464
30
0
41
1
10
39.4795584282289
20
6.13289855359855
30
0
41
1
10
40.0846353789235
20
6.11341292762245
30
0
41
1
10
40.9901329225175
20
6.04489275297737
30
0
41
1
10
41.2913210736288
20
6.01527318237842
30
0
41
1
10
41.895506402877
20
5.943457825531
30
0
41
1
10
42.1982452183064
20
5.90124529123804
30
0
41
1
10
42.8045263442134
20
5.80402046061661
30
0
41
1
10
43.1071871679701
20
5.74915742675813
30
0
41
1
10
43.7109603403947
20
5.62657824987633
30
0
41
1
10
44.0123292909827
20
5.55895570058351
30
0
41
1
10
44.9182302405192
20
5.33991202350333
30
0
41
1
10
45.5227754722553
20
5.17123680812006
30
0
41
1
10
46.4291466966867
20
4.88201578973963
30
0
41
1
10
46.7321458765775
20
4.78049944055465
30
0
41
1
10
47.3372687079231
20
4.56840273236736
30
0
41
1
10
47.6396227181999
20
4.45761665684694
30
0
41
1
10
48.2435332853374
20
4.22608099476105
30
0
41
1
10
48.5447385516349
20
4.10482689230346
30
0
41
1
10
49.1479636906562
20
3.85438824344348
30
0
41
1
10
49.4502070794981
20
3.72556797904758
30
0
41
1
10
50.0553252313719
20
3.45992301876467
30
0
41
1
10
50.3585504826386
20
3.32298539858283
30
0
41
1
10
50.963466521658
20
3.04129116091625
30
0
41
1
10
51.2649044763344
20
2.89619133457251
30
0
41
1
10
52.1707793399959
20
2.45571417911418
30
0
41
1
10
52.775261201642
20
2.1528824079623
30
0
41
1
10
53.6804060287263
20
1.68050169206026
30
0
41
1
10
53.982363082231
20
1.52086964647899
30
0
41
1
10
54.5882724001286
20
1.20002870527486
30
0
41
1
10
54.8910351421223
20
1.03873275770508
30
0
41
1
10
55.4955383537235
20
0.713817173755558
30
0
41
1
10
55.7971524726533
20
0.549866316937653
30
0
41
1
10
56.3998524999732
20
0.22034164708694
30
0
41
1
10
56.7017107490275
20
0.0561932806585332
30
0
41
1
10
57.3060058031071
20
-0.27167108278141
30
0
41
1
10
57.608424981344
20
-0.435419770236535
30
0
41
1
10
58.2134340030611
20
-0.763249852702842
30
0
41
1
10
58.5156991372627
20
-0.928037161985543
30
0
41
1
10
59.4219913638274
20
-1.41505316701384
30
0
41
1
10
60.0265716510479
20
-1.73122024241192
30
0
41
1
10
60.9313992184884
20
-2.19742739366393
30
0
41
1
10
61.232630836669
20
-2.35151077076392
30
0
41
1
10
61.8371768926122
20
-2.65217533647689
30
0
41
1
10
62.1403905959239
20
-2.7996440185149
30
0
41
1
10
62.7458192581036
20
-3.08835492253292
30
0
41
1
10
63.0479711602821
20
-3.22961248973473
30
0
41
1
10
63.650893145865
20
-3.50621226099616
30
0
41
1
10
63.9523777864759
20
-3.64043492654966
30
0
41
1
10
64.5561859762626
20
-3.89971240811795
30
0
41
1
10
64.8582974980872
20
-4.02509323831472
30
0
41
1
10
65.4625482212624
20
-4.26784561453377
30
0
41
1
10
65.7644367301301
20
-4.3855329495531
30
0
41
1
10
66.6715087268959
20
-4.72443707974119
30
0
41
1
10
67.2765904993378
20
-4.92761013453739
30
0
41
1
10
68.1815881899259
20
-5.20207701847735
30
0
41
1
10
68.4825225287576
20
-5.28871382598624
30
0
41
1
10
69.086006777529
20
-5.44928340621451
30
0
41
1
10
69.3883372759811
20
-5.52348788146932
30
0
41
1
10
69.993671760342
20
-5.66022115077044
30
0
41
1
10
70.2967274975238
20
-5.72272424623105
30
0
41
1
10
70.9004745643548
20
-5.8355360208846
30
0
41
1
10
71.201654687391
20
-5.8857593634938
30
0
41
1
10
72.1067025529638
20
-6.01620956533981
30
0
41
1
10
72.7103004246218
20
-6.07754005054261
30
0
41
1
10
73.6144369712735
20
-6.13079886547266
30
0
41
1
10
73.9164901310648
20
-6.14185909726453
30
0
41
1
10
74.3174495736043
20
-6.14774809713117
30
0
41
1
10
74.415570254338
20
-6.14849531113688
30
0
41
1
10
74.5136566672433
20
-6.14854901561401
30
0
0
SPLINE
5
C5
100
AcDbEntity
8
1
62
256
6
ByLayer
370
18
48
1
60
0
100
AcDbSpline
70
4
71
3
72
46
73
42
40
0
40
0
40
0
40
0
40
0.0898795171100246
40
0.0898795171100246
40
0.134819275665037
40
0.134819275665037
40
0.179759034220049
40
0.179759034220049
40
0.224698792775061
40
0.224698792775061
40
0.269638551330074
40
0.269638551330074
40
0.359518068440098
40
0.359518068440098
40
0.404457826995111
40
0.404457826995111
40
0.449397585550124
40
0.449397585550124
40
0.494337344105137
40
0.494337344105137
40
0.53927710266015
40
0.53927710266015
40
0.584216861215164
40
0.584216861215164
40
0.629156619770177
40
0.629156619770177
40
0.719036136880203
40
0.719036136880203
40
0.763975895435217
40
0.763975895435217
40
0.80891565399023
40
0.80891565399023
40
0.853855412545244
40
0.853855412545244
40
0.898795171100258
40
0.898795171100258
40
0.943734929655272
40
0.943734929655272
40
0.988674688210286
40
0.988674688210286
40
1
40
1
40
1
40
1
41
1
10
18.9231356635063
20
1.33051097746176
30
0
41
1
10
19.5281571634091
20
1.00761939407127
30
0
41
1
10
20.133672958236
20
0.684398829111018
30
0
41
1
10
21.0399163672547
20
0.194023393171079
30
0
41
1
10
21.3413267942338
20
0.0290197909422147
30
0
41
1
10
21.9451587685659
20
-0.299725390924266
30
0
41
1
10
22.2477732279669
20
-0.46310541186017
30
0
41
1
10
22.853777357983
20
-0.789030017492422
30
0
41
1
10
23.1572025539332
20
-0.951526933059796
30
0
41
1
10
23.7619416583504
20
-1.27489987816384
30
0
41
1
10
24.0633796012089
20
-1.43628203972443
30
0
41
1
10
24.9695065999882
20
-1.91122633203474
30
0
41
1
10
25.5744499860288
20
-2.21854955183787
30
0
41
1
10
26.4807475166402
20
-2.66956340152723
30
0
41
1
10
26.783522961953
20
-2.81743685549711
30
0
41
1
10
27.3892727478397
20
-3.10476471097346
30
0
41
1
10
27.6919439721961
20
-3.24472943843457
30
0
41
1
10
28.2964886871137
20
-3.51792648720092
30
0
41
1
10
28.5981810561871
20
-3.65142030205669
30
0
41
1
10
29.2012536521354
20
-3.91077821280467
30
0
41
1
10
29.5033873131249
20
-4.0355649464085
30
0
41
1
10
30.1083598797672
20
-4.27620044882801
30
0
41
1
10
30.4111899786849
20
-4.39205978202929
30
0
41
1
10
31.0171682013633
20
-4.61522706137291
30
0
41
1
10
31.3190148898621
20
-4.72259446169264
30
0
41
1
10
32.2252839664476
20
-5.02683087068243
30
0
41
1
10
32.8301167080732
20
-5.20679228867783
30
0
41
1
10
33.7357381912993
20
-5.44507849351575
30
0
41
1
10
34.037342065241
20
-5.5191085968149
30
0
41
1
10
34.6427758125938
20
-5.65410872478472
30
0
41
1
10
34.9462051569501
20
-5.71545704004313
30
0
41
1
10
35.5514775233289
20
-5.82569824498844
30
0
41
1
10
35.8536134082148
20
-5.87467952647401
30
0
41
1
10
36.4566872359249
20
-5.96024506258991
30
0
41
1
10
36.7583685505747
20
-5.9964540666931
30
0
41
1
10
37.3626558763026
20
-6.05573455886719
30
0
41
1
10
37.6650721823817
20
-6.07889380495121
30
0
41
1
10
38.2700648411662
20
-6.11225846831161
30
0
41
1
10
38.5726925172256
20
-6.1224660555464
30
0
41
1
10
38.9511612044672
20
-6.12681992285417
30
0
41
1
10
39.0273491882652
20
-6.12727648293264
30
0
41
1
10
39.1035412812061
20
-6.12731372755775
30
0
0
SPLINE
5
C6
100
AcDbEntity
8
1
62
256
6
ByLayer
370
18
48
1
60
0
100
AcDbSpline
70
4
71
3
72
28
73
24
40
0
40
0
40
0
40
0
40
0.0085097482892753
40
0.0085097482892753
40
0.173758123574393
40
0.173758123574393
40
0.256382311216953
40
0.256382311216953
40
0.339006498859514
40
0.339006498859514
40
0.421630686502074
40
0.421630686502074
40
0.504254874144634
40
0.504254874144634
40
0.669503249429758
40
0.669503249429758
40
0.752127437072318
40
0.752127437072318
40
0.834751624714879
40
0.834751624714879
40
0.917375812357439
40
0.917375812357439
40
1
40
1
40
1
40
1
41
1
10
65.9733857567171
20
4.46344703899334
30
0
41
1
10
66.0045173994694
20
4.47518100037234
30
0
41
1
10
66.0356532443705
20
4.48686602694829
30
0
41
1
10
66.6715087268948
20
4.72443707974077
30
0
41
1
10
67.2765904993367
20
4.92761013453702
30
0
41
1
10
68.1815881899246
20
5.20207701847701
30
0
41
1
10
68.4825225287565
20
5.28871382598592
30
0
41
1
10
69.0860067775278
20
5.44928340621422
30
0
41
1
10
69.3883372759798
20
5.52348788146904
30
0
41
1
10
69.9936717603408
20
5.66022115077016
30
0
41
1
10
70.2967274975225
20
5.72272424623083
30
0
41
1
10
70.9004745643535
20
5.8355360208844
30
0
41
1
10
71.2016546873897
20
5.88575936349361
30
0
41
1
10
72.1067025529624
20
6.01620956533966
30
0
41
1
10
72.7103004246206
20
6.07754005054249
30
0
41
1
10
73.6144369712722
20
6.13079886547263
30
0
41
1
10
73.9164901310635
20
6.1418590972645
30
0
41
1
10
74.5221409311611
20
6.15075445450671
30
0
41
1
10
74.8248390955668
20
6.14859258461075
30
0
41
1
10
75.4287523255202
20
6.13108487463776
30
0
41
1
10
75.7297741995305
20
6.11564731244556
30
0
41
1
10
76.3320225132623
20
6.07165897567921
30
0
41
1
10
76.6335769467975
20
6.04325639933509
30
0
41
1
10
76.9352361882428
20
6.00845941273477
30
0
0
SPLINE
5
C7
100
AcDbEntity
8
1
62
256
6
ByLayer
370
13
48
1
60
0
100
AcDbSpline
70
4
71
3
72
8
73
4
40
0
40
0
40
0
40
0
40
1
40
1
40
1
40
1
41
1
10
4.13319718052546
20
-5.9455758135326
30
0
41
1
10
4.15529297304624
20
-5.93449755027802
30
0
41
1
10
4.17918685526757
20
-5.92928659419621
30
0
41
1
10
4.20356974159651
20
-5.92983818816271
30
0
0
SPLINE
5
C8
100
AcDbEntity
8
1
62
256
6
ByLayer
370
18
48
1
60
0
100
AcDbSpline
70
4
71
3
72
24
73
20
40
0
40
0
40
0
40
0
40
0.25
40
0.25
40
0.375
40
0.375
40
0.5
40
0.5
40
0.625
40
0.625
40
0.75
40
0.75
40
0.8125
40
0.8125
40
0.875
40
0.875
40
0.9375
40
0.9375
40
1
40
1
40
1
40
1
41
1
10
76.0669423292255
20
1.76939803244383
30
0
41
1
10
76.2789745233484
20
1.80793059497918
30
0
41
1
10
76.4900768495984
20
1.85198505651218
30
0
41
1
10
76.8026889683739
20
1.93223173054449
30
0
41
1
10
76.9061609236301
20
1.96136711544278
30
0
41
1
10
77.1110453589382
20
2.02646231476041
30
0
41
1
10
77.212484684175
20
2.06241339297068
30
0
41
1
10
77.4102705686006
20
2.14395384994822
30
0
41
1
10
77.5068722987195
20
2.18947288926333
30
0
41
1
10
77.6922672671083
20
2.29698062504764
30
0
41
1
10
77.7812012747817
20
2.35896907362522
30
0
41
1
10
77.897223904697
20
2.47127746540517
30
0
41
1
10
77.9329430896827
20
2.5121326030949
30
0
41
1
10
77.9939017238188
20
2.59968923494509
30
0
41
1
10
78.0195373116841
20
2.64676158625949
30
0
41
1
10
78.0580104624896
20
2.74908755664805
30
0
41
1
10
78.0698378982826
20
2.80178676971795
30
0
41
1
10
78.0791474924783
20
2.91019268055439
30
0
41
1
10
78.0764565541758
20
2.96520597698469
30
0
41
1
10
78.0678361100027
20
3.01879089324712
30
0
0
SPLINE
5
C9
100
AcDbEntity
8
1
62
256
6
ByLayer
370
18
48
1
60
0
100
AcDbSpline
70
4
71
3
72
20
73
16
40
0
40
0
40
0
40
0
40
0.0032763116141753
40
0.0032763116141753
40
0.471331804151246
40
0.471331804151246
40
0.705359550419779
40
0.705359550419779
40
0.763866486986913
40
0.763866486986913
40
0.822373423554047
40
0.822373423554047
40
0.939387296688317
40
0.939387296688317
40
1
40
1
40
1
40
1
41
1
10
22.368070447853
20
-0.0006277493603193
30
0
41
1
10
22.3787443954193
20
-0.0062585947183038
30
0
41
1
10
22.3894170173057
20
-0.01188871411523
30
0
41
1
10
23.9245823736454
20
-0.821726051274112
30
0
41
1
10
25.428089671913
20
-1.61454977556622
30
0
41
1
10
27.6916220465947
20
-2.71310013977012
30
0
41
1
10
28.447516191228
20
-3.06415401111667
30
0
41
1
10
29.3981463335234
20
-3.4767728817825
30
0
41
1
10
29.5885672321943
20
-3.55797485589562
30
0
41
1
10
29.9701076581982
20
-3.7175386799029
30
0
41
1
10
30.1614162525222
20
-3.79597276772063
30
0
41
1
10
30.7337451999215
20
-4.0255944497693
30
0
41
1
10
31.113884693233
20
-4.17149829413617
30
0
41
1
10
31.6894261593862
20
-4.38139644481959
30
0
41
1
10
31.8855674893612
20
-4.45095765336598
30
0
41
1
10
32.0815102775751
20
-4.51839972024527
30
0
0
SPLINE
5
CA
100
AcDbEntity
8
1
62
256
6
ByLayer
370
13
48
1
60
0
100
AcDbSpline
70
4
71
3
72
14
73
10
40
0
40
0
40
0
40
0
40
0.395907114515979
40
0.395907114515979
40
0.623308978513527
40
0.623308978513527
40
0.850710842511076
40
0.850710842511076
40
1
40
1
40
1
40
1
41
1
10
32.0815102775905
20
-4.51839972025056
30
0
41
1
10
33.398651269432
20
-4.97174996432358
30
0
41
1
10
34.706820910563
20
-5.32934421734592
30
0
41
1
10
36.779029007364
20
-5.71508379693162
30
0
41
1
10
37.5382486473246
20
-5.81878465760832
30
0
41
1
10
39.0667292729588
20
-5.94565906415073
30
0
41
1
10
39.8297059823153
20
-5.96842813697725
30
0
41
1
10
41.0955707654447
20
-5.93793573226552
30
0
41
1
10
41.596469356001
20
-5.90817777281069
30
0
41
1
10
42.0975533190105
20
-5.86100967505024
30
0
0
SPLINE
5
CB
100
AcDbEntity
8
1
62
256
6
ByLayer
370
18
48
1
60
0
100
AcDbSpline
70
4
71
3
72
26
73
22
40
0
40
0
40
0
40
0
40
0.062500000000001
40
0.062500000000001
40
0.125000000000002
40
0.125000000000002
40
0.250000000000002
40
0.250000000000002
40
0.312500000000004
40
0.312500000000004
40
0.375000000000005
40
0.375000000000005
40
0.500000000000005
40
0.500000000000005
40
0.562500000000005
40
0.562500000000005
40
0.625000000000005
40
0.625000000000005
40
0.750000000000004
40
0.750000000000004
40
1
40
1
40
1
40
1
41
1
10
70.4932624400972
20
2.61571846503759
30
0
41
1
10
70.5220538762237
20
2.45759747506224
30
0
41
1
10
70.5619226361628
20
2.29827661100597
30
0
41
1
10
70.6622263464741
20
1.97740719331065
30
0
41
1
10
70.7231871527441
20
1.81486767907882
30
0
41
1
10
70.9291962875792
20
1.33734956818978
30
0
41
1
10
71.0977036089602
20
1.0287862841659
30
0
41
1
10
71.3861840301808
20
0.577151993954772
30
0
41
1
10
71.4885961140555
20
0.428300313944874
30
0
41
1
10
71.7001546023032
20
0.139414264069586
30
0
41
1
10
71.8097686455445
20
-0.0013897028258611
30
0
41
1
10
72.1484715710934
20
-0.414444135949822
30
0
41
1
10
72.3871860724164
20
-0.677560307208381
30
0
41
1
10
72.7615668644528
20
-1.05675799243147
30
0
41
1
10
72.8894327361689
20
-1.18076388546902
30
0
41
1
10
73.1489545394611
20
-1.42276933503081
30
0
41
1
10
73.2800801665852
20
-1.54032746342074
30
0
41
1
10
73.6769955691335
20
-1.88407054521278
30
0
41
1
10
73.9463269609244
20
-2.10131638290955
30
0
41
1
10
74.7661510049021
20
-2.72319505379309
30
0
41
1
10
75.3283347836795
20
-3.09831923259662
30
0
41
1
10
75.9030016873533
20
-3.44193573629809
30
0
0
SPLINE
5
CC
100
AcDbEntity
8
1
62
256
6
ByLayer
370
18
48
1
60
0
100
AcDbSpline
70
4
71
3
72
18
73
14
40
0
40
0
40
0
40
0
40
0.249999999999999
40
0.249999999999999
40
0.374999999999998
40
0.374999999999998
40
0.499999999999998
40
0.499999999999998
40
0.749999999999997
40
0.749999999999997
40
0.874999999999998
40
0.874999999999998
40
1
40
1
40
1
40
1
41
1
10
78.0678361100022
20
3.01879089324726
30
0
41
1
10
77.9740335467596
20
3.27061705466332
30
0
41
1
10
77.8801028228098
20
3.52226511977887
30
0
41
1
10
77.7390166865285
20
3.89894606593137
30
0
41
1
10
77.6919494211308
20
4.02437701213847
30
0
41
1
10
77.5976932013328
20
4.27483056584836
30
0
41
1
10
77.5504864543691
20
4.3997934687591
30
0
41
1
10
77.4087458943714
20
4.77427843559937
30
0
41
1
10
77.3141951696723
20
5.02379125482355
30
0
41
1
10
77.1722238918847
20
5.39526289011198
30
0
41
1
10
77.1248572657856
20
5.51839853420884
30
0
41
1
10
77.0300802499891
20
5.76396719040753
30
0
41
1
10
76.9826780183547
20
5.88653118159442
30
0
41
1
10
76.9352361882569
20
6.00845941273303
30
0
0
SPLINE
5
CD
100
AcDbEntity
8
1
62
256
6
ByLayer
370
18
48
1
60
0
100
AcDbSpline
70
4
71
3
72
67
73
63
40
0
40
0
40
0
40
0
40
0.124999999999991
40
0.124999999999991
40
0.249999999999982
40
0.249999999999982
40
0.374999999999974
40
0.374999999999974
40
0.499999999999965
40
0.499999999999965
40
0.56249999999996
40
0.56249999999996
40
0.624999999999955
40
0.624999999999955
40
0.687499999999951
40
0.687499999999951
40
0.70312499999995
40
0.70312499999995
40
0.710937499999949
40
0.714843749999949
40
0.714843749999949
40
0.716796874999949
40
0.716796874999949
40
0.718749999999949
40
0.718749999999949
40
0.72265624999995
40
0.72265624999995
40
0.72656249999995
40
0.72656249999995
40
0.734374999999951
40
0.734374999999951
40
0.749999999999954
40
0.749999999999954
40
0.78124999999996
40
0.78124999999996
40
0.789062499999962
40
0.789062499999962
40
0.796874999999963
40
0.796874999999963
40
0.812499999999966
40
0.812499999999966
40
0.820312499999967
40
0.820312499999967
40
0.828124999999969
40
0.828124999999969
40
0.843749999999972
40
0.843749999999972
40
0.851562499999973
40
0.851562499999973
40
0.859374999999974
40
0.859374999999974
40
0.874999999999977
40
0.874999999999977
40
0.906249999999982
40
0.906249999999982
40
0.921874999999985
40
0.921874999999985
40
0.937499999999988
40
0.937499999999988
40
0.968749999999994
40
0.968749999999994
40
1
40
1
40
1
40
1
41
1
10
18.9231190663575
20
1.33048490953047
30
0
41
1
10
18.0893685820253
20
1.77402534861622
30
0
41
1
10
17.2463539241224
20
2.18446006096363
30
0
41
1
10
15.5334213254916
20
2.93203659718344
30
0
41
1
10
14.6716587046485
20
3.26494727064539
30
0
41
1
10
12.929983738957
20
3.84302579208452
30
0
41
1
10
12.0496705491577
20
4.08818239637307
30
0
41
1
10
10.2621651656065
20
4.49330608953233
30
0
41
1
10
9.35497690987512
20
4.65346314483196
30
0
41
1
10
7.97019190213797
20
4.83722173040974
30
0
41
1
10
7.50461891319333
20
4.88909901560265
30
0
41
1
10
6.56503393168273
20
4.97526466805695
30
0
41
1
10
6.09231246065733
20
5.00942117900644
30
0
41
1
10
5.14558367809059
20
5.06069840397271
30
0
41
1
10
4.67067618418852
20
5.07790472911648
30
0
41
1
10
4.07579408545067
20
5.08901137264019
30
0
41
1
10
3.95679161187277
20
5.09070927858207
30
0
41
1
10
3.77824829488074
20
5.09246613941409
30
0
41
1
10
3.6889637148042
20
5.09314701120337
30
0
41
1
10
3.59967768571451
20
5.09352988758198
30
0
41
1
10
3.55503445303887
20
5.09367151337511
30
0
41
1
10
3.54015373206721
20
5.09379647771442
30
0
41
1
10
3.51038705997226
20
5.09290634394989
30
0
41
1
10
3.49556382433914
20
5.09201037861607
30
0
41
1
10
3.45185494432471
20
5.08773789703974
30
0
41
1
10
3.42254453745014
20
5.08280955835701
30
0
41
1
10
3.37301608913808
20
5.06529524082825
30
0
41
1
10
3.3488291184083
20
5.05600783504772
30
0
41
1
10
3.27599879227248
20
5.02820067818979
30
0
41
1
10
3.227971236141
20
5.00900331470271
30
0
41
1
10
3.08561896395346
20
4.94920318097033
30
0
41
1
10
2.99361587065735
20
4.90664850883039
30
0
41
1
10
2.7286409292241
20
4.76952936607597
30
0
41
1
10
2.5659784979479
20
4.66579966299824
30
0
41
1
10
2.38961998455488
20
4.51079123456049
30
0
41
1
10
2.35572943873223
20
4.47848830834658
30
0
41
1
10
2.29112290207911
20
4.4108489807243
30
0
41
1
10
2.26039722417553
20
4.37545128743255
30
0
41
1
10
2.17548441113709
20
4.26635936500074
30
0
41
1
10
2.12785329070542
20
4.18912892846961
30
0
41
1
10
2.07199846189394
20
4.06519462272894
30
0
41
1
10
2.05592087830868
20
4.02229494711872
30
0
41
1
10
2.0297641204167
20
3.93466402108319
30
0
41
1
10
2.0197224175341
20
3.8901819433643
30
0
41
1
10
1.99852753095033
20
3.75471600272129
30
0
41
1
10
1.9962941482556
20
3.66171421324279
30
0
41
1
10
2.01027395321299
20
3.51806484298766
30
0
41
1
10
2.01783813420414
20
3.46966343014947
30
0
41
1
10
2.03806214343271
20
3.37350215428754
30
0
41
1
10
2.05074121713895
20
3.32549923707654
30
0
41
1
10
2.09576812762003
20
3.1816606960376
30
0
41
1
10
2.1354359466157
20
3.08531905553573
30
0
41
1
10
2.27507119409108
20
2.80207487967993
30
0
41
1
10
2.39413014287871
20
2.62144884418615
30
0
41
1
10
2.59682416450613
20
2.35752151205224
30
0
41
1
10
2.66877905949355
20
2.27051674771892
30
0
41
1
10
2.81741169792093
20
2.10083639161377
30
0
41
1
10
2.89429075995651
20
2.01787318120711
30
0
41
1
10
3.13110140724709
20
1.77343283822646
30
0
41
1
10
3.29712848637038
20
1.61634440025003
30
0
41
1
10
3.64060838000322
20
1.31010156026753
30
0
41
1
10
3.81811446890032
20
1.16098870482742
30
0
41
1
10
3.99999979047536
20
1.01479855509663
30
0
0
SPLINE
5
CE
100
AcDbEntity
8
1
62
256
6
ByLayer
370
18
48
1
60
0
100
AcDbSpline
70
4
71
3
72
48
73
44
40
0
40
0
40
0
40
0
40
0.0482275816142404
40
0.0482275816142404
40
0.0964551632284808
40
0.0964551632284808
40
0.144682744842721
40
0.144682744842721
40
0.192910326456962
40
0.192910326456962
40
0.241137908071202
40
0.241137908071202
40
0.289365489685443
40
0.289365489685443
40
0.337593071299683
40
0.337593071299683
40
0.385820652913923
40
0.385820652913923
40
0.434048234528164
40
0.434048234528164
40
0.482275816142404
40
0.482275816142404
40
0.530503397756645
40
0.530503397756645
40
0.578730979370885
40
0.578730979370885
40
0.626958560985125
40
0.626958560985125
40
0.675186142599366
40
0.675186142599366
40
0.723413724213606
40
0.723413724213606
40
0.771641305827847
40
0.771641305827847
40
0.819868887442087
40
0.819868887442087
40
0.868096469056327
40
0.868096469056327
40
0.916324050670568
40
0.916324050670568
40
0.964551632284808
40
0.964551632284808
40
1
40
1
40
1
40
1
41
1
10
11.3937892310068
20
-3.18513307199271
30
0
41
1
10
11.7024122157277
20
-3.3194137159912
30
0
41
1
10
12.0107832279882
20
-3.44931994655192
30
0
41
1
10
12.6269857711608
20
-3.70166681805261
30
0
41
1
10
12.9347730122728
20
-3.82411286575376
30
0
41
1
10
13.5499959117546
20
-4.06021004464804
30
0
41
1
10
13.8572966611811
20
-4.17392366255712
30
0
41
1
10
14.4728150225196
20
-4.3911735699615
30
0
41
1
10
14.7809510519699
20
-4.4949807397949
30
0
41
1
10
15.3978476011647
20
-4.69294640294081
30
0
41
1
10
15.7067838680913
20
-4.78696337902792
30
0
41
1
10
16.3228968111704
20
-4.96356192442434
30
0
41
1
10
16.6305091757115
20
-5.04623960282927
30
0
41
1
10
17.2460805304356
20
-5.20017997523098
30
0
41
1
10
17.5538194250545
20
-5.27157691965266
30
0
41
1
10
18.1692404943938
20
-5.40213096403042
30
0
41
1
10
18.4768658930834
20
-5.46125080053946
30
0
41
1
10
19.0924928632726
20
-5.56789644391145
30
0
41
1
10
19.4010775472649
20
-5.6155837700621
30
0
41
1
10
20.0183068032085
20
-5.69699549667237
30
0
41
1
10
20.3264797768809
20
-5.73083841513824
30
0
41
1
10
20.9420562764067
20
-5.7861668941224
30
0
41
1
10
21.2493016904822
20
-5.80784141488019
30
0
41
1
10
21.8643058764017
20
-5.83864191619443
30
0
41
1
10
22.17201094902
20
-5.84673139281895
30
0
41
1
10
22.7877749587261
20
-5.84948414542012
30
0
41
1
10
23.0958375774701
20
-5.84432501337139
30
0
41
1
10
23.7122694007968
20
-5.82220627474771
30
0
41
1
10
24.0206104634816
20
-5.80536339813412
30
0
41
1
10
24.6366053469135
20
-5.75633442625008
30
0
41
1
10
24.9443878048221
20
-5.72503240381667
30
0
41
1
10
25.5595717526167
20
-5.65053664981963
30
0
41
1
10
25.8668861997329
20
-5.60745001171503
30
0
41
1
10
26.4814873396383
20
-5.50862148732833
30
0
41
1
10
26.7892086805761
20
-5.45236258823616
30
0
41
1
10
27.4054448939732
20
-5.32786398780741
30
0
41
1
10
27.7142318932655
20
-5.25953509399605
30
0
41
1
10
28.3306032028604
20
-5.11226512782073
30
0
41
1
10
28.6380521476938
20
-5.03288318758433
30
0
41
1
10
29.2531262311131
20
-4.86181567760843
30
0
41
1
10
29.5607193698754
20
-4.77080310376036
30
0
41
1
10
30.0943753374735
20
-4.60446752562748
30
0
41
1
10
30.3204313367702
20
-4.53156808746738
30
0
41
1
10
30.5464936737564
20
-4.45580595401907
30
0
0
SPLINE
5
CF
100
AcDbEntity
8
1
62
256
6
ByLayer
370
18
48
1
60
0
100
AcDbSpline
70
4
71
3
72
30
73
26
40
0
40
0
40
0
40
0
40
0.01693806843116
40
0.01693806843116
40
0.0925582170133784
40
0.0925582170133784
40
0.168178365595597
40
0.168178365595597
40
0.243798514177815
40
0.243798514177815
40
0.319418662760034
40
0.319418662760034
40
0.395038811342252
40
0.395038811342252
40
0.546279108506689
40
0.546279108506689
40
0.621899257088908
40
0.621899257088908
40
0.697519405671127
40
0.697519405671127
40
0.773139554253345
40
0.773139554253345
40
0.848759702835564
40
0.848759702835564
40
1
40
1
40
1
40
1
41
1
10
58.2843295783975
20
5.86525868548546
30
0
41
1
10
58.3531478487699
20
5.86427438641152
30
0
41
1
10
58.4219765506123
20
5.86295812973304
30
0
41
1
10
58.798196848626
20
5.85399280202074
30
0
41
1
10
59.1059463780792
20
5.84044131880034
30
0
41
1
10
59.7219866469438
20
5.80097627527067
30
0
41
1
10
60.0306511526068
20
5.77428663370895
30
0
41
1
10
60.6465337036267
20
5.70774509604459
30
0
41
1
10
60.9539275907612
20
5.66805928364749
30
0
41
1
10
61.5690507281209
20
5.57820539388479
30
0
41
1
10
61.8765242321778
20
5.5277199279877
30
0
41
1
10
62.4913824695139
20
5.41206778413098
30
0
41
1
10
62.7987434912894
20
5.3473484225741
30
0
41
1
10
63.7212235604392
20
5.1346997216456
30
0
41
1
10
64.3392803171211
20
4.96947320880469
30
0
41
1
10
65.2625145161139
20
4.69184257639313
30
0
41
1
10
65.5696905980329
20
4.59424014639711
30
0
41
1
10
66.1843531778116
20
4.38927956541215
30
0
41
1
10
66.4918840704464
20
4.28182261075517
30
0
41
1
10
67.1072719992344
20
4.05664961634574
30
0
41
1
10
67.4151431102141
20
3.93910716632919
30
0
41
1
10
68.0313105823554
20
3.69456107455011
30
0
41
1
10
68.3396103300122
20
3.56752839542077
30
0
41
1
10
69.2636059071058
20
3.17726604938662
30
0
41
1
10
69.8787098812282
20
2.90309549927639
30
0
41
1
10
70.4932624400978
20
2.61571846503802
30
0
0
SPLINE
5
D0
100
AcDbEntity
8
1
62
256
6
ByLayer
370
18
48
1
60
0
100
AcDbSpline
70
4
71
3
72
14
73
10
40
0
40
0
40
0
40
0
40
0.463230948778383
40
0.463230948778383
40
0.782923464255241
40
0.782923464255241
40
0.942769721993667
40
0.942769721993667
40
1
40
1
40
1
40
1
41
1
10
75.6792322938211
20
-5.87836966670199
30
0
41
1
10
74.5824919400092
20
-5.87763311710708
30
0
41
1
10
73.4934042137098
20
-5.79315116048593
30
0
41
1
10
71.649910033822
20
-5.51645536422342
30
0
41
1
10
70.8962859880062
20
-5.36557877839167
30
0
41
1
10
69.7596109003329
20
-5.0851234474552
30
0
41
1
10
69.3797046228183
20
-4.98259179181721
30
0
41
1
10
68.8618159746163
20
-4.83144294027076
30
0
41
1
10
68.7251798713407
20
-4.79049306328412
30
0
41
1
10
68.5887383812494
20
-4.74856384488504
30
0
0
SPLINE
5
D1
100
AcDbEntity
8
1
62
256
6
ByLayer
370
13
48
1
60
0
100
AcDbSpline
70
4
71
3
72
26
73
22
40
0
40
0
40
0
40
0
40
0.0106183342385891
40
0.0106183342385891
40
0.048015596526109
40
0.048015596526109
40
0.347193694826275
40
0.347193694826275
40
0.496782743976358
40
0.496782743976358
40
0.571577268551399
40
0.571577268551399
40
0.608974530838919
40
0.608974530838919
40
0.646371793126439
40
0.646371793126439
40
0.795960842276513
40
0.795960842276513
40
0.945549891426587
40
0.945549891426587
40
1
40
1
40
1
40
1
41
1
10
68.5887383812411
20
-4.74856384488251
30
0
41
1
10
68.5346368375504
20
-4.73193814371479
30
0
41
1
10
68.480565892256
20
-4.71515846389048
30
0
41
1
10
68.2362809341586
20
-4.63861952720836
30
0
41
1
10
68.0463855806824
20
-4.57712106690494
30
0
41
1
10
66.3401882829994
20
-4.00739104489031
30
0
41
1
10
64.8440708982172
20
-3.38487545745568
30
0
41
1
10
62.5916943503364
20
-2.34146176117485
30
0
41
1
10
61.8396334842553
20
-1.97526811227277
30
0
41
1
10
60.7050569695191
20
-1.40616692737382
30
0
41
1
10
60.325749410849
20
-1.2132430975432
30
0
41
1
10
59.7544760329214
20
-0.92014933086972
30
0
41
1
10
59.5634197555099
20
-0.82170712222225
30
0
41
1
10
59.1822209985
20
-0.624677825701042
30
0
41
1
10
58.9919720963951
20
-0.526026069288292
30
0
41
1
10
58.0422111505678
20
-0.0325981490863398
30
0
41
1
10
57.2869358069088
20
0.362211008736324
30
0
41
1
10
55.7796408829992
20
1.14078138332127
30
0
41
1
10
55.0272130105475
20
1.52372094880386
30
0
41
1
10
53.9988802857544
20
2.03038203224304
30
0
41
1
10
53.7242062944115
20
2.16395937775533
30
0
41
1
10
53.4491393163669
20
2.29564009760125
30
0
0
SPLINE
5
D2
100
AcDbEntity
8
1
62
256
6
ByLayer
370
18
48
1
60
0
100
AcDbSpline
70
4
71
3
72
8
73
4
40
0
40
0
40
0
40
0
40
1
40
1
40
1
40
1
41
1
10
5.14897069676516
20
-5.83463033075614
30
0
41
1
10
4.84937867749784
20
-5.83812769447644
30
0
41
1
10
4.54987777179736
20
-5.83539197435124
30
0
41
1
10
4.25029781825441
20
-5.82638168476493
30
0
0
SPLINE
5
D3
100
AcDbEntity
8
1
62
256
6
ByLayer
370
18
48
1
60
0
100
AcDbSpline
70
4
71
3
72
8
73
4
40
0
40
0
40
0
40
0
40
1
40
1
40
1
40
1
41
1
10
76.8484305076505
20
-6.10378268139704
30
0
41
1
10
76.8700413449655
20
-6.04561886323256
30
0
41
1
10
76.8916324852483
20
-5.98742047692613
30
0
41
1
10
76.9132039188198
20
-5.92918750549134
30
0
0
SPLINE
5
D4
100
AcDbEntity
8
1
62
256
6
ByLayer
370
18
48
1
60
0
100
AcDbSpline
70
4
71
3
72
18
73
14
40
0
40
0
40
0
40
0
40
0.125
40
0.125
40
0.25
40
0.25
40
0.375
40
0.375
40
0.5
40
0.5
40
0.75
40
0.75
40
1
40
1
40
1
40
1
41
1
10
4.2513460519277
20
1.0280706132001
30
0
41
1
10
4.23697496675618
20
1.04008340228111
30
0
41
1
10
4.22215232631811
20
1.05148118096247
30
0
41
1
10
4.19129227075075
20
1.07262196116525
30
0
41
1
10
4.17510634352155
20
1.0824211775556
30
0
41
1
10
4.14281934353622
20
1.09858768097411
30
0
41
1
10
4.12629781900296
20
1.10511435980544
30
0
41
1
10
4.09539549018854
20
1.11315311854764
30
0
41
1
10
4.08072057154843
20
1.11471908132998
30
0
41
1
10
4.04281556497136
20
1.11203448079271
30
0
41
1
10
4.02536025622177
20
1.1006919244106
30
0
41
1
10
4.00432781152372
20
1.070266615322
30
0
41
1
10
3.99999979050361
20
1.0509934121699
30
0
41
1
10
3.99999979050449
20
1.02988029679832
30
0
0
SPLINE
5
D5
100
AcDbEntity
8
1
62
256
6
ByLayer
370
18
48
1
60
0
100
AcDbSpline
70
4
71
3
72
10
73
6
40
0
40
0
40
0
40
0
40
0.821649617199627
40
0.821649617199627
40
1
40
1
40
1
40
1
41
1
10
76.8484305076504
20
6.10378268139706
30
0
41
1
10
76.4681871568482
20
6.12897596385881
30
0
41
1
10
76.0879650094621
20
6.14368191066052
30
0
41
1
10
75.624762654053
20
6.14878130093496
30
0
41
1
10
75.5421495250501
20
6.14919316379667
30
0
41
1
10
75.4595543636478
20
6.14910964941598
30
0
0
SPLINE
5
D6
100
AcDbEntity
8
1
62
256
6
ByLayer
370
18
48
1
60
0
100
AcDbSpline
70
4
71
3
72
52
73
48
40
0
40
0
40
0
40
0
40
0.0151220233891098
40
0.0151220233891098
40
0.0738698619162293
40
0.0738698619162293
40
0.103243781179789
40
0.103243781179789
40
0.132617700443349
40
0.132617700443349
40
0.191365538970468
40
0.191365538970468
40
0.220739458234028
40
0.220739458234028
40
0.250113377497588
40
0.250113377497588
40
0.279487296761148
40
0.279487296761148
40
0.308861216024707
40
0.308861216024707
40
0.367609054551826
40
0.367609054551826
40
0.396982973815385
40
0.396982973815385
40
0.426356893078945
40
0.426356893078945
40
0.485104731606065
40
0.485104731606065
40
0.514478650869626
40
0.514478650869626
40
0.543852570133187
40
0.543852570133187
40
0.66134824718743
40
0.66134824718743
40
0.690722166450991
40
0.690722166450991
40
0.720096085714552
40
0.720096085714552
40
0.778843924241673
40
0.778843924241673
40
0.896339601295915
40
0.896339601295915
40
0.925713520559476
40
0.925713520559476
40
0.955087439823037
40
0.955087439823037
40
1
40
1
40
1
40
1
41
1
10
43.3985569306387
20
-5.86386314265275
30
0
41
1
10
43.2025182581946
20
-5.89482289334734
30
0
41
1
10
43.0064767945189
20
-5.92312598854622
30
0
41
1
10
42.0503811148779
20
-6.04796596879496
30
0
41
1
10
41.291788087917
20
-6.10635443668366
30
0
41
1
10
40.1512870485323
20
-6.13124376950404
30
0
41
1
10
39.7701972888799
20
-6.129071321574
30
0
41
1
10
39.0086839305112
20
-6.10374584884411
30
0
41
1
10
38.6286076335204
20
-6.0806278953782
30
0
41
1
10
37.4889809992762
20
-5.98040137659433
30
0
41
1
10
36.7299990888217
20
-5.87244279407381
30
0
41
1
10
35.5875380227299
20
-5.65085227236187
30
0
41
1
10
35.2065105443714
20
-5.5671259031937
30
0
41
1
10
34.4461335219691
20
-5.38135204901167
30
0
41
1
10
34.0663417096752
20
-5.27923209067416
30
0
41
1
10
33.306679463209
20
-5.05738367760807
30
0
41
1
10
32.9267894346009
20
-4.93767671067326
30
0
41
1
10
32.1660970409281
20
-4.68148163901168
30
0
41
1
10
31.7847984231809
20
-4.54477372358417
30
0
41
1
10
30.6428418922947
20
-4.11274969864866
30
0
41
1
10
29.8838117962251
20
-3.79575796626827
30
0
41
1
10
28.7437363830522
20
-3.28403612063127
30
0
41
1
10
28.3634272787579
20
-3.10746387072584
30
0
41
1
10
27.6013307003822
20
-2.7436764709656
30
0
41
1
10
27.2205272826868
20
-2.55689489116173
30
0
41
1
10
26.0800013335366
20
-1.98533436198312
30
0
41
1
10
25.3210794101207
20
-1.58893656975363
30
0
41
1
10
24.1795010605544
20
-0.980727373520693
30
0
41
1
10
23.7978225777876
20
-0.775279145276272
30
0
41
1
10
23.0379675953745
20
-0.364436565067535
30
0
41
1
10
22.6593275344322
20
-0.158830450752447
30
0
41
1
10
20.7705082240051
20
0.866336166018471
30
0
41
1
10
19.2735577759626
20
1.67740570337097
30
0
41
1
10
17.3858012181676
20
2.61705021397378
30
0
41
1
10
17.0074010715771
20
2.80123796133796
30
0
41
1
10
16.2481298388811
20
3.16071294306923
30
0
41
1
10
15.8662803266614
20
3.33639010415737
30
0
41
1
10
14.7259456166032
20
3.84281332224873
30
0
41
1
10
13.9711180311464
20
4.15403800638444
30
0
41
1
10
11.7122414357026
20
4.99606559525228
30
0
41
1
10
10.2141842799112
20
5.43549924201963
30
0
41
1
10
8.31687890246221
20
5.79431584542166
30
0
41
1
10
7.93545212805097
20
5.85668494624346
30
0
41
1
10
7.1736201585031
20
5.96097063335108
30
0
41
1
10
6.79333242430263
20
6.00288996761446
30
0
41
1
10
5.83194890310628
20
6.08276857971876
30
0
41
1
10
5.25101603954195
20
6.10692806816135
30
0
41
1
10
4.66901719511057
20
6.10664452913005
30
0
0
SPLINE
5
D7
100
AcDbEntity
8
1
62
256
6
ByLayer
370
13
48
1
60
0
100
AcDbSpline
70
4
71
3
72
36
73
32
40
0
40
0
40
0
40
0
40
0.125
40
0.125
40
0.1875
40
0.1875
40
0.25
40
0.25
40
0.3125
40
0.3125
40
0.34375
40
0.34375
40
0.375
40
0.375
40
0.5
40
0.5
40
0.5625
40
0.5625
40
0.625
40
0.625
40
0.75
40
0.75
40
0.781249999999999
40
0.781249999999999
40
0.812499999999999
40
0.812499999999999
40
0.875
40
0.875
40
0.9375
40
0.9375
40
1
40
1
40
1
40
1
41
1
10
4.25029781825415
20
-5.82638168476493
30
0
41
1
10
4.25037602872536
20
-5.80326079845989
30
0
41
1
10
4.25044607558274
20
-5.73678837864455
30
0
41
1
10
4.25054337429316
20
-5.57226072420164
30
0
41
1
10
4.25057418147819
20
-5.50701259606998
30
0
41
1
10
4.25063295172495
20
-5.35731536432544
30
0
41
1
10
4.25066099079186
20
-5.27273534829672
30
0
41
1
10
4.25071512898626
20
-5.08423589050596
30
0
41
1
10
4.250741226944
20
-4.98031756785264
30
0
41
1
10
4.25077940461176
20
-4.80953960683593
30
0
41
1
10
4.25079200247509
20
-4.74994439179571
30
0
41
1
10
4.25081669023197
20
-4.62696677808304
30
0
41
1
10
4.25082879943636
20
-4.56351718917821
30
0
41
1
10
4.25088837736479
20
-4.23665098662025
30
0
41
1
10
4.25093304543529
20
-3.9446967115891
30
0
41
1
10
4.25099814031725
20
-3.46072773126949
30
0
41
1
10
4.25101956510352
20
-3.29105812682795
30
0
41
1
10
4.25106122413177
20
-2.94162463740375
30
0
41
1
10
4.25108153879791
20
-2.76132503164248
30
0
41
1
10
4.25114101930922
20
-2.20354471567632
30
0
41
1
10
4.25117795229914
20
-1.81737872698486
30
0
41
1
10
4.25121973874204
20
-1.31884201603057
30
0
41
1
10
4.25122787182161
20
-1.21830796594628
30
0
41
1
10
4.25124363604729
20
-1.0155626101525
30
0
41
1
10
4.25125128139874
20
-0.91313285478833
30
0
41
1
10
4.25127314009512
20
-0.606495516302545
30
0
41
1
10
4.25128635255155
20
-0.402100840364824
30
0
41
1
10
4.25130960887449
20
0.0066297704989893
30
0
41
1
10
4.2513196534876
20
0.210965701583547
30
0
41
1
10
4.25133593011216
20
0.619578518254741
30
0
41
1
10
4.25134217070271
20
0.824215497365145
30
0
41
1
10
4.2513460519277
20
1.02807061320007
30
0
0
SPLINE
5
D8
100
AcDbEntity
8
1
62
256
6
ByLayer
370
18
48
1
60
0
100
AcDbSpline
70
4
71
3
72
14
73
10
40
0
40
0
40
0
40
0
40
0.25
40
0.25
40
0.5
40
0.5
40
0.75
40
0.75
40
1
40
1
40
1
40
1
41
1
10
75.9193887519275
20
1.48467292506879
30
0
41
1
10
75.9087377758221
20
1.51347413802716
30
0
41
1
10
75.9014124023043
20
1.54321824997155
30
0
41
1
10
75.8973094532401
20
1.60560300091282
30
0
41
1
10
75.9007024157197
20
1.63805876256058
30
0
41
1
10
75.9268119598123
20
1.69546483226927
30
0
41
1
10
75.9498902077159
20
1.72001766052503
30
0
41
1
10
76.0042613857965
20
1.75355822143266
30
0
41
1
10
76.0353426358039
20
1.76365542732714
30
0
41
1
10
76.0669423292255
20
1.76939803244383
30
0
0
SPLINE
5
D9
100
AcDbEntity
8
1
62
256
6
ByLayer
370
18
48
1
60
0
100
AcDbSpline
70
4
71
3
72
48
73
44
40
0
40
0
40
0
40
0
40
0.0308785821669142
40
0.0308785821669142
40
0.0617571643338284
40
0.0617571643338284
40
0.123514328667657
40
0.123514328667657
40
0.247028657335314
40
0.247028657335314
40
0.277907239502228
40
0.277907239502228
40
0.308785821669142
40
0.308785821669142
40
0.370542986002971
40
0.370542986002971
40
0.432300150336801
40
0.432300150336801
40
0.463178732503716
40
0.463178732503716
40
0.494057314670631
40
0.494057314670631
40
0.555814479004461
40
0.555814479004461
40
0.586693061171376
40
0.586693061171376
40
0.617571643338291
40
0.617571643338291
40
0.74108597200595
40
0.74108597200595
40
0.771964554172864
40
0.771964554172864
40
0.802843136339779
40
0.802843136339779
40
0.864600300673609
40
0.864600300673609
40
0.895478882840523
40
0.895478882840523
40
0.926357465007438
40
0.926357465007438
40
0.988114629341267
40
0.988114629341267
40
1
40
1
40
1
40
1
41
1
10
76.8484305076505
20
-6.10378268139706
30
0
41
1
10
76.4681445299044
20
-6.12897878813601
30
0
41
1
10
76.0879854567924
20
-6.14367819859351
30
0
41
1
10
75.3271429001474
20
-6.15206127917108
30
0
41
1
10
74.9459887906291
20
-6.1456954682568
30
0
41
1
10
73.8079763080569
20
-6.09544045499052
30
0
41
1
10
73.0544268376254
20
-6.02053443151493
30
0
41
1
10
70.7991582638176
20
-5.67816022176868
30
0
41
1
10
69.3023937541468
20
-5.2930230813075
30
0
41
1
10
67.4056554773448
20
-4.64053147675764
30
0
41
1
10
67.0243849756669
20
-4.50122673240514
30
0
41
1
10
66.2639961094931
20
-4.20843871384886
30
0
41
1
10
65.8843697148658
20
-4.0548114357378
30
0
41
1
10
64.7458980615078
20
-3.57408499914368
30
0
41
1
10
63.9870459449022
20
-3.22740764994464
30
0
41
1
10
62.463633660033
20
-2.49253406136188
30
0
41
1
10
61.7049773754879
20
-2.10694178604081
30
0
41
1
10
60.5662709679509
20
-1.5105629091486
30
0
41
1
10
60.1865303393281
20
-1.30886385429227
30
0
41
1
10
59.4258673611132
20
-0.901134930802897
30
0
41
1
10
59.0447348487513
20
-0.694957333537928
30
0
41
1
10
57.9043136328196
20
-0.0754954277161062
30
0
41
1
10
57.1458984912944
20
0.339392680019358
30
0
41
1
10
56.0062399029849
20
0.955680219484719
30
0
41
1
10
55.6254223318338
20
1.1602104492608
30
0
41
1
10
54.8643563482878
20
1.56412464646223
30
0
41
1
10
54.4852838088448
20
1.76296615672888
30
0
41
1
10
52.5953197665806
20
2.73852563970573
30
0
41
1
10
51.0990162570219
20
3.45633655256449
30
0
41
1
10
49.2152190981837
20
4.22298830383698
30
0
41
1
10
48.8377540214127
20
4.36973849129024
30
0
41
1
10
48.080522664808
20
4.64871102121961
30
0
41
1
10
47.7003576620082
20
4.7810699554914
30
0
41
1
10
46.5578609215415
20
5.1536416067411
30
0
41
1
10
45.7990670691019
20
5.36738963250824
30
0
41
1
10
44.6598853596792
20
5.63151561752807
30
0
41
1
10
44.280001306574
20
5.71014866248052
30
0
41
1
10
43.5189820800152
20
5.84782949301484
30
0
41
1
10
43.1377498729993
20
5.90686828176564
30
0
41
1
10
41.9970258244707
20
6.05296738798521
30
0
41
1
10
41.238454572907
20
6.10939958203139
30
0
41
1
10
40.3319850448894
20
6.12685702267834
30
0
41
1
10
40.185565586101
20
6.12812419594286
30
0
41
1
10
40.0390770692649
20
6.12783953335239
30
0
0
SPLINE
5
DA
100
AcDbEntity
8
1
62
256
6
ByLayer
370
18
48
1
60
0
100
AcDbSpline
70
4
71
3
72
10
73
6
40
0
40
0
40
0
40
0
40
0.416395913757974
40
0.416395913757974
40
1
40
1
40
1
40
1
41
1
10
8.01548813311177
20
-5.84081719438876
30
0
41
1
10
7.47840158792599
20
-5.92577193561229
30
0
41
1
10
6.94148519695193
20
-5.99082874723558
30
0
41
1
10
5.64924613008256
20
-6.09759525167917
30
0
41
1
10
4.89273708620937
20
-6.11951206120901
30
0
41
1
10
4.13082078028268
20
-6.09941495081171
30
0
0
SPLINE
5
DB
100
AcDbEntity
8
1
62
256
6
ByLayer
370
13
48
1
60
0
100
AcDbSpline
70
4
71
3
72
8
73
4
40
0
40
0
40
0
40
0
40
1
40
1
40
1
40
1
41
1
10
4.13082078028262
20
-6.09941495081156
30
0
41
1
10
4.1316060853718
20
-6.04813553822774
30
0
41
1
10
4.13239821268354
20
-5.99685582882131
30
0
41
1
10
4.13319718052546
20
-5.94557581353257
30
0
0
SPLINE
5
DC
100
AcDbEntity
8
1
62
256
6
ByLayer
370
18
48
1
60
0
100
AcDbSpline
70
4
71
3
72
12
73
8
40
0
40
0
40
0
40
0
40
0.310613129045849
40
0.310613129045849
40
0.651390758677554
40
0.651390758677554
40
1
40
1
40
1
40
1
41
1
10
40.4235362040065
20
-5.85660354171947
30
0
41
1
10
39.7275839713056
20
-5.86073457493168
30
0
41
1
10
39.0324547945581
20
-5.8312950772883
30
0
41
1
10
37.5724835343008
20
-5.70014386752965
30
0
41
1
10
36.8137025169159
20
-5.59213634735022
30
0
41
1
10
35.28488159405
20
-5.30048300550644
30
0
41
1
10
34.514454752907
20
-5.11504839509891
30
0
41
1
10
33.743355136018
20
-4.89511644890763
30
0
0
SPLINE
5
DD
100
AcDbEntity
8
1
62
256
6
ByLayer
370
13
48
1
60
0
100
AcDbSpline
70
4
71
3
72
24
73
20
40
0
40
0
40
0
40
0
40
0.141442755044374
40
0.141442755044374
40
0.213827652577053
40
0.213827652577053
40
0.250020101343394
40
0.250020101343394
40
0.286212550109734
40
0.286212550109734
40
0.430982345175098
40
0.430982345175098
40
0.720521935305826
40
0.720521935305826
40
0.792906832838506
40
0.792906832838506
40
0.865291730371186
40
0.865291730371186
40
1
40
1
40
1
40
1
41
1
10
33.74335513636
20
-4.89511644900512
30
0
41
1
10
33.0069014900231
20
-4.68506617772556
30
0
41
1
10
32.2698341662082
20
-4.44354890103133
30
0
41
1
10
31.1502375461467
20
-4.03541079527881
30
0
41
1
10
30.7702504611186
20
-3.88986870363612
30
0
41
1
10
30.1982002661484
20
-3.66118045314343
30
0
41
1
10
30.0070145737048
20
-3.58312777172793
30
0
41
1
10
29.6257139535907
20
-3.42443775603908
30
0
41
1
10
29.4354036217719
20
-3.3437253456257
30
0
41
1
10
28.4852840324356
20
-2.93381486498245
30
0
41
1
10
27.7296329662653
20
-2.5858210158284
30
0
41
1
10
25.4667589274049
20
-1.4987510952721
30
0
41
1
10
23.9634458171291
20
-0.716902170804275
30
0
41
1
10
22.0587850905681
20
0.271055645138119
30
0
41
1
10
21.6761118008583
20
0.469431028385941
30
0
41
1
10
20.9150244022019
20
0.861723862702036
30
0
41
1
10
20.5356942595812
20
1.05605030041605
30
0
41
1
10
19.4526776836131
20
1.60454275442413
30
0
41
1
10
18.7511236445589
20
1.95273190078686
30
0
41
1
10
18.0497752471444
20
2.28734890837697
30
0
0
SPLINE
5
DE
100
AcDbEntity
8
SK1
62
256
6
ByLayer
370
18
48
1
60
0
100
AcDbSpline
70
4
71
3
72
14
73
10
40
0
40
0
40
0
40
0
40
0.25
40
0.25
40
0.5
40
0.5
40
0.75
40
0.75
40
1
40
1
40
1
40
1
41
1
10
-45
20
2.25869626028933
30
0
41
1
10
-45
20
2.26043794585192
30
0
41
1
10
-45
20
2.25559407190005
30
0
41
1
10
-45
20
2.23254371212269
30
0
41
1
10
-45
20
2.21436124791055
30
0
41
1
10
-45
20
2.16615126292646
30
0
41
1
10
-45
20
2.13556920226634
30
0
41
1
10
-45
20
2.06379739608966
30
0
41
1
10
-45
20
2.02296655597064
30
0
41
1
10
-45
20
1.97720272291383
30
0
0
SPLINE
5
DF
100
AcDbEntity
8
SK1
62
256
6
ByLayer
370
18
48
1
60
0
100
AcDbSpline
70
4
71
3
72
26
73
22
40
0
40
0
40
0
40
0
40
0.124999999999999
40
0.124999999999999
40
0.249999999999998
40
0.249999999999998
40
0.374999999999997
40
0.374999999999997
40
0.437499999999997
40
0.437499999999997
40
0.499999999999997
40
0.499999999999997
40
0.562499999999997
40
0.562499999999997
40
0.624999999999997
40
0.624999999999997
40
0.749999999999998
40
0.749999999999998
40
0.874999999999999
40
0.874999999999999
40
1
40
1
40
1
40
1
41
1
10
-44.9999999999996
20
1.97720272291372
30
0
41
1
10
-44.9540840576389
20
1.98323293191052
30
0
41
1
10
-44.9089798554928
20
1.98967436082725
30
0
41
1
10
-44.8211510138023
20
2.00376268258196
30
0
41
1
10
-44.7783924451423
20
2.01139238725082
30
0
41
1
10
-44.6968616789376
20
2.02867125451471
30
0
41
1
10
-44.6587676761524
20
2.03816484563794
30
0
41
1
10
-44.6108217325466
20
2.05431278428841
30
0
41
1
10
-44.5966434939808
20
2.0599387105618
30
0
41
1
10
-44.5730889563791
20
2.07183822541862
30
0
41
1
10
-44.5636202601343
20
2.07821745486004
30
0
41
1
10
-44.5520090998185
20
2.0913061042495
30
0
41
1
10
-44.5498265410754
20
2.09804308686921
30
0
41
1
10
-44.5536552471307
20
2.11149301047271
30
0
41
1
10
-44.5595226576683
20
2.11800982893257
30
0
41
1
10
-44.5875540907842
20
2.13701114763794
30
0
41
1
10
-44.6188134269552
20
2.14814206091114
30
0
41
1
10
-44.6917172772218
20
2.16763290422568
30
0
41
1
10
-44.7330278445799
20
2.17596881968296
30
0
41
1
10
-44.8212124796756
20
2.19102666300259
30
0
41
1
10
-44.8674024104998
20
2.19759153316431
30
0
41
1
10
-44.9144858217226
20
2.20349129854071
30
0
0
SPLINE
5
E0
100
AcDbEntity
8
SK1
62
256
6
ByLayer
370
18
48
1
60
0
100
AcDbSpline
70
4
71
3
72
8
73
4
40
0
40
0
40
0
40
0
40
1
40
1
40
1
40
1
41
1
10
-45
20
0.255439107483568
30
0
41
1
10
-44.813403614718
20
0.169972091038232
30
0
41
1
10
-44.6250189262168
20
0.0847323306084036
30
0
41
1
10
-44.4356589351179
20
-0.0003690099155165
30
0
0
SPLINE
5
E1
100
AcDbEntity
8
SK1
62
256
6
ByLayer
370
18
48
1
60
0
100
AcDbSpline
70
4
71
3
72
10
73
6
40
0
40
0
40
0
40
0
40
0.5
40
0.5
40
1
40
1
40
1
40
1
41
1
10
-45
20
-0.255439107483568
30
0
41
1
10
-44.7377192756495
20
-0.135306282040659
30
0
41
1
10
-44.4719053575424
20
-0.0156224517830026
30
0
41
1
10
-43.9377266802981
20
0.223340629524898
30
0
41
1
10
-43.6692088236261
20
0.342618245678608
30
0
41
1
10
-43.4
20
0.461797224583165
30
0
0
SPLINE
5
E2
100
AcDbEntity
8
SK1
62
256
6
ByLayer
370
18
48
1
60
0
100
AcDbSpline
70
4
71
3
72
8
73
4
40
0
40
0
40
0
40
0
40
1
40
1
40
1
40
1
41
1
10
-44.9144858217226
20
2.20349129854071
30
0
41
1
10
-44.9405726710434
20
2.22935882773075
30
0
41
1
10
-44.9692321311345
20
2.2478177606711
30
0
41
1
10
-45
20
2.25869626028933
30
0
0
SPLINE
5
E3
100
AcDbEntity
8
SK1
62
256
6
ByLayer
370
18
48
1
60
0
100
AcDbSpline
70
4
71
3
72
14
73
10
40
0
40
0
40
0
40
0
40
0.500000000000004
40
0.500000000000004
40
0.750000000000003
40
0.750000000000003
40
0.875000000000001
40
0.875000000000001
40
1
40
1
40
1
40
1
41
1
10
-43.4
20
0.46179722458308
30
0
41
1
10
-43.3790445776494
20
0.47107420817008
30
0
41
1
10
-43.3587362712601
20
0.486069460388194
30
0
41
1
10
-43.3304966181166
20
0.520076208824605
30
0
41
1
10
-43.3215144183093
20
0.533361020892357
30
0
41
1
10
-43.3103236218556
20
0.557349392469149
30
0
41
1
10
-43.3069030532022
20
0.566211078877899
30
0
41
1
10
-43.3017205322973
20
0.585763639135337
30
0
41
1
10
-43.3
20
0.596484857069441
30
0
41
1
10
-43.3
20
0.607248490839879
30
0
0
SPLINE
5
E4
100
AcDbEntity
8
SK1
62
256
6
ByLayer
370
18
48
1
60
0
100
AcDbSpline
70
4
71
3
72
14
73
10
40
0
40
0
40
0
40
0
40
0.124999999999999
40
0.124999999999999
40
0.249999999999997
40
0.249999999999997
40
0.499999999999995
40
0.499999999999995
40
1
40
1
40
1
40
1
41
1
10
-43.3
20
2.83349909441068
30
0
41
1
10
-43.3
20
2.84328404878798
30
0
41
1
10
-43.3017012565589
20
2.85166133000385
30
0
41
1
10
-43.3069010451287
20
2.86522414445324
30
0
41
1
10
-43.3102603620514
20
2.87034734493761
30
0
41
1
10
-43.3216024497887
20
2.8829598246783
30
0
41
1
10
-43.3304674144333
20
2.8873511258341
30
0
41
1
10
-43.3586594529452
20
2.89445305862114
30
0
41
1
10
-43.3789281721554
20
2.89096335355995
30
0
41
1
10
-43.4
20
2.88163483716014
30
0
0
SPLINE
5
E5
100
AcDbEntity
8
SK1
62
256
6
ByLayer
370
18
48
1
60
0
100
AcDbSpline
70
4
71
3
72
10
73
6
40
0
40
0
40
0
40
0
40
0.5
40
0.5
40
1
40
1
40
1
40
1
41
1
10
-43.4
20
2.88163483716014
30
0
41
1
10
-43.6546098392415
20
2.76891884126095
30
0
41
1
10
-43.9085982740033
20
2.65611261097644
30
0
41
1
10
-44.4140952600552
20
2.43015712028728
30
0
41
1
10
-44.6656877740945
20
2.31701857205712
30
0
41
1
10
-44.9144858217226
20
2.20349129854068
30
0
0
LINE
5
76
100
AcDbEntity
8
81
62
256
6
ByLayer
370
18
48
1
60
0
100
AcDbLine
10
79
20
0
30
0
11
84
21
0
31
0
39
0
210
0
220
0
230
1
0
LINE
5
77
100
AcDbEntity
8
1
62
256
6
ByLayer
370
18
48
1
60
0
100
AcDbLine
10
4.666196
20
6.106639
30
0
11
1.436933
21
6.104701
31
0
39
0
210
0
220
0
230
1
0
LINE
5
79
100
AcDbEntity
8
1
62
256
6
ByLayer
370
18
48
1
60
0
100
AcDbLine
10
40.066177
20
6.127879
30
0
11
39.101491
21
6.1273
31
0
39
0
210
0
220
0
230
1
0
LINE
5
7A
100
AcDbEntity
8
1
62
256
6
ByLayer
370
18
48
1
60
0
100
AcDbLine
10
75.46754
20
6.149119
30
0
11
74.511764
21
6.148546
31
0
39
0
210
0
220
0
230
1
0
LINE
5
7B
100
AcDbEntity
8
1
62
256
6
ByLayer
370
18
48
1
60
0
100
AcDbLine
10
74.511764
20
-6.148546
30
0
11
75.467091
21
-6.149119
31
0
39
0
210
0
220
0
230
1
0
LINE
5
7C
100
AcDbEntity
8
1
62
256
6
ByLayer
370
18
48
1
60
0
100
AcDbLine
10
39.101491
20
-6.1273
30
0
11
40.066171
21
-6.127879
31
0
39
0
210
0
220
0
230
1
0
LINE
5
7D
100
AcDbEntity
8
1
62
256
6
ByLayer
370
18
48
1
60
0
100
AcDbLine
10
1.436933
20
-6.104701
30
0
11
4.666167
21
-6.106639
31
0
39
0
210
0
220
0
230
1
0
LINE
5
7E
100
AcDbEntity
8
SK1
62
256
6
ByLayer
370
18
48
1
60
0
100
AcDbLine
10
0
20
7
30
0
11
-43.267949
21
7
31
0
39
0
210
0
220
0
230
1
0
LINE
5
80
100
AcDbEntity
8
SK1
62
256
6
ByLayer
370
18
48
1
60
0
100
AcDbLine
10
-43.267949
20
-7
30
0
11
0
21
-7
31
0
39
0
210
0
220
0
230
1
0
LINE
5
81
100
AcDbEntity
8
SK1
62
256
6
ByLayer
370
18
48
1
60
0
100
AcDbLine
10
-43.267949
20
7
30
0
11
-45
21
4
31
0
39
0
210
0
220
0
230
1
0
LINE
5
82
100
AcDbEntity
8
SK1
62
256
6
ByLayer
370
18
48
1
60
0
100
AcDbLine
10
-45
20
-4
30
0
11
-43.267949
21
-7
31
0
39
0
210
0
220
0
230
1
0
LINE
5
83
100
AcDbEntity
8
SK4
62
256
6
ByLayer
370
18
48
0.05
60
0
100
AcDbLine
10
84
20
0
30
0
11
-50
21
0
31
0
39
0
210
0
220
0
230
1
0
LINE
5
85
100
AcDbEntity
8
4
62
256
6
ByLayer
370
18
48
0.05
60
0
100
AcDbLine
10
79
20
0
30
0
11
0
21
0
31
0
39
0
210
0
220
0
230
1
0
LINE
5
87
100
AcDbEntity
8
80
62
256
6
ByLayer
370
18
48
1
60
0
100
AcDbLine
10
0
20
0
30
0
11
-5
21
0
31
0
39
0
210
0
220
0
230
1
0
LINE
5
88
100
AcDbEntity
8
1
62
256
6
ByLayer
370
13
48
1
60
0
100
AcDbLine
10
1.436933
20
6.104701
30
0
11
1.436933
21
-6.104701
31
0
39
0
210
0
220
0
230
1
0
LINE
5
89
100
AcDbEntity
8
1
62
256
6
ByLayer
370
13
48
1
60
0
100
AcDbLine
10
77.143316
20
0.758481
30
0
11
78.894126
21
-0.108382
31
0
39
0
210
0
220
0
230
1
0
LINE
5
8A
100
AcDbEntity
8
1
62
256
6
ByLayer
370
13
48
1
60
0
100
AcDbLine
10
78.694135
20
1.104905
30
0
11
77.312775
21
1.104905
31
0
39
0
210
0
220
0
230
1
0
LINE
5
8B
100
AcDbEntity
8
1
62
256
6
ByLayer
370
18
48
1
60
0
100
AcDbLine
10
0
20
-7
30
0
11
0
21
7
31
0
39
0
210
0
220
0
230
1
0
LINE
5
8C
100
AcDbEntity
8
1
62
256
6
ByLayer
370
18
48
1
60
0
100
AcDbLine
10
78.987042
20
0.058135
30
0
11
79
21
0
31
0
39
0
210
0
220
0
230
1
0
LINE
5
8D
100
AcDbEntity
8
1
62
256
6
ByLayer
370
18
48
1
60
0
100
AcDbLine
10
78.908085
20
0.315033
30
0
11
78.694135
21
1.104905
31
0
39
0
210
0
220
0
230
1
0
LINE
5
8E
100
AcDbEntity
8
1
62
256
6
ByLayer
370
18
48
1
60
0
100
AcDbLine
10
79
20
0
30
0
11
78.987042
21
-0.058135
31
0
39
0
210
0
220
0
230
1
0
LINE
5
8F
100
AcDbEntity
8
1
62
256
6
ByLayer
370
18
48
1
60
0
100
AcDbLine
10
79
20
0
30
0
11
76.860241
21
-5.878939
31
0
39
0
210
0
220
0
230
1
0
LINE
5
90
100
AcDbEntity
8
1
62
256
6
ByLayer
370
18
48
1
60
0
100
AcDbLine
10
75.903002
20
-3.441936
30
0
11
78.894126
21
-0.108382
31
0
39
0
210
0
220
0
230
1
0
LINE
5
91
100
AcDbEntity
8
1
62
256
6
ByLayer
370
13
48
1
60
0
100
AcDbLine
10
0.718226
20
6.55235
30
0
11
0.718226
21
-6.55235
31
0
39
0
210
0
220
0
230
1
0
LINE
5
92
100
AcDbEntity
8
1
62
256
6
ByLayer
370
18
48
1
60
0
100
AcDbLine
10
78.908085
20
-0.315033
30
0
11
78.694135
21
-1.104905
31
0
39
0
210
0
220
0
230
1
0
LINE
5
93
100
AcDbEntity
8
1
62
256
6
ByLayer
370
13
48
1
60
0
100
AcDbLine
10
77.312775
20
1.104905
30
0
11
78.908085
21
0.315033
31
0
39
0
210
0
220
0
230
1
0
LINE
5
94
100
AcDbEntity
8
SK1
62
256
6
ByLayer
370
18
48
1
60
0
100
AcDbLine
10
-45
20
4
30
0
11
-45
21
2.258696
31
0
39
0
210
0
220
0
230
1
0
LINE
5
95
100
AcDbEntity
8
SK1
62
256
6
ByLayer
370
18
48
1
60
0
100
AcDbLine
10
-45
20
-0.255439
30
0
11
-45
21
-4
31
0
39
0
210
0
220
0
230
1
0
LINE
5
96
100
AcDbEntity
8
SK1
62
256
6
ByLayer
370
18
48
1
60
0
100
AcDbLine
10
0
20
-7
30
0
11
0
21
7
31
0
39
0
210
0
220
0
230
1
0
LINE
5
97
100
AcDbEntity
8
SK1
62
256
6
ByLayer
370
18
48
1
60
0
100
AcDbLine
10
-43.267949
20
7
30
0
11
-43.267949
21
-7
31
0
39
0
210
0
220
0
230
1
0
LINE
5
98
100
AcDbEntity
8
SK1
62
256
6
ByLayer
370
18
48
1
60
0
100
AcDbLine
10
-45
20
1.977203
30
0
11
-45
21
0.255439
31
0
39
0
210
0
220
0
230
1
0
LINE
5
99
100
AcDbEntity
8
SK1
62
256
6
ByLayer
370
18
48
1
60
0
100
AcDbLine
10
-43.3
20
0.607248
30
0
11
-43.3
21
2.833499
31
0
39
0
210
0
220
0
230
1
0
LINE
5
9A
100
AcDbEntity
8
SK1
62
256
6
ByLayer
370
13
48
1
60
0
100
AcDbLine
10
-43.4
20
2.881635
30
0
11
-43.4
21
0.461826
31
0
39
0
210
0
220
0
230
1
0
MTEXT
5
E6
100
AcDbEntity
8
SK6
62
256
6
ByLayer
370
13
48
1
60
0
100
AcDbMText
10
19.129169
20
38.532694
30
0
210
0
220
0
230
1
1
\W0.7415;R840-1230-50-A1A1220
40
3.5
41
0
44
1.084337
50
0
71
8
72
5
7
iso_b_vert
0
DIMENSION
5
F3
100
AcDbEntity
8
SK2
62
256
6
ByLayer
370
13
48
1
60
0
100
AcDbDimension
2
DimnDraft3D1
10
76.89
20
-16.363398
30
0
11
36.640059
21
-16.363398
31
0
70
32
71
5
72
1
41
1
210
0
220
0
230
1
3
Standard
100
AcDbAlignedDimension
13
0
23
-1.5875
33
0
14
76.89
24
-7.7375
34
0
50
0
100
AcDbRotatedDimension
1001
ACAD
1000
DSTYLE
1002
{
1070
   279
1070
     0
1070
   172
1070
     1
1070
   173
1070
     1
1070
   340
1005
E7
1070
   271
1070
     2
1070
   272
1070
     2
1070
    77
1070
     1
1070
    73
1070
     0
1070
   171
1070
     3
1070
   274
1070
     4
1070
   177
1070
    35
1070
   176
1070
    35
1070
   178
1070
    35
1070
    48
1040
-0.005
1070
    41
1041
3.5
1070
   147
1041
1.75
1070
    42
1041
1.5875
1070
    44
1041
2.0
1070
   140
1041
3.5
1070
   343
1005
0
1070
   344
1005
0
1002
}
0
DIMENSION
5
FD
100
AcDbEntity
8
SK2
62
256
6
ByLayer
370
13
48
1
60
0
100
AcDbDimension
2
DimnDraft3D2
10
79
20
-35.692985
30
0
11
16.2313
21
-35.692985
31
0
70
32
71
5
72
1
41
1
210
0
220
0
230
1
3
Standard
100
AcDbAlignedDimension
13
-45
23
-8.5875
33
0
14
79
24
-1.5875
34
0
50
0
100
AcDbRotatedDimension
1001
ACAD
1000
DSTYLE
1002
{
1070
   279
1070
     0
1070
   172
1070
     1
1070
   173
1070
     1
1070
   340
1005
E7
1070
   271
1070
     2
1070
   272
1070
     2
1070
    77
1070
     1
1070
    73
1070
     0
1070
   171
1070
     3
1070
   274
1070
     4
1070
   177
1070
    35
1070
   176
1070
    35
1070
   178
1070
    35
1070
    48
1040
-0.005
1070
    41
1041
3.5
1070
   147
1041
1.75
1070
    42
1041
1.5875
1070
    44
1041
2.0
1070
   140
1041
3.5
1070
   343
1005
0
1070
   344
1005
0
1002
}
0
DIMENSION
5
107
100
AcDbEntity
8
SK2
62
256
6
ByLayer
370
13
48
1
60
0
100
AcDbDimension
2
DimnDraft3D3
10
79
20
17.759119
30
0
11
47.195
21
17.759119
31
0
70
32
71
5
72
1
41
1
210
0
220
0
230
1
3
Standard
100
AcDbAlignedDimension
13
15.39
23
7.7375
33
0
14
79
24
1.5875
34
0
50
0
100
AcDbRotatedDimension
1001
ACAD
1000
DSTYLE
1002
{
1070
   279
1070
     0
1070
   172
1070
     1
1070
   173
1070
     1
1070
   340
1005
E7
1070
   271
1070
     2
1070
   272
1070
     2
1070
    77
1070
     1
1070
    73
1070
     0
1070
   171
1070
     3
1070
   274
1070
     4
1070
   177
1070
    35
1070
   176
1070
    35
1070
   178
1070
    35
1070
    48
1040
-0.005
1070
    41
1041
3.5
1070
   147
1041
1.75
1070
    42
1041
1.5875
1070
    44
1041
2.0
1070
   140
1041
3.5
1070
   343
1005
0
1070
   344
1005
0
1002
}
0
DIMENSION
5
111
100
AcDbEntity
8
SK2
62
256
6
ByLayer
370
13
48
1
60
0
100
AcDbDimension
2
DimnDraft3D4
10
76.89
20
-18.952503
30
0
11
88.981425
21
-18.952503
31
0
70
32
71
5
72
1
41
1
210
0
220
0
230
1
3
Standard
100
AcDbAlignedDimension
13
79
23
-1.5875
33
0
14
76.89
24
-7.7375
34
0
50
0
100
AcDbRotatedDimension
1001
ACAD
1000
DSTYLE
1002
{
1070
   279
1070
     0
1070
   172
1070
     1
1070
   173
1070
     1
1070
   340
1005
E7
1070
   271
1070
     2
1070
   272
1070
     2
1070
    77
1070
     1
1070
    73
1070
     0
1070
   171
1070
     3
1070
   274
1070
     4
1070
   177
1070
    35
1070
   176
1070
    35
1070
   178
1070
    35
1070
    48
1040
-0.005
1070
    41
1041
3.5
1070
   147
1041
1.75
1070
    42
1041
1.5875
1070
    44
1041
2.0
1070
   140
1041
3.5
1070
   343
1005
0
1070
   344
1005
0
1002
}
0
DIMENSION
5
11B
100
AcDbEntity
8
SK2
62
256
6
ByLayer
370
13
48
1
60
0
100
AcDbDimension
2
DimnDraft3D5
10
76.89
20
-25.343428
30
0
11
13.150676
21
-25.343428
31
0
70
32
71
5
72
1
41
1
210
0
220
0
230
1
3
Standard
100
AcDbAlignedDimension
13
-45
23
-8.5875
33
0
14
76.89
24
-7.7375
34
0
50
0
100
AcDbRotatedDimension
1001
ACAD
1000
DSTYLE
1002
{
1070
   279
1070
     0
1070
   172
1070
     1
1070
   173
1070
     1
1070
   340
1005
E7
1070
   271
1070
     2
1070
   272
1070
     2
1070
    77
1070
     1
1070
    73
1070
     0
1070
   171
1070
     3
1070
   274
1070
     4
1070
   177
1070
    35
1070
   176
1070
    35
1070
   178
1070
    35
1070
    48
1040
-0.005
1070
    41
1041
3.5
1070
   147
1041
1.75
1070
    42
1041
1.5875
1070
    44
1041
2.0
1070
   140
1041
3.5
1070
   343
1005
0
1070
   344
1005
0
1002
}
0
DIMENSION
5
126
100
AcDbEntity
8
SK2
62
256
6
ByLayer
370
13
48
1
60
0
100
AcDbDimension
2
DimnDraft3D6
10
-55.625163
20
7
30
0
11
-56.250163
21
25.47418
31
0
70
33
71
5
72
1
41
1
210
0
220
0
230
1
3
Standard
100
AcDbAlignedDimension
13
-46.5875
23
-7
33
0
14
-46.5875
24
7
34
0
1001
ACAD
1000
DSTYLE
1002
{
1070
   279
1070
     0
1070
    74
1070
     0
1070
   173
1070
     1
1070
   340
1005
E7
1070
   271
1070
     3
1070
   272
1070
     2
1070
    77
1070
     1
1070
    73
1070
     0
1070
   171
1070
     3
1070
   274
1070
     4
1070
   177
1070
    35
1070
   176
1070
    35
1070
   178
1070
    35
1070
    48
1040
-0.005
1070
    41
1041
3.5
1070
   147
1041
1.75
1070
    42
1041
1.5875
1070
    44
1041
2.0
1070
   140
1041
3.5
1070
   343
1005
0
1070
   344
1005
0
1002
}
0
DIMENSION
5
131
100
AcDbEntity
8
2
62
256
6
ByLayer
370
13
48
1
60
0
100
AcDbDimension
2
DimnDraft3D7
10
93.083343
20
6.15
30
0
11
88.458343
21
23.217266
31
0
70
33
71
5
72
1
41
1
210
0
220
0
230
1
3
Standard
100
AcDbAlignedDimension
13
78.4775
23
-6.15
33
0
14
78.4775
24
6.15
34
0
1001
ACAD
1000
DSTYLE
1002
{
1070
   279
1070
     0
1070
    74
1070
     0
1070
   173
1070
     1
1070
   340
1005
E7
1070
   271
1070
     3
1070
   272
1070
     2
1070
    77
1070
     1
1070
    73
1070
     0
1070
   171
1070
     3
1070
   274
1070
     4
1070
   177
1070
    35
1070
   176
1070
    35
1070
   178
1070
    35
1070
    48
1040
-0.005
1070
    41
1041
3.5
1070
   147
1041
1.75
1070
    42
1041
1.5875
1070
    44
1041
2.0
1070
   140
1041
3.5
1070
   343
1005
0
1070
   344
1005
0
1002
}
0
ENDSEC
0
SECTION
2
OBJECTS
0
DICTIONARY
5
19c
330
0
100
AcDbDictionary
280
0
281
1
3
ACAD_GROUP
350
19d
3
ACAD_MLINESTYLE
350
19e
0
DICTIONARY
5
19d
330
0
100
AcDbDictionary
280
0
281
1
0
DICTIONARY
5
19e
330
0
100
AcDbDictionary
280
0
281
1
3
Standard
350
18
0
MLINESTYLE
5
18
330
19e
100
AcDbMlineStyle
2
Standard
70
0
3

62
256
51
90
52
90
71
2
49
-0.5
62
256
6
ByLayer
49
0.5
62
256
6
ByLayer
0
RASTERVARIABLES
5
18a
330

100
AcDbRasterVariables
90
0
70
1
71
1
72
1
0
ENDSEC
0
EOF
