0
SECTION
2
HEADER
9
$ACADVER
1
AC1015
9
$DWGCODEPAGE
3
ANSI_1252
9
$HANDSEED
5
1a7
9
$ANGBASE
50
0
9
$ANGDIR
70
0
9
$ATTMODE
70
1
9
$AUNITS
70
0
9
$AUPREC
70
0
9
$CECOLOR
62
256
9
$CELTSCALE
40
1
9
$CELTYPE
6
ByLayer
9
$CELWEIGHT
370
18
9
$CLAYER
8
0
9
$CMLJUST
70
0
9
$CMLSCALE
40
1
9
$CMLSTYLE
2
Standard
9
$DIMSTYLE
2
Standard
9
$TEXTSIZE
40
0.2
9
$TEXTSTYLE
7
Standard
9
$LUNITS
70
2
9
$LUPREC
70
4
9
$EXTNAMES
290
1
9
$INSUNITS
70
4
9
$LTSCALE
40
1
9
$LWDISPLAY
290
1
9
$PDMODE
70
0
9
$PDSIZE
40
0
9
$PLINEGEN
70
0
0
ENDSEC
0
SECTION
2
CLASSES
0
CLASS
1
RASTERVARIABLES
2
AcDbRasterVariables
3
ISM
90
0
280
0
281
0
0
ENDSEC
0
SECTION
2
TABLES
0
TABLE
2
VPORT
5
19d
100
AcDbSymbolTable
0
VPORT
5
1
100
AcDbSymbolTableRecord
100
AcDbViewportTableRecord
2
*Active
70
0
10
0
20
0
11
1
21
1
12
-1
22
1
13
0
23
0
14
0.5
24
0.5
15
10
25
10
16
0
26
0
36
1
17
0
27
0
37
0
0
ENDTAB
0
TABLE
2
LTYPE
5
19e
100
AcDbSymbolTable
0
LTYPE
5
14
100
AcDbSymbolTableRecord
100
AcDbLinetypeTableRecord
70
0
2
ByBlock
3

72
65
73
0
40
0
0
LTYPE
5
15
100
AcDbSymbolTableRecord
100
AcDbLinetypeTableRecord
70
0
2
ByLayer
3

72
65
73
0
40
0
0
LTYPE
5
16
100
AcDbSymbolTableRecord
100
AcDbLinetypeTableRecord
70
0
2
CONTINUOUS
3
Solid line
72
65
73
0
40
0
0
LTYPE
5
6A
100
AcDbSymbolTableRecord
100
AcDbLinetypeTableRecord
70
0
2
CENTER
3
____ _ ____ _ ____ _ ____
72
65
73
4
40
47.5
49
22
74
0
49
-8.5
74
0
49
8.5
74
0
49
-8.5
74
0
0
LTYPE
5
6B
100
AcDbSymbolTableRecord
100
AcDbLinetypeTableRecord
70
0
2
DASHED
3
__ __ __ __ __ __ __ __ __
72
65
73
2
40
25.72
49
12.86
74
0
49
-12.86
74
0
0
ENDTAB
0
TABLE
2
LAYER
5
19f
100
AcDbSymbolTable
0
LAYER
5
10
100
AcDbSymbolTableRecord
100
AcDbLayerTableRecord
2
0
70
0
62
7
6
CONTINUOUS
290
1
370
-3
390
0
0
LAYER
5
6D
100
AcDbSymbolTableRecord
100
AcDbLayerTableRecord
2
81
70
0
62
-3
6
CONTINUOUS
290
1
370
-3
390
0
0
LAYER
5
6F
100
AcDbSymbolTableRecord
100
AcDbLayerTableRecord
2
80
70
0
62
-6
6
CONTINUOUS
290
1
370
-3
390
0
0
LAYER
5
74
100
AcDbSymbolTableRecord
100
AcDbLayerTableRecord
2
2
70
0
62
7
6
CONTINUOUS
290
1
370
-3
390
0
0
LAYER
5
78
100
AcDbSymbolTableRecord
100
AcDbLayerTableRecord
2
1
70
0
62
4
6
CONTINUOUS
290
1
370
-3
390
0
0
LAYER
5
86
100
AcDbSymbolTableRecord
100
AcDbLayerTableRecord
2
4
70
0
62
-2
6
CENTER
290
1
370
-3
390
0
0
LAYER
5
189
100
AcDbSymbolTableRecord
100
AcDbLayerTableRecord
2
SK2
70
0
62
7
6
CONTINUOUS
290
1
370
-3
390
0
0
LAYER
5
18a
100
AcDbSymbolTableRecord
100
AcDbLayerTableRecord
2
SK1
70
0
62
4
6
CONTINUOUS
290
1
370
-3
390
0
0
LAYER
5
18b
100
AcDbSymbolTableRecord
100
AcDbLayerTableRecord
2
SK4
70
0
62
2
6
CENTER
290
1
370
-3
390
0
0
LAYER
5
18c
100
AcDbSymbolTableRecord
100
AcDbLayerTableRecord
2
SK6
70
0
62
5
6
CONTINUOUS
290
1
370
-3
390
0
0
ENDTAB
0
TABLE
2
STYLE
5
1a0
100
AcDbSymbolTable
0
STYLE
5
11
100
AcDbSymbolTableRecord
100
AcDbTextStyleTableRecord
2
Standard
3
txt
70
0
71
0
40
0
41
1
42
0
50
0
0
STYLE
5
E5
100
AcDbSymbolTableRecord
100
AcDbTextStyleTableRecord
2
iso_b_vert
3
simplex.shx
70
0
71
0
40
0
41
1
42
0
50
0
0
STYLE
5
E6
100
AcDbSymbolTableRecord
100
AcDbTextStyleTableRecord
2
DWGDirectTextStyle
3
simplex
70
0
71
0
40
0
41
1
42
0
50
0
0
ENDTAB
0
TABLE
2
DIMSTYLE
5
1a1
100
AcDbSymbolTable
100
AcDbDimStyleTable
0
DIMSTYLE
105
27
100
AcDbSymbolTableRecord
100
AcDbDimStyleTableRecord
2
Standard
70
0
3
<>
41
0.18
42
0.0625
44
0.18
140
0.18
147
0.09
73
0
74
0
77
1
271
2
275
0
278
52
280
0
340
11
0
ENDTAB
0
TABLE
2
VIEW
5
1a2
100
AcDbSymbolTable
0
ENDTAB
0
TABLE
2
UCS
5
1a3
100
AcDbSymbolTable
0
ENDTAB
0
TABLE
2
APPID
5
1a4
100
AcDbSymbolTable
0
APPID
5
12
100
AcDbSymbolTableRecord
100
AcDbRegAppTableRecord
2
ACAD
70
0
0
ENDTAB
0
TABLE
2
BLOCK_RECORD
5
1a5
100
AcDbSymbolTable
0
BLOCK_RECORD
5
1F
100
AcDbSymbolTableRecord
100
AcDbBlockTableRecord
2
*Model_Space
340
0
70
0
0
BLOCK_RECORD
5
1B
100
AcDbSymbolTableRecord
100
AcDbBlockTableRecord
2
*Paper_Space
340
0
70
0
0
BLOCK_RECORD
5
23
100
AcDbSymbolTableRecord
100
AcDbBlockTableRecord
2
*Paper_Space0
340
0
70
0
0
BLOCK_RECORD
5
E8
100
AcDbSymbolTableRecord
100
AcDbBlockTableRecord
2
DimnDraft3D1
340
0
70
0
0
BLOCK_RECORD
5
F2
100
AcDbSymbolTableRecord
100
AcDbBlockTableRecord
2
DimnDraft3D2
340
0
70
0
0
BLOCK_RECORD
5
FC
100
AcDbSymbolTableRecord
100
AcDbBlockTableRecord
2
DimnDraft3D3
340
0
70
0
0
BLOCK_RECORD
5
106
100
AcDbSymbolTableRecord
100
AcDbBlockTableRecord
2
DimnDraft3D4
340
0
70
0
0
BLOCK_RECORD
5
110
100
AcDbSymbolTableRecord
100
AcDbBlockTableRecord
2
DimnDraft3D5
340
0
70
0
0
BLOCK_RECORD
5
11A
100
AcDbSymbolTableRecord
100
AcDbBlockTableRecord
2
DimnDraft3D6
340
0
70
0
0
BLOCK_RECORD
5
125
100
AcDbSymbolTableRecord
100
AcDbBlockTableRecord
2
DimnDraft3D7
340
0
70
0
0
ENDTAB
0
ENDSEC
0
SECTION
2
BLOCKS
0
BLOCK
5
20
100
AcDbEntity
8
0
100
AcDbBlockBegin
2
*Model_Space
70
0
10
0
20
0
30
0
3
*Model_Space
0
ENDBLK
5
21
100
AcDbEntity
8
0
100
AcDbBlockEnd
0
BLOCK
5
1C
100
AcDbEntity
8
0
100
AcDbBlockBegin
2
*Paper_Space
70
0
10
0
20
0
30
0
3
*Paper_Space
0
ENDBLK
5
1D
100
AcDbEntity
8
0
100
AcDbBlockEnd
0
BLOCK
5
24
100
AcDbEntity
8
0
100
AcDbBlockBegin
2
*Paper_Space0
70
0
10
0
20
0
30
0
3
*Paper_Space0
0
ENDBLK
5
25
100
AcDbEntity
8
0
100
AcDbBlockEnd
0
BLOCK
5
EF
100
AcDbEntity
8
0
100
AcDbBlockBegin
2
DimnDraft3D1
70
0
10
0
20
0
30
0
3
DimnDraft3D1
0
MTEXT
5
E9
100
AcDbEntity
8
SK2
62
256
6
ByLayer
370
13
48
1
60
0
100
AcDbMText
10
24.148875
20
-15.438398
30
0
210
0
220
0
230
1
1
\W0.7211;59,91
40
3.5
41
0
44
1.084337
50
0
71
7
72
5
7
iso_b_vert
0
LINE
5
EA
100
AcDbEntity
8
SK2
62
256
6
ByLayer
370
13
48
1
60
0
100
AcDbLine
10
0
20
-1.5875
30
0
11
0
21
-18.313398
31
0
39
0
210
0
220
0
230
1
0
LINE
5
EB
100
AcDbEntity
8
SK2
62
256
6
ByLayer
370
13
48
1
60
0
100
AcDbLine
10
59.91
20
-7.6875
30
0
11
59.91
21
-18.313398
31
0
39
0
210
0
220
0
230
1
0
LINE
5
EC
100
AcDbEntity
8
SK2
62
256
6
ByLayer
370
13
48
1
60
0
100
AcDbLine
10
0
20
-16.313398
30
0
11
59.91
21
-16.313398
31
0
39
0
210
0
220
0
230
1
0
SOLID
5
ED
100
AcDbEntity
8
SK2
62
256
6
ByLayer
370
13
48
1
60
0
100
AcDbTrace
10
0
20
-16.313398
30
0
11
3.499998
21
-15.852615
31
0
12
3.500002
22
-16.774182
32
0
13
0
23
-16.313398
33
0
39
0
210
0
220
0
230
1
0
SOLID
5
EE
100
AcDbEntity
8
SK2
62
256
6
ByLayer
370
13
48
1
60
0
100
AcDbTrace
10
59.91
20
-16.313398
30
0
11
56.410002
21
-16.774182
31
0
12
56.409998
22
-15.852615
32
0
13
59.91
23
-16.313398
33
0
39
0
210
0
220
0
230
1
0
ENDBLK
5
F0
100
AcDbEntity
8
0
100
AcDbBlockEnd
0
BLOCK
5
F9
100
AcDbEntity
8
0
100
AcDbBlockBegin
2
DimnDraft3D2
70
0
10
0
20
0
30
0
3
DimnDraft3D2
0
MTEXT
5
F3
100
AcDbEntity
8
SK2
62
256
6
ByLayer
370
13
48
1
60
0
100
AcDbMText
10
2.432221
20
-34.817985
30
0
210
0
220
0
230
1
1
\W0.6930;107,00
40
3.5
41
0
44
1.084337
50
0
71
7
72
5
7
iso_b_vert
0
LINE
5
F4
100
AcDbEntity
8
SK2
62
256
6
ByLayer
370
13
48
1
60
0
100
AcDbLine
10
-45
20
-8.5875
30
0
11
-45
21
-37.692985
31
0
39
0
210
0
220
0
230
1
0
LINE
5
F5
100
AcDbEntity
8
SK2
62
256
6
ByLayer
370
13
48
1
60
0
100
AcDbLine
10
62
20
-1.5875
30
0
11
62
21
-37.692985
31
0
39
0
210
0
220
0
230
1
0
LINE
5
F6
100
AcDbEntity
8
SK2
62
256
6
ByLayer
370
13
48
1
60
0
100
AcDbLine
10
-45
20
-35.692985
30
0
11
62
21
-35.692985
31
0
39
0
210
0
220
0
230
1
0
SOLID
5
F7
100
AcDbEntity
8
SK2
62
256
6
ByLayer
370
13
48
1
60
0
100
AcDbTrace
10
-45
20
-35.692985
30
0
11
-41.500002
21
-35.232202
31
0
12
-41.499998
22
-36.153769
32
0
13
-45
23
-35.692985
33
0
39
0
210
0
220
0
230
1
0
SOLID
5
F8
100
AcDbEntity
8
SK2
62
256
6
ByLayer
370
13
48
1
60
0
100
AcDbTrace
10
62
20
-35.692985
30
0
11
58.500002
21
-36.153769
31
0
12
58.499998
22
-35.232202
32
0
13
62
23
-35.692985
33
0
39
0
210
0
220
0
230
1
0
ENDBLK
5
FA
100
AcDbEntity
8
0
100
AcDbBlockEnd
0
BLOCK
5
103
100
AcDbEntity
8
0
100
AcDbBlockBegin
2
DimnDraft3D3
70
0
10
0
20
0
30
0
3
DimnDraft3D3
0
MTEXT
5
FD
100
AcDbEntity
8
SK2
62
256
6
ByLayer
370
13
48
1
60
0
100
AcDbMText
10
38.206316
20
18.584119
30
0
210
0
220
0
230
1
1
\W0.7402;38,69
40
3.5
41
0
44
1.084337
50
0
71
7
72
5
7
iso_b_vert
0
LINE
5
FE
100
AcDbEntity
8
SK2
62
256
6
ByLayer
370
13
48
1
60
0
100
AcDbLine
10
23.31
20
7.6875
30
0
11
23.31
21
19.709119
31
0
39
0
210
0
220
0
230
1
0
LINE
5
FF
100
AcDbEntity
8
SK2
62
256
6
ByLayer
370
13
48
1
60
0
100
AcDbLine
10
62
20
1.5875
30
0
11
62
21
19.709119
31
0
39
0
210
0
220
0
230
1
0
LINE
5
100
100
AcDbEntity
8
SK2
62
256
6
ByLayer
370
13
48
1
60
0
100
AcDbLine
10
23.31
20
17.709119
30
0
11
62
21
17.709119
31
0
39
0
210
0
220
0
230
1
0
SOLID
5
101
100
AcDbEntity
8
SK2
62
256
6
ByLayer
370
13
48
1
60
0
100
AcDbTrace
10
23.31
20
17.709119
30
0
11
26.809998
21
18.169903
31
0
12
26.810002
22
17.248335
32
0
13
23.31
23
17.709119
33
0
39
0
210
0
220
0
230
1
0
SOLID
5
102
100
AcDbEntity
8
SK2
62
256
6
ByLayer
370
13
48
1
60
0
100
AcDbTrace
10
62
20
17.709119
30
0
11
58.500002
21
17.248335
31
0
12
58.499998
22
18.169903
32
0
13
62
23
17.709119
33
0
39
0
210
0
220
0
230
1
0
ENDBLK
5
104
100
AcDbEntity
8
0
100
AcDbBlockEnd
0
BLOCK
5
10D
100
AcDbEntity
8
0
100
AcDbBlockBegin
2
DimnDraft3D4
70
0
10
0
20
0
30
0
3
DimnDraft3D4
0
MTEXT
5
107
100
AcDbEntity
8
SK2
62
256
6
ByLayer
370
13
48
1
60
0
100
AcDbMText
10
68.840636
20
-18.027503
30
0
210
0
220
0
230
1
1
\W0.7259;2,09
40
3.5
41
0
44
1.084337
50
0
71
7
72
5
7
iso_b_vert
0
LINE
5
108
100
AcDbEntity
8
SK2
62
256
6
ByLayer
370
13
48
1
60
0
100
AcDbLine
10
62
20
-1.5875
30
0
11
62
21
-20.902503
31
0
39
0
210
0
220
0
230
1
0
LINE
5
109
100
AcDbEntity
8
SK2
62
256
6
ByLayer
370
13
48
1
60
0
100
AcDbLine
10
59.91
20
-7.6875
30
0
11
59.91
21
-20.902503
31
0
39
0
210
0
220
0
230
1
0
LINE
5
10A
100
AcDbEntity
8
SK2
62
256
6
ByLayer
370
13
48
1
60
0
100
AcDbLine
10
51.16
20
-18.902503
30
0
11
75.997215
21
-18.902503
31
0
39
0
210
0
220
0
230
1
0
SOLID
5
10B
100
AcDbEntity
8
SK2
62
256
6
ByLayer
370
13
48
1
60
0
100
AcDbTrace
10
62
20
-18.902503
30
0
11
65.499998
21
-18.441719
31
0
12
65.500002
22
-19.363287
32
0
13
62
23
-18.902503
33
0
39
0
210
0
220
0
230
1
0
SOLID
5
10C
100
AcDbEntity
8
SK2
62
256
6
ByLayer
370
13
48
1
60
0
100
AcDbTrace
10
59.91
20
-18.902503
30
0
11
56.410002
21
-19.363287
31
0
12
56.409998
22
-18.441719
32
0
13
59.91
23
-18.902503
33
0
39
0
210
0
220
0
230
1
0
ENDBLK
5
10E
100
AcDbEntity
8
0
100
AcDbBlockEnd
0
BLOCK
5
117
100
AcDbEntity
8
0
100
AcDbBlockBegin
2
DimnDraft3D5
70
0
10
0
20
0
30
0
3
DimnDraft3D5
0
MTEXT
5
111
100
AcDbEntity
8
SK2
62
256
6
ByLayer
370
13
48
1
60
0
100
AcDbMText
10
-0.395113
20
-24.468428
30
0
210
0
220
0
230
1
1
\W0.7050;104,91
40
3.5
41
0
44
1.084337
50
0
71
7
72
5
7
iso_b_vert
0
LINE
5
112
100
AcDbEntity
8
SK2
62
256
6
ByLayer
370
13
48
1
60
0
100
AcDbLine
10
-45
20
-8.5875
30
0
11
-45
21
-27.343428
31
0
39
0
210
0
220
0
230
1
0
LINE
5
113
100
AcDbEntity
8
SK2
62
256
6
ByLayer
370
13
48
1
60
0
100
AcDbLine
10
59.91
20
-7.6875
30
0
11
59.91
21
-27.343428
31
0
39
0
210
0
220
0
230
1
0
LINE
5
114
100
AcDbEntity
8
SK2
62
256
6
ByLayer
370
13
48
1
60
0
100
AcDbLine
10
-45
20
-25.343428
30
0
11
59.91
21
-25.343428
31
0
39
0
210
0
220
0
230
1
0
SOLID
5
115
100
AcDbEntity
8
SK2
62
256
6
ByLayer
370
13
48
1
60
0
100
AcDbTrace
10
-45
20
-25.343428
30
0
11
-41.500002
21
-24.882645
31
0
12
-41.499998
22
-25.804212
32
0
13
-45
23
-25.343428
33
0
39
0
210
0
220
0
230
1
0
SOLID
5
116
100
AcDbEntity
8
SK2
62
256
6
ByLayer
370
13
48
1
60
0
100
AcDbTrace
10
59.91
20
-25.343428
30
0
11
56.410002
21
-25.804212
31
0
12
56.409998
22
-24.882645
32
0
13
59.91
23
-25.343428
33
0
39
0
210
0
220
0
230
1
0
ENDBLK
5
118
100
AcDbEntity
8
0
100
AcDbBlockEnd
0
BLOCK
5
122
100
AcDbEntity
8
0
100
AcDbBlockBegin
2
DimnDraft3D6
70
0
10
0
20
0
30
0
3
DimnDraft3D6
0
MTEXT
5
11B
100
AcDbEntity
8
SK2
62
256
6
ByLayer
370
13
48
1
60
0
100
AcDbMText
10
-55.375163
20
26.34918
30
0
210
0
220
0
230
1
1
\W0.7145;14,000
40
3.5
41
0
44
1.084337
50
90
71
7
72
5
7
iso_b_vert
0
MTEXT
5
11C
100
AcDbEntity
8
SK2
62
256
6
ByLayer
370
13
48
1
60
0
100
AcDbMText
10
-55.375163
20
21.126524
30
0
210
0
220
0
230
1
1
%%c
40
3.5
41
0
44
1.084337
50
90
71
7
72
5
7
iso_b_vert
0
LINE
5
11D
100
AcDbEntity
8
SK2
62
256
6
ByLayer
370
13
48
1
60
0
100
AcDbLine
10
-46.5875
20
-7
30
0
11
-55.625163
21
-7
31
0
39
0
210
0
220
0
230
1
0
LINE
5
11E
100
AcDbEntity
8
SK2
62
256
6
ByLayer
370
13
48
1
60
0
100
AcDbLine
10
-46.5875
20
7
30
0
11
-55.625163
21
7
31
0
39
0
210
0
220
0
230
1
0
LINE
5
11F
100
AcDbEntity
8
SK2
62
256
6
ByLayer
370
13
48
1
60
0
100
AcDbLine
10
-53.625163
20
-7
30
0
11
-53.625163
21
38.230759
31
0
39
0
210
0
220
0
230
1
0
SOLID
5
120
100
AcDbEntity
8
SK2
62
256
6
ByLayer
370
13
48
1
60
0
100
AcDbTrace
10
-53.625163
20
-7
30
0
11
-54.085946
21
-3.500002
31
0
12
-53.164379
22
-3.499998
32
0
13
-53.625163
23
-7
33
0
39
0
210
0
220
0
230
1
0
SOLID
5
121
100
AcDbEntity
8
SK2
62
256
6
ByLayer
370
13
48
1
60
0
100
AcDbTrace
10
-53.625163
20
7
30
0
11
-53.164379
21
3.500002
31
0
12
-54.085946
22
3.499998
32
0
13
-53.625163
23
7
33
0
39
0
210
0
220
0
230
1
0
ENDBLK
5
123
100
AcDbEntity
8
0
100
AcDbBlockEnd
0
BLOCK
5
12D
100
AcDbEntity
8
0
100
AcDbBlockBegin
2
DimnDraft3D7
70
0
10
0
20
0
30
0
3
DimnDraft3D7
0
MTEXT
5
126
100
AcDbEntity
8
2
62
256
6
ByLayer
370
13
48
1
60
0
100
AcDbMText
10
72.333343
20
24.042266
30
0
210
0
220
0
230
1
1
\W0.6930;12,200
40
3.5
41
0
44
1.084337
50
90
71
7
72
5
7
iso_b_vert
0
MTEXT
5
127
100
AcDbEntity
8
2
62
256
6
ByLayer
370
13
48
1
60
0
100
AcDbMText
10
72.333343
20
18.81961
30
0
210
0
220
0
230
1
1
%%c
40
3.5
41
0
44
1.084337
50
90
71
7
72
5
7
iso_b_vert
0
LINE
5
128
100
AcDbEntity
8
2
62
256
6
ByLayer
370
13
48
1
60
0
100
AcDbLine
10
61.4975
20
-6.1
30
0
11
76.083343
21
-6.1
31
0
39
0
210
0
220
0
230
1
0
LINE
5
129
100
AcDbEntity
8
2
62
256
6
ByLayer
370
13
48
1
60
0
100
AcDbLine
10
61.4975
20
6.1
30
0
11
76.083343
21
6.1
31
0
39
0
210
0
220
0
230
1
0
LINE
5
12A
100
AcDbEntity
8
2
62
256
6
ByLayer
370
13
48
1
60
0
100
AcDbLine
10
74.083343
20
-6.1
30
0
11
74.083343
21
35.555424
31
0
39
0
210
0
220
0
230
1
0
SOLID
5
12B
100
AcDbEntity
8
2
62
256
6
ByLayer
370
13
48
1
60
0
100
AcDbTrace
10
74.083343
20
-6.1
30
0
11
73.622559
21
-2.600002
31
0
12
74.544126
22
-2.599998
32
0
13
74.083343
23
-6.1
33
0
39
0
210
0
220
0
230
1
0
SOLID
5
12C
100
AcDbEntity
8
2
62
256
6
ByLayer
370
13
48
1
60
0
100
AcDbTrace
10
74.083343
20
6.1
30
0
11
74.544126
21
2.600002
31
0
12
73.622559
22
2.599998
32
0
13
74.083343
23
6.1
33
0
39
0
210
0
220
0
230
1
0
ENDBLK
5
12E
100
AcDbEntity
8
0
100
AcDbBlockEnd
0
ENDSEC
0
SECTION
2
ENTITIES
0
ARC
5
9C
100
AcDbEntity
8
1
62
256
6
ByLayer
370
18
48
1
60
0
100
AcDbCircle
39
0
10
0
20
6.2
30
0
40
0.800000000000003
210
0
220
0
230
1
100
AcDbArc
50
24.554819
51
90
0
ARC
5
9D
100
AcDbEntity
8
1
62
256
6
ByLayer
370
18
48
1
60
0
100
AcDbCircle
39
0
10
0
20
-6.2
30
0
40
0.800000000000003
210
0
220
0
230
1
100
AcDbArc
50
270
51
335.445181
0
ARC
5
9E
100
AcDbEntity
8
1
62
256
6
ByLayer
370
18
48
1
60
0
100
AcDbCircle
39
0
10
-1.455303
20
6.864902
30
0
40
0.799999999999996
210
0
220
0
230
-1
100
AcDbArc
50
269.965623
51
335.445181
0
ARC
5
9F
100
AcDbEntity
8
1
62
256
6
ByLayer
370
18
48
1
60
0
100
AcDbCircle
39
0
10
-1.455303
20
-6.864902
30
0
40
0.799999999999996
210
0
220
0
230
-1
100
AcDbArc
50
24.554819
51
90.034377
0
ELLIPSE
5
A0
100
AcDbEntity
8
1
62
256
6
ByLayer
370
18
48
1
60
0
100
AcDbEllipse
10
4.25
20
-6.048076
30
0
11
0.25
21
0
31
0
210
0
220
0
230
1
40
1
41
1.58070243263015
42
3.12688309421559
0
ELLIPSE
5
A1
100
AcDbEntity
8
1
62
256
6
ByLayer
370
18
48
1
60
0
100
AcDbEllipse
10
4.25
20
6.048076
30
0
11
0.25
21
0
31
0
210
0
220
0
230
1
40
1
41
-3.12688309421555
42
-1.55638909254619
0
ELLIPSE
5
A2
100
AcDbEntity
8
1
62
256
6
ByLayer
370
13
48
1
60
0
100
AcDbEllipse
10
4.180307
20
0.741423
30
0
11
-0.0500759273293497
21
-0.0865586593132409
31
0
210
0
220
0
230
1
40
0.367009
41
-1.23588942944094
42
-0.234241025327114
0
ELLIPSE
5
A3
100
AcDbEntity
8
1
62
256
6
ByLayer
370
18
48
1
60
0
100
AcDbEllipse
10
62.000517
20
0.001332
30
0
11
2.23676403648604
21
6.09846205702634
31
0
210
0
220
0
230
-1
40
0.082138
41
2.89624551492968
42
2.98866592340495
0
ELLIPSE
5
A4
100
AcDbEntity
8
1
62
256
6
ByLayer
370
18
48
1
60
0
100
AcDbEllipse
10
62.020287
20
-0.046627
30
0
11
0.135658546050653
21
0.401200806273603
31
0
210
0
220
0
230
-1
40
0.065863
41
-2.32292776273857
42
-1.62056265042257
0
ELLIPSE
5
A5
100
AcDbEntity
8
1
62
256
6
ByLayer
370
13
48
1
60
0
100
AcDbEllipse
10
4.250142
20
0.703264
30
0
11
0.0460918342001167
21
0.0887442551383973
31
0
210
0
220
0
230
1
40
0.056079
41
3.04906028790828
42
-1.6763072848666
0
ELLIPSE
5
A6
100
AcDbEntity
8
1
62
256
6
ByLayer
370
18
48
1
60
0
100
AcDbEllipse
10
62.000517
20
-0.001332
30
0
11
2.23676403179321
21
-6.09846204354438
31
0
210
0
220
0
230
-1
40
0.082138
41
-2.98866592323614
42
-2.89624551465736
0
ELLIPSE
5
A7
100
AcDbEntity
8
1
62
256
6
ByLayer
370
18
48
1
60
0
100
AcDbEllipse
10
62.020287
20
0.046627
30
0
11
0.135658546011086
21
-0.401200806172174
31
0
210
0
220
0
230
-1
40
0.065863
41
1.62056265024978
42
2.3229277627247
0
ELLIPSE
5
A8
100
AcDbEntity
8
1
62
256
6
ByLayer
370
18
48
1
60
0
100
AcDbEllipse
10
60.867191
20
-2.91247
30
0
11
0.939251672773287
21
2.56083816122454
31
0
210
0
220
0
230
-1
40
0.082138
41
0.755280950346609
42
1.56764129415915
0
ELLIPSE
5
A9
100
AcDbEntity
8
1
62
256
6
ByLayer
370
18
48
1
60
0
100
AcDbEllipse
10
61.860117
20
0.125931
30
0
11
0.0868803724519874
21
0.290676908866453
31
0
210
0
220
0
230
-1
40
0.467765
41
1.66663888471515
42
2.36053717392582
0
ELLIPSE
5
AA
100
AcDbEntity
8
1
62
256
6
ByLayer
370
13
48
1
60
0
100
AcDbEllipse
10
61.029854
20
2.778177
30
0
11
4.05782242395144
21
-2.08608318896167
31
0
210
0
220
0
230
-1
40
0.482873
41
1.53949524923242
42
1.85129401068362
0
ELLIPSE
5
AB
100
AcDbEntity
8
1
62
256
6
ByLayer
370
13
48
1
60
0
100
AcDbEllipse
10
61.199313
20
2.91247
30
0
11
4.10390870527683
21
-1.77554483693086
31
0
210
0
220
0
230
-1
40
0.450051
41
1.59050978320515
42
1.90854122860623
0
ELLIPSE
5
AC
100
AcDbEntity
8
1
62
256
6
ByLayer
370
13
48
1
60
0
100
AcDbEllipse
10
60.319486
20
0.88873
30
0
11
0.133113781883896
21
0.268850741253519
31
0
210
0
220
0
230
1
40
0.40558
41
0.884485917130959
42
2.28074931872638
0
ELLIPSE
5
AD
100
AcDbEntity
8
1
62
256
6
ByLayer
370
18
48
1
60
0
100
AcDbEllipse
10
60.867191
20
2.91247
30
0
11
0.939251672786728
21
-2.56083816125521
31
0
210
0
220
0
230
-1
40
0.082138
41
-1.56764129414965
42
-0.755280950345724
0
POINT
5
6C
100
AcDbEntity
8
81
62
256
6
ByLayer
370
18
48
1
60
0
100
AcDbPoint
10
62
20
0
30
0
39
0
210
0
220
0
230
1
50
360
0
POINT
5
6E
100
AcDbEntity
8
80
62
256
6
ByLayer
370
18
48
1
60
0
100
AcDbPoint
10
0
20
0
30
0
39
0
210
0
220
0
230
1
50
360
0
POINT
5
70
100
AcDbEntity
8
SK2
62
256
6
ByLayer
370
18
48
1
60
1
100
AcDbPoint
10
-45
20
-7
30
0
39
0
210
0
220
0
230
1
50
360
0
POINT
5
72
100
AcDbEntity
8
SK2
62
256
6
ByLayer
370
18
48
1
60
1
100
AcDbPoint
10
-45
20
7
30
0
39
0
210
0
220
0
230
1
50
360
0
POINT
5
73
100
AcDbEntity
8
2
62
256
6
ByLayer
370
18
48
1
60
1
100
AcDbPoint
10
59.91
20
-6.1
30
0
39
0
210
0
220
0
230
1
50
360
0
POINT
5
75
100
AcDbEntity
8
2
62
256
6
ByLayer
370
18
48
1
60
1
100
AcDbPoint
10
59.91
20
6.1
30
0
39
0
210
0
220
0
230
1
50
360
0
SPLINE
5
AE
100
AcDbEntity
8
1
62
256
6
ByLayer
370
18
48
1
60
0
100
AcDbSpline
70
4
71
2
72
6
73
3
40
0
40
0
40
0
40
1
40
1
40
1
41
1
10
5.37371532492421
20
0.0041328861019281
30
0
41
1
10
5.37370623044691
20
0.0041376350854421
30
0
41
1
10
5.37369713596797
20
0.0041425249058022
30
0
0
SPLINE
5
AF
100
AcDbEntity
8
1
62
256
6
ByLayer
370
18
48
1
60
0
100
AcDbSpline
70
4
71
2
72
6
73
3
40
0
40
0
40
0
40
1
40
1
40
1
41
1
10
4.25051504349332
20
-5.79736776522154
30
0
41
1
10
5.22004576158764
20
-5.79949173247817
30
0
41
1
10
6.19556266227178
20
-5.79967645197328
30
0
0
SPLINE
5
B0
100
AcDbEntity
8
1
62
256
6
ByLayer
370
18
48
1
60
0
100
AcDbSpline
70
4
71
3
72
10
73
6
40
0
40
0
40
0
40
0
40
0.224648141912512
40
0.624143435425368
40
1
40
1
40
1
40
1
41
1
10
6.37221513743847
20
5.79805692127135
30
0
41
1
10
6.21239325830956
20
5.79758427031385
30
0
41
1
10
5.76890444255349
20
5.79656227045896
30
0
41
1
10
5.05714221645198
20
5.79905749915014
30
0
41
1
10
4.51309858373966
20
5.79797210754501
30
0
41
1
10
4.25049039791531
20
5.79729566451343
30
0
0
SPLINE
5
B1
100
AcDbEntity
8
1
62
256
6
ByLayer
370
18
48
1
60
0
100
AcDbSpline
70
4
71
2
72
6
73
3
40
0
40
0
40
0
40
1
40
1
40
1
41
1
10
58.6980761495384
20
-5.83036993453379
30
0
41
1
10
59.2806303606263
20
-5.82917992215849
30
0
41
1
10
59.8621397283077
20
-5.83213136916677
30
0
0
SPLINE
5
B2
100
AcDbEntity
8
1
62
256
6
ByLayer
370
18
48
1
60
0
100
AcDbSpline
70
4
71
3
72
32
73
28
40
0
40
0
40
0
40
0
40
0.0299626039864025
40
0.0639044354776618
40
0.0955872063533035
40
0.129969880384148
40
0.161225848127194
40
0.21563928339268
40
0.275005257630931
40
0.308089323557434
40
0.343483632108597
40
0.381902729879022
40
0.423563342068413
40
0.469775224739632
40
0.514515596858848
40
0.547250701236235
40
0.590562583975622
40
0.644706074018466
40
0.696044873427016
40
0.740682386128465
40
0.787267410650162
40
0.833248879617928
40
0.874990817135515
40
0.922565372600942
40
0.969161622035396
40
0.989833649398198
40
1
40
1
40
1
40
1
41
1
10
41.6138598358201
20
5.81100741320685
30
0
41
1
10
41.4633264921773
20
5.81180805850494
30
0
41
1
10
41.1434287567906
20
5.81341767464556
30
0
41
1
10
40.6740996567508
20
5.81645672235132
30
0
41
1
10
40.1759906359582
20
5.8173906710449
30
0
41
1
10
39.6870646676863
20
5.81704451507846
30
0
41
1
10
39.0768623710762
20
5.8165510816485
30
0
41
1
10
38.3428063825258
20
5.81757395496413
30
0
41
1
10
37.5974907006186
20
5.81712976209934
30
0
41
1
10
36.949165214218
20
5.81677714167247
30
0
41
1
10
36.4069892837353
20
5.81658258646084
30
0
41
1
10
35.8213415475383
20
5.81383445939733
30
0
41
1
10
35.1808194834415
20
5.81394232058332
30
0
41
1
10
34.5082414504395
20
5.81440612946204
30
0
41
1
10
33.8809280054292
20
5.81516140430824
30
0
41
1
10
33.2683237011873
20
5.81631297714713
30
0
41
1
10
32.60803236072
20
5.81328275961474
30
0
41
1
10
31.8534571715422
20
5.81284825874098
30
0
41
1
10
31.092040236335
20
5.81343654036218
30
0
41
1
10
30.3690995305776
20
5.81375791915329
30
0
41
1
10
29.6732592697737
20
5.81367523225455
30
0
41
1
10
28.9920829417818
20
5.81100609526777
30
0
41
1
10
28.3058817539985
20
5.81139540901228
30
0
41
1
10
27.6165688203431
20
5.81159610945207
30
0
41
1
10
27.0341016658653
20
5.81164899983392
30
0
41
1
10
26.6413914781322
20
5.81150191121824
30
0
41
1
10
26.4849981331278
20
5.8113590827347
30
0
41
1
10
26.4334407030801
20
5.81130311423973
30
0
0
SPLINE
5
B3
100
AcDbEntity
8
1
62
256
6
ByLayer
370
18
48
1
60
0
100
AcDbSpline
70
4
71
3
72
38
73
34
40
0
40
0
40
0
40
0
40
0.0456166235889185
40
0.0871666341203907
40
0.122460475600059
40
0.145879638286098
40
0.162542845623175
40
0.177984370341783
40
0.19241736604203
40
0.207586158363739
40
0.223878945142277
40
0.270611545662586
40
0.311227291756802
40
0.349633418084125
40
0.388543665557863
40
0.425827249363141
40
0.468708098101573
40
0.513931571058713
40
0.550107919429702
40
0.580649058865792
40
0.622636021887218
40
0.663914791326104
40
0.700991622131926
40
0.734980610041349
40
0.766174002867107
40
0.795389704905087
40
0.822699565481744
40
0.857106781237154
40
0.890910031421749
40
0.928742915535395
40
0.96023649015718
40
0.994340927396821
40
1
40
1
40
1
40
1
41
1
10
23.30148407378
20
-5.80901140436151
30
0
41
1
10
23.5783619911788
20
-5.80913026584963
30
0
41
1
10
24.1074929828815
20
-5.80936329406455
30
0
41
1
10
24.8511262484765
20
-5.80987215559105
30
0
41
1
10
25.4599273034479
20
-5.81004940713393
30
0
41
1
10
25.9175809131606
20
-5.81048341262797
30
0
41
1
10
26.2547101085829
20
-5.81110738452085
30
0
41
1
10
26.5372711325469
20
-5.81143782130445
30
0
41
1
10
26.8107614113057
20
-5.811566509925
30
0
41
1
10
27.0894366763356
20
-5.8116320124499
30
0
41
1
10
27.5642427693877
20
-5.81161295452222
30
0
41
1
10
28.1935644780706
20
-5.81146786868462
30
0
41
1
10
28.9571639193316
20
-5.81089373341811
30
0
41
1
10
29.6732593319014
20
-5.81366876012319
30
0
41
1
10
30.3690995145389
20
-5.8137594677338
30
0
41
1
10
31.09204024179
20
-5.81343646065707
30
0
41
1
10
31.8534571674302
20
-5.81284648730917
30
0
41
1
10
32.6080323705027
20
-5.81328967187028
30
0
41
1
10
33.2877487346616
20
-5.81638324349896
30
0
41
1
10
33.9478163211861
20
-5.81501416698452
30
0
41
1
10
34.6388670092038
20
-5.81432456553557
30
0
41
1
10
35.3695999504665
20
-5.813660528177
30
0
41
1
10
36.0517711911009
20
-5.81480968921366
30
0
41
1
10
36.6726971869998
20
-5.81700417797742
30
0
41
1
10
37.2459057609584
20
-5.816764585568
30
0
41
1
10
37.7785136215738
20
-5.81739416931245
30
0
41
1
10
38.3307885491154
20
-5.81741648276156
30
0
41
1
10
38.9102215498385
20
-5.81673951502168
30
0
41
1
10
39.5549899343725
20
-5.81681532027591
30
0
41
1
10
40.1770427117952
20
-5.81746906389154
30
0
41
1
10
40.7939083601241
20
-5.81631477378428
30
0
41
1
10
41.2087520421825
20
-5.81230327667575
30
0
41
1
10
41.4476680646482
20
-5.81136343032753
30
0
41
1
10
41.4817819869285
20
-5.81124750880625
30
0
0
SPLINE
5
B4
100
AcDbEntity
8
1
62
256
6
ByLayer
370
18
48
1
60
0
100
AcDbSpline
70
4
71
3
72
8
73
4
40
0
40
0
40
0
40
0
40
1
40
1
40
1
40
1
41
1
10
41.572292429704
20
-5.81097656680438
30
0
41
1
10
41.5894631218995
20
-5.81093096445687
30
0
41
1
10
41.6066533463129
20
-5.81088796264524
30
0
41
1
10
41.6238582652178
20
-5.81084649723326
30
0
0
SPLINE
5
B5
100
AcDbEntity
8
1
62
256
6
ByLayer
370
18
48
1
60
0
100
AcDbSpline
70
4
71
3
72
12
73
8
40
0
40
0
40
0
40
0
40
0.0349725708286717
40
0.144423351955994
40
0.327154867155045
40
0.617034400780785
40
1
40
1
40
1
40
1
41
1
10
42.7680092043677
20
-1.58292670486227
30
0
41
1
10
42.7678530711699
20
-1.5828787392517
30
0
41
1
10
42.768328538101
20
-1.58318694003097
30
0
41
1
10
42.7820363990661
20
-1.58958706527929
30
0
41
1
10
42.8687513207208
20
-1.63105023835189
30
0
41
1
10
43.0083158196345
20
-1.70070594549335
30
0
41
1
10
43.1322063207273
20
-1.76421668094397
30
0
41
1
10
43.2072432344944
20
-1.80329342299999
30
0
0
SPLINE
5
B6
100
AcDbEntity
8
1
62
256
6
ByLayer
370
13
48
1
60
0
100
AcDbSpline
70
4
71
3
72
12
73
8
40
0
40
0
40
0
40
0
40
0.499999999999981
40
0.499999999999981
40
0.749999999999991
40
0.749999999999991
40
1
40
1
40
1
40
1
41
1
10
3.99999958590521
20
0.887732405394388
30
0
41
1
10
3.99999958590521
20
0.856646834545046
30
0
41
1
10
4.01169789735553
20
0.824882327797297
30
0
41
1
10
4.04540796020112
20
0.78394308364912
30
0
41
1
10
4.0595523033104
20
0.771037989814118
30
0
41
1
10
4.09309146920515
20
0.748168820933273
30
0
41
1
10
4.11214209915454
20
0.738334002245324
30
0
41
1
10
4.13384508747401
20
0.730330019129354
30
0
0
SPLINE
5
B7
100
AcDbEntity
8
1
62
256
6
ByLayer
370
18
48
1
60
0
100
AcDbSpline
70
4
71
3
72
22
73
18
40
0
40
0
40
0
40
0
40
0.125000000000001
40
0.125000000000001
40
0.250000000000002
40
0.250000000000002
40
0.500000000000002
40
0.500000000000002
40
0.625000000000002
40
0.625000000000002
40
0.750000000000002
40
0.750000000000002
40
0.812500000000002
40
0.812500000000002
40
0.875000000000002
40
0.875000000000002
40
1
40
1
40
1
40
1
41
1
10
11.3514359289125
20
-5.05805860909953
30
0
41
1
10
11.0426386534203
20
-5.13556818578539
30
0
41
1
10
10.7357563990057
20
-5.20781552806241
30
0
41
1
10
10.1249820123364
20
-5.34221412700427
30
0
41
1
10
9.821104659794
20
-5.40427854439125
30
0
41
1
10
8.91338662664793
20
-5.57246340286125
30
0
41
1
10
8.31329154683402
20
-5.66111065345916
30
0
41
1
10
7.41996427785492
20
-5.74855728145948
30
0
41
1
10
7.12337138558144
20
-5.76988789137792
30
0
41
1
10
6.53265652038422
20
-5.79723537511069
30
0
41
1
10
6.23857993048566
20
-5.80266065086297
30
0
41
1
10
5.79999987657962
20
-5.79614084042294
30
0
41
1
10
5.65406978717391
20
-5.79150982871241
30
0
41
1
10
5.36515832993723
20
-5.77686543708165
30
0
41
1
10
5.22197968301728
20
-5.76685318965158
30
0
41
1
10
4.7969296820919
20
-5.72779325438782
30
0
41
1
10
4.51940016355886
20
-5.68991090148972
30
0
41
1
10
4.25068475962092
20
-5.63605699739128
30
0
0
SPLINE
5
B8
100
AcDbEntity
8
1
62
256
6
ByLayer
370
18
48
1
60
0
100
AcDbSpline
70
4
71
3
72
16
73
12
40
0
40
0
40
0
40
0
40
0.224552511249008
40
0.224552511249008
40
0.332719030187328
40
0.332719030187328
40
0.440885549125647
40
0.440885549125647
40
0.657218587002287
40
0.657218587002287
40
1
40
1
40
1
40
1
41
1
10
23.4669919581874
20
-5.80847815011137
30
0
41
1
10
22.8655540233093
20
-5.8128160627696
30
0
41
1
10
22.2621652850661
20
-5.79236466585604
30
0
41
1
10
21.3628625013923
20
-5.72452996317932
30
0
41
1
10
21.0706154308612
20
-5.6966388617499
30
0
41
1
10
20.4881847599243
20
-5.62974052317836
30
0
41
1
10
20.1976516171225
20
-5.59067623292964
30
0
41
1
10
19.3275421444032
20
-5.45726013523944
30
0
41
1
10
18.749452491275
20
-5.34673449479109
30
0
41
1
10
17.2568521376314
20
-5.0082127698777
30
0
41
1
10
16.3433575456578
20
-4.74916174413519
30
0
41
1
10
15.4256277419905
20
-4.44474072351898
30
0
0
SPLINE
5
B9
100
AcDbEntity
8
1
62
256
6
ByLayer
370
13
48
1
60
0
100
AcDbSpline
70
4
71
3
72
20
73
16
40
0
40
0
40
0
40
0
40
0.0647638668821061
40
0.0647638668821061
40
0.142700211308597
40
0.142700211308597
40
0.220636555735089
40
0.220636555735089
40
0.376509244588071
40
0.376509244588071
40
0.688254622294036
40
0.688254622294036
40
0.844127311147018
40
0.844127311147018
40
1
40
1
40
1
40
1
41
1
10
15.4256277418302
20
-4.44474072346586
30
0
41
1
10
15.1849792388565
20
-4.3649149810812
30
0
41
1
10
14.9440395221976
20
-4.28196959218116
30
0
41
1
10
14.4122817991352
20
-4.09257849491075
30
0
41
1
10
14.1212709595986
20
-3.98476648683334
30
0
41
1
10
13.5378443511177
20
-3.76071063202093
30
0
41
1
10
13.2449247357531
20
-3.64423767037053
30
0
41
1
10
12.3692881941236
20
-3.28552059549674
30
0
41
1
10
11.7885243517584
20
-3.03363769968595
30
0
41
1
10
10.0509343758889
20
-2.24766569331732
30
0
41
1
10
8.8995049402437
20
-1.68212474817966
30
0
41
1
10
7.16465521010159
20
-0.805534501728459
30
0
41
1
10
6.58522674573845
20
-0.508374848545458
30
0
41
1
10
5.42130917295603
20
0.0905033314737125
30
0
41
1
10
4.83552597967676
20
0.39252071677214
30
0
41
1
10
4.25023661572729
20
0.691347287869831
30
0
0
SPLINE
5
BA
100
AcDbEntity
8
1
62
256
6
ByLayer
370
18
48
1
60
0
100
AcDbSpline
70
4
71
3
72
86
73
82
40
0
40
0
40
0
40
0
40
0.0175077562507407
40
0.0175077562507407
40
0.0350522606034075
40
0.0350522606034075
40
0.0525967649560742
40
0.0525967649560742
40
0.0876857736614078
40
0.0876857736614078
40
0.105230278014075
40
0.105230278014075
40
0.122774782366741
40
0.122774782366741
40
0.157863791072075
40
0.157863791072075
40
0.192952799777408
40
0.192952799777408
40
0.210497304130075
40
0.210497304130075
40
0.228041808482741
40
0.228041808482741
40
0.245586312835407
40
0.245586312835407
40
0.263130817188074
40
0.263130817188074
40
0.298219825893406
40
0.298219825893406
40
0.333308834598737
40
0.333308834598737
40
0.350853338951403
40
0.350853338951403
40
0.368397843304069
40
0.368397843304069
40
0.4034868520094
40
0.4034868520094
40
0.421031356362065
40
0.421031356362065
40
0.43857586071473
40
0.43857586071473
40
0.47366486942006
40
0.47366486942006
40
0.50875387812539
40
0.50875387812539
40
0.526298382478055
40
0.526298382478055
40
0.54384288683072
40
0.54384288683072
40
0.578931895536049
40
0.578931895536049
40
0.596476399888714
40
0.596476399888714
40
0.614020904241378
40
0.614020904241378
40
0.649109912946707
40
0.649109912946707
40
0.666654417299372
40
0.666654417299372
40
0.684198921652036
40
0.684198921652036
40
0.719287930357366
40
0.719287930357366
40
0.736832434710031
40
0.736832434710031
40
0.754376939062697
40
0.754376939062697
40
0.789465947768026
40
0.789465947768026
40
0.824554956473355
40
0.824554956473355
40
0.859643965178684
40
0.859643965178684
40
0.894732973884013
40
0.894732973884013
40
0.912277478236678
40
0.912277478236678
40
0.929821982589342
40
0.929821982589342
40
0.964910991294671
40
0.964910991294671
40
1
40
1
40
1
40
1
41
1
10
48.9455488845424
20
-4.42670705961982
30
0
41
1
10
48.727477275063
20
-4.50006349737748
30
0
41
1
10
48.5095848890377
20
-4.57075566627134
30
0
41
1
10
48.0734034557085
20
-4.70620717151223
30
0
41
1
10
47.8550681695145
20
-4.77110289612113
30
0
41
1
10
47.4182838354207
20
-4.89608478679415
30
0
41
1
10
47.1998415403597
20
-4.95617631736746
30
0
41
1
10
46.5445154192611
20
-5.12856054085617
30
0
41
1
10
46.1077195200178
20
-5.23285803838024
30
0
41
1
10
45.4503966448324
20
-5.37035125863721
30
0
41
1
10
45.2309921941458
20
-5.41301494392266
30
0
41
1
10
44.7914956158656
20
-5.49123590229684
30
0
41
1
10
44.5714517888722
20
-5.52696814492936
30
0
41
1
10
43.9104881036834
20
-5.62645319015741
30
0
41
1
10
43.4672859188491
20
-5.6814386624346
30
0
41
1
10
42.5831727065901
20
-5.76530707485142
30
0
41
1
10
42.1422595409689
20
-5.79472086753583
30
0
41
1
10
41.4808452696522
20
-5.81560742526926
30
0
41
1
10
41.2603202914418
20
-5.81834983627317
30
0
41
1
10
40.8190390463176
20
-5.81832804678939
30
0
41
1
10
40.5982961478153
20
-5.81541840765596
30
0
41
1
10
40.1567012310316
20
-5.80303259238215
30
0
41
1
10
39.9359272604658
20
-5.7935715878898
30
0
41
1
10
39.493807189389
20
-5.7678352009768
30
0
41
1
10
39.2723721433653
20
-5.75159836976059
30
0
41
1
10
38.6099432013851
20
-5.69360677286841
30
0
41
1
10
38.169897346846
20
-5.64253853854171
30
0
41
1
10
37.2931759820177
20
-5.51315900962854
30
0
41
1
10
36.8556749019301
20
-5.43650113606665
30
0
41
1
10
36.2001433741751
20
-5.30200814930041
30
0
41
1
10
35.9817710419667
20
-5.25370578318012
30
0
41
1
10
35.5453315142592
20
-5.15242778407293
30
0
41
1
10
35.3272310855588
20
-5.09916390633438
30
0
41
1
10
34.6725441215262
20
-4.93133413705496
30
0
41
1
10
34.2356828937909
20
-4.80885267786357
30
0
41
1
10
33.5797466440957
20
-4.60827413792364
30
0
41
1
10
33.3610920453741
20
-4.53847461791673
30
0
41
1
10
32.923082013347
20
-4.39240522516292
30
0
41
1
10
32.7036929433153
20
-4.31644207904321
30
0
41
1
10
32.0444571602368
20
-4.08245425719107
30
0
41
1
10
31.6036251361422
20
-3.91823382218493
30
0
41
1
10
30.7190082481015
20
-3.56897931957025
30
0
41
1
10
30.2771745407917
20
-3.38657185251998
30
0
41
1
10
29.6151751051625
20
-3.1010144690656
30
0
41
1
10
29.3946218761884
20
-3.00347501656623
30
0
41
1
10
28.9537411188482
20
-2.80546362352638
30
0
41
1
10
28.7333789282172
20
-2.70498030299629
30
0
41
1
10
28.0717590335674
20
-2.39986361160226
30
0
41
1
10
27.6300900467723
20
-2.19127817034152
30
0
41
1
10
26.9666578171319
20
-1.86994972639121
30
0
41
1
10
26.745456089023
20
-1.76127587613536
30
0
41
1
10
26.30445169661
20
-1.54268159603421
30
0
41
1
10
26.0844533663697
20
-1.43255804762128
30
0
41
1
10
25.4251298707768
20
-1.10119351666626
30
0
41
1
10
24.9865094801889
20
-0.878859326544557
30
0
41
1
10
24.3306782887095
20
-0.54204228565311
30
0
41
1
10
24.1122503514408
20
-0.429548183023059
30
0
41
1
10
23.6754153027014
20
-0.204741742501852
30
0
41
1
10
23.4570511219865
20
-0.0923539463317411
30
0
41
1
10
22.8021151342453
20
0.244715125414501
30
0
41
1
10
22.3660564790718
20
0.470019734061054
30
0
41
1
10
21.7111141902944
20
0.805512720825391
30
0
41
1
10
21.4926271038539
20
0.916874316841955
30
0
41
1
10
21.0551910481996
20
1.13839606689143
30
0
41
1
10
20.8361994806741
20
1.24844771300428
30
0
41
1
10
20.17870387429
20
1.57725920034798
30
0
41
1
10
19.7398864502946
20
1.7950735552127
30
0
41
1
10
18.8581399651756
20
2.22152770517877
30
0
41
1
10
18.414888662602
20
2.43099640141796
30
0
41
1
10
17.5322563056809
20
2.83684605844712
30
0
41
1
10
17.0912593218247
20
3.03186696841428
30
0
41
1
10
16.208563421297
20
3.40927510146602
30
0
41
1
10
15.7674946427948
20
3.59197381039994
30
0
41
1
10
15.1045753162896
20
3.85244924753019
30
0
41
1
10
14.8832939290623
20
3.93697553673851
30
0
41
1
10
14.441360007515
20
4.10056941721052
30
0
41
1
10
14.2205501206245
20
4.17964923136546
30
0
41
1
10
13.5585733611709
20
4.40996102763935
30
0
41
1
10
13.1179375401386
20
4.55481192380367
30
0
41
1
10
12.2354873831986
20
4.82305772811102
30
0
41
1
10
11.7937699935771
20
4.94647730887186
30
0
41
1
10
11.3515109445077
20
5.05803732886773
30
0
0
SPLINE
5
BB
100
AcDbEntity
8
1
62
256
6
ByLayer
370
18
48
1
60
0
100
AcDbSpline
70
4
71
3
72
16
73
12
40
0
40
0
40
0
40
0
40
0.250000000000005
40
0.250000000000005
40
0.375000000000004
40
0.375000000000004
40
0.500000000000003
40
0.500000000000003
40
0.750000000000002
40
0.750000000000002
40
1
40
1
40
1
40
1
41
1
10
58.9385659522999
20
1.47284086509757
30
0
41
1
10
58.9278764288277
20
1.50162428659334
30
0
41
1
10
58.9206062149052
20
1.53133722937241
30
0
41
1
10
58.9176251894468
20
1.57805804919761
30
0
41
1
10
58.9180345077046
20
1.59367499450667
30
0
41
1
10
58.9218653032285
20
1.62483534478079
30
0
41
1
10
58.9259249727174
20
1.64043672262002
30
0
41
1
10
58.9450402310995
20
1.68389662900327
30
0
41
1
10
58.968068807804
20
1.70876029829347
30
0
41
1
10
59.0225594121807
20
1.74248945511147
30
0
41
1
10
59.0537799474813
20
1.75253931755424
30
0
41
1
10
59.0855008201357
20
1.75819388413592
30
0
0
SPLINE
5
BC
100
AcDbEntity
8
1
62
256
6
ByLayer
370
18
48
1
60
0
100
AcDbSpline
70
4
71
3
72
71
73
67
40
0
40
0
40
0
40
0
40
0.124999999999995
40
0.124999999999995
40
0.24999999999999
40
0.24999999999999
40
0.374999999999984
40
0.374999999999984
40
0.499999999999979
40
0.499999999999979
40
0.562499999999976
40
0.562499999999976
40
0.593749999999974
40
0.593749999999974
40
0.624999999999972
40
0.624999999999972
40
0.687499999999969
40
0.687499999999969
40
0.703124999999968
40
0.703124999999968
40
0.710937499999968
40
0.710937499999968
40
0.714843749999968
40
0.714843749999968
40
0.718749999999968
40
0.718749999999968
40
0.720703124999968
40
0.720703124999968
40
0.722656249999968
40
0.722656249999968
40
0.726562499999969
40
0.726562499999969
40
0.73437499999997
40
0.73437499999997
40
0.749999999999973
40
0.749999999999973
40
0.765624999999975
40
0.765624999999975
40
0.781249999999977
40
0.781249999999977
40
0.796874999999979
40
0.796874999999979
40
0.80468749999998
40
0.80468749999998
40
0.81249999999998
40
0.820312499999981
40
0.820312499999981
40
0.828124999999982
40
0.828124999999982
40
0.843749999999984
40
0.843749999999984
40
0.859374999999985
40
0.859374999999985
40
0.874999999999987
40
0.874999999999987
40
0.890624999999988
40
0.890624999999988
40
0.90624999999999
40
0.90624999999999
40
0.937499999999993
40
0.937499999999993
40
0.953124999999995
40
0.953124999999995
40
0.968749999999996
40
0.968749999999996
40
1
40
1
40
1
40
1
41
1
10
18.9757917677744
20
-5.84163912683516
30
0
41
1
10
18.1367269469723
20
-5.71629708809976
30
0
41
1
10
17.2883434708712
20
-5.54833569021633
30
0
41
1
10
15.5647083499979
20
-5.15903491981794
30
0
41
1
10
14.6974986029722
20
-4.93955641519426
30
0
41
1
10
12.945194344158
20
-4.49179937440729
30
0
41
1
10
12.0596369102885
20
-4.26365453745268
30
0
41
1
10
10.2618550503187
20
-3.84034722042003
30
0
41
1
10
9.34963482186933
20
-3.64538512379278
30
0
41
1
10
7.95750995218478
20
-3.40481592660376
30
0
41
1
10
7.48952495165301
20
-3.33320450846884
30
0
41
1
10
6.78127496400455
20
-3.24140142669222
30
0
41
1
10
6.5441048008083
20
-3.2134016326201
30
0
41
1
10
6.06961864972948
20
-3.16319566694773
30
0
41
1
10
5.83205832391889
20
-3.14095524590857
30
0
41
1
10
5.11840319161382
20
-3.08324096676464
30
0
41
1
10
4.64117841987067
20
-3.05677356950216
30
0
41
1
10
4.04336187210308
20
-3.03997592935769
30
0
41
1
10
3.92377609655873
20
-3.03743107014785
30
0
41
1
10
3.74436327682707
20
-3.0348553454406
30
0
41
1
10
3.68454935575082
20
-3.0342036745428
30
0
41
1
10
3.59483398066328
20
-3.03353914153436
30
0
41
1
10
3.56491000703141
20
-3.03288805267948
30
0
41
1
10
3.50515933618743
20
-3.03380284777811
30
0
41
1
10
3.47478995701644
20
-3.03693771059241
30
0
41
1
10
3.43168932916123
20
-3.04753356120884
30
0
41
1
10
3.41792628335898
20
-3.05199738495568
30
0
41
1
10
3.39212355417803
20
-3.06357496060093
30
0
41
1
10
3.38024258892591
20
-3.07093191017594
30
0
41
1
10
3.34377488010506
20
-3.09170346505775
30
0
41
1
10
3.31957402831699
20
-3.1056895289293
30
0
41
1
10
3.24732058622865
20
-3.14808027131676
30
0
41
1
10
3.19971612812026
20
-3.17685937988446
30
0
41
1
10
3.0589194156131
20
-3.2647633662593
30
0
41
1
10
2.96766010923116
20
-3.32548628341269
30
0
41
1
10
2.79147542912313
20
-3.45192590269534
30
0
41
1
10
2.70627391329418
20
-3.51790230393229
30
0
41
1
10
2.54652621837874
20
-3.65357100250338
30
0
41
1
10
2.4716924568838
20
-3.72342729802872
30
0
41
1
10
2.33428691041976
20
-3.86781505778691
30
0
41
1
10
2.27169251867915
20
-3.94233990779443
30
0
41
1
10
2.1894667601519
20
-4.0583571924939
30
0
41
1
10
2.16403328648616
20
-4.09776919994584
30
0
41
1
10
2.11858674319572
20
-4.17634831876018
30
0
41
1
10
2.07824856000408
20
-4.25509532451659
30
0
41
1
10
2.04862511704934
20
-4.3341074786201
30
0
41
1
10
2.02465056035794
20
-4.41321439860698
30
0
41
1
10
2.01546174894591
20
-4.45305833473856
30
0
41
1
10
1.99714825097939
20
-4.57048259163545
30
0
41
1
10
1.99706116294408
20
-4.64597264152243
30
0
41
1
10
2.01902804762355
20
-4.79149836345181
30
0
41
1
10
2.04147023107467
20
-4.86196565683747
30
0
41
1
10
2.10390300121091
20
-4.99266985147116
30
0
41
1
10
2.14384491978441
20
-5.05360481809956
30
0
41
1
10
2.23773866584989
20
-5.16811692138111
30
0
41
1
10
2.29208709953687
20
-5.2219610068282
30
0
41
1
10
2.40998424984599
20
-5.32137380823988
30
0
41
1
10
2.47357532510586
20
-5.36713343085967
30
0
41
1
10
2.67518975846295
20
-5.49489810828192
30
0
41
1
10
2.82389706038035
20
-5.56750883533309
30
0
41
1
10
3.0614169964519
20
-5.6628444129683
30
0
41
1
10
3.14276335244441
20
-5.69219290500035
30
0
41
1
10
3.30785328451205
20
-5.74635470730698
30
0
41
1
10
3.39179106892479
20
-5.77124285446894
30
0
41
1
10
3.64707427596065
20
-5.84023803429892
30
0
41
1
10
3.82185362137841
20
-5.87872220058426
30
0
41
1
10
3.99999958590453
20
-5.91126120449664
30
0
0
SPLINE
5
BD
100
AcDbEntity
8
1
62
256
6
ByLayer
370
18
48
1
60
0
100
AcDbSpline
70
4
71
3
72
12
73
8
40
0
40
0
40
0
40
0
40
0.25000000000001
40
0.25000000000001
40
0.50000000000002
40
0.50000000000002
40
1
40
1
40
1
40
1
41
1
10
4.13149400792923
20
0.67148057848658
30
0
41
1
10
4.11155661486146
20
0.682146559582407
30
0
41
1
10
4.09350400545389
20
0.695210714745855
30
0
41
1
10
4.06106513860615
20
0.725993184130232
30
0
41
1
10
4.04688183427069
20
0.743660623260553
30
0
41
1
10
4.01250515966163
20
0.800709418556153
30
0
41
1
10
3.99999958590516
20
0.845009797381266
30
0
41
1
10
3.99999958590516
20
0.889805771903355
30
0
0
SPLINE
5
BE
100
AcDbEntity
8
1
62
256
6
ByLayer
370
18
48
1
60
0
100
AcDbSpline
70
4
71
3
72
16
73
12
40
0
40
0
40
0
40
0
40
0.196798874007664
40
0.196798874007664
40
0.34915010559812
40
0.34915010559812
40
0.501501337188575
40
0.501501337188575
40
0.806203800369487
40
0.806203800369487
40
1
40
1
40
1
40
1
41
1
10
18.9757979460471
20
5.84162953765906
30
0
41
1
10
18.7251806523365
20
5.73037734960556
30
0
41
1
10
18.474364681734
20
5.6133633091313
30
0
41
1
10
18.0282686817466
20
5.39485882164797
30
0
41
1
10
17.8328429128091
20
5.29566182038059
30
0
41
1
10
17.4421760368699
20
5.09096306823614
30
0
41
1
10
17.2482574593179
20
4.98617002371213
30
0
41
1
10
16.6698213202869
20
4.66609450759262
30
0
41
1
10
16.2886942195732
20
4.44499187982359
30
0
41
1
10
15.6667593012097
20
4.08078565240277
30
0
41
1
10
15.4253538134535
20
3.93861361788348
30
0
41
1
10
15.1831992827488
20
3.79783967398461
30
0
0
SPLINE
5
BF
100
AcDbEntity
8
1
62
256
6
ByLayer
370
18
48
1
60
0
100
AcDbSpline
70
4
71
3
72
12
73
8
40
0
40
0
40
0
40
0
40
0.439536963803384
40
0.439536963803384
40
0.879073927606768
40
0.879073927606768
40
1
40
1
40
1
40
1
41
1
10
18.9757917677744
20
5.84163912683516
30
0
41
1
10
18.1367269469724
20
5.71629708809976
30
0
41
1
10
17.2883434708714
20
5.54833569021636
30
0
41
1
10
15.5647083499983
20
5.15903491981803
30
0
41
1
10
14.6974986029727
20
4.9395564151944
30
0
41
1
10
13.5802981783066
20
4.6540840986157
30
0
41
1
10
13.3385379782068
20
4.59216737706166
30
0
41
1
10
13.0959840708185
20
4.53035999364599
30
0
0
SPLINE
5
C0
100
AcDbEntity
8
1
62
256
6
ByLayer
370
18
48
1
60
0
100
AcDbSpline
70
4
71
3
72
20
73
16
40
0
40
0
40
0
40
0
40
0.125000000000002
40
0.125000000000002
40
0.250000000000003
40
0.250000000000003
40
0.500000000000002
40
0.500000000000002
40
0.625000000000002
40
0.625000000000002
40
0.750000000000001
40
0.750000000000001
40
0.875000000000001
40
0.875000000000001
40
1
40
1
40
1
40
1
41
1
10
61.0804969400569
20
2.98153833126864
30
0
41
1
10
61.0338376162365
20
3.10706244376399
30
0
41
1
10
60.9871233932469
20
3.23248227638905
30
0
41
1
10
60.8935564378179
20
3.48305884571738
30
0
41
1
10
60.846704040354
20
3.60815243147647
30
0
41
1
10
60.7060739974179
20
3.9831854627609
30
0
41
1
10
60.6122243226706
20
4.23303756514392
30
0
41
1
10
60.4711546742772
20
4.6062516986874
30
0
41
1
10
60.4240658485711
20
4.73030970871505
30
0
41
1
10
60.3298275535137
20
4.97810526911636
30
0
41
1
10
60.2826909710302
20
5.10190489700784
30
0
41
1
10
60.1883964849818
20
5.34869029963807
30
0
41
1
10
60.1412348321977
20
5.47171241776661
30
0
41
1
10
60.0468481634339
20
5.71612711022905
30
0
41
1
10
59.9996359031533
20
5.83784772942192
30
0
41
1
10
59.9524063927106
20
5.95912471734357
30
0
0
SPLINE
5
C1
100
AcDbEntity
8
1
62
256
6
ByLayer
370
18
48
1
60
0
100
AcDbSpline
70
4
71
3
72
12
73
8
40
0
40
0
40
0
40
0
40
0.845340868560489
40
0.845340868560489
40
0.974223506134023
40
0.974223506134023
40
1
40
1
40
1
40
1
41
1
10
58.6935969260617
20
-5.83036334549092
30
0
41
1
10
56.7908457326425
20
-5.82891600259691
30
0
41
1
10
54.9085733077906
20
-5.57732609582635
30
0
41
1
10
52.7055661002017
20
-5.02412917093659
30
0
41
1
10
52.4129067643227
20
-4.94547673608747
30
0
41
1
10
52.062885032425
20
-4.84557317669663
30
0
41
1
10
52.0045788180327
20
-4.82873772414882
30
0
41
1
10
51.9463019889141
20
-4.81171929321371
30
0
0
SPLINE
5
C2
100
AcDbEntity
8
1
62
256
6
ByLayer
370
13
48
1
60
0
100
AcDbSpline
70
4
71
3
72
24
73
20
40
0
40
0
40
0
40
0
40
0.0453849363123002
40
0.0453849363123002
40
0.158847240065382
40
0.158847240065382
40
0.385771847571544
40
0.385771847571544
40
0.499234151324625
40
0.499234151324625
40
0.555965303201166
40
0.555965303201166
40
0.612696455077708
40
0.612696455077708
40
0.839621062583879
40
0.839621062583879
40
0.953083366336964
40
0.953083366336964
40
1
40
1
40
1
40
1
41
1
10
51.9463019889091
20
-4.81171929321224
30
0
41
1
10
51.7131942920623
20
-4.74364545839265
30
0
41
1
10
51.4805567611283
20
-4.67264395982176
30
0
41
1
10
50.6676817212051
20
-4.41431733935369
30
0
41
1
10
50.0894888746163
20
-4.21223934907044
30
0
41
1
10
48.3579491594401
20
-3.55993748271814
30
0
41
1
10
47.2073923061629
20
-3.06390939384059
30
0
41
1
10
45.4706879412015
20
-2.25481517904791
30
0
41
1
10
44.8899062651994
20
-1.97436355125163
30
0
41
1
10
44.0138662955295
20
-1.54088642484274
30
0
41
1
10
43.7214353938198
20
-1.39450061527523
30
0
41
1
10
43.1390452816198
20
-1.10052372773137
30
0
41
1
10
42.8485630049992
20
-0.952676570446613
30
0
41
1
10
41.3988894220211
20
-0.2107898144437
30
0
41
1
10
40.247672078827
20
0.390705736253352
30
0
41
1
10
38.5167610936446
20
1.27163343204623
30
0
41
1
10
37.9390988769486
20
1.56170904389921
30
0
41
1
10
37.1196342193069
20
1.96281738127269
30
0
41
1
10
36.8795538039463
20
2.07907225296671
30
0
41
1
10
36.6390033540964
20
2.19402564696568
30
0
0
SPLINE
5
C3
100
AcDbEntity
8
1
62
256
6
ByLayer
370
13
48
1
60
0
100
AcDbSpline
70
4
71
3
72
10
73
6
40
0
40
0
40
0
40
0
40
0.07491927083476
40
0.07491927083476
40
1
40
1
40
1
40
1
41
1
10
4.25056971544223
20
-5.79781692327043
30
0
41
1
10
4.25057267080282
20
-5.7975040696702
30
0
41
1
10
4.25057562857052
20
-5.79691206918332
30
0
41
1
10
4.25061511766754
20
-5.78530222772542
30
0
41
1
10
4.25065186961095
20
-5.73251768748989
30
0
41
1
10
4.25068475862386
20
-5.63605699719344
30
0
0
SPLINE
5
C4
100
AcDbEntity
8
1
62
256
6
ByLayer
370
18
48
1
60
0
100
AcDbSpline
70
4
71
3
72
8
73
4
40
0
40
0
40
0
40
0
40
1
40
1
40
1
40
1
41
1
10
59.8661623753746
20
-6.05394434399921
30
0
41
1
10
59.8875071407153
20
-5.99646632685739
30
0
41
1
10
59.9088324138243
20
-5.93895510618674
30
0
41
1
10
59.9301381810563
20
-5.88141065874359
30
0
0
SPLINE
5
C5
100
AcDbEntity
8
1
62
256
6
ByLayer
370
18
48
1
60
0
100
AcDbSpline
70
4
71
3
72
12
73
8
40
0
40
0
40
0
40
0
40
0.250000000000009
40
0.250000000000009
40
0.500000000000017
40
0.500000000000017
40
1
40
1
40
1
40
1
41
1
10
59.9301381810563
20
-5.88141065874359
30
0
41
1
10
59.9349838962321
20
-5.86832293469124
30
0
41
1
10
59.939619034558
20
-5.85502547286089
30
0
41
1
10
59.9473018006104
20
-5.83104856731094
30
0
41
1
10
59.9503301360047
20
-5.82040906770956
30
0
41
1
10
59.9558895759928
20
-5.79642959114852
30
0
41
1
10
59.9548633685926
20
-5.79179259740934
30
0
41
1
10
59.9511855978904
20
-5.79486570353723
30
0
0
SPLINE
5
C6
100
AcDbEntity
8
1
62
256
6
ByLayer
370
18
48
1
60
0
100
AcDbSpline
70
4
71
3
72
10
73
6
40
0
40
0
40
0
40
0
40
0.743757202462595
40
0.743757202462595
40
1
40
1
40
1
40
1
41
1
10
11.3515109445076
20
-5.05803732886775
30
0
41
1
10
11.7934563570538
20
-4.94655642380891
30
0
41
1
10
12.2347717724838
20
-4.82325583953204
30
0
41
1
10
12.8273623977343
20
-4.64314715128731
30
0
41
1
10
12.9791302221046
20
-4.59572750256206
30
0
41
1
10
13.1308706656201
20
-4.54712337306111
30
0
0
SPLINE
5
C7
100
AcDbEntity
8
1
62
256
6
ByLayer
370
18
48
1
60
0
100
AcDbSpline
70
4
71
3
72
34
73
30
40
0
40
0
40
0
40
0
40
0.0071156404200349
40
0.0071156404200349
40
0.117436124817809
40
0.117436124817809
40
0.227756609215583
40
0.227756609215583
40
0.282916851414472
40
0.282916851414472
40
0.33807709361336
40
0.33807709361336
40
0.448397578011134
40
0.448397578011134
40
0.503557820210021
40
0.503557820210021
40
0.558718062408909
40
0.558718062408909
40
0.613878304607796
40
0.613878304607796
40
0.669038546806683
40
0.669038546806683
40
0.779359031204454
40
0.779359031204454
40
0.889679515602226
40
0.889679515602226
40
0.944839757801113
40
0.944839757801113
40
1
40
1
40
1
40
1
41
1
10
41.586425402069
20
5.8119073883152
30
0
41
1
10
41.6148414990586
20
5.81119156458547
30
0
41
1
10
41.6432543565761
20
5.81040945390296
30
0
41
1
10
42.1121253687858
20
5.79635503315438
30
0
41
1
10
42.551995655267
20
5.7676097297788
30
0
41
1
10
43.433219863532
20
5.68527834062641
30
0
41
1
10
43.8740690940206
20
5.63128518794224
30
0
41
1
10
44.5360576664948
20
5.53258241859871
30
0
41
1
10
44.7569516499559
20
5.4969919222813
30
0
41
1
10
45.1982009602565
20
5.4191873834877
30
0
41
1
10
45.4186438486276
20
5.37666983952789
30
0
41
1
10
46.0795079003566
20
5.23934264542092
30
0
41
1
10
46.5192105286982
20
5.1348559495427
30
0
41
1
10
47.1797007962494
20
4.96164177959969
30
0
41
1
10
47.4000084081094
20
4.90118839018962
30
0
41
1
10
47.8407731545931
20
4.77531006742072
30
0
41
1
10
48.0612215683585
20
4.70989925584618
30
0
41
1
10
48.5023911222468
20
4.57307648821239
30
0
41
1
10
48.7231599516144
20
4.50144654389976
30
0
41
1
10
49.1641112460882
20
4.3530550640132
30
0
41
1
10
49.3845298747498
20
4.27640726298014
30
0
41
1
10
50.0454676953875
20
4.03951799787049
30
0
41
1
10
50.4855884217835
20
3.87210697635865
30
0
41
1
10
51.3655446108495
20
3.52062334433106
30
0
41
1
10
51.8060276993479
20
3.33781440769181
30
0
41
1
10
52.4678409662652
20
3.0504344475016
30
0
41
1
10
52.6888088988749
20
2.95246078950319
30
0
41
1
10
53.1294110237302
20
2.75354835617722
30
0
41
1
10
53.3492288102765
20
2.6525557851669
30
0
41
1
10
53.5688479673293
20
2.55053287886105
30
0
0
SPLINE
5
C8
100
AcDbEntity
8
1
62
256
6
ByLayer
370
13
48
1
60
0
100
AcDbSpline
70
4
71
3
72
34
73
30
40
0
40
0
40
0
40
0
40
0.152297348998627
40
0.152297348998627
40
0.22844602349794
40
0.22844602349794
40
0.304594697997253
40
0.304594697997253
40
0.380743372496567
40
0.380743372496567
40
0.418817709746224
40
0.418817709746224
40
0.45689204699588
40
0.45689204699588
40
0.609189395994508
40
0.609189395994508
40
0.685338070493822
40
0.685338070493822
40
0.761486744993136
40
0.761486744993136
40
0.837635419492449
40
0.837635419492449
40
0.913784093991763
40
0.913784093991763
40
0.95185843124142
40
0.95185843124142
40
0.989932768491076
40
0.989932768491076
40
1
40
1
40
1
40
1
41
1
10
4.25023661572729
20
0.691347287869803
30
0
41
1
10
4.25026200316179
20
1.09941808436338
30
0
41
1
10
4.25027743765884
20
1.49755615968314
30
0
41
1
10
4.25029225081997
20
2.07991372099531
30
0
41
1
10
4.25029574305151
20
2.26963942644551
30
0
41
1
10
4.25030099264413
20
2.63771771080803
30
0
41
1
10
4.25030276000209
20
2.8165449766185
30
0
41
1
10
4.25030567625308
20
3.16384394790435
30
0
41
1
10
4.25030682328892
20
3.33231623385436
30
0
41
1
10
4.25030884360419
20
3.57704878555776
30
0
41
1
10
4.25030956931144
20
3.65751616058785
30
0
41
1
10
4.25031122654906
20
3.81413466927663
30
0
41
1
10
4.2503121584619
20
3.89038966931997
30
0
41
1
10
4.25031759580682
20
4.26158946317383
30
0
41
1
10
4.25032451433347
20
4.52663927456226
30
0
41
1
10
4.25034266074147
20
4.87603303380575
30
0
41
1
10
4.25035002848136
20
4.9846838442005
30
0
41
1
10
4.25036748078884
20
5.18178142718781
30
0
41
1
10
4.25037757661079
20
5.27067911941677
30
0
41
1
10
4.25040062760007
20
5.4290322071783
30
0
41
1
10
4.25041348400282
20
5.49775263034155
30
0
41
1
10
4.25044153082493
20
5.61418721451852
30
0
41
1
10
4.25045673877406
20
5.66202029824018
30
0
41
1
10
4.25048105191317
20
5.71815529543204
30
0
41
1
10
4.25048940532744
20
5.73425918329713
30
0
41
1
10
4.25050654898882
20
5.76117892905415
30
0
41
1
10
4.25051536246801
20
5.77200700450777
30
0
41
1
10
4.25052662485877
20
5.78220090748852
30
0
41
1
10
4.25052898741444
20
5.78414201807894
30
0
41
1
10
4.25053135645212
20
5.78589325069416
30
0
0
SPLINE
5
C9
100
AcDbEntity
8
1
62
256
6
ByLayer
370
18
48
1
60
0
100
AcDbSpline
70
4
71
3
72
8
73
4
40
0
40
0
40
0
40
0
40
1
40
1
40
1
40
1
41
1
10
59.9511855978905
20
-5.7948657035372
30
0
41
1
10
59.9224444406135
20
-5.81888150922509
30
0
41
1
10
59.8979334553069
20
-5.83096167474693
30
0
41
1
10
59.8777168721431
20
-5.83092497147624
30
0
0
SPLINE
5
CA
100
AcDbEntity
8
1
62
256
6
ByLayer
370
18
48
1
60
0
100
AcDbSpline
70
4
71
3
72
62
73
58
40
0
40
0
40
0
40
0
40
0.0473384203134571
40
0.0473384203134571
40
0.0946768406269141
40
0.0946768406269141
40
0.142015260940371
40
0.142015260940371
40
0.1656844710971
40
0.1656844710971
40
0.189353681253829
40
0.189353681253829
40
0.236692101567287
40
0.236692101567287
40
0.284030521880745
40
0.284030521880745
40
0.331368942194203
40
0.331368942194203
40
0.355038152350932
40
0.355038152350932
40
0.378707362507662
40
0.378707362507662
40
0.473384203134582
40
0.473384203134582
40
0.497053413291311
40
0.497053413291311
40
0.520722623448041
40
0.520722623448041
40
0.5680610437615
40
0.5680610437615
40
0.591730253918229
40
0.591730253918229
40
0.615399464074958
40
0.615399464074958
40
0.662737884388417
40
0.662737884388417
40
0.686407094545146
40
0.686407094545146
40
0.710076304701875
40
0.710076304701875
40
0.757414725015333
40
0.757414725015333
40
0.781083935172063
40
0.781083935172063
40
0.804753145328792
40
0.804753145328792
40
0.852091565642249
40
0.852091565642249
40
0.899429985955707
40
0.899429985955707
40
0.923099196112435
40
0.923099196112435
40
0.946768406269164
40
0.946768406269164
40
0.994106826582621
40
0.994106826582621
40
1
40
1
40
1
40
1
41
1
10
59.8661623753747
20
-6.05394434399921
30
0
41
1
10
59.2849212088294
20
-6.09221640049054
30
0
41
1
10
58.7041418506144
20
-6.10619321727205
30
0
41
1
10
57.5405728541236
20
-6.08539454354712
30
0
41
1
10
56.9601866647784
20
-6.05064833430683
30
0
41
1
10
55.8003780102217
20
-5.93360674530024
30
0
41
1
10
55.2207674739186
20
-5.8512935062173
30
0
41
1
10
54.3493208262518
20
-5.69315660948121
30
0
41
1
10
54.0582207556438
20
-5.63459718160888
30
0
41
1
10
53.4769651465253
20
-5.50653089330729
30
0
41
1
10
53.1867097812203
20
-5.43701818575309
30
0
41
1
10
52.3164758359545
20
-5.21260164636121
30
0
41
1
10
51.7370051857082
20
-5.04183135187668
30
0
41
1
10
50.5761575410321
20
-4.66127775570033
30
0
41
1
10
49.9937395565011
20
-4.45099347282527
30
0
41
1
10
48.8323513297086
20
-3.9978086813359
30
0
41
1
10
48.2527294979325
20
-3.7548611125637
30
0
41
1
10
47.3825313790845
20
-3.36941494411153
30
0
41
1
10
47.0923598056601
20
-3.23739563877589
30
0
41
1
10
46.5113841324317
20
-2.96690892261063
30
0
41
1
10
46.2202828915786
20
-2.82829840395786
30
0
41
1
10
44.7666061426833
20
-2.12274969948564
30
0
41
1
10
43.609733985191
20
-1.51839791873735
30
0
41
1
10
42.1555148503165
20
-0.740945314587208
30
0
41
1
10
41.8645553998225
20
-0.584459327261328
30
0
41
1
10
41.2836682454892
20
-0.271317853924245
30
0
41
1
10
40.9934968774748
20
-0.114510475921946
30
0
41
1
10
40.1233041692243
20
0.3557012354959
30
0
41
1
10
39.5435386109203
20
0.668772422653745
30
0
41
1
10
38.6720413832691
20
1.13332876001726
30
0
41
1
10
38.3809531716721
20
1.28748802810736
30
0
41
1
10
37.7992812211085
20
1.59266063650259
30
0
41
1
10
37.5088400757062
20
1.74360069255846
30
0
41
1
10
36.6381172239688
20
2.19047064530048
30
0
41
1
10
36.0584117054825
20
2.48040558730031
30
0
41
1
10
35.1876831058138
20
2.89933064073665
30
0
41
1
10
34.8972305105294
20
3.03628543452172
30
0
41
1
10
34.3155229444777
20
3.30417131337006
30
0
41
1
10
34.024384216113
20
3.43503976409582
30
0
41
1
10
33.1527102601065
20
3.81616038913452
30
0
41
1
10
32.5728861506787
20
4.05561954740844
30
0
41
1
10
31.702526130568
20
4.38932398767034
30
0
41
1
10
31.4123064593137
20
4.49632024745929
30
0
41
1
10
30.8312809605051
20
4.70131578120035
30
0
41
1
10
30.5402314221291
20
4.79939182750073
30
0
41
1
10
29.6673891917787
20
5.07879877146095
30
0
41
1
10
29.0871823932712
20
5.24503574210897
30
0
41
1
10
27.926798488091
20
5.53447381087744
30
0
41
1
10
27.3465911912318
20
5.65766313422628
30
0
41
1
10
26.474001969417
20
5.80830576784965
30
0
41
1
10
26.1827604516288
20
5.85282428307232
30
0
41
1
10
25.6015451821966
20
5.92992662498474
30
0
41
1
10
25.3112655043933
20
5.96255747484085
30
0
41
1
10
24.4406730169729
20
6.04249429223054
30
0
41
1
10
23.860745153735
20
6.07189127392863
30
0
41
1
10
23.2073559211714
20
6.07769866297929
30
0
41
1
10
23.1349938173412
20
6.07796397657918
30
0
41
1
10
23.0626122542749
20
6.07785239274537
30
0
0
SPLINE
5
CB
100
AcDbEntity
8
1
62
256
6
ByLayer
370
18
48
1
60
0
100
AcDbSpline
70
4
71
3
72
14
73
10
40
0
40
0
40
0
40
0
40
0.408161986121845
40
0.408161986121845
40
0.612242979182772
40
0.612242979182772
40
0.8163239722437
40
0.8163239722437
40
1
40
1
40
1
40
1
41
1
10
18.9757979452796
20
-5.84162953731837
30
0
41
1
10
19.4062551130826
20
-5.90603084266562
30
0
41
1
10
19.8358070567303
20
-5.95671967842978
30
0
41
1
10
20.4778688079141
20
-6.01348703602704
30
0
41
1
10
20.6915242821085
20
-6.02917619805223
30
0
41
1
10
21.1179143096015
20
-6.05410687331027
30
0
41
1
10
21.3306436479475
20
-6.0633243514277
30
0
41
1
10
21.7350670908184
20
-6.07456065839352
30
0
41
1
10
21.9266353727767
20
-6.07724949480917
30
0
41
1
10
22.1181455784922
20
-6.07731436848212
30
0
0
SPLINE
5
CC
100
AcDbEntity
8
1
62
256
6
ByLayer
370
18
48
1
60
0
100
AcDbSpline
70
4
71
3
72
30
73
26
40
0
40
0
40
0
40
0
40
0.0681965335076848
40
0.0681965335076848
40
0.126434250163455
40
0.126434250163455
40
0.184671966819225
40
0.184671966819225
40
0.242909683474996
40
0.242909683474996
40
0.301147400130766
40
0.301147400130766
40
0.417622833442303
40
0.417622833442303
40
0.534098266753841
40
0.534098266753841
40
0.650573700065378
40
0.650573700065378
40
0.708811416721149
40
0.708811416721149
40
0.767049133376919
40
0.767049133376919
40
0.883524566688459
40
0.883524566688459
40
1
40
1
40
1
40
1
41
1
10
48.9520236506807
20
4.41425045958371
30
0
41
1
10
49.2014381489933
20
4.50705903411628
30
0
41
1
10
49.4510562027783
20
4.59683546353392
30
0
41
1
10
49.9140267688606
20
4.75782326867125
30
0
41
1
10
50.1274980980404
20
4.82962917041104
30
0
41
1
10
50.5557420229776
20
4.96751200663917
30
0
41
1
10
50.7703651644062
20
5.03377542674951
30
0
41
1
10
51.2004763112344
20
5.16107897953634
30
0
41
1
10
51.4161991174969
20
5.2221708300859
30
0
41
1
10
51.8459225056176
20
5.33851327028594
30
0
41
1
10
52.0600592484951
20
5.3939432967027
30
0
41
1
10
52.7017969100653
20
5.5506505995086
30
0
41
1
10
53.1290470102008
20
5.64222640768162
30
0
41
1
10
53.9809991684357
20
5.80139655486667
30
0
41
1
10
54.4051532430348
20
5.86912205193642
30
0
41
1
10
55.2547736046097
20
5.97826549978791
30
0
41
1
10
55.6798028944217
20
6.02009093753432
30
0
41
1
10
56.3168430425669
20
6.06386651442909
30
0
41
1
10
56.5289996942148
20
6.07528559568269
30
0
41
1
10
56.9540834463001
20
6.09152235503367
30
0
41
1
10
57.1670285857529
20
6.09636319018952
30
0
41
1
10
57.8066339663111
20
6.10115247588351
30
0
41
1
10
58.2340237896771
20
6.09139305215996
30
0
41
1
10
59.0905330155537
20
6.04499001822765
30
0
41
1
10
59.5218519980581
20
6.00851926028798
30
0
41
1
10
59.9524063927001
20
5.95912471734496
30
0
0
SPLINE
5
CD
100
AcDbEntity
8
1
62
256
6
ByLayer
370
18
48
1
60
0
100
AcDbSpline
70
4
71
3
72
18
73
14
40
0
40
0
40
0
40
0
40
0.124999999999999
40
0.124999999999999
40
0.249999999999998
40
0.249999999999998
40
0.374999999999997
40
0.374999999999997
40
0.499999999999996
40
0.499999999999996
40
0.749999999999998
40
0.749999999999998
40
1
40
1
40
1
40
1
41
1
10
4.25068475862378
20
-5.63605699719128
30
0
41
1
10
4.23627668564899
20
-5.63316944043237
30
0
41
1
10
4.22141605461138
20
-5.63163023156568
30
0
41
1
10
4.19047527617522
20
-5.63213488546398
30
0
41
1
10
4.17425958139825
20
-5.63424532221637
30
0
41
1
10
4.14194288526718
20
-5.64327325253873
30
0
41
1
10
4.12541239060818
20
-5.65039913553682
30
0
41
1
10
4.09477066970319
20
-5.66951635937659
30
0
41
1
10
4.0801462203722
20
-5.68185840738727
30
0
41
1
10
4.04248357451579
20
-5.72349531943078
30
0
41
1
10
4.02519565113323
20
-5.75735555816033
30
0
41
1
10
4.00424670120245
20
-5.82401533688653
30
0
41
1
10
3.99999958590467
20
-5.85722943095658
30
0
41
1
10
3.99999958590519
20
-5.8895676662537
30
0
0
SPLINE
5
CE
100
AcDbEntity
8
1
62
256
6
ByLayer
370
13
48
1
60
0
100
AcDbSpline
70
4
71
3
72
8
73
4
40
0
40
0
40
0
40
0
40
1
40
1
40
1
40
1
41
1
10
4.25023661572726
20
0.691347287869831
30
0
41
1
10
4.20969489089248
20
0.703765032377163
30
0
41
1
10
4.17012069550339
20
0.716951706893752
30
0
41
1
10
4.13384508747401
20
0.730330019129354
30
0
0
SPLINE
5
CF
100
AcDbEntity
8
1
62
256
6
ByLayer
370
18
48
1
60
0
100
AcDbSpline
70
4
71
3
72
8
73
4
40
0
40
0
40
0
40
0
40
1
40
1
40
1
40
1
41
1
10
3.99999958590521
20
-5.88956766624526
30
0
41
1
10
3.99999958590521
20
-5.89679067667717
30
0
41
1
10
3.99999958590521
20
-5.90402185434152
30
0
41
1
10
3.99999958590521
20
-5.91126120449675
30
0
0
SPLINE
5
D0
100
AcDbEntity
8
1
62
256
6
ByLayer
370
18
48
1
60
0
100
AcDbSpline
70
4
71
3
72
18
73
14
40
0
40
0
40
0
40
0
40
0.182457264647048
40
0.182457264647048
40
0.273731435486753
40
0.273731435486753
40
0.365005606326457
40
0.365005606326457
40
0.547553948005863
40
0.547553948005863
40
0.91265063136467
40
0.91265063136467
40
1
40
1
40
1
40
1
41
1
10
40.795903108957
20
-0.007503502024008
30
0
41
1
10
41.37283153165
20
-0.310567573411134
30
0
41
1
10
41.9505219380178
20
-0.614050324560338
30
0
41
1
10
42.8205274504361
20
-1.06573471073628
30
0
41
1
10
43.1111916970067
20
-1.21572024520069
30
0
41
1
10
43.6939900957895
20
-1.51378022527928
30
0
41
1
10
43.9866849088953
20
-1.66213307966882
30
0
41
1
10
44.8631760775263
20
-2.10097504957986
30
0
41
1
10
45.4441818400043
20
-2.38442231775795
30
0
41
1
10
47.1815060917339
20
-3.20084159698803
30
0
41
1
10
48.3323066313255
20
-3.6995732696667
30
0
41
1
10
49.763423737986
20
-4.23908519011789
30
0
41
1
10
50.03995764497
20
-4.33960582488271
30
0
41
1
10
50.3168920170203
20
-4.43624572948406
30
0
0
SPLINE
5
D1
100
AcDbEntity
8
1
62
256
6
ByLayer
370
13
48
1
60
0
100
AcDbSpline
70
4
71
3
72
20
73
16
40
0
40
0
40
0
40
0
40
0.0944489837526405
40
0.0944489837526405
40
0.185004085377374
40
0.185004085377374
40
0.275559187002107
40
0.275559187002107
40
0.637779593501052
40
0.637779593501052
40
0.818889796750525
40
0.818889796750525
40
0.909444898375263
40
0.909444898375263
40
1
40
1
40
1
40
1
41
1
10
50.3168920170099
20
-4.43624572948042
30
0
41
1
10
50.6187129486546
20
-4.54157012754962
30
0
41
1
10
50.9210095545292
20
-4.64228497665277
30
0
41
1
10
51.5144733984643
20
-4.82991714283887
30
0
41
1
10
51.8055838478222
20
-4.91723720675373
30
0
41
1
10
52.3894029678434
20
-5.08234511678765
30
0
41
1
10
52.6822487934384
20
-5.16013311767642
30
0
41
1
10
54.1401337753196
20
-5.5209957014533
30
0
41
1
10
55.2951840981413
20
-5.7226536284704
30
0
41
1
10
57.0284649102237
20
-5.88713315456747
30
0
41
1
10
57.6063747623802
20
-5.91900020089858
30
0
41
1
10
58.4755165841596
20
-5.9315777285955
30
0
41
1
10
58.7656136205719
20
-5.92989207694191
30
0
41
1
10
59.3469380822013
20
-5.91461768306752
30
0
41
1
10
59.6382068148339
20
-5.90071132203067
30
0
41
1
10
59.9301381810562
20
-5.88141065874362
30
0
0
SPLINE
5
D2
100
AcDbEntity
8
1
62
256
6
ByLayer
370
18
48
1
60
0
100
AcDbSpline
70
4
71
3
72
24
73
20
40
0
40
0
40
0
40
0
40
0.24999999999999
40
0.24999999999999
40
0.499999999999979
40
0.499999999999979
40
0.624999999999974
40
0.624999999999974
40
0.687499999999978
40
0.687499999999978
40
0.749999999999982
40
0.749999999999982
40
0.812499999999987
40
0.812499999999987
40
0.874999999999991
40
0.874999999999991
40
0.937499999999996
40
0.937499999999996
40
1
40
1
40
1
40
1
41
1
10
59.0855008201357
20
1.75819388413592
30
0
41
1
10
59.2943946059131
20
1.7954313155598
30
0
41
1
10
59.5023688619342
20
1.83795026316088
30
0
41
1
10
59.9151122153822
20
1.94205253950298
30
0
41
1
10
60.1203414015635
20
2.00322073533272
30
0
41
1
10
60.4166916169605
20
2.12334259638902
30
0
41
1
10
60.5132709788736
20
2.16813889876474
30
0
41
1
10
60.6512108048831
20
2.24644926048501
30
0
41
1
10
60.6960771458523
20
2.27445304599854
30
0
41
1
10
60.7827708848643
20
2.33569137014706
30
0
41
1
10
60.8248889931794
20
2.36918763750427
30
0
41
1
10
60.9028405264384
20
2.44206405869153
30
0
41
1
10
60.9387665417344
20
2.48141407260715
30
0
41
1
10
61.002060755881
20
2.56835466777909
30
0
41
1
10
61.0284803037609
20
2.614842613652
30
0
41
1
10
61.067929624139
20
2.71364669395493
30
0
41
1
10
61.0810166203587
20
2.76711351985972
30
0
41
1
10
61.0913874313506
20
2.87383299592685
30
0
41
1
10
61.0890517320526
20
2.92813085668624
30
0
41
1
10
61.0804969400566
20
2.98153833126858
30
0
0
SPLINE
5
D3
100
AcDbEntity
8
1
62
256
6
ByLayer
370
18
48
1
60
0
100
AcDbSpline
70
4
71
3
72
8
73
4
40
0
40
0
40
0
40
0
40
1
40
1
40
1
40
1
41
1
10
59.8661623753746
20
6.05394434399921
30
0
41
1
10
59.4039023199006
20
6.08438204176576
30
0
41
1
10
58.9415107440304
20
6.09945499796825
30
0
41
1
10
58.4789883664914
20
6.09911292269041
30
0
0
SPLINE
5
D4
100
AcDbEntity
8
1
62
256
6
ByLayer
370
18
48
1
60
0
100
AcDbSpline
70
4
71
3
72
34
73
30
40
0
40
0
40
0
40
0
40
0.0595196861427445
40
0.0595196861427445
40
0.13789304563085
40
0.13789304563085
40
0.177079725374902
40
0.177079725374902
40
0.216266405118955
40
0.216266405118955
40
0.294639764607058
40
0.294639764607058
40
0.373013124095162
40
0.373013124095162
40
0.451386483583266
40
0.451386483583266
40
0.490573163327318
40
0.490573163327318
40
0.52975984307137
40
0.52975984307137
40
0.68650656204758
40
0.68650656204758
40
0.725693241791633
40
0.725693241791633
40
0.764879921535685
40
0.764879921535685
40
0.84325328102379
40
0.84325328102379
40
1
40
1
40
1
40
1
41
1
10
26.342298460828
20
-5.8269859219881
30
0
41
1
10
25.9006330807577
20
-5.894736413987
30
0
41
1
10
25.4596518581434
20
-5.94897752544395
30
0
41
1
10
24.4385746535126
20
-6.04262782551652
30
0
41
1
10
23.8584940493624
20
-6.07198378846235
30
0
41
1
10
22.9863724517334
20
-6.0796262881465
30
0
41
1
10
22.6950389636571
20
-6.07609653207419
30
0
41
1
10
22.1133221752678
20
-6.05690781506351
30
0
41
1
10
21.8228444716785
20
-6.04126067476508
30
0
41
1
10
20.9518895416823
20
-5.97637958599913
30
0
41
1
10
20.3719633891207
20
-5.90917850838593
30
0
41
1
10
19.2102057021429
20
-5.72819436934526
30
0
41
1
10
18.6273227297562
20
-5.61410698383887
30
0
41
1
10
17.4649723302474
20
-5.34271373041412
30
0
41
1
10
16.8849648583599
20
-5.18535422228021
30
0
41
1
10
16.0141472837422
20
-4.91931175197033
30
0
41
1
10
15.7237530967171
20
-4.82562072387947
30
0
41
1
10
15.1423280943515
20
-4.62861791173944
30
0
41
1
10
14.8510016682859
20
-4.52519465262128
30
0
41
1
10
13.3961361208488
20
-3.98670151166948
30
0
41
1
10
12.2385731100153
20
-3.48708071112864
30
0
41
1
10
10.7830133043299
20
-2.80091804716861
30
0
41
1
10
10.4918716704996
20
-2.66070313151522
30
0
41
1
10
9.91157184813531
20
-2.37605262109545
30
0
41
1
10
9.62205121450506
20
-2.23148556590368
30
0
41
1
10
8.75467571072537
20
-1.79234435989798
30
0
41
1
10
8.1779968049739
20
-1.49235018121277
30
0
41
1
10
6.44818685437266
20
-0.579003099646542
30
0
41
1
10
5.29576153454866
20
0.0486280627538349
30
0
41
1
10
4.13149400792923
20
0.67148057848658
30
0
0
SPLINE
5
D5
100
AcDbEntity
8
1
62
256
6
ByLayer
370
18
48
1
60
0
100
AcDbSpline
70
2053
71
3
72
60
73
56
40
0
40
0
40
0
40
0
40
0.031249999999999
40
0.031249999999999
40
0.062499999999998
40
0.062499999999998
40
0.093749999999997
40
0.093749999999997
40
0.124999999999996
40
0.124999999999996
40
0.156249999999995
40
0.156249999999995
40
0.187499999999994
40
0.187499999999994
40
0.249999999999992
40
0.249999999999992
40
0.281249999999991
40
0.281249999999991
40
0.31249999999999
40
0.31249999999999
40
0.374999999999988
40
0.374999999999988
40
0.437499999999986
40
0.437499999999986
40
0.468749999999987
40
0.468749999999987
40
0.499999999999987
40
0.499999999999987
40
0.531249999999988
40
0.531249999999988
40
0.562499999999988
40
0.562499999999988
40
0.593749999999989
40
0.593749999999989
40
0.624999999999989
40
0.624999999999989
40
0.65624999999999
40
0.65624999999999
40
0.68749999999999
40
0.68749999999999
40
0.749999999999991
40
0.749999999999991
40
0.781249999999992
40
0.781249999999992
40
0.812499999999993
40
0.812499999999993
40
0.843749999999995
40
0.843749999999995
40
0.874999999999996
40
0.874999999999996
40
0.906249999999997
40
0.906249999999997
40
0.937499999999998
40
0.937499999999998
40
1
40
1
40
1
40
1
41
1
10
60.2943064061959
20
-3.48916708794485
30
0
41
1
10
60.3231990616229
20
-3.44792342927551
30
0
41
1
10
60.3514942226847
20
-3.40372350226906
30
0
41
1
10
60.4067853177939
20
-3.30889529918269
30
0
41
1
10
60.4340824227085
20
-3.2576382465692
30
0
41
1
10
60.4854307628438
20
-3.15075506066742
30
0
41
1
10
60.5094206566628
20
-3.09540826317672
30
0
41
1
10
60.5535059645339
20
-2.98030934541146
30
0
41
1
10
60.5730517090576
20
-2.92181239730559
30
0
41
1
10
60.6055104523269
20
-2.80684969695673
30
0
41
1
10
60.6187612327183
20
-2.74888302025437
30
0
41
1
10
60.6371089697811
20
-2.64060698847894
30
0
41
1
10
60.6424669040511
20
-2.58926953601096
30
0
41
1
10
60.6469863886948
20
-2.44869671296144
30
0
41
1
10
60.6345573497722
20
-2.37487720563019
30
0
41
1
10
60.5998266273725
20
-2.29655516396011
30
0
41
1
10
60.5854565335474
20
-2.27553626091665
30
0
41
1
10
60.5528636332356
20
-2.24383822435604
30
0
41
1
10
60.5345366292843
20
-2.23289825418249
30
0
41
1
10
60.4740171634415
20
-2.21365836650745
30
0
41
1
10
60.4280173722036
20
-2.21907913545124
30
0
41
1
10
60.3267670018572
20
-2.26208518020476
30
0
41
1
10
60.2733374759281
20
-2.2988609307879
30
0
41
1
10
60.1889167268517
20
-2.37731459868741
30
0
41
1
10
60.1602311340974
20
-2.40732596497134
30
0
41
1
10
60.1032416185439
20
-2.4737543026782
30
0
41
1
10
60.0747264362004
20
-2.51035369021869
30
0
41
1
10
60.017650836873
20
-2.591049767459
30
0
41
1
10
59.9887708950269
20
-2.63570724330447
30
0
41
1
10
59.9330160510358
20
-2.73067692616388
30
0
41
1
10
59.9060760328506
20
-2.78096455322901
30
0
41
1
10
59.8543731506943
20
-2.88804937825094
30
0
41
1
10
59.8298924649414
20
-2.94441296149006
30
0
41
1
10
59.7860107013839
20
-3.05881920274808
30
0
41
1
10
59.7661080689474
20
-3.11833258374037
30
0
41
1
10
59.7335532105707
20
-3.23393020910635
30
0
41
1
10
59.7205477009974
20
-3.29096235018346
30
0
41
1
10
59.7020524534413
20
-3.40046197244686
30
0
41
1
10
59.6967942254007
20
-3.45121908695015
30
0
41
1
10
59.692147653942
20
-3.5923531102153
30
0
41
1
10
59.704442964813
20
-3.66700416551663
30
0
41
1
10
59.7387924492897
20
-3.74613001219251
30
0
41
1
10
59.7529834635417
20
-3.76743622315289
30
0
41
1
10
59.7855508508464
20
-3.79991721035049
30
0
41
1
10
59.8037898602979
20
-3.81107841628523
30
0
41
1
10
59.8437645145623
20
-3.82431768318898
30
0
41
1
10
59.8656253440916
20
-3.82631835969079
30
0
41
1
10
59.9114497296256
20
-3.82163419081599
30
0
41
1
10
59.9355354967377
20
-3.81502591791582
30
0
41
1
10
59.9859678467695
20
-3.79359083329459
30
0
41
1
10
60.0124651022757
20
-3.77861850074893
30
0
41
1
10
60.0662652408758
20
-3.74124179709293
30
0
41
1
10
60.0937145031037
20
-3.71881079592353
30
0
41
1
10
60.1777391670867
20
-3.64009018036447
30
0
41
1
10
60.2365210953419
20
-3.57165440528354
30
0
41
1
10
60.2943064061959
20
-3.48916708794485
30
0
0
SPLINE
5
D6
100
AcDbEntity
8
1
62
256
6
ByLayer
370
18
48
1
60
0
100
AcDbSpline
70
4
71
3
72
20
73
16
40
0
40
0
40
0
40
0
40
0.125000000000002
40
0.125000000000002
40
0.250000000000004
40
0.250000000000004
40
0.500000000000003
40
0.500000000000003
40
0.625000000000002
40
0.625000000000002
40
0.750000000000001
40
0.750000000000001
40
0.875000000000001
40
0.875000000000001
40
1
40
1
40
1
40
1
41
1
10
61.0804969400569
20
-2.98153833126861
30
0
41
1
10
61.0338376162365
20
-3.10706244376397
30
0
41
1
10
60.9871233932469
20
-3.23248227638902
30
0
41
1
10
60.8935564378179
20
-3.48305884571735
30
0
41
1
10
60.846704040354
20
-3.60815243147644
30
0
41
1
10
60.706073997418
20
-3.9831854627609
30
0
41
1
10
60.6122243226706
20
-4.23303756514392
30
0
41
1
10
60.4711546742772
20
-4.6062516986874
30
0
41
1
10
60.4240658485711
20
-4.73030970871503
30
0
41
1
10
60.3298275535138
20
-4.97810526911636
30
0
41
1
10
60.2826909710302
20
-5.10190489700784
30
0
41
1
10
60.1883964849818
20
-5.34869029963804
30
0
41
1
10
60.1412348321977
20
-5.47171241776661
30
0
41
1
10
60.0468481634339
20
-5.71612711022905
30
0
41
1
10
59.9996359031534
20
-5.83784772942195
30
0
41
1
10
59.9524063927107
20
-5.95912471734357
30
0
0
SPLINE
5
D7
100
AcDbEntity
8
1
62
256
6
ByLayer
370
18
48
1
60
0
100
AcDbSpline
70
4
71
3
72
42
73
38
40
0
40
0
40
0
40
0
40
0.249999999999992
40
0.249999999999992
40
0.37499999999999
40
0.37499999999999
40
0.437499999999989
40
0.437499999999989
40
0.499999999999988
40
0.499999999999988
40
0.624999999999986
40
0.624999999999986
40
0.687499999999985
40
0.687499999999985
40
0.718749999999987
40
0.718749999999987
40
0.734374999999988
40
0.734374999999988
40
0.749999999999989
40
0.749999999999989
40
0.781249999999991
40
0.781249999999991
40
0.812499999999992
40
0.812499999999992
40
0.843749999999994
40
0.843749999999994
40
0.874999999999996
40
0.874999999999996
40
0.890624999999997
40
0.890624999999997
40
0.906249999999998
40
0.906249999999998
40
0.937499999999999
40
0.937499999999999
40
0.968749999999999
40
0.968749999999999
40
1
40
1
40
1
40
1
41
1
10
53.568847967329
20
2.55053287886082
30
0
41
1
10
54.0717360884773
20
2.19048550272518
30
0
41
1
10
54.5814827772987
20
1.86243025014832
30
0
41
1
10
55.3594674413931
20
1.43268734403588
30
0
41
1
10
55.621006679944
20
1.29975310621114
30
0
41
1
10
56.0170881409857
20
1.11794924124772
30
0
41
1
10
56.1497472670082
20
1.06029581875029
30
0
41
1
10
56.416429895415
20
0.951353173868341
30
0
41
1
10
56.5507664622371
20
0.899961544531635
30
0
41
1
10
56.9534707676425
20
0.757190042568652
30
0
41
1
10
57.2213983934394
20
0.677134895457527
30
0
41
1
10
57.6207663796748
20
0.583628410613073
30
0
41
1
10
57.7533242889961
20
0.55693154334088
30
0
41
1
10
57.9508737189375
20
0.524212395271604
30
0
41
1
10
58.016505044334
20
0.514526209644629
30
0
41
1
10
58.1145439485552
20
0.501907980530518
30
0
41
1
10
58.1472241291836
20
0.497736802227109
30
0
41
1
10
58.2121405171175
20
0.491257407034425
30
0
41
1
10
58.2443741955274
20
0.488917913750697
30
0
41
1
10
58.3404258010068
20
0.48426130207335
30
0
41
1
10
58.4033320324637
20
0.484422735020416
30
0
41
1
10
58.5257215378213
20
0.49320704209913
30
0
41
1
10
58.5852919491701
20
0.50177515838709
30
0
41
1
10
58.6993783214196
20
0.531905702193484
30
0
41
1
10
58.7532482286395
20
0.553182924968382
30
0
41
1
10
58.8501956199021
20
0.610663347329051
30
0
41
1
10
58.8941204258447
20
0.647602112153152
30
0
41
1
10
58.9478005318597
20
0.714030183517451
30
0
41
1
10
58.9637473511884
20
0.738006882646062
30
0
41
1
10
58.9912783401935
20
0.790070701906075
30
0
41
1
10
59.0029070816907
20
0.818424608807732
30
0
41
1
10
59.0296373409201
20
0.907292512924272
30
0
41
1
10
59.0367218953625
20
0.972492498827961
30
0
41
1
10
59.0326727918455
20
1.11155543542137
30
0
41
1
10
59.0219920330588
20
1.1826039935282
30
0
41
1
10
58.9885062904073
20
1.32682600558391
30
0
41
1
10
58.9655138344301
20
1.40027895419615
30
0
41
1
10
58.9385659523
20
1.4728408650976
30
0
0
SPLINE
5
D8
100
AcDbEntity
8
1
62
256
6
ByLayer
370
18
48
1
60
0
100
AcDbSpline
70
4
71
3
72
26
73
22
40
0
40
0
40
0
40
0
40
0.0624999999999992
40
0.0624999999999992
40
0.124999999999998
40
0.124999999999998
40
0.249999999999999
40
0.249999999999999
40
0.312499999999997
40
0.312499999999997
40
0.374999999999996
40
0.374999999999996
40
0.499999999999997
40
0.499999999999997
40
0.624999999999998
40
0.624999999999998
40
0.749999999999998
40
0.749999999999998
40
0.874999999999999
40
0.874999999999999
40
1
40
1
40
1
40
1
41
1
10
53.5688479673287
20
2.55053287886088
30
0
41
1
10
53.599313073511
20
2.39428680688414
30
0
41
1
10
53.6405446763187
20
2.2370726569238
30
0
41
1
10
53.7429138157936
20
1.92085449935539
30
0
41
1
10
53.8045996449329
20
1.76079606418165
30
0
41
1
10
54.0120928052959
20
1.29042657213839
30
0
41
1
10
54.1803956786826
20
0.987003673269243
30
0
41
1
10
54.466892912017
20
0.543404813545123
30
0
41
1
10
54.5685457343074
20
0.397009297094712
30
0
41
1
10
54.7784858124499
20
0.112629675526534
30
0
41
1
10
54.8871121052883
20
-0.0259355378965154
30
0
41
1
10
55.2224780866759
20
-0.432226216086008
30
0
41
1
10
55.4586376946145
20
-0.690613320570549
30
0
41
1
10
55.9512876189818
20
-1.18723284744371
30
0
41
1
10
56.2089487518364
20
-1.42635560324612
30
0
41
1
10
56.731450118744
20
-1.87906746108953
30
0
41
1
10
56.9972598362774
20
-2.09367666217415
30
0
41
1
10
57.5367765102783
20
-2.50254717599697
30
0
41
1
10
57.8104906316616
20
-2.69679002773734
30
0
41
1
10
58.3645876206521
20
-3.06809315580043
30
0
41
1
10
58.6449671505697
20
-3.24516203195577
30
0
41
1
10
58.9283906763895
20
-3.41438780126569
30
0
0
SPLINE
5
D9
100
AcDbEntity
8
1
62
256
6
ByLayer
370
18
48
1
60
0
100
AcDbSpline
70
4
71
3
72
24
73
20
40
0
40
0
40
0
40
0
40
0.125000000000001
40
0.125000000000001
40
0.187500000000001
40
0.187500000000001
40
0.25
40
0.25
40
0.499999999999999
40
0.499999999999999
40
0.562499999999999
40
0.562499999999999
40
0.624999999999999
40
0.624999999999999
40
0.749999999999999
40
0.749999999999999
40
0.875
40
0.875
40
1
40
1
40
1
40
1
41
1
10
59.8777168721382
20
-5.83092497147624
30
0
41
1
10
59.793265642365
20
-5.83082694548301
30
0
41
1
10
59.7128698889848
20
-5.8184927005257
30
0
41
1
10
59.5986526573576
20
-5.78075240774572
30
0
41
1
10
59.5616456240562
20
-5.76495784459073
30
0
41
1
10
59.4898474910945
20
-5.72668278385197
30
0
41
1
10
59.454947627584
20
-5.70410266409766
30
0
41
1
10
59.2882946537757
20
-5.57534522311389
30
0
41
1
10
59.1787306893184
20
-5.42218319400538
30
0
41
1
10
59.0729493903441
20
-5.16492036149762
30
0
41
1
10
59.0533722107803
20
-5.11013421950486
30
0
41
1
10
59.0175024820466
20
-4.99362779552831
30
0
41
1
10
59.0011775997078
20
-4.93169029592178
30
0
41
1
10
58.9580102495687
20
-4.73816006755882
30
0
41
1
10
58.9366772750595
20
-4.59818993441053
30
0
41
1
10
58.9086791926009
20
-4.29667716666475
30
0
41
1
10
58.9020134360009
20
-4.13513548605866
30
0
41
1
10
58.9037697300347
20
-3.78986200318968
30
0
41
1
10
58.9123378245431
20
-3.6054525282112
30
0
41
1
10
58.9283906763895
20
-3.41438780126566
30
0
0
SPLINE
5
DA
100
AcDbEntity
8
1
62
256
6
ByLayer
370
18
48
1
60
0
100
AcDbSpline
70
4
71
3
72
20
73
16
40
0
40
0
40
0
40
0
40
0.0619468813858149
40
0.0619468813858149
40
0.233830352922269
40
0.233830352922269
40
0.577597295995178
40
0.577597295995178
40
0.749480767531632
40
0.749480767531632
40
0.835422503299859
40
0.835422503299859
40
0.921364239068086
40
0.921364239068086
40
1
40
1
40
1
40
1
41
1
10
5.32709110271841
20
0.028531361307671
30
0
41
1
10
5.53775531934937
20
-0.0817297252883122
30
0
41
1
10
5.74811600268563
20
-0.191873710015102
30
0
41
1
10
6.54023621213463
20
-0.60615262175989
30
0
41
1
10
7.11989498245765
20
-0.907983832472468
30
0
41
1
10
8.85536889356919
20
-1.79718059682841
30
0
41
1
10
10.0070730613169
20
-2.36935953744813
30
0
41
1
10
11.7454025847256
20
-3.16234029728142
30
0
41
1
10
12.3264687375307
20
-3.41607235360928
30
0
41
1
10
13.2026763801314
20
-3.77683511088682
30
0
41
1
10
13.4958018889433
20
-3.89386822240002
30
0
41
1
10
14.0795528267792
20
-4.11872374117635
30
0
41
1
10
14.3707047601081
20
-4.22678184118979
30
0
41
1
10
14.9271122071352
20
-4.42505822617377
30
0
41
1
10
15.1924728747598
20
-4.51603000768662
30
0
41
1
10
15.457484897424
20
-4.60308992759354
30
0
0
SPLINE
5
DB
100
AcDbEntity
8
1
62
256
6
ByLayer
370
13
48
1
60
0
100
AcDbSpline
70
4
71
3
72
16
73
12
40
0
40
0
40
0
40
0
40
0.283574670112428
40
0.283574670112428
40
0.467414980196983
40
0.467414980196983
40
0.55933513523926
40
0.55933513523926
40
0.651255290281538
40
0.651255290281538
40
1
40
1
40
1
40
1
41
1
10
15.4574848973776
20
-4.60308992757828
30
0
41
1
10
16.3510090398173
20
-4.89662430950565
30
0
41
1
10
17.2405698104026
20
-5.1456889185923
30
0
41
1
10
18.7094131817871
20
-5.47367118070687
30
0
41
1
10
19.2877320117411
20
-5.58173497052593
30
0
41
1
10
20.1582610599053
20
-5.710689438716
30
0
41
1
10
20.4489473114971
20
-5.748137912337
30
0
41
1
10
21.0317120406421
20
-5.81154109381043
30
0
41
1
10
21.3241818347406
20
-5.83754282866769
30
0
41
1
10
22.7266414014878
20
-5.93364542765289
30
0
41
1
10
23.8243853326415
20
-5.92355977394092
30
0
41
1
10
24.9200145136978
20
-5.83089276071215
30
0
0
SPLINE
5
DC
100
AcDbEntity
8
1
62
256
6
ByLayer
370
18
48
1
60
0
100
AcDbSpline
70
4
71
3
72
18
73
14
40
0
40
0
40
0
40
0
40
0.0903677842269331
40
0.0903677842269331
40
0.272294227381547
40
0.272294227381547
40
0.45422067053616
40
0.45422067053616
40
0.636147113690773
40
0.636147113690773
40
0.818073556845387
40
0.818073556845387
40
1
40
1
40
1
40
1
41
1
10
6.37416034544896
20
5.79788338269964
30
0
41
1
10
6.5203527721782
20
5.79549515015682
30
0
41
1
10
6.66733166508615
20
5.79087337710189
30
0
41
1
10
7.11147624195499
20
5.77067802698505
30
0
41
1
10
7.40935409161341
20
5.74942944616672
30
0
41
1
10
8.00725153975898
20
5.69122978742288
30
0
41
1
10
8.30727543538447
20
5.65425046022798
30
0
41
1
10
8.90942902234224
20
5.56726874494049
30
0
41
1
10
9.21156702781593
20
5.51716931749144
30
0
41
1
10
9.81826976162122
20
5.40484953600745
30
0
41
1
10
10.1228335185151
20
5.34267051562287
30
0
41
1
10
10.7348116952759
20
5.20803970331704
30
0
41
1
10
11.042212692988
20
5.13567510386858
30
0
41
1
10
11.3514359289146
20
5.05805860909899
30
0
0
SPLINE
5
DD
100
AcDbEntity
8
1
62
256
6
ByLayer
370
18
48
1
60
0
100
AcDbSpline
70
4
71
3
72
92
73
88
40
0
40
0
40
0
40
0
40
0.0332198292881954
40
0.0332198292881954
40
0.0498297439322926
40
0.0498297439322926
40
0.0664396585763899
40
0.0664396585763899
40
0.0996594878645844
40
0.0996594878645844
40
0.132879317152779
40
0.132879317152779
40
0.166099146440974
40
0.166099146440974
40
0.182709061085071
40
0.182709061085071
40
0.199318975729169
40
0.199318975729169
40
0.215928890373267
40
0.215928890373267
40
0.232538805017364
40
0.232538805017364
40
0.26575863430556
40
0.26575863430556
40
0.298978463593755
40
0.298978463593755
40
0.33219829288195
40
0.33219829288195
40
0.348808207526048
40
0.348808207526048
40
0.365418122170146
40
0.365418122170146
40
0.39863795145834
40
0.39863795145834
40
0.415247866102437
40
0.415247866102437
40
0.431857780746534
40
0.431857780746534
40
0.448467695390631
40
0.448467695390631
40
0.465077610034728
40
0.465077610034728
40
0.498297439322922
40
0.498297439322922
40
0.531517268611117
40
0.531517268611117
40
0.564737097899311
40
0.564737097899311
40
0.581347012543408
40
0.581347012543408
40
0.597956927187505
40
0.597956927187505
40
0.614566841831602
40
0.614566841831602
40
0.631176756475699
40
0.631176756475699
40
0.664396585763892
40
0.664396585763892
40
0.681006500407988
40
0.681006500407988
40
0.697616415052085
40
0.697616415052085
40
0.730836244340279
40
0.730836244340279
40
0.764056073628473
40
0.764056073628473
40
0.797275902916666
40
0.797275902916666
40
0.813885817560763
40
0.813885817560763
40
0.830495732204859
40
0.830495732204859
40
0.847105646848956
40
0.847105646848956
40
0.863715561493052
40
0.863715561493052
40
0.896935390781246
40
0.896935390781246
40
0.93015522006944
40
0.93015522006944
40
0.963375049357634
40
0.963375049357634
40
0.979984964001731
40
0.979984964001731
40
0.996594878645828
40
0.996594878645828
40
1
40
1
40
1
40
1
41
1
10
18.9757979452796
20
5.84162953731837
30
0
41
1
10
19.4062551130826
20
5.90603084266562
30
0
41
1
10
19.8358070567302
20
5.95671967842978
30
0
41
1
10
20.477868807914
20
6.01348703602702
30
0
41
1
10
20.6915242821084
20
6.02917619805223
30
0
41
1
10
21.1179143096014
20
6.05410687331025
30
0
41
1
10
21.3306436479473
20
6.0633243514277
30
0
41
1
10
21.9692018176815
20
6.08106574534824
30
0
41
1
10
22.3948952267158
20
6.07988799461623
30
0
41
1
10
23.2450368839587
20
6.05173489909552
30
0
41
1
10
23.6691777491534
20
6.02450694488843
30
0
41
1
10
24.5204323091074
20
5.94484026207007
30
0
41
1
10
24.9469093894025
20
5.89240640168376
30
0
41
1
10
25.5870271018629
20
5.79397883034088
30
0
41
1
10
25.8005360506693
20
5.75787286306044
30
0
41
1
10
26.228869691593
20
5.67969338832654
30
0
41
1
10
26.4435500645227
20
5.63754680618521
30
0
41
1
10
26.8737720571693
20
5.54699430371613
30
0
41
1
10
27.089610046699
20
5.49851854007284
30
0
41
1
10
27.5197432002329
20
5.39564495402212
30
0
41
1
10
27.7340951223734
20
5.3410974736785
30
0
41
1
10
28.3762474763531
20
5.16929411779063
30
0
41
1
10
28.8037697607145
20
5.04459223396589
30
0
41
1
10
29.6563726889911
20
4.77408005127012
30
0
41
1
10
30.0808347227408
20
4.62741072393268
30
0
41
1
10
30.9308743961143
20
4.3171219173681
30
0
41
1
10
31.3561367285768
20
4.15324523983273
30
0
41
1
10
31.9935721277118
20
3.89316043383448
30
0
41
1
10
32.2058534610926
20
3.80388872861363
30
0
41
1
10
32.631042467663
20
3.62164953553469
30
0
41
1
10
32.8440466619093
20
3.52884440060788
30
0
41
1
10
33.4838634888909
20
3.2447725553352
30
0
41
1
10
33.9114737711677
20
3.04786611019367
30
0
41
1
10
34.5540351569562
20
2.73996746732843
30
0
41
1
10
34.7686540051134
20
2.63564733147913
30
0
41
1
10
35.1992856629727
20
2.42458879658227
30
0
41
1
10
35.4148492921242
20
2.31779995309594
30
0
41
1
10
35.8445326303929
20
2.10238971711601
30
0
41
1
10
36.0589249295963
20
1.99364658179252
30
0
41
1
10
36.4866458345243
20
1.77377802288149
30
0
41
1
10
36.6998860894106
20
1.66248674811257
30
0
41
1
10
37.33954762986
20
1.3279025486234
30
0
41
1
10
37.7657161650694
20
1.10354831290795
30
0
41
1
10
38.6161566482655
20
0.649740710500197
30
0
41
1
10
39.0399935109142
20
0.419456089367628
30
0
41
1
10
39.8898577516987
20
-0.0385216041532885
30
0
41
1
10
40.3153288792247
20
-0.267254209476363
30
0
41
1
10
40.9534686863405
20
-0.611649488805909
30
0
41
1
10
41.166130159818
20
-0.726743839357226
30
0
41
1
10
41.5925630214321
20
-0.955210177618056
30
0
41
1
10
41.8062356040363
20
-1.0687694599161
30
0
41
1
10
42.2342686126712
20
-1.29496952416972
30
0
41
1
10
42.4486430053223
20
-1.4075836071828
30
0
41
1
10
42.8779869462707
20
-1.63207817921162
30
0
41
1
10
43.0930897634975
20
-1.74426003520253
30
0
41
1
10
43.7382559961061
20
-2.07788698420543
30
0
41
1
10
44.1673109460607
20
-2.29363940716391
30
0
41
1
10
44.8086702062035
20
-2.60893501748919
30
0
41
1
10
45.0220813878
20
-2.71264406757572
30
0
41
1
10
45.4479712924915
20
-2.91757321673512
30
0
41
1
10
45.6605290819595
20
-3.01864493342734
30
0
41
1
10
46.2986098096429
20
-3.31514381905163
30
0
41
1
10
46.7239383135739
20
-3.50492963588894
30
0
41
1
10
47.5733447519322
20
-3.87060750254855
30
0
41
1
10
47.9972523871996
20
-4.04663098203875
30
0
41
1
10
48.8480604736148
20
-4.37847218808929
30
0
41
1
10
49.2742709603035
20
-4.53536229385153
30
0
41
1
10
49.9140267688586
20
-4.75782326867056
30
0
41
1
10
50.1274980980384
20
-4.82962917041036
30
0
41
1
10
50.5557420229756
20
-4.96751200663851
30
0
41
1
10
50.7703651644041
20
-5.03377542674886
30
0
41
1
10
51.2004763112323
20
-5.16107897953574
30
0
41
1
10
51.4161991174948
20
-5.22217083008533
30
0
41
1
10
51.8459225056154
20
-5.33851327028535
30
0
41
1
10
52.060059248493
20
-5.39394329670216
30
0
41
1
10
52.7017969100632
20
-5.55065059950809
30
0
41
1
10
53.1290470101985
20
-5.64222640768114
30
0
41
1
10
53.9809991684334
20
-5.80139655486627
30
0
41
1
10
54.4051532430325
20
-5.86912205193605
30
0
41
1
10
55.2547736046074
20
-5.97826549978765
30
0
41
1
10
55.6798028944193
20
-6.02009093753409
30
0
41
1
10
56.3168430425644
20
-6.06386651442895
30
0
41
1
10
56.5289996942124
20
-6.07528559568257
30
0
41
1
10
56.9540834462977
20
-6.09152235503359
30
0
41
1
10
57.1670285857504
20
-6.09636319018949
30
0
41
1
10
57.4239378874309
20
-6.09828689514978
30
0
41
1
10
57.467655757778
20
-6.09847808454273
30
0
41
1
10
57.5113838595163
20
-6.09853265941737
30
0
0
SPLINE
5
DE
100
AcDbEntity
8
1
62
256
6
ByLayer
370
18
48
1
60
0
100
AcDbSpline
70
4
71
3
72
12
73
8
40
0
40
0
40
0
40
0
40
0.165264306534201
40
0.165264306534201
40
0.677510151881279
40
0.677510151881279
40
1
40
1
40
1
40
1
41
1
10
12.4295600701633
20
-4.36838113834537
30
0
41
1
10
12.3714436861673
20
-4.40893874327446
30
0
41
1
10
12.3130478691554
20
-4.44921544076985
30
0
41
1
10
12.0723741774403
20
-4.6129991039538
30
0
41
1
10
11.88693191993
20
-4.73398219814837
30
0
41
1
10
11.5853130047768
20
-4.9206583275128
30
0
41
1
10
11.4685578088921
20
-4.99049640658671
30
0
41
1
10
11.351476275638
20
-5.05805733432351
30
0
0
SPLINE
5
DF
100
AcDbEntity
8
SK1
62
256
6
ByLayer
370
18
48
1
60
0
100
AcDbSpline
70
4
71
3
72
10
73
6
40
0
40
0
40
0
40
0
40
0.5
40
0.5
40
1
40
1
40
1
40
1
41
1
10
-45
20
-3.99999365222089
30
0
41
1
10
-44.7377127485171
20
-4.45455403189385
30
0
41
1
10
-44.4719006512948
20
-4.90740091062071
30
0
41
1
10
-43.9377243245399
20
-5.81156644926017
30
0
41
1
10
-43.6692076463858
20
-6.26287765772003
30
0
41
1
10
-43.4
20
-6.71381566454997
30
0
0
SPLINE
5
E0
100
AcDbEntity
8
SK1
62
256
6
ByLayer
370
18
48
1
60
0
100
AcDbSpline
70
4
71
3
72
14
73
10
40
0
40
0
40
0
40
0
40
0.499999999999997
40
0.499999999999997
40
0.749999999999995
40
0.749999999999995
40
0.874999999999998
40
0.874999999999998
40
1
40
1
40
1
40
1
41
1
10
-43.4
20
-6.71381566455003
30
0
41
1
10
-43.3790445776494
20
-6.74891718010474
30
0
41
1
10
-43.3587362712602
20
-6.78215480167182
30
0
41
1
10
-43.3304966181166
20
-6.8264775930156
30
0
41
1
10
-43.3215144183093
20
-6.84021956299122
30
0
41
1
10
-43.3103236218556
20
-6.85623055626178
30
0
41
1
10
-43.3069030532022
20
-6.86089606511462
30
0
41
1
10
-43.3017205322973
20
-6.86704637438777
30
0
41
1
10
-43.3
20
-6.86845355927264
30
0
41
1
10
-43.3
20
-6.86684233000582
30
0
0
SPLINE
5
E1
100
AcDbEntity
8
SK1
62
256
6
ByLayer
370
18
48
1
60
0
100
AcDbSpline
70
4
71
3
72
10
73
6
40
0
40
0
40
0
40
0
40
0.5
40
0.5
40
1
40
1
40
1
40
1
41
1
10
-43.4
20
-5.93679769707393
30
0
41
1
10
-43.6546049106982
20
-5.5103200969732
30
0
41
1
10
-43.908587148449
20
-5.08350325502786
30
0
41
1
10
-44.4140730045989
20
-4.22856984557171
30
0
41
1
10
-44.665660583167
20
-3.80049380076355
30
0
41
1
10
-44.9144552185739
20
-3.3709447365795
30
0
0
SPLINE
5
E2
100
AcDbEntity
8
SK1
62
256
6
ByLayer
370
18
48
1
60
0
100
AcDbSpline
70
4
71
3
72
14
73
10
40
0
40
0
40
0
40
0
40
0.125000000000005
40
0.125000000000005
40
0.250000000000009
40
0.250000000000009
40
0.50000000000001
40
0.50000000000001
40
1
40
1
40
1
40
1
41
1
10
-43.3
20
-6.15198579992787
30
0
41
1
10
-43.3
20
-6.14701372116593
30
0
41
1
10
-43.3017012565589
20
-6.13950721851538
30
0
41
1
10
-43.3069010451287
20
-6.1226781285624
30
0
41
1
10
-43.3102603620514
20
-6.11365384331682
30
0
41
1
10
-43.3216024497887
20
-6.08556771030277
30
0
41
1
10
-43.3304674144333
20
-6.06639629586601
30
0
41
1
10
-43.3586594529452
20
-6.00896207078821
30
0
41
1
10
-43.3789281721554
20
-5.97209419840326
30
0
41
1
10
-43.4
20
-5.93679769707393
30
0
0
SPLINE
5
E3
100
AcDbEntity
8
SK1
62
256
6
ByLayer
370
18
48
1
60
0
100
AcDbSpline
70
4
71
3
72
8
73
4
40
0
40
0
40
0
40
0
40
1
40
1
40
1
40
1
41
1
10
-44.9144552185739
20
-3.3709447365795
30
0
41
1
10
-44.9405513862396
20
-3.29990966836536
30
0
41
1
10
-44.9692213537017
20
-3.22723836191255
30
0
41
1
10
-45
20
-3.15467486107866
30
0
0
LINE
5
76
100
AcDbEntity
8
81
62
256
6
ByLayer
370
18
48
1
60
0
100
AcDbLine
10
62
20
0
30
0
11
67
21
0
31
0
39
0
210
0
220
0
230
1
0
LINE
5
77
100
AcDbEntity
8
1
62
256
6
ByLayer
370
18
48
1
60
0
100
AcDbLine
10
4
20
6.066429
30
0
11
1.455783
21
6.064902
31
0
39
0
210
0
220
0
230
1
0
LINE
5
79
100
AcDbEntity
8
1
62
256
6
ByLayer
370
18
48
1
60
0
100
AcDbLine
10
23.080789
20
6.077877
30
0
11
22.114136
21
6.077297
31
0
39
0
210
0
220
0
230
1
0
LINE
5
7A
100
AcDbEntity
8
1
62
256
6
ByLayer
370
18
48
1
60
0
100
AcDbLine
10
58.481804
20
6.099118
30
0
11
57.523506
21
6.098543
31
0
39
0
210
0
220
0
230
1
0
LINE
5
7B
100
AcDbEntity
8
1
62
256
6
ByLayer
370
18
48
1
60
0
100
AcDbLine
10
57.523506
20
-6.098543
30
0
11
58.481507
21
-6.099117
31
0
39
0
210
0
220
0
230
1
0
LINE
5
7C
100
AcDbEntity
8
1
62
256
6
ByLayer
370
18
48
1
60
0
100
AcDbLine
10
22.114136
20
-6.077297
30
0
11
23.080813
21
-6.077877
31
0
39
0
210
0
220
0
230
1
0
LINE
5
7D
100
AcDbEntity
8
1
62
256
6
ByLayer
370
18
48
1
60
0
100
AcDbLine
10
1.455783
20
-6.064902
30
0
11
4
21
-6.066429
31
0
39
0
210
0
220
0
230
1
0
LINE
5
7E
100
AcDbEntity
8
SK1
62
256
6
ByLayer
370
18
48
1
60
0
100
AcDbLine
10
0
20
7
30
0
11
-43.267949
21
7
31
0
39
0
210
0
220
0
230
1
0
LINE
5
80
100
AcDbEntity
8
SK1
62
256
6
ByLayer
370
18
48
1
60
0
100
AcDbLine
10
-43.267949
20
-7
30
0
11
0
21
-7
31
0
39
0
210
0
220
0
230
1
0
LINE
5
81
100
AcDbEntity
8
SK1
62
256
6
ByLayer
370
18
48
1
60
0
100
AcDbLine
10
-43.267949
20
7
30
0
11
-45
21
4
31
0
39
0
210
0
220
0
230
1
0
LINE
5
82
100
AcDbEntity
8
SK1
62
256
6
ByLayer
370
18
48
1
60
0
100
AcDbLine
10
-45
20
-4
30
0
11
-43.267949
21
-7
31
0
39
0
210
0
220
0
230
1
0
LINE
5
83
100
AcDbEntity
8
SK4
62
256
6
ByLayer
370
18
48
0.05
60
0
100
AcDbLine
10
67
20
0
30
0
11
-50
21
0
31
0
39
0
210
0
220
0
230
1
0
LINE
5
85
100
AcDbEntity
8
4
62
256
6
ByLayer
370
18
48
0.05
60
0
100
AcDbLine
10
62
20
0
30
0
11
0
21
0
31
0
39
0
210
0
220
0
230
1
0
LINE
5
87
100
AcDbEntity
8
80
62
256
6
ByLayer
370
18
48
1
60
0
100
AcDbLine
10
0
20
0
30
0
11
-5
21
0
31
0
39
0
210
0
220
0
230
1
0
LINE
5
88
100
AcDbEntity
8
1
62
256
6
ByLayer
370
13
48
1
60
0
100
AcDbLine
10
60.319486
20
1.100862
30
0
11
61.90831
21
0.314201
31
0
39
0
210
0
220
0
230
1
0
LINE
5
89
100
AcDbEntity
8
1
62
256
6
ByLayer
370
18
48
1
60
0
100
AcDbLine
10
58.928391
20
-3.414388
30
0
11
61.894143
21
-0.109111
31
0
39
0
210
0
220
0
230
1
0
LINE
5
8A
100
AcDbEntity
8
1
62
256
6
ByLayer
370
13
48
1
60
0
100
AcDbLine
10
60.150028
20
0.754438
30
0
11
61.894143
21
-0.109111
31
0
39
0
210
0
220
0
230
1
0
LINE
5
8B
100
AcDbEntity
8
1
62
256
6
ByLayer
370
18
48
1
60
0
100
AcDbLine
10
0
20
-7
30
0
11
0
21
7
31
0
39
0
210
0
220
0
230
1
0
LINE
5
8C
100
AcDbEntity
8
1
62
256
6
ByLayer
370
13
48
1
60
0
100
AcDbLine
10
1.455783
20
6.064902
30
0
11
1.455783
21
-6.064902
31
0
39
0
210
0
220
0
230
1
0
LINE
5
8D
100
AcDbEntity
8
1
62
256
6
ByLayer
370
18
48
1
60
0
100
AcDbLine
10
4
20
0.889806
30
0
11
4
21
6.066429
31
0
39
0
210
0
220
0
230
1
0
LINE
5
8E
100
AcDbEntity
8
1
62
256
6
ByLayer
370
18
48
1
60
0
100
AcDbLine
10
4.250565
20
-5.798079
30
0
11
4.25057
21
-5.797817
31
0
39
0
210
0
220
0
230
1
0
LINE
5
8F
100
AcDbEntity
8
1
62
256
6
ByLayer
370
18
48
1
60
0
100
AcDbLine
10
62
20
0
30
0
11
61.987147
21
-0.057661
31
0
39
0
210
0
220
0
230
1
0
LINE
5
90
100
AcDbEntity
8
1
62
256
6
ByLayer
370
18
48
1
60
0
100
AcDbLine
10
61.90831
20
0.314201
30
0
11
61.69523
21
1.100862
31
0
39
0
210
0
220
0
230
1
0
LINE
5
91
100
AcDbEntity
8
1
62
256
6
ByLayer
370
18
48
1
60
0
100
AcDbLine
10
62
20
0
30
0
11
59.877717
21
-5.830925
31
0
39
0
210
0
220
0
230
1
0
LINE
5
92
100
AcDbEntity
8
1
62
256
6
ByLayer
370
13
48
1
60
0
100
AcDbLine
10
0.727651
20
6.532451
30
0
11
0.727651
21
-6.532451
31
0
39
0
210
0
220
0
230
1
0
LINE
5
93
100
AcDbEntity
8
1
62
256
6
ByLayer
370
13
48
1
60
0
100
AcDbLine
10
61.69523
20
1.100862
30
0
11
60.319486
21
1.100862
31
0
39
0
210
0
220
0
230
1
0
LINE
5
94
100
AcDbEntity
8
1
62
256
6
ByLayer
370
18
48
1
60
0
100
AcDbLine
10
61.90831
20
-0.314201
30
0
11
61.69523
21
-1.100862
31
0
39
0
210
0
220
0
230
1
0
LINE
5
95
100
AcDbEntity
8
1
62
256
6
ByLayer
370
18
48
1
60
0
100
AcDbLine
10
61.987147
20
0.057661
30
0
11
62
21
0
31
0
39
0
210
0
220
0
230
1
0
LINE
5
96
100
AcDbEntity
8
SK1
62
256
6
ByLayer
370
18
48
1
60
0
100
AcDbLine
10
-45
20
-3.154601
30
0
11
-45
21
-3.999994
31
0
39
0
210
0
220
0
230
1
0
LINE
5
97
100
AcDbEntity
8
SK1
62
256
6
ByLayer
370
18
48
1
60
0
100
AcDbLine
10
-45
20
3.999994
30
0
11
-45
21
-3.154675
31
0
39
0
210
0
220
0
230
1
0
LINE
5
98
100
AcDbEntity
8
SK1
62
256
6
ByLayer
370
18
48
1
60
0
100
AcDbLine
10
-43.267949
20
7
30
0
11
-43.267949
21
-7
31
0
39
0
210
0
220
0
230
1
0
LINE
5
99
100
AcDbEntity
8
SK1
62
256
6
ByLayer
370
18
48
1
60
0
100
AcDbLine
10
-43.3
20
-6.866842
30
0
11
-43.3
21
-6.151986
31
0
39
0
210
0
220
0
230
1
0
LINE
5
9A
100
AcDbEntity
8
SK1
62
256
6
ByLayer
370
18
48
1
60
0
100
AcDbLine
10
0
20
-7
30
0
11
0
21
7
31
0
39
0
210
0
220
0
230
1
0
LINE
5
9B
100
AcDbEntity
8
SK1
62
256
6
ByLayer
370
13
48
1
60
0
100
AcDbLine
10
-43.4
20
-5.936791
30
0
11
-43.4
21
-6.713816
31
0
39
0
210
0
220
0
230
1
0
MTEXT
5
E4
100
AcDbEntity
8
SK6
62
256
6
ByLayer
370
13
48
1
60
0
100
AcDbMText
10
10.629169
20
38.482694
30
0
210
0
220
0
230
1
1
\W0.7415;R840-1220-30-A1A1220
40
3.5
41
0
44
1.084337
50
0
71
8
72
5
7
iso_b_vert
0
DIMENSION
5
F1
100
AcDbEntity
8
SK2
62
256
6
ByLayer
370
13
48
1
60
0
100
AcDbDimension
2
DimnDraft3D1
10
59.91
20
-16.313398
30
0
11
28.160059
21
-16.313398
31
0
70
32
71
5
72
1
41
1
210
0
220
0
230
1
3
Standard
100
AcDbAlignedDimension
13
0
23
-1.5875
33
0
14
59.91
24
-7.6875
34
0
50
0
100
AcDbRotatedDimension
1001
ACAD
1000
DSTYLE
1002
{
1070
   279
1070
     0
1070
   172
1070
     1
1070
   173
1070
     1
1070
   340
1005
E5
1070
   271
1070
     2
1070
   272
1070
     2
1070
    77
1070
     1
1070
    73
1070
     0
1070
   171
1070
     3
1070
   274
1070
     4
1070
   177
1070
    35
1070
   176
1070
    35
1070
   178
1070
    35
1070
    48
1040
-0.005
1070
    41
1041
3.5
1070
   147
1041
1.75
1070
    42
1041
1.5875
1070
    44
1041
2.0
1070
   140
1041
3.5
1070
   343
1005
0
1070
   344
1005
0
1002
}
0
DIMENSION
5
FB
100
AcDbEntity
8
SK2
62
256
6
ByLayer
370
13
48
1
60
0
100
AcDbDimension
2
DimnDraft3D2
10
62
20
-35.692985
30
0
11
7.7513
21
-35.692985
31
0
70
32
71
5
72
1
41
1
210
0
220
0
230
1
3
Standard
100
AcDbAlignedDimension
13
-45
23
-8.5875
33
0
14
62
24
-1.5875
34
0
50
0
100
AcDbRotatedDimension
1001
ACAD
1000
DSTYLE
1002
{
1070
   279
1070
     0
1070
   172
1070
     1
1070
   173
1070
     1
1070
   340
1005
E5
1070
   271
1070
     2
1070
   272
1070
     2
1070
    77
1070
     1
1070
    73
1070
     0
1070
   171
1070
     3
1070
   274
1070
     4
1070
   177
1070
    35
1070
   176
1070
    35
1070
   178
1070
    35
1070
    48
1040
-0.005
1070
    41
1041
3.5
1070
   147
1041
1.75
1070
    42
1041
1.5875
1070
    44
1041
2.0
1070
   140
1041
3.5
1070
   343
1005
0
1070
   344
1005
0
1002
}
0
DIMENSION
5
105
100
AcDbEntity
8
SK2
62
256
6
ByLayer
370
13
48
1
60
0
100
AcDbDimension
2
DimnDraft3D3
10
62
20
17.709119
30
0
11
42.655
21
17.709119
31
0
70
32
71
5
72
1
41
1
210
0
220
0
230
1
3
Standard
100
AcDbAlignedDimension
13
23.31
23
7.6875
33
0
14
62
24
1.5875
34
0
50
0
100
AcDbRotatedDimension
1001
ACAD
1000
DSTYLE
1002
{
1070
   279
1070
     0
1070
   172
1070
     1
1070
   173
1070
     1
1070
   340
1005
E5
1070
   271
1070
     2
1070
   272
1070
     2
1070
    77
1070
     1
1070
    73
1070
     0
1070
   171
1070
     3
1070
   274
1070
     4
1070
   177
1070
    35
1070
   176
1070
    35
1070
   178
1070
    35
1070
    48
1040
-0.005
1070
    41
1041
3.5
1070
   147
1041
1.75
1070
    42
1041
1.5875
1070
    44
1041
2.0
1070
   140
1041
3.5
1070
   343
1005
0
1070
   344
1005
0
1002
}
0
DIMENSION
5
10F
100
AcDbEntity
8
SK2
62
256
6
ByLayer
370
13
48
1
60
0
100
AcDbDimension
2
DimnDraft3D4
10
59.91
20
-18.902503
30
0
11
71.981425
21
-18.902503
31
0
70
32
71
5
72
1
41
1
210
0
220
0
230
1
3
Standard
100
AcDbAlignedDimension
13
62
23
-1.5875
33
0
14
59.91
24
-7.6875
34
0
50
0
100
AcDbRotatedDimension
1001
ACAD
1000
DSTYLE
1002
{
1070
   279
1070
     0
1070
   172
1070
     1
1070
   173
1070
     1
1070
   340
1005
E5
1070
   271
1070
     2
1070
   272
1070
     2
1070
    77
1070
     1
1070
    73
1070
     0
1070
   171
1070
     3
1070
   274
1070
     4
1070
   177
1070
    35
1070
   176
1070
    35
1070
   178
1070
    35
1070
    48
1040
-0.005
1070
    41
1041
3.5
1070
   147
1041
1.75
1070
    42
1041
1.5875
1070
    44
1041
2.0
1070
   140
1041
3.5
1070
   343
1005
0
1070
   344
1005
0
1002
}
0
DIMENSION
5
119
100
AcDbEntity
8
SK2
62
256
6
ByLayer
370
13
48
1
60
0
100
AcDbDimension
2
DimnDraft3D5
10
59.91
20
-25.343428
30
0
11
4.670676
21
-25.343428
31
0
70
32
71
5
72
1
41
1
210
0
220
0
230
1
3
Standard
100
AcDbAlignedDimension
13
-45
23
-8.5875
33
0
14
59.91
24
-7.6875
34
0
50
0
100
AcDbRotatedDimension
1001
ACAD
1000
DSTYLE
1002
{
1070
   279
1070
     0
1070
   172
1070
     1
1070
   173
1070
     1
1070
   340
1005
E5
1070
   271
1070
     2
1070
   272
1070
     2
1070
    77
1070
     1
1070
    73
1070
     0
1070
   171
1070
     3
1070
   274
1070
     4
1070
   177
1070
    35
1070
   176
1070
    35
1070
   178
1070
    35
1070
    48
1040
-0.005
1070
    41
1041
3.5
1070
   147
1041
1.75
1070
    42
1041
1.5875
1070
    44
1041
2.0
1070
   140
1041
3.5
1070
   343
1005
0
1070
   344
1005
0
1002
}
0
DIMENSION
5
124
100
AcDbEntity
8
SK2
62
256
6
ByLayer
370
13
48
1
60
0
100
AcDbDimension
2
DimnDraft3D6
10
-55.625163
20
7
30
0
11
-56.250163
21
25.47418
31
0
70
33
71
5
72
1
41
1
210
0
220
0
230
1
3
Standard
100
AcDbAlignedDimension
13
-46.5875
23
-7
33
0
14
-46.5875
24
7
34
0
1001
ACAD
1000
DSTYLE
1002
{
1070
   279
1070
     0
1070
    74
1070
     0
1070
   173
1070
     1
1070
   340
1005
E5
1070
   271
1070
     3
1070
   272
1070
     2
1070
    77
1070
     1
1070
    73
1070
     0
1070
   171
1070
     3
1070
   274
1070
     4
1070
   177
1070
    35
1070
   176
1070
    35
1070
   178
1070
    35
1070
    48
1040
-0.005
1070
    41
1041
3.5
1070
   147
1041
1.75
1070
    42
1041
1.5875
1070
    44
1041
2.0
1070
   140
1041
3.5
1070
   343
1005
0
1070
   344
1005
0
1002
}
0
DIMENSION
5
12F
100
AcDbEntity
8
2
62
256
6
ByLayer
370
13
48
1
60
0
100
AcDbDimension
2
DimnDraft3D7
10
76.083343
20
6.1
30
0
11
71.458343
21
23.167266
31
0
70
33
71
5
72
1
41
1
210
0
220
0
230
1
3
Standard
100
AcDbAlignedDimension
13
61.4975
23
-6.1
33
0
14
61.4975
24
6.1
34
0
1001
ACAD
1000
DSTYLE
1002
{
1070
   279
1070
     0
1070
    74
1070
     0
1070
   173
1070
     1
1070
   340
1005
E5
1070
   271
1070
     3
1070
   272
1070
     2
1070
    77
1070
     1
1070
    73
1070
     0
1070
   171
1070
     3
1070
   274
1070
     4
1070
   177
1070
    35
1070
   176
1070
    35
1070
   178
1070
    35
1070
    48
1040
-0.005
1070
    41
1041
3.5
1070
   147
1041
1.75
1070
    42
1041
1.5875
1070
    44
1041
2.0
1070
   140
1041
3.5
1070
   343
1005
0
1070
   344
1005
0
1002
}
0
ENDSEC
0
SECTION
2
OBJECTS
0
DICTIONARY
5
19a
330
0
100
AcDbDictionary
280
0
281
1
3
ACAD_GROUP
350
19b
3
ACAD_MLINESTYLE
350
19c
0
DICTIONARY
5
19b
330
0
100
AcDbDictionary
280
0
281
1
0
DICTIONARY
5
19c
330
0
100
AcDbDictionary
280
0
281
1
3
Standard
350
18
0
MLINESTYLE
5
18
330
19c
100
AcDbMlineStyle
2
Standard
70
0
3

62
256
51
90
52
90
71
2
49
-0.5
62
256
6
ByLayer
49
0.5
62
256
6
ByLayer
0
RASTERVARIABLES
5
188
330

100
AcDbRasterVariables
90
0
70
1
71
1
72
1
0
ENDSEC
0
EOF
