0
SECTION
2
HEADER
9
$ACADVER
1
AC1015
9
$DWGCODEPAGE
3
ANSI_1252
9
$HANDSEED
5
1ad
9
$ANGBASE
50
0
9
$ANGDIR
70
0
9
$ATTMODE
70
1
9
$AUNITS
70
0
9
$AUPREC
70
0
9
$CECOLOR
62
256
9
$CELTSCALE
40
1
9
$CELTYPE
6
ByLayer
9
$CELWEIGHT
370
18
9
$CLAYER
8
0
9
$CMLJUST
70
0
9
$CMLSCALE
40
1
9
$CMLSTYLE
2
Standard
9
$DIMSTYLE
2
Standard
9
$TEXTSIZE
40
0.2
9
$TEXTSTYLE
7
Standard
9
$LUNITS
70
2
9
$LUPREC
70
4
9
$EXTNAMES
290
1
9
$INSUNITS
70
4
9
$LTSCALE
40
1
9
$LWDISPLAY
290
1
9
$PDMODE
70
0
9
$PDSIZE
40
0
9
$PLINEGEN
70
0
0
ENDSEC
0
SECTION
2
CLASSES
0
CLASS
1
RASTERVARIABLES
2
AcDbRasterVariables
3
ISM
90
0
280
0
281
0
0
ENDSEC
0
SECTION
2
TABLES
0
TABLE
2
VPORT
5
1a3
100
AcDbSymbolTable
0
VPORT
5
1
100
AcDbSymbolTableRecord
100
AcDbViewportTableRecord
2
*Active
70
0
10
0
20
0
11
1
21
1
12
-1
22
1
13
0
23
0
14
0.5
24
0.5
15
10
25
10
16
0
26
0
36
1
17
0
27
0
37
0
0
ENDTAB
0
TABLE
2
LTYPE
5
1a4
100
AcDbSymbolTable
0
LTYPE
5
14
100
AcDbSymbolTableRecord
100
AcDbLinetypeTableRecord
70
0
2
ByBlock
3

72
65
73
0
40
0
0
LTYPE
5
15
100
AcDbSymbolTableRecord
100
AcDbLinetypeTableRecord
70
0
2
ByLayer
3

72
65
73
0
40
0
0
LTYPE
5
16
100
AcDbSymbolTableRecord
100
AcDbLinetypeTableRecord
70
0
2
CONTINUOUS
3
Solid line
72
65
73
0
40
0
0
LTYPE
5
6A
100
AcDbSymbolTableRecord
100
AcDbLinetypeTableRecord
70
0
2
CENTER
3
____ _ ____ _ ____ _ ____
72
65
73
4
40
47.5
49
22
74
0
49
-8.5
74
0
49
8.5
74
0
49
-8.5
74
0
0
LTYPE
5
6B
100
AcDbSymbolTableRecord
100
AcDbLinetypeTableRecord
70
0
2
DASHED
3
__ __ __ __ __ __ __ __ __
72
65
73
2
40
25.72
49
12.86
74
0
49
-12.86
74
0
0
ENDTAB
0
TABLE
2
LAYER
5
1a5
100
AcDbSymbolTable
0
LAYER
5
10
100
AcDbSymbolTableRecord
100
AcDbLayerTableRecord
2
0
70
0
62
7
6
CONTINUOUS
290
1
370
-3
390
0
0
LAYER
5
6D
100
AcDbSymbolTableRecord
100
AcDbLayerTableRecord
2
81
70
0
62
-3
6
CONTINUOUS
290
1
370
-3
390
0
0
LAYER
5
6F
100
AcDbSymbolTableRecord
100
AcDbLayerTableRecord
2
80
70
0
62
-6
6
CONTINUOUS
290
1
370
-3
390
0
0
LAYER
5
74
100
AcDbSymbolTableRecord
100
AcDbLayerTableRecord
2
2
70
0
62
7
6
CONTINUOUS
290
1
370
-3
390
0
0
LAYER
5
78
100
AcDbSymbolTableRecord
100
AcDbLayerTableRecord
2
1
70
0
62
4
6
CONTINUOUS
290
1
370
-3
390
0
0
LAYER
5
88
100
AcDbSymbolTableRecord
100
AcDbLayerTableRecord
2
4
70
0
62
-2
6
CENTER
290
1
370
-3
390
0
0
LAYER
5
18f
100
AcDbSymbolTableRecord
100
AcDbLayerTableRecord
2
SK2
70
0
62
7
6
CONTINUOUS
290
1
370
-3
390
0
0
LAYER
5
190
100
AcDbSymbolTableRecord
100
AcDbLayerTableRecord
2
SK1
70
0
62
4
6
CONTINUOUS
290
1
370
-3
390
0
0
LAYER
5
191
100
AcDbSymbolTableRecord
100
AcDbLayerTableRecord
2
SK4
70
0
62
2
6
CENTER
290
1
370
-3
390
0
0
LAYER
5
192
100
AcDbSymbolTableRecord
100
AcDbLayerTableRecord
2
SK6
70
0
62
5
6
CONTINUOUS
290
1
370
-3
390
0
0
ENDTAB
0
TABLE
2
STYLE
5
1a6
100
AcDbSymbolTable
0
STYLE
5
11
100
AcDbSymbolTableRecord
100
AcDbTextStyleTableRecord
2
Standard
3
txt
70
0
71
0
40
0
41
1
42
0
50
0
0
STYLE
5
EB
100
AcDbSymbolTableRecord
100
AcDbTextStyleTableRecord
2
iso_b_vert
3
simplex.shx
70
0
71
0
40
0
41
1
42
0
50
0
0
STYLE
5
EC
100
AcDbSymbolTableRecord
100
AcDbTextStyleTableRecord
2
DWGDirectTextStyle
3
simplex
70
0
71
0
40
0
41
1
42
0
50
0
0
ENDTAB
0
TABLE
2
DIMSTYLE
5
1a7
100
AcDbSymbolTable
100
AcDbDimStyleTable
0
DIMSTYLE
105
27
100
AcDbSymbolTableRecord
100
AcDbDimStyleTableRecord
2
Standard
70
0
3
<>
41
0.18
42
0.0625
44
0.18
140
0.18
147
0.09
73
0
74
0
77
1
271
2
275
0
278
52
280
0
340
11
0
ENDTAB
0
TABLE
2
VIEW
5
1a8
100
AcDbSymbolTable
0
ENDTAB
0
TABLE
2
UCS
5
1a9
100
AcDbSymbolTable
0
ENDTAB
0
TABLE
2
APPID
5
1aa
100
AcDbSymbolTable
0
APPID
5
12
100
AcDbSymbolTableRecord
100
AcDbRegAppTableRecord
2
ACAD
70
0
0
ENDTAB
0
TABLE
2
BLOCK_RECORD
5
1ab
100
AcDbSymbolTable
0
BLOCK_RECORD
5
1F
100
AcDbSymbolTableRecord
100
AcDbBlockTableRecord
2
*Model_Space
340
0
70
0
0
BLOCK_RECORD
5
1B
100
AcDbSymbolTableRecord
100
AcDbBlockTableRecord
2
*Paper_Space
340
0
70
0
0
BLOCK_RECORD
5
23
100
AcDbSymbolTableRecord
100
AcDbBlockTableRecord
2
*Paper_Space0
340
0
70
0
0
BLOCK_RECORD
5
EE
100
AcDbSymbolTableRecord
100
AcDbBlockTableRecord
2
DimnDraft3D1
340
0
70
0
0
BLOCK_RECORD
5
F8
100
AcDbSymbolTableRecord
100
AcDbBlockTableRecord
2
DimnDraft3D2
340
0
70
0
0
BLOCK_RECORD
5
102
100
AcDbSymbolTableRecord
100
AcDbBlockTableRecord
2
DimnDraft3D3
340
0
70
0
0
BLOCK_RECORD
5
10C
100
AcDbSymbolTableRecord
100
AcDbBlockTableRecord
2
DimnDraft3D4
340
0
70
0
0
BLOCK_RECORD
5
116
100
AcDbSymbolTableRecord
100
AcDbBlockTableRecord
2
DimnDraft3D5
340
0
70
0
0
BLOCK_RECORD
5
120
100
AcDbSymbolTableRecord
100
AcDbBlockTableRecord
2
DimnDraft3D6
340
0
70
0
0
BLOCK_RECORD
5
12B
100
AcDbSymbolTableRecord
100
AcDbBlockTableRecord
2
DimnDraft3D7
340
0
70
0
0
ENDTAB
0
ENDSEC
0
SECTION
2
BLOCKS
0
BLOCK
5
20
100
AcDbEntity
8
0
100
AcDbBlockBegin
2
*Model_Space
70
0
10
0
20
0
30
0
3
*Model_Space
0
ENDBLK
5
21
100
AcDbEntity
8
0
100
AcDbBlockEnd
0
BLOCK
5
1C
100
AcDbEntity
8
0
100
AcDbBlockBegin
2
*Paper_Space
70
0
10
0
20
0
30
0
3
*Paper_Space
0
ENDBLK
5
1D
100
AcDbEntity
8
0
100
AcDbBlockEnd
0
BLOCK
5
24
100
AcDbEntity
8
0
100
AcDbBlockBegin
2
*Paper_Space0
70
0
10
0
20
0
30
0
3
*Paper_Space0
0
ENDBLK
5
25
100
AcDbEntity
8
0
100
AcDbBlockEnd
0
BLOCK
5
F5
100
AcDbEntity
8
0
100
AcDbBlockBegin
2
DimnDraft3D1
70
0
10
0
20
0
30
0
3
DimnDraft3D1
0
MTEXT
5
EF
100
AcDbEntity
8
SK2
62
256
6
ByLayer
370
13
48
1
60
0
100
AcDbMText
10
49.78848
20
-15.388398
30
0
210
0
220
0
230
1
1
\W0.6440;112,92
40
3.5
41
0
44
1.084337
50
0
71
7
72
5
7
iso_b_vert
0
LINE
5
F0
100
AcDbEntity
8
SK2
62
256
6
ByLayer
370
13
48
1
60
0
100
AcDbLine
10
0
20
-1.5875
30
0
11
0
21
-18.263398
31
0
39
0
210
0
220
0
230
1
0
LINE
5
F1
100
AcDbEntity
8
SK2
62
256
6
ByLayer
370
13
48
1
60
0
100
AcDbLine
10
112.92
20
-7.6375
30
0
11
112.92
21
-18.263398
31
0
39
0
210
0
220
0
230
1
0
LINE
5
F2
100
AcDbEntity
8
SK2
62
256
6
ByLayer
370
13
48
1
60
0
100
AcDbLine
10
0
20
-16.263398
30
0
11
112.92
21
-16.263398
31
0
39
0
210
0
220
0
230
1
0
SOLID
5
F3
100
AcDbEntity
8
SK2
62
256
6
ByLayer
370
13
48
1
60
0
100
AcDbTrace
10
0
20
-16.263398
30
0
11
3.499998
21
-15.802615
31
0
12
3.500002
22
-16.724182
32
0
13
0
23
-16.263398
33
0
39
0
210
0
220
0
230
1
0
SOLID
5
F4
100
AcDbEntity
8
SK2
62
256
6
ByLayer
370
13
48
1
60
0
100
AcDbTrace
10
112.92
20
-16.263398
30
0
11
109.420002
21
-16.724182
31
0
12
109.419998
22
-15.802615
32
0
13
112.92
23
-16.263398
33
0
39
0
210
0
220
0
230
1
0
ENDBLK
5
F6
100
AcDbEntity
8
0
100
AcDbBlockEnd
0
BLOCK
5
FF
100
AcDbEntity
8
0
100
AcDbBlockBegin
2
DimnDraft3D2
70
0
10
0
20
0
30
0
3
DimnDraft3D2
0
MTEXT
5
F9
100
AcDbEntity
8
SK2
62
256
6
ByLayer
370
13
48
1
60
0
100
AcDbMText
10
28.942221
20
-34.817985
30
0
210
0
220
0
230
1
1
\W0.6930;160,00
40
3.5
41
0
44
1.084337
50
0
71
7
72
5
7
iso_b_vert
0
LINE
5
FA
100
AcDbEntity
8
SK2
62
256
6
ByLayer
370
13
48
1
60
0
100
AcDbLine
10
-45
20
-8.5875
30
0
11
-45
21
-37.692985
31
0
39
0
210
0
220
0
230
1
0
LINE
5
FB
100
AcDbEntity
8
SK2
62
256
6
ByLayer
370
13
48
1
60
0
100
AcDbLine
10
115
20
-1.5875
30
0
11
115
21
-37.692985
31
0
39
0
210
0
220
0
230
1
0
LINE
5
FC
100
AcDbEntity
8
SK2
62
256
6
ByLayer
370
13
48
1
60
0
100
AcDbLine
10
-45
20
-35.692985
30
0
11
115
21
-35.692985
31
0
39
0
210
0
220
0
230
1
0
SOLID
5
FD
100
AcDbEntity
8
SK2
62
256
6
ByLayer
370
13
48
1
60
0
100
AcDbTrace
10
-45
20
-35.692985
30
0
11
-41.500002
21
-35.232202
31
0
12
-41.499998
22
-36.153769
32
0
13
-45
23
-35.692985
33
0
39
0
210
0
220
0
230
1
0
SOLID
5
FE
100
AcDbEntity
8
SK2
62
256
6
ByLayer
370
13
48
1
60
0
100
AcDbTrace
10
115
20
-35.692985
30
0
11
111.500002
21
-36.153769
31
0
12
111.499998
22
-35.232202
32
0
13
115
23
-35.692985
33
0
39
0
210
0
220
0
230
1
0
ENDBLK
5
100
100
AcDbEntity
8
0
100
AcDbBlockEnd
0
BLOCK
5
109
100
AcDbEntity
8
0
100
AcDbBlockBegin
2
DimnDraft3D3
70
0
10
0
20
0
30
0
3
DimnDraft3D3
0
MTEXT
5
103
100
AcDbEntity
8
SK2
62
256
6
ByLayer
370
13
48
1
60
0
100
AcDbMText
10
61.111316
20
18.534119
30
0
210
0
220
0
230
1
1
\W0.7317;98,88
40
3.5
41
0
44
1.084337
50
0
71
7
72
5
7
iso_b_vert
0
LINE
5
104
100
AcDbEntity
8
SK2
62
256
6
ByLayer
370
13
48
1
60
0
100
AcDbLine
10
16.12
20
7.6375
30
0
11
16.12
21
19.659119
31
0
39
0
210
0
220
0
230
1
0
LINE
5
105
100
AcDbEntity
8
SK2
62
256
6
ByLayer
370
13
48
1
60
0
100
AcDbLine
10
115
20
1.5875
30
0
11
115
21
19.659119
31
0
39
0
210
0
220
0
230
1
0
LINE
5
106
100
AcDbEntity
8
SK2
62
256
6
ByLayer
370
13
48
1
60
0
100
AcDbLine
10
16.12
20
17.659119
30
0
11
115
21
17.659119
31
0
39
0
210
0
220
0
230
1
0
SOLID
5
107
100
AcDbEntity
8
SK2
62
256
6
ByLayer
370
13
48
1
60
0
100
AcDbTrace
10
16.12
20
17.659119
30
0
11
19.619998
21
18.119903
31
0
12
19.620002
22
17.198335
32
0
13
16.12
23
17.659119
33
0
39
0
210
0
220
0
230
1
0
SOLID
5
108
100
AcDbEntity
8
SK2
62
256
6
ByLayer
370
13
48
1
60
0
100
AcDbTrace
10
115
20
17.659119
30
0
11
111.500002
21
17.198335
31
0
12
111.499998
22
18.119903
32
0
13
115
23
17.659119
33
0
39
0
210
0
220
0
230
1
0
ENDBLK
5
10A
100
AcDbEntity
8
0
100
AcDbBlockEnd
0
BLOCK
5
113
100
AcDbEntity
8
0
100
AcDbBlockBegin
2
DimnDraft3D4
70
0
10
0
20
0
30
0
3
DimnDraft3D4
0
MTEXT
5
10D
100
AcDbEntity
8
SK2
62
256
6
ByLayer
370
13
48
1
60
0
100
AcDbMText
10
121.840636
20
-17.977503
30
0
210
0
220
0
230
1
1
\W0.7150;2,08
40
3.5
41
0
44
1.084337
50
0
71
7
72
5
7
iso_b_vert
0
LINE
5
10E
100
AcDbEntity
8
SK2
62
256
6
ByLayer
370
13
48
1
60
0
100
AcDbLine
10
115
20
-1.5875
30
0
11
115
21
-20.852503
31
0
39
0
210
0
220
0
230
1
0
LINE
5
10F
100
AcDbEntity
8
SK2
62
256
6
ByLayer
370
13
48
1
60
0
100
AcDbLine
10
112.92
20
-7.6375
30
0
11
112.92
21
-20.852503
31
0
39
0
210
0
220
0
230
1
0
LINE
5
110
100
AcDbEntity
8
SK2
62
256
6
ByLayer
370
13
48
1
60
0
100
AcDbLine
10
104.17
20
-18.852503
30
0
11
128.997215
21
-18.852503
31
0
39
0
210
0
220
0
230
1
0
SOLID
5
111
100
AcDbEntity
8
SK2
62
256
6
ByLayer
370
13
48
1
60
0
100
AcDbTrace
10
115
20
-18.852503
30
0
11
118.499998
21
-18.391719
31
0
12
118.500002
22
-19.313287
32
0
13
115
23
-18.852503
33
0
39
0
210
0
220
0
230
1
0
SOLID
5
112
100
AcDbEntity
8
SK2
62
256
6
ByLayer
370
13
48
1
60
0
100
AcDbTrace
10
112.92
20
-18.852503
30
0
11
109.420002
21
-19.313287
31
0
12
109.419998
22
-18.391719
32
0
13
112.92
23
-18.852503
33
0
39
0
210
0
220
0
230
1
0
ENDBLK
5
114
100
AcDbEntity
8
0
100
AcDbBlockEnd
0
BLOCK
5
11D
100
AcDbEntity
8
0
100
AcDbBlockBegin
2
DimnDraft3D5
70
0
10
0
20
0
30
0
3
DimnDraft3D5
0
MTEXT
5
117
100
AcDbEntity
8
SK2
62
256
6
ByLayer
370
13
48
1
60
0
100
AcDbMText
10
25.861597
20
-24.468428
30
0
210
0
220
0
230
1
1
\W0.6930;157,92
40
3.5
41
0
44
1.084337
50
0
71
7
72
5
7
iso_b_vert
0
LINE
5
118
100
AcDbEntity
8
SK2
62
256
6
ByLayer
370
13
48
1
60
0
100
AcDbLine
10
-45
20
-8.5875
30
0
11
-45
21
-27.343428
31
0
39
0
210
0
220
0
230
1
0
LINE
5
119
100
AcDbEntity
8
SK2
62
256
6
ByLayer
370
13
48
1
60
0
100
AcDbLine
10
112.92
20
-7.6375
30
0
11
112.92
21
-27.343428
31
0
39
0
210
0
220
0
230
1
0
LINE
5
11A
100
AcDbEntity
8
SK2
62
256
6
ByLayer
370
13
48
1
60
0
100
AcDbLine
10
-45
20
-25.343428
30
0
11
112.92
21
-25.343428
31
0
39
0
210
0
220
0
230
1
0
SOLID
5
11B
100
AcDbEntity
8
SK2
62
256
6
ByLayer
370
13
48
1
60
0
100
AcDbTrace
10
-45
20
-25.343428
30
0
11
-41.500002
21
-24.882645
31
0
12
-41.499998
22
-25.804212
32
0
13
-45
23
-25.343428
33
0
39
0
210
0
220
0
230
1
0
SOLID
5
11C
100
AcDbEntity
8
SK2
62
256
6
ByLayer
370
13
48
1
60
0
100
AcDbTrace
10
112.92
20
-25.343428
30
0
11
109.420002
21
-25.804212
31
0
12
109.419998
22
-24.882645
32
0
13
112.92
23
-25.343428
33
0
39
0
210
0
220
0
230
1
0
ENDBLK
5
11E
100
AcDbEntity
8
0
100
AcDbBlockEnd
0
BLOCK
5
128
100
AcDbEntity
8
0
100
AcDbBlockBegin
2
DimnDraft3D6
70
0
10
0
20
0
30
0
3
DimnDraft3D6
0
MTEXT
5
121
100
AcDbEntity
8
SK2
62
256
6
ByLayer
370
13
48
1
60
0
100
AcDbMText
10
-55.375163
20
26.34918
30
0
210
0
220
0
230
1
1
\W0.7145;14,000
40
3.5
41
0
44
1.084337
50
90
71
7
72
5
7
iso_b_vert
0
MTEXT
5
122
100
AcDbEntity
8
SK2
62
256
6
ByLayer
370
13
48
1
60
0
100
AcDbMText
10
-55.375163
20
21.126524
30
0
210
0
220
0
230
1
1
%%c
40
3.5
41
0
44
1.084337
50
90
71
7
72
5
7
iso_b_vert
0
LINE
5
123
100
AcDbEntity
8
SK2
62
256
6
ByLayer
370
13
48
1
60
0
100
AcDbLine
10
-46.5875
20
-7
30
0
11
-55.625163
21
-7
31
0
39
0
210
0
220
0
230
1
0
LINE
5
124
100
AcDbEntity
8
SK2
62
256
6
ByLayer
370
13
48
1
60
0
100
AcDbLine
10
-46.5875
20
7
30
0
11
-55.625163
21
7
31
0
39
0
210
0
220
0
230
1
0
LINE
5
125
100
AcDbEntity
8
SK2
62
256
6
ByLayer
370
13
48
1
60
0
100
AcDbLine
10
-53.625163
20
-7
30
0
11
-53.625163
21
38.230759
31
0
39
0
210
0
220
0
230
1
0
SOLID
5
126
100
AcDbEntity
8
SK2
62
256
6
ByLayer
370
13
48
1
60
0
100
AcDbTrace
10
-53.625163
20
-7
30
0
11
-54.085946
21
-3.500002
31
0
12
-53.164379
22
-3.499998
32
0
13
-53.625163
23
-7
33
0
39
0
210
0
220
0
230
1
0
SOLID
5
127
100
AcDbEntity
8
SK2
62
256
6
ByLayer
370
13
48
1
60
0
100
AcDbTrace
10
-53.625163
20
7
30
0
11
-53.164379
21
3.500002
31
0
12
-54.085946
22
3.499998
32
0
13
-53.625163
23
7
33
0
39
0
210
0
220
0
230
1
0
ENDBLK
5
129
100
AcDbEntity
8
0
100
AcDbBlockEnd
0
BLOCK
5
133
100
AcDbEntity
8
0
100
AcDbBlockBegin
2
DimnDraft3D7
70
0
10
0
20
0
30
0
3
DimnDraft3D7
0
MTEXT
5
12C
100
AcDbEntity
8
2
62
256
6
ByLayer
370
13
48
1
60
0
100
AcDbMText
10
125.333343
20
23.992266
30
0
210
0
220
0
230
1
1
\W0.6440;12,100
40
3.5
41
0
44
1.084337
50
90
71
7
72
5
7
iso_b_vert
0
MTEXT
5
12D
100
AcDbEntity
8
2
62
256
6
ByLayer
370
13
48
1
60
0
100
AcDbMText
10
125.333343
20
18.76961
30
0
210
0
220
0
230
1
1
%%c
40
3.5
41
0
44
1.084337
50
90
71
7
72
5
7
iso_b_vert
0
LINE
5
12E
100
AcDbEntity
8
2
62
256
6
ByLayer
370
13
48
1
60
0
100
AcDbLine
10
114.5075
20
-6.05
30
0
11
129.083343
21
-6.05
31
0
39
0
210
0
220
0
230
1
0
LINE
5
12F
100
AcDbEntity
8
2
62
256
6
ByLayer
370
13
48
1
60
0
100
AcDbLine
10
114.5075
20
6.05
30
0
11
129.083343
21
6.05
31
0
39
0
210
0
220
0
230
1
0
LINE
5
130
100
AcDbEntity
8
2
62
256
6
ByLayer
370
13
48
1
60
0
100
AcDbLine
10
127.083343
20
-6.05
30
0
11
127.083343
21
34.630424
31
0
39
0
210
0
220
0
230
1
0
SOLID
5
131
100
AcDbEntity
8
2
62
256
6
ByLayer
370
13
48
1
60
0
100
AcDbTrace
10
127.083343
20
-6.05
30
0
11
126.622559
21
-2.550002
31
0
12
127.544126
22
-2.549998
32
0
13
127.083343
23
-6.05
33
0
39
0
210
0
220
0
230
1
0
SOLID
5
132
100
AcDbEntity
8
2
62
256
6
ByLayer
370
13
48
1
60
0
100
AcDbTrace
10
127.083343
20
6.05
30
0
11
127.544126
21
2.550002
31
0
12
126.622559
22
2.549998
32
0
13
127.083343
23
6.05
33
0
39
0
210
0
220
0
230
1
0
ENDBLK
5
134
100
AcDbEntity
8
0
100
AcDbBlockEnd
0
ENDSEC
0
SECTION
2
ENTITIES
0
ARC
5
9F
100
AcDbEntity
8
1
62
256
6
ByLayer
370
18
48
1
60
0
100
AcDbCircle
39
0
10
0
20
6.2
30
0
40
0.799999999999999
210
0
220
0
230
1
100
AcDbArc
50
21.373446
51
90
0
ARC
5
A0
100
AcDbEntity
8
1
62
256
6
ByLayer
370
18
48
1
60
0
100
AcDbCircle
39
0
10
0
20
-6.2
30
0
40
0.799999999999999
210
0
220
0
230
1
100
AcDbArc
50
270
51
338.626554
0
ARC
5
A1
100
AcDbEntity
8
1
62
256
6
ByLayer
370
18
48
1
60
0
100
AcDbCircle
39
0
10
-1.48996
20
6.783112
30
0
40
0.799999999999999
210
0
220
0
230
-1
100
AcDbArc
50
269.965623
51
338.626554
0
ARC
5
A2
100
AcDbEntity
8
1
62
256
6
ByLayer
370
18
48
1
60
0
100
AcDbCircle
39
0
10
-1.48996
20
-6.783112
30
0
40
0.799999999999999
210
0
220
0
230
-1
100
AcDbArc
50
21.373446
51
90.034377
0
ELLIPSE
5
A3
100
AcDbEntity
8
1
62
256
6
ByLayer
370
18
48
1
60
0
100
AcDbEllipse
10
10.25
20
5.972196
30
0
11
-0.25
21
3.06151588455594E-17
31
0
210
0
220
0
230
1
40
1
41
6.87796434393703E-05
42
1.58363613244155
0
ELLIPSE
5
A4
100
AcDbEntity
8
1
62
256
6
ByLayer
370
18
48
1
60
0
100
AcDbEllipse
10
10.25
20
-5.972196
30
0
11
-0.25
21
3.06151588455594E-17
31
0
210
0
220
0
230
1
40
1
41
-1.56554576516308
42
-6.87796430272555E-05
0
ELLIPSE
5
A5
100
AcDbEntity
8
1
62
256
6
ByLayer
370
18
48
1
60
0
100
AcDbEllipse
10
113.875314
20
-2.892691
30
0
11
0.931552888558816
21
2.53984768446623
31
0
210
0
220
0
230
-1
40
0.082138
41
0.755280950344978
42
1.5762836939549
0
ELLIPSE
5
A6
100
AcDbEntity
8
1
62
256
6
ByLayer
370
13
48
1
60
0
100
AcDbEllipse
10
114.201358
20
2.892691
30
0
11
4.07407819388348
21
-1.76033918705965
31
0
210
0
220
0
230
-1
40
0.449784
41
1.59086565321106
42
1.90923254732433
0
ELLIPSE
5
A7
100
AcDbEntity
8
1
62
256
6
ByLayer
370
18
48
1
60
0
100
AcDbEllipse
10
113.875314
20
2.892691
30
0
11
0.931552888583148
21
-2.53984768452238
31
0
210
0
220
0
230
-1
40
0.082138
41
-1.57628369393801
42
-0.755280950344457
0
ELLIPSE
5
A8
100
AcDbEntity
8
1
62
256
6
ByLayer
370
18
48
1
60
0
100
AcDbEllipse
10
115.020513
20
-0.045795
30
0
11
0.135658546080409
21
0.401200806349491
31
0
210
0
220
0
230
-1
40
0.065863
41
-2.3229277627693
42
-1.62145463037593
0
ELLIPSE
5
A9
100
AcDbEntity
8
1
62
256
6
ByLayer
370
18
48
1
60
0
100
AcDbEllipse
10
114.860134
20
0.125202
30
0
11
0.0868803724492508
21
0.290676908896169
31
0
210
0
220
0
230
-1
40
0.467765
41
1.66574690497933
42
2.36053717394045
0
ELLIPSE
5
AA
100
AcDbEntity
8
1
62
256
6
ByLayer
370
18
48
1
60
0
100
AcDbEllipse
10
115.000512
20
-0.001322
30
0
11
2.21842982036533
21
-6.0484744317813
31
0
210
0
220
0
230
-1
40
0.082138
41
-2.98840318619004
42
-2.89576019447748
0
ELLIPSE
5
AB
100
AcDbEntity
8
1
62
256
6
ByLayer
370
13
48
1
60
0
100
AcDbEllipse
10
114.031899
20
2.758399
30
0
11
4.02804804537424
21
-2.07077649882984
31
0
210
0
220
0
230
-1
40
0.482873
41
1.5394952492151
42
1.8508158248768
0
ELLIPSE
5
AC
100
AcDbEntity
8
1
62
256
6
ByLayer
370
18
48
1
60
0
100
AcDbEllipse
10
115.020513
20
0.045795
30
0
11
0.135658546036728
21
-0.40120080623819
31
0
210
0
220
0
230
-1
40
0.065863
41
1.6214546301667
42
2.32292776272911
0
ELLIPSE
5
AD
100
AcDbEntity
8
1
62
256
6
ByLayer
370
18
48
1
60
0
100
AcDbEllipse
10
115.000512
20
0.001322
30
0
11
2.21842983997887
21
6.04847448801096
31
0
210
0
220
0
230
-1
40
0.082138
41
2.895760195625
42
2.98840318690128
0
ELLIPSE
5
AE
100
AcDbEntity
8
1
62
256
6
ByLayer
370
13
48
1
60
0
100
AcDbEllipse
10
113.327987
20
0.883801
30
0
11
0.133113781883907
21
0.268850741253513
31
0
210
0
220
0
230
1
40
0.40558
41
0.884485917130955
42
2.28074931872629
0
POINT
5
6C
100
AcDbEntity
8
81
62
256
6
ByLayer
370
18
48
1
60
0
100
AcDbPoint
10
115
20
0
30
0
39
0
210
0
220
0
230
1
50
360
0
POINT
5
6E
100
AcDbEntity
8
80
62
256
6
ByLayer
370
18
48
1
60
0
100
AcDbPoint
10
0
20
0
30
0
39
0
210
0
220
0
230
1
50
360
0
POINT
5
70
100
AcDbEntity
8
SK2
62
256
6
ByLayer
370
18
48
1
60
1
100
AcDbPoint
10
-45
20
-7
30
0
39
0
210
0
220
0
230
1
50
360
0
POINT
5
72
100
AcDbEntity
8
SK2
62
256
6
ByLayer
370
18
48
1
60
1
100
AcDbPoint
10
-45
20
7
30
0
39
0
210
0
220
0
230
1
50
360
0
POINT
5
73
100
AcDbEntity
8
2
62
256
6
ByLayer
370
18
48
1
60
1
100
AcDbPoint
10
112.92
20
-6.05
30
0
39
0
210
0
220
0
230
1
50
360
0
POINT
5
75
100
AcDbEntity
8
2
62
256
6
ByLayer
370
18
48
1
60
1
100
AcDbPoint
10
112.92
20
6.05
30
0
39
0
210
0
220
0
230
1
50
360
0
SPLINE
5
AF
100
AcDbEntity
8
1
62
256
6
ByLayer
370
18
48
1
60
0
100
AcDbSpline
70
4
71
3
72
25
73
21
40
0
40
0
40
0
40
0
40
0.0572698098010919
40
0.117298357258398
40
0.161080005432239
40
0.19010461189498
40
0.233326037186049
40
0.279636938048399
40
0.347914942635389
40
0.419578587618254
40
0.477086344896246
40
0.525049648940289
40
0.572749797388095
40
0.629145499587669
40
0.688611769321395
40
0.746623203227839
40
0.803061674116289
40
0.878435186599858
40
0.96637588755858
40
1
40
1
40
1
40
1
41
1
10
10.2509152107507
20
-5.72212452878088
30
0
41
1
10
10.4983234341285
20
-5.72313040897851
30
0
41
1
10
11.0050597563752
20
-5.72494984762852
30
0
41
1
10
11.7009751708338
20
-5.72686250753324
30
0
41
1
10
12.2748182341982
20
-5.72781528209899
30
0
41
1
10
12.7760931327258
20
-5.72829798818236
30
0
41
1
10
13.2882889574625
20
-5.72849527794574
30
0
41
1
10
13.9700699997004
20
-5.72834182030303
30
0
41
1
10
14.7747263477035
20
-5.72804094927523
30
0
41
1
10
15.6277632012038
20
-5.72757861518622
30
0
41
1
10
16.3930204059067
20
-5.73142211684709
30
0
41
1
10
17.0547612504982
20
-5.73148300274329
30
0
41
1
10
17.7116937163177
20
-5.73173115432326
30
0
41
1
10
18.418324687223
20
-5.7319333800306
30
0
41
1
10
19.1695040371893
20
-5.73272099668878
30
0
41
1
10
19.9208628830667
20
-5.73476288857714
30
0
41
1
10
20.7409618621229
20
-5.73488632902078
30
0
41
1
10
21.6902546570085
20
-5.73357625511932
30
0
41
1
10
22.5414146769651
20
-5.73725670366863
30
0
41
1
10
23.0659801132911
20
-5.7367911533687
30
0
41
1
10
23.2110410605118
20
-5.73661249708036
30
0
0
SPLINE
5
B0
100
AcDbEntity
8
1
62
256
6
ByLayer
370
18
48
1
60
0
100
AcDbSpline
70
4
71
3
72
37
73
33
40
0
40
0
40
0
40
0
40
0.0549632999184428
40
0.105079186400147
40
0.146311507365364
40
0.177627048768
40
0.202749079473173
40
0.239858077791311
40
0.281639130716754
40
0.31722354453132
40
0.357852050827533
40
0.395332774544625
40
0.432608409266867
40
0.472651392329707
40
0.513689159435185
40
0.544103286168471
40
0.574598646271199
40
0.613351708863883
40
0.660945064219819
40
0.694301018354508
40
0.71732683070822
40
0.735065399238695
40
0.757596788565172
40
0.789334040442777
40
0.825124642609164
40
0.856162255674744
40
0.881712238836252
40
0.896292848870201
40
0.917082818921004
40
0.946673515220774
40
0.985048879908125
40
1
40
1
40
1
40
1
41
1
10
76.2901568132214
20
-5.76113231921263
30
0
41
1
10
76.6102291966923
20
-5.76078832943577
30
0
41
1
10
77.2223613319156
20
-5.76061935958177
30
0
41
1
10
78.0854411579884
20
-5.76163279139325
30
0
41
1
10
78.7938911337473
20
-5.76351017165368
30
0
41
1
10
79.3691264149607
20
-5.76382557168006
30
0
41
1
10
79.9169317083782
20
-5.76413018473138
30
0
41
1
10
80.5278063416185
20
-5.76398523233487
30
0
41
1
10
81.1995122310015
20
-5.7641296656582
30
0
41
1
10
81.8920408431104
20
-5.76600864049746
30
0
41
1
10
82.5592716477286
20
-5.76652827960874
30
0
41
1
10
83.2364664222827
20
-5.76620331823958
30
0
41
1
10
83.9102097310131
20
-5.76577415988351
30
0
41
1
10
84.6048424049099
20
-5.76671369329347
30
0
41
1
10
85.259184919355
20
-5.76955474157762
30
0
41
1
10
85.8575113372907
20
-5.7693740400623
30
0
41
1
10
86.4424246474405
20
-5.76897303539997
30
0
41
1
10
87.1281631118815
20
-5.7674939727568
30
0
41
1
10
87.8306896270085
20
-5.76823255366827
30
0
41
1
10
88.4409127065996
20
-5.77007764594046
30
0
41
1
10
88.8759218961041
20
-5.76936796279352
30
0
41
1
10
89.2474005645269
20
-5.76889835154358
30
0
41
1
10
89.6700024097981
20
-5.76817833733298
30
0
41
1
10
90.1985376603144
20
-5.7675919243847
30
0
41
1
10
90.7769903063085
20
-5.76796936129892
30
0
41
1
10
91.3191239303431
20
-5.77308393093176
30
0
41
1
10
91.7368286022521
20
-5.77447845685737
30
0
41
1
10
92.0935233044068
20
-5.77534826528785
30
0
41
1
10
92.4746890710691
20
-5.77586648189549
30
0
41
1
10
92.9955358486855
20
-5.77560811395617
30
0
41
1
10
93.4822086592603
20
-5.77449436141018
30
0
41
1
10
93.7951489626625
20
-5.77359152961719
30
0
41
1
10
93.8828869385404
20
-5.77331539508916
30
0
0
SPLINE
5
B1
100
AcDbEntity
8
1
62
256
6
ByLayer
370
18
48
1
60
0
100
AcDbSpline
70
4
71
3
72
33
73
29
40
0
40
0
40
0
40
0
40
0.0405000557685386
40
0.0894422331401961
40
0.130343842907486
40
0.170943936594358
40
0.220919748505029
40
0.277433387336377
40
0.312348496803391
40
0.337875465717395
40
0.359641977580393
40
0.39026129503948
40
0.430216223264459
40
0.47386724601005
40
0.512846422736485
40
0.557407004093366
40
0.607530261284744
40
0.667165788225289
40
0.711621871336598
40
0.749959382732627
40
0.79579847349604
40
0.82688828464815
40
0.860650541837512
40
0.897078873610309
40
0.934743881813998
40
0.964598269732668
40
0.98231040709172
40
1
40
1
40
1
40
1
41
1
10
58.9339634315798
20
5.75048246751635
30
0
41
1
10
58.7314134789212
20
5.75065843243183
30
0
41
1
10
58.2859922314194
20
5.75118747049308
30
0
41
1
10
57.6571654192449
20
5.75583853939037
30
0
41
1
10
57.0079692546692
20
5.75464957203434
30
0
41
1
10
56.355441211905
20
5.75155109305084
30
0
41
1
10
55.6247245239947
20
5.75153410897707
30
0
41
1
10
54.9224363421483
20
5.75260384589418
30
0
41
1
10
54.3415302051236
20
5.7532827013049
30
0
41
1
10
53.9332139125205
20
5.75285031796452
30
0
41
1
10
53.5462418973235
20
5.75081444344838
30
0
41
1
10
53.0876070524351
20
5.74955684584043
30
0
41
1
10
52.5202751028101
20
5.7494351968603
30
0
41
1
10
51.9114195226039
20
5.75014835540009
30
0
41
1
10
51.2796789610885
20
5.75071082882423
30
0
41
1
10
50.615811122753
20
5.74966934222735
30
0
41
1
10
49.8493724105533
20
5.74624872274634
30
0
41
1
10
49.083405600348
20
5.74755617233293
30
0
41
1
10
48.3759895964384
20
5.74765044475905
30
0
41
1
10
47.737087284766
20
5.74791935638339
30
0
41
1
10
47.164594183367
20
5.74515772347641
30
0
41
1
10
46.6148234562588
20
5.74421979852033
30
0
41
1
10
46.1117829541728
20
5.74419359360212
30
0
41
1
10
45.5760707842094
20
5.74447438783633
30
0
41
1
10
45.0598200431684
20
5.74454983189983
30
0
41
1
10
44.6364140250246
20
5.74417440383147
30
0
41
1
10
44.3124832365131
20
5.74354329340699
30
0
41
1
10
44.1369027898093
20
5.74309674831159
30
0
41
1
10
44.0491320037569
20
5.74290069538492
30
0
0
SPLINE
5
B2
100
AcDbEntity
8
1
62
256
6
ByLayer
370
18
48
1
60
0
100
AcDbSpline
70
4
71
3
72
34
73
30
40
0
40
0
40
0
40
0
40
0.0564177323110255
40
0.103877941771248
40
0.136858952374205
40
0.157321861974923
40
0.17930431147979
40
0.236269805133049
40
0.284304414748309
40
0.332161047712654
40
0.389671831190617
40
0.41761104481707
40
0.440762188642979
40
0.459124706341351
40
0.478223641882921
40
0.506129841370521
40
0.541305508635371
40
0.594493156852083
40
0.636831499900211
40
0.677068644426677
40
0.717553340344768
40
0.75805480287855
40
0.798204040691453
40
0.824876674312043
40
0.852147606968485
40
0.882959453976519
40
0.917560362017901
40
0.958621336510832
40
1
40
1
40
1
40
1
41
1
10
40.9069494015361
20
-5.7397735835392
30
0
41
1
10
41.2409801810091
20
-5.740174922666
30
0
41
1
10
41.8560654794426
20
-5.74083859758025
30
0
41
1
10
42.6667070001697
20
-5.74157249224839
30
0
41
1
10
43.2643037140413
20
-5.74195667557211
30
0
41
1
10
43.7110057417466
20
-5.74237647024796
30
0
41
1
10
44.2997855167312
20
-5.74344893704793
30
0
41
1
10
45.0518423414677
20
-5.74483222988758
30
0
41
1
10
45.9571890244919
20
-5.74428252270522
30
0
41
1
10
46.8657327928801
20
-5.74384961761655
30
0
41
1
10
47.6552768019446
20
-5.74782945935067
30
0
41
1
10
48.2984940614548
20
-5.74767846637036
30
0
41
1
10
48.7098398543114
20
-5.74763799689239
30
0
41
1
10
49.0688306511022
20
-5.74736990186869
30
0
41
1
10
49.4559884947125
20
-5.74711992248888
30
0
41
1
10
49.9427258031564
20
-5.74681209786502
30
0
41
1
10
50.6313590442451
20
-5.74942182153691
30
0
41
1
10
51.4054729679219
20
-5.75086335273843
30
0
41
1
10
52.209564065652
20
-5.74979698485115
30
0
41
1
10
52.9384182569317
20
-5.74910181625228
30
0
41
1
10
53.6563919355853
20
-5.75145915375822
30
0
41
1
10
54.3738437805615
20
-5.75371652742734
30
0
41
1
10
55.0094998199802
20
-5.75238283390689
30
0
41
1
10
55.5667750116663
20
-5.75172989001172
30
0
41
1
10
56.0687869896502
20
-5.75147554581056
30
0
41
1
10
56.6176149415317
20
-5.75261464699912
30
0
41
1
10
57.2468518313015
20
-5.75541616861915
30
0
41
1
10
57.9398150561325
20
-5.75409940565501
30
0
41
1
10
58.4279153977109
20
-5.75383064643955
30
0
41
1
10
58.6729880859319
20
-5.75352391616528
30
0
0
SPLINE
5
B3
100
AcDbEntity
8
1
62
256
6
ByLayer
370
18
48
1
60
0
100
AcDbSpline
70
4
71
2
72
6
73
3
40
0
40
0
40
0
40
1
40
1
40
1
41
1
10
111.717228018289
20
-5.78252626669178
30
0
41
1
10
112.307551743805
20
-5.77779757151328
30
0
41
1
10
112.897797986713
20
-5.78575286696918
30
0
0
SPLINE
5
B4
100
AcDbEntity
8
1
62
256
6
ByLayer
370
18
48
1
60
0
100
AcDbSpline
70
4
71
3
72
25
73
21
40
0
40
0
40
0
40
0
40
0.0916786374699519
40
0.19752548265361
40
0.272860225236935
40
0.35182954202364
40
0.42766891862623
40
0.464745780502145
40
0.501796010410345
40
0.540866787709248
40
0.58798117096177
40
0.643675347227413
40
0.700412940884057
40
0.743368215281134
40
0.776221048049826
40
0.810034376256167
40
0.839037762421567
40
0.882787401217663
40
0.94277206096102
40
1
40
1
40
1
40
1
41
1
10
23.2204531680687
20
5.73656335608669
30
0
41
1
10
22.8244043327093
20
5.73577154997264
30
0
41
1
10
21.97093199921
20
5.73443050809448
30
0
41
1
10
20.7910241308115
20
5.73492122022898
30
0
41
1
10
19.6663313035628
20
5.73428741689588
30
0
41
1
10
18.6713140570398
20
5.73184939792245
30
0
41
1
10
17.8417133394549
20
5.73179325272852
30
0
41
1
10
17.1933469719071
20
5.73153270292704
30
0
41
1
10
16.7039455111752
20
5.73153018882275
30
0
41
1
10
16.1711483916897
20
5.73023106739618
30
0
41
1
10
15.5577515387537
20
5.72779639205427
30
0
41
1
10
14.8679645806827
20
5.72799803317881
30
0
41
1
10
14.1961605137613
20
5.72822286742627
30
0
41
1
10
13.6231138967659
20
5.72845178542354
30
0
41
1
10
13.1491729771617
20
5.72844553598441
30
0
41
1
10
12.7355543516016
20
5.72825980010344
30
0
41
1
10
12.2748181632908
20
5.72781494793009
30
0
41
1
10
11.7009752023028
20
5.72686265583937
30
0
41
1
10
11.0050597466985
20
5.7249498020249
30
0
41
1
10
10.4983234341285
20
5.72313040897856
30
0
41
1
10
10.2509152107508
20
5.72212452878091
30
0
0
SPLINE
5
B5
100
AcDbEntity
8
1
62
256
6
ByLayer
370
18
48
1
60
0
100
AcDbSpline
70
4
71
3
72
11
73
7
40
0
40
0
40
0
40
0
40
0.0832173653642504
40
0.304029782767331
40
0.654848010559847
40
1
40
1
40
1
40
1
41
1
10
60.4054862306434
20
-1.58343302271391
30
0
41
1
10
60.4054601240298
20
-1.58344300804558
30
0
41
1
10
60.4108242452073
20
-1.58598370713048
30
0
41
1
10
60.4833584613608
20
-1.62038933197806
30
0
41
1
10
60.5972913850201
20
-1.67682151527325
30
0
41
1
10
60.6983005219496
20
-1.72833848847412
30
0
41
1
10
60.75171140594
20
-1.75593571924594
30
0
0
SPLINE
5
B6
100
AcDbEntity
8
1
62
256
6
ByLayer
370
18
48
1
60
0
100
AcDbSpline
70
4
71
3
72
27
73
23
40
0
40
0
40
0
40
0
40
0.0360063985896635
40
0.081333782443878
40
0.114529061852485
40
0.146045215409159
40
0.21231635178577
40
0.270999306325703
40
0.32236119542947
40
0.392190692052903
40
0.45471869911348
40
0.512985321274677
40
0.584270050045517
40
0.63135716410802
40
0.664581029222093
40
0.69224025050411
40
0.733176840082543
40
0.789061851941741
40
0.841080926741315
40
0.885313393696154
40
0.953708597067886
40
1
40
1
40
1
40
1
41
1
10
94.0064716749208
20
5.772966937517
30
0
41
1
10
93.8312586338625
20
5.77354756641665
30
0
41
1
10
93.4354850363127
20
5.77464524258374
30
0
41
1
10
92.8778346745356
20
5.77579316008769
30
0
41
1
10
92.3427072858262
20
5.77579466985034
30
0
41
1
10
91.705431843603
20
5.7749097923184
30
0
41
1
10
90.9437738072795
20
5.7687156729462
30
0
41
1
10
90.0856105202826
20
5.76736997053754
30
0
41
1
10
89.2100900729809
20
5.76891276278488
30
0
41
1
10
88.3158639691623
20
5.77079253331303
30
0
41
1
10
87.3880285198369
20
5.76666906142432
30
0
41
1
10
86.4531132062281
20
5.76912228594659
30
0
41
1
10
85.5933511622387
20
5.76984335326583
30
0
41
1
10
84.8554810012277
20
5.76818381984626
30
0
41
1
10
84.3299560879205
20
5.76609015996266
30
0
41
1
10
83.834361333041
20
5.76594326817101
30
0
41
1
10
83.2284875793717
20
5.76613673986719
30
0
41
1
10
82.5040240928188
20
5.76668267409266
30
0
41
1
10
81.76351966642
20
5.76551224037027
30
0
41
1
10
80.9621478094903
20
5.76388221853176
30
0
41
1
10
80.1886305119498
20
5.76408256701649
30
0
41
1
10
79.6303979059333
20
5.76407427311767
30
0
41
1
10
79.4050816131267
20
5.76395979312963
30
0
0
SPLINE
5
B7
100
AcDbEntity
8
1
62
256
6
ByLayer
370
18
48
1
60
0
100
AcDbSpline
70
4
71
3
72
18
73
14
40
0
40
0
40
0
40
0
40
0.008207721599625
40
0.008207721599625
40
0.175711916697818
40
0.175711916697818
40
0.343216111796012
40
0.343216111796012
40
0.678224501992398
40
0.678224501992398
40
0.845728697090593
40
0.845728697090593
40
1
40
1
40
1
40
1
41
1
10
22.9562550771523
20
0.0203691413758804
30
0
41
1
10
22.9823432121337
20
0.0068805556913105
30
0
41
1
10
23.0084329878609
20
-0.0066088599975558
30
0
41
1
10
23.567004137935
20
-0.295404014755576
30
0
41
1
10
24.100155753406
20
-0.571084647323744
30
0
41
1
10
25.1699883807127
20
-1.11887448940246
30
0
41
1
10
25.7070908012938
20
-1.39103641861914
30
0
41
1
10
27.3251144154134
20
-2.19379376413582
30
0
41
1
10
28.3979295122948
20
-2.70348325275768
30
0
41
1
10
30.0125298110823
20
-3.40534101946886
30
0
41
1
10
30.5527442911681
20
-3.62927427315805
30
0
41
1
10
31.5839220309268
20
-4.03161857160663
30
0
41
1
10
32.07633504074
20
-4.21262350909663
30
0
41
1
10
32.567612051947
20
-4.38083323936658
30
0
0
SPLINE
5
B8
100
AcDbEntity
8
1
62
256
6
ByLayer
370
13
48
1
60
0
100
AcDbSpline
70
4
71
3
72
20
73
16
40
0
40
0
40
0
40
0
40
0.012466491682228
40
0.012466491682228
40
0.328072426400336
40
0.328072426400336
40
0.485875393759391
40
0.485875393759391
40
0.564776877438919
40
0.564776877438919
40
0.643678361118448
40
0.643678361118448
40
0.959284295836563
40
0.959284295836563
40
1
40
1
40
1
40
1
41
1
10
32.5676120518988
20
-4.38083323935001
30
0
41
1
10
32.6097522011295
20
-4.39526172465253
30
0
41
1
10
32.6518839920775
20
-4.40959606727066
30
0
41
1
10
33.7604324359804
20
-4.78433103561801
30
0
41
1
10
34.8219818530089
20
-5.08357741570794
30
0
41
1
10
36.4201095146613
20
-5.42715404361772
30
0
41
1
10
36.9538267398623
20
-5.5240820622453
30
0
41
1
10
37.757639031113
20
-5.6414100673085
30
0
41
1
10
38.0261219434865
20
-5.67582877513885
30
0
41
1
10
38.5644245127113
20
-5.73508575555815
30
0
41
1
10
38.8343027187828
20
-5.75992147259043
30
0
41
1
10
40.1804500990992
20
-5.85901884839504
30
0
41
1
10
41.2529128847328
20
-5.85851922632096
30
0
41
1
10
42.4691002674694
20
-5.76822902136828
30
0
41
1
10
42.6082157190702
20
-5.75657658564697
30
0
41
1
10
42.7472696033683
20
-5.74361949105949
30
0
0
SPLINE
5
B9
100
AcDbEntity
8
1
62
256
6
ByLayer
370
18
48
1
60
0
100
AcDbSpline
70
4
71
3
72
20
73
16
40
0
40
0
40
0
40
0
40
0.339907342186406
40
0.339907342186406
40
0.51448739208736
40
0.51448739208736
40
0.601777417037833
40
0.601777417037833
40
0.689067441988304
40
0.689067441988304
40
0.863647491889252
40
0.863647491889252
40
0.950937516839723
40
0.950937516839723
40
1
40
1
40
1
40
1
41
1
10
93.7851176326281
20
0.0059840617743134
30
0
41
1
10
94.8201173989616
20
-0.533053080813687
30
0
41
1
10
95.8524972977963
20
-1.0713894784503
30
0
41
1
10
97.4237200993374
20
-1.86047522080568
30
0
41
1
10
97.9585145023832
20
-2.12349631882648
30
0
41
1
10
98.7647187258302
20
-2.50785377064946
30
0
41
1
10
99.0342639445975
20
-2.63431111338798
30
0
41
1
10
99.5720947731701
20
-2.88190378251809
30
0
41
1
10
99.8407323356188
20
-3.00321585119661
30
0
41
1
10
100.646231425331
20
-3.35904732943106
30
0
41
1
10
101.182669062478
20
-3.58547462660726
30
0
41
1
10
101.98817620154
20
-3.90626429204312
30
0
41
1
10
102.256826597946
20
-4.01004462609487
30
0
41
1
10
102.676947048512
20
-4.16685719879413
30
0
41
1
10
102.828275650131
20
-4.2222297128429
30
0
41
1
10
102.979502702847
20
-4.27641188009034
30
0
0
SPLINE
5
BA
100
AcDbEntity
8
1
62
256
6
ByLayer
370
13
48
1
60
0
100
AcDbSpline
70
4
71
3
72
20
73
16
40
0
40
0
40
0
40
0
40
0.0352097869345506
40
0.0352097869345506
40
0.35680652462303
40
0.35680652462303
40
0.678403262311508
40
0.678403262311508
40
0.758802446733632
40
0.758802446733632
40
0.839201631155755
40
0.839201631155755
40
0.919600815577878
40
0.919600815577878
40
1
40
1
40
1
40
1
41
1
10
102.97950270312
20
-4.27641188018825
30
0
41
1
10
103.09733282709
20
-4.31862847681487
30
0
41
1
10
103.215101301649
20
-4.36012242478086
30
0
41
1
10
104.40665462823
20
-4.77262431642725
30
0
41
1
10
105.47029141382
20
-5.08065771988728
30
0
41
1
10
107.594528277734
20
-5.55414081543964
30
0
41
1
10
108.655282202474
20
-5.71992348804477
30
0
41
1
10
109.991017510706
20
-5.83001353821288
30
0
41
1
10
110.258649758735
20
-5.8471760528403
30
0
41
1
10
110.795143741786
20
-5.87158661078703
30
0
41
1
10
111.064290586661
20
-5.87883485679907
30
0
41
1
10
111.602601944299
20
-5.88321085913938
30
0
41
1
10
111.871568378273
20
-5.88035005109947
30
0
41
1
10
112.409363825837
20
-5.86454630039006
30
0
41
1
10
112.678201137578
20
-5.85132207570726
30
0
41
1
10
112.94706396675
20
-5.83364178239103
30
0
0
SPLINE
5
BB
100
AcDbEntity
8
1
62
256
6
ByLayer
370
18
48
1
60
0
100
AcDbSpline
70
4
71
3
72
8
73
4
40
0
40
0
40
0
40
0
40
1
40
1
40
1
40
1
41
1
10
10.000000383676
20
-1.85139173550945
30
0
41
1
10
10.000000383676
20
-1.84527646160626
30
0
41
1
10
10.0000003836761
20
-1.83915653424316
30
0
41
1
10
10.0000003836761
20
-1.83303195918455
30
0
0
SPLINE
5
BC
100
AcDbEntity
8
1
62
256
6
ByLayer
370
18
48
1
60
0
100
AcDbSpline
70
4
71
3
72
96
73
92
40
0
40
0
40
0
40
0
40
0.0047017308736439
40
0.0047017308736439
40
0.0209139128888841
40
0.0209139128888841
40
0.053338276919363
40
0.053338276919363
40
0.0695504589346025
40
0.0695504589346025
40
0.0857626409498419
40
0.0857626409498419
40
0.101974822965081
40
0.101974822965081
40
0.118187004980321
40
0.118187004980321
40
0.1506113690108
40
0.1506113690108
40
0.183035733041279
40
0.183035733041279
40
0.215460097071758
40
0.215460097071758
40
0.231672279086997
40
0.231672279086997
40
0.247884461102237
40
0.247884461102237
40
0.264096643117476
40
0.264096643117476
40
0.280308825132715
40
0.280308825132715
40
0.312733189163196
40
0.312733189163196
40
0.328945371178436
40
0.328945371178436
40
0.345157553193677
40
0.345157553193677
40
0.377581917224157
40
0.377581917224157
40
0.393794099239398
40
0.393794099239398
40
0.410006281254639
40
0.410006281254639
40
0.442430645285121
40
0.442430645285121
40
0.458642827300362
40
0.458642827300362
40
0.474855009315603
40
0.474855009315603
40
0.507279373346085
40
0.507279373346085
40
0.539703737376567
40
0.539703737376567
40
0.555915919391808
40
0.555915919391808
40
0.572128101407048
40
0.572128101407048
40
0.604552465437529
40
0.604552465437529
40
0.620764647452769
40
0.620764647452769
40
0.636976829468009
40
0.636976829468009
40
0.66940119349849
40
0.66940119349849
40
0.68561337551373
40
0.68561337551373
40
0.70182555752897
40
0.70182555752897
40
0.734249921559448
40
0.734249921559448
40
0.750462103574688
40
0.750462103574688
40
0.766674285589927
40
0.766674285589927
40
0.799098649620407
40
0.799098649620407
40
0.831523013650887
40
0.831523013650887
40
0.863947377681367
40
0.863947377681367
40
0.896371741711847
40
0.896371741711847
40
0.912583923727086
40
0.912583923727086
40
0.928796105742326
40
0.928796105742326
40
0.961220469772805
40
0.961220469772805
40
0.993644833803284
40
0.993644833803284
40
1
40
1
40
1
40
1
41
1
10
101.962689403459
20
-4.37835921623821
30
0
41
1
10
101.895268252531
20
-4.40100966231634
30
0
41
1
10
101.827819379372
20
-4.42342182301667
30
0
41
1
10
101.527622956608
20
-4.52197687258658
30
0
41
1
10
101.294522329113
20
-4.59548445813766
30
0
41
1
10
100.596247242117
20
-4.80647578584509
30
0
41
1
10
100.131376401746
20
-4.93475598431428
30
0
41
1
10
99.435072047366
20
-5.10882682222098
30
0
41
1
10
99.2032614292579
20
-5.16389435903437
30
0
41
1
10
98.739060710622
20
-5.26665629795983
30
0
41
1
10
98.5067448161908
20
-5.31440228936356
30
0
41
1
10
98.041607390865
20
-5.40260363561458
30
0
41
1
10
97.8088101128072
20
-5.44326409575047
30
0
41
1
10
97.3426103547837
20
-5.51599402472263
30
0
41
1
10
97.1096918385589
20
-5.54836430213578
30
0
41
1
10
96.4117240995957
20
-5.63719982620114
30
0
41
1
10
95.947577138473
20
-5.68389673419838
30
0
41
1
10
95.0175733833791
20
-5.74911787566086
30
0
41
1
10
94.552253273781
20
-5.76811808282736
30
0
41
1
10
93.620978003834
20
-5.77672431771035
30
0
41
1
10
93.1553492191126
20
-5.76600070590402
30
0
41
1
10
92.4578191922714
20
-5.7260935435346
30
0
41
1
10
92.2253729736753
20
-5.70880817913607
30
0
41
1
10
91.7605716121299
20
-5.66647380595222
30
0
41
1
10
91.5282122627818
20
-5.64164498308969
30
0
41
1
10
91.0635149340423
20
-5.58286231522155
30
0
41
1
10
90.8311606572574
20
-5.54962374550138
30
0
41
1
10
90.3666219517849
20
-5.47823399210449
30
0
41
1
10
90.1341732048924
20
-5.43966441698333
30
0
41
1
10
89.4357090208969
20
-5.31429203821477
30
0
41
1
10
88.9694548323712
20
-5.21789221979716
30
0
41
1
10
88.2720472474868
20
-5.05241323807385
30
0
41
1
10
88.0397769160503
20
-4.99315162275559
30
0
41
1
10
87.5756140000914
20
-4.86819927767385
30
0
41
1
10
87.3436818535156
20
-4.80311701792476
30
0
41
1
10
86.6469768291159
20
-4.60001233150444
30
0
41
1
10
86.1817435244223
20
-4.45350894666177
30
0
41
1
10
85.4825745875453
20
-4.21507749618411
30
0
41
1
10
85.2496953524912
20
-4.13272661524058
30
0
41
1
10
84.7848148084543
20
-3.96157655952916
30
0
41
1
10
84.5528369751694
20
-3.87263710035091
30
0
41
1
10
83.8562758250899
20
-3.60194945367167
30
0
41
1
10
83.3915605596381
20
-3.41418649001358
30
0
41
1
10
82.6941534716083
20
-3.11918535824563
30
0
41
1
10
82.4616084491292
20
-3.01868751132892
30
0
41
1
10
81.9963629118402
20
-2.81301224218586
30
0
41
1
10
81.7636292217809
20
-2.70715794765042
30
0
41
1
10
81.0653909247883
20
-2.38597294942139
30
0
41
1
10
80.6000045765766
20
-2.16774098870121
30
0
41
1
10
79.6698345862905
20
-1.7214719073196
30
0
41
1
10
79.2051271493678
20
-1.49321739869151
30
0
41
1
10
78.5081799860965
20
-1.14288404543697
30
0
41
1
10
78.2755547239254
20
-1.02551791610401
30
0
41
1
10
77.8096611889476
20
-0.790176388708545
30
0
41
1
10
77.5763254388717
20
-0.672089105471372
30
0
41
1
10
76.8773703284367
20
-0.317298340213029
30
0
41
1
10
76.4121386455491
20
-0.079934707821991
30
0
41
1
10
75.7157485612897
20
0.277890779487876
30
0
41
1
10
75.4836266680867
20
0.39698078139142
30
0
41
1
10
75.018822089939
20
0.633794486260484
30
0
41
1
10
74.7862151652201
20
0.751656108054192
30
0
41
1
10
74.0878597518996
20
1.10372940779251
30
0
41
1
10
73.6209165087403
20
1.33677581110436
30
0
41
1
10
72.9233511103106
20
1.68112732801305
30
0
41
1
10
72.6912151663968
20
1.79503796212845
30
0
41
1
10
72.2266178941916
20
2.01909889579042
30
0
41
1
10
71.99423358922
20
2.12968470686815
30
0
41
1
10
71.2968956053908
20
2.45718821254167
30
0
41
1
10
70.831770102546
20
2.66983862459648
30
0
41
1
10
70.1338421228814
20
2.97975306351714
30
0
41
1
10
69.9011060230136
20
3.08177805175725
30
0
41
1
10
69.435468835597
20
3.28040086983552
30
0
41
1
10
69.202792095509
20
3.37687462023121
30
0
41
1
10
68.5047941649914
20
3.66030811640581
30
0
41
1
10
68.039708842649
20
3.84059872988701
30
0
41
1
10
67.1102781908617
20
4.18219049920614
30
0
41
1
10
66.6461938367482
20
4.34377260790785
30
0
41
1
10
65.714339488342
20
4.63896642638124
30
0
41
1
10
65.2476485844055
20
4.77601977918386
30
0
41
1
10
64.317158540952
20
5.02592358691689
30
0
41
1
10
63.8532550111983
20
5.13934568175497
30
0
41
1
10
63.1558058229854
20
5.28616844126512
30
0
41
1
10
62.9231288296898
20
5.330990807738
30
0
41
1
10
62.4574416142526
20
5.41513724264931
30
0
41
1
10
62.2244414055509
20
5.4543681002082
30
0
41
1
10
61.5249317158789
20
5.56188723201979
30
0
41
1
10
61.0600298216423
20
5.62064365998782
30
0
41
1
10
60.1302674893949
20
5.70581434223683
30
0
41
1
10
59.6652894492211
20
5.73085065779028
30
0
41
1
10
59.1089013431164
20
5.74677312906078
30
0
41
1
10
59.0177135553217
20
5.74887159377104
30
0
41
1
10
58.9265223376592
20
5.75044219797172
30
0
0
SPLINE
5
BD
100
AcDbEntity
8
1
62
256
6
ByLayer
370
18
48
1
60
0
100
AcDbSpline
70
4
71
3
72
36
73
32
40
0
40
0
40
0
40
0
40
0.0910019495488719
40
0.0910019495488719
40
0.1415018412406
40
0.1415018412406
40
0.192001732932329
40
0.192001732932329
40
0.293001516315785
40
0.293001516315785
40
0.343501408007515
40
0.343501408007515
40
0.394001299699245
40
0.394001299699245
40
0.444501191390975
40
0.444501191390975
40
0.495001083082704
40
0.495001083082704
40
0.545500974774433
40
0.545500974774433
40
0.596000866466163
40
0.596000866466163
40
0.646500758157893
40
0.646500758157893
40
0.697000649849622
40
0.697000649849622
40
0.798000433233082
40
0.798000433233082
40
0.89900021661654
40
0.89900021661654
40
1
40
1
40
1
40
1
41
1
10
31.1407132214148
20
-4.35965650222775
30
0
41
1
10
30.7212170507497
20
-4.49834916153938
30
0
41
1
10
30.3006343844198
20
-4.62836404103999
30
0
41
1
10
29.6474677676607
20
-4.81544119778121
30
0
41
1
10
29.4146277906667
20
-4.87924122888157
30
0
41
1
10
28.9496400493942
20
-5.00002905973687
30
0
41
1
10
28.7174910759779
20
-5.05658692555426
30
0
41
1
10
28.0202888771238
20
-5.2167043524621
30
0
41
1
10
27.554999559641
20
-5.31133088443616
30
0
41
1
10
26.8564954926717
20
-5.4329707765778
30
0
41
1
10
26.6235438997912
20
-5.47018182502998
30
0
41
1
10
26.1574743115644
20
-5.53766325530776
30
0
41
1
10
25.9246229911425
20
-5.56788573463899
30
0
41
1
10
25.4593557491158
20
-5.61952462884028
30
0
41
1
10
25.2267905151576
20
-5.64145239139756
30
0
41
1
10
24.7616732726875
20
-5.67934405758527
30
0
41
1
10
24.5291662280289
20
-5.69486866509251
30
0
41
1
10
24.0642747701609
20
-5.718858488156
30
0
41
1
10
23.8318768083888
20
-5.72732875399677
30
0
41
1
10
23.3672249590793
20
-5.73702544044625
30
0
41
1
10
23.1351168209864
20
-5.73841739205028
30
0
41
1
10
22.6704081522141
20
-5.73256408160091
30
0
41
1
10
22.4377321601707
20
-5.72523968618901
30
0
41
1
10
21.9716937169241
20
-5.70393378492844
30
0
41
1
10
21.7382176094599
20
-5.69007881984282
30
0
41
1
10
21.0389300343191
20
-5.63807614585934
30
0
41
1
10
20.5737685518106
20
-5.58984446485491
30
0
41
1
10
19.6454542353986
20
-5.46229660235667
30
0
41
1
10
19.1810446647135
20
-5.38369165075207
30
0
41
1
10
18.2509368471523
20
-5.20144982015134
30
0
41
1
10
17.7852461137611
20
-5.09749828426328
30
0
41
1
10
17.3190075142919
20
-4.97958211890179
30
0
0
SPLINE
5
BE
100
AcDbEntity
8
1
62
256
6
ByLayer
370
18
48
1
60
0
100
AcDbSpline
70
4
71
3
72
22
73
18
40
0
40
0
40
0
40
0
40
0.0005579471770113
40
0.0005579471770113
40
0.140046595453484
40
0.140046595453484
40
0.279535243729956
40
0.279535243729956
40
0.558512540282898
40
0.558512540282898
40
0.698001188559369
40
0.698001188559369
40
0.837489836835839
40
0.837489836835839
40
0.97697848511231
40
0.97697848511231
40
1
40
1
40
1
40
1
41
1
10
58.34549319487
20
0.0261715679636154
30
0
41
1
10
58.3476372131475
20
0.0250580305168171
30
0
41
1
10
58.3497812659561
20
0.0239444690488142
30
0
41
1
10
58.8879543296335
20
-0.255569157499508
30
0
41
1
10
59.4273702509709
20
-0.535898521062677
30
0
41
1
10
60.5046393748878
20
-1.08949221172364
30
0
41
1
10
61.0429489809407
20
-1.3635237037081
30
0
41
1
10
62.6596643367793
20
-2.17047607229767
30
0
41
1
10
63.7318128132402
20
-2.68244580595751
30
0
41
1
10
65.3442841923653
20
-3.3890622098468
30
0
41
1
10
65.8836273999317
20
-3.61453756680615
30
0
41
1
10
66.95970069171
20
-4.03787796656604
30
0
41
1
10
67.4966239433209
20
-4.23615917782763
30
0
41
1
10
68.5706075336721
20
-4.60295605878685
30
0
41
1
10
69.1078443141236
20
-4.77132654990865
30
0
41
1
10
69.7352917634574
20
-4.94816310024635
30
0
41
1
10
69.8242046043534
20
-4.97276247805252
30
0
41
1
10
69.9130989303433
20
-4.99689319965154
30
0
0
SPLINE
5
BF
100
AcDbEntity
8
1
62
256
6
ByLayer
370
13
48
1
60
0
100
AcDbSpline
70
4
71
3
72
16
73
12
40
0
40
0
40
0
40
0
40
0.0649655358908029
40
0.0649655358908029
40
0.161941241405461
40
0.161941241405461
40
0.549844063464093
40
0.549844063464093
40
0.937746885522724
40
0.937746885522724
40
1
40
1
40
1
40
1
41
1
10
69.9130989300704
20
-4.99689319957747
30
0
41
1
10
70.0935124545079
20
-5.04586717494195
30
0
41
1
10
70.2738497163446
20
-5.09291076291615
30
0
41
1
10
70.7222345273043
20
-5.20501103380565
30
0
41
1
10
70.9900803123316
20
-5.26762759588772
30
0
41
1
10
72.3267800948858
20
-5.55779413910355
30
0
41
1
10
73.388935266958
20
-5.71605338166609
30
0
41
1
10
75.5143563244616
20
-5.87800183899819
30
0
41
1
10
76.5786905011254
20
-5.88181053652181
30
0
41
1
10
77.8251057294149
20
-5.79314465125026
30
0
41
1
10
77.9978903137174
20
-5.77881448851264
30
0
41
1
10
78.1707317828526
20
-5.76245928638815
30
0
0
SPLINE
5
C0
100
AcDbEntity
8
1
62
256
6
ByLayer
370
18
48
1
60
0
100
AcDbSpline
70
4
71
3
72
14
73
10
40
0
40
0
40
0
40
0
40
0.25
40
0.25
40
0.5
40
0.5
40
0.75
40
0.75
40
1
40
1
40
1
40
1
41
1
10
111.957674217196
20
1.46143147493393
30
0
41
1
10
111.946523032365
20
1.49035997917252
30
0
41
1
10
111.938684714746
20
1.52025018930217
30
0
41
1
10
111.933381764871
20
1.58301339139012
30
0
41
1
10
111.935916563032
20
1.61508800368449
30
0
41
1
10
111.96167038484
20
1.67413459162475
30
0
41
1
10
111.984222785959
20
1.69855709433182
30
0
41
1
10
112.039135053826
20
1.73285289860564
30
0
41
1
10
112.070075679992
20
1.74287497066953
30
0
41
1
10
112.101854550654
20
1.74863770571366
30
0
0
SPLINE
5
C1
100
AcDbEntity
8
1
62
256
6
ByLayer
370
18
48
1
60
0
100
AcDbSpline
70
4
71
3
72
24
73
20
40
0
40
0
40
0
40
0
40
0.124999999999995
40
0.124999999999995
40
0.187499999999995
40
0.187499999999995
40
0.249999999999994
40
0.249999999999994
40
0.49999999999999
40
0.49999999999999
40
0.56249999999999
40
0.56249999999999
40
0.624999999999991
40
0.624999999999991
40
0.749999999999994
40
0.749999999999994
40
0.874999999999997
40
0.874999999999997
40
1
40
1
40
1
40
1
41
1
10
112.895168647004
20
-5.78297661410269
30
0
41
1
10
112.811381932177
20
-5.78295027914135
30
0
41
1
10
112.731605119516
20
-5.77082510426246
30
0
41
1
10
112.618257390992
20
-5.7335759527389
30
0
41
1
10
112.581530289081
20
-5.71797494901537
30
0
41
1
10
112.510272820273
20
-5.68014486333712
30
0
41
1
10
112.475632070412
20
-5.65781619631048
30
0
41
1
10
112.310186319751
20
-5.53041447654164
30
0
41
1
10
112.201423736132
20
-5.37871467919683
30
0
41
1
10
112.096411610286
20
-5.12381070060889
30
0
41
1
10
112.07697623665
20
-5.06952375519549
30
0
41
1
10
112.04136377399
20
-4.95407556800072
30
0
41
1
10
112.025148999808
20
-4.89268092581227
30
0
41
1
10
111.982257839556
20
-4.70078291818015
30
0
41
1
10
111.961056357648
20
-4.56199088941148
30
0
41
1
10
111.933201307627
20
-4.26303543945897
30
0
41
1
10
111.926547101103
20
-4.10287295612201
30
0
41
1
10
111.928188948938
20
-3.76058553513457
30
0
41
1
10
111.936629748101
20
-3.57774353309739
30
0
41
1
10
111.952495268833
20
-3.38827159596281
30
0
0
SPLINE
5
C2
100
AcDbEntity
8
1
62
256
6
ByLayer
370
18
48
1
60
0
100
AcDbSpline
70
4
71
3
72
42
73
38
40
0
40
0
40
0
40
0
40
0.250000000000011
40
0.250000000000011
40
0.375000000000017
40
0.375000000000017
40
0.437500000000016
40
0.437500000000016
40
0.500000000000014
40
0.500000000000014
40
0.625000000000011
40
0.625000000000011
40
0.687500000000009
40
0.687500000000009
40
0.718750000000008
40
0.718750000000008
40
0.750000000000007
40
0.750000000000007
40
0.781250000000006
40
0.781250000000006
40
0.812500000000005
40
0.812500000000005
40
0.828125000000005
40
0.828125000000005
40
0.843750000000005
40
0.843750000000005
40
0.875000000000004
40
0.875000000000004
40
0.906250000000003
40
0.906250000000003
40
0.921875000000003
40
0.921875000000003
40
0.937500000000002
40
0.937500000000002
40
0.968750000000001
40
0.968750000000001
40
1
40
1
40
1
40
1
41
1
10
106.641348031375
20
2.48879414316443
30
0
41
1
10
107.141714965695
20
2.13534131673447
30
0
41
1
10
107.648903280795
20
1.81325127991161
30
0
41
1
10
108.423122213244
20
1.39189328644613
30
0
41
1
10
108.683414730908
20
1.26164544323797
30
0
41
1
10
109.077642769976
20
1.0836956416056
30
0
41
1
10
109.209686940725
20
1.02729778501262
30
0
41
1
10
109.475148931628
20
0.920817725310883
30
0
41
1
10
109.608341115856
20
0.870849599653468
30
0
41
1
10
110.005856015276
20
0.732684541572638
30
0
41
1
10
110.269400223379
20
0.6556223340082
30
0
41
1
10
110.662207226301
20
0.56579078947496
30
0
41
1
10
110.792724452242
20
0.540142863605183
30
0
41
1
10
110.987811417406
20
0.508743281638175
30
0
41
1
10
111.052751471719
20
0.499450750120729
30
0
41
1
10
111.182279104846
20
0.483352860525656
30
0
41
1
10
111.246847782256
20
0.476380553791501
30
0
41
1
10
111.373862942678
20
0.4701854222549
30
0
41
1
10
111.436393923432
20
0.470424636646158
30
0
41
1
10
111.557280007212
20
0.479315503070666
30
0
41
1
10
111.615845896756
20
0.487928910486858
30
0
41
1
10
111.699576029128
20
0.509994067022291
30
0
41
1
10
111.726539876868
20
0.519450025996008
30
0
41
1
10
111.778842569433
20
0.541970052919964
30
0
41
1
10
111.804368671318
20
0.555081349554797
30
0
41
1
10
111.876625726725
20
0.599628060803667
30
0
41
1
10
111.919305783913
20
0.636034184297898
30
0
41
1
10
111.9905615551
20
0.726076625525025
30
0
41
1
10
112.017580914969
20
0.778395820144397
30
0
41
1
10
112.043476088426
20
0.867163916034087
30
0
41
1
10
112.049751264072
20
0.898817622934729
30
0
41
1
10
112.057268690527
20
0.963989383753471
30
0
41
1
10
112.058581597242
20
0.997494678124724
30
0
41
1
10
112.055846089995
20
1.10051949962775
30
0
41
1
10
112.044955400162
20
1.17305068101294
30
0
41
1
10
112.009795361545
20
1.31691298717192
30
0
41
1
10
111.985555424572
20
1.38910179535472
30
0
41
1
10
111.957674217196
20
1.46143147493402
30
0
0
SPLINE
5
C3
100
AcDbEntity
8
1
62
256
6
ByLayer
370
18
48
1
60
0
100
AcDbSpline
70
4
71
3
72
20
73
16
40
0
40
0
40
0
40
0
40
0.250000000000015
40
0.250000000000015
40
0.50000000000003
40
0.50000000000003
40
0.625000000000022
40
0.625000000000022
40
0.750000000000015
40
0.750000000000015
40
0.875000000000007
40
0.875000000000007
40
0.937500000000004
40
0.937500000000004
40
1
40
1
40
1
40
1
41
1
10
112.101854550654
20
1.74863770571247
30
0
41
1
10
112.311077425492
20
1.78657788318725
30
0
41
1
10
112.518809879784
20
1.82969343257307
30
0
41
1
10
112.929165330289
20
1.93419687081061
30
0
41
1
10
113.131965322272
20
1.9948921373261
30
0
41
1
10
113.42809802416
20
2.11573403460065
30
0
41
1
10
113.525076729253
20
2.16101692759142
30
0
41
1
10
113.709890358284
20
2.26738980621428
30
0
41
1
10
113.797870212135
20
2.32836328605089
30
0
41
1
10
113.950876770739
20
2.4756439767566
30
0
41
1
10
114.016294654542
20
2.5640819528011
30
0
41
1
10
114.072073029952
20
2.71588218626795
30
0
41
1
10
114.083278421807
20
2.76808226134682
30
0
41
1
10
114.091320849006
20
2.875630092058
30
0
41
1
10
114.087951468221
20
2.93008210525346
30
0
41
1
10
114.078817976039
20
2.98314323499139
30
0
0
SPLINE
5
C4
100
AcDbEntity
8
1
62
256
6
ByLayer
370
18
48
1
60
0
100
AcDbSpline
70
4
71
3
72
20
73
16
40
0
40
0
40
0
40
0
40
0.125
40
0.125
40
0.25
40
0.25
40
0.5
40
0.5
40
0.625
40
0.625
40
0.75
40
0.75
40
0.875
40
0.875
40
1
40
1
40
1
40
1
41
1
10
114.078817976039
20
2.9831432349915
30
0
41
1
10
114.032939587957
20
3.10637476977036
30
0
41
1
10
113.986984499837
20
3.22937007121615
30
0
41
1
10
113.895069094756
20
3.47534456946895
30
0
41
1
10
113.849093683243
20
3.59827727560096
30
0
41
1
10
113.71106784135
20
3.96676860696172
30
0
41
1
10
113.618943656578
20
4.21210007134019
30
0
41
1
10
113.480311174715
20
4.57872297360615
30
0
41
1
10
113.433992333897
20
4.70059792994087
30
0
41
1
10
113.341260634434
20
4.944058271112
30
0
41
1
10
113.294876404273
20
5.06573183064256
30
0
41
1
10
113.20199760848
20
5.30873912045516
30
0
41
1
10
113.155547206927
20
5.42999585475283
30
0
41
1
10
113.062635262119
20
5.67117824002875
30
0
41
1
10
113.016167651657
20
5.79093207284788
30
0
41
1
10
112.969685661859
20
5.90965131049958
30
0
0
SPLINE
5
C5
100
AcDbEntity
8
1
62
256
6
ByLayer
370
18
48
1
60
0
100
AcDbSpline
70
4
71
3
72
16
73
12
40
0
40
0
40
0
40
0
40
0.0501144971806014
40
0.0501144971806014
40
0.164531603687256
40
0.164531603687256
40
0.278948710193911
40
0.278948710193911
40
0.73661713622051
40
0.73661713622051
40
1
40
1
40
1
40
1
41
1
10
111.708504481841
20
-5.78251552746559
30
0
41
1
10
111.590718121145
20
-5.78243202965757
30
0
41
1
10
111.472906195806
20
-5.78139711666029
30
0
41
1
10
111.086001656329
20
-5.77487547284787
30
0
41
1
10
110.817025197693
20
-5.76537417610535
30
0
41
1
10
110.280780044161
20
-5.7366643783339
30
0
41
1
10
110.013252920982
20
-5.71745302855362
30
0
41
1
10
108.677965116688
20
-5.59762965805965
30
0
41
1
10
107.617328753907
20
-5.42566397566648
30
0
41
1
10
105.944026596245
20
-5.0457247714715
30
0
41
1
10
105.332303804971
20
-4.88390231292107
30
0
41
1
10
104.718435602548
20
-4.70053591414387
30
0
0
SPLINE
5
C6
100
AcDbEntity
8
1
62
256
6
ByLayer
370
13
48
1
60
0
100
AcDbSpline
70
4
71
3
72
30
73
26
40
0
40
0
40
0
40
0
40
0.0904849969684134
40
0.0904849969684134
40
0.143772700983505
40
0.143772700983505
40
0.197060404998597
40
0.197060404998597
40
0.303635813028781
40
0.303635813028781
40
0.356923517043871
40
0.356923517043871
40
0.410211221058961
40
0.410211221058961
40
0.51678662908914
40
0.51678662908914
40
0.729937445149495
40
0.729937445149495
40
0.836512853179672
40
0.836512853179672
40
0.889800557194761
40
0.889800557194761
40
0.943088261209849
40
0.943088261209849
40
1
40
1
40
1
40
1
41
1
10
104.718435602543
20
-4.70053591414228
30
0
41
1
10
104.265612943007
20
-4.56527485967456
30
0
41
1
10
103.811622891883
20
-4.41829101044706
30
0
41
1
10
103.087371791428
20
-4.16707406261409
30
0
41
1
10
102.818015959286
20
-4.06999517683306
30
0
41
1
10
102.280363435982
20
-3.86943920912819
30
0
41
1
10
102.011828098707
20
-3.76588773565604
30
0
41
1
10
101.206643892908
20
-3.44613389089051
30
0
41
1
10
100.670391343382
20
-3.22086063076458
30
0
41
1
10
99.8651706461384
20
-2.86745772545379
30
0
41
1
10
99.5966263562965
20
-2.74707131908397
30
0
41
1
10
99.0589899885192
20
-2.50156450920969
30
0
41
1
10
98.7895679335565
20
-2.37628117827401
30
0
41
1
10
97.9837778227398
20
-1.99581500692471
30
0
41
1
10
97.4491521749917
20
-1.73582054512841
30
0
41
1
10
95.8500035991036
20
-0.942751542445222
30
0
41
1
10
94.7897509555725
20
-0.397456667356522
30
0
41
1
10
93.1948869027701
20
0.418891580200892
30
0
41
1
10
92.6625673906351
20
0.690838655167568
30
0
41
1
10
91.861383334705
20
1.09522124771047
30
0
41
1
10
91.5938507206866
20
1.22938678644309
30
0
41
1
10
91.0576196380748
20
1.49600963318406
30
0
41
1
10
90.7886355239238
20
1.62867136662376
30
0
41
1
10
90.2323584194333
20
1.89999973276923
30
0
41
1
10
89.9458458967764
20
2.0379519168944
30
0
41
1
10
89.659946168138
20
2.17347859232058
30
0
0
SPLINE
5
C7
100
AcDbEntity
8
1
62
256
6
ByLayer
370
18
48
1
60
0
100
AcDbSpline
70
4
71
3
72
16
73
12
40
0
40
0
40
0
40
0
40
0.249366375589556
40
0.249366375589556
40
0.364071509344937
40
0.364071509344937
40
0.478776643100317
40
0.478776643100317
40
0.708186910611081
40
0.708186910611081
40
1
40
1
40
1
40
1
41
1
10
40.8953672297578
20
-5.73972957917417
30
0
41
1
10
40.3114116146803
20
-5.73892158881509
30
0
41
1
10
39.7276053583583
20
-5.7150118197936
30
0
41
1
10
38.8734045383515
20
-5.64636034583637
30
0
41
1
10
38.6036455652352
20
-5.61980634427417
30
0
41
1
10
38.0655590957593
20
-5.55733020988441
30
0
41
1
10
37.7971606829322
20
-5.52141010332514
30
0
41
1
10
36.993568263018
20
-5.39991193086553
30
0
41
1
10
36.4599438507759
20
-5.30064252452897
30
0
41
1
10
35.2497564948563
20
-5.03604777843074
30
0
41
1
10
34.5737191939508
20
-4.8602293824471
30
0
41
1
10
33.897013688455
20
-4.65903642550987
30
0
0
SPLINE
5
C8
100
AcDbEntity
8
1
62
256
6
ByLayer
370
13
48
1
60
0
100
AcDbSpline
70
4
71
3
72
22
73
18
40
0
40
0
40
0
40
0
40
0.0763729550491223
40
0.0763729550491223
40
0.18128288876121
40
0.18128288876121
40
0.286192822473298
40
0.286192822473298
40
0.496012689897475
40
0.496012689897475
40
0.600922623609563
40
0.600922623609563
40
0.705832557321652
40
0.705832557321652
40
0.915652424745827
40
0.915652424745827
40
1
40
1
40
1
40
1
41
1
10
33.8970136883002
20
-4.6590364254638
30
0
41
1
10
33.5097286006436
20
-4.54389175568943
30
0
41
1
10
33.1222246503716
20
-4.42043594460043
30
0
41
1
10
32.2009403086101
20
-4.10869357284258
30
0
41
1
10
31.6665291204609
20
-3.91359877054089
30
0
41
1
10
30.5932264690058
20
-3.49633647708413
30
0
41
1
10
30.0532707341139
20
-3.27372584309285
30
0
41
1
10
28.439303301889
20
-2.57708501220347
30
0
41
1
10
27.3667604893541
20
-2.07270363917871
30
0
41
1
10
25.7494138671505
20
-1.28032912141777
30
0
41
1
10
25.2124851778494
20
-1.01204924789468
30
0
41
1
10
24.1428789791916
20
-0.472518605262764
30
0
41
1
10
23.6098001976015
20
-0.201253543717769
30
0
41
1
10
22.0124928324322
20
0.610503181165484
30
0
41
1
10
20.9504803102053
20
1.14958891830025
30
0
41
1
10
19.4530457624013
20
1.87742160244466
30
0
41
1
10
19.0227445755704
20
2.08298017963816
30
0
41
1
10
18.5908956325366
20
2.2841887405371
30
0
0
SPLINE
5
C9
100
AcDbEntity
8
1
62
256
6
ByLayer
370
18
48
1
60
0
100
AcDbSpline
70
4
71
3
72
60
73
56
40
0
40
0
40
0
40
0
40
0.0436090878997608
40
0.0436090878997608
40
0.0872181757995216
40
0.0872181757995216
40
0.130827263699282
40
0.130827263699282
40
0.174436351599043
40
0.174436351599043
40
0.218045439498804
40
0.218045439498804
40
0.261654527398565
40
0.261654527398565
40
0.348872703198086
40
0.348872703198086
40
0.370677247147966
40
0.370677247147966
40
0.392481791097846
40
0.392481791097846
40
0.436090878997606
40
0.436090878997606
40
0.457895422947486
40
0.457895422947486
40
0.479699966897366
40
0.479699966897366
40
0.523309054797124
40
0.523309054797124
40
0.566918142696882
40
0.566918142696882
40
0.588722686646761
40
0.588722686646761
40
0.61052723059664
40
0.61052723059664
40
0.654136318496401
40
0.654136318496401
40
0.675940862446279
40
0.675940862446279
40
0.697745406396159
40
0.697745406396159
40
0.784963582195677
40
0.784963582195677
40
0.806768126145556
40
0.806768126145556
40
0.828572670095435
40
0.828572670095435
40
0.872181757995193
40
0.872181757995193
40
0.893986301945073
40
0.893986301945073
40
0.915790845894953
40
0.915790845894953
40
0.959399933794712
40
0.959399933794712
40
1
40
1
40
1
40
1
41
1
10
112.883870792761
20
-6.00412666454275
30
0
41
1
10
112.349107209137
20
-6.0392106611902
30
0
41
1
10
111.813939057493
20
-6.05376388305632
30
0
41
1
10
110.742743252375
20
-6.04190208746377
30
0
41
1
10
110.208416292224
20
-6.015525243159
30
0
41
1
10
109.140247909249
20
-5.92266449406478
30
0
41
1
10
108.606410110641
20
-5.85616446920992
30
0
41
1
10
107.536837407611
20
-5.68380274298479
30
0
41
1
10
107.0006881299
20
-5.57777914697576
30
0
41
1
10
105.931811951374
20
-5.3295337597649
30
0
41
1
10
105.398115856538
20
-5.18721525993968
30
0
41
1
10
104.329813397239
20
-4.86851862487109
30
0
41
1
10
103.794613577904
20
-4.69196743846928
30
0
41
1
10
102.188077975661
20
-4.11585598452703
30
0
41
1
10
101.122452373144
20
-3.67277134235062
30
0
41
1
10
99.7849199919915
20
-3.06308359937626
30
0
41
1
10
99.5169045186755
20
-2.93822971797456
30
0
41
1
10
98.9813541703368
20
-2.68397725381439
30
0
41
1
10
98.713916961677
20
-2.55462391776158
30
0
41
1
10
97.9121604256835
20
-2.16068982841779
30
0
41
1
10
97.3783701060916
20
-1.89028175088751
30
0
41
1
10
96.5770901487671
20
-1.47593264499827
30
0
41
1
10
96.3098733054195
20
-1.33640364903138
30
0
41
1
10
95.7748548161005
20
-1.05512757814094
30
0
41
1
10
95.5068101394644
20
-0.913237005037615
30
0
41
1
10
94.7035500989244
20
-0.486184060112862
30
0
41
1
10
94.169276785468
20
-0.199708705815567
30
0
41
1
10
93.1008770081777
20
0.372437548431208
30
0
41
1
10
92.5667634840287
20
0.658132685940103
30
0
41
1
10
91.7639607437937
20
1.08280353859831
30
0
41
1
10
91.4958261894225
20
1.22381586933085
30
0
41
1
10
90.9603428717903
20
1.50324077466522
30
0
41
1
10
90.6929561998361
20
1.64169394536287
30
0
41
1
10
89.8912861122519
20
2.05225032894748
30
0
41
1
10
89.3574142341783
20
2.3194127751253
30
0
41
1
10
88.5557439796923
20
2.70736468724698
30
0
41
1
10
88.2883719968698
20
2.83454237064018
30
0
41
1
10
87.7531127692629
20
3.08423367392601
30
0
41
1
10
87.4849917656278
20
3.2068519214308
30
0
41
1
10
86.1463854843229
20
3.80474736808216
30
0
41
1
10
85.0801995084676
20
4.23522866280777
30
0
41
1
10
83.7418037353358
20
4.69749778703755
30
0
41
1
10
83.4736082093048
20
4.78620059613002
30
0
41
1
10
82.9381155851936
20
4.95503247387788
30
0
41
1
10
82.6706691562012
20
5.03522083600973
30
0
41
1
10
81.8687959982717
20
5.26271419095991
30
0
41
1
10
81.3348844412624
20
5.39698346179679
30
0
41
1
10
80.5330431805499
20
5.57055726075703
30
0
41
1
10
80.2656112250116
20
5.62378791860399
30
0
41
1
10
79.7301341435243
20
5.72073605871748
30
0
41
1
10
79.4619018490498
20
5.7644723898685
30
0
41
1
10
78.6586218029182
20
5.88067197133944
30
0
41
1
10
78.1243083455479
20
5.93832842496687
30
0
41
1
10
77.0926894336816
20
6.01074707151653
30
0
41
1
10
76.5952184297422
20
6.02815239112584
30
0
41
1
10
76.0967056528808
20
6.02787624828616
30
0
0
SPLINE
5
CA
100
AcDbEntity
8
1
62
256
6
ByLayer
370
18
48
1
60
0
100
AcDbSpline
70
4
71
3
72
44
73
40
40
0
40
0
40
0
40
0
40
0.003984057967798
40
0.003984057967798
40
0.0514133885407606
40
0.0514133885407606
40
0.0988427191137231
40
0.0988427191137231
40
0.146272049686686
40
0.146272049686686
40
0.24113071083261
40
0.24113071083261
40
0.335989371978535
40
0.335989371978535
40
0.383418702551497
40
0.383418702551497
40
0.430848033124459
40
0.430848033124459
40
0.47827736369742
40
0.47827736369742
40
0.525706694270383
40
0.525706694270383
40
0.573136024843344
40
0.573136024843344
40
0.620565355416306
40
0.620565355416306
40
0.667994685989269
40
0.667994685989269
40
0.71542401656223
40
0.71542401656223
40
0.810282677708154
40
0.810282677708154
40
0.857712008281115
40
0.857712008281115
40
0.905141338854077
40
0.905141338854077
40
0.952570669427039
40
0.952570669427039
40
1
40
1
40
1
40
1
41
1
10
44.0120530887674
20
-5.75024202535283
30
0
41
1
10
43.967011768287
20
-5.75718278447332
30
0
41
1
10
43.9219610636929
20
-5.7639871805122
30
0
41
1
10
43.3404618456272
20
-5.85002977353926
30
0
41
1
10
42.8050292814887
20
-5.90960225313705
30
0
41
1
10
41.7353860680972
20
-5.98841480077803
30
0
41
1
10
41.2008941109307
20
-6.0076779116697
30
0
41
1
10
40.1301412099937
20
-6.00551459227998
30
0
41
1
10
39.5930901535279
20
-5.98397768525138
30
0
41
1
10
37.9867276537511
20
-5.85899688599218
30
0
41
1
10
36.9192587445561
20
-5.69549048601505
30
0
41
1
10
34.7727818174956
20
-5.2170583896789
30
0
41
1
10
33.7053185385046
20
-4.90503691334916
30
0
41
1
10
32.0986901345098
20
-4.34298356120391
30
0
41
1
10
31.5615453674313
20
-4.13968750644713
30
0
41
1
10
30.490580044731
20
-3.70773293130796
30
0
41
1
10
29.9559305715508
20
-3.47885615812913
30
0
41
1
10
28.8859473789505
20
-2.99893757390839
30
0
41
1
10
28.3503572864709
20
-2.74777114969945
30
0
41
1
10
27.2771462633162
20
-2.22756041577253
30
0
41
1
10
26.7419405575323
20
-1.95975939582328
30
0
41
1
10
25.6719660315418
20
-1.41307249706719
30
0
41
1
10
25.1372334718281
20
-1.1341193593525
30
0
41
1
10
24.0657927314351
20
-0.56954095402557
30
0
41
1
10
23.5285428859942
20
-0.28373564715173
30
0
41
1
10
22.4574728447638
20
0.286056349101557
30
0
41
1
10
21.9228180006167
20
0.570651251734404
30
0
41
1
10
20.8525992825545
20
1.1342137910836
30
0
41
1
10
20.3165768112811
20
1.41344483712257
30
0
41
1
10
18.7068583410501
20
2.23488811578542
30
0
41
1
10
17.6391979098544
20
2.75659924580097
30
0
41
1
10
16.0313048837113
20
3.4754282865045
30
0
41
1
10
15.4942796092531
20
3.70487564141663
30
0
41
1
10
14.4224025840752
20
4.13564134499248
30
0
41
1
10
13.8867189820362
20
4.3373928658792
30
0
41
1
10
12.8136278089864
20
4.71064951237204
30
0
41
1
10
12.2767946358816
20
4.88188089113922
30
0
41
1
10
11.2047979601391
20
5.18960235719203
30
0
41
1
10
10.6689831231065
20
5.3263522505724
30
0
41
1
10
10.1324707363204
20
5.44499839247757
30
0
0
SPLINE
5
CB
100
AcDbEntity
8
1
62
256
6
ByLayer
370
18
48
1
60
0
100
AcDbSpline
70
4
71
3
72
20
73
16
40
0
40
0
40
0
40
0
40
0.125
40
0.125
40
0.25
40
0.25
40
0.500000000000001
40
0.500000000000001
40
0.625000000000001
40
0.625000000000001
40
0.75
40
0.75
40
0.875
40
0.875
40
1
40
1
40
1
40
1
41
1
10
114.078817976039
20
-2.98314323499136
30
0
41
1
10
114.032939587957
20
-3.10637476977021
30
0
41
1
10
113.986984499837
20
-3.22937007121601
30
0
41
1
10
113.895069094756
20
-3.4753445694688
30
0
41
1
10
113.849093683243
20
-3.59827727560082
30
0
41
1
10
113.71106784135
20
-3.96676860696158
30
0
41
1
10
113.618943656578
20
-4.21210007134007
30
0
41
1
10
113.480311174715
20
-4.57872297360606
30
0
41
1
10
113.433992333897
20
-4.70059792994078
30
0
41
1
10
113.341260634434
20
-4.94405827111191
30
0
41
1
10
113.294876404273
20
-5.06573183064251
30
0
41
1
10
113.20199760848
20
-5.30873912045513
30
0
41
1
10
113.155547206927
20
-5.4299958547528
30
0
41
1
10
113.062635262119
20
-5.67117824002872
30
0
41
1
10
113.016167651657
20
-5.79093207284785
30
0
41
1
10
112.969685661859
20
-5.90965131049956
30
0
0
SPLINE
5
CC
100
AcDbEntity
8
1
62
256
6
ByLayer
370
18
48
1
60
0
100
AcDbSpline
70
4
71
3
72
8
73
4
40
0
40
0
40
0
40
0
40
1
40
1
40
1
40
1
41
1
10
112.968111303225
20
-5.74711277595978
30
0
41
1
10
112.939580372652
20
-5.77096412932781
30
0
41
1
10
112.915243765592
20
-5.78298190691382
30
0
41
1
10
112.895168647009
20
-5.78297661410269
30
0
0
SPLINE
5
CD
100
AcDbEntity
8
1
62
256
6
ByLayer
370
18
48
1
60
0
100
AcDbSpline
70
4
71
3
72
67
73
63
40
0
40
0
40
0
40
0
40
0.124999999999997
40
0.124999999999997
40
0.249999999999995
40
0.249999999999995
40
0.374999999999992
40
0.374999999999992
40
0.49999999999999
40
0.49999999999999
40
0.562499999999989
40
0.562499999999989
40
0.593749999999988
40
0.593749999999988
40
0.624999999999988
40
0.624999999999988
40
0.687499999999987
40
0.687499999999987
40
0.703124999999988
40
0.703124999999988
40
0.710937499999988
40
0.714843749999987
40
0.714843749999987
40
0.718749999999987
40
0.718749999999987
40
0.722656249999987
40
0.722656249999987
40
0.724609374999987
40
0.724609374999987
40
0.726562499999987
40
0.726562499999987
40
0.734374999999988
40
0.734374999999988
40
0.749999999999989
40
0.749999999999989
40
0.78124999999999
40
0.78124999999999
40
0.78906249999999
40
0.78906249999999
40
0.79687499999999
40
0.79687499999999
40
0.812499999999991
40
0.812499999999991
40
0.828124999999992
40
0.828124999999992
40
0.843749999999992
40
0.843749999999992
40
0.851562499999993
40
0.851562499999993
40
0.859374999999993
40
0.859374999999993
40
0.874999999999994
40
0.874999999999994
40
0.906249999999996
40
0.906249999999996
40
0.921874999999997
40
0.921874999999997
40
0.937499999999997
40
0.937499999999997
40
0.968749999999999
40
0.968749999999999
40
1
40
1
40
1
40
1
41
1
10
24.8421752945285
20
-1.49291952390632
30
0
41
1
10
24.0117832397938
20
-1.06275395887096
30
0
41
1
10
23.1720585032016
20
-0.642355235692037
30
0
41
1
10
21.4661870172074
20
0.15929442487726
30
0
41
1
10
20.6086155275335
20
0.535962204737217
30
0
41
1
10
18.8755417850711
20
1.21945163000745
30
0
41
1
10
17.9999470813377
20
1.52606824591186
30
0
41
1
10
16.2233489778521
20
2.05338640291433
30
0
41
1
10
15.3223499950757
20
2.27415922821353
30
0
41
1
10
13.9482656802649
20
2.53527853187555
30
0
41
1
10
13.4864938806583
20
2.61070343866004
30
0
41
1
10
12.7878880033011
20
2.70594396032342
30
0
41
1
10
12.5538251880992
20
2.7347260587583
30
0
41
1
10
12.0854299127164
20
2.78605153021891
30
0
41
1
10
11.8509443820034
20
2.80862168997586
30
0
41
1
10
11.1466041574886
20
2.86703521692706
30
0
41
1
10
10.6758672250962
20
2.89361275272705
30
0
41
1
10
10.0858971544532
20
2.91096087232626
30
0
41
1
10
9.96786249909005
20
2.91363314990269
30
0
41
1
10
9.79080063842233
20
2.91643165252097
30
0
41
1
10
9.70226320602563
20
2.91752848836353
30
0
41
1
10
9.61371595113354
20
2.91816881948677
30
0
41
1
10
9.55468225689228
20
2.91849389918258
30
0
41
1
10
9.52507226053183
20
2.91948279588206
30
0
41
1
10
9.46650680526241
20
2.91522735781413
30
0
41
1
10
9.43685937943951
20
2.91025689314068
30
0
41
1
10
9.39630603157772
20
2.89609326360488
30
0
41
1
10
9.3837148603636
20
2.88975480237877
30
0
41
1
10
9.35930112812375
20
2.87572071259268
30
0
41
1
10
9.34711753091162
20
2.86864996150888
30
0
41
1
10
9.28635909492709
20
2.83304407908008
30
0
41
1
10
9.2383001225619
20
2.80377631448056
30
0
41
1
10
9.09591836822327
20
2.71338542671956
30
0
41
1
10
9.00311393068026
20
2.64948611078876
30
0
41
1
10
8.73569463591915
20
2.44673132128565
30
0
41
1
10
8.57188301091341
20
2.29752077228585
30
0
41
1
10
8.39457752973931
20
2.083580669041
30
0
41
1
10
8.36052080463497
20
2.0393884031545
30
0
41
1
10
8.29561716264581
20
1.94777369654494
30
0
41
1
10
8.2646550066695
20
1.90012745804478
30
0
41
1
10
8.17886961417011
20
1.75428139618907
30
0
41
1
10
8.13068274363775
20
1.65271253380078
30
0
41
1
10
8.05514846162018
20
1.43939060524488
30
0
41
1
10
8.02794183218515
20
1.32665751783679
30
0
41
1
10
7.99876262633208
20
1.10063883453665
30
0
41
1
10
7.99620951720519
20
0.986260070326239
30
0
41
1
10
8.00986025668496
20
0.812635316894188
30
0
41
1
10
8.01735894240571
20
0.75448245440549
30
0
41
1
10
8.03751149572869
20
0.639974449237002
30
0
41
1
10
8.05018273254851
20
0.583295105762176
30
0
41
1
10
8.09524366492167
20
0.414810647391533
30
0
41
1
10
8.13501001427704
20
0.303790254775265
30
0
41
1
10
8.2750603166771
20
-0.0179727381640191
30
0
41
1
10
8.39445553547597
20
-0.216911306141611
30
0
41
1
10
8.59753626619462
20
-0.500940691428582
30
0
41
1
10
8.66958591841959
20
-0.59336499322265
30
0
41
1
10
8.81831091473811
20
-0.771546639288289
30
0
41
1
10
8.89521141063472
20
-0.857646219202735
30
0
41
1
10
9.13201935289672
20
-1.10869671142535
30
0
41
1
10
9.29795559260103
20
-1.26648840602266
30
0
41
1
10
9.6411173445583
20
-1.56845933148017
30
0
41
1
10
9.81847514009493
20
-1.71263764766903
30
0
41
1
10
10.0000003836836
20
-1.85139173551539
30
0
0
SPLINE
5
CE
100
AcDbEntity
8
1
62
256
6
ByLayer
370
18
48
1
60
0
100
AcDbSpline
70
4
71
3
72
20
73
16
40
0
40
0
40
0
40
0
40
0.125
40
0.125
40
0.249999999999999
40
0.249999999999999
40
0.374999999999999
40
0.374999999999999
40
0.499999999999999
40
0.499999999999999
40
0.749999999999998
40
0.749999999999998
40
0.874999999999999
40
0.874999999999999
40
1
40
1
40
1
40
1
41
1
10
10.2518724956874
20
-1.71362596357906
30
0
41
1
10
10.5178197730739
20
-1.92734491193033
30
0
41
1
10
10.7918139406732
20
-2.12488454199576
30
0
41
1
10
11.3504777808709
20
-2.49739104696061
30
0
41
1
10
11.6352298066482
20
-2.67220633200131
30
0
41
1
10
12.2129745208105
20
-3.00368448088668
30
0
41
1
10
12.5066504179432
20
-3.16064448239516
30
0
41
1
10
13.0976119014864
20
-3.45744869214187
30
0
41
1
10
13.3942707783587
20
-3.59700839861799
30
0
41
1
10
14.2873484053118
20
-3.99267851153516
30
0
41
1
10
14.8867878975133
20
-4.22582484505085
30
0
41
1
10
15.7927904876957
20
-4.53773946986118
30
0
41
1
10
16.0958931030518
20
-4.63602929926273
30
0
41
1
10
16.7050285442112
20
-4.81843157343891
30
0
41
1
10
17.0111030665932
20
-4.90221647767518
30
0
41
1
10
17.3189033254809
20
-4.97955303614009
30
0
0
SPLINE
5
CF
100
AcDbEntity
8
1
62
256
6
ByLayer
370
18
48
1
60
0
100
AcDbSpline
70
4
71
3
72
16
73
12
40
0
40
0
40
0
40
0
40
0.239614924006099
40
0.239614924006099
40
0.663698736885931
40
0.663698736885931
40
0.76971969010589
40
0.76971969010589
40
0.875740643325851
40
0.875740643325851
40
1
40
1
40
1
40
1
41
1
10
76.2860725897613
20
-5.76110581976636
30
0
41
1
10
75.6832578463792
20
-5.75998341884449
30
0
41
1
10
75.0823516547212
20
-5.73412926460892
30
0
41
1
10
73.4192888763882
20
-5.59568484595158
30
0
41
1
10
72.3571363613358
20
-5.43135020123469
30
0
41
1
10
71.0206354079354
20
-5.13593441787128
30
0
41
1
10
70.7528431348921
20
-5.07237602324156
30
0
41
1
10
70.2159653367611
20
-4.93646053969422
30
0
41
1
10
69.9465244383946
20
-4.86399915247407
30
0
41
1
10
69.3619025513691
20
-4.69788737798026
30
0
41
1
10
69.0468763050509
20
-4.60272168564026
30
0
41
1
10
68.732078841808
20
-4.50233850286369
30
0
0
SPLINE
5
D0
100
AcDbEntity
8
1
62
256
6
ByLayer
370
13
48
1
60
0
100
AcDbSpline
70
4
71
3
72
22
73
18
40
0
40
0
40
0
40
0
40
0.0458762549426819
40
0.0458762549426819
40
0.156691998822126
40
0.156691998822126
40
0.267507742701571
40
0.267507742701571
40
0.489139230460457
40
0.489139230460457
40
0.599954974339901
40
0.599954974339901
40
0.710770718219344
40
0.710770718219344
40
0.93240220597823
40
0.93240220597823
40
1
40
1
40
1
40
1
41
1
10
68.7320788422498
20
-4.50233850300458
30
0
41
1
10
68.5096913718716
20
-4.43142318540603
30
0
41
1
10
68.2874180793998
20
-4.35790399453737
30
0
41
1
10
67.528376126138
20
-4.09828130677602
30
0
41
1
10
66.9916316597576
20
-3.90024552351525
30
0
41
1
10
65.9159226920928
20
-3.47837946759671
30
0
41
1
10
65.3768243802147
20
-3.25416560945453
30
0
41
1
10
63.7649672666234
20
-2.55261785961414
30
0
41
1
10
62.6930836461631
20
-2.04582339395955
30
0
41
1
10
61.077002031843
20
-1.24918454012842
30
0
41
1
10
60.5389529810067
20
-0.978999343057836
30
0
41
1
10
59.4620915088211
20
-0.433886623217774
30
0
41
1
10
58.9229383721715
20
-0.158192245215105
30
0
41
1
10
57.3154057702819
20
0.662454442254102
30
0
41
1
10
56.2520617105582
20
1.20245619227137
30
0
41
1
10
54.864822999974
20
1.87789919296262
30
0
41
1
10
54.5405661668411
20
2.03354198023828
30
0
41
1
10
54.2160476867479
20
2.18653780394482
30
0
0
SPLINE
5
D1
100
AcDbEntity
8
1
62
256
6
ByLayer
370
18
48
1
60
0
100
AcDbSpline
70
4
71
3
72
108
73
104
40
0
40
0
40
0
40
0
40
0.0088301455658707
40
0.0088301455658707
40
0.0249420062646774
40
0.0249420062646774
40
0.0410538669634841
40
0.0410538669634841
40
0.0571657276622908
40
0.0571657276622908
40
0.0732775883610975
40
0.0732775883610975
40
0.0893894490599041
40
0.0893894490599041
40
0.121613170457518
40
0.121613170457518
40
0.137725031156325
40
0.137725031156325
40
0.153836891855132
40
0.153836891855132
40
0.186060613252747
40
0.186060613252747
40
0.202172473951553
40
0.202172473951553
40
0.218284334650361
40
0.218284334650361
40
0.250508056047974
40
0.250508056047974
40
0.266619916746781
40
0.266619916746781
40
0.282731777445588
40
0.282731777445588
40
0.314955498843202
40
0.314955498843202
40
0.331067359542009
40
0.331067359542009
40
0.347179220240816
40
0.347179220240816
40
0.37940294163843
40
0.37940294163843
40
0.395514802337236
40
0.395514802337236
40
0.411626663036043
40
0.411626663036043
40
0.42773852373485
40
0.42773852373485
40
0.443850384433656
40
0.443850384433656
40
0.459962245132463
40
0.459962245132463
40
0.47607410583127
40
0.47607410583127
40
0.492185966530076
40
0.492185966530076
40
0.508297827228883
40
0.508297827228883
40
0.540521548626495
40
0.540521548626495
40
0.556633409325301
40
0.556633409325301
40
0.572745270024107
40
0.572745270024107
40
0.604968991421719
40
0.604968991421719
40
0.621080852120526
40
0.621080852120526
40
0.637192712819332
40
0.637192712819332
40
0.669416434216944
40
0.669416434216944
40
0.685528294915751
40
0.685528294915751
40
0.701640155614558
40
0.701640155614558
40
0.717752016313365
40
0.717752016313365
40
0.733863877012171
40
0.733863877012171
40
0.749975737710978
40
0.749975737710978
40
0.766087598409785
40
0.766087598409785
40
0.782199459108591
40
0.782199459108591
40
0.798311319807398
40
0.798311319807398
40
0.814423180506205
40
0.814423180506205
40
0.830535041205011
40
0.830535041205011
40
0.862758762602625
40
0.862758762602625
40
0.894982484000238
40
0.894982484000238
40
0.911094344699045
40
0.911094344699045
40
0.927206205397852
40
0.927206205397852
40
0.959429926795466
40
0.959429926795466
40
0.99165364819308
40
0.99165364819308
40
1
40
1
40
1
40
1
41
1
10
23.2206584906943
20
5.73688178319176
30
0
41
1
10
23.3479659117331
20
5.73642474844652
30
0
41
1
10
23.4752833796655
20
5.73478803488939
30
0
41
1
10
23.8351451181066
20
5.72722775138669
30
0
41
1
10
24.0677408749874
20
5.71871699828574
30
0
41
1
10
24.5331512654689
20
5.69462505004202
30
0
41
1
10
24.7659796724965
20
5.67903804473144
30
0
41
1
10
25.2318587088771
20
5.64099377386538
30
0
41
1
10
25.4649458807973
20
5.61897602744577
30
0
41
1
10
25.9310118370608
20
5.56710294917426
30
0
41
1
10
26.1635349983734
20
5.5368422076231
30
0
41
1
10
26.6288049264133
20
5.46936222958286
30
0
41
1
10
26.8614327195668
20
5.43215560304199
30
0
41
1
10
27.5591844272936
20
5.31051153095112
30
0
41
1
10
28.0242702688768
20
5.21585733548272
30
0
41
1
10
28.7215604216559
20
5.05561826162642
30
0
41
1
10
28.9538063435786
20
4.99898822843957
30
0
41
1
10
29.4191846380247
20
4.87801530384175
30
0
41
1
10
29.652476931414
20
4.81404870665858
30
0
41
1
10
30.3519335907586
20
4.61358533232158
30
0
41
1
10
30.8175555660993
20
4.46840616099138
30
0
41
1
10
31.5149336359718
20
4.23446343905002
30
0
41
1
10
31.7471388049926
20
4.15386940038042
30
0
41
1
10
32.2115524101
20
3.98726696553322
30
0
41
1
10
32.4440279509997
20
3.9011506113433
30
0
41
1
10
33.1421058904038
20
3.6352333020765
30
0
41
1
10
33.6089616592378
20
3.44805389570624
30
0
41
1
10
34.3079897235889
20
3.15485053105567
30
0
41
1
10
34.5406767784095
20
3.05505831290003
30
0
41
1
10
35.0054745256564
20
2.85153160298802
30
0
41
1
10
35.2378428933854
20
2.74822580960262
30
0
41
1
10
35.9353139821587
20
2.43309050389334
30
0
41
1
10
36.4005392601939
20
2.21639597801868
30
0
41
1
10
37.0987948972596
20
1.88295417058896
30
0
41
1
10
37.3316005578143
20
1.77033753782481
30
0
41
1
10
37.7973211312245
20
1.54237405756328
30
0
41
1
10
38.0302662652232
20
1.42714923719467
30
0
41
1
10
38.7287291532917
20
1.08075959978569
30
0
41
1
10
39.1939250616554
20
0.847324959431859
30
0
41
1
10
39.8913399669239
20
0.494429148119821
30
0
41
1
10
40.1237303504514
20
0.376297550532769
30
0
41
1
10
40.5883490845363
20
0.139069340981933
30
0
41
1
10
40.8204984847541
20
0.0198257859826469
30
0
41
1
10
41.2856016659324
20
-0.217725928818396
30
0
41
1
10
41.5184554713694
20
-0.336258174597163
30
0
41
1
10
41.9848257386312
20
-0.572837239910768
30
0
41
1
10
42.2179758932159
20
-0.690664536732641
30
0
41
1
10
42.6836465216187
20
-0.925091824439392
30
0
41
1
10
42.916261562392
20
-1.04176480099662
30
0
41
1
10
43.3810545772857
20
-1.27415961776188
30
0
41
1
10
43.613123176697
20
-1.39008791720892
30
0
41
1
10
44.0775669495942
20
-1.61972718309335
30
0
41
1
10
44.3099353559943
20
-1.73352303101768
30
0
41
1
10
44.774974606847
20
-1.95810952442264
30
0
41
1
10
45.0076532398622
20
-2.06897838056849
30
0
41
1
10
45.7062533673915
20
-2.39746847143027
30
0
41
1
10
46.172911218142
20
-2.61143790938533
30
0
41
1
10
46.8704623134578
20
-2.92305164531928
30
0
41
1
10
47.1030508758717
20
-3.02499599373749
30
0
41
1
10
47.5681667617603
20
-3.22538827453195
30
0
41
1
10
47.8006892278191
20
-3.32305191920247
30
0
41
1
10
48.4983297437016
20
-3.60856488909656
30
0
41
1
10
48.9634694143553
20
-3.7897128211745
30
0
41
1
10
49.6614585479473
20
-4.04830400513023
30
0
41
1
10
49.894580619281
20
-4.13201747769168
30
0
41
1
10
50.3607648022201
20
-4.29436943526233
30
0
41
1
10
50.5937376353291
20
-4.37356296525394
30
0
41
1
10
51.2920758861579
20
-4.60042930507296
30
0
41
1
10
51.7570076526829
20
-4.73814364734127
30
0
41
1
10
52.453793646088
20
-4.92772188401727
30
0
41
1
10
52.686013733571
20
-4.98791446670145
30
0
41
1
10
53.1512055648024
20
-5.10204616479598
30
0
41
1
10
53.384036283663
20
-5.15611391214924
30
0
41
1
10
53.8500535475668
20
-5.25855857785263
30
0
41
1
10
54.0834269719876
20
-5.30648168235666
30
0
41
1
10
54.5492812672165
20
-5.3937670294475
30
0
41
1
10
54.7819098344697
20
-5.43373964810331
30
0
41
1
10
55.2466522309516
20
-5.5067397688702
30
0
41
1
10
55.4786968815577
20
-5.53977997895419
30
0
41
1
10
55.943264776072
20
-5.59882020451354
30
0
41
1
10
56.1756759488079
20
-5.62489557400556
30
0
41
1
10
56.6406101937168
20
-5.67084743371328
30
0
41
1
10
56.8731215481546
20
-5.69096270969214
30
0
41
1
10
57.3383943567518
20
-5.72256461205373
30
0
41
1
10
57.5711542737616
20
-5.73416910377128
30
0
41
1
10
58.0369354084934
20
-5.74971093769551
30
0
41
1
10
58.2697771677556
20
-5.75360556724181
30
0
41
1
10
58.7350811785815
20
-5.75414992187416
30
0
41
1
10
58.9677375621318
20
-5.75081530493571
30
0
41
1
10
59.6655331621576
20
-5.7308388541976
30
0
41
1
10
60.1304629302115
20
-5.7057985292542
30
0
41
1
10
61.0600154469514
20
-5.62064288603906
30
0
41
1
10
61.5245390632155
20
-5.56194092889513
30
0
41
1
10
62.2241107217812
20
-5.4544222528485
30
0
41
1
10
62.4572255999041
20
-5.41517490004659
30
0
41
1
10
62.9229977476431
20
-5.33101586721642
30
0
41
1
10
63.1557004842487
20
-5.28618946585348
30
0
41
1
10
63.8531510487169
20
-5.13936986788897
30
0
41
1
10
64.3169622765635
20
-5.02597008694536
30
0
41
1
10
65.2471023039865
20
-4.77617270113137
30
0
41
1
10
65.7132557779996
20
-4.63929329821949
30
0
41
1
10
66.3000895376763
20
-4.45341613320559
30
0
41
1
10
66.4206835512822
20
-4.41424053748997
30
0
41
1
10
66.5411874048923
20
-4.37421235202811
30
0
0
SPLINE
5
D2
100
AcDbEntity
8
1
62
256
6
ByLayer
370
18
48
1
60
0
100
AcDbSpline
70
4
71
3
72
32
73
28
40
0
40
0
40
0
40
0
40
0.0066228171885139
40
0.0066228171885139
40
0.116998059723129
40
0.116998059723129
40
0.227373302257744
40
0.227373302257744
40
0.28256092352505
40
0.28256092352505
40
0.337748544792354
40
0.337748544792354
40
0.392936166059659
40
0.392936166059659
40
0.448123787326964
40
0.448123787326964
40
0.558499029861574
40
0.558499029861574
40
0.61368665112888
40
0.61368665112888
40
0.668874272396184
40
0.668874272396184
40
0.779249514930789
40
0.779249514930789
40
0.889624757465394
40
0.889624757465394
40
1
40
1
40
1
40
1
41
1
10
93.9965601052049
20
5.77306673835128
30
0
41
1
10
94.0245023940444
20
5.77292453264158
30
0
41
1
10
94.0524509384647
20
5.77272812708378
30
0
41
1
10
94.546306916982
20
5.76830417060975
30
0
41
1
10
95.0127237874712
20
5.7493657396557
30
0
41
1
10
95.9431542320191
20
5.68429823591529
30
0
41
1
10
96.4071498986085
20
5.63769247386298
30
0
41
1
10
97.1043639368102
20
5.54908646656469
30
0
41
1
10
97.3369103975284
20
5.51680780934143
30
0
41
1
10
97.8023383752244
20
5.44434721860603
30
0
41
1
10
98.0352794948407
20
5.40374197628773
30
0
41
1
10
98.5015613076087
20
5.31544528861409
30
0
41
1
10
98.7345486295892
20
5.26761216834853
30
0
41
1
10
99.1996516287313
20
5.16473571739331
30
0
41
1
10
99.4317922352935
20
5.10962010431359
30
0
41
1
10
100.128748016633
20
4.93546582968955
30
0
41
1
10
100.593610326855
20
4.80721830786769
30
0
41
1
10
101.291197700536
20
4.59651588564182
30
0
41
1
10
101.523781099649
20
4.52320422320685
30
0
41
1
10
101.989053733852
20
4.37052165359415
30
0
41
1
10
102.221734674992
20
4.29097086190782
30
0
41
1
10
102.920359656614
20
4.04506879479001
30
0
41
1
10
103.38583561985
20
3.87240483019147
30
0
41
1
10
104.315833377823
20
3.50726547076735
30
0
41
1
10
104.780284154427
20
3.31473988218508
30
0
41
1
10
105.709135630228
20
2.91180821631431
30
0
41
1
10
106.175335929671
20
2.70362328038485
30
0
41
1
10
106.641348031364
20
2.48879414316963
30
0
0
SPLINE
5
D3
100
AcDbEntity
8
1
62
256
6
ByLayer
370
13
48
1
60
0
100
AcDbSpline
70
4
71
3
72
12
73
8
40
0
40
0
40
0
40
0
40
0.358268940163671
40
0.358268940163671
40
0.681126625834139
40
0.681126625834139
40
1
40
1
40
1
40
1
41
1
10
10.2505615339565
20
5.42029363591126
30
0
41
1
10
10.2506164498078
20
5.49198712586659
30
0
41
1
10
10.2506681829488
20
5.55112736602044
30
0
41
1
10
10.2507620022381
20
5.63974174625375
30
0
41
1
10
10.2508040938241
20
5.67102920453252
30
0
41
1
10
10.2508836982265
20
5.71209996188907
30
0
41
1
10
10.2509213671438
20
5.72224626537354
30
0
41
1
10
10.2509577062456
20
5.72219824390001
30
0
0
SPLINE
5
D4
100
AcDbEntity
8
1
62
256
6
ByLayer
370
18
48
1
60
0
100
AcDbSpline
70
4
71
3
72
26
73
22
40
0
40
0
40
0
40
0
40
0.124999999999995
40
0.124999999999995
40
0.187499999999995
40
0.187499999999995
40
0.249999999999995
40
0.249999999999995
40
0.312499999999994
40
0.312499999999994
40
0.374999999999994
40
0.374999999999994
40
0.5
40
0.5
40
0.562500000000002
40
0.562500000000002
40
0.625000000000005
40
0.625000000000005
40
0.750000000000004
40
0.750000000000004
40
1
40
1
40
1
40
1
41
1
10
106.641348031375
20
2.48879414316463
30
0
41
1
10
106.704994343768
20
2.18105815015511
30
0
41
1
10
106.809419061607
20
1.87178874667055
30
0
41
1
10
107.018193608177
20
1.40592409047378
30
0
41
1
10
107.095405353571
20
1.25290716396685
30
0
41
1
10
107.261824226478
20
0.952766326553274
30
0
41
1
10
107.351206389412
20
0.80527867927637
30
0
41
1
10
107.540765750537
20
0.514820207027611
30
0
41
1
10
107.641314481258
20
0.37136868506272
30
0
41
1
10
107.8503529427
20
0.0908268988732175
30
0
41
1
10
107.958337398606
20
-0.0456615295546214
30
0
41
1
10
108.291179419249
20
-0.445424410569245
30
0
41
1
10
108.524847038571
20
-0.69908225286315
30
0
41
1
10
108.889247711235
20
-1.0643973044196
30
0
41
1
10
109.013055210373
20
-1.18361409860773
30
0
41
1
10
109.264942997628
20
-1.41738372649806
30
0
41
1
10
109.393325057033
20
-1.53219046137849
30
0
41
1
10
109.7816234516
20
-1.86774643342642
30
0
41
1
10
110.044784922069
20
-2.0798838053318
30
0
41
1
10
110.845085862286
20
-2.68717249660688
30
0
41
1
10
111.392843018015
20
-3.05373577439841
30
0
41
1
10
111.952495268833
20
-3.38827159596283
30
0
0
SPLINE
5
D5
100
AcDbEntity
8
1
62
256
6
ByLayer
370
18
48
1
60
0
100
AcDbSpline
70
4
71
3
72
12
73
8
40
0
40
0
40
0
40
0
40
0.250000000000001
40
0.250000000000001
40
0.500000000000002
40
0.500000000000002
40
1
40
1
40
1
40
1
41
1
10
10.1324707363203
20
5.44499839247757
30
0
41
1
10
10.1124043496785
20
5.44943594026896
30
0
41
1
10
10.094227100413
20
5.45486678122404
30
0
41
1
10
10.0615486565502
20
5.46757377209178
30
0
41
1
10
10.0472610146136
20
5.47482258075462
30
0
41
1
10
10.0126123042011
20
5.4979981466366
30
0
41
1
10
10.000000383676
20
5.51567507864118
30
0
41
1
10
10.000000383676
20
5.53306369094329
30
0
0
SPLINE
5
D6
100
AcDbEntity
8
1
62
256
6
ByLayer
370
18
48
1
60
0
100
AcDbSpline
70
4
71
3
72
12
73
8
40
0
40
0
40
0
40
0
40
0.250000000000016
40
0.250000000000016
40
0.500000000000033
40
0.500000000000033
40
1
40
1
40
1
40
1
41
1
10
112.947063966779
20
-5.83364178238912
30
0
41
1
10
112.951905539744
20
-5.82056098050367
30
0
41
1
10
112.956535521688
20
-5.80727495037061
30
0
41
1
10
112.964212071588
20
-5.7833154492042
30
0
41
1
10
112.967240028829
20
-5.77267945423469
30
0
41
1
10
112.97280378822
20
-5.74870113328689
30
0
41
1
10
112.971787495975
20
-5.74403954383692
30
0
41
1
10
112.968111303225
20
-5.74711277595978
30
0
0
SPLINE
5
D7
100
AcDbEntity
8
1
62
256
6
ByLayer
370
18
48
1
60
0
100
AcDbSpline
70
4
71
3
72
38
73
34
40
0
40
0
40
0
40
0
40
0.0926701429416382
40
0.0926701429416382
40
0.185340285883276
40
0.185340285883276
40
0.231675357354096
40
0.231675357354096
40
0.278010428824915
40
0.278010428824915
40
0.370680571766553
40
0.370680571766553
40
0.417015643237372
40
0.417015643237372
40
0.463350714708191
40
0.463350714708191
40
0.556020857649831
40
0.556020857649831
40
0.60235592912065
40
0.60235592912065
40
0.648691000591469
40
0.648691000591469
40
0.741361143533107
40
0.741361143533107
40
0.787696215003927
40
0.787696215003927
40
0.834031286474747
40
0.834031286474747
40
0.926701429416385
40
0.926701429416385
40
0.973036500887205
40
0.973036500887205
40
1
40
1
40
1
40
1
41
1
10
24.8421929847261
20
-1.49289362947681
30
0
41
1
10
25.3015046927332
20
-1.73240850879941
30
0
41
1
10
25.7614068474731
20
-1.96444036357403
30
0
41
1
10
26.6805584523981
20
-2.41746775760967
30
0
41
1
10
27.1398035683293
20
-2.6384583839197
30
0
41
1
10
27.8272976270877
20
-2.9628733536523
30
0
41
1
10
28.0563849432645
20
-3.06955905201181
30
0
41
1
10
28.5159841839282
20
-3.27747087739959
30
0
41
1
10
28.7463942046712
20
-3.37918841153658
30
0
41
1
10
29.4375288654757
20
-3.67755665490341
30
0
41
1
10
29.8974657586374
20
-3.86719228774368
30
0
41
1
10
30.5851994502589
20
-4.13888979134725
30
0
41
1
10
30.8138861734937
20
-4.22755794490828
30
0
41
1
10
31.272301668437
20
-4.39817732378475
30
0
41
1
10
31.5018739056944
20
-4.48036760178201
30
0
41
1
10
32.1912488228113
20
-4.7182778673845
30
0
41
1
10
32.6523341552651
20
-4.86555497185057
30
0
41
1
10
33.3420880455763
20
-5.06925784444544
30
0
41
1
10
33.5713320388319
20
-5.13440252590237
30
0
41
1
10
34.0297234497816
20
-5.25785225551229
30
0
41
1
10
34.2591888090101
20
-5.31588441976049
30
0
41
1
10
34.9478995283864
20
-5.47963528538622
30
0
41
1
10
35.4074625382626
20
-5.57506755728991
30
0
41
1
10
36.0964017747858
20
-5.69822254257448
30
0
41
1
10
36.3259585260419
20
-5.73593406182968
30
0
41
1
10
36.7849359044445
20
-5.8044450876873
30
0
41
1
10
37.014910026067
20
-5.83497112555125
30
0
41
1
10
37.7046726856766
20
-5.91499248737898
30
0
41
1
10
38.1644868910344
20
-5.95340735990825
30
0
41
1
10
38.853070492602
20
-5.98918722589869
30
0
41
1
10
39.0824128188061
20
-5.99745103222131
30
0
41
1
10
39.4448129542247
20
-6.00460863278977
30
0
41
1
10
39.5780459884177
20
-6.00596167921907
30
0
41
1
10
39.7113854566463
20
-6.0060392394696
30
0
0
SPLINE
5
D8
100
AcDbEntity
8
1
62
256
6
ByLayer
370
18
48
1
60
0
100
AcDbSpline
70
4
71
3
72
98
73
94
40
0
40
0
40
0
40
0
40
0.0228403093757205
40
0.0228403093757205
40
0.0541284411054033
40
0.0541284411054033
40
0.0854165728350862
40
0.0854165728350862
40
0.116704704564769
40
0.116704704564769
40
0.132348770429611
40
0.132348770429611
40
0.147992836294452
40
0.147992836294452
40
0.179280968024135
40
0.179280968024135
40
0.194925033888977
40
0.194925033888977
40
0.210569099753819
40
0.210569099753819
40
0.241857231483501
40
0.241857231483501
40
0.257501297348343
40
0.257501297348343
40
0.273145363213185
40
0.273145363213185
40
0.304433494942867
40
0.304433494942867
40
0.32007756080771
40
0.32007756080771
40
0.335721626672552
40
0.335721626672552
40
0.367009758402237
40
0.367009758402237
40
0.38265382426708
40
0.38265382426708
40
0.398297890131922
40
0.398297890131922
40
0.429586021861608
40
0.429586021861608
40
0.44523008772645
40
0.44523008772645
40
0.460874153591292
40
0.460874153591292
40
0.492162285320979
40
0.492162285320979
40
0.507806351185822
40
0.507806351185822
40
0.523450417050666
40
0.523450417050666
40
0.554738548780352
40
0.554738548780352
40
0.586026680510039
40
0.586026680510039
40
0.601670746374882
40
0.601670746374882
40
0.617314812239726
40
0.617314812239726
40
0.648602943969412
40
0.648602943969412
40
0.664247009834255
40
0.664247009834255
40
0.679891075699099
40
0.679891075699099
40
0.711179207428786
40
0.711179207428786
40
0.726823273293629
40
0.726823273293629
40
0.742467339158472
40
0.742467339158472
40
0.773755470888159
40
0.773755470888159
40
0.805043602617845
40
0.805043602617845
40
0.836331734347532
40
0.836331734347532
40
0.851975800212376
40
0.851975800212376
40
0.86761986607722
40
0.86761986607722
40
0.898907997806908
40
0.898907997806908
40
0.914552063671753
40
0.914552063671753
40
0.930196129536597
40
0.930196129536597
40
0.961484261266285
40
0.961484261266285
40
0.977128327131129
40
0.977128327131129
40
0.992772392995972
40
0.992772392995972
40
1
40
1
40
1
40
1
41
1
10
66.5426364902125
20
4.36076133248605
30
0
41
1
10
66.8772710447779
20
4.48431692545731
30
0
41
1
10
67.2124277952523
20
4.60134315332641
30
0
41
1
10
68.0070160913138
20
4.86466647098973
30
0
41
1
10
68.4670905753708
20
5.00594501639637
30
0
41
1
10
69.3844676509546
20
5.26512870391983
30
0
41
1
10
69.8435266207929
20
5.38018733809548
30
0
41
1
10
70.7616312002933
20
5.58310604252733
30
0
41
1
10
71.2205029230909
20
5.67111437707865
30
0
41
1
10
71.9076483795394
20
5.78288630604473
30
0
41
1
10
72.1365763362034
20
5.81667606347787
30
0
41
1
10
72.5959791490581
20
5.87645880853503
30
0
41
1
10
72.8262807992304
20
5.90261461890864
30
0
41
1
10
73.5162048879209
20
5.96992476385375
30
0
41
1
10
73.9755145897885
20
6.00009146452908
30
0
41
1
10
74.6625714887851
20
6.0231721461017
30
0
41
1
10
74.8910527813257
20
6.02713341168186
30
0
41
1
10
75.3490399011316
20
6.02744702625225
30
0
41
1
10
75.5784466049323
20
6.02384542595991
30
0
41
1
10
76.2674543475008
20
6.001941772527
30
0
41
1
10
76.728562038304
20
5.97252230088867
30
0
41
1
10
77.4172012822948
20
5.90591503921996
30
0
41
1
10
77.6461532818167
20
5.87988501891616
30
0
41
1
10
78.1038210116973
20
5.82044455367728
30
0
41
1
10
78.3329670613498
20
5.78725347358014
30
0
41
1
10
79.020889718859
20
5.67734195025929
30
0
41
1
10
79.4801230530173
20
5.59033494677689
30
0
41
1
10
80.1688558368061
20
5.43835793091807
30
0
41
1
10
80.3984237495299
20
5.3840926891622
30
0
41
1
10
80.8573863060978
20
5.2680920674363
30
0
41
1
10
81.0866851302735
20
5.20686164856656
30
0
41
1
10
81.7752374449092
20
5.01487039032469
30
0
41
1
10
82.2344408331732
20
4.8752386260314
30
0
41
1
10
82.9223831421956
20
4.64731059070348
30
0
41
1
10
83.1515579424864
20
4.56824256704701
30
0
41
1
10
83.609492960029
20
4.40362218861097
30
0
41
1
10
83.8381866313536
20
4.31795255278044
30
0
41
1
10
84.526533730432
20
4.05492607042709
30
0
41
1
10
84.9875669331447
20
3.87019776672
30
0
41
1
10
85.676446508894
20
3.57936865180633
30
0
41
1
10
85.9058166887491
20
3.48007061738502
30
0
41
1
10
86.363894607213
20
3.27647911744788
30
0
41
1
10
86.5923637172515
20
3.17179308620308
30
0
41
1
10
87.2788755454311
20
2.85349209551782
30
0
41
1
10
87.7381143048807
20
2.63591922719976
30
0
41
1
10
88.4278770356738
20
2.2993117769667
30
0
41
1
10
88.6581170357922
20
2.18533759381768
30
0
41
1
10
89.1174475391105
20
1.95434129943555
30
0
41
1
10
89.3465652421073
20
1.83709768254317
30
0
41
1
10
90.0329991708852
20
1.48138652164221
30
0
41
1
10
90.4916418907044
20
1.24301966316699
30
0
41
1
10
91.4093599008639
20
0.761123384188721
30
0
41
1
10
91.8684022386164
20
0.517529829801305
30
0
41
1
10
92.5563854479275
20
0.146384062792237
30
0
41
1
10
92.7858250474688
20
0.0222098992867643
30
0
41
1
10
93.2448889740599
20
-0.223772745242172
30
0
41
1
10
93.4744621546577
20
-0.346126761523323
30
0
41
1
10
94.1629718789603
20
-0.711933919129621
30
0
41
1
10
94.6216936327683
20
-0.954151944857983
30
0
41
1
10
95.3084226492828
20
-1.31664322496456
30
0
41
1
10
95.5369427580471
20
-1.43762672770859
30
0
41
1
10
95.9953748008696
20
-1.67592101824107
30
0
41
1
10
96.2250891204083
20
-1.79359921189146
30
0
41
1
10
96.9153000732152
20
-2.14302429453087
30
0
41
1
10
97.3749657798757
20
-2.37019759917615
30
0
41
1
10
98.0621876935814
20
-2.70364934512674
30
0
41
1
10
98.2907056251281
20
-2.81392817546097
30
0
41
1
10
98.7480888952904
20
-3.03025848977253
30
0
41
1
10
98.9771894938886
20
-3.13593988121988
30
0
41
1
10
99.6652179946648
20
-3.44646853239394
30
0
41
1
10
100.12520890204
20
-3.64495872291246
30
0
41
1
10
101.04437836771
20
-4.0258508758435
30
0
41
1
10
101.501293410737
20
-4.20853284415017
30
0
41
1
10
102.417949113585
20
-4.54733326786379
30
0
41
1
10
102.876818014278
20
-4.70485367551723
30
0
41
1
10
103.564843546157
20
-4.92465643817658
30
0
41
1
10
103.794143040455
20
-4.99515721156908
30
0
41
1
10
104.252529346026
20
-5.13060944226615
30
0
41
1
10
104.481852294551
20
-5.19551177922887
30
0
41
1
10
105.170505951845
20
-5.37852097283564
30
0
41
1
10
105.629721647999
20
-5.48629000033651
30
0
41
1
10
106.317523771087
20
-5.62799184270798
30
0
41
1
10
106.546628229389
20
-5.67187378787187
30
0
41
1
10
107.004367176999
20
-5.75290086890627
30
0
41
1
10
107.232774892179
20
-5.79014514750514
30
0
41
1
10
107.919759536529
20
-5.89024586047225
30
0
41
1
10
108.380335795694
20
-5.94198040623692
30
0
41
1
10
109.069798935426
20
-5.9976086850146
30
0
41
1
10
109.299390236046
20
-6.01247384435487
30
0
41
1
10
109.757956633044
20
-6.03480085007357
30
0
41
1
10
109.986786037903
20
-6.04226706734323
30
0
41
1
10
110.32132695917
20
-6.04760281875119
30
0
41
1
10
110.42713648332
20
-6.04847935875813
30
0
41
1
10
110.533025907237
20
-6.04855058366581
30
0
0
SPLINE
5
D9
100
AcDbEntity
8
1
62
256
6
ByLayer
370
18
48
1
60
0
100
AcDbSpline
70
2053
71
3
72
60
73
56
40
0
40
0
40
0
40
0
40
0.0312500000000009
40
0.0312500000000009
40
0.0625000000000018
40
0.0625000000000018
40
0.0937500000000028
40
0.0937500000000028
40
0.125000000000004
40
0.125000000000004
40
0.156250000000005
40
0.156250000000005
40
0.187500000000006
40
0.187500000000006
40
0.250000000000007
40
0.250000000000007
40
0.281250000000007
40
0.281250000000007
40
0.312500000000007
40
0.312500000000007
40
0.375000000000006
40
0.375000000000006
40
0.437500000000006
40
0.437500000000006
40
0.468750000000005
40
0.468750000000005
40
0.500000000000005
40
0.500000000000005
40
0.531250000000005
40
0.531250000000005
40
0.562500000000004
40
0.562500000000004
40
0.593750000000004
40
0.593750000000004
40
0.625000000000004
40
0.625000000000004
40
0.656250000000003
40
0.656250000000003
40
0.687500000000003
40
0.687500000000003
40
0.750000000000002
40
0.750000000000002
40
0.781250000000002
40
0.781250000000002
40
0.812500000000002
40
0.812500000000002
40
0.843750000000002
40
0.843750000000002
40
0.875000000000001
40
0.875000000000001
40
0.906250000000001
40
0.906250000000001
40
0.937500000000001
40
0.937500000000001
40
1
40
1
40
1
40
1
41
1
10
113.294200623281
20
-3.489328013119
30
0
41
1
10
113.323093532096
20
-3.44808760184651
30
0
41
1
10
113.351389130697
20
-3.40389067905568
30
0
41
1
10
113.406681604496
20
-3.30906853108587
30
0
41
1
10
113.433979582702
20
-3.25781478438083
30
0
41
1
10
113.485331388412
20
-3.15093652814505
30
0
41
1
10
113.509323459485
20
-3.09559208629491
30
0
41
1
10
113.553414447868
20
-2.98049796484932
30
0
41
1
10
113.57296494759
20
-2.92199964814833
30
0
41
1
10
113.605433429825
20
-2.80703542430067
30
0
41
1
10
113.61869017547
20
-2.74906635728726
30
0
41
1
10
113.637050868901
20
-2.64077939644872
30
0
41
1
10
113.642415366266
20
-2.58943766953371
30
0
41
1
10
113.646954354351
20
-2.44883789190146
30
0
41
1
10
113.634535834537
20
-2.37500125330717
30
0
41
1
10
113.59981747716
20
-2.29665583994219
30
0
41
1
10
113.585450728979
20
-2.2756290274952
30
0
41
1
10
113.552863662221
20
-2.24391648417878
30
0
41
1
10
113.534539926784
20
-2.23297002310201
30
0
41
1
10
113.474026646907
20
-2.2137095153092
30
0
41
1
10
113.428031699848
20
-2.21911744303887
30
0
41
1
10
113.326786380985
20
-2.26209695070111
30
0
41
1
10
113.273359204798
20
-2.29885935920922
30
0
41
1
10
113.188942137331
20
-2.37729058534748
30
0
41
1
10
113.160256284103
20
-2.40729565926966
30
0
41
1
10
113.103266931622
20
-2.47371083807855
30
0
41
1
10
113.074751801468
20
-2.51030360603733
30
0
41
1
10
113.017676243019
20
-2.59098610804713
30
0
41
1
10
112.98879606456
20
-2.63563674138356
30
0
41
1
10
112.933037855106
20
-2.73059799586821
30
0
41
1
10
112.906096249981
20
-2.78088155302757
30
0
41
1
10
112.854390235427
20
-2.88795803219475
30
0
41
1
10
112.829906324788
20
-2.94432121656075
30
0
41
1
10
112.786019361423
20
-3.05872469121894
30
0
41
1
10
112.766113749925
20
-3.11823759127384
30
0
41
1
10
112.733551826821
20
-3.23383850731605
30
0
41
1
10
112.720543113525
20
-3.29087041697233
30
0
41
1
10
112.702039145396
20
-3.40037878392025
30
0
41
1
10
112.69677648568
20
-3.4511405722119
30
0
41
1
10
112.692115093354
20
-3.59229078542614
30
0
41
1
10
112.704399122412
20
-3.66696182797722
30
0
41
1
10
112.73873311594
20
-3.74611856231851
30
0
41
1
10
112.752918731322
20
-3.76743520877449
30
0
41
1
10
112.785477386672
20
-3.79993852985567
30
0
41
1
10
112.803712280755
20
-3.81111046109783
30
0
41
1
10
112.843679077707
20
-3.82437058297251
30
0
41
1
10
112.865536731732
20
-3.82638154472491
30
0
41
1
10
112.911355973168
20
-3.8217161436464
30
0
41
1
10
112.935439386281
20
-3.81511651917802
30
0
41
1
10
112.985867352635
20
-3.79369766261473
30
0
41
1
10
113.012363234101
20
-3.77873261975938
30
0
41
1
10
113.066161767786
20
-3.74136825519454
30
0
41
1
10
113.093610297565
20
-3.71894272691867
30
0
41
1
10
113.177632830086
20
-3.64023741071097
30
0
41
1
10
113.236414805651
20
-3.57180883566397
30
0
41
1
10
113.294200623281
20
-3.489328013119
30
0
0
SPLINE
5
DA
100
AcDbEntity
8
1
62
256
6
ByLayer
370
18
48
1
60
0
100
AcDbSpline
70
4
71
3
72
98
73
94
40
0
40
0
40
0
40
0
40
0.0132197117885993
40
0.0132197117885993
40
0.0445460701445157
40
0.0445460701445157
40
0.0602092493224739
40
0.0602092493224739
40
0.0758724285004322
40
0.0758724285004322
40
0.107198786856349
40
0.107198786856349
40
0.122861966034306
40
0.122861966034306
40
0.138525145212264
40
0.138525145212264
40
0.169851503568181
40
0.169851503568181
40
0.185514682746139
40
0.185514682746139
40
0.201177861924097
40
0.201177861924097
40
0.232504220280014
40
0.232504220280014
40
0.248167399457973
40
0.248167399457973
40
0.263830578635932
40
0.263830578635932
40
0.295156936991849
40
0.295156936991849
40
0.310820116169808
40
0.310820116169808
40
0.326483295347766
40
0.326483295347766
40
0.357809653703684
40
0.357809653703684
40
0.389136012059601
40
0.389136012059601
40
0.404799191237559
40
0.404799191237559
40
0.420462370415518
40
0.420462370415518
40
0.451788728771436
40
0.451788728771436
40
0.467451907949395
40
0.467451907949395
40
0.483115087127353
40
0.483115087127353
40
0.514441445483271
40
0.514441445483271
40
0.530104624661229
40
0.530104624661229
40
0.545767803839188
40
0.545767803839188
40
0.577094162195104
40
0.577094162195104
40
0.592757341373062
40
0.592757341373062
40
0.608420520551021
40
0.608420520551021
40
0.639746878906938
40
0.639746878906938
40
0.655410058084897
40
0.655410058084897
40
0.671073237262855
40
0.671073237262855
40
0.702399595618773
40
0.702399595618773
40
0.718062774796732
40
0.718062774796732
40
0.733725953974691
40
0.733725953974691
40
0.76505231233061
40
0.76505231233061
40
0.780715491508569
40
0.780715491508569
40
0.796378670686529
40
0.796378670686529
40
0.827705029042447
40
0.827705029042447
40
0.859031387398366
40
0.859031387398366
40
0.890357745754285
40
0.890357745754285
40
0.921684104110204
40
0.921684104110204
40
0.937347283288163
40
0.937347283288163
40
0.953010462466122
40
0.953010462466122
40
0.984336820822041
40
0.984336820822041
40
1
40
1
40
1
40
1
41
1
10
31.150389708997
20
4.35256589465519
30
0
41
1
10
31.3439338811505
20
4.42375055536573
30
0
41
1
10
31.5377215691834
20
4.49273899350243
30
0
41
1
10
32.1912488228113
20
4.7182778673845
30
0
41
1
10
32.6523341552651
20
4.86555497185057
30
0
41
1
10
33.3420880455763
20
5.06925784444547
30
0
41
1
10
33.5713320388319
20
5.13440252590237
30
0
41
1
10
34.0297234497816
20
5.25785225551229
30
0
41
1
10
34.2591888090101
20
5.31588441976049
30
0
41
1
10
34.9478995283864
20
5.47963528538622
30
0
41
1
10
35.4074625382626
20
5.57506755728994
30
0
41
1
10
36.0964017747859
20
5.69822254257448
30
0
41
1
10
36.325958526042
20
5.73593406182968
30
0
41
1
10
36.7849359044444
20
5.8044450876873
30
0
41
1
10
37.014910026067
20
5.83497112555125
30
0
41
1
10
37.7046726856766
20
5.91499248737898
30
0
41
1
10
38.1644868910344
20
5.95340735990825
30
0
41
1
10
38.853070492602
20
5.98918722589869
30
0
41
1
10
39.0824128188061
20
5.99745103222131
30
0
41
1
10
39.5405891800082
20
6.00650026554899
30
0
41
1
10
39.7694443060054
20
6.00724519442269
30
0
41
1
10
40.458132315601
20
5.99820868315717
30
0
41
1
10
40.919663008367
20
5.97727515837832
30
0
41
1
10
41.6095973785151
20
5.92379100201325
30
0
41
1
10
41.8392680801515
20
5.90227242829863
30
0
41
1
10
42.2978459637606
20
5.85169963605813
30
0
41
1
10
42.5265209980404
20
5.82251322718528
30
0
41
1
10
43.2137922741307
20
5.72460872437188
30
0
41
1
10
43.673310730356
20
5.64564377485857
30
0
41
1
10
44.363197450096
20
5.50621499412694
30
0
41
1
10
44.5933179922895
20
5.45621858637659
30
0
41
1
10
45.0534709633804
20
5.34898494759605
30
0
41
1
10
45.2829040091197
20
5.29172597179144
30
0
41
1
10
45.970502199438
20
5.10998094664166
30
0
41
1
10
46.4298010654689
20
4.97738721943546
30
0
41
1
10
47.3482654722433
20
4.68828368343696
30
0
41
1
10
47.8074502940636
20
4.53176981726605
30
0
41
1
10
48.4953430952457
20
4.27733131258591
30
0
41
1
10
48.7250755632618
20
4.18967475237508
30
0
41
1
10
49.1850623559754
20
4.01049159423024
30
0
41
1
10
49.4150372343674
20
3.9187615543249
30
0
41
1
10
50.1045905562414
20
3.6368135521567
30
0
41
1
10
50.5637889671597
20
3.43986458313293
30
0
41
1
10
51.2509109600996
20
3.12927095086735
30
0
41
1
10
51.4795887684513
20
3.02304369321664
30
0
41
1
10
51.9382964701634
20
2.80858995417458
30
0
41
1
10
52.1680799804794
20
2.69998077207609
30
0
41
1
10
52.8583190404501
20
2.36941097248567
30
0
41
1
10
53.3193439141675
20
2.14287751139602
30
0
41
1
10
54.0074055086289
20
1.79392132241898
30
0
41
1
10
54.2361175038482
20
1.67555675389244
30
0
41
1
10
54.6940927825479
20
1.4380415886948
30
0
41
1
10
54.9234207747394
20
1.31901863370282
30
0
41
1
10
55.6119494522079
20
0.96034073382188
30
0
41
1
10
56.071705533207
20
0.719112794770325
30
0
41
1
10
56.7614417643069
20
0.352136872996624
30
0
41
1
10
56.991270108877
20
0.228807530033748
30
0
41
1
10
57.4497673644199
20
-0.0182735297478587
30
0
41
1
10
57.6791569498747
20
-0.141102849734068
30
0
41
1
10
58.3676909563954
20
-0.507607213125425
30
0
41
1
10
58.8269905422591
20
-0.74970486699462
30
0
41
1
10
59.5152855058791
20
-1.1114962139338
30
0
41
1
10
59.7446119308754
20
-1.23185789681284
30
0
41
1
10
60.2029243563812
20
-1.47232709888405
30
0
41
1
10
60.4321442515407
20
-1.59200000708754
30
0
41
1
10
61.1220731567277
20
-1.94553286711101
30
0
41
1
10
61.5822697530075
20
-2.17485064982236
30
0
41
1
10
62.2708891531318
20
-2.51104982794323
30
0
41
1
10
62.500203951023
20
-2.62182484989825
30
0
41
1
10
62.9582406372641
20
-2.84097287892396
30
0
41
1
10
63.1867925353991
20
-2.94961125510685
30
0
41
1
10
63.8742868199334
20
-3.26737290370318
30
0
41
1
10
64.3344797442464
20
-3.46992346890403
30
0
41
1
10
65.0251100780943
20
-3.76151012385083
30
0
41
1
10
65.2549739861276
20
-3.85646185137281
30
0
41
1
10
65.7138556804074
20
-4.04204708546754
30
0
41
1
10
65.9426612547843
20
-4.13296080219271
30
0
41
1
10
66.6293638162763
20
-4.39694030593836
30
0
41
1
10
67.0884164505215
20
-4.5602462999191
30
0
41
1
10
68.0070160913138
20
-4.86466647098973
30
0
41
1
10
68.4670905753707
20
-5.00594501639645
30
0
41
1
10
69.3844676509547
20
-5.26512870391974
30
0
41
1
10
69.8435266207929
20
-5.38018733809548
30
0
41
1
10
70.7616312002932
20
-5.58310604252733
30
0
41
1
10
71.2205029230909
20
-5.67111437707868
30
0
41
1
10
71.9076483795394
20
-5.78288630604473
30
0
41
1
10
72.1365763362034
20
-5.8166760634779
30
0
41
1
10
72.5959791490581
20
-5.87645880853503
30
0
41
1
10
72.8262807992304
20
-5.90261461890864
30
0
41
1
10
73.5162048879209
20
-5.96992476385375
30
0
41
1
10
73.9755145897884
20
-6.00009146452908
30
0
41
1
10
74.6625714887849
20
-6.0231721461017
30
0
41
1
10
74.8910527813257
20
-6.02713341168186
30
0
41
1
10
75.1200463412287
20
-6.0272902189671
30
0
0
SPLINE
5
DB
100
AcDbEntity
8
1
62
256
6
ByLayer
370
18
48
1
60
0
100
AcDbSpline
70
4
71
3
72
30
73
26
40
0
40
0
40
0
40
0
40
0.0001249820323196
40
0.0001249820323196
40
0.125109359278279
40
0.125109359278279
40
0.187601547901259
40
0.187601547901259
40
0.250093736524239
40
0.250093736524239
40
0.375078113770198
40
0.375078113770198
40
0.437570302393178
40
0.437570302393178
40
0.500062491016157
40
0.500062491016157
40
0.625046868262122
40
0.625046868262122
40
0.687539056885102
40
0.687539056885102
40
0.750031245508081
40
0.750031245508081
40
0.875015622754041
40
0.875015622754041
40
1
40
1
40
1
40
1
41
1
10
101.958246308638
20
4.37742482506792
30
0
41
1
10
101.958704625069
20
4.37759424865851
30
0
41
1
10
101.959162942909
20
4.37776365897338
30
0
41
1
10
102.417949113585
20
4.54733326786379
30
0
41
1
10
102.876818014278
20
4.70485367551723
30
0
41
1
10
103.564843546157
20
4.92465643817658
30
0
41
1
10
103.794143040455
20
4.99515721156908
30
0
41
1
10
104.252529346027
20
5.13060944226618
30
0
41
1
10
104.481852294551
20
5.19551177922887
30
0
41
1
10
105.170505951845
20
5.37852097283564
30
0
41
1
10
105.629721648
20
5.48629000033651
30
0
41
1
10
106.317523771087
20
5.62799184270798
30
0
41
1
10
106.546628229389
20
5.67187378787187
30
0
41
1
10
107.004367177
20
5.75290086890627
30
0
41
1
10
107.232774892179
20
5.79014514750514
30
0
41
1
10
107.919759536529
20
5.89024586047228
30
0
41
1
10
108.380335795694
20
5.94198040623692
30
0
41
1
10
109.069798935426
20
5.9976086850146
30
0
41
1
10
109.299390236046
20
6.01247384435487
30
0
41
1
10
109.757956633044
20
6.03480085007357
30
0
41
1
10
109.986786037903
20
6.04226706734323
30
0
41
1
10
110.673257058646
20
6.05321591838833
30
0
41
1
10
111.132633669178
20
6.04534333210069
30
0
41
1
10
112.052837295262
20
5.99994883411708
30
0
41
1
10
112.512108815604
20
5.96246653550847
30
0
41
1
10
112.969685661858
20
5.90965131050035
30
0
0
SPLINE
5
DC
100
AcDbEntity
8
1
62
256
6
ByLayer
370
18
48
1
60
0
100
AcDbSpline
70
4
71
3
72
87
73
83
40
0
40
0
40
0
40
0
40
0.0396845034346051
40
0.0396845034346051
40
0.109409089577275
40
0.109409089577275
40
0.144271382648611
40
0.144271382648611
40
0.179133675719946
40
0.179133675719946
40
0.248858261862616
40
0.248858261862616
40
0.283720554933951
40
0.283720554933951
40
0.318582848005286
40
0.318582848005286
40
0.353445141076621
40
0.353445141076621
40
0.388307434147956
40
0.388307434147956
40
0.423169727219292
40
0.423169727219292
40
0.440600873754959
40
0.440600873754959
40
0.449316447022793
40
0.449316447022793
40
0.45367423365671
40
0.45421895698595
40
0.45421895698595
40
0.45449131865057
40
0.45449131865057
40
0.454763680315189
40
0.454763680315189
40
0.455853126973668
40
0.455853126973668
40
0.458032020290627
40
0.458032020290627
40
0.466747593558461
40
0.466747593558461
40
0.475463166826294
40
0.475463166826294
40
0.492894313361961
40
0.492894313361961
40
0.527756606433296
40
0.527756606433296
40
0.597481192575965
40
0.597481192575965
40
0.667205778718635
40
0.667205778718635
40
0.702068071789969
40
0.702068071789969
40
0.710783645057803
40
0.710783645057803
40
0.71514143169172
40
0.71514143169172
40
0.716230878350199
40
0.716230878350199
40
0.716775601679438
40
0.716775601679438
40
0.717320325008678
40
0.717320325008678
40
0.717456505840988
40
0.717456505840988
40
0.717592686673298
40
0.717865048337918
40
0.718409771667157
40
0.719499218325636
40
0.736930364861305
40
0.736930364861305
40
0.771792657932641
40
0.771792657932641
40
0.806654951003977
40
0.806654951003977
40
0.841517244075314
40
0.841517244075314
40
0.87637953714665
40
0.87637953714665
40
0.946104123289323
40
0.946104123289323
40
0.98096641636066
40
0.98096641636066
40
1
40
1
40
1
40
1
41
1
10
24.842192985118
20
-1.49289362967303
30
0
41
1
10
24.6236277574292
20
-1.38346891804196
30
0
41
1
10
24.4053174032605
20
-1.27736473321462
30
0
41
1
10
23.8035587148558
20
-0.996320245551914
30
0
41
1
10
23.4202213029493
20
-0.830081843442514
30
0
41
1
10
22.8417163585384
20
-0.609311560740537
30
0
41
1
10
22.6489320100336
20
-0.540812558297546
30
0
41
1
10
22.2672817691145
20
-0.416792858687359
30
0
41
1
10
22.0777509269251
20
-0.361014045550178
30
0
41
1
10
21.5116696400988
20
-0.213669070152662
30
0
41
1
10
21.1376478346282
20
-0.142155580891057
30
0
41
1
10
20.575517151103
20
-0.0789113444559177
30
0
41
1
10
20.3879513472282
20
-0.0651511568485432
30
0
41
1
10
20.0113767294444
20
-0.0527802058649058
30
0
41
1
10
19.8221421522932
20
-0.0542264470293219
30
0
41
1
10
19.4455724547351
20
-0.0723170245539393
30
0
41
1
10
19.2577007276659
20
-0.0889194222366143
30
0
41
1
10
18.8817374350305
20
-0.136879831255356
30
0
41
1
10
18.6934179256075
20
-0.168286874708542
30
0
41
1
10
18.3167331344314
20
-0.245285319018876
30
0
41
1
10
18.1285183373118
20
-0.290827175277002
30
0
41
1
10
17.8458670116324
20
-0.36920670589987
30
0
41
1
10
17.7516712299097
20
-0.396989927022304
30
0
41
1
10
17.6103278072685
20
-0.441084096114764
30
0
41
1
10
17.5632109153937
20
-0.456183640954947
30
0
41
1
10
17.4925348327889
20
-0.479422450869294
30
0
41
1
10
17.4660299886962
20
-0.488247915442514
30
0
41
1
10
17.4395246838892
20
-0.497196553745283
30
0
41
1
10
17.4351071265264
20
-0.49869027066299
30
0
41
1
10
17.4329368546631
20
-0.499103349072954
30
0
41
1
10
17.4336679837653
20
-0.50152327322175
30
0
41
1
10
17.4348532972216
20
-0.502556791776385
30
0
41
1
10
17.4403290534586
20
-0.507525362043566
30
0
41
1
10
17.445696027506
20
-0.510951532974616
30
0
41
1
10
17.4615374401647
20
-0.521186975824321
30
0
41
1
10
17.4725547790045
20
-0.527664188413894
30
0
41
1
10
17.5279229429778
20
-0.559674450847325
30
0
41
1
10
17.573623148433
20
-0.584038103615967
30
0
41
1
10
17.665114398294
20
-0.632657721056006
30
0
41
1
10
17.7111271082021
20
-0.656729163691693
30
0
41
1
10
17.8495158796367
20
-0.728688951821397
30
0
41
1
10
17.9422584146701
20
-0.776313911194336
30
0
41
1
10
18.2210168675819
20
-0.91899560940368
30
0
41
1
10
18.4076060562525
20
-1.01382571918293
30
0
41
1
10
18.9682356725735
20
-1.29895698779461
30
0
41
1
10
19.3429575800774
20
-1.49028336296436
30
0
41
1
10
20.0922422709354
20
-1.87829649705506
30
0
41
1
10
20.4670538256998
20
-2.07429005785158
30
0
41
1
10
21.0264438124852
20
-2.37636894315639
30
0
41
1
10
21.2127662520141
20
-2.47789745881784
30
0
41
1
10
21.4429884806182
20
-2.61016270736764
30
0
41
1
10
21.4889181737636
20
-2.63687801858805
30
0
41
1
10
21.5569689152697
20
-2.67840823696287
30
0
41
1
10
21.5795910582687
20
-2.69239229901115
30
0
41
1
10
21.6070116211949
20
-2.71121258201768
30
0
41
1
10
21.612452366746
20
-2.71504984864435
30
0
41
1
10
21.6203888371697
20
-2.72111124179531
30
0
41
1
10
21.6230021033639
20
-2.72318149351858
30
0
41
1
10
21.6280141595287
20
-2.72757847862116
30
0
41
1
10
21.6308367957122
20
-2.72973212834489
30
0
41
1
10
21.6324835496491
20
-2.73359229171689
30
0
41
1
10
21.6324614979341
20
-2.73459023043264
30
0
41
1
10
21.6311243599978
20
-2.73569742799865
30
0
41
1
10
21.6291186491738
20
-2.73735813495156
30
0
41
1
10
21.6244386301674
20
-2.74123248983008
30
0
41
1
10
21.6150785010202
20
-2.74897865760013
30
0
41
1
10
21.5214742057794
20
-2.82638977874706
30
0
41
1
10
21.4305326047099
20
-2.90100291166621
30
0
41
1
10
21.1736666761146
20
-3.10955669255137
30
0
41
1
10
21.0022171515878
20
-3.24583695843253
30
0
41
1
10
20.6598992619142
20
-3.50865848223378
30
0
41
1
10
20.4886910546122
20
-3.6354847193594
30
0
41
1
10
20.1441711977726
20
-3.87766654509718
30
0
41
1
10
19.9708617769272
20
-3.99302290052586
30
0
41
1
10
19.6198175753186
20
-4.20957608378828
30
0
41
1
10
19.4438356685762
20
-4.30963268173704
30
0
41
1
10
18.9137916621887
20
-4.58104057739638
30
0
41
1
10
18.5564631829656
20
-4.72397177440789
30
0
41
1
10
18.0032627364985
20
-4.87430736197547
30
0
41
1
10
17.8151698873658
20
-4.91386007450223
30
0
41
1
10
17.5246452034834
20
-4.95790372329785
30
0
41
1
10
17.4219049636007
20
-4.97024673365593
30
0
41
1
10
17.3189596229894
20
-4.97958646406488
30
0
0
SPLINE
5
DD
100
AcDbEntity
8
1
62
256
6
ByLayer
370
18
48
1
60
0
100
AcDbSpline
70
4
71
3
72
8
73
4
40
0
40
0
40
0
40
0
40
1
40
1
40
1
40
1
41
1
10
112.883870792762
20
6.00412666454275
30
0
41
1
10
112.421357854876
20
6.03447054520154
30
0
41
1
10
111.958061056852
20
6.04945595133009
30
0
41
1
10
111.495054327214
20
6.04911302111407
30
0
0
SPLINE
5
DE
100
AcDbEntity
8
1
62
256
6
ByLayer
370
18
48
1
60
0
100
AcDbSpline
70
4
71
3
72
52
73
48
40
0
40
0
40
0
40
0
40
0.0037391850423718
40
0.0037391850423718
40
0.0452881386594353
40
0.0452881386594353
40
0.0868370922764988
40
0.0868370922764988
40
0.128386045893562
40
0.128386045893562
40
0.169934999510626
40
0.169934999510626
40
0.211483953127689
40
0.211483953127689
40
0.294581860361815
40
0.294581860361815
40
0.377679767595941
40
0.377679767595941
40
0.419228721213005
40
0.419228721213005
40
0.460777674830068
40
0.460777674830068
40
0.502326628447132
40
0.502326628447132
40
0.543875582064195
40
0.543875582064195
40
0.585424535681259
40
0.585424535681259
40
0.626973489298322
40
0.626973489298322
40
0.668522442915386
40
0.668522442915386
40
0.710071396532449
40
0.710071396532449
40
0.793169303766576
40
0.793169303766576
40
0.83471825738364
40
0.83471825738364
40
0.876267211000703
40
0.876267211000703
40
0.897041687809234
40
0.897041687809234
40
0.917816164617766
40
0.917816164617766
40
0.959365118234829
40
0.959365118234829
40
1
40
1
40
1
40
1
41
1
10
79.338540166065
20
-5.78183863724308
30
0
41
1
10
79.2903596170422
20
-5.78912744195898
30
0
41
1
10
79.2421881140058
20
-5.79625563350135
30
0
41
1
10
78.6588833170372
20
-5.88063135270286
30
0
41
1
10
78.1247336182853
20
-5.93828901335158
30
0
41
1
10
77.0561599958403
20
-6.01332095370637
30
0
41
1
10
76.521556180768
20
-6.03064655533859
30
0
41
1
10
75.4493570114827
20
-6.02439571821637
30
0
41
1
10
74.9142800938637
20
-6.00080895169083
30
0
41
1
10
73.8455406369405
20
-5.91339977672615
30
0
41
1
10
73.3114043287641
20
-5.84963297736096
30
0
41
1
10
72.2412860999753
20
-5.68296959811613
30
0
41
1
10
71.7046046138309
20
-5.57976919450365
30
0
41
1
10
70.0995531980587
20
-5.21528512093891
30
0
41
1
10
69.0326743204912
20
-4.89974782867588
30
0
41
1
10
66.8878727511264
20
-4.14074436273344
30
0
41
1
10
65.8209099340487
20
-3.70247693193477
30
0
41
1
10
64.2156185541794
20
-2.97665174130392
30
0
41
1
10
63.6788417931702
20
-2.7231799849165
30
0
41
1
10
62.608453953554
20
-2.20140994370777
30
0
41
1
10
62.0742317037894
20
-1.93245763527912
30
0
41
1
10
61.0051297396129
20
-1.38302767330626
30
0
41
1
10
60.4699286270998
20
-1.10261842900897
30
0
41
1
10
59.3972677797076
20
-0.535317534569344
30
0
41
1
10
58.8625117881422
20
-0.249422279706863
30
0
41
1
10
57.793412867077
20
0.321702898623812
30
0
41
1
10
57.2590150000318
20
0.606829976796774
30
0
41
1
10
56.1881868828627
20
1.17182375265116
30
0
41
1
10
55.6514227203748
20
1.45230442696371
30
0
41
1
10
54.5812512588836
20
1.99962792565142
30
0
41
1
10
54.0468720147855
20
2.26682220672299
30
0
41
1
10
52.9773180937959
20
2.78445636754515
30
0
41
1
10
52.4417656977023
20
3.03519768129789
30
0
41
1
10
50.8332672819079
20
3.7549369842344
30
0
41
1
10
49.7662154308256
20
4.18722622853099
30
0
41
1
10
48.1595878379632
20
4.74505730501875
30
0
41
1
10
47.6227177039189
20
4.91593141109706
30
0
41
1
10
46.5524724307796
20
5.22223636484011
30
0
41
1
10
46.0180028101165
20
5.35790531384114
30
0
41
1
10
45.2157291915307
20
5.53386244292241
30
0
41
1
10
44.9481992362512
20
5.58791140366267
30
0
41
1
10
44.4125501413704
20
5.68650367112659
30
0
41
1
10
44.1442343065776
20
5.7311074873667
30
0
41
1
10
43.3399235717045
20
5.850090634043
30
0
41
1
10
42.8050256975896
20
5.90960066306556
30
0
41
1
10
41.7473019652586
20
5.98753863680238
30
0
41
1
10
41.2244381751362
20
6.00682798326272
30
0
41
1
10
40.7005531258137
20
6.00663799702036
30
0
0
SPLINE
5
DF
100
AcDbEntity
8
1
62
256
6
ByLayer
370
18
48
1
60
0
100
AcDbSpline
70
4
71
3
72
18
73
14
40
0
40
0
40
0
40
0
40
0.250000000000015
40
0.250000000000015
40
0.500000000000031
40
0.500000000000031
40
0.625000000000023
40
0.625000000000023
40
0.750000000000016
40
0.750000000000016
40
0.875000000000008
40
0.875000000000008
40
1
40
1
40
1
40
1
41
1
10
10.0000003836783
20
-1.83303195919657
30
0
41
1
10
10.000000383678
20
-1.79979979517805
30
0
41
1
10
10.0041674308954
20
-1.76827341819504
30
0
41
1
10
10.0250665205665
20
-1.71055637754395
30
0
41
1
10
10.0425105156499
20
-1.68461151939078
30
0
41
1
10
10.0800027030297
20
-1.66228570323145
30
0
41
1
10
10.0947015414927
20
-1.65754763679621
30
0
41
1
10
10.1256634367527
20
-1.65495820776982
30
0
41
1
10
10.142295461649
20
-1.65701029208208
30
0
41
1
10
10.1749986894445
20
-1.66641183121135
30
0
41
1
10
10.1913631902696
20
-1.6737685969629
30
0
41
1
10
10.2224281842618
20
-1.69151486373494
30
0
41
1
10
10.2373711018088
20
-1.70197244077497
30
0
41
1
10
10.2518724813962
20
-1.71362595209368
30
0
0
SPLINE
5
E0
100
AcDbEntity
8
1
62
256
6
ByLayer
370
18
48
1
60
0
100
AcDbSpline
70
4
71
3
72
8
73
4
40
0
40
0
40
0
40
0
40
1
40
1
40
1
40
1
41
1
10
112.883870792762
20
-6.00412666454275
30
0
41
1
10
112.904954124962
20
-5.94732999256087
30
0
41
1
10
112.926018513248
20
-5.8905016934246
30
0
41
1
10
112.947063966764
20
-5.83364178239705
30
0
0
SPLINE
5
E1
100
AcDbEntity
8
1
62
256
6
ByLayer
370
13
48
1
60
0
100
AcDbSpline
70
4
71
3
72
32
73
28
40
0
40
0
40
0
40
0
40
0.0015425531036001
40
0.0015425531036001
40
0.0847473403449666
40
0.0847473403449666
40
0.12634973396565
40
0.12634973396565
40
0.167952127586333
40
0.167952127586333
40
0.334361702069066
40
0.334361702069066
40
0.417566489310433
40
0.417566489310433
40
0.500771276551799
40
0.500771276551799
40
0.583976063793166
40
0.583976063793166
40
0.667180851034533
40
0.667180851034533
40
0.708783244655216
40
0.708783244655216
40
0.750385638275899
40
0.750385638275899
40
0.833590425517266
40
0.833590425517266
40
1
40
1
40
1
40
1
41
1
10
10.2509570219054
20
-5.72219794344554
30
0
41
1
10
10.2509577043361
20
-5.72219944396204
30
0
41
1
10
10.2509583862971
20
-5.72219735240003
30
0
41
1
10
10.2509958273903
20
-5.72188511957106
30
0
41
1
10
10.2510312290847
20
-5.71112991651029
30
0
41
1
10
10.2510830427647
20
-5.67890226112499
30
0
41
1
10
10.2511001465183
20
-5.66541714754524
30
0
41
1
10
10.2511336993148
20
-5.63328308659456
30
0
41
1
10
10.2511501679165
20
-5.61464064490943
30
0
41
1
10
10.2512312764031
20
-5.50879795167546
30
0
41
1
10
10.2512923692892
20
-5.38412026775359
30
0
41
1
10
10.2513821171155
20
-5.13672165801668
30
0
41
1
10
10.2514117870022
20
-5.04368852905944
30
0
41
1
10
10.2514697405051
20
-4.83992291658339
30
0
41
1
10
10.2514981253529
20
-4.72898703110522
30
0
41
1
10
10.2515537508405
20
-4.48888144700308
30
0
41
1
10
10.251580746393
20
-4.36072853146413
30
0
41
1
10
10.2516326684029
20
-4.08993515122404
30
0
41
1
10
10.251657640726
20
-3.94709723146249
30
0
41
1
10
10.2516932772927
20
-3.72166150366857
30
0
41
1
10
10.2517048501359
20
-3.6446493001944
30
0
41
1
10
10.2517272971454
20
-3.48684096849431
30
0
41
1
10
10.2517381998588
20
-3.40581058818637
30
0
41
1
10
10.2517694382023
20
-3.15901442384168
30
0
41
1
10
10.2517883239742
20
-2.98960448063795
30
0
41
1
10
10.2518380607351
20
-2.46718635704036
30
0
41
1
10
10.2518621630753
20
-2.10014752736893
30
0
41
1
10
10.2518724813907
20
-1.71362595210056
30
0
0
SPLINE
5
E2
100
AcDbEntity
8
SK1
62
256
6
ByLayer
370
18
48
1
60
0
100
AcDbSpline
70
4
71
3
72
14
73
10
40
0
40
0
40
0
40
0
40
0.25
40
0.25
40
0.5
40
0.5
40
0.75
40
0.75
40
1
40
1
40
1
40
1
41
1
10
-45
20
2.43111693798679
30
0
41
1
10
-45
20
2.42960534949131
30
0
41
1
10
-45
20
2.42147662840844
30
0
41
1
10
-45
20
2.39190519921161
30
0
41
1
10
-45
20
2.37088491140435
30
0
41
1
10
-45
20
2.31668101789163
30
0
41
1
10
-45
20
2.28308173831621
30
0
41
1
10
-45
20
2.20651088901795
30
0
41
1
10
-45
20
2.1633242947544
30
0
41
1
10
-45
20
2.11505147902477
30
0
0
SPLINE
5
E3
100
AcDbEntity
8
SK1
62
256
6
ByLayer
370
18
48
1
60
0
100
AcDbSpline
70
4
71
3
72
14
73
10
40
0
40
0
40
0
40
0
40
0.125
40
0.125
40
0.25
40
0.25
40
0.5
40
0.5
40
1
40
1
40
1
40
1
41
1
10
-43.3
20
3.1669238428658
30
0
41
1
10
-43.3
20
3.17646218158734
30
0
41
1
10
-43.3017012565589
20
3.18445503162425
30
0
41
1
10
-43.3069010451286
20
3.1971460966561
30
0
41
1
10
-43.3102603620514
20
3.20179776812512
30
0
41
1
10
-43.3216024497887
20
3.21293640704596
30
0
41
1
10
-43.3304674144333
20
3.21631368851115
30
0
41
1
10
-43.3586594529452
20
3.22036633371926
30
0
41
1
10
-43.3789281721554
20
3.21490400856206
30
0
41
1
10
-43.4
20
3.20367561274611
30
0
0
SPLINE
5
E4
100
AcDbEntity
8
SK1
62
256
6
ByLayer
370
18
48
1
60
0
100
AcDbSpline
70
4
71
3
72
26
73
22
40
0
40
0
40
0
40
0
40
0.125
40
0.125
40
0.25
40
0.25
40
0.375
40
0.375
40
0.4375
40
0.4375
40
0.5
40
0.5
40
0.5625
40
0.5625
40
0.625
40
0.625
40
0.75
40
0.75
40
0.875
40
0.875
40
1
40
1
40
1
40
1
41
1
10
-44.9999999999996
20
2.11505147902463
30
0
41
1
10
-44.9540922339725
20
2.12230826249243
30
0
41
1
10
-44.9089960485954
20
2.13005998441858
30
0
41
1
10
-44.8211826987631
20
2.14701426245173
30
0
41
1
10
-44.7784316035536
20
2.15619612605553
30
0
41
1
10
-44.6969149451097
20
2.17699041028979
30
0
41
1
10
-44.6588279071196
20
2.18841552725632
30
0
41
1
10
-44.6108930326133
20
2.20784846409705
30
0
41
1
10
-44.5967181177115
20
2.21461896676959
30
0
41
1
10
-44.5731700323047
20
2.22893974531547
30
0
41
1
10
-44.5637045878698
20
2.2366172778637
30
0
41
1
10
-44.5521015780994
20
2.25236870074929
30
0
41
1
10
-44.549923415757
20
2.26047713655248
30
0
41
1
10
-44.5537617083878
20
2.27666225668062
30
0
41
1
10
-44.5596338073104
20
2.28450446632428
30
0
41
1
10
-44.5876808846903
20
2.30737048771169
30
0
41
1
10
-44.6189463504416
20
2.32076249155526
30
0
41
1
10
-44.6918532647006
20
2.34421228682453
30
0
41
1
10
-44.733163756101
20
2.35424151741651
30
0
41
1
10
-44.8213463658153
20
2.37235832718639
30
0
41
1
10
-44.8675272700904
20
2.38025575676409
30
0
41
1
10
-44.9146041230426
20
2.38735393098585
30
0
0
SPLINE
5
E5
100
AcDbEntity
8
SK1
62
256
6
ByLayer
370
18
48
1
60
0
100
AcDbSpline
70
4
71
3
72
10
73
6
40
0
40
0
40
0
40
0
40
0.5
40
0.5
40
1
40
1
40
1
40
1
41
1
10
-45
20
-0.0426193548069307
30
0
41
1
10
-44.737713827477
20
0.10198316037031
30
0
41
1
10
-44.4719013472695
20
0.246041396362102
30
0
41
1
10
-43.9377246739738
20
0.533671468819222
30
0
41
1
10
-43.6692078212184
20
0.67724105781528
30
0
41
1
10
-43.4
20
0.820691924805971
30
0
0
SPLINE
5
E6
100
AcDbEntity
8
SK1
62
256
6
ByLayer
370
18
48
1
60
0
100
AcDbSpline
70
4
71
3
72
14
73
10
40
0
40
0
40
0
40
0
40
0.500000000000004
40
0.500000000000004
40
0.750000000000002
40
0.750000000000002
40
0.875000000000001
40
0.875000000000001
40
1
40
1
40
1
40
1
41
1
10
-43.4
20
0.820691924805885
30
0
41
1
10
-43.3790445776494
20
0.831858292449823
30
0
41
1
10
-43.3587362712602
20
0.848654360776123
30
0
41
1
10
-43.3304966181166
20
0.885089045105275
30
0
41
1
10
-43.3215144183093
20
0.899131811429555
30
0
41
1
10
-43.3103236218556
20
0.92401939917707
30
0
41
1
10
-43.3069030532022
20
0.933146655240733
30
0
41
1
10
-43.3017205322972
20
0.953064203641901
30
0
41
1
10
-43.3
20
0.963880758592637
30
0
41
1
10
-43.3
20
0.974578849960892
30
0
0
SPLINE
5
E7
100
AcDbEntity
8
SK1
62
256
6
ByLayer
370
18
48
1
60
0
100
AcDbSpline
70
4
71
3
72
10
73
6
40
0
40
0
40
0
40
0
40
0.5
40
0.5
40
1
40
1
40
1
40
1
41
1
10
-43.4
20
3.20367561274611
30
0
41
1
10
-43.6546302957084
20
3.06799256863485
30
0
41
1
10
-43.9086378680783
20
2.9322015520896
30
0
41
1
10
-44.4141736669075
20
2.66020598292201
30
0
41
1
10
-44.6657859193831
20
2.52401432463586
30
0
41
1
10
-44.9146041230426
20
2.38735393098585
30
0
0
SPLINE
5
E8
100
AcDbEntity
8
SK1
62
256
6
ByLayer
370
18
48
1
60
0
100
AcDbSpline
70
4
71
3
72
8
73
4
40
0
40
0
40
0
40
0
40
1
40
1
40
1
40
1
41
1
10
-45
20
0.0426193548069307
30
0
41
1
10
-44.9861720353187
20
0.0349957791778195
30
0
41
1
10
-44.9723342692866
20
0.027373716369425
30
0
41
1
10
-44.958487031679
20
0.0197531222623013
30
0
0
SPLINE
5
E9
100
AcDbEntity
8
SK1
62
256
6
ByLayer
370
18
48
1
60
0
100
AcDbSpline
70
4
71
3
72
8
73
4
40
0
40
0
40
0
40
0
40
1
40
1
40
1
40
1
41
1
10
-44.9146041230426
20
2.38735393098582
30
0
41
1
10
-44.9406545363158
20
2.40946042614556
30
0
41
1
10
-44.9692758614723
20
2.42407610511799
30
0
41
1
10
-45
20
2.43111693798679
30
0
0
LINE
5
76
100
AcDbEntity
8
81
62
256
6
ByLayer
370
18
48
1
60
0
100
AcDbLine
10
115
20
0
30
0
11
120
21
0
31
0
39
0
210
0
220
0
230
1
0
LINE
5
77
100
AcDbEntity
8
1
62
256
6
ByLayer
370
18
48
1
60
0
100
AcDbLine
10
10
20
5.988218
30
0
11
1.49044
21
5.983113
31
0
39
0
210
0
220
0
230
1
0
LINE
5
79
100
AcDbEntity
8
1
62
256
6
ByLayer
370
18
48
1
60
0
100
AcDbLine
10
40.694964
20
6.006635
30
0
11
39.713372
21
6.006046
31
0
39
0
210
0
220
0
230
1
0
LINE
5
7A
100
AcDbEntity
8
1
62
256
6
ByLayer
370
18
48
1
60
0
100
AcDbLine
10
76.094937
20
6.027875
30
0
11
75.125322
21
6.027293
31
0
39
0
210
0
220
0
230
1
0
LINE
5
7B
100
AcDbEntity
8
1
62
256
6
ByLayer
370
18
48
1
60
0
100
AcDbLine
10
111.498485
20
6.049117
30
0
11
110.536802
21
6.04854
31
0
39
0
210
0
220
0
230
1
0
LINE
5
7C
100
AcDbEntity
8
1
62
256
6
ByLayer
370
18
48
1
60
0
100
AcDbLine
10
110.536802
20
-6.04854
30
0
11
111.498034
21
-6.049117
31
0
39
0
210
0
220
0
230
1
0
LINE
5
7D
100
AcDbEntity
8
1
62
256
6
ByLayer
370
18
48
1
60
0
100
AcDbLine
10
75.125322
20
-6.027293
30
0
11
76.095216
21
-6.027875
31
0
39
0
210
0
220
0
230
1
0
LINE
5
7E
100
AcDbEntity
8
1
62
256
6
ByLayer
370
18
48
1
60
0
100
AcDbLine
10
39.713372
20
-6.006046
30
0
11
40.695246
21
-6.006635
31
0
39
0
210
0
220
0
230
1
0
LINE
5
7F
100
AcDbEntity
8
1
62
256
6
ByLayer
370
18
48
1
60
0
100
AcDbLine
10
1.49044
20
-5.983113
30
0
11
10
21
-5.988218
31
0
39
0
210
0
220
0
230
1
0
LINE
5
80
100
AcDbEntity
8
SK1
62
256
6
ByLayer
370
18
48
1
60
0
100
AcDbLine
10
-43.267949
20
7
30
0
11
-45
21
4
31
0
39
0
210
0
220
0
230
1
0
LINE
5
82
100
AcDbEntity
8
SK1
62
256
6
ByLayer
370
18
48
1
60
0
100
AcDbLine
10
-45
20
-4
30
0
11
-43.267949
21
-7
31
0
39
0
210
0
220
0
230
1
0
LINE
5
83
100
AcDbEntity
8
SK1
62
256
6
ByLayer
370
18
48
1
60
0
100
AcDbLine
10
0
20
7
30
0
11
-43.267949
21
7
31
0
39
0
210
0
220
0
230
1
0
LINE
5
84
100
AcDbEntity
8
SK1
62
256
6
ByLayer
370
18
48
1
60
0
100
AcDbLine
10
-43.267949
20
-7
30
0
11
0
21
-7
31
0
39
0
210
0
220
0
230
1
0
LINE
5
85
100
AcDbEntity
8
SK4
62
256
6
ByLayer
370
18
48
0.05
60
0
100
AcDbLine
10
120
20
0
30
0
11
-50
21
0
31
0
39
0
210
0
220
0
230
1
0
LINE
5
87
100
AcDbEntity
8
4
62
256
6
ByLayer
370
18
48
0.05
60
0
100
AcDbLine
10
115
20
0
30
0
11
0
21
0
31
0
39
0
210
0
220
0
230
1
0
LINE
5
89
100
AcDbEntity
8
80
62
256
6
ByLayer
370
18
48
1
60
0
100
AcDbLine
10
0
20
0
30
0
11
-5
21
0
31
0
39
0
210
0
220
0
230
1
0
LINE
5
8A
100
AcDbEntity
8
1
62
256
6
ByLayer
370
18
48
1
60
0
100
AcDbLine
10
115
20
0
30
0
11
112.895169
21
-5.782977
31
0
39
0
210
0
220
0
230
1
0
LINE
5
8B
100
AcDbEntity
8
1
62
256
6
ByLayer
370
18
48
1
60
0
100
AcDbLine
10
0
20
-7
30
0
11
0
21
7
31
0
39
0
210
0
220
0
230
1
0
LINE
5
8C
100
AcDbEntity
8
1
62
256
6
ByLayer
370
18
48
1
60
0
100
AcDbLine
10
114.908535
20
-0.313369
30
0
11
114.696565
21
-1.095933
31
0
39
0
210
0
220
0
230
1
0
LINE
5
8D
100
AcDbEntity
8
1
62
256
6
ByLayer
370
18
48
1
60
0
100
AcDbLine
10
10
20
-5.988218
30
0
11
10
21
-1.851392
31
0
39
0
210
0
220
0
230
1
0
LINE
5
8E
100
AcDbEntity
8
1
62
256
6
ByLayer
370
18
48
1
60
0
100
AcDbLine
10
115
20
0
30
0
11
114.987253
21
-0.057187
31
0
39
0
210
0
220
0
230
1
0
LINE
5
8F
100
AcDbEntity
8
1
62
256
6
ByLayer
370
13
48
1
60
0
100
AcDbLine
10
1.49044
20
5.983113
30
0
11
1.49044
21
-5.983113
31
0
39
0
210
0
220
0
230
1
0
LINE
5
90
100
AcDbEntity
8
1
62
256
6
ByLayer
370
13
48
1
60
0
100
AcDbLine
10
113.327987
20
1.095933
30
0
11
114.908535
21
0.313369
31
0
39
0
210
0
220
0
230
1
0
LINE
5
91
100
AcDbEntity
8
1
62
256
6
ByLayer
370
18
48
1
60
0
100
AcDbLine
10
10
20
5.988218
30
0
11
10
21
5.533064
31
0
39
0
210
0
220
0
230
1
0
LINE
5
92
100
AcDbEntity
8
1
62
256
6
ByLayer
370
13
48
1
60
0
100
AcDbLine
10
114.696565
20
1.095933
30
0
11
113.327987
21
1.095933
31
0
39
0
210
0
220
0
230
1
0
LINE
5
93
100
AcDbEntity
8
1
62
256
6
ByLayer
370
18
48
1
60
0
100
AcDbLine
10
114.908535
20
0.313369
30
0
11
114.696565
21
1.095933
31
0
39
0
210
0
220
0
230
1
0
LINE
5
94
100
AcDbEntity
8
1
62
256
6
ByLayer
370
18
48
1
60
0
100
AcDbLine
10
114.987253
20
0.057187
30
0
11
115
21
0
31
0
39
0
210
0
220
0
230
1
0
LINE
5
95
100
AcDbEntity
8
1
62
256
6
ByLayer
370
13
48
1
60
0
100
AcDbLine
10
113.158528
20
0.749509
30
0
11
114.89416
21
-0.10984
31
0
39
0
210
0
220
0
230
1
0
LINE
5
96
100
AcDbEntity
8
1
62
256
6
ByLayer
370
13
48
1
60
0
100
AcDbLine
10
0.74498
20
6.491556
30
0
11
0.74498
21
-6.491556
31
0
39
0
210
0
220
0
230
1
0
LINE
5
97
100
AcDbEntity
8
1
62
256
6
ByLayer
370
18
48
1
60
0
100
AcDbLine
10
111.952495
20
-3.388272
30
0
11
114.89416
21
-0.10984
31
0
39
0
210
0
220
0
230
1
0
LINE
5
98
100
AcDbEntity
8
SK1
62
256
6
ByLayer
370
13
48
1
60
0
100
AcDbLine
10
-43.4
20
3.203676
30
0
11
-43.4
21
0.820747
31
0
39
0
210
0
220
0
230
1
0
LINE
5
99
100
AcDbEntity
8
SK1
62
256
6
ByLayer
370
18
48
1
60
0
100
AcDbLine
10
-45
20
4
30
0
11
-45
21
2.431117
31
0
39
0
210
0
220
0
230
1
0
LINE
5
9A
100
AcDbEntity
8
SK1
62
256
6
ByLayer
370
18
48
1
60
0
100
AcDbLine
10
0
20
-7
30
0
11
0
21
7
31
0
39
0
210
0
220
0
230
1
0
LINE
5
9B
100
AcDbEntity
8
SK1
62
256
6
ByLayer
370
18
48
1
60
0
100
AcDbLine
10
-45
20
2.115051
30
0
11
-45
21
0.042619
31
0
39
0
210
0
220
0
230
1
0
LINE
5
9C
100
AcDbEntity
8
SK1
62
256
6
ByLayer
370
18
48
1
60
0
100
AcDbLine
10
-43.267949
20
7
30
0
11
-43.267949
21
-7
31
0
39
0
210
0
220
0
230
1
0
LINE
5
9D
100
AcDbEntity
8
SK1
62
256
6
ByLayer
370
18
48
1
60
0
100
AcDbLine
10
-43.3
20
0.974579
30
0
11
-43.3
21
3.166924
31
0
39
0
210
0
220
0
230
1
0
LINE
5
9E
100
AcDbEntity
8
SK1
62
256
6
ByLayer
370
18
48
1
60
0
100
AcDbLine
10
-45
20
-0.042619
30
0
11
-45
21
-4
31
0
39
0
210
0
220
0
230
1
0
MTEXT
5
EA
100
AcDbEntity
8
SK6
62
256
6
ByLayer
370
13
48
1
60
0
100
AcDbMText
10
37.129169
20
38.432694
30
0
210
0
220
0
230
1
1
\W0.7287;R840-1210-70-A1A1220
40
3.5
41
0
44
1.084337
50
0
71
8
72
5
7
iso_b_vert
0
DIMENSION
5
F7
100
AcDbEntity
8
SK2
62
256
6
ByLayer
370
13
48
1
60
0
100
AcDbDimension
2
DimnDraft3D1
10
112.92
20
-16.263398
30
0
11
54.670059
21
-16.263398
31
0
70
32
71
5
72
1
41
1
210
0
220
0
230
1
3
Standard
100
AcDbAlignedDimension
13
0
23
-1.5875
33
0
14
112.92
24
-7.6375
34
0
50
0
100
AcDbRotatedDimension
1001
ACAD
1000
DSTYLE
1002
{
1070
   279
1070
     0
1070
   172
1070
     1
1070
   173
1070
     1
1070
   340
1005
EB
1070
   271
1070
     2
1070
   272
1070
     2
1070
    77
1070
     1
1070
    73
1070
     0
1070
   171
1070
     3
1070
   274
1070
     4
1070
   177
1070
    35
1070
   176
1070
    35
1070
   178
1070
    35
1070
    48
1040
-0.005
1070
    41
1041
3.5
1070
   147
1041
1.75
1070
    42
1041
1.5875
1070
    44
1041
2.0
1070
   140
1041
3.5
1070
   343
1005
0
1070
   344
1005
0
1002
}
0
DIMENSION
5
101
100
AcDbEntity
8
SK2
62
256
6
ByLayer
370
13
48
1
60
0
100
AcDbDimension
2
DimnDraft3D2
10
115
20
-35.692985
30
0
11
34.2613
21
-35.692985
31
0
70
32
71
5
72
1
41
1
210
0
220
0
230
1
3
Standard
100
AcDbAlignedDimension
13
-45
23
-8.5875
33
0
14
115
24
-1.5875
34
0
50
0
100
AcDbRotatedDimension
1001
ACAD
1000
DSTYLE
1002
{
1070
   279
1070
     0
1070
   172
1070
     1
1070
   173
1070
     1
1070
   340
1005
EB
1070
   271
1070
     2
1070
   272
1070
     2
1070
    77
1070
     1
1070
    73
1070
     0
1070
   171
1070
     3
1070
   274
1070
     4
1070
   177
1070
    35
1070
   176
1070
    35
1070
   178
1070
    35
1070
    48
1040
-0.005
1070
    41
1041
3.5
1070
   147
1041
1.75
1070
    42
1041
1.5875
1070
    44
1041
2.0
1070
   140
1041
3.5
1070
   343
1005
0
1070
   344
1005
0
1002
}
0
DIMENSION
5
10B
100
AcDbEntity
8
SK2
62
256
6
ByLayer
370
13
48
1
60
0
100
AcDbDimension
2
DimnDraft3D3
10
115
20
17.659119
30
0
11
65.56
21
17.659119
31
0
70
32
71
5
72
1
41
1
210
0
220
0
230
1
3
Standard
100
AcDbAlignedDimension
13
16.12
23
7.6375
33
0
14
115
24
1.5875
34
0
50
0
100
AcDbRotatedDimension
1001
ACAD
1000
DSTYLE
1002
{
1070
   279
1070
     0
1070
   172
1070
     1
1070
   173
1070
     1
1070
   340
1005
EB
1070
   271
1070
     2
1070
   272
1070
     2
1070
    77
1070
     1
1070
    73
1070
     0
1070
   171
1070
     3
1070
   274
1070
     4
1070
   177
1070
    35
1070
   176
1070
    35
1070
   178
1070
    35
1070
    48
1040
-0.005
1070
    41
1041
3.5
1070
   147
1041
1.75
1070
    42
1041
1.5875
1070
    44
1041
2.0
1070
   140
1041
3.5
1070
   343
1005
0
1070
   344
1005
0
1002
}
0
DIMENSION
5
115
100
AcDbEntity
8
SK2
62
256
6
ByLayer
370
13
48
1
60
0
100
AcDbDimension
2
DimnDraft3D4
10
112.92
20
-18.852503
30
0
11
124.981425
21
-18.852503
31
0
70
32
71
5
72
1
41
1
210
0
220
0
230
1
3
Standard
100
AcDbAlignedDimension
13
115
23
-1.5875
33
0
14
112.92
24
-7.6375
34
0
50
0
100
AcDbRotatedDimension
1001
ACAD
1000
DSTYLE
1002
{
1070
   279
1070
     0
1070
   172
1070
     1
1070
   173
1070
     1
1070
   340
1005
EB
1070
   271
1070
     2
1070
   272
1070
     2
1070
    77
1070
     1
1070
    73
1070
     0
1070
   171
1070
     3
1070
   274
1070
     4
1070
   177
1070
    35
1070
   176
1070
    35
1070
   178
1070
    35
1070
    48
1040
-0.005
1070
    41
1041
3.5
1070
   147
1041
1.75
1070
    42
1041
1.5875
1070
    44
1041
2.0
1070
   140
1041
3.5
1070
   343
1005
0
1070
   344
1005
0
1002
}
0
DIMENSION
5
11F
100
AcDbEntity
8
SK2
62
256
6
ByLayer
370
13
48
1
60
0
100
AcDbDimension
2
DimnDraft3D5
10
112.92
20
-25.343428
30
0
11
31.180676
21
-25.343428
31
0
70
32
71
5
72
1
41
1
210
0
220
0
230
1
3
Standard
100
AcDbAlignedDimension
13
-45
23
-8.5875
33
0
14
112.92
24
-7.6375
34
0
50
0
100
AcDbRotatedDimension
1001
ACAD
1000
DSTYLE
1002
{
1070
   279
1070
     0
1070
   172
1070
     1
1070
   173
1070
     1
1070
   340
1005
EB
1070
   271
1070
     2
1070
   272
1070
     2
1070
    77
1070
     1
1070
    73
1070
     0
1070
   171
1070
     3
1070
   274
1070
     4
1070
   177
1070
    35
1070
   176
1070
    35
1070
   178
1070
    35
1070
    48
1040
-0.005
1070
    41
1041
3.5
1070
   147
1041
1.75
1070
    42
1041
1.5875
1070
    44
1041
2.0
1070
   140
1041
3.5
1070
   343
1005
0
1070
   344
1005
0
1002
}
0
DIMENSION
5
12A
100
AcDbEntity
8
SK2
62
256
6
ByLayer
370
13
48
1
60
0
100
AcDbDimension
2
DimnDraft3D6
10
-55.625163
20
7
30
0
11
-56.250163
21
25.47418
31
0
70
33
71
5
72
1
41
1
210
0
220
0
230
1
3
Standard
100
AcDbAlignedDimension
13
-46.5875
23
-7
33
0
14
-46.5875
24
7
34
0
1001
ACAD
1000
DSTYLE
1002
{
1070
   279
1070
     0
1070
    74
1070
     0
1070
   173
1070
     1
1070
   340
1005
EB
1070
   271
1070
     3
1070
   272
1070
     2
1070
    77
1070
     1
1070
    73
1070
     0
1070
   171
1070
     3
1070
   274
1070
     4
1070
   177
1070
    35
1070
   176
1070
    35
1070
   178
1070
    35
1070
    48
1040
-0.005
1070
    41
1041
3.5
1070
   147
1041
1.75
1070
    42
1041
1.5875
1070
    44
1041
2.0
1070
   140
1041
3.5
1070
   343
1005
0
1070
   344
1005
0
1002
}
0
DIMENSION
5
135
100
AcDbEntity
8
2
62
256
6
ByLayer
370
13
48
1
60
0
100
AcDbDimension
2
DimnDraft3D7
10
129.083343
20
6.05
30
0
11
124.458343
21
23.117266
31
0
70
33
71
5
72
1
41
1
210
0
220
0
230
1
3
Standard
100
AcDbAlignedDimension
13
114.5075
23
-6.05
33
0
14
114.5075
24
6.05
34
0
1001
ACAD
1000
DSTYLE
1002
{
1070
   279
1070
     0
1070
    74
1070
     0
1070
   173
1070
     1
1070
   340
1005
EB
1070
   271
1070
     3
1070
   272
1070
     2
1070
    77
1070
     1
1070
    73
1070
     0
1070
   171
1070
     3
1070
   274
1070
     4
1070
   177
1070
    35
1070
   176
1070
    35
1070
   178
1070
    35
1070
    48
1040
-0.005
1070
    41
1041
3.5
1070
   147
1041
1.75
1070
    42
1041
1.5875
1070
    44
1041
2.0
1070
   140
1041
3.5
1070
   343
1005
0
1070
   344
1005
0
1002
}
0
ENDSEC
0
SECTION
2
OBJECTS
0
DICTIONARY
5
1a0
330
0
100
AcDbDictionary
280
0
281
1
3
ACAD_GROUP
350
1a1
3
ACAD_MLINESTYLE
350
1a2
0
DICTIONARY
5
1a1
330
0
100
AcDbDictionary
280
0
281
1
0
DICTIONARY
5
1a2
330
0
100
AcDbDictionary
280
0
281
1
3
Standard
350
18
0
MLINESTYLE
5
18
330
1a2
100
AcDbMlineStyle
2
Standard
70
0
3

62
256
51
90
52
90
71
2
49
-0.5
62
256
6
ByLayer
49
0.5
62
256
6
ByLayer
0
RASTERVARIABLES
5
18e
330

100
AcDbRasterVariables
90
0
70
1
71
1
72
1
0
ENDSEC
0
EOF
