0
SECTION
2
HEADER
9
$ACADVER
1
AC1015
9
$DWGCODEPAGE
3
ANSI_1252
9
$HANDSEED
5
1b1
9
$ANGBASE
50
0
9
$ANGDIR
70
0
9
$ATTMODE
70
1
9
$AUNITS
70
0
9
$AUPREC
70
0
9
$CECOLOR
62
256
9
$CELTSCALE
40
1
9
$CELTYPE
6
ByLayer
9
$CELWEIGHT
370
18
9
$CLAYER
8
0
9
$CMLJUST
70
0
9
$CMLSCALE
40
1
9
$CMLSTYLE
2
Standard
9
$DIMSTYLE
2
Standard
9
$TEXTSIZE
40
0.2
9
$TEXTSTYLE
7
Standard
9
$LUNITS
70
2
9
$LUPREC
70
4
9
$EXTNAMES
290
1
9
$INSUNITS
70
4
9
$LTSCALE
40
1
9
$LWDISPLAY
290
1
9
$PDMODE
70
0
9
$PDSIZE
40
0
9
$PLINEGEN
70
0
0
ENDSEC
0
SECTION
2
CLASSES
0
CLASS
1
RASTERVARIABLES
2
AcDbRasterVariables
3
ISM
90
0
280
0
281
0
0
ENDSEC
0
SECTION
2
TABLES
0
TABLE
2
VPORT
5
1a7
100
AcDbSymbolTable
0
VPORT
5
1
100
AcDbSymbolTableRecord
100
AcDbViewportTableRecord
2
*Active
70
0
10
0
20
0
11
1
21
1
12
-1
22
1
13
0
23
0
14
0.5
24
0.5
15
10
25
10
16
0
26
0
36
1
17
0
27
0
37
0
0
ENDTAB
0
TABLE
2
LTYPE
5
1a8
100
AcDbSymbolTable
0
LTYPE
5
14
100
AcDbSymbolTableRecord
100
AcDbLinetypeTableRecord
70
0
2
ByBlock
3

72
65
73
0
40
0
0
LTYPE
5
15
100
AcDbSymbolTableRecord
100
AcDbLinetypeTableRecord
70
0
2
ByLayer
3

72
65
73
0
40
0
0
LTYPE
5
16
100
AcDbSymbolTableRecord
100
AcDbLinetypeTableRecord
70
0
2
CONTINUOUS
3
Solid line
72
65
73
0
40
0
0
LTYPE
5
6A
100
AcDbSymbolTableRecord
100
AcDbLinetypeTableRecord
70
0
2
CENTER
3
____ _ ____ _ ____ _ ____
72
65
73
4
40
47.5
49
22
74
0
49
-8.5
74
0
49
8.5
74
0
49
-8.5
74
0
0
LTYPE
5
6B
100
AcDbSymbolTableRecord
100
AcDbLinetypeTableRecord
70
0
2
DASHED
3
__ __ __ __ __ __ __ __ __
72
65
73
2
40
25.72
49
12.86
74
0
49
-12.86
74
0
0
ENDTAB
0
TABLE
2
LAYER
5
1a9
100
AcDbSymbolTable
0
LAYER
5
10
100
AcDbSymbolTableRecord
100
AcDbLayerTableRecord
2
0
70
0
62
7
6
CONTINUOUS
290
1
370
-3
390
0
0
LAYER
5
6D
100
AcDbSymbolTableRecord
100
AcDbLayerTableRecord
2
81
70
0
62
-3
6
CONTINUOUS
290
1
370
-3
390
0
0
LAYER
5
6F
100
AcDbSymbolTableRecord
100
AcDbLayerTableRecord
2
80
70
0
62
-6
6
CONTINUOUS
290
1
370
-3
390
0
0
LAYER
5
74
100
AcDbSymbolTableRecord
100
AcDbLayerTableRecord
2
2
70
0
62
7
6
CONTINUOUS
290
1
370
-3
390
0
0
LAYER
5
78
100
AcDbSymbolTableRecord
100
AcDbLayerTableRecord
2
1
70
0
62
4
6
CONTINUOUS
290
1
370
-3
390
0
0
LAYER
5
8C
100
AcDbSymbolTableRecord
100
AcDbLayerTableRecord
2
4
70
0
62
-2
6
CENTER
290
1
370
-3
390
0
0
LAYER
5
193
100
AcDbSymbolTableRecord
100
AcDbLayerTableRecord
2
SK2
70
0
62
7
6
CONTINUOUS
290
1
370
-3
390
0
0
LAYER
5
194
100
AcDbSymbolTableRecord
100
AcDbLayerTableRecord
2
SK1
70
0
62
4
6
CONTINUOUS
290
1
370
-3
390
0
0
LAYER
5
195
100
AcDbSymbolTableRecord
100
AcDbLayerTableRecord
2
SK4
70
0
62
2
6
CENTER
290
1
370
-3
390
0
0
LAYER
5
196
100
AcDbSymbolTableRecord
100
AcDbLayerTableRecord
2
SK6
70
0
62
5
6
CONTINUOUS
290
1
370
-3
390
0
0
ENDTAB
0
TABLE
2
STYLE
5
1aa
100
AcDbSymbolTable
0
STYLE
5
11
100
AcDbSymbolTableRecord
100
AcDbTextStyleTableRecord
2
Standard
3
txt
70
0
71
0
40
0
41
1
42
0
50
0
0
STYLE
5
EF
100
AcDbSymbolTableRecord
100
AcDbTextStyleTableRecord
2
iso_b_vert
3
simplex.shx
70
0
71
0
40
0
41
1
42
0
50
0
0
STYLE
5
F0
100
AcDbSymbolTableRecord
100
AcDbTextStyleTableRecord
2
DWGDirectTextStyle
3
simplex
70
0
71
0
40
0
41
1
42
0
50
0
0
ENDTAB
0
TABLE
2
DIMSTYLE
5
1ab
100
AcDbSymbolTable
100
AcDbDimStyleTable
0
DIMSTYLE
105
27
100
AcDbSymbolTableRecord
100
AcDbDimStyleTableRecord
2
Standard
70
0
3
<>
41
0.18
42
0.0625
44
0.18
140
0.18
147
0.09
73
0
74
0
77
1
271
2
275
0
278
52
280
0
340
11
0
ENDTAB
0
TABLE
2
VIEW
5
1ac
100
AcDbSymbolTable
0
ENDTAB
0
TABLE
2
UCS
5
1ad
100
AcDbSymbolTable
0
ENDTAB
0
TABLE
2
APPID
5
1ae
100
AcDbSymbolTable
0
APPID
5
12
100
AcDbSymbolTableRecord
100
AcDbRegAppTableRecord
2
ACAD
70
0
0
ENDTAB
0
TABLE
2
BLOCK_RECORD
5
1af
100
AcDbSymbolTable
0
BLOCK_RECORD
5
1F
100
AcDbSymbolTableRecord
100
AcDbBlockTableRecord
2
*Model_Space
340
0
70
0
0
BLOCK_RECORD
5
1B
100
AcDbSymbolTableRecord
100
AcDbBlockTableRecord
2
*Paper_Space
340
0
70
0
0
BLOCK_RECORD
5
23
100
AcDbSymbolTableRecord
100
AcDbBlockTableRecord
2
*Paper_Space0
340
0
70
0
0
BLOCK_RECORD
5
F2
100
AcDbSymbolTableRecord
100
AcDbBlockTableRecord
2
DimnDraft3D1
340
0
70
0
0
BLOCK_RECORD
5
FC
100
AcDbSymbolTableRecord
100
AcDbBlockTableRecord
2
DimnDraft3D2
340
0
70
0
0
BLOCK_RECORD
5
106
100
AcDbSymbolTableRecord
100
AcDbBlockTableRecord
2
DimnDraft3D3
340
0
70
0
0
BLOCK_RECORD
5
110
100
AcDbSymbolTableRecord
100
AcDbBlockTableRecord
2
DimnDraft3D4
340
0
70
0
0
BLOCK_RECORD
5
11A
100
AcDbSymbolTableRecord
100
AcDbBlockTableRecord
2
DimnDraft3D5
340
0
70
0
0
BLOCK_RECORD
5
124
100
AcDbSymbolTableRecord
100
AcDbBlockTableRecord
2
DimnDraft3D6
340
0
70
0
0
BLOCK_RECORD
5
12F
100
AcDbSymbolTableRecord
100
AcDbBlockTableRecord
2
DimnDraft3D7
340
0
70
0
0
ENDTAB
0
ENDSEC
0
SECTION
2
BLOCKS
0
BLOCK
5
20
100
AcDbEntity
8
0
100
AcDbBlockBegin
2
*Model_Space
70
0
10
0
20
0
30
0
3
*Model_Space
0
ENDBLK
5
21
100
AcDbEntity
8
0
100
AcDbBlockEnd
0
BLOCK
5
1C
100
AcDbEntity
8
0
100
AcDbBlockBegin
2
*Paper_Space
70
0
10
0
20
0
30
0
3
*Paper_Space
0
ENDBLK
5
1D
100
AcDbEntity
8
0
100
AcDbBlockEnd
0
BLOCK
5
24
100
AcDbEntity
8
0
100
AcDbBlockBegin
2
*Paper_Space0
70
0
10
0
20
0
30
0
3
*Paper_Space0
0
ENDBLK
5
25
100
AcDbEntity
8
0
100
AcDbBlockEnd
0
BLOCK
5
F9
100
AcDbEntity
8
0
100
AcDbBlockBegin
2
DimnDraft3D1
70
0
10
0
20
0
30
0
3
DimnDraft3D1
0
MTEXT
5
F3
100
AcDbEntity
8
SK2
62
256
6
ByLayer
370
13
48
1
60
0
100
AcDbMText
10
44.686769
20
-15.338398
30
0
210
0
220
0
230
1
1
\W0.7079;103,94
40
3.5
41
0
44
1.084337
50
0
71
7
72
5
7
iso_b_vert
0
LINE
5
F4
100
AcDbEntity
8
SK2
62
256
6
ByLayer
370
13
48
1
60
0
100
AcDbLine
10
0
20
-1.5875
30
0
11
0
21
-18.213398
31
0
39
0
210
0
220
0
230
1
0
LINE
5
F5
100
AcDbEntity
8
SK2
62
256
6
ByLayer
370
13
48
1
60
0
100
AcDbLine
10
103.94
20
-7.5875
30
0
11
103.94
21
-18.213398
31
0
39
0
210
0
220
0
230
1
0
LINE
5
F6
100
AcDbEntity
8
SK2
62
256
6
ByLayer
370
13
48
1
60
0
100
AcDbLine
10
0
20
-16.213398
30
0
11
103.94
21
-16.213398
31
0
39
0
210
0
220
0
230
1
0
SOLID
5
F7
100
AcDbEntity
8
SK2
62
256
6
ByLayer
370
13
48
1
60
0
100
AcDbTrace
10
0
20
-16.213398
30
0
11
3.499998
21
-15.752615
31
0
12
3.500002
22
-16.674182
32
0
13
0
23
-16.213398
33
0
39
0
210
0
220
0
230
1
0
SOLID
5
F8
100
AcDbEntity
8
SK2
62
256
6
ByLayer
370
13
48
1
60
0
100
AcDbTrace
10
103.94
20
-16.213398
30
0
11
100.440002
21
-16.674182
31
0
12
100.439998
22
-15.752615
32
0
13
103.94
23
-16.213398
33
0
39
0
210
0
220
0
230
1
0
ENDBLK
5
FA
100
AcDbEntity
8
0
100
AcDbBlockEnd
0
BLOCK
5
103
100
AcDbEntity
8
0
100
AcDbBlockBegin
2
DimnDraft3D2
70
0
10
0
20
0
30
0
3
DimnDraft3D2
0
MTEXT
5
FD
100
AcDbEntity
8
SK2
62
256
6
ByLayer
370
13
48
1
60
0
100
AcDbMText
10
24.899721
20
-33.817985
30
0
210
0
220
0
230
1
1
\W0.6440;151,00
40
3.5
41
0
44
1.084337
50
0
71
7
72
5
7
iso_b_vert
0
LINE
5
FE
100
AcDbEntity
8
SK2
62
256
6
ByLayer
370
13
48
1
60
0
100
AcDbLine
10
-45
20
-7.5875
30
0
11
-45
21
-36.692985
31
0
39
0
210
0
220
0
230
1
0
LINE
5
FF
100
AcDbEntity
8
SK2
62
256
6
ByLayer
370
13
48
1
60
0
100
AcDbLine
10
106
20
-1.5875
30
0
11
106
21
-36.692985
31
0
39
0
210
0
220
0
230
1
0
LINE
5
100
100
AcDbEntity
8
SK2
62
256
6
ByLayer
370
13
48
1
60
0
100
AcDbLine
10
-45
20
-34.692985
30
0
11
106
21
-34.692985
31
0
39
0
210
0
220
0
230
1
0
SOLID
5
101
100
AcDbEntity
8
SK2
62
256
6
ByLayer
370
13
48
1
60
0
100
AcDbTrace
10
-45
20
-34.692985
30
0
11
-41.500002
21
-34.232202
31
0
12
-41.499998
22
-35.153769
32
0
13
-45
23
-34.692985
33
0
39
0
210
0
220
0
230
1
0
SOLID
5
102
100
AcDbEntity
8
SK2
62
256
6
ByLayer
370
13
48
1
60
0
100
AcDbTrace
10
106
20
-34.692985
30
0
11
102.500002
21
-35.153769
31
0
12
102.499998
22
-34.232202
32
0
13
106
23
-34.692985
33
0
39
0
210
0
220
0
230
1
0
ENDBLK
5
104
100
AcDbEntity
8
0
100
AcDbBlockEnd
0
BLOCK
5
10D
100
AcDbEntity
8
0
100
AcDbBlockBegin
2
DimnDraft3D3
70
0
10
0
20
0
30
0
3
DimnDraft3D3
0
MTEXT
5
107
100
AcDbEntity
8
SK2
62
256
6
ByLayer
370
13
48
1
60
0
100
AcDbMText
10
52.521316
20
18.484119
30
0
210
0
220
0
230
1
1
\W0.7317;98,06
40
3.5
41
0
44
1.084337
50
0
71
7
72
5
7
iso_b_vert
0
LINE
5
108
100
AcDbEntity
8
SK2
62
256
6
ByLayer
370
13
48
1
60
0
100
AcDbLine
10
7.94
20
7.5875
30
0
11
7.94
21
19.609119
31
0
39
0
210
0
220
0
230
1
0
LINE
5
109
100
AcDbEntity
8
SK2
62
256
6
ByLayer
370
13
48
1
60
0
100
AcDbLine
10
106
20
1.5875
30
0
11
106
21
19.609119
31
0
39
0
210
0
220
0
230
1
0
LINE
5
10A
100
AcDbEntity
8
SK2
62
256
6
ByLayer
370
13
48
1
60
0
100
AcDbLine
10
7.94
20
17.609119
30
0
11
106
21
17.609119
31
0
39
0
210
0
220
0
230
1
0
SOLID
5
10B
100
AcDbEntity
8
SK2
62
256
6
ByLayer
370
13
48
1
60
0
100
AcDbTrace
10
7.94
20
17.609119
30
0
11
11.439998
21
18.069903
31
0
12
11.440002
22
17.148335
32
0
13
7.94
23
17.609119
33
0
39
0
210
0
220
0
230
1
0
SOLID
5
10C
100
AcDbEntity
8
SK2
62
256
6
ByLayer
370
13
48
1
60
0
100
AcDbTrace
10
106
20
17.609119
30
0
11
102.500002
21
17.148335
31
0
12
102.499998
22
18.069903
32
0
13
106
23
17.609119
33
0
39
0
210
0
220
0
230
1
0
ENDBLK
5
10E
100
AcDbEntity
8
0
100
AcDbBlockEnd
0
BLOCK
5
117
100
AcDbEntity
8
0
100
AcDbBlockBegin
2
DimnDraft3D4
70
0
10
0
20
0
30
0
3
DimnDraft3D4
0
MTEXT
5
111
100
AcDbEntity
8
SK2
62
256
6
ByLayer
370
13
48
1
60
0
100
AcDbMText
10
112.840636
20
-17.927503
30
0
210
0
220
0
230
1
1
\W0.7150;2,06
40
3.5
41
0
44
1.084337
50
0
71
7
72
5
7
iso_b_vert
0
LINE
5
112
100
AcDbEntity
8
SK2
62
256
6
ByLayer
370
13
48
1
60
0
100
AcDbLine
10
106
20
-1.5875
30
0
11
106
21
-20.802503
31
0
39
0
210
0
220
0
230
1
0
LINE
5
113
100
AcDbEntity
8
SK2
62
256
6
ByLayer
370
13
48
1
60
0
100
AcDbLine
10
103.94
20
-7.5875
30
0
11
103.94
21
-20.802503
31
0
39
0
210
0
220
0
230
1
0
LINE
5
114
100
AcDbEntity
8
SK2
62
256
6
ByLayer
370
13
48
1
60
0
100
AcDbLine
10
95.19
20
-18.802503
30
0
11
119.997215
21
-18.802503
31
0
39
0
210
0
220
0
230
1
0
SOLID
5
115
100
AcDbEntity
8
SK2
62
256
6
ByLayer
370
13
48
1
60
0
100
AcDbTrace
10
106
20
-18.802503
30
0
11
109.499998
21
-18.341719
31
0
12
109.500002
22
-19.263287
32
0
13
106
23
-18.802503
33
0
39
0
210
0
220
0
230
1
0
SOLID
5
116
100
AcDbEntity
8
SK2
62
256
6
ByLayer
370
13
48
1
60
0
100
AcDbTrace
10
103.94
20
-18.802503
30
0
11
100.440002
21
-19.263287
31
0
12
100.439998
22
-18.341719
32
0
13
103.94
23
-18.802503
33
0
39
0
210
0
220
0
230
1
0
ENDBLK
5
118
100
AcDbEntity
8
0
100
AcDbBlockEnd
0
BLOCK
5
121
100
AcDbEntity
8
0
100
AcDbBlockBegin
2
DimnDraft3D5
70
0
10
0
20
0
30
0
3
DimnDraft3D5
0
MTEXT
5
11B
100
AcDbEntity
8
SK2
62
256
6
ByLayer
370
13
48
1
60
0
100
AcDbMText
10
21.013176
20
-23.468428
30
0
210
0
220
0
230
1
1
\W0.7261;148,94
40
3.5
41
0
44
1.084337
50
0
71
7
72
5
7
iso_b_vert
0
LINE
5
11C
100
AcDbEntity
8
SK2
62
256
6
ByLayer
370
13
48
1
60
0
100
AcDbLine
10
-45
20
-7.5875
30
0
11
-45
21
-26.343428
31
0
39
0
210
0
220
0
230
1
0
LINE
5
11D
100
AcDbEntity
8
SK2
62
256
6
ByLayer
370
13
48
1
60
0
100
AcDbLine
10
103.94
20
-7.5875
30
0
11
103.94
21
-26.343428
31
0
39
0
210
0
220
0
230
1
0
LINE
5
11E
100
AcDbEntity
8
SK2
62
256
6
ByLayer
370
13
48
1
60
0
100
AcDbLine
10
-45
20
-24.343428
30
0
11
103.94
21
-24.343428
31
0
39
0
210
0
220
0
230
1
0
SOLID
5
11F
100
AcDbEntity
8
SK2
62
256
6
ByLayer
370
13
48
1
60
0
100
AcDbTrace
10
-45
20
-24.343428
30
0
11
-41.500002
21
-23.882645
31
0
12
-41.499998
22
-24.804212
32
0
13
-45
23
-24.343428
33
0
39
0
210
0
220
0
230
1
0
SOLID
5
120
100
AcDbEntity
8
SK2
62
256
6
ByLayer
370
13
48
1
60
0
100
AcDbTrace
10
103.94
20
-24.343428
30
0
11
100.440002
21
-24.804212
31
0
12
100.439998
22
-23.882645
32
0
13
103.94
23
-24.343428
33
0
39
0
210
0
220
0
230
1
0
ENDBLK
5
122
100
AcDbEntity
8
0
100
AcDbBlockEnd
0
BLOCK
5
12C
100
AcDbEntity
8
0
100
AcDbBlockBegin
2
DimnDraft3D6
70
0
10
0
20
0
30
0
3
DimnDraft3D6
0
MTEXT
5
125
100
AcDbEntity
8
SK2
62
256
6
ByLayer
370
13
48
1
60
0
100
AcDbMText
10
-55.375163
20
25.34918
30
0
210
0
220
0
230
1
1
\W0.6930;12,000
40
3.5
41
0
44
1.084337
50
90
71
7
72
5
7
iso_b_vert
0
MTEXT
5
126
100
AcDbEntity
8
SK2
62
256
6
ByLayer
370
13
48
1
60
0
100
AcDbMText
10
-55.375163
20
20.126524
30
0
210
0
220
0
230
1
1
%%c
40
3.5
41
0
44
1.084337
50
90
71
7
72
5
7
iso_b_vert
0
LINE
5
127
100
AcDbEntity
8
SK2
62
256
6
ByLayer
370
13
48
1
60
0
100
AcDbLine
10
-46.5875
20
-6
30
0
11
-55.625163
21
-6
31
0
39
0
210
0
220
0
230
1
0
LINE
5
128
100
AcDbEntity
8
SK2
62
256
6
ByLayer
370
13
48
1
60
0
100
AcDbLine
10
-46.5875
20
6
30
0
11
-55.625163
21
6
31
0
39
0
210
0
220
0
230
1
0
LINE
5
129
100
AcDbEntity
8
SK2
62
256
6
ByLayer
370
13
48
1
60
0
100
AcDbLine
10
-53.625163
20
-6
30
0
11
-53.625163
21
36.862338
31
0
39
0
210
0
220
0
230
1
0
SOLID
5
12A
100
AcDbEntity
8
SK2
62
256
6
ByLayer
370
13
48
1
60
0
100
AcDbTrace
10
-53.625163
20
-6
30
0
11
-54.085946
21
-2.500002
31
0
12
-53.164379
22
-2.499998
32
0
13
-53.625163
23
-6
33
0
39
0
210
0
220
0
230
1
0
SOLID
5
12B
100
AcDbEntity
8
SK2
62
256
6
ByLayer
370
13
48
1
60
0
100
AcDbTrace
10
-53.625163
20
6
30
0
11
-53.164379
21
2.500002
31
0
12
-54.085946
22
2.499998
32
0
13
-53.625163
23
6
33
0
39
0
210
0
220
0
230
1
0
ENDBLK
5
12D
100
AcDbEntity
8
0
100
AcDbBlockEnd
0
BLOCK
5
137
100
AcDbEntity
8
0
100
AcDbBlockBegin
2
DimnDraft3D7
70
0
10
0
20
0
30
0
3
DimnDraft3D7
0
MTEXT
5
130
100
AcDbEntity
8
2
62
256
6
ByLayer
370
13
48
1
60
0
100
AcDbMText
10
116.333343
20
23.942266
30
0
210
0
220
0
230
1
1
\W0.6930;12,000
40
3.5
41
0
44
1.084337
50
90
71
7
72
5
7
iso_b_vert
0
MTEXT
5
131
100
AcDbEntity
8
2
62
256
6
ByLayer
370
13
48
1
60
0
100
AcDbMText
10
116.333343
20
18.71961
30
0
210
0
220
0
230
1
1
%%c
40
3.5
41
0
44
1.084337
50
90
71
7
72
5
7
iso_b_vert
0
LINE
5
132
100
AcDbEntity
8
2
62
256
6
ByLayer
370
13
48
1
60
0
100
AcDbLine
10
105.5275
20
-6
30
0
11
120.083343
21
-6
31
0
39
0
210
0
220
0
230
1
0
LINE
5
133
100
AcDbEntity
8
2
62
256
6
ByLayer
370
13
48
1
60
0
100
AcDbLine
10
105.5275
20
6
30
0
11
120.083343
21
6
31
0
39
0
210
0
220
0
230
1
0
LINE
5
134
100
AcDbEntity
8
2
62
256
6
ByLayer
370
13
48
1
60
0
100
AcDbLine
10
118.083343
20
-6
30
0
11
118.083343
21
35.455424
31
0
39
0
210
0
220
0
230
1
0
SOLID
5
135
100
AcDbEntity
8
2
62
256
6
ByLayer
370
13
48
1
60
0
100
AcDbTrace
10
118.083343
20
-6
30
0
11
117.622559
21
-2.500002
31
0
12
118.544126
22
-2.499998
32
0
13
118.083343
23
-6
33
0
39
0
210
0
220
0
230
1
0
SOLID
5
136
100
AcDbEntity
8
2
62
256
6
ByLayer
370
13
48
1
60
0
100
AcDbTrace
10
118.083343
20
6
30
0
11
118.544126
21
2.500002
31
0
12
117.622559
22
2.499998
32
0
13
118.083343
23
6
33
0
39
0
210
0
220
0
230
1
0
ENDBLK
5
138
100
AcDbEntity
8
0
100
AcDbBlockEnd
0
ENDSEC
0
SECTION
2
ENTITIES
0
ELLIPSE
5
A1
100
AcDbEntity
8
1
62
256
6
ByLayer
370
13
48
1
60
0
100
AcDbEllipse
10
104.395115
20
0.849843
30
0
11
0.133113781883907
21
0.268850741253513
31
0
210
0
220
0
230
1
40
0.40558
41
0.884485917130962
42
2.28074931872636
0
ELLIPSE
5
A2
100
AcDbEntity
8
1
62
256
6
ByLayer
370
18
48
1
60
0
100
AcDbEllipse
10
104.891299
20
2.843884
30
0
11
0.923854104350856
21
-2.51885720772461
31
0
210
0
220
0
230
-1
40
0.082138
41
-1.57034304494973
42
-0.755280950348531
0
ELLIPSE
5
A3
100
AcDbEntity
8
1
62
256
6
ByLayer
370
13
48
1
60
0
100
AcDbEllipse
10
7.172085
20
-4.720524
30
0
11
0.014539464878123
21
-0.0989373739345139
31
0
210
0
220
0
230
1
40
0.639418
41
-2.43984893331914
42
-1.15355384143205
0
ELLIPSE
5
A4
100
AcDbEntity
8
1
62
256
6
ByLayer
370
18
48
1
60
0
100
AcDbEllipse
10
105.860151
20
0.124473
30
0
11
0.0868803724563874
21
0.290676908822026
31
0
210
0
220
0
230
-1
40
0.467765
41
1.66485402730767
42
2.36053717389493
0
ELLIPSE
5
A5
100
AcDbEntity
8
1
62
256
6
ByLayer
370
18
48
1
60
0
100
AcDbEllipse
10
106.000508
20
0.00131
30
0
11
2.20009556504951
21
5.99848669335833
31
0
210
0
220
0
230
-1
40
0.082138
41
2.8955445197703
42
2.98960071573516
0
ELLIPSE
5
A6
100
AcDbEntity
8
1
62
256
6
ByLayer
370
18
48
1
60
0
100
AcDbEllipse
10
106.020738
20
-0.044962
30
0
11
0.13565854602019
21
0.401200806195871
31
0
210
0
220
0
230
-1
40
0.065863
41
-2.32292776272144
42
-1.62234750758002
0
ELLIPSE
5
A7
100
AcDbEntity
8
1
62
256
6
ByLayer
370
13
48
1
60
0
100
AcDbEllipse
10
105.26203
20
2.843884
30
0
11
4.04424689537451
21
-1.74513506815904
31
0
210
0
220
0
230
-1
40
0.449512
41
1.59122648755963
42
1.89570125967529
0
ELLIPSE
5
A8
100
AcDbEntity
8
1
62
256
6
ByLayer
370
13
48
1
60
0
100
AcDbEllipse
10
105.092571
20
2.709592
30
0
11
3.99827366747417
21
-2.05546980891995
31
0
210
0
220
0
230
-1
40
0.482873
41
1.53949524925417
42
1.84867110394072
0
ELLIPSE
5
A9
100
AcDbEntity
8
1
62
256
6
ByLayer
370
13
48
1
60
0
100
AcDbEllipse
10
7.250135
20
-4.72987
30
0
11
0.0329073492040397
21
0.0944304313680891
31
0
210
0
220
0
230
1
40
0.423666
41
0.686597086514129
42
2.24501046269634
0
ELLIPSE
5
AA
100
AcDbEntity
8
1
62
256
6
ByLayer
370
18
48
1
60
0
100
AcDbEllipse
10
106.000508
20
-0.001311
30
0
11
2.20009570577374
21
-5.99848709723974
31
0
210
0
220
0
230
-1
40
0.082138
41
-2.98960072084009
42
-2.89554452808546
0
ELLIPSE
5
AB
100
AcDbEntity
8
1
62
256
6
ByLayer
370
18
48
1
60
0
100
AcDbEllipse
10
106.020738
20
0.044962
30
0
11
0.135658546005019
21
-0.401200806155966
31
0
210
0
220
0
230
-1
40
0.065863
41
1.62234750752601
42
2.32292776273574
0
ELLIPSE
5
AC
100
AcDbEntity
8
1
62
256
6
ByLayer
370
18
48
1
60
0
100
AcDbEllipse
10
104.891299
20
-2.843884
30
0
11
0.923854104344738
21
2.51885720771049
31
0
210
0
220
0
230
-1
40
0.082138
41
0.755280950348426
42
1.57034304495384
0
POINT
5
6C
100
AcDbEntity
8
81
62
256
6
ByLayer
370
18
48
1
60
0
100
AcDbPoint
10
106
20
0
30
0
39
0
210
0
220
0
230
1
50
360
0
POINT
5
6E
100
AcDbEntity
8
80
62
256
6
ByLayer
370
18
48
1
60
0
100
AcDbPoint
10
0
20
0
30
0
39
0
210
0
220
0
230
1
50
360
0
POINT
5
70
100
AcDbEntity
8
SK2
62
256
6
ByLayer
370
18
48
1
60
1
100
AcDbPoint
10
-45
20
-6
30
0
39
0
210
0
220
0
230
1
50
360
0
POINT
5
72
100
AcDbEntity
8
SK2
62
256
6
ByLayer
370
18
48
1
60
1
100
AcDbPoint
10
-45
20
6
30
0
39
0
210
0
220
0
230
1
50
360
0
POINT
5
73
100
AcDbEntity
8
2
62
256
6
ByLayer
370
18
48
1
60
1
100
AcDbPoint
10
103.94
20
-6
30
0
39
0
210
0
220
0
230
1
50
360
0
POINT
5
75
100
AcDbEntity
8
2
62
256
6
ByLayer
370
18
48
1
60
1
100
AcDbPoint
10
103.94
20
6
30
0
39
0
210
0
220
0
230
1
50
360
0
SPLINE
5
AD
100
AcDbEntity
8
1
62
256
6
ByLayer
370
18
48
1
60
0
100
AcDbSpline
70
4
71
2
72
6
73
3
40
0
40
0
40
0
40
1
40
1
40
1
41
1
10
57.8100476742756
20
0.0018563120117108
30
0
41
1
10
57.8100318421681
20
0.0018658978318911
30
0
41
1
10
57.8100160100526
20
0.001875761596466
30
0
0
SPLINE
5
AE
100
AcDbEntity
8
1
62
256
6
ByLayer
370
18
48
1
60
0
100
AcDbSpline
70
4
71
3
72
34
73
30
40
0
40
0
40
0
40
0
40
0.057257470221401
40
0.107902587474438
40
0.14781731209543
40
0.178031588476091
40
0.199341464523538
40
0.226566379596559
40
0.256579173469407
40
0.292622739566793
40
0.327768393741296
40
0.3695047175042
40
0.408996312700365
40
0.438250065006024
40
0.462506368227012
40
0.494247131970929
40
0.532593351013878
40
0.585232060043041
40
0.630151390811162
40
0.668211185535203
40
0.7001753282
40
0.743666012648937
40
0.799401149471962
40
0.827428083674526
40
0.850657776588203
40
0.88102256818987
40
0.919254391579875
40
0.962529573648563
40
1
40
1
40
1
40
1
41
1
10
43.0245393319655
20
-5.69839969543125
30
0
41
1
10
43.3178250397217
20
-5.69851972284647
30
0
41
1
10
43.8707196824078
20
-5.69877238083726
30
0
41
1
10
44.6314542586703
20
-5.69913652174498
30
0
41
1
10
45.2492380794312
20
-5.69955438101948
30
0
41
1
10
45.718386246955
20
-5.69949085253478
30
0
41
1
10
46.1230411186632
20
-5.69964392466895
30
0
41
1
10
46.5265225208667
20
-5.70005650009642
30
0
41
1
10
47.0057436644254
20
-5.70147945026179
30
0
41
1
10
47.5256198202355
20
-5.70142512829017
30
0
41
1
10
48.1057482579137
20
-5.70130547962285
30
0
41
1
10
48.703590976784
20
-5.70146831050931
30
0
41
1
10
49.2711396597265
20
-5.70160266008489
30
0
41
1
10
49.7488975285371
20
-5.70252884292299
30
0
41
1
10
50.186855623979
20
-5.70304292099536
30
0
41
1
10
50.6715193805853
20
-5.70272035835177
30
0
41
1
10
51.3019929701141
20
-5.70401070438476
30
0
41
1
10
52.0001649662471
20
-5.70300966347119
30
0
41
1
10
52.6968646154015
20
-5.70440250661102
30
0
41
1
10
53.2873547020694
20
-5.7046680595931
30
0
41
1
10
53.870507119747
20
-5.7047169386644
30
0
41
1
10
54.5444606937859
20
-5.70638627797257
30
0
41
1
10
55.1981959653315
20
-5.70529564323991
30
0
41
1
10
55.7478074995044
20
-5.70642401713653
30
0
41
1
10
56.1666365546836
20
-5.70632295991084
30
0
41
1
10
56.6372948926117
20
-5.70609923538791
30
0
41
1
10
57.2089056696259
20
-5.70599004656637
30
0
41
1
10
57.820855160029
20
-5.70520717852537
30
0
41
1
10
58.2347813844899
20
-5.70586379938007
30
0
41
1
10
58.4268760721697
20
-5.70630137705228
30
0
0
SPLINE
5
AF
100
AcDbEntity
8
1
62
256
6
ByLayer
370
18
48
1
60
0
100
AcDbSpline
70
4
71
3
72
31
73
27
40
0
40
0
40
0
40
0
40
0.0674442974868128
40
0.127726650727425
40
0.179266543872196
40
0.221315265822426
40
0.255572608012526
40
0.283064797455221
40
0.307580029200167
40
0.3413901883666
40
0.381159062287824
40
0.414245568763099
40
0.44032996722825
40
0.477157095781449
40
0.529051045717174
40
0.57986601629205
40
0.617676885661674
40
0.651115688769598
40
0.685366020055132
40
0.722897676456448
40
0.766856584535394
40
0.807771984790564
40
0.857677288707913
40
0.917031941674824
40
0.984714071030164
40
1
40
1
40
1
40
1
41
1
10
13.0009051683366
20
-5.68047737125508
30
0
41
1
10
13.3460140695643
20
-5.67975576074178
30
0
41
1
10
14.0010002680511
20
-5.67903201408501
30
0
41
1
10
14.9290286783289
20
-5.6811529695795
30
0
41
1
10
15.7204857489799
20
-5.6819837093181
30
0
41
1
10
16.3826195531741
20
-5.6828472282572
30
0
41
1
10
16.9195001775308
20
-5.68267118534314
30
0
41
1
10
17.3658583412722
20
-5.68255714562414
30
0
41
1
10
17.8098605147374
20
-5.68254507140398
30
0
41
1
10
18.3174006190666
20
-5.6826483101502
30
0
41
1
10
18.8692760555339
20
-5.68456010647384
30
0
41
1
10
19.3811807926152
20
-5.68491988683996
30
0
41
1
10
19.8778715188325
20
-5.68463054387604
30
0
41
1
10
20.4718627764448
20
-5.6842396884341
30
0
41
1
10
21.1938211586395
20
-5.68350379906045
30
0
41
1
10
21.9208545958452
20
-5.6866449103774
30
0
41
1
10
22.5524094068678
20
-5.6862967995616
30
0
41
1
10
23.0982574767726
20
-5.68658170249009
30
0
41
1
10
23.642669109001
20
-5.68649932324146
30
0
41
1
10
24.2414771539978
20
-5.68586033644078
30
0
41
1
10
24.8749268465753
20
-5.6865313197421
30
0
41
1
10
25.571783831859
20
-5.68679772070377
30
0
41
1
10
26.3502740852818
20
-5.69028585633592
30
0
41
1
10
27.2581416590647
20
-5.68924212101135
30
0
41
1
10
27.9957510380953
20
-5.68412477251093
30
0
41
1
10
28.4210823702425
20
-5.68634420079712
30
0
41
1
10
28.4994004807779
20
-5.68682552599952
30
0
0
SPLINE
5
B0
100
AcDbEntity
8
1
62
256
6
ByLayer
370
18
48
1
60
0
100
AcDbSpline
70
4
71
3
72
32
73
28
40
0
40
0
40
0
40
0
40
0.0570748675289308
40
0.105692007060542
40
0.141543664741844
40
0.171684520393302
40
0.198102449554337
40
0.245562106030717
40
0.29558690454508
40
0.361308957377375
40
0.429595652252673
40
0.490020727406643
40
0.540980486161645
40
0.574229516227709
40
0.611638241209919
40
0.654690811070304
40
0.699561490898512
40
0.735305481447833
40
0.761852302075499
40
0.787314853557873
40
0.823475712465696
40
0.859749890638576
40
0.885091307859097
40
0.898377140243719
40
0.918354285274028
40
0.945882344968427
40
1
40
1
40
1
40
1
41
1
10
72.9768097398636
20
-5.71657554065109
30
0
41
1
10
73.2652777784678
20
-5.71670713884583
30
0
41
1
10
73.7995027633648
20
-5.7169937464887
30
0
41
1
10
74.515726032505
20
-5.71706448308794
30
0
41
1
10
75.0947405792975
20
-5.71778080325578
30
0
41
1
10
75.5615115199503
20
-5.71778264947864
30
0
41
1
10
76.0877438733439
20
-5.71802688641634
30
0
41
1
10
76.7144277264914
20
-5.71857462285007
30
0
41
1
10
77.5399693873257
20
-5.71866209955931
30
0
41
1
10
78.4708612869659
20
-5.71901971570645
30
0
41
1
10
79.4543544249617
20
-5.72089193749542
30
0
41
1
10
80.3631266707284
20
-5.71981817062925
30
0
41
1
10
81.0948847254253
20
-5.7203612057566
30
0
41
1
10
81.7094300068804
20
-5.72041657254846
30
0
41
1
10
82.2846435829504
20
-5.72308168503727
30
0
41
1
10
82.9186106322522
20
-5.72136217034773
30
0
41
1
10
83.5439434078117
20
-5.720942724092
30
0
41
1
10
84.0859151159113
20
-5.72088357693499
30
0
41
1
10
84.5297857072775
20
-5.72143282211812
30
0
41
1
10
84.9757733731932
20
-5.72231332869652
30
0
41
1
10
85.4709590614358
20
-5.72350583082928
30
0
41
1
10
85.9655101053667
20
-5.72415603827551
30
0
41
1
10
86.3443725024031
20
-5.72520394703557
30
0
41
1
10
86.6404404454752
20
-5.72562051983303
30
0
41
1
10
86.9479201023372
20
-5.72557675489654
30
0
41
1
10
87.4619240833852
20
-5.72490743127216
30
0
41
1
10
87.8749039338163
20
-5.72455102723166
30
0
41
1
10
88.1486475758172
20
-5.72428317949738
30
0
0
SPLINE
5
B1
100
AcDbEntity
8
1
62
256
6
ByLayer
370
18
48
1
60
0
100
AcDbSpline
70
4
71
3
72
31
73
27
40
0
40
0
40
0
40
0
40
0.0050832516000405
40
0.0739954967617527
40
0.135519846034242
40
0.182521176072048
40
0.218595790198784
40
0.268356853580326
40
0.325773709891843
40
0.363332552936879
40
0.393083747330409
40
0.427490959133868
40
0.466757677001161
40
0.511497170566088
40
0.561998744046077
40
0.612913234109742
40
0.65357310025817
40
0.686010063247098
40
0.730618883386284
40
0.787513045968911
40
0.837871904781939
40
0.878394466894612
40
0.910829036485587
40
0.941820947890119
40
0.970141875423725
40
1
40
1
40
1
40
1
41
1
10
58.4290260556838
20
5.70622967379828
30
0
41
1
10
58.4074567165538
20
5.70619314369816
30
0
41
1
10
58.0934021523211
20
5.70568294555227
30
0
41
1
10
57.5110326843741
20
5.70534408585669
30
0
41
1
10
56.7567000224365
20
5.70617565649061
30
0
41
1
10
56.1402929667371
20
5.70640607936909
30
0
41
1
10
55.5729661220071
20
5.70619897918539
30
0
41
1
10
54.9606979331525
20
5.70530855541907
30
0
41
1
10
54.3421389386801
20
5.70612313474936
30
0
41
1
10
53.8090848276688
20
5.70470001532183
30
0
41
1
10
53.3743702613069
20
5.70458746075096
30
0
41
1
10
52.932357450238
20
5.70477058598792
30
0
41
1
10
52.4262883425449
20
5.70364405943121
30
0
41
1
10
51.851436860519
20
5.70332101964155
30
0
41
1
10
51.2268041029898
20
5.70387861423367
30
0
41
1
10
50.6196041798617
20
5.70269430965544
30
0
41
1
10
50.0896107585801
20
5.70306569100356
30
0
41
1
10
49.5865607124322
20
5.70216975590796
30
0
41
1
10
49.0141623131438
20
5.70142990921406
30
0
41
1
10
48.3651503099621
20
5.70136493811586
30
0
41
1
10
47.7335859771043
20
5.70133836510456
30
0
41
1
10
47.2065753267112
20
5.70158315038032
30
0
41
1
10
46.7623364778153
20
5.70074746799477
30
0
41
1
10
46.3702115370499
20
5.69984879530105
30
0
41
1
10
45.9891745054888
20
5.69956233382075
30
0
41
1
10
45.7404229701388
20
5.69953557449244
30
0
41
1
10
45.6129553641846
20
5.69952004582015
30
0
0
SPLINE
5
B2
100
AcDbEntity
8
1
62
256
6
ByLayer
370
18
48
1
60
0
100
AcDbSpline
70
4
71
3
72
11
73
7
40
0
40
0
40
0
40
0
40
0.032490098029238
40
0.205252898674837
40
0.419677931489367
40
1
40
1
40
1
40
1
41
1
10
88.9673268964554
20
-1.26323645664112
30
0
41
1
10
88.9672631715059
20
-1.26322715522528
30
0
41
1
10
88.9675658049081
20
-1.26356400611761
30
0
41
1
10
88.9773631503306
20
-1.2694470965958
30
0
41
1
10
89.0530790724528
20
-1.31423372949538
30
0
41
1
10
89.142771901583
20
-1.36841919938368
30
0
41
1
10
89.2299599381777
20
-1.42125417967534
30
0
0
SPLINE
5
B3
100
AcDbEntity
8
1
62
256
6
ByLayer
370
18
48
1
60
0
100
AcDbSpline
70
4
71
2
72
6
73
3
40
0
40
0
40
0
40
1
40
1
40
1
41
1
10
102.933036258922
20
-5.73444876184331
30
0
41
1
10
103.425163456314
20
-5.72812364413215
30
0
41
1
10
103.917238632586
20
-5.73757775273012
30
0
0
SPLINE
5
B4
100
AcDbEntity
8
1
62
256
6
ByLayer
370
18
48
1
60
0
100
AcDbSpline
70
4
71
3
72
31
73
27
40
0
40
0
40
0
40
0
40
0.0491628621699451
40
0.103027651934727
40
0.149655569446415
40
0.179273839191915
40
0.202786072778109
40
0.230282281579607
40
0.271116579622757
40
0.325606761809086
40
0.362651882700517
40
0.391334216098526
40
0.426820089773312
40
0.469205693062002
40
0.516890231645599
40
0.57689705354131
40
0.636118005131371
40
0.682843530224539
40
0.72148708705132
40
0.760738745813833
40
0.803945431925762
40
0.841785788491883
40
0.885846520148914
40
0.935995964447249
40
0.9802192762275
40
1
40
1
40
1
40
1
41
1
10
88.364810483235
20
5.72360966060964
30
0
41
1
10
88.1560131198441
20
5.72330242402299
30
0
41
1
10
87.7189081858062
20
5.72303703972426
30
0
41
1
10
87.0839384797542
20
5.72527080234531
30
0
41
1
10
86.5354131263613
20
5.7258101164374
30
0
41
1
10
86.1123156342859
20
5.72451192361996
30
0
41
1
10
85.7697540256141
20
5.7239111576109
30
0
41
1
10
85.3797945847148
20
5.72328676052601
30
0
41
1
10
84.8580949236855
20
5.72203075806155
30
0
41
1
10
84.2959021401494
20
5.72102536642504
30
0
41
1
10
83.7853038713522
20
5.72085102066467
30
0
41
1
10
83.3554245402133
20
5.72116110408103
30
0
41
1
10
82.9028662797413
20
5.72156740314938
30
0
41
1
10
82.3695980256665
20
5.72287925571857
30
0
41
1
10
81.7321832942975
20
5.72069473272347
30
0
41
1
10
81.0232599063942
20
5.72032247401853
30
0
41
1
10
80.3184120090813
20
5.71994119812973
30
0
41
1
10
79.7043015080008
20
5.72024411257789
30
0
41
1
10
79.1749987002025
20
5.72070981144219
30
0
41
1
10
78.660658639935
20
5.71913380580338
30
0
41
1
10
78.1497370242241
20
5.71927274596038
30
0
41
1
10
77.6184000031379
20
5.71877880815771
30
0
41
1
10
77.0575541618323
20
5.71842389704759
30
0
41
1
10
76.4695928485735
20
5.71847174735811
30
0
41
1
10
75.984731528187
20
5.71793821091492
30
0
41
1
10
75.7129203724547
20
5.71782008892293
30
0
41
1
10
75.6289537282434
20
5.7177851467728
30
0
0
SPLINE
5
B5
100
AcDbEntity
8
1
62
256
6
ByLayer
370
18
48
1
60
0
100
AcDbSpline
70
4
71
3
72
10
73
6
40
0
40
0
40
0
40
0
40
0.121757482993001
40
0.452738892714776
40
1
40
1
40
1
40
1
41
1
10
59.0465120182912
20
-1.28054459061269
30
0
41
1
10
59.0465132683022
20
-1.28063023387983
30
0
41
1
10
59.0517161619463
20
-1.28374341318616
30
0
41
1
10
59.0908134488208
20
-1.30602545759481
30
0
41
1
10
59.1482176873486
20
-1.33960801617334
30
0
41
1
10
59.1954917703395
20
-1.36727583155985
30
0
0
SPLINE
5
B6
100
AcDbEntity
8
1
62
256
6
ByLayer
370
18
48
1
60
0
100
AcDbSpline
70
4
71
3
72
30
73
26
40
0
40
0
40
0
40
0
40
0.0069372481479096
40
0.0773121951405878
40
0.142688942032495
40
0.198275409338942
40
0.249711081631441
40
0.31105850183684
40
0.356846202528696
40
0.396296098497575
40
0.434056049820745
40
0.470999680179827
40
0.514650104933019
40
0.571672351430896
40
0.634521080742667
40
0.679122392431929
40
0.710713190667793
40
0.750784237421514
40
0.79894829510116
40
0.839895757166002
40
0.869586138595421
40
0.89762522043509
40
0.931677069136845
40
0.97209868090238
40
1
40
1
40
1
40
1
41
1
10
28.5162472692354
20
5.68652854873932
30
0
41
1
10
28.48695416354
20
5.68635896085354
30
0
41
1
10
28.1603739089583
20
5.68461955199751
30
0
41
1
10
27.5439697886142
20
5.68671349161662
30
0
41
1
10
26.740230673524
20
5.69110348452747
30
0
41
1
10
26.001811006301
20
5.68783752151373
30
0
41
1
10
25.2836554178997
20
5.68681810000137
30
0
41
1
10
24.6059235842062
20
5.68611379532084
30
0
41
1
10
23.979757220236
20
5.68605488868459
30
0
41
1
10
23.4542866755874
20
5.68665244006246
30
0
41
1
10
22.9666156430097
20
5.68645165646555
30
0
41
1
10
22.4609948474033
20
5.68639432959586
30
0
41
1
10
21.8730857331709
20
5.68643588937385
30
0
41
1
10
21.1745121641773
20
5.68351350182118
30
0
41
1
10
20.4718627810442
20
5.68424161450437
30
0
41
1
10
19.8778715243424
20
5.68463025342882
30
0
41
1
10
19.3811807733144
20
5.68491995995129
30
0
41
1
10
18.8692761617367
20
5.68456015337995
30
0
41
1
10
18.3174001674223
20
5.68264798326592
30
0
41
1
10
17.8098617535672
20
5.68254598784225
30
0
41
1
10
17.3883116396849
20
5.68255418452179
30
0
41
1
10
16.9962051549923
20
5.68265831453354
30
0
41
1
10
16.5582993376245
20
5.68277476351142
30
0
41
1
10
16.1209057468485
20
5.68255501833715
30
0
41
1
10
15.829078595657
20
5.6822185208899
30
0
41
1
10
15.7100691762904
20
5.68205989534556
30
0
0
SPLINE
5
B7
100
AcDbEntity
8
SK1
62
256
6
ByLayer
370
18
48
1
60
0
100
AcDbSpline
70
4
71
3
72
14
73
10
40
0
40
0
40
0
40
0
40
0.124999999999997
40
0.124999999999997
40
0.249999999999994
40
0.249999999999994
40
0.499999999999999
40
0.499999999999999
40
1
40
1
40
1
40
1
41
1
10
-43.6
20
-4.9676281399764
30
0
41
1
10
-43.6
20
-4.96171705251905
30
0
41
1
10
-43.6017220508865
20
-4.95337963184465
30
0
41
1
10
-43.6068954324577
20
-4.93533353753591
30
0
41
1
10
-43.610237321167
20
-4.92583355320389
30
0
41
1
10
-43.6215324998379
20
-4.89653284132442
30
0
41
1
10
-43.6303471072619
20
-4.8769267890732
30
0
41
1
10
-43.658490206513
20
-4.81850179183212
30
0
41
1
10
-43.678793979422
20
-4.78156960926111
30
0
41
1
10
-43.7
20
-4.74663930355678
30
0
0
SPLINE
5
B8
100
AcDbEntity
8
SK1
62
256
6
ByLayer
370
18
48
1
60
0
100
AcDbSpline
70
4
71
3
72
10
73
6
40
0
40
0
40
0
40
0
40
0.5
40
0.5
40
1
40
1
40
1
40
1
41
1
10
-43.7
20
-4.74663930355678
30
0
41
1
10
-43.9194066643506
20
-4.3852352470455
30
0
41
1
10
-44.1380460883857
20
-4.02342950243505
30
0
41
1
10
-44.5722311260931
20
-3.29825503343736
30
0
41
1
10
-44.787887135766
20
-2.93493758324629
30
0
41
1
10
-45
20
-2.56981905831529
30
0
0
SPLINE
5
B9
100
AcDbEntity
8
SK1
62
256
6
ByLayer
370
18
48
1
60
0
100
AcDbSpline
70
4
71
3
72
10
73
6
40
0
40
0
40
0
40
0
40
0.5
40
0.5
40
1
40
1
40
1
40
1
41
1
10
-45
20
-3.499560693186
30
0
41
1
10
-44.7879558642864
20
-3.86456091291163
30
0
41
1
10
-44.5723067007185
20
-4.22786985164655
30
0
41
1
10
-44.1380805577028
20
-4.95311415877435
30
0
41
1
10
-43.919419630997
20
-5.31495552340988
30
0
41
1
10
-43.7
20
-5.67638093842746
30
0
0
SPLINE
5
BA
100
AcDbEntity
8
SK1
62
256
6
ByLayer
370
18
48
1
60
0
100
AcDbSpline
70
4
71
3
72
14
73
10
40
0
40
0
40
0
40
0
40
0.499999999999998
40
0.499999999999998
40
0.749999999999997
40
0.749999999999997
40
0.874999999999999
40
0.874999999999999
40
1
40
1
40
1
40
1
41
1
10
-43.7
20
-5.67638093842751
30
0
41
1
10
-43.6789021434844
20
-5.71113307757062
30
0
41
1
10
-43.6585587767126
20
-5.74364955950495
30
0
41
1
10
-43.6303722414292
20
-5.78633329150483
30
0
41
1
10
-43.6214260646625
20
-5.79943384276223
30
0
41
1
10
-43.6102968606991
20
-5.81435550173376
30
0
41
1
10
-43.6069058574072
20
-5.81862135760545
30
0
41
1
10
-43.6017309986994
20
-5.8239922876601
30
0
41
1
10
-43.6
20
-5.82500427656438
30
0
41
1
10
-43.6
20
-5.8229904440575
30
0
0
SPLINE
5
BB
100
AcDbEntity
8
1
62
256
6
ByLayer
370
18
48
1
60
0
100
AcDbSpline
70
2053
71
3
72
60
73
56
40
0
40
0
40
0
40
0
40
0.0312499999999989
40
0.0312499999999989
40
0.0624999999999978
40
0.0624999999999978
40
0.0937499999999967
40
0.0937499999999967
40
0.124999999999996
40
0.124999999999996
40
0.156249999999995
40
0.156249999999995
40
0.187499999999993
40
0.187499999999993
40
0.249999999999991
40
0.249999999999991
40
0.281249999999991
40
0.281249999999991
40
0.312499999999991
40
0.312499999999991
40
0.374999999999992
40
0.374999999999992
40
0.437499999999992
40
0.437499999999992
40
0.468749999999992
40
0.468749999999992
40
0.499999999999992
40
0.499999999999992
40
0.531249999999992
40
0.531249999999992
40
0.562499999999992
40
0.562499999999992
40
0.593749999999992
40
0.593749999999992
40
0.624999999999992
40
0.624999999999992
40
0.656249999999992
40
0.656249999999992
40
0.687499999999992
40
0.687499999999992
40
0.749999999999992
40
0.749999999999992
40
0.781249999999993
40
0.781249999999993
40
0.812499999999993
40
0.812499999999993
40
0.843749999999993
40
0.843749999999993
40
0.874999999999993
40
0.874999999999993
40
0.906249999999993
40
0.906249999999993
40
0.937499999999993
40
0.937499999999993
40
1
40
1
40
1
40
1
41
1
10
104.582474258137
20
-2.99788862256181
30
0
41
1
10
104.610679990907
20
-2.95751905728153
30
0
41
1
10
104.638296129458
20
-2.9142710115041
30
0
41
1
10
104.692247445868
20
-2.82152109275481
30
0
41
1
10
104.71887595138
20
-2.77140554495244
30
0
41
1
10
104.768955896067
20
-2.66693685637881
30
0
41
1
10
104.792346309391
20
-2.61285881072129
30
0
41
1
10
104.83531566584
20
-2.50044266399274
30
0
41
1
10
104.854366084521
20
-2.44330967132729
30
0
41
1
10
104.885983300104
20
-2.33107719129981
30
0
41
1
10
104.898883478777
20
-2.27450125648849
30
0
41
1
10
104.916728225951
20
-2.16882565993774
30
0
41
1
10
104.921923544044
20
-2.11875068116225
30
0
41
1
10
104.926231595864
20
-1.98159629780352
30
0
41
1
10
104.914019465349
20
-1.90964283553439
30
0
41
1
10
104.880000485095
20
-1.83338833526298
30
0
41
1
10
104.865931873124
20
-1.81294103816629
30
0
41
1
10
104.834037211827
20
-1.78215020392653
30
0
41
1
10
104.816117249729
20
-1.77155498750253
30
0
41
1
10
104.756923139664
20
-1.7530177688455
30
0
41
1
10
104.711974218448
20
-1.75847478233959
30
0
41
1
10
104.613012536491
20
-1.80079545719326
30
0
41
1
10
104.560813204294
20
-1.83685892569701
30
0
41
1
10
104.478370979724
20
-1.91366784694108
30
0
41
1
10
104.450343207906
20
-1.94305582818342
30
0
41
1
10
104.394685477969
20
-2.00806662884523
30
0
41
1
10
104.366843670293
20
-2.04387247778968
30
0
41
1
10
104.311131400886
20
-2.1227910887601
30
0
41
1
10
104.282946409546
20
-2.16645478758576
30
0
41
1
10
104.228523375734
20
-2.25933513228782
30
0
41
1
10
104.202238826685
20
-2.30850012693807
30
0
41
1
10
104.151819914496
20
-2.41315058838475
30
0
41
1
10
104.127945904137
20
-2.46824645710689
30
0
41
1
10
104.085190892967
20
-2.58000462595931
30
0
41
1
10
104.065813004252
20
-2.63812002123044
30
0
41
1
10
104.034136232147
20
-2.75098466642874
30
0
41
1
10
104.021501540193
20
-2.80662422509488
30
0
41
1
10
104.003552712289
20
-2.9134735151606
30
0
41
1
10
103.99846999181
20
-2.9629845524712
30
0
41
1
10
103.994063777832
20
-3.10061466559244
30
0
41
1
10
104.00612142432
20
-3.17343208265606
30
0
41
1
10
104.039722502961
20
-3.25057481485064
30
0
41
1
10
104.053590994573
20
-3.27133360030882
30
0
41
1
10
104.085432668251
20
-3.30297441208836
30
0
41
1
10
104.103259821205
20
-3.31382732110927
30
0
41
1
10
104.142322244297
20
-3.32665223462325
30
0
41
1
10
104.163688230478
20
-3.32855015431235
30
0
41
1
10
104.208477739706
20
-3.32384702995006
30
0
41
1
10
104.232014911447
20
-3.31732184633407
30
0
41
1
10
104.281288542752
20
-3.29623676517559
30
0
41
1
10
104.307182170034
20
-3.28152951226844
30
0
41
1
10
104.359759849728
20
-3.24483966122062
30
0
41
1
10
104.386578764832
20
-3.22283673879366
30
0
41
1
10
104.468652034689
20
-3.14567249555054
30
0
41
1
10
104.526062792598
20
-3.07862775312239
30
0
41
1
10
104.582474258137
20
-2.99788862256181
30
0
0
SPLINE
5
BC
100
AcDbEntity
8
1
62
256
6
ByLayer
370
18
48
1
60
0
100
AcDbSpline
70
4
71
3
72
10
73
6
40
0
40
0
40
0
40
0
40
0.649345419265365
40
0.649345419265365
40
1
40
1
40
1
40
1
41
1
10
103.900375894948
20
5.95538354079781
30
0
41
1
10
103.648630089233
20
5.97452851477323
30
0
41
1
10
103.396851538204
20
5.98742094874518
30
0
41
1
10
103.008752401911
20
5.99760643141434
30
0
41
1
10
102.872539933347
20
5.99934309253408
30
0
41
1
10
102.736353295667
20
5.99924650030508
30
0
0
SPLINE
5
BD
100
AcDbEntity
8
1
62
256
6
ByLayer
370
18
48
1
60
0
100
AcDbSpline
70
4
71
3
72
62
73
58
40
0
40
0
40
0
40
0
40
0.0113629552607421
40
0.0113629552607421
40
0.0575630864344496
40
0.0575630864344496
40
0.103763217608157
40
0.103763217608157
40
0.149963348781864
40
0.149963348781864
40
0.196163479955572
40
0.196163479955572
40
0.242363611129279
40
0.242363611129279
40
0.288563742302987
40
0.288563742302987
40
0.334763873476694
40
0.334763873476694
40
0.380964004650402
40
0.380964004650402
40
0.427164135824109
40
0.427164135824109
40
0.473364266997817
40
0.473364266997817
40
0.519564398171524
40
0.519564398171524
40
0.542664463758378
40
0.542664463758378
40
0.565764529345231
40
0.565764529345231
40
0.61196466051894
40
0.61196466051894
40
0.635064726105794
40
0.635064726105794
40
0.658164791692649
40
0.658164791692649
40
0.704364922866358
40
0.704364922866358
40
0.727464988453213
40
0.727464988453213
40
0.750565054040067
40
0.750565054040067
40
0.796765185213776
40
0.796765185213776
40
0.81986525080063
40
0.81986525080063
40
0.842965316387484
40
0.842965316387484
40
0.889165447561192
40
0.889165447561192
40
0.912265513148045
40
0.912265513148045
40
0.935365578734898
40
0.935365578734898
40
0.981565709908606
40
0.981565709908606
40
1
40
1
40
1
40
1
41
1
10
75.5659370168408
20
-5.73069985335889
30
0
41
1
10
75.4419026502352
20
-5.75299910558874
30
0
41
1
10
75.3179197559294
20
-5.77383528980354
30
0
41
1
10
74.6903702932833
20
-5.87182840948788
30
0
41
1
10
74.187552059872
20
-5.92605612545032
30
0
41
1
10
73.1802811566758
20
-5.9847773744921
30
0
41
1
10
72.6748290090489
20
-5.98913115843595
30
0
41
1
10
71.6674881833052
20
-5.947667664118
30
0
41
1
10
71.1646245677345
20
-5.90200153954211
30
0
41
1
10
70.1571770447792
20
-5.7615689790621
30
0
41
1
10
69.6516951301853
20
-5.6665537494419
30
0
41
1
10
68.6443302050818
20
-5.43058193794687
30
0
41
1
10
68.1414019689864
20
-5.28962763400895
30
0
41
1
10
67.1338177702684
20
-4.964043418269
30
0
41
1
10
66.6283438287278
20
-4.77913381208467
30
0
41
1
10
65.620828603045
20
-4.37243061882569
30
0
41
1
10
65.1179216632401
20
-4.1502008446538
30
0
41
1
10
64.1103138237366
20
-3.67177637441023
30
0
41
1
10
63.6047916978002
20
-3.41551091157439
30
0
41
1
10
62.5971519113645
20
-2.87877757432423
30
0
41
1
10
62.0942013367555
20
-2.59748326457554
30
0
41
1
10
61.0863474607671
20
-2.01418509589354
30
0
41
1
10
60.5808041796695
20
-1.71217966497218
30
0
41
1
10
59.5732235763024
20
-1.09878707487553
30
0
41
1
10
59.0702740833434
20
-0.786423214871093
30
0
41
1
10
58.3141805964597
20
-0.31398689166997
30
0
41
1
10
58.0615807158016
20
-0.155715158273466
30
0
41
1
10
57.556780415123
20
0.160513400168327
30
0
41
1
10
57.3047542112737
20
0.318358157388474
30
0
41
1
10
56.5491283567782
20
0.79002553639009
30
0
41
1
10
56.0460301238339
20
1.10205994281415
30
0
41
1
10
55.2897130790295
20
1.5622861412927
30
0
41
1
10
55.0370226746249
20
1.71453750469203
30
0
41
1
10
54.5322592399341
20
2.01474764686083
30
0
41
1
10
54.2802537371009
20
2.16266660151331
30
0
41
1
10
53.5246579375803
20
2.59885023165475
30
0
41
1
10
53.0215416546559
20
2.87962264857256
30
0
41
1
10
52.2650821824331
20
3.28184298262994
30
0
41
1
10
52.0123325351588
20
3.41289749169255
30
0
41
1
10
51.5075749112596
20
3.66710710471003
30
0
41
1
10
51.2555611915881
20
3.79030712851602
30
0
41
1
10
50.4999323338939
20
4.14741128825995
30
0
41
1
10
49.996783363936
20
4.36888251833696
30
0
41
1
10
49.2401409901971
20
4.67291597177004
30
0
41
1
10
48.9873614906245
20
4.76970122802615
30
0
41
1
10
48.482677483269
20
4.95265114951585
30
0
41
1
10
48.2306706617545
20
5.0388704430909
30
0
41
1
10
47.4750292545531
20
5.28131280744938
30
0
41
1
10
46.9717798456836
20
5.42132529230017
30
0
41
1
10
46.214964944652
20
5.59685738819078
30
0
41
1
10
45.9621425211116
20
5.64967762650912
30
0
41
1
10
45.4574840008039
20
5.74309526823123
30
0
41
1
10
45.2054819091255
20
5.78374648914172
30
0
41
1
10
44.4498209915341
20
5.88737106502663
30
0
41
1
10
43.9464618119201
20
5.93201142629036
30
0
41
1
10
43.2405100428804
20
5.9595600311325
30
0
41
1
10
43.0388317118253
20
5.96343319361449
30
0
41
1
10
42.8373444568188
20
5.96330849052222
30
0
0
SPLINE
5
BE
100
AcDbEntity
8
1
62
256
6
ByLayer
370
18
48
1
60
0
100
AcDbSpline
70
4
71
3
72
12
73
8
40
0
40
0
40
0
40
0
40
0.290898001241861
40
0.290898001241861
40
0.645449000620931
40
0.645449000620931
40
1
40
1
40
1
40
1
41
1
10
15.6571467990018
20
-5.69779906107834
30
0
41
1
10
14.8288565073145
20
-5.84531659292634
30
0
41
1
10
14.0034340046798
20
-5.9278402137077
30
0
41
1
10
12.161656573869
20
-5.96113262663462
30
0
41
1
10
11.1571750732904
20
-5.8789846674583
30
0
41
1
10
9.13372030321091
20
-5.51992988379544
30
0
41
1
10
8.12919461381091
20
-5.2454652009836
30
0
41
1
10
7.1177976568143
20
-4.88644167574043
30
0
0
SPLINE
5
BF
100
AcDbEntity
8
1
62
256
6
ByLayer
370
13
48
1
60
0
100
AcDbSpline
70
4
71
3
72
16
73
12
40
0
40
0
40
0
40
0
40
0.204918007540621
40
0.204918007540621
40
0.307377011310933
40
0.307377011310933
40
0.409836015081244
40
0.409836015081244
40
0.819672030162486
40
0.819672030162486
40
1
40
1
40
1
40
1
41
1
10
7.19833810435239
20
-4.77793020501326
30
0
41
1
10
7.7072221807968
20
-4.95146325215217
30
0
41
1
10
8.21480035186465
20
-5.1040206252888
30
0
41
1
10
8.9765516805497
20
-5.29975855164267
30
0
41
1
10
9.23053856394714
20
-5.35948560584936
30
0
41
1
10
9.73920497610871
20
-5.46753303833745
30
0
41
1
10
9.99378492195308
20
-5.51580243806103
30
0
41
1
10
11.2609512181379
20
-5.7265825860718
30
0
41
1
10
12.2629536972386
20
-5.79901469645631
30
0
41
1
10
13.7088082615576
20
-5.7650689031704
30
0
41
1
10
14.1509448062746
20
-5.73606116018115
30
0
41
1
10
14.5945450397251
20
-5.68839372381893
30
0
0
SPLINE
5
C0
100
AcDbEntity
8
1
62
256
6
ByLayer
370
18
48
1
60
0
100
AcDbSpline
70
4
71
3
72
20
73
16
40
0
40
0
40
0
40
0
40
0.113000989831867
40
0.113000989831867
40
0.210752705754431
40
0.210752705754431
40
0.308504421676996
40
0.308504421676996
40
0.504007853522125
40
0.504007853522125
40
0.895014717212389
40
0.895014717212389
40
0.992766433134958
40
0.992766433134958
40
1
40
1
40
1
40
1
41
1
10
57.7821365921038
20
0.0188489985677336
30
0
41
1
10
58.07477262688
20
-0.159390389012827
30
0
41
1
10
58.3675555376009
20
-0.337794359906155
30
0
41
1
10
58.9144862212088
20
-0.669842606093709
30
0
41
1
10
59.1689468297159
20
-0.823822281581926
30
0
41
1
10
59.6759246127991
20
-1.12837917936341
30
0
41
1
10
59.9286880971526
20
-1.2790559448444
30
0
41
1
10
60.6852144331307
20
-1.72565077737696
30
0
41
1
10
61.1871875417525
20
-2.01621031823734
30
0
41
1
10
62.6910468102119
20
-2.85893006451553
30
0
41
1
10
63.6919583060584
20
-3.38053786942095
30
0
41
1
10
64.9559583815536
20
-3.95940236380352
30
0
41
1
10
65.2099133045211
20
-4.07166087823313
30
0
41
1
10
65.4825614282523
20
-4.18728480349932
30
0
41
1
10
65.5013427469961
20
-4.19522477485862
30
0
41
1
10
65.5201197728148
20
-4.2031381059042
30
0
0
SPLINE
5
C1
100
AcDbEntity
8
1
62
256
6
ByLayer
370
13
48
1
60
0
100
AcDbSpline
70
4
71
3
72
20
73
16
40
0
40
0
40
0
40
0
40
0.0777235756160916
40
0.0777235756160916
40
0.245593177404707
40
0.245593177404707
40
0.581332380981942
40
0.581332380981942
40
0.665267181876249
40
0.665267181876249
40
0.749201982770556
40
0.749201982770556
40
0.917071584559169
40
0.917071584559169
40
1
40
1
40
1
40
1
41
1
10
65.5201206945223
20
-4.20313849434567
30
0
41
1
10
65.7550890605433
20
-4.30216281761105
30
0
41
1
10
65.9893851957425
20
-4.39701552283427
30
0
41
1
10
66.7279316944939
20
-4.68334079869584
30
0
41
1
10
67.2301448792781
20
-4.85928373029029
30
0
41
1
10
68.7343881378081
20
-5.32412711681121
30
0
41
1
10
69.7342258395069
20
-5.54991055747249
30
0
41
1
10
70.9965696350995
20
-5.71442963963719
30
0
41
1
10
71.2496818825728
20
-5.74145394619933
30
0
41
1
10
71.7576837115911
20
-5.78337902216259
30
0
41
1
10
72.0112491028341
20
-5.79815173362667
30
0
41
1
10
72.7691663502544
20
-5.82397945506946
30
0
41
1
10
73.2718099353381
20
-5.81669720279382
30
0
41
1
10
74.021151418091
20
-5.76992762025657
30
0
41
1
10
74.2686893168942
20
-5.74862643986052
30
0
41
1
10
74.5161877731575
20
-5.72154774106173
30
0
0
SPLINE
5
C2
100
AcDbEntity
8
1
62
256
6
ByLayer
370
18
48
1
60
0
100
AcDbSpline
70
4
71
3
72
20
73
16
40
0
40
0
40
0
40
0
40
0.250000000000013
40
0.250000000000013
40
0.375000000000015
40
0.375000000000015
40
0.500000000000017
40
0.500000000000017
40
0.750000000000022
40
0.750000000000022
40
0.812500000000019
40
0.812500000000019
40
0.875000000000016
40
0.875000000000016
40
1
40
1
40
1
40
1
41
1
10
105.098612610607
20
-2.91862662291754
30
0
41
1
10
105.006532592744
20
-3.16599341223486
30
0
41
1
10
104.914325042181
20
-3.41315885068445
30
0
41
1
10
104.77570745515
20
-3.78299439635015
30
0
41
1
10
104.729453614275
20
-3.90608961805069
30
0
41
1
10
104.636819702577
20
-4.15179782217825
30
0
41
1
10
104.590481816457
20
-4.27457196383338
30
0
41
1
10
104.451470724354
20
-4.64290419272544
30
0
41
1
10
104.358772551032
20
-4.88848046352712
30
0
41
1
10
104.242676883234
20
-5.19385828872814
30
0
41
1
10
104.219444090959
20
-5.25483658659925
30
0
41
1
10
104.172936663358
20
-5.37649520739211
30
0
41
1
10
104.149655126434
20
-5.43711384752183
30
0
41
1
10
104.07981908825
20
-5.61881317723842
30
0
41
1
10
104.033260723491
20
-5.73991942763018
30
0
41
1
10
103.986683783017
20
-5.86053383009968
30
0
0
SPLINE
5
C3
100
AcDbEntity
8
1
62
256
6
ByLayer
370
18
48
1
60
0
100
AcDbSpline
70
4
71
3
72
20
73
16
40
0
40
0
40
0
40
0
40
0.25
40
0.25
40
0.374999999999995
40
0.374999999999995
40
0.499999999999991
40
0.499999999999991
40
0.749999999999992
40
0.749999999999992
40
0.812499999999996
40
0.812499999999996
40
0.875
40
0.875
40
1
40
1
40
1
40
1
41
1
10
105.098612610607
20
2.91862662291754
30
0
41
1
10
105.006532592745
20
3.16599341223486
30
0
41
1
10
104.914325042181
20
3.41315885068445
30
0
41
1
10
104.77570745515
20
3.78299439635015
30
0
41
1
10
104.729453614275
20
3.90608961805066
30
0
41
1
10
104.636819702577
20
4.15179782217825
30
0
41
1
10
104.590481816457
20
4.27457196383338
30
0
41
1
10
104.451470724354
20
4.64290419272541
30
0
41
1
10
104.358772551032
20
4.88848046352715
30
0
41
1
10
104.242676883235
20
5.19385828872811
30
0
41
1
10
104.219444090959
20
5.25483658659923
30
0
41
1
10
104.172936663358
20
5.37649520739211
30
0
41
1
10
104.149655126434
20
5.43711384752183
30
0
41
1
10
104.07981908825
20
5.61881317723839
30
0
41
1
10
104.033260723491
20
5.73991942763016
30
0
41
1
10
103.986683783017
20
5.86053383009966
30
0
0
SPLINE
5
C4
100
AcDbEntity
8
1
62
256
6
ByLayer
370
18
48
1
60
0
100
AcDbSpline
70
4
71
3
72
16
73
12
40
0
40
0
40
0
40
0
40
0.25
40
0.25
40
0.374999999999999
40
0.374999999999999
40
0.499999999999999
40
0.499999999999999
40
0.749999999999999
40
0.749999999999999
40
1
40
1
40
1
40
1
41
1
10
103.041336380029
20
1.41683359363177
30
0
41
1
10
103.034547056236
20
1.44494188942358
30
0
41
1
10
103.032294939849
20
1.47427915882562
30
0
41
1
10
103.038545534415
20
1.51807883343966
30
0
41
1
10
103.042191656178
20
1.53242097253627
30
0
41
1
10
103.053098343362
20
1.56049396637206
30
0
41
1
10
103.060465174761
20
1.5742395874926
30
0
41
1
10
103.087072826509
20
1.61167967947927
30
0
41
1
10
103.111763361001
20
1.63235729583476
30
0
41
1
10
103.166747035121
20
1.66323265036598
30
0
41
1
10
103.196737118101
20
1.67254343694358
30
0
41
1
10
103.227613009331
20
1.67813746376842
30
0
0
SPLINE
5
C5
100
AcDbEntity
8
1
62
256
6
ByLayer
370
18
48
1
60
0
100
AcDbSpline
70
4
71
3
72
66
73
62
40
0
40
0
40
0
40
0
40
0.048557839899149
40
0.048557839899149
40
0.0971156797982979
40
0.0971156797982979
40
0.145673519697447
40
0.145673519697447
40
0.194231359596596
40
0.194231359596596
40
0.21851027954617
40
0.21851027954617
40
0.242789199495745
40
0.242789199495745
40
0.291347039394896
40
0.291347039394896
40
0.315625959344471
40
0.315625959344471
40
0.339904879294047
40
0.339904879294047
40
0.388462719193197
40
0.388462719193197
40
0.412741639142773
40
0.412741639142773
40
0.437020559092348
40
0.437020559092348
40
0.485578398991499
40
0.485578398991499
40
0.509857318941075
40
0.509857318941075
40
0.53413623889065
40
0.53413623889065
40
0.582694078789801
40
0.582694078789801
40
0.606972998739375
40
0.606972998739375
40
0.63125191868895
40
0.63125191868895
40
0.679809758588099
40
0.679809758588099
40
0.704088678537674
40
0.704088678537674
40
0.728367598487249
40
0.728367598487249
40
0.776925438386398
40
0.776925438386398
40
0.801204358335972
40
0.801204358335972
40
0.825483278285546
40
0.825483278285546
40
0.874041118184694
40
0.874041118184694
40
0.898320038134268
40
0.898320038134268
40
0.922598958083842
40
0.922598958083842
40
0.97115679798299
40
0.97115679798299
40
0.995435717932565
40
0.995435717932565
40
1
40
1
40
1
40
1
41
1
10
103.900375894948
20
-5.95538354079781
30
0
41
1
10
103.396789281173
20
-5.99368071356585
30
0
41
1
10
102.893191141815
20
-6.00694237614559
30
0
41
1
10
101.88432528256
20
-5.98309083727338
30
0
41
1
10
101.381622084262
20
-5.94603791570961
30
0
41
1
10
100.375963517197
20
-5.82282499932327
30
0
41
1
10
99.8725749366001
20
-5.73659561992065
30
0
41
1
10
98.8638225431245
20
-5.51635630425201
30
0
41
1
10
98.3610601551994
20
-5.38301456865059
30
0
41
1
10
97.6067453960522
20
-5.15021097432262
30
0
41
1
10
97.3552735404872
20
-5.06714600636576
30
0
41
1
10
96.8517984257219
20
-4.89044167803075
30
0
41
1
10
96.5995736357609
20
-4.79670303857563
30
0
41
1
10
95.8431118267119
20
-4.50072155016878
30
0
41
1
10
95.3403792260182
20
-4.2843529167906
30
0
41
1
10
94.5859380067788
20
-3.93442534446859
30
0
41
1
10
94.3344046027341
20
-3.81354829300861
30
0
41
1
10
93.8307854317443
20
-3.56384181709802
30
0
41
1
10
93.5784390726151
20
-3.43486539963536
30
0
41
1
10
92.8219450249717
20
-3.03778450792419
30
0
41
1
10
92.3191264760037
20
-2.76012341531103
30
0
41
1
10
91.5647254375512
20
-2.32775048429866
30
0
41
1
10
91.3132119528037
20
-2.18100214056855
30
0
41
1
10
90.8095598257167
20
-1.88302844128168
30
0
41
1
10
90.5571434453078
20
-1.73161500217768
30
0
41
1
10
89.8006576317243
20
-1.27300656914468
30
0
41
1
10
89.2977797523561
20
-0.961699455382586
30
0
41
1
10
88.5433086428941
20
-0.490068200835537
30
0
41
1
10
88.2917455980366
20
-0.332152999223695
30
0
41
1
10
87.7879725465909
20
-0.0157090613782884
30
0
41
1
10
87.5354757741939
20
0.143016999254826
30
0
41
1
10
86.7790342803498
20
0.617496024350459
30
0
41
1
10
86.2762194835386
20
0.931623657379106
30
0
41
1
10
85.5216335992568
20
1.39546567125953
30
0
41
1
10
85.2700087577089
20
1.54879869168789
30
0
41
1
10
84.7661372306701
20
1.85222749852619
30
0
41
1
10
84.513625567419
20
2.00252799405112
30
0
41
1
10
83.7574053548045
20
2.44588332090299
30
0
41
1
10
83.2546034095799
20
2.73144925651516
30
0
41
1
10
82.4997066824928
20
3.14103724586462
30
0
41
1
10
82.2479448130085
20
3.27442229845982
30
0
41
1
10
81.7439399691738
20
3.53456896232703
30
0
41
1
10
81.4914085124501
20
3.66142861721889
30
0
41
1
10
80.7352377993058
20
4.0292528286237
30
0
41
1
10
80.2323861551918
20
4.25775790540465
30
0
41
1
10
79.477489715155
20
4.57274917095788
30
0
41
1
10
79.2257297567126
20
4.67309170827093
30
0
41
1
10
78.7216365277692
20
4.86409472104907
30
0
41
1
10
78.4690603918542
20
4.95481774283906
30
0
41
1
10
77.7128913367753
20
5.21046562224805
30
0
41
1
10
77.210019894458
20
5.35921694081855
30
0
41
1
10
76.4550861198924
20
5.54815179669583
30
0
41
1
10
76.203303225268
20
5.60540751986284
30
0
41
1
10
75.6990800432658
20
5.70819790827494
30
0
41
1
10
75.4464660897243
20
5.75375661754234
30
0
41
1
10
74.6902912494488
20
5.87185254322648
30
0
41
1
10
74.1873950019039
20
5.92606097349315
30
0
41
1
10
73.4323731367719
20
5.9700832271009
30
0
41
1
10
73.1805466780969
20
5.97853425067979
30
0
41
1
10
72.8809735727581
20
5.98112501519665
30
0
41
1
10
72.8335516743772
20
5.98131258061983
30
0
41
1
10
72.7861205432514
20
5.98127798373673
30
0
0
SPLINE
5
C6
100
AcDbEntity
8
1
62
256
6
ByLayer
370
18
48
1
60
0
100
AcDbSpline
70
4
71
3
72
66
73
62
40
0
40
0
40
0
40
0
40
0.0220592613064578
40
0.0220592613064578
40
0.0682124597189945
40
0.0682124597189945
40
0.114365658131532
40
0.114365658131532
40
0.160518856544068
40
0.160518856544068
40
0.206672054956605
40
0.206672054956605
40
0.252825253369142
40
0.252825253369142
40
0.298978451781678
40
0.298978451781678
40
0.345131650194215
40
0.345131650194215
40
0.368208249400483
40
0.368208249400483
40
0.391284848606751
40
0.391284848606751
40
0.437438047019288
40
0.437438047019288
40
0.460514646225556
40
0.460514646225556
40
0.483591245431823
40
0.483591245431823
40
0.529744443844358
40
0.529744443844358
40
0.552821043050626
40
0.552821043050626
40
0.575897642256894
40
0.575897642256894
40
0.622050840669428
40
0.622050840669428
40
0.645127439875694
40
0.645127439875694
40
0.668204039081961
40
0.668204039081961
40
0.714357237494496
40
0.714357237494496
40
0.737433836700764
40
0.737433836700764
40
0.760510435907031
40
0.760510435907031
40
0.806663634319566
40
0.806663634319566
40
0.829740233525833
40
0.829740233525833
40
0.8528168327321
40
0.8528168327321
40
0.898970031144634
40
0.898970031144634
40
0.922046630350902
40
0.922046630350902
40
0.945123229557169
40
0.945123229557169
40
0.991276427969705
40
0.991276427969705
40
1
40
1
40
1
40
1
41
1
10
45.6777223227206
20
-5.70225461128965
30
0
41
1
10
45.4363999733839
20
-5.7464424932312
30
0
41
1
10
45.1951013386255
20
-5.78516071146018
30
0
41
1
10
44.4501631408666
20
-5.88734351808444
30
0
41
1
10
43.9469090729815
20
-5.93196364752262
30
0
41
1
10
42.9386337929872
20
-5.97137052446843
30
0
41
1
10
42.4328318080803
20
-5.96599256198223
30
0
41
1
10
41.4247648352155
20
-5.90535610764755
30
0
41
1
10
40.9214304926248
20
-5.85023484904374
30
0
41
1
10
39.9129757245188
20
-5.69120821344788
30
0
41
1
10
39.4071248516096
20
-5.58709509151939
30
0
41
1
10
38.3990851087537
20
-5.3336847801657
30
0
41
1
10
37.8957518688735
20
-5.18432382981652
30
0
41
1
10
36.8870641395939
20
-4.84280948786213
30
0
41
1
10
36.3811932253498
20
-4.6504196875307
30
0
41
1
10
35.3731369498903
20
-4.22964606517399
30
0
41
1
10
34.869754173781
20
-4.00100983906947
30
0
41
1
10
34.113088878211
20
-3.63361102366363
30
0
41
1
10
33.8603291746058
20
-3.50692981077137
30
0
41
1
10
33.3551768989823
20
-3.24669303945566
30
0
41
1
10
33.102985679356
20
-3.11322667903431
30
0
41
1
10
32.3469543156889
20
-2.70367079099222
30
0
41
1
10
31.8435238693762
20
-2.41861106605919
30
0
41
1
10
31.0866460302088
20
-1.97676406075553
30
0
41
1
10
30.8337861410971
20
-1.82691465623014
30
0
41
1
10
30.3286798185495
20
-1.52400516808905
30
0
41
1
10
30.076516487776
20
-1.37099470402563
30
0
41
1
10
29.3204934620709
20
-0.908412413229371
30
0
41
1
10
28.8170017373396
20
-0.595447944118604
30
0
41
1
10
28.0600382350855
20
-0.123128915541741
30
0
41
1
10
27.8071217332039
20
0.0349506205526779
30
0
41
1
10
27.3020340820733
20
0.350206755840503
30
0
41
1
10
27.0498506692117
20
0.507393961445047
30
0
41
1
10
26.2937119143374
20
0.976573178818569
30
0
41
1
10
25.7901384031859
20
1.28613754320327
30
0
41
1
10
25.0330521548621
20
1.74167046428718
30
0
41
1
10
24.7800917651487
20
1.89216965573445
30
0
41
1
10
24.2750245118677
20
2.18826766481658
30
0
41
1
10
24.022839514956
20
2.33395271338537
30
0
41
1
10
23.2666981824629
20
2.76301947129929
30
0
41
1
10
22.7631111053406
20
3.03834996113909
30
0
41
1
10
22.0058678702443
20
3.43150946101642
30
0
41
1
10
21.7528496378172
20
3.55933776466173
30
0
41
1
10
21.2478085806019
20
3.80671014415762
30
0
41
1
10
20.9956425045042
20
3.92636670690283
30
0
41
1
10
20.239461759396
20
4.27240365786841
30
0
41
1
10
19.7357852323502
20
4.48588525850951
30
0
41
1
10
18.9783518823855
20
4.77734238720296
30
0
41
1
10
18.7253018008491
20
4.86974355914325
30
0
41
1
10
18.2203386127735
20
5.04374354141612
30
0
41
1
10
17.9682145233201
20
5.12543218187633
30
0
41
1
10
17.2120404504661
20
5.35392367351128
30
0
41
1
10
16.7082217213999
20
5.48420609229461
30
0
41
1
10
15.9505473789515
20
5.64482246289194
30
0
41
1
10
15.6975074786049
20
5.69258179416434
30
0
41
1
10
15.1925666661209
20
5.77579328351743
30
0
41
1
10
14.9404244331014
20
5.81131342570194
30
0
41
1
10
14.1842320335199
20
5.8994373578056
30
0
41
1
10
13.6804077133872
20
5.93361851795544
30
0
41
1
10
13.0797080675634
20
5.94454906667119
30
0
41
1
10
12.9841521954286
20
5.94539087492092
30
0
41
1
10
12.8885873236884
20
5.94533776167714
30
0
0
SPLINE
5
C7
100
AcDbEntity
8
1
62
256
6
ByLayer
370
18
48
1
60
0
100
AcDbSpline
70
4
71
3
72
8
73
4
40
0
40
0
40
0
40
0
40
1
40
1
40
1
40
1
41
1
10
103.900375894948
20
-5.95538354079781
30
0
41
1
10
103.921483154362
20
-5.8990522572293
30
0
41
1
10
103.942572729844
20
-5.84267124122312
30
0
41
1
10
103.96364460348
20
-5.78624044240365
30
0
0
SPLINE
5
C8
100
AcDbEntity
8
1
62
256
6
ByLayer
370
18
48
1
60
0
100
AcDbSpline
70
4
71
3
72
96
73
92
40
0
40
0
40
0
40
0
40
0.0072210527561084
40
0.0072210527561084
40
0.0252735481313878
40
0.0252735481313878
40
0.0433260435066672
40
0.0433260435066672
40
0.0613785388819467
40
0.0613785388819467
40
0.0974835296325049
40
0.0974835296325049
40
0.115536025007783
40
0.115536025007783
40
0.133588520383062
40
0.133588520383062
40
0.169693511133619
40
0.169693511133619
40
0.187746006508898
40
0.187746006508898
40
0.205798501884176
40
0.205798501884176
40
0.241903492634731
40
0.241903492634731
40
0.259955988010009
40
0.259955988010009
40
0.278008483385287
40
0.278008483385287
40
0.296060978760565
40
0.296060978760565
40
0.314113474135843
40
0.314113474135843
40
0.33216596951112
40
0.33216596951112
40
0.350218464886398
40
0.350218464886398
40
0.386323455636954
40
0.386323455636954
40
0.404375951012231
40
0.404375951012231
40
0.422428446387509
40
0.422428446387509
40
0.458533437138064
40
0.458533437138064
40
0.476585932513342
40
0.476585932513342
40
0.494638427888619
40
0.494638427888619
40
0.512690923263896
40
0.512690923263896
40
0.530743418639174
40
0.530743418639174
40
0.548795914014451
40
0.548795914014451
40
0.566848409389729
40
0.566848409389729
40
0.602953400140283
40
0.602953400140283
40
0.621005895515561
40
0.621005895515561
40
0.639058390890838
40
0.639058390890838
40
0.675163381641393
40
0.675163381641393
40
0.693215877016671
40
0.693215877016671
40
0.711268372391948
40
0.711268372391948
40
0.729320867767225
40
0.729320867767225
40
0.747373363142503
40
0.747373363142503
40
0.783478353893057
40
0.783478353893057
40
0.801530849268333
40
0.801530849268333
40
0.81958334464361
40
0.81958334464361
40
0.855688335394162
40
0.855688335394162
40
0.873740830769438
40
0.873740830769438
40
0.891793326144714
40
0.891793326144714
40
0.927898316895264
40
0.927898316895264
40
0.964003307645815
40
0.964003307645815
40
0.98205580302109
40
0.98205580302109
40
1
40
1
40
1
40
1
41
1
10
28.5033304929604
20
5.68669602692088
30
0
41
1
10
28.5905077896497
20
5.68577718127057
30
0
41
1
10
28.6776436419256
20
5.68421590018517
30
0
41
1
10
28.9824704692518
20
5.67653844529465
30
0
41
1
10
29.1999094215186
20
5.66715935292251
30
0
41
1
10
29.6342888278431
20
5.63787420079515
30
0
41
1
10
29.8513470104555
20
5.61809403218172
30
0
41
1
10
30.2863209192488
20
5.57012483721499
30
0
41
1
10
30.5040418524413
20
5.5419331307256
30
0
41
1
10
31.1579083811753
20
5.44407076226921
30
0
41
1
10
31.5948421160942
20
5.36142465321342
30
0
41
1
10
32.2519115513441
20
5.21269595719286
30
0
41
1
10
32.471292361421
20
5.15849275120308
30
0
41
1
10
32.9120816725776
20
5.04164586753367
30
0
41
1
10
33.1326589539029
20
4.97923989763618
30
0
41
1
10
33.791947252698
20
4.78151759669007
30
0
41
1
10
34.2293624036965
20
4.63430226551245
30
0
41
1
10
34.882906198075
20
4.39260562727054
30
0
41
1
10
35.1002949876943
20
4.30852679441881
30
0
41
1
10
35.5354986276695
20
4.13422136111632
30
0
41
1
10
35.7531343678568
20
4.04380954408722
30
0
41
1
10
36.4061065419966
20
3.76377277296805
30
0
41
1
10
36.8415490203197
20
3.56538355825057
30
0
41
1
10
37.4952931403683
20
3.24898057341864
30
0
41
1
10
37.7132173079987
20
3.14048230355135
30
0
41
1
10
38.1505481660228
20
2.91935615429622
30
0
41
1
10
38.3698078622422
20
2.80639026102142
30
0
41
1
10
38.8094994203099
20
2.57539580980458
30
0
41
1
10
39.0303267050161
20
2.45729355831057
30
0
41
1
10
39.4710948180319
20
2.21781539171823
30
0
41
1
10
39.6907958894839
20
2.09645743259969
30
0
41
1
10
40.128820732075
20
1.85039876563749
30
0
41
1
10
40.3470614460766
20
1.7255713647865
30
0
41
1
10
40.7836151262106
20
1.47517956376689
30
0
41
1
10
41.0017402861549
20
1.34925875320977
30
0
41
1
10
41.6553786609996
20
0.968517335029645
30
0
41
1
10
42.0904946842107
20
0.71162159162003
30
0
41
1
10
42.7425381813683
20
0.322420710880266
30
0
41
1
10
42.9596444559962
20
0.191791947222811
30
0
41
1
10
43.3947924602588
20
-0.0687787897738872
30
0
41
1
10
43.6127405397266
20
-0.198835327983687
30
0
41
1
10
44.2675042518593
20
-0.588852026322712
30
0
41
1
10
44.705675165147
20
-0.848354089179708
30
0
41
1
10
45.36568056588
20
-1.23582057534557
30
0
41
1
10
45.5861750545046
20
-1.36504876227926
30
0
41
1
10
46.025791278248
20
-1.61927659457183
30
0
41
1
10
46.2453091461864
20
-1.74454877495558
30
0
41
1
10
46.6836511909283
20
-1.99203717982249
30
0
41
1
10
46.9024809743088
20
-2.1143337627538
30
0
41
1
10
47.3392374414029
20
-2.35428505700503
30
0
41
1
10
47.5572388421986
20
-2.47222643086974
30
0
41
1
10
47.9926269025011
20
-2.70444608316995
30
0
41
1
10
48.2098712208932
20
-2.81887313045715
30
0
41
1
10
48.6446785529006
20
-3.04260224947654
30
0
41
1
10
48.8623151818163
20
-3.15177013788622
30
0
41
1
10
49.5156745084513
20
-3.4718500376988
30
0
41
1
10
49.9518466446907
20
-3.67578438683836
30
0
41
1
10
50.6075483809492
20
-3.96423318886656
30
0
41
1
10
50.8262211594446
20
-4.05790779405018
30
0
41
1
10
51.2647021838849
20
-4.23908808264355
30
0
41
1
10
51.4847507286759
20
-4.3261333731291
30
0
41
1
10
52.1471269469349
20
-4.57666441383626
30
0
41
1
10
52.586652803333
20
-4.72947314067602
30
0
41
1
10
53.2425570194929
20
-4.93466878593503
30
0
41
1
10
53.4605680785645
20
-4.99905631681472
30
0
41
1
10
53.8961268611664
20
-5.12034904450962
30
0
41
1
10
54.1139822949027
20
-5.17702480608261
30
0
41
1
10
54.5495429882964
20
-5.28147198968236
30
0
41
1
10
54.7672667271635
20
-5.329176097351
30
0
41
1
10
55.2027362431827
20
-5.41656931540959
30
0
41
1
10
55.4204786221255
20
-5.45642502410817
30
0
41
1
10
56.0737137882474
20
-5.56325725946763
30
0
41
1
10
56.50899222312
20
-5.61700349315879
30
0
41
1
10
57.16594919116
20
-5.67137674285831
30
0
41
1
10
57.3854478359263
20
-5.68489130127739
30
0
41
1
10
57.8255573192003
20
-5.70281187193572
30
0
41
1
10
58.0466074866837
20
-5.70727310961692
30
0
41
1
10
58.707520757605
20
-5.70701523985875
30
0
41
1
10
59.1447753304396
20
-5.68812407171777
30
0
41
1
10
59.8003264810278
20
-5.63518924930997
30
0
41
1
10
60.0186317142416
20
-5.61388331072578
30
0
41
1
10
60.4546693467802
20
-5.56083178896495
30
0
41
1
10
60.6724533949731
20
-5.52942612740347
30
0
41
1
10
61.3252693982918
20
-5.4219538893625
30
0
41
1
10
61.7593223166772
20
-5.33234878520523
30
0
41
1
10
62.6310452771742
20
-5.1234556573329
30
0
41
1
10
63.0678799218488
20
-5.00540030248132
30
0
41
1
10
63.7255675166597
20
-4.7995043921471
30
0
41
1
10
63.9451868931022
20
-4.72634928679489
30
0
41
1
10
64.384038574224
20
-4.57223138894423
30
0
41
1
10
64.6034666483588
20
-4.49158348534397
30
0
41
1
10
64.8222120767633
20
-4.40830498778737
30
0
0
SPLINE
5
C9
100
AcDbEntity
8
1
62
256
6
ByLayer
370
18
48
1
60
0
100
AcDbSpline
70
4
71
3
72
30
73
26
40
0
40
0
40
0
40
0
40
0.0111586541766098
40
0.0111586541766098
40
0.081790178878279
40
0.081790178878279
40
0.152421703579949
40
0.152421703579949
40
0.223053228281618
40
0.223053228281618
40
0.293684752983288
40
0.293684752983288
40
0.364316277684957
40
0.364316277684957
40
0.434947802386626
40
0.434947802386626
40
0.576210851789966
40
0.576210851789966
40
0.717473901193304
40
0.717473901193304
40
0.788105425894976
40
0.788105425894976
40
0.858736950596649
40
0.858736950596649
40
1
40
1
40
1
40
1
41
1
10
88.3403802555126
20
5.72374513605436
30
0
41
1
10
88.3749307647189
20
5.7234499650944
30
0
41
1
10
88.4094934174524
20
5.72304620027791
30
0
41
1
10
88.6629353593987
20
5.71929325389704
30
0
41
1
10
88.8824485287133
20
5.71178181301153
30
0
41
1
10
89.3224686824825
20
5.6890365455624
30
0
41
1
10
89.5435054350672
20
5.67293190746224
30
0
41
1
10
89.9848599839566
20
5.62986540466534
30
0
41
1
10
90.2048501612452
20
5.60369852800105
30
0
41
1
10
90.6435498817557
20
5.5424666278285
30
0
41
1
10
90.8621391800531
20
5.50733022227485
30
0
41
1
10
91.2989081110824
20
5.42887980288222
30
0
41
1
10
91.5172301659203
20
5.38567569878748
30
0
41
1
10
91.9535755907258
20
5.29158512791031
30
0
41
1
10
92.1716087193508
20
5.24089657417971
30
0
41
1
10
92.8253010188767
20
5.0757044241642
30
0
41
1
10
93.2603259554302
20
4.94809354085874
30
0
41
1
10
94.1310834139498
20
4.66222624733419
30
0
41
1
10
94.5682639454025
20
4.50468954056348
30
0
41
1
10
95.226502750608
20
4.24637519768058
30
0
41
1
10
95.4463621867648
20
4.1566811830478
30
0
41
1
10
95.8869476394286
20
3.97021920228894
30
0
41
1
10
96.1078215451848
20
3.87332080661724
30
0
41
1
10
96.7672508214423
20
3.57441725970895
30
0
41
1
10
97.2055477596863
20
3.36525909013139
30
0
41
1
10
97.6424238853203
20
3.14642748324434
30
0
0
SPLINE
5
CA
100
AcDbEntity
8
1
62
256
6
ByLayer
370
18
48
1
60
0
100
AcDbSpline
70
4
71
3
72
60
73
56
40
0
40
0
40
0
40
0
40
0.0588200683969604
40
0.0588200683969604
40
0.117640136793921
40
0.117640136793921
40
0.176460205190881
40
0.176460205190881
40
0.235280273587842
40
0.235280273587842
40
0.264690307786322
40
0.264690307786322
40
0.294100341984802
40
0.294100341984802
40
0.352920410381763
40
0.352920410381763
40
0.382330444580243
40
0.382330444580243
40
0.411740478778723
40
0.411740478778723
40
0.470560547175684
40
0.470560547175684
40
0.499970581374163
40
0.499970581374163
40
0.529380615572643
40
0.529380615572643
40
0.558790649771122
40
0.558790649771122
40
0.588200683969602
40
0.588200683969602
40
0.617610718168082
40
0.617610718168082
40
0.647020752366561
40
0.647020752366561
40
0.705840820763519
40
0.705840820763519
40
0.735250854961997
40
0.735250854961997
40
0.764660889160475
40
0.764660889160475
40
0.794070923358954
40
0.794070923358954
40
0.823480957557432
40
0.823480957557432
40
0.85289099175591
40
0.85289099175591
40
0.882301025954388
40
0.882301025954388
40
0.941121094351346
40
0.941121094351346
40
0.970531128549825
40
0.970531128549825
40
0.999941162748303
40
0.999941162748303
40
1
40
1
40
1
40
1
41
1
10
19.5692608519884
20
4.19600803675175
30
0
41
1
10
20.0119805876961
20
3.99797702208968
30
0
41
1
10
20.4542164898147
20
3.79015295765851
30
0
41
1
10
21.3353940655318
20
3.35315936942152
30
0
41
1
10
21.774268016662
20
3.12386231634966
30
0
41
1
10
22.647852163072
20
2.6422830735039
30
0
41
1
10
23.0860930411226
20
2.39504277572294
30
0
41
1
10
23.9644608825202
20
1.88670205732293
30
0
41
1
10
24.4043287677798
20
1.62521168220752
30
0
41
1
10
25.064358896056
20
1.22003641293671
30
0
41
1
10
25.2850570228454
20
1.08385995075568
30
0
41
1
10
25.7287160476082
20
0.810781209185393
30
0
41
1
10
25.9510936268598
20
0.673770134709542
30
0
41
1
10
26.6153571276925
20
0.263192696106131
30
0
41
1
10
27.0559507887026
20
-0.0109378876043138
30
0
41
1
10
27.7124735384259
20
-0.424346534512296
30
0
41
1
10
27.9311296992409
20
-0.561618066728613
30
0
41
1
10
28.3692870330675
20
-0.833163098294307
30
0
41
1
10
28.5885402700587
20
-0.967843243322449
30
0
41
1
10
29.2464076339329
20
-1.36930625765623
30
0
41
1
10
29.685112985371
20
-1.63355520314454
30
0
41
1
10
30.3423505898049
20
-2.02623753298911
30
0
41
1
10
30.5616406155871
20
-2.15596207323932
30
0
41
1
10
31.0024100005951
20
-2.41034111353989
30
0
41
1
10
31.2235733691821
20
-2.5354900084576
30
0
41
1
10
31.6671734580296
20
-2.78213816090749
30
0
41
1
10
31.8898371906925
20
-2.90374675827022
30
0
41
1
10
32.3327094438114
20
-3.14162430018581
30
0
41
1
10
32.5533341873283
20
-3.2581302791834
30
0
41
1
10
32.9928030035538
20
-3.48643266908618
30
0
41
1
10
33.2118778254098
20
-3.5978814207327
30
0
41
1
10
33.6507587377741
20
-3.8128365981182
30
0
41
1
10
33.8702268559709
20
-3.91681075656587
30
0
41
1
10
34.5282755773301
20
-4.21896823853962
30
0
41
1
10
34.9664911903129
20
-4.40746796715106
30
0
41
1
10
35.6220258105404
20
-4.6714371134845
30
0
41
1
10
35.8403102339345
20
-4.75616708537169
30
0
41
1
10
36.2788712645439
20
-4.91670729866138
30
0
41
1
10
36.4987854192299
20
-4.99290357290059
30
0
41
1
10
36.9395649455904
20
-5.13747498564743
30
0
41
1
10
37.1604343553802
20
-5.20584525928058
30
0
41
1
10
37.6029473372902
20
-5.33478013826993
30
0
41
1
10
37.8250347083591
20
-5.39545456544562
30
0
41
1
10
38.26749853379
20
-5.50820620826866
30
0
41
1
10
38.4876336268505
20
-5.56021706758514
30
0
41
1
10
38.9283577559819
20
-5.65410807503122
30
0
41
1
10
39.1485935034552
20
-5.69624686858151
30
0
41
1
10
39.8084580786398
20
-5.80886680017323
30
0
41
1
10
40.2472446506723
20
-5.86564584251875
30
0
41
1
10
40.9026433416491
20
-5.92334037137246
30
0
41
1
10
41.1205138177865
20
-5.93793998439273
30
0
41
1
10
41.5578909537516
20
-5.95745401323688
30
0
41
1
10
41.7770668450862
20
-5.96246500297826
30
0
41
1
10
41.9969954788316
20
-5.96280001447644
30
0
41
1
10
41.9974345873748
20
-5.962800664741
30
0
41
1
10
41.9978736971673
20
-5.96280129638868
30
0
0
SPLINE
5
CB
100
AcDbEntity
8
1
62
256
6
ByLayer
370
18
48
1
60
0
100
AcDbSpline
70
4
71
3
72
96
73
92
40
0
40
0
40
0
40
0
40
0.0064722881391218
40
0.0064722881391218
40
0.0242551355888253
40
0.0242551355888253
40
0.059820830488232
40
0.059820830488232
40
0.077603677937935
40
0.077603677937935
40
0.0953865253876378
40
0.0953865253876378
40
0.130952220287044
40
0.130952220287044
40
0.16651791518645
40
0.16651791518645
40
0.184300762636153
40
0.184300762636153
40
0.202083610085856
40
0.202083610085856
40
0.219866457535559
40
0.219866457535559
40
0.237649304985261
40
0.237649304985261
40
0.273214999884667
40
0.273214999884667
40
0.290997847334369
40
0.290997847334369
40
0.308780694784072
40
0.308780694784072
40
0.326563542233775
40
0.326563542233775
40
0.344346389683477
40
0.344346389683477
40
0.36212923713318
40
0.36212923713318
40
0.379912084582883
40
0.379912084582883
40
0.415477779482288
40
0.415477779482288
40
0.433260626931989
40
0.433260626931989
40
0.451043474381691
40
0.451043474381691
40
0.486609169281094
40
0.486609169281094
40
0.504392016730796
40
0.504392016730796
40
0.522174864180498
40
0.522174864180498
40
0.5577405590799
40
0.5577405590799
40
0.575523406529601
40
0.575523406529601
40
0.593306253979301
40
0.593306253979301
40
0.628871948878702
40
0.628871948878702
40
0.646654796328402
40
0.646654796328402
40
0.664437643778102
40
0.664437643778102
40
0.700003338677504
40
0.700003338677504
40
0.717786186127206
40
0.717786186127206
40
0.735569033576907
40
0.735569033576907
40
0.753351881026609
40
0.753351881026609
40
0.77113472847631
40
0.77113472847631
40
0.788917575926012
40
0.788917575926012
40
0.806700423375714
40
0.806700423375714
40
0.842266118275117
40
0.842266118275117
40
0.860048965724819
40
0.860048965724819
40
0.877831813174521
40
0.877831813174521
40
0.913397508073923
40
0.913397508073923
40
0.931180355523624
40
0.931180355523624
40
0.948963202973324
40
0.948963202973324
40
0.984528897872727
40
0.984528897872727
40
1
40
1
40
1
40
1
41
1
10
64.8553640940238
20
4.38869924242911
30
0
41
1
10
64.9357779449037
20
4.42320226392087
30
0
41
1
10
65.0161867511218
20
4.45728293569954
30
0
41
1
10
65.3175839544591
20
4.58331345221387
30
0
41
1
10
65.5394736039077
20
4.67158871805194
30
0
41
1
10
66.2030704573742
20
4.92315939974986
30
0
41
1
10
66.643966837269
20
5.07402959471307
30
0
41
1
10
67.3018402552623
20
5.27665250856268
30
0
41
1
10
67.5204516751734
20
5.34028661913254
30
0
41
1
10
67.956869703147
20
5.45917210702638
30
0
41
1
10
68.1754142046337
20
5.51392020708766
30
0
41
1
10
68.8319522442708
20
5.66453519879261
30
0
41
1
10
69.2705664302466
20
5.74705696851328
30
0
41
1
10
70.1479266903322
20
5.87676134178358
30
0
41
1
10
70.585709595586
20
5.92386906077252
30
0
41
1
10
71.2492000424235
20
5.96504787925258
30
0
41
1
10
71.4716266240438
20
5.97399413179116
30
0
41
1
10
71.9147696399921
20
5.98225094432186
30
0
41
1
10
72.1357032990577
20
5.98159266092924
30
0
41
1
10
72.5761174736582
20
5.97074496496401
30
0
41
1
10
72.7955672579544
20
5.96054901973486
30
0
41
1
10
73.2329881511139
20
5.93048240690339
30
0
41
1
10
73.4516425788787
20
5.91072434647771
30
0
41
1
10
74.1084078205381
20
5.83794957780802
30
0
41
1
10
74.5465980556626
20
5.77139578552223
30
0
41
1
10
75.2030659092146
20
5.64404187766908
30
0
41
1
10
75.4217568089595
20
5.59697627819835
30
0
41
1
10
75.8587543217664
20
5.49327286517007
30
0
41
1
10
76.0775984203869
20
5.43694041975038
30
0
41
1
10
76.5171781437616
20
5.31624032291506
30
0
41
1
10
76.7376646405687
20
5.25171947979595
30
0
41
1
10
77.1797622729715
20
5.11410472913374
30
0
41
1
10
77.4017066334852
20
5.04089390507613
30
0
41
1
10
77.8450275167903
20
4.88605029253841
30
0
41
1
10
78.0657952055578
20
4.80464142176078
30
0
41
1
10
78.5053927627063
20
4.63364483708264
30
0
41
1
10
78.724631813186
20
4.54445612631937
30
0
41
1
10
79.3830723363296
20
4.26866483196363
30
0
41
1
10
79.8217785375148
20
4.07265899522841
30
0
41
1
10
80.4780721599896
20
3.75910970063978
30
0
41
1
10
80.6965510617356
20
3.65132784874859
30
0
41
1
10
81.1327840882578
20
3.42890212088065
30
0
41
1
10
81.3507472596131
20
3.31450537050304
30
0
41
1
10
82.0073289470956
20
2.96610047696208
30
0
41
1
10
82.4471954676285
20
2.72507379952694
30
0
41
1
10
83.10879481129
20
2.34812218253865
30
0
41
1
10
83.3296406033703
20
2.21990236317887
30
0
41
1
10
83.7718375298724
20
1.95789530731255
30
0
41
1
10
83.9927009459029
20
1.8245374759731
30
0
41
1
10
84.6562094320088
20
1.42450135387895
30
0
41
1
10
85.0991002118353
20
1.15500296040369
30
0
41
1
10
85.7627194333267
20
0.744202615909671
30
0
41
1
10
85.9838185464508
20
0.606190058118358
30
0
41
1
10
86.4256446380248
20
0.327707582839423
30
0
41
1
10
86.6467261071772
20
0.187020871390871
30
0
41
1
10
87.3101728399598
20
-0.23029021107169
30
0
41
1
10
87.7513384471512
20
-0.504794608504199
30
0
41
1
10
88.4099673472476
20
-0.913649914137437
30
0
41
1
10
88.6290007857943
20
-1.04942494556252
30
0
41
1
10
89.0658871698966
20
-1.32017670469688
30
0
41
1
10
89.2836428460606
20
-1.45529296502301
30
0
41
1
10
89.9390058036821
20
-1.85335183327834
30
0
41
1
10
90.3772537455469
20
-2.11137372611699
30
0
41
1
10
91.0350662820325
20
-2.48983829115019
30
0
41
1
10
91.254425538314
20
-2.61453351522189
30
0
41
1
10
91.6931727614256
20
-2.86114672830533
30
0
41
1
10
91.9123615759943
20
-2.98333999168932
30
0
41
1
10
92.353256224969
20
-3.22128980358133
30
0
41
1
10
92.5750162495493
20
-3.33766208624192
30
0
41
1
10
93.0184833094842
20
-3.56451340185367
30
0
41
1
10
93.2396544566842
20
-3.67471373377143
30
0
41
1
10
93.6806780424278
20
-3.8890302396581
30
0
41
1
10
93.9005306767314
20
-3.99314514307446
30
0
41
1
10
94.3387534680018
20
-4.19543470298646
30
0
41
1
10
94.5568684002923
20
-4.29386872444061
30
0
41
1
10
95.2125941860766
20
-4.57610335606805
30
0
41
1
10
95.6505526065122
20
-4.74827634161318
30
0
41
1
10
96.3070347115453
20
-4.98474887582407
30
0
41
1
10
96.5258038179688
20
-5.05989840296704
30
0
41
1
10
96.9630624283448
20
-5.20282778342997
30
0
41
1
10
97.1812474117073
20
-5.27081941876006
30
0
41
1
10
97.8386596575416
20
-5.46090558768643
30
0
41
1
10
98.280166930538
20
-5.56984181218985
30
0
41
1
10
98.9455783334379
20
-5.70750763551646
30
0
41
1
10
99.1669477140662
20
-5.74885274648398
30
0
41
1
10
99.6075171592909
20
-5.82229621320528
30
0
41
1
10
99.826577204591
20
-5.85451802952926
30
0
41
1
10
100.484074901765
20
-5.93626953077711
30
0
41
1
10
100.922653224938
20
-5.97131149468444
30
0
41
1
10
101.550686603444
20
-5.99502866626244
30
0
41
1
10
101.740906932213
20
-5.99868584934077
30
0
41
1
10
101.930910519652
20
-5.99876665113788
30
0
0
SPLINE
5
CC
100
AcDbEntity
8
1
62
256
6
ByLayer
370
18
48
1
60
0
100
AcDbSpline
70
4
71
3
72
42
73
38
40
0
40
0
40
0
40
0
40
0.125000000000009
40
0.125000000000009
40
0.250000000000018
40
0.250000000000018
40
0.375000000000026
40
0.375000000000026
40
0.500000000000035
40
0.500000000000035
40
0.625000000000044
40
0.625000000000044
40
0.687500000000048
40
0.687500000000048
40
0.750000000000053
40
0.750000000000053
40
0.765625000000049
40
0.765625000000049
40
0.781250000000046
40
0.781250000000046
40
0.81250000000004
40
0.81250000000004
40
0.843750000000033
40
0.843750000000033
40
0.875000000000026
40
0.875000000000026
40
0.90625000000002
40
0.90625000000002
40
0.921875000000016
40
0.921875000000016
40
0.937500000000013
40
0.937500000000013
40
0.95312500000001
40
0.95312500000001
40
0.968750000000006
40
0.968750000000006
40
1
40
1
40
1
40
1
41
1
10
97.6424238853202
20
3.14642748324439
30
0
41
1
10
97.874751764866
20
2.93828046294641
30
0
41
1
10
98.1118650290393
20
2.73853157337848
30
0
41
1
10
98.5965875253395
20
2.35745373702002
30
0
41
1
10
98.8439390180874
20
2.17640380349181
30
0
41
1
10
99.3445507438388
20
1.83758132179011
30
0
41
1
10
99.5989082463158
20
1.67905742045727
30
0
41
1
10
100.113296314531
20
1.38780573435264
30
0
41
1
10
100.370833718192
20
1.25637789689799
30
0
41
1
10
100.886649677738
20
1.02416816386994
30
0
41
1
10
101.14492772185
20
0.92336510701989
30
0
41
1
10
101.532994423467
20
0.799022331742748
30
0
41
1
10
101.66245895514
20
0.762080317445367
30
0
41
1
10
101.92163138302
20
0.698259181619335
30
0
41
1
10
102.051731892617
20
0.671308946703334
30
0
41
1
10
102.213114314262
20
0.645056216146088
30
0
41
1
10
102.245368940533
20
0.639960400205183
30
0
41
1
10
102.30928252724
20
0.63253208091291
30
0
41
1
10
102.340905238645
20
0.630080492679298
30
0
41
1
10
102.435013052827
20
0.625243324324515
30
0
41
1
10
102.496951265842
20
0.625878335182023
30
0
41
1
10
102.616347260123
20
0.636217731574504
30
0
41
1
10
102.673825841512
20
0.645892378582602
30
0
41
1
10
102.782824298278
20
0.677336596923908
30
0
41
1
10
102.834655937903
20
0.69918713644114
30
0
41
1
10
102.928515230284
20
0.759765262410838
30
0
41
1
10
102.969089683194
20
0.797385132970732
30
0
41
1
10
103.017266139395
20
0.868447527616524
30
0
41
1
10
103.030924712186
20
0.894086639938394
30
0
41
1
10
103.052366023969
20
0.94914032919408
30
0
41
1
10
103.060092681268
20
0.9787323393397
30
0
41
1
10
103.071602926745
20
1.04063616397605
30
0
41
1
10
103.07512355261
20
1.07309237281808
30
0
41
1
10
103.078002574307
20
1.1388623330669
30
0
41
1
10
103.077416804673
20
1.17241822544102
30
0
41
1
10
103.070376920937
20
1.2748358548271
30
0
41
1
10
103.058411094752
20
1.34614302905751
30
0
41
1
10
103.041336380029
20
1.41683359363177
30
0
0
SPLINE
5
CD
100
AcDbEntity
8
1
62
256
6
ByLayer
370
13
48
1
60
0
100
AcDbSpline
70
4
71
3
72
14
73
10
40
0
40
0
40
0
40
0
40
0.25
40
0.25
40
0.5
40
0.5
40
0.75
40
0.75
40
1
40
1
40
1
40
1
41
1
10
7.00000001022005
20
-4.7503956320507
30
0
41
1
10
7.00000001022005
20
-4.74107786032087
30
0
41
1
10
7.00256713585964
20
-4.73148964099369
30
0
41
1
10
7.01286464429899
20
-4.71282355308833
30
0
41
1
10
7.0204485681474
20
-4.70384183871141
30
0
41
1
10
7.040532658221
20
-4.68664798553834
30
0
41
1
10
7.05328796651065
20
-4.67831155256701
30
0
41
1
10
7.08332136663961
20
-4.66332329441212
30
0
41
1
10
7.10048155615604
20
-4.65665042399618
30
0
41
1
10
7.12014228771639
20
-4.65096500890857
30
0
0
SPLINE
5
CE
100
AcDbEntity
8
1
62
256
6
ByLayer
370
18
48
1
60
0
100
AcDbSpline
70
4
71
3
72
62
73
58
40
0
40
0
40
0
40
0
40
0.0624999999999926
40
0.0624999999999926
40
0.124999999999985
40
0.124999999999985
40
0.249999999999969
40
0.249999999999969
40
0.374999999999954
40
0.374999999999954
40
0.499999999999938
40
0.499999999999938
40
0.624999999999922
40
0.624999999999922
40
0.656249999999918
40
0.656249999999918
40
0.671874999999916
40
0.671874999999916
40
0.687499999999915
40
0.687499999999915
40
0.691406249999915
40
0.691406249999915
40
0.693359374999915
40
0.693359374999915
40
0.695312499999916
40
0.695312499999916
40
0.703124999999918
40
0.703124999999918
40
0.718749999999922
40
0.718749999999922
40
0.74999999999993
40
0.74999999999993
40
0.765624999999934
40
0.765624999999934
40
0.781249999999939
40
0.781249999999939
40
0.796874999999943
40
0.796874999999943
40
0.812499999999947
40
0.812499999999947
40
0.828124999999951
40
0.828124999999951
40
0.843749999999956
40
0.843749999999956
40
0.85937499999996
40
0.85937499999996
40
0.874999999999964
40
0.874999999999964
40
0.890624999999968
40
0.890624999999968
40
0.906249999999973
40
0.906249999999973
40
0.937499999999982
40
0.937499999999982
40
0.968749999999991
40
0.968749999999991
40
1
40
1
40
1
40
1
41
1
10
19.569282951368
20
4.1959595976079
30
0
41
1
10
19.2076904901827
20
4.35636916504617
30
0
41
1
10
18.8440753672284
20
4.50449086475265
30
0
41
1
10
18.1114799390501
20
4.77687260424608
30
0
41
1
10
17.7422151208864
20
4.90119200336554
30
0
41
1
10
16.6254499206434
20
5.23835136823522
30
0
41
1
10
15.87607275966
20
5.41296424431024
30
0
41
1
10
14.3539157258078
20
5.676640502005
30
0
41
1
10
13.5810189828333
20
5.76570529049403
30
0
41
1
10
12.0002168168821
20
5.88366919112778
30
0
41
1
10
11.1923209711386
20
5.91288991203962
30
0
41
1
10
9.53419690270522
20
5.94244069923604
30
0
41
1
10
8.69061639051517
20
5.94311232432142
30
0
41
1
10
7.62889196331983
20
5.94207035936259
30
0
41
1
10
7.41618331991467
20
5.94173268468023
30
0
41
1
10
7.09656177215788
20
5.94120544084933
30
0
41
1
10
6.98992813654786
20
5.94102563549757
30
0
41
1
10
6.77647209885802
20
5.940679338976
30
0
41
1
10
6.6696015527383
20
5.94050371792372
30
0
41
1
10
6.53609368453957
20
5.94032571464294
30
0
41
1
10
6.50945942316616
20
5.94034806586703
30
0
41
1
10
6.46965890714688
20
5.94049078201425
30
0
41
1
10
6.45624377391724
20
5.94055830051991
30
0
41
1
10
6.43128132095939
20
5.94072356885934
30
0
41
1
10
6.41990313298436
20
5.94082851239369
30
0
41
1
10
6.3625561619163
20
5.94126901060218
30
0
41
1
10
6.31709575678065
20
5.94142961918499
30
0
41
1
10
6.18207273680986
20
5.94124163889592
30
0
41
1
10
6.09433044071423
20
5.9402274168541
30
0
41
1
10
5.83960866045726
20
5.93369091221183
30
0
41
1
10
5.68063306198687
20
5.92485500775902
30
0
41
1
10
5.46624674349633
20
5.89934249278451
30
0
41
1
10
5.39850826386515
20
5.88864789334446
30
0
41
1
10
5.2769276462854
20
5.86225900220424
30
0
41
1
10
5.2226902620074
20
5.84655500419777
30
0
41
1
10
5.12964718837128
20
5.8087561363983
30
0
41
1
10
5.09080124416425
20
5.78641745922289
30
0
41
1
10
5.03368358830977
20
5.73590657242676
30
0
41
1
10
5.01487294916211
20
5.70760539707476
30
0
41
1
10
4.99707533756822
20
5.64432169950524
30
0
41
1
10
4.9983553872903
20
5.60908610579091
30
0
41
1
10
5.0195396418442
20
5.53476334021983
30
0
41
1
10
5.03923473326145
20
5.49536921883808
30
0
41
1
10
5.09436875429478
20
5.41234220947271
30
0
41
1
10
5.12959056780608
20
5.36911762751922
30
0
41
1
10
5.21094704430362
20
5.28115792241684
30
0
41
1
10
5.2572635471488
20
5.23616741417371
30
0
41
1
10
5.35898365227968
20
5.14430708993692
30
0
41
1
10
5.41453130621397
20
5.09732984055685
30
0
41
1
10
5.5326236066868
20
5.0020563646122
30
0
41
1
10
5.59466832782434
20
4.95414952813778
30
0
41
1
10
5.78793331928438
20
4.80952536819231
30
0
41
1
10
5.92618865460912
20
4.71190084790376
30
0
41
1
10
6.21562390399399
20
4.5139232628965
30
0
41
1
10
6.36690283607891
20
4.4135533077889
30
0
41
1
10
6.67909132794011
20
4.20995674530658
30
0
41
1
10
6.8383811657402
20
4.10779480314599
30
0
41
1
10
7.00000001020098
20
4.00502680856752
30
0
0
SPLINE
5
CF
100
AcDbEntity
8
1
62
256
6
ByLayer
370
18
48
1
60
0
100
AcDbSpline
70
4
71
3
72
12
73
8
40
0
40
0
40
0
40
0
40
0.250000000000015
40
0.250000000000015
40
0.50000000000003
40
0.50000000000003
40
1
40
1
40
1
40
1
41
1
10
103.963644603484
20
-5.78624044239419
30
0
41
1
10
103.968609994062
20
-5.7729430507342
30
0
41
1
10
103.973388926865
20
-5.75931103276218
30
0
41
1
10
103.981209496548
20
-5.73488209150972
30
0
41
1
10
103.984225621662
20
-5.72411825276467
30
0
41
1
10
103.989420428505
20
-5.70084453995815
30
0
41
1
10
103.988113138357
20
-5.69680277058086
30
0
41
1
10
103.984373410448
20
-5.6999131575833
30
0
0
SPLINE
5
D0
100
AcDbEntity
8
1
62
256
6
ByLayer
370
13
48
1
60
0
100
AcDbSpline
70
4
71
3
72
10
73
6
40
0
40
0
40
0
40
0
40
0.5
40
0.5
40
1
40
1
40
1
40
1
41
1
10
7.25022499971061
20
-4.64799908171338
30
0
41
1
10
7.22742070459961
20
-4.6433066144904
30
0
41
1
10
7.20508759920045
20
-4.64122081446644
30
0
41
1
10
7.16137250085274
20
-4.64214119831581
30
0
41
1
10
7.13995205304212
20
-4.64523649680717
30
0
41
1
10
7.12014228771639
20
-4.65096500890857
30
0
0
SPLINE
5
D1
100
AcDbEntity
8
1
62
256
6
ByLayer
370
18
48
1
60
0
100
AcDbSpline
70
4
71
3
72
18
73
14
40
0
40
0
40
0
40
0
40
0.125000000000001
40
0.125000000000001
40
0.250000000000001
40
0.250000000000001
40
0.375000000000002
40
0.375000000000002
40
0.500000000000002
40
0.500000000000002
40
0.750000000000001
40
0.750000000000001
40
1
40
1
40
1
40
1
41
1
10
7.25018700217032
20
3.82872520619776
30
0
41
1
10
7.49560948573748
20
3.66897825897004
30
0
41
1
10
7.74737615496514
20
3.50799544840407
30
0
41
1
10
8.25949922896484
20
3.18245097361816
30
0
41
1
10
8.51990769088118
20
3.01790052602271
30
0
41
1
10
9.04741787257385
20
2.68475391415831
30
0
41
1
10
9.31519042196544
20
2.51574893286235
30
0
41
1
10
9.85147463448948
20
2.17690326652487
30
0
41
1
10
10.1203842331738
20
2.00681463573412
30
0
41
1
10
10.9294030715128
20
1.49477613270207
30
0
41
1
10
11.4716397854957
20
1.15093113365296
30
0
41
1
10
12.5657217454527
20
0.466071752007281
30
0
41
1
10
13.1175437571955
20
0.125147397601893
30
0
41
1
10
13.678245794393
20
-0.207517732505323
30
0
0
SPLINE
5
D2
100
AcDbEntity
8
1
62
256
6
ByLayer
370
18
48
1
60
0
100
AcDbSpline
70
4
71
3
72
30
73
26
40
0
40
0
40
0
40
0
40
0.0625000000000054
40
0.0625000000000054
40
0.0937500000000075
40
0.0937500000000075
40
0.12500000000001
40
0.12500000000001
40
0.187500000000014
40
0.187500000000014
40
0.250000000000018
40
0.250000000000018
40
0.375000000000023
40
0.375000000000023
40
0.437500000000023
40
0.437500000000023
40
0.500000000000022
40
0.500000000000022
40
0.625000000000015
40
0.625000000000015
40
0.687500000000015
40
0.687500000000015
40
0.750000000000015
40
0.750000000000015
40
1
40
1
40
1
40
1
41
1
10
97.6424238853202
20
3.14642748324437
30
0
41
1
10
97.6403711413157
20
2.98929662636561
30
0
41
1
10
97.6517849672529
20
2.8275962358093
30
0
41
1
10
97.6890238327197
20
2.57821908186963
30
0
41
1
10
97.7048957796509
20
2.49353771383258
30
0
41
1
10
97.7428968464495
20
2.3240811974801
30
0
41
1
10
97.7649419515307
20
2.23950709883135
30
0
41
1
10
97.8395658768855
20
1.98621461708103
30
0
41
1
10
97.9006028562958
20
1.81792450631289
30
0
41
1
10
98.0427410073116
20
1.48236021959966
30
0
41
1
10
98.1244763292514
20
1.31407106223341
30
0
41
1
10
98.390458355951
20
0.822489910115706
30
0
41
1
10
98.5958325663347
20
0.50944323887029
30
0
41
1
10
98.9347855828314
20
0.0560322911054243
30
0
41
1
10
99.0535311938485
20
-0.0929705311959594
30
0
41
1
10
99.297250273259
20
-0.382303196850898
30
0
41
1
10
99.4222425237924
20
-0.522749182596186
30
0
41
1
10
99.8053729298252
20
-0.933102643152722
30
0
41
1
10
100.071653677824
20
-1.19204052377546
30
0
41
1
10
100.483897687318
20
-1.56317251827562
30
0
41
1
10
100.623460183216
20
-1.68398965990372
30
0
41
1
10
100.906535806516
20
-1.92030170403632
30
0
41
1
10
101.050340902109
20
-2.03600152112384
30
0
41
1
10
101.774429748844
20
-2.59849445413724
30
0
41
1
10
102.369992369405
20
-2.99844928698431
30
0
41
1
10
102.977787425055
20
-3.36083216639463
30
0
0
SPLINE
5
D3
100
AcDbEntity
8
1
62
256
6
ByLayer
370
13
48
1
60
0
100
AcDbSpline
70
4
71
3
72
32
73
28
40
0
40
0
40
0
40
0
40
0.125000000000001
40
0.125000000000001
40
0.187500000000001
40
0.187500000000001
40
0.250000000000001
40
0.250000000000001
40
0.312500000000001
40
0.312500000000001
40
0.343750000000001
40
0.343750000000001
40
0.375000000000001
40
0.375000000000001
40
0.500000000000001
40
0.500000000000001
40
0.562500000000001
40
0.562500000000001
40
0.625
40
0.625
40
0.75
40
0.75
40
0.8125
40
0.8125
40
0.875
40
0.875
40
1
40
1
40
1
40
1
41
1
10
7.25022499971061
20
-4.64799908171338
30
0
41
1
10
7.25020690255465
20
-4.41535487609133
30
0
41
1
10
7.25017494384963
20
-4.15037837944928
30
0
41
1
10
7.2501163327816
20
-3.70461363413904
30
0
41
1
10
7.25009517989969
20
-3.54917486575215
30
0
41
1
10
7.25005182790864
20
-3.22780435543581
30
0
41
1
10
7.25002956945985
20
-3.06144538839087
30
0
41
1
10
7.24998554374213
20
-2.71745891072794
30
0
41
1
10
7.24996377355956
20
-2.53983202838887
30
0
41
1
10
7.24993266817069
20
-2.26471231874459
30
0
41
1
10
7.24992253079617
20
-2.17128023994158
30
0
41
1
10
7.2499031650361
20
-1.98339606305802
30
0
41
1
10
7.24989392211518
20
-1.88884051574058
30
0
41
1
10
7.24985026999801
20
-1.41305420540655
30
0
41
1
10
7.24982362923802
20
-1.02289781351433
30
0
41
1
10
7.24980188109132
20
-0.423264986018239
30
0
41
1
10
7.24979767357394
20
-0.22032382478821
30
0
41
1
10
7.24979605183105
20
0.183582936684587
30
0
41
1
10
7.24979859108407
20
0.385275750922858
30
0
41
1
10
7.24981648045656
20
0.989565983509863
30
0
41
1
10
7.24984190240943
20
1.38192063596671
30
0
41
1
10
7.2498968567636
20
1.95360187148316
30
0
41
1
10
7.24991801100947
20
2.14176943259551
30
0
41
1
10
7.24996492331107
20
2.51096899592446
30
0
41
1
10
7.24999035034858
20
2.68953894792318
30
0
41
1
10
7.25007049984163
20
3.20777974000646
30
0
41
1
10
7.25012918202523
20
3.53017587775207
30
0
41
1
10
7.25018698832429
20
3.82872521520292
30
0
0
SPLINE
5
D4
100
AcDbEntity
8
1
62
256
6
ByLayer
370
18
48
1
60
0
100
AcDbSpline
70
4
71
3
72
23
73
19
40
0
40
0
40
0
40
0
40
0.124999999999996
40
0.124999999999996
40
0.187499999999996
40
0.187499999999996
40
0.249999999999996
40
0.249999999999996
40
0.499999999999997
40
0.499999999999997
40
0.562499999999998
40
0.562499999999998
40
0.624999999999998
40
0.624999999999998
40
0.749999999999999
40
0.875
40
0.875
40
1
40
1
40
1
40
1
41
1
10
103.912647374701
20
-5.7349542044615
30
0
41
1
10
103.829579950017
20
-5.73489998441073
30
0
41
1
10
103.750494333682
20
-5.72284349185517
30
0
41
1
10
103.638133491235
20
-5.68586652588439
30
0
41
1
10
103.601727012169
20
-5.67038451557738
30
0
41
1
10
103.531092483787
20
-5.63285410472781
30
0
41
1
10
103.496751956895
20
-5.61070592606546
30
0
41
1
10
103.332693924609
20
-5.48431379253663
30
0
41
1
10
103.224860820405
20
-5.33388541057062
30
0
41
1
10
103.120726570942
20
-5.08127787153174
30
0
41
1
10
103.101452513717
20
-5.02748576986258
30
0
41
1
10
103.066132410474
20
-4.91310251739685
30
0
41
1
10
103.05004165169
20
-4.85225741156239
30
0
41
1
10
103.007454830933
20
-4.66197401794076
30
0
41
1
10
102.965350639391
20
-4.38675778140518
30
0
41
1
10
102.952115621273
20
-4.06924539503882
30
0
41
1
10
102.953706121627
20
-3.73001218066835
30
0
41
1
10
102.962059240921
20
-3.54873011572772
30
0
41
1
10
102.977787425055
20
-3.3608321663946
30
0
0
SPLINE
5
D5
100
AcDbEntity
8
1
62
256
6
ByLayer
370
18
48
1
60
0
100
AcDbSpline
70
4
71
3
72
32
73
28
40
0
40
0
40
0
40
0
40
0.125
40
0.125
40
0.1875
40
0.1875
40
0.21875
40
0.21875
40
0.25
40
0.25
40
0.375
40
0.375
40
0.4375
40
0.4375
40
0.5
40
0.5
40
0.625
40
0.625
40
0.6875
40
0.6875
40
0.75
40
0.75
40
0.875
40
0.875
40
0.9375
40
0.9375
40
1
40
1
40
1
40
1
41
1
10
7.00000001022005
20
4.00377428719301
30
0
41
1
10
7.00000001022005
20
3.69756928461979
30
0
41
1
10
7.00000001022005
20
3.36725764326693
30
0
41
1
10
7.00000001022005
20
2.83681819209184
30
0
41
1
10
7.00000001022002
20
2.65412870187211
30
0
41
1
10
7.00000001022002
20
2.37098930156884
30
0
41
1
10
7.00000001022005
20
2.27523338965636
30
0
41
1
10
7.00000001022005
20
2.08281691292982
30
0
41
1
10
7.00000001022002
20
1.98590428411464
30
0
41
1
10
7.00000001022002
20
1.49786800353081
30
0
41
1
10
7.00000001022002
20
1.09643869685334
30
0
41
1
10
7.00000001022002
20
0.477357053167708
30
0
41
1
10
7.00000001022005
20
0.269967645270697
30
0
41
1
10
7.00000001022005
20
-0.144621836497407
30
0
41
1
10
7.00000001022002
20
-0.35309445545883
30
0
41
1
10
7.00000001022002
20
-0.970980759257998
30
0
41
1
10
7.00000001022008
20
-1.37315150486032
30
0
41
1
10
7.00000001022008
20
-1.9620407230787
30
0
41
1
10
7.00000001022005
20
-2.15651799656973
30
0
41
1
10
7.00000001022005
20
-2.53785215139732
30
0
41
1
10
7.00000001022002
20
-2.72262142925976
30
0
41
1
10
7.00000001022002
20
-3.25981343041445
30
0
41
1
10
7.00000001022002
20
-3.59530493142526
30
0
41
1
10
7.00000001022002
20
-4.06348524559849
30
0
41
1
10
7.00000001021999
20
-4.21246339079335
30
0
41
1
10
7.00000001022002
20
-4.49348120812945
30
0
41
1
10
7.00000001022005
20
-4.62599440726118
30
0
41
1
10
7.00000001022005
20
-4.75039563205067
30
0
0
SPLINE
5
D6
100
AcDbEntity
8
1
62
256
6
ByLayer
370
18
48
1
60
0
100
AcDbSpline
70
4
71
3
72
22
73
18
40
0
40
0
40
0
40
0
40
0.0296830101905444
40
0.0296830101905444
40
0.430806112910641
40
0.430806112910641
40
0.631367664270689
40
0.631367664270689
40
0.831929215630736
40
0.831929215630736
40
0.882069603470746
40
0.882069603470746
40
0.907139797390756
40
0.907139797390756
40
0.932209991310767
40
0.932209991310767
40
1
40
1
40
1
40
1
41
1
10
7.88837124612689
20
-5.94232339022423
30
0
41
1
10
7.87266180184693
20
-5.94230907926359
30
0
41
1
10
7.85695031765468
20
-5.94229417338408
30
0
41
1
10
7.62889196331872
20
-5.94207035936259
30
0
41
1
10
7.4161833199135
20
-5.94173268468023
30
0
41
1
10
7.09656177215672
20
-5.94120544084933
30
0
41
1
10
6.98992813654672
20
-5.94102563549757
30
0
41
1
10
6.77647209885691
20
-5.940679338976
30
0
41
1
10
6.66960155273705
20
-5.94050371792375
30
0
41
1
10
6.53609368453832
20
-5.94032571464297
30
0
41
1
10
6.50945942316491
20
-5.94034806586703
30
0
41
1
10
6.4696589071456
20
-5.94049078201428
30
0
41
1
10
6.45624377391604
20
-5.94055830051991
30
0
41
1
10
6.43128132095831
20
-5.94072356885934
30
0
41
1
10
6.41990313298331
20
-5.94082851239369
30
0
41
1
10
6.37742040333717
20
-5.94115483418457
30
0
41
1
10
6.34659770651717
20
-5.9413054123857
30
0
41
1
10
6.31597663348296
20
-5.94135862228529
30
0
0
SPLINE
5
D7
100
AcDbEntity
8
1
62
256
6
ByLayer
370
18
48
1
60
0
100
AcDbSpline
70
4
71
3
72
81
73
77
40
0
40
0
40
0
40
0
40
0.0342772147283662
40
0.0342772147283662
40
0.104511042614903
40
0.104511042614903
40
0.122069499586536
40
0.122069499586536
40
0.139627956558171
40
0.139627956558171
40
0.174744870501439
40
0.174744870501439
40
0.244978698387975
40
0.244978698387975
40
0.280095612331243
40
0.280095612331243
40
0.315212526274511
40
0.315212526274511
40
0.385446354161047
40
0.385446354161047
40
0.455680182047583
40
0.455680182047583
40
0.460069796290492
40
0.462264603411946
40
0.462264603411946
40
0.462538954302128
40
0.462538954302128
40
0.46281330519231
40
0.46281330519231
40
0.463362006972673
40
0.463362006972673
40
0.4644594105334
40
0.4644594105334
40
0.468849024776309
40
0.468849024776309
40
0.473238639019218
40
0.473238639019218
40
0.490797095990853
40
0.490797095990853
40
0.525914009934124
40
0.525914009934124
40
0.596147837820665
40
0.596147837820665
40
0.666381665707206
40
0.666381665707206
40
0.701498579650476
40
0.701498579650476
40
0.719057036622112
40
0.719057036622112
40
0.727836265107929
40
0.727836265107929
40
0.730031072229384
40
0.730031072229384
40
0.730305423119565
40
0.730305423119565
40
0.730442598564656
40
0.730442598564656
40
0.730579774009747
40
0.730579774009747
40
0.731128475790111
40
0.732225879350838
40
0.736615493593746
40
0.736615493593746
40
0.771732407537014
40
0.771732407537014
40
0.806849321480281
40
0.806849321480281
40
0.877083149366816
40
0.877083149366816
40
0.947316977253351
40
0.947316977253351
40
0.982433891196619
40
0.982433891196619
40
0.999992348168253
40
0.999992348168253
40
1
40
1
40
1
40
1
41
1
10
19.569281794447
20
4.19600506294228
30
0
41
1
10
19.4129188175804
20
4.21820871795174
30
0
41
1
10
19.256796563074
20
4.23457332110516
30
0
41
1
10
18.7810557998634
20
4.26397499265383
30
0
41
1
10
18.4617795244287
20
4.25536423266425
30
0
41
1
10
18.0590276461314
20
4.20035131428725
30
0
41
1
10
17.9783785284855
20
4.18714367158944
30
0
41
1
10
17.8183717268441
20
4.15658164923954
30
0
41
1
10
17.7387922261796
20
4.13919985187709
30
0
41
1
10
17.5010914674788
20
4.08088490289629
30
0
41
1
10
17.3440112701247
20
4.03377186533316
30
0
41
1
10
16.8748870140664
20
3.86924095633009
30
0
41
1
10
16.5649550453599
20
3.72858870766251
30
0
41
1
10
16.0956183374708
20
3.47921841903852
30
0
41
1
10
15.9395128293133
20
3.39026780251868
30
0
41
1
10
15.6293997700174
20
3.2043941496996
30
0
41
1
10
15.474938942306
20
3.10723087830647
30
0
41
1
10
15.0113688728861
20
2.80577791553571
30
0
41
1
10
14.7020262518382
20
2.59161651036138
30
0
41
1
10
14.0740047308313
20
2.14849491628306
30
0
41
1
10
13.7582807093677
20
1.92159073718989
30
0
41
1
10
13.4216862680005
20
1.68318485135026
30
0
41
1
10
13.3919806198352
20
1.66216315099845
30
0
41
1
10
13.3622655230969
20
1.64116607862977
30
0
41
1
10
13.3511212531603
20
1.63329553031809
30
0
41
1
10
13.3496493349212
20
1.63224642455936
30
0
41
1
10
13.3503444740477
20
1.62940456299663
30
0
41
1
10
13.3512066973269
20
1.62820448058616
30
0
41
1
10
13.353766862926
20
1.62474342106623
30
0
41
1
10
13.355753987978
20
1.62266111278174
30
0
41
1
10
13.3618564180243
20
1.61654724840611
30
0
41
1
10
13.3661692210834
20
1.61274152039303
30
0
41
1
10
13.388035062634
20
1.5940473833341
30
0
41
1
10
13.4065160241949
20
1.58020336515574
30
0
41
1
10
13.4435597046101
20
1.55275294543455
30
0
41
1
10
13.462278567236
20
1.53928605807891
30
0
41
1
10
13.5563059549897
20
1.47253212594947
30
0
41
1
10
13.6327476662107
20
1.42083039800605
30
0
41
1
10
13.8626463376974
20
1.26686368433809
30
0
41
1
10
14.0171322031955
20
1.16620994752088
30
0
41
1
10
14.4815129582973
20
0.866634110864339
30
0
41
1
10
14.7924831036228
20
0.670300717645517
30
0
41
1
10
15.4138775172616
20
0.280639171654315
30
0
41
1
10
15.7251711687715
20
0.0882524004472884
30
0
41
1
10
16.1898890352475
20
-0.200258848509549
30
0
41
1
10
16.3445341513197
20
-0.29629871066237
30
0
41
1
10
16.5749346788864
20
-0.440919200097625
30
0
41
1
10
16.6515578205855
20
-0.489176471017089
30
0
41
1
10
16.7650132283379
20
-0.56245277621818
30
0
41
1
10
16.8028891906812
20
-0.586824004696524
30
0
41
1
10
16.8479359198312
20
-0.618714789640421
30
0
41
1
10
16.8572229145442
20
-0.625034205542846
30
0
41
1
10
16.8656330690731
20
-0.632954985258721
30
0
41
1
10
16.8665431954662
20
-0.633854820731329
30
0
41
1
10
16.8675594086571
20
-0.635256785219639
30
0
41
1
10
16.8678761412696
20
-0.635753615019837
30
0
41
1
10
16.8677946982502
20
-0.636632417016216
30
0
41
1
10
16.867125000998
20
-0.63679040982521
30
0
41
1
10
16.8644792546186
20
-0.637784596262065
30
0
41
1
10
16.8581300081576
20
-0.640164944265706
30
0
41
1
10
16.8348554053304
20
-0.648830129376734
30
0
41
1
10
16.8137156772557
20
-0.656516622297858
30
0
41
1
10
16.6616142805475
20
-0.710751188485801
30
0
41
1
10
16.5270868363973
20
-0.751091176772093
30
0
41
1
10
16.2599124273306
20
-0.81478346006827
30
0
41
1
10
16.1277252055629
20
-0.838063802981168
30
0
41
1
10
15.7327960517893
20
-0.881519530764564
30
0
41
1
10
15.4719209817277
20
-0.875555604003779
30
0
41
1
10
14.9357824716385
20
-0.784188807487709
30
0
41
1
10
14.6691318475965
20
-0.699978793373759
30
0
41
1
10
14.251727125809
20
-0.517552667356142
30
0
41
1
10
14.1096241510964
20
-0.447391060608652
30
0
41
1
10
13.8892854945389
20
-0.328609489795468
30
0
41
1
10
13.8147069595093
20
-0.286782354902556
30
0
41
1
10
13.7400844899393
20
-0.24359887814461
30
0
41
1
10
13.7400519841789
20
-0.243580067049635
30
0
41
1
10
13.7400194783535
20
-0.243561255667572
30
0
0
SPLINE
5
D8
100
AcDbEntity
8
1
62
256
6
ByLayer
370
18
48
1
60
0
100
AcDbSpline
70
4
71
3
72
22
73
18
40
0
40
0
40
0
40
0
40
0.0629393988852392
40
0.0629393988852392
40
0.153110719938034
40
0.153110719938034
40
0.243282040990829
40
0.243282040990829
40
0.423624683096418
40
0.423624683096418
40
0.784309967307601
40
0.784309967307601
40
0.874481288360398
40
0.874481288360398
40
0.964652609413195
40
0.964652609413195
40
1
40
1
40
1
40
1
41
1
10
27.8614789017175
20
0.0009408332641101
30
0
41
1
10
28.0381921424106
20
-0.106348863349865
30
0
41
1
10
28.2152447055051
20
-0.21385956230435
30
0
41
1
10
28.646951702
20
-0.475658952744283
30
0
41
1
10
28.9009232513132
20
-0.629345329439701
30
0
41
1
10
29.4069791793726
20
-0.9338003437814
30
0
41
1
10
29.6592901616293
20
-1.0848589887753
30
0
41
1
10
30.4147806791522
20
-1.53340182962285
30
0
41
1
10
30.9166054038278
20
-1.82610148929032
30
0
41
1
10
32.4216111009578
20
-2.67754938731633
30
0
41
1
10
33.4239426002725
20
-3.21016164374052
30
0
41
1
10
34.6928079080487
20
-3.80537608347009
30
0
41
1
10
34.9474987498921
20
-3.92087359860844
30
0
41
1
10
35.4541917925253
20
-4.14217148129805
30
0
41
1
10
35.7067702680421
20
-4.24826811943461
30
0
41
1
10
36.0576476684676
20
-4.38929893202203
30
0
41
1
10
36.1563787239957
20
-4.4282806392477
30
0
41
1
10
36.2550424287748
20
-4.46651834136418
30
0
0
SPLINE
5
D9
100
AcDbEntity
8
1
62
256
6
ByLayer
370
13
48
1
60
0
100
AcDbSpline
70
4
71
3
72
18
73
14
40
0
40
0
40
0
40
0
40
0.148037532316645
40
0.148037532316645
40
0.516290691373927
40
0.516290691373927
40
0.608353981138249
40
0.608353981138249
40
0.70041727090257
40
0.70041727090257
40
0.884543850431213
40
0.884543850431213
40
1
40
1
40
1
40
1
41
1
10
36.2550424288327
20
-4.4665183413866
30
0
41
1
10
36.6597616585142
20
-4.62336967166948
30
0
41
1
10
37.0633476132942
20
-4.76770202731663
30
0
41
1
10
38.469904112723
20
-5.22501455870119
30
0
41
1
10
39.4714338090985
20
-5.46946583978496
30
0
41
1
10
40.738011531304
20
-5.65833276816986
30
0
41
1
10
40.9926854330368
20
-5.69029479569181
30
0
41
1
10
41.5001485240453
20
-5.74184637288164
30
0
41
1
10
41.7530451468413
20
-5.76148595628086
30
0
41
1
10
42.5100094411612
20
-5.80212848677431
30
0
41
1
10
43.0122770881215
20
-5.80486104030479
30
0
41
1
10
43.8285374231079
20
-5.77016909540225
30
0
41
1
10
44.1428559117518
20
-5.74735088802692
30
0
41
1
10
44.4573349445106
20
-5.71518153399344
30
0
0
SPLINE
5
DA
100
AcDbEntity
8
1
62
256
6
ByLayer
370
18
48
1
60
0
100
AcDbSpline
70
4
71
3
72
18
73
14
40
0
40
0
40
0
40
0
40
0.134278941177487
40
0.134278941177487
40
0.318474829873678
40
0.318474829873678
40
0.410572774221778
40
0.410572774221778
40
0.502670718569877
40
0.502670718569877
40
0.871062495962291
40
0.871062495962291
40
1
40
1
40
1
40
1
41
1
10
87.7589222885473
20
0.0024021175370308
30
0
41
1
10
88.1231967390153
20
-0.220135202376866
30
0
41
1
10
88.4876704552979
20
-0.442853502447747
30
0
41
1
10
89.3540265700116
20
-0.969098301587394
30
0
41
1
10
89.8569106211067
20
-1.27139742553439
30
0
41
1
10
90.6160946295978
20
-1.7181979861692
30
0
41
1
10
90.87049704037
20
-1.86630853694592
30
0
41
1
10
91.3767017335616
20
-2.1568663892572
30
0
41
1
10
91.6289220269058
20
-2.29958213122507
30
0
41
1
10
92.8869881772974
20
-2.99858298540158
30
0
41
1
10
93.8837501274556
20
-3.5110091617552
30
0
41
1
10
95.2334908792108
20
-4.11709926404976
30
0
41
1
10
95.583801217963
20
-4.2664449508988
30
0
41
1
10
95.935080271071
20
-4.4072248051973
30
0
0
SPLINE
5
DB
100
AcDbEntity
8
1
62
256
6
ByLayer
370
13
48
1
60
0
100
AcDbSpline
70
4
71
3
72
20
73
16
40
0
40
0
40
0
40
0
40
0.0566032949856452
40
0.0566032949856452
40
0.150942965487082
40
0.150942965487082
40
0.24528263598852
40
0.24528263598852
40
0.622641317994262
40
0.622641317994262
40
0.811320658997134
40
0.811320658997134
40
0.905660329498567
40
0.905660329498567
40
1
40
1
40
1
40
1
41
1
10
95.9350811971799
20
-4.40722517634802
30
0
41
1
10
96.0856275682662
20
-4.4675586736914
30
0
41
1
10
96.2363518623312
20
-4.52631889224946
30
0
41
1
10
96.6388842785641
20
-4.67865521764321
30
0
41
1
10
96.8911054721475
20
-4.76931780443115
30
0
41
1
10
97.3972412304825
20
-4.94096489151315
30
0
41
1
10
97.6515444214212
20
-5.02205358640543
30
0
41
1
10
98.9176597600566
20
-5.39874712299786
30
0
41
1
10
99.9206003521541
20
-5.61084536281643
30
0
41
1
10
101.430382298982
20
-5.7861280304667
30
0
41
1
10
101.934525646052
20
-5.82074498344252
30
0
41
1
10
102.694774208064
20
-5.83569259058206
30
0
41
1
10
102.948904237507
20
-5.83448492772658
30
0
41
1
10
103.456325946201
20
-5.81963382837461
30
0
41
1
10
103.709948972322
20
-5.80556554675152
30
0
41
1
10
103.963644603462
20
-5.78624044239587
30
0
0
SPLINE
5
DC
100
AcDbEntity
8
1
62
256
6
ByLayer
370
13
48
1
60
0
100
AcDbSpline
70
4
71
3
72
8
73
4
40
0
40
0
40
0
40
0
40
1
40
1
40
1
40
1
41
1
10
7.12014228771639
20
-4.76911639023237
30
0
41
1
10
7.14440295213001
20
-4.76541898371127
30
0
41
1
10
7.17101700088554
20
-4.7686135166843
30
0
41
1
10
7.19833810435239
20
-4.77793020501326
30
0
0
SPLINE
5
DD
100
AcDbEntity
8
1
62
256
6
ByLayer
370
18
48
1
60
0
100
AcDbSpline
70
4
71
3
72
98
73
94
40
0
40
0
40
0
40
0
40
0.0137752980822161
40
0.0137752980822161
40
0.0315726907089107
40
0.0315726907089107
40
0.0493700833356053
40
0.0493700833356053
40
0.0671674759622999
40
0.0671674759622999
40
0.0849648685889944
40
0.0849648685889944
40
0.102762261215689
40
0.102762261215689
40
0.120559653842384
40
0.120559653842384
40
0.156154439095773
40
0.156154439095773
40
0.173951831722468
40
0.173951831722468
40
0.191749224349163
40
0.191749224349163
40
0.227344009602553
40
0.227344009602553
40
0.245141402229247
40
0.245141402229247
40
0.262938794855942
40
0.262938794855942
40
0.298533580109332
40
0.298533580109332
40
0.316330972736027
40
0.316330972736027
40
0.334128365362721
40
0.334128365362721
40
0.36972315061611
40
0.36972315061611
40
0.387520543242805
40
0.387520543242805
40
0.4053179358695
40
0.4053179358695
40
0.423115328496195
40
0.423115328496195
40
0.44091272112289
40
0.44091272112289
40
0.458710113749585
40
0.458710113749585
40
0.47650750637628
40
0.47650750637628
40
0.51210229162967
40
0.51210229162967
40
0.529899684256365
40
0.529899684256365
40
0.54769707688306
40
0.54769707688306
40
0.565494469509755
40
0.565494469509755
40
0.583291862136451
40
0.583291862136451
40
0.601089254763145
40
0.601089254763145
40
0.61888664738984
40
0.61888664738984
40
0.654481432643231
40
0.654481432643231
40
0.672278825269926
40
0.672278825269926
40
0.690076217896621
40
0.690076217896621
40
0.725671003150011
40
0.725671003150011
40
0.743468395776706
40
0.743468395776706
40
0.7612657884034
40
0.7612657884034
40
0.796860573656791
40
0.796860573656791
40
0.814657966283485
40
0.814657966283485
40
0.83245535891018
40
0.83245535891018
40
0.868050144163569
40
0.868050144163569
40
0.885847536790263
40
0.885847536790263
40
0.903644929416958
40
0.903644929416958
40
0.939239714670348
40
0.939239714670348
40
0.974834499923738
40
0.974834499923738
40
0.992631892550433
40
0.992631892550433
40
1
40
1
40
1
40
1
41
1
10
34.8956314674109
20
4.37348375792263
30
0
41
1
10
35.0650769458881
20
4.44536298555948
30
0
41
1
10
35.2343849119081
20
4.51534278385114
30
0
41
1
10
35.6220258105415
20
4.67143711348496
30
0
41
1
10
35.8403102339356
20
4.75616708537211
30
0
41
1
10
36.2788712645449
20
4.91670729866181
30
0
41
1
10
36.498785419231
20
4.99290357290099
30
0
41
1
10
36.9395649455915
20
5.1374749856478
30
0
41
1
10
37.1604343553814
20
5.20584525928098
30
0
41
1
10
37.6029473372915
20
5.3347801382703
30
0
41
1
10
37.8250347083603
20
5.39545456544596
30
0
41
1
10
38.2674985337912
20
5.50820620826897
30
0
41
1
10
38.4876336268518
20
5.56021706758546
30
0
41
1
10
38.9283577559832
20
5.6541080750315
30
0
41
1
10
39.1485935034565
20
5.69624686858177
30
0
41
1
10
39.8084580786412
20
5.80886680017341
30
0
41
1
10
40.2472446506736
20
5.86564584251892
30
0
41
1
10
40.9026433416506
20
5.92334037137258
30
0
41
1
10
41.1205138177879
20
5.93793998439281
30
0
41
1
10
41.5578909537531
20
5.95745401323694
30
0
41
1
10
41.7770668450877
20
5.96246500297829
30
0
41
1
10
42.435535424444
20
5.96346803083102
30
0
41
1
10
42.8757636653003
20
5.94553159106943
30
0
41
1
10
43.5369458021967
20
5.88936401697347
30
0
41
1
10
43.7572740284505
20
5.86562620987894
30
0
41
1
10
44.2006894180231
20
5.80882333246791
30
0
41
1
10
44.4222419230722
20
5.77588457234035
30
0
41
1
10
45.0853883001073
20
5.66378380274267
30
0
41
1
10
45.5257267987976
20
5.57139400273755
30
0
41
1
10
46.1824897201451
20
5.40570186135764
30
0
41
1
10
46.4005233363841
20
5.34570531241914
30
0
41
1
10
46.8377188294594
20
5.21827829062602
30
0
41
1
10
47.0566622717267
20
5.1507356805557
30
0
41
1
10
47.7139660345029
20
4.93641164260262
30
0
41
1
10
48.1528041837608
20
4.77802114484524
30
0
41
1
10
48.8108953301494
20
4.5153964204832
30
0
41
1
10
49.0299317913588
20
4.42329345027664
30
0
41
1
10
49.4701269029052
20
4.23289078120567
30
0
41
1
10
49.6911785785618
20
4.13452172200701
30
0
41
1
10
50.1347972451376
20
3.9310258569831
30
0
41
1
10
50.3572101791376
20
3.82596768484066
30
0
41
1
10
50.7997535509928
20
3.61053247971603
30
0
41
1
10
51.0203285956758
20
3.49995683880601
30
0
41
1
10
51.4599163477033
20
3.27284776614027
30
0
41
1
10
51.6786071202124
20
3.15585289130462
30
0
41
1
10
52.1164375340303
20
2.91868508906629
30
0
41
1
10
52.3355580372609
20
2.79850822816368
30
0
41
1
10
52.9929346121219
20
2.43249179752206
30
0
41
1
10
53.4312167256417
20
2.18121890381028
30
0
41
1
10
54.0875072110659
20
1.79147871631133
30
0
41
1
10
54.3057778042738
20
1.65892792121153
30
0
41
1
10
54.7436403587679
20
1.39210253209669
30
0
41
1
10
54.9633869127286
20
1.25809391547531
30
0
41
1
10
55.404078924148
20
0.98824075679687
30
0
41
1
10
55.6250348912583
20
0.852412040750892
30
0
41
1
10
56.0679464287217
20
0.578539685920276
30
0
41
1
10
56.2903169724633
20
0.440239416540635
30
0
41
1
10
56.7326624657285
20
0.163112575604742
30
0
41
1
10
56.9525937797127
20
0.0236527663937238
30
0
41
1
10
57.3920112768838
20
-0.253645668812538
30
0
41
1
10
57.6117794445361
20
-0.391027119589126
30
0
41
1
10
58.2706318243915
20
-0.800531356326104
30
0
41
1
10
58.7092758715879
20
-1.07001628844333
30
0
41
1
10
59.3651394122374
20
-1.47091489206045
30
0
41
1
10
59.583185276547
20
-1.60433466492822
30
0
41
1
10
60.0196284592895
20
-1.86834999920947
30
0
41
1
10
60.2385235783019
20
-1.99817980919627
30
0
41
1
10
60.896548652448
20
-2.38225794363257
30
0
41
1
10
61.3370085928911
20
-2.63113345886129
30
0
41
1
10
61.9991869467192
20
-2.99523656405992
30
0
41
1
10
62.2202312226486
20
-3.11542743247964
30
0
41
1
10
62.6625123775952
20
-3.35091921089301
30
0
41
1
10
62.8838988456212
20
-3.46507029066129
30
0
41
1
10
63.54823188051
20
-3.79781528977458
30
0
41
1
10
63.9912835051865
20
-4.00685714694845
30
0
41
1
10
64.6547940548439
20
-4.30271223977707
30
0
41
1
10
64.8756403941728
20
-4.39851288155057
30
0
41
1
10
65.3175839544622
20
-4.58331345221515
30
0
41
1
10
65.5394736039108
20
-4.67158871805316
30
0
41
1
10
66.2030704573774
20
-4.923159399751
30
0
41
1
10
66.6439668372722
20
-5.07402959471412
30
0
41
1
10
67.3018402552656
20
-5.27665250856361
30
0
41
1
10
67.5204516751766
20
-5.34028661913345
30
0
41
1
10
67.9568697031502
20
-5.45917210702723
30
0
41
1
10
68.1754142046369
20
-5.51392020708846
30
0
41
1
10
68.8319522442742
20
-5.66453519879326
30
0
41
1
10
69.2705664302499
20
-5.74705696851387
30
0
41
1
10
70.1479266903355
20
-5.87676134178397
30
0
41
1
10
70.5857095955893
20
-5.92386906077283
30
0
41
1
10
71.2492000424269
20
-5.96504787925275
30
0
41
1
10
71.4716266240473
20
-5.9739941317913
30
0
41
1
10
71.7849285732585
20
-5.97983169521217
30
0
41
1
10
71.8765496901327
20
-5.98072043582391
30
0
41
1
10
71.9680551870861
20
-5.98079025887523
30
0
0
SPLINE
5
DE
100
AcDbEntity
8
1
62
256
6
ByLayer
370
18
48
1
60
0
100
AcDbSpline
70
4
71
3
72
26
73
22
40
0
40
0
40
0
40
0
40
0.137559380638431
40
0.137559380638431
40
0.209429432251896
40
0.209429432251896
40
0.281299483865359
40
0.281299483865359
40
0.425039587092286
40
0.425039587092286
40
0.496909638705752
40
0.496909638705752
40
0.56877969031922
40
0.56877969031922
40
0.712519793546146
40
0.712519793546146
40
0.784389845159609
40
0.784389845159609
40
0.856259896773073
40
0.856259896773073
40
1
40
1
40
1
40
1
41
1
10
94.8318395434249
20
4.41213017212235
30
0
41
1
10
95.2502574280957
20
4.5908831336782
30
0
41
1
10
95.6693714500848
20
4.7550551092238
30
0
41
1
10
96.3070347115502
20
4.98474887582577
30
0
41
1
10
96.5258038179738
20
5.05989840296871
30
0
41
1
10
96.9630624283496
20
5.20282778343153
30
0
41
1
10
97.1812474117122
20
5.27081941876156
30
0
41
1
10
97.8386596575465
20
5.46090558768776
30
0
41
1
10
98.2801669305431
20
5.56984181219102
30
0
41
1
10
98.945578333443
20
5.70750763551746
30
0
41
1
10
99.1669477140712
20
5.74885274648489
30
0
41
1
10
99.6075171592959
20
5.82229621320607
30
0
41
1
10
99.8265772045961
20
5.85451802952997
30
0
41
1
10
100.48407490177
20
5.93626953077759
30
0
41
1
10
100.922653224944
20
5.97131149468478
30
0
41
1
10
101.579133788807
20
5.99610295116386
30
0
41
1
10
101.797750126871
20
5.99969991901764
30
0
41
1
10
102.234387433364
20
5.99742642454396
30
0
41
1
10
102.452098562023
20
5.99150536624489
30
0
41
1
10
103.106851942481
20
5.9594402020023
30
0
41
1
10
103.546046630518
20
5.91939487474244
30
0
41
1
10
103.98668378301
20
5.86053383010022
30
0
0
SPLINE
5
DF
100
AcDbEntity
8
1
62
256
6
ByLayer
370
18
48
1
60
0
100
AcDbSpline
70
4
71
3
72
14
73
10
40
0
40
0
40
0
40
0
40
0.342529709778125
40
0.342529709778125
40
0.868295656090431
40
0.868295656090431
40
0.99973714266851
40
0.99973714266851
40
1
40
1
40
1
40
1
41
1
10
102.92956245944
20
-5.73444421451282
30
0
41
1
10
102.274585827034
20
-5.73407091247989
30
0
41
1
10
101.62326648399
20
-5.69303960951208
30
0
41
1
10
99.9726654959127
20
-5.48968174122675
30
0
41
1
10
98.973484242429
20
-5.27410896468163
30
0
41
1
10
97.7085420310327
20
-4.89479368885043
30
0
41
1
10
97.4542436184067
20
-4.81324992569975
30
0
41
1
10
97.2006753938528
20
-4.72693521060964
30
0
41
1
10
97.2001693222168
20
-4.72676292369545
30
0
41
1
10
97.1996632538748
20
-4.72659061795869
30
0
0
SPLINE
5
E0
100
AcDbEntity
8
1
62
256
6
ByLayer
370
13
48
1
60
0
100
AcDbSpline
70
4
71
3
72
24
73
20
40
0
40
0
40
0
40
0
40
0.0562187783377535
40
0.0562187783377535
40
0.168881638757132
40
0.168881638757132
40
0.394207359595894
40
0.394207359595894
40
0.450538789805581
40
0.450538789805581
40
0.506870220015268
40
0.506870220015268
40
0.619533080434638
40
0.619533080434638
40
0.844858801273372
40
0.844858801273372
40
0.957521661692739
40
0.957521661692739
40
1
40
1
40
1
40
1
41
1
10
97.1996632538656
20
-4.72659061795557
30
0
41
1
10
96.947110467799
20
-4.64060165112437
30
0
41
1
10
96.6953780713101
20
-4.54992492930049
30
0
41
1
10
95.9410324399424
20
-4.26431695662978
30
0
41
1
10
95.4402450732385
20
-4.05613453729569
30
0
41
1
10
93.9401687660761
20
-3.38537973987437
30
0
41
1
10
92.9431074599543
20
-2.87670173813032
30
0
41
1
10
91.6849399811232
20
-2.18520209500358
30
0
41
1
10
91.4327214732733
20
-2.04411556352596
30
0
41
1
10
90.926575557301
20
-1.75707159578141
30
0
41
1
10
90.6722277860569
20
-1.61085212803823
30
0
41
1
10
89.9130898829375
20
-1.16994997242637
30
0
41
1
10
89.4101447788984
20
-0.871984103882227
30
0
41
1
10
87.9065865389757
20
0.0270212027539571
30
0
41
1
10
86.9102445927102
20
0.631408474438786
30
0
41
1
10
85.4061495160713
20
1.5139520039944
30
0
41
1
10
84.9030368373379
20
1.80386405556368
30
0
41
1
10
84.2057597189629
20
2.19370935027339
30
0
41
1
10
84.0141912372572
20
2.29955173544235
30
0
41
1
10
83.8230001326701
20
2.40370932966522
30
0
0
SPLINE
5
E1
100
AcDbEntity
8
1
62
256
6
ByLayer
370
18
48
1
60
0
100
AcDbSpline
70
4
71
3
72
16
73
12
40
0
40
0
40
0
40
0
40
0.170032191849374
40
0.170032191849374
40
0.301024654194716
40
0.301024654194716
40
0.432017116540057
40
0.432017116540057
40
0.955986965921414
40
0.955986965921414
40
1
40
1
40
1
40
1
41
1
10
43.0390063792
20
-5.69841592297718
30
0
41
1
10
42.7129499773113
20
-5.69838054491913
30
0
41
1
10
42.3864025557439
20
-5.68834049974205
30
0
41
1
10
41.8065581354234
20
-5.65271098740186
30
0
41
1
10
41.5536767497122
20
-5.63122157497648
30
0
41
1
10
41.0462831698255
20
-5.5761905542835
30
0
41
1
10
40.7916490086469
20
-5.54261057105794
30
0
41
1
10
39.5251192610935
20
-5.34632502402022
30
0
41
1
10
38.5233653958556
20
-5.09791616408353
30
0
41
1
10
37.4356417321185
20
-4.74233114015124
30
0
41
1
10
37.3513420205388
20
-4.71421515665426
30
0
41
1
10
37.2670228087476
20
-4.68554394566337
30
0
0
SPLINE
5
E2
100
AcDbEntity
8
1
62
256
6
ByLayer
370
13
48
1
60
0
100
AcDbSpline
70
4
71
3
72
24
73
20
40
0
40
0
40
0
40
0
40
0.0935991269645775
40
0.0935991269645775
40
0.149848447929601
40
0.149848447929601
40
0.206097768894624
40
0.206097768894624
40
0.431095052754714
40
0.431095052754714
40
0.543593694684759
40
0.543593694684759
40
0.599843015649783
40
0.599843015649783
40
0.656092336614806
40
0.656092336614806
40
0.881089620474907
40
0.881089620474907
40
1
40
1
40
1
40
1
41
1
10
37.2670237567446
20
-4.68554426801242
30
0
41
1
10
36.8494376423118
20
-4.54355174196357
30
0
41
1
10
36.4313732528435
20
-4.38794132014604
30
0
41
1
10
35.7598306030456
20
-4.11826731564801
30
0
41
1
10
35.5072541628805
20
-4.01239766274028
30
0
41
1
10
35.0005979342161
20
-3.79184792634436
30
0
41
1
10
34.7459566340173
20
-3.67688280047622
30
0
41
1
10
33.4772155452698
20
-3.08493563342057
30
0
41
1
10
32.4746550756042
20
-2.55693376422431
30
0
41
1
10
30.9693727963509
20
-1.71520854959667
30
0
41
1
10
30.4674645848535
20
-1.42622402448336
30
0
41
1
10
29.7119184878937
20
-0.983954032502197
30
0
41
1
10
29.45959903788
20
-0.835105603595451
30
0
41
1
10
28.9535400430432
20
-0.535344467295573
30
0
41
1
10
28.6995914223245
20
-0.384141335280901
30
0
41
1
10
27.4285487847565
20
0.373946372207769
30
0
41
1
10
26.4248675541972
20
0.975767770922943
30
0
41
1
10
24.8910079406025
20
1.85611716640321
30
0
41
1
10
24.360673693714
20
2.15325213413343
30
0
41
1
10
23.8284216030379
20
2.43993407201958
30
0
0
SPLINE
5
E3
100
AcDbEntity
8
1
62
256
6
ByLayer
370
18
48
1
60
0
100
AcDbSpline
70
4
71
3
72
14
73
10
40
0
40
0
40
0
40
0
40
0.25
40
0.25
40
0.5
40
0.5
40
0.75
40
0.75
40
1
40
1
40
1
40
1
41
1
10
7.1177976568143
20
-4.8864416757404
30
0
41
1
10
7.09969933449054
20
-4.88001717205103
30
0
41
1
10
7.08340851052023
20
-4.87240916781283
30
0
41
1
10
7.05432758897106
20
-4.85483358988782
30
0
41
1
10
7.04161403358756
20
-4.84482557729331
30
0
41
1
10
7.02121284695824
20
-4.82344102734459
30
0
41
1
10
7.01323655689538
20
-4.81175930023161
30
0
41
1
10
7.00268097733598
20
-4.78767988859627
30
0
41
1
10
7.00000001022005
20
-4.77529477325211
30
0
41
1
10
7.00000001022002
20
-4.76254423569026
30
0
0
SPLINE
5
E4
100
AcDbEntity
8
1
62
256
6
ByLayer
370
18
48
1
60
0
100
AcDbSpline
70
4
71
3
72
24
73
20
40
0
40
0
40
0
40
0
40
0.249999999999987
40
0.249999999999987
40
0.374999999999997
40
0.374999999999997
40
0.500000000000006
40
0.500000000000006
40
0.625000000000016
40
0.625000000000016
40
0.750000000000026
40
0.750000000000026
40
0.812500000000019
40
0.812500000000019
40
0.875000000000013
40
0.875000000000013
40
0.937500000000006
40
0.937500000000006
40
1
40
1
40
1
40
1
41
1
10
103.227613009331
20
1.67813746376842
30
0
41
1
10
103.427415248078
20
1.71433719885834
30
0
41
1
10
103.626129054913
20
1.75613675726339
30
0
41
1
10
103.921392244885
20
1.83384303286772
30
0
41
1
10
104.019338090302
20
1.86228774027615
30
0
41
1
10
104.213874429306
20
1.92658245630935
30
0
41
1
10
104.310631201678
20
1.96243071791193
30
0
41
1
10
104.501390570626
20
2.04564812925958
30
0
41
1
10
104.59403237143
20
2.0923023895613
30
0
41
1
10
104.77018746276
20
2.20278868409494
30
0
41
1
10
104.85234872798
20
2.26557646529244
30
0
41
1
10
104.958375796485
20
2.37953518629948
30
0
41
1
10
104.99076886279
20
2.42109679881293
30
0
41
1
10
105.044925138911
20
2.50963690709352
30
0
41
1
10
105.067264571557
20
2.55773958491616
30
0
41
1
10
105.0983947404
20
2.65753491626472
30
0
41
1
10
105.107282327457
20
2.70882716211821
30
0
41
1
10
105.112121897784
20
2.81415121981758
30
0
41
1
10
105.107949618652
20
2.86695766835703
30
0
41
1
10
105.098612610607
20
2.91862662291737
30
0
0
SPLINE
5
E5
100
AcDbEntity
8
1
62
256
6
ByLayer
370
18
48
1
60
0
100
AcDbSpline
70
4
71
3
72
14
73
10
40
0
40
0
40
0
40
0
40
0.25
40
0.25
40
0.5
40
0.5
40
0.75
40
0.75
40
1
40
1
40
1
40
1
41
1
10
7.00000001021999
20
4.00377428719315
30
0
41
1
10
7.00000001021999
20
4.00140814687498
30
0
41
1
10
7.00483120618102
20
3.99620215674378
30
0
41
1
10
7.02853847748372
20
3.97740127550634
30
0
41
1
10
7.04810938328853
20
3.96337950182288
30
0
41
1
10
7.10056967021214
20
3.92745351087123
30
0
41
1
10
7.13204156042662
20
3.90645515369707
30
0
41
1
10
7.19321782270958
20
3.86596237315987
30
0
41
1
10
7.22252893455226
20
3.8467280061333
30
0
41
1
10
7.25018698833029
20
3.82872521520633
30
0
0
SPLINE
5
E6
100
AcDbEntity
8
1
62
256
6
ByLayer
370
18
48
1
60
0
100
AcDbSpline
70
4
71
3
72
94
73
90
40
0
40
0
40
0
40
0
40
0.0304111730667486
40
0.0304111730667486
40
0.0664433167928641
40
0.0664433167928641
40
0.0844593886559219
40
0.0844593886559219
40
0.10247546051898
40
0.10247546051898
40
0.120491532382037
40
0.120491532382037
40
0.138507604245095
40
0.138507604245095
40
0.156523676108153
40
0.156523676108153
40
0.17453974797121
40
0.17453974797121
40
0.192555819834268
40
0.192555819834268
40
0.210571891697326
40
0.210571891697326
40
0.246604035423441
40
0.246604035423441
40
0.2646201072865
40
0.2646201072865
40
0.282636179149558
40
0.282636179149558
40
0.318668322875676
40
0.318668322875676
40
0.336684394738734
40
0.336684394738734
40
0.354700466601793
40
0.354700466601793
40
0.390732610327912
40
0.390732610327912
40
0.40874868219097
40
0.40874868219097
40
0.426764754054028
40
0.426764754054028
40
0.444780825917086
40
0.444780825917086
40
0.462796897780143
40
0.462796897780143
40
0.480812969643201
40
0.480812969643201
40
0.498829041506259
40
0.498829041506259
40
0.534861185232375
40
0.534861185232375
40
0.552877257095433
40
0.552877257095433
40
0.570893328958491
40
0.570893328958491
40
0.588909400821549
40
0.588909400821549
40
0.606925472684607
40
0.606925472684607
40
0.624941544547665
40
0.624941544547665
40
0.642957616410724
40
0.642957616410724
40
0.67898976013684
40
0.67898976013684
40
0.715021903862956
40
0.715021903862956
40
0.733037975726014
40
0.733037975726014
40
0.751054047589072
40
0.751054047589072
40
0.787086191315187
40
0.787086191315187
40
0.805102263178245
40
0.805102263178245
40
0.823118335041303
40
0.823118335041303
40
0.859150478767418
40
0.859150478767418
40
0.895182622493534
40
0.895182622493534
40
0.931214766219649
40
0.931214766219649
40
0.949230838082707
40
0.949230838082707
40
0.967246909945765
40
0.967246909945765
40
0.985262981808824
40
0.985262981808824
40
1
40
1
40
1
40
1
41
1
10
94.8129133942938
20
-4.40776423525014
30
0
41
1
10
94.4456954924889
20
-4.54840724898384
30
0
41
1
10
94.078933023656
20
-4.67904444749581
30
0
41
1
10
93.2787849623127
20
-4.94237707476833
30
0
41
1
10
92.844341020953
20
-5.07036409253465
30
0
41
1
10
92.1898525151563
20
-5.23653416685033
30
0
41
1
10
91.9712782913832
20
-5.28755875889595
30
0
41
1
10
91.5333949748156
20
-5.38238353644357
30
0
41
1
10
91.3140631434077
20
-5.42598218614037
30
0
41
1
10
90.8747545053332
20
-5.50522909852802
30
0
41
1
10
90.6546468615723
20
-5.54076124277648
30
0
41
1
10
90.2158785443637
20
-5.6023080471054
30
0
41
1
10
89.9969124523919
20
-5.62848079191372
30
0
41
1
10
89.5597792529261
20
-5.67153938920089
30
0
41
1
10
89.3416669859641
20
-5.68776967188501
30
0
41
1
10
88.906078923196
20
-5.7108091907019
30
0
41
1
10
88.6885554704535
20
-5.71853942498984
30
0
41
1
10
88.2542914418535
20
-5.72567445616721
30
0
41
1
10
88.0375386336036
20
-5.72499483032982
30
0
41
1
10
87.6034890565264
20
-5.71487237195043
30
0
41
1
10
87.3863313750429
20
-5.70548084104365
30
0
41
1
10
86.7343806987416
20
-5.66369558051318
30
0
41
1
10
86.2989904243033
20
-5.61679114397134
30
0
41
1
10
85.6447019574289
20
-5.5199956883763
30
0
41
1
10
85.4265155429084
20
-5.48317155905713
30
0
41
1
10
84.9884483424188
20
-5.40071081280229
30
0
41
1
10
84.7686307462486
20
-5.35511890868361
30
0
41
1
10
84.1075506352473
20
-5.20605763397504
30
0
41
1
10
83.6690082661273
20
-5.09135921046777
30
0
41
1
10
83.0145110890015
20
-4.8958418597739
30
0
41
1
10
82.7970485599176
20
-4.82656826695128
30
0
41
1
10
82.3620422444508
20
-4.681046052212
30
0
41
1
10
82.1446192074582
20
-4.6046241376321
30
0
41
1
10
81.4923819600916
20
-4.36341564351653
30
0
41
1
10
81.0575918914157
20
-4.19084091919689
30
0
41
1
10
80.4053976214703
20
-3.91085712132869
30
0
41
1
10
80.1881842909665
20
-3.81394935485241
30
0
41
1
10
79.7526952892192
20
-3.61480460083067
30
0
41
1
10
79.5344970572733
20
-3.5124908160642
30
0
41
1
10
79.0969998514643
20
-3.30196219264127
30
0
41
1
10
78.8776279149496
20
-3.1933435004251
30
0
41
1
10
78.437931788912
20
-2.97140517610885
30
0
41
1
10
78.2171969823819
20
-2.85775197904789
30
0
41
1
10
77.7778329363314
20
-2.62616197915469
30
0
41
1
10
77.5591177149198
20
-2.50785735645039
30
0
41
1
10
77.1221260947685
20
-2.26880051189036
30
0
41
1
10
76.903883548256
20
-2.14801239706944
30
0
41
1
10
76.2498588557506
20
-1.7817116440045
30
0
41
1
10
75.8147750215563
20
-1.53225380214869
30
0
41
1
10
75.1632091327303
20
-1.15138703046159
30
0
41
1
10
74.9464137594751
20
-1.02286119804933
30
0
41
1
10
74.5123556038191
20
-0.764722006298427
30
0
41
1
10
74.2950559890955
20
-0.635223029270378
30
0
41
1
10
73.8598438935962
20
-0.375631124020913
30
0
41
1
10
73.6419459298894
20
-0.24547354246215
30
0
41
1
10
73.2054192291203
20
0.0155337531049611
30
0
41
1
10
72.9867726090097
20
0.146324925913888
30
0
41
1
10
72.5488323701688
20
0.40847829189056
30
0
41
1
10
72.3297264876676
20
0.540170772152294
30
0
41
1
10
71.8900672385649
20
0.803021044226313
30
0
41
1
10
71.6698087112565
20
0.933673750989385
30
0
41
1
10
71.0114264953023
20
1.32085894779215
30
0
41
1
10
70.574162303836
20
1.57401741252605
30
0
41
1
10
69.7028273264702
20
2.06836402328358
30
0
41
1
10
69.2691858686732
20
2.31118524350165
30
0
41
1
10
68.6172292678954
20
2.66024112351099
30
0
41
1
10
68.3997814278543
20
2.77433116753616
30
0
41
1
10
67.9646687306716
20
2.99865193587979
30
0
41
1
10
67.7469955378106
20
3.10882215753981
30
0
41
1
10
67.0934880866433
20
3.43236368405889
30
0
41
1
10
66.6578274356473
20
3.63994367117127
30
0
41
1
10
65.999496075707
20
3.93164581843743
30
0
41
1
10
65.778950811344
20
4.02535859948449
30
0
41
1
10
65.3380248861208
20
4.20709345944218
30
0
41
1
10
65.1180964782231
20
4.2948062195033
30
0
41
1
10
64.4600329014148
20
4.54751697022422
30
0
41
1
10
64.0242208444897
20
4.70363836049455
30
0
41
1
10
63.1527180813401
20
4.98080155275585
30
0
41
1
10
62.7173451374662
20
5.10059140748311
30
0
41
1
10
61.8467081919717
20
5.31319599523684
30
0
41
1
10
61.4122582800415
20
5.40505240231403
30
0
41
1
10
60.757484662659
20
5.51637156981673
30
0
41
1
10
60.5387763198073
20
5.54911710362393
30
0
41
1
10
60.1003051413044
20
5.60495599085036
30
0
41
1
10
59.8804713634521
20
5.62762682811606
30
0
41
1
10
59.4398279598016
20
5.6650590988732
30
0
41
1
10
59.2189228124788
20
5.67986090685974
30
0
41
1
10
58.8196315207182
20
5.6983797961868
30
0
41
1
10
58.6403222839422
20
5.70367059649931
30
0
41
1
10
58.4612025302422
20
5.70592739560522
30
0
0
SPLINE
5
E7
100
AcDbEntity
8
1
62
256
6
ByLayer
370
18
48
1
60
0
100
AcDbSpline
70
4
71
3
72
56
73
52
40
0
40
0
40
0
40
0
40
0.0099616251229258
40
0.0099616251229258
40
0.0718390235527447
40
0.0718390235527447
40
0.102777722767654
40
0.102777722767654
40
0.133716421982563
40
0.133716421982563
40
0.195593820412382
40
0.195593820412382
40
0.226532519627291
40
0.226532519627291
40
0.257471218842199
40
0.257471218842199
40
0.288409918057108
40
0.288409918057108
40
0.319348617272017
40
0.319348617272017
40
0.350287316486926
40
0.350287316486926
40
0.381226015701834
40
0.381226015701834
40
0.44310341413165
40
0.44310341413165
40
0.504980812561466
40
0.504980812561466
40
0.566858210991282
40
0.566858210991282
40
0.59779691020619
40
0.59779691020619
40
0.628735609421099
40
0.628735609421099
40
0.659674308636008
40
0.659674308636008
40
0.690613007850917
40
0.690613007850917
40
0.752490406280734
40
0.752490406280734
40
0.783429105495642
40
0.783429105495642
40
0.81436780471055
40
0.81436780471055
40
0.876245203140366
40
0.876245203140366
40
0.907183902355275
40
0.907183902355275
40
0.938122601570183
40
0.938122601570183
40
1
40
1
40
1
40
1
41
1
10
34.9334679839913
20
-4.37210058585228
30
0
41
1
10
34.862811175846
20
-4.39917227743132
30
0
41
1
10
34.7921061048437
20
-4.42590285282364
30
0
41
1
10
34.2817277030433
20
-4.6161135424517
30
0
41
1
10
33.8381116212535
20
-4.76655362675655
30
0
41
1
10
33.1779591745626
20
-4.96613121670148
30
0
41
1
10
32.9584015558646
20
-5.02873448797664
30
0
41
1
10
32.5203062079141
20
-5.1460082213919
30
0
41
1
10
32.3019708152563
20
-5.2006064282761
30
0
41
1
10
31.6474548613266
20
-5.35079537815872
30
0
41
1
10
31.2112383473708
20
-5.43457359130855
30
0
41
1
10
30.556854060457
20
-5.53465652941014
30
0
41
1
10
30.3386973455483
20
-5.56360354994806
30
0
41
1
10
29.9023219170403
20
-5.61305985980263
30
0
41
1
10
29.6842747519145
20
-5.63364695622678
30
0
41
1
10
29.2475126367573
20
-5.66463474828859
30
0
41
1
10
29.0285769685221
20
-5.67476208212867
30
0
41
1
10
28.5896210253427
20
-5.68693519916761
30
0
41
1
10
28.3696332406572
20
-5.68898544681366
30
0
41
1
10
27.9286547198587
20
-5.68475645113151
30
0
41
1
10
27.7072116258141
20
-5.67839562271959
30
0
41
1
10
27.2658511843976
20
-5.65673522161509
30
0
41
1
10
27.0460246007568
20
-5.64148920946181
30
0
41
1
10
26.3882868621112
20
-5.58148319920482
30
0
41
1
10
25.9511568568598
20
-5.52071830423577
30
0
41
1
10
25.0779618506968
20
-5.36962356001951
30
0
41
1
10
24.6421204489525
20
-5.27755246725187
30
0
41
1
10
23.7716928928739
20
-5.06017095054543
30
0
41
1
10
23.3354717073818
20
-4.93608831433247
30
0
41
1
10
22.6789422358919
20
-4.72595090886145
30
0
41
1
10
22.4597678623383
20
-4.65218816980186
30
0
41
1
10
22.0206004055137
20
-4.49657106083671
30
0
41
1
10
21.8005869086668
20
-4.41427214917195
30
0
41
1
10
21.3597556262649
20
-4.24158929246227
30
0
41
1
10
21.1386068061615
20
-4.15230910622068
30
0
41
1
10
20.6978780455868
20
-3.9685117846924
30
0
41
1
10
20.4779213312046
20
-3.87388750236292
30
0
41
1
10
19.8193028968653
20
-3.58175620911422
30
0
41
1
10
19.3817557018934
20
-3.37623893398188
30
0
41
1
10
18.7280503766797
20
-3.04937519505646
30
0
41
1
10
18.5101591689177
20
-2.93782626979234
30
0
41
1
10
18.0740147072972
20
-2.71173643299997
30
0
41
1
10
17.8558074456062
20
-2.59692819051617
30
0
41
1
10
17.200831029929
20
-2.24673502751128
30
0
41
1
10
16.7635531522744
20
-2.00597844010988
30
0
41
1
10
16.1068609483835
20
-1.63185987441264
30
0
41
1
10
15.8874557635533
20
-1.50534376504697
30
0
41
1
10
15.4472874199603
20
-1.25021633073976
30
0
41
1
10
15.2264745290076
20
-1.1214477962007
30
0
41
1
10
14.5628026888177
20
-0.732668529942401
30
0
41
1
10
14.1205096951668
20
-0.471283173593633
30
0
41
1
10
13.6783558286872
20
-0.20758335678488
30
0
0
SPLINE
5
E8
100
AcDbEntity
8
1
62
256
6
ByLayer
370
13
48
1
60
0
100
AcDbSpline
70
4
71
3
72
8
73
4
40
0
40
0
40
0
40
0
40
1
40
1
40
1
40
1
41
1
10
7.1177976568143
20
-4.88644167574014
30
0
41
1
10
7.11857129439195
20
-4.84733714052226
30
0
41
1
10
7.11935281429058
20
-4.80822877054152
30
0
41
1
10
7.12014228771633
20
-4.76911639023234
30
0
0
SPLINE
5
E9
100
AcDbEntity
8
1
62
256
6
ByLayer
370
18
48
1
60
0
100
AcDbSpline
70
4
71
3
72
16
73
12
40
0
40
0
40
0
40
0
40
0.131090519881978
40
0.131090519881978
40
0.252923080092281
40
0.252923080092281
40
0.374755640302584
40
0.374755640302584
40
0.862085881143796
40
0.862085881143796
40
1
40
1
40
1
40
1
41
1
10
73.1317945301818
20
-5.71595841143906
30
0
41
1
10
72.861218131531
20
-5.71837601631398
30
0
41
1
10
72.5901349917947
20
-5.71388816845152
30
0
41
1
10
72.0656880884553
20
-5.6917898960952
30
0
41
1
10
71.8121686097743
20
-5.67508263205943
30
0
41
1
10
71.3042345074417
20
-5.62952182723259
30
0
41
1
10
71.0511342793764
20
-5.60080691847929
30
0
41
1
10
69.7887905114977
20
-5.42844415242342
30
0
41
1
10
68.7886858290964
20
-5.19831562658652
30
0
41
1
10
67.5018599470515
20
-4.79785942159651
30
0
41
1
10
67.2177688571928
20
-4.70297049179814
30
0
41
1
10
66.9331089011485
20
-4.60175216737866
30
0
0
SPLINE
5
EA
100
AcDbEntity
8
1
62
256
6
ByLayer
370
13
48
1
60
0
100
AcDbSpline
70
4
71
3
72
26
73
22
40
0
40
0
40
0
40
0
40
0.0504243893551276
40
0.0504243893551276
40
0.108516817433514
40
0.108516817433514
40
0.166609245511899
40
0.166609245511899
40
0.39897895782544
40
0.39897895782544
40
0.51516381398221
40
0.51516381398221
40
0.573256242060596
40
0.573256242060596
40
0.631348670138981
40
0.631348670138981
40
0.863718382452519
40
0.863718382452519
40
0.979903238609286
40
0.979903238609286
40
1
40
1
40
1
40
1
41
1
10
66.9331089011037
20
-4.60175216736275
30
0
41
1
10
66.7148348352969
20
-4.52413908994805
30
0
41
1
10
66.4962262960481
20
-4.44280454963126
30
0
41
1
10
66.0247340196872
20
-4.25997964684427
30
0
41
1
10
65.7716751308263
20
-4.15731392492154
30
0
41
1
10
65.2640193971293
20
-3.94257320575579
30
0
41
1
10
65.010089460689
20
-3.83074800721835
30
0
41
1
10
63.7461122767692
20
-3.25462951270109
30
0
41
1
10
62.7449782104978
20
-2.73714752207511
30
0
41
1
10
61.2408656586654
20
-1.90360508745886
30
0
41
1
10
60.7388480968772
20
-1.61655806377155
30
0
41
1
10
59.982307301425
20
-1.17601397412744
30
0
41
1
10
59.7295423669357
20
-1.02749450290662
30
0
41
1
10
59.222614279131
20
-0.72748621948179
30
0
41
1
10
58.9682031155717
20
-0.575905965602203
30
0
41
1
10
57.6999647086119
20
0.181792186644742
30
0
41
1
10
56.6908681778652
20
0.790947140459593
30
0
41
1
10
55.1658991610062
20
1.67640424402523
30
0
41
1
10
54.6586402069161
20
1.9649704530315
30
0
41
1
10
54.0631786003079
20
2.29244404483922
30
0
41
1
10
53.9753283085763
20
2.34046761811504
30
0
41
1
10
53.8874643110253
20
2.38819296622455
30
0
0
SPLINE
5
EB
100
AcDbEntity
8
1
62
256
6
ByLayer
370
18
48
1
60
0
100
AcDbSpline
70
4
71
3
72
14
73
10
40
0
40
0
40
0
40
0
40
0.479708385289517
40
0.479708385289517
40
0.609781288967137
40
0.609781288967137
40
0.739854192644758
40
0.739854192644758
40
1
40
1
40
1
40
1
41
1
10
13.0837261564144
20
-5.6805338636733
30
0
41
1
10
12.1580123612086
20
-5.68012755162096
30
0
41
1
10
11.2331237346457
20
-5.59947427878816
30
0
41
1
10
10.0450857557329
20
-5.39514126217463
30
0
41
1
10
9.79054146086099
20
-5.34556784943689
30
0
41
1
10
9.28195081331444
20
-5.23519670988949
30
0
41
1
10
9.02800127928404
20
-5.17444704580612
30
0
41
1
10
8.26638591205668
20
-4.97603587811443
30
0
41
1
10
7.75892550458451
20
-4.82222363961571
30
0
41
1
10
7.25022499971095
20
-4.64799908171352
30
0
0
SPLINE
5
EC
100
AcDbEntity
8
1
62
256
6
ByLayer
370
18
48
1
60
0
100
AcDbSpline
70
4
71
3
72
8
73
4
40
0
40
0
40
0
40
0
40
1
40
1
40
1
40
1
41
1
10
103.984373410446
20
-5.6999131575844
30
0
41
1
10
103.956341206817
20
-5.72322795585822
30
0
41
1
10
103.932410851055
20
-5.73496946657201
30
0
41
1
10
103.912647374696
20
-5.7349542044615
30
0
0
SPLINE
5
ED
100
AcDbEntity
8
1
62
256
6
ByLayer
370
13
48
1
60
0
100
AcDbSpline
70
4
71
3
72
14
73
10
40
0
40
0
40
0
40
0
40
0.25
40
0.25
40
0.5
40
0.5
40
0.75
40
0.75
40
1
40
1
40
1
40
1
41
1
10
7.00000001022005
20
-4.7503956320507
30
0
41
1
10
7.00000001022005
20
-4.75229557479239
30
0
41
1
10
7.00257393418025
20
-4.75421014103108
30
0
41
1
10
7.0128793624759
20
-4.7578479092071
30
0
41
1
10
7.02047351208591
20
-4.75955828389766
30
0
41
1
10
7.04056231029182
20
-4.76276396896887
30
0
41
1
10
7.05331241299157
20
-4.76428193097701
30
0
41
1
10
7.0833307833621
20
-4.76696361717384
30
0
41
1
10
7.10048284748524
20
-4.76813242654185
30
0
41
1
10
7.12014228771639
20
-4.76911639023237
30
0
0
LINE
5
76
100
AcDbEntity
8
81
62
256
6
ByLayer
370
18
48
1
60
0
100
AcDbLine
10
106
20
0
30
0
11
111
21
0
31
0
39
0
210
0
220
0
230
1
0
LINE
5
77
100
AcDbEntity
8
1
62
256
6
ByLayer
370
18
48
1
60
0
100
AcDbLine
10
6.285526
20
5.941379
30
0
11
0.8
21
5.938088
31
0
39
0
210
0
220
0
230
1
0
LINE
5
79
100
AcDbEntity
8
1
62
256
6
ByLayer
370
18
48
1
60
0
100
AcDbLine
10
12.887726
20
5.945341
30
0
11
7.843906
21
5.942314
31
0
39
0
210
0
220
0
230
1
0
LINE
5
7A
100
AcDbEntity
8
1
62
256
6
ByLayer
370
18
48
1
60
0
100
AcDbLine
10
72.787561
20
5.981281
30
0
11
71.968113
21
5.980789
31
0
39
0
210
0
220
0
230
1
0
LINE
5
7B
100
AcDbEntity
8
1
62
256
6
ByLayer
370
18
48
1
60
0
100
AcDbLine
10
102.738101
20
5.999251
30
0
11
101.925293
21
5.998763
31
0
39
0
210
0
220
0
230
1
0
LINE
5
7C
100
AcDbEntity
8
1
62
256
6
ByLayer
370
18
48
1
60
0
100
AcDbLine
10
101.925293
20
-5.998763
30
0
11
102.737636
21
-5.999251
31
0
39
0
210
0
220
0
230
1
0
LINE
5
7D
100
AcDbEntity
8
1
62
256
6
ByLayer
370
18
48
1
60
0
100
AcDbLine
10
71.968113
20
-5.980789
30
0
11
72.788017
21
-5.981281
31
0
39
0
210
0
220
0
230
1
0
LINE
5
7E
100
AcDbEntity
8
1
62
256
6
ByLayer
370
18
48
1
60
0
100
AcDbLine
10
7.843906
20
-5.942314
30
0
11
12.888088
21
-5.945341
31
0
39
0
210
0
220
0
230
1
0
LINE
5
7F
100
AcDbEntity
8
1
62
256
6
ByLayer
370
18
48
1
60
0
100
AcDbLine
10
0.8
20
-5.938088
30
0
11
6.285526
21
-5.941379
31
0
39
0
210
0
220
0
230
1
0
LINE
5
80
100
AcDbEntity
8
1
62
256
6
ByLayer
370
18
48
1
60
0
100
AcDbLine
10
0
20
-6
30
0
11
0.8
21
-5.938088
31
0
39
0
210
0
220
0
230
1
0
LINE
5
81
100
AcDbEntity
8
1
62
256
6
ByLayer
370
18
48
1
60
0
100
AcDbLine
10
0.8
20
5.938088
30
0
11
0
21
6
31
0
39
0
210
0
220
0
230
1
0
LINE
5
82
100
AcDbEntity
8
1
62
256
6
ByLayer
370
18
48
1
60
0
100
AcDbLine
10
42.838092
20
5.963311
30
0
11
42.013312
21
5.962816
31
0
39
0
210
0
220
0
230
1
0
LINE
5
83
100
AcDbEntity
8
1
62
256
6
ByLayer
370
18
48
1
60
0
100
AcDbLine
10
42.013312
20
-5.962816
30
0
11
42.837761
21
-5.963311
31
0
39
0
210
0
220
0
230
1
0
LINE
5
84
100
AcDbEntity
8
SK1
62
256
6
ByLayer
370
18
48
1
60
0
100
AcDbLine
10
0
20
6
30
0
11
-43.556624
21
6
31
0
39
0
210
0
220
0
230
1
0
LINE
5
86
100
AcDbEntity
8
SK1
62
256
6
ByLayer
370
18
48
1
60
0
100
AcDbLine
10
-43.556624
20
-6
30
0
11
0
21
-6
31
0
39
0
210
0
220
0
230
1
0
LINE
5
87
100
AcDbEntity
8
SK1
62
256
6
ByLayer
370
18
48
1
60
0
100
AcDbLine
10
-43.556624
20
6
30
0
11
-45
21
3.5
31
0
39
0
210
0
220
0
230
1
0
LINE
5
88
100
AcDbEntity
8
SK1
62
256
6
ByLayer
370
18
48
1
60
0
100
AcDbLine
10
-45
20
-3.5
30
0
11
-43.556624
21
-6
31
0
39
0
210
0
220
0
230
1
0
LINE
5
89
100
AcDbEntity
8
SK4
62
256
6
ByLayer
370
18
48
0.05
60
0
100
AcDbLine
10
111
20
0
30
0
11
-50
21
0
31
0
39
0
210
0
220
0
230
1
0
LINE
5
8B
100
AcDbEntity
8
4
62
256
6
ByLayer
370
18
48
0.05
60
0
100
AcDbLine
10
106
20
0
30
0
11
0
21
0
31
0
39
0
210
0
220
0
230
1
0
LINE
5
8D
100
AcDbEntity
8
80
62
256
6
ByLayer
370
18
48
1
60
0
100
AcDbLine
10
0
20
0
30
0
11
-5
21
0
31
0
39
0
210
0
220
0
230
1
0
LINE
5
8E
100
AcDbEntity
8
SK1
62
256
6
ByLayer
370
18
48
1
60
0
100
AcDbLine
10
-45
20
3.5
30
0
11
-45
21
-2.569819
31
0
39
0
210
0
220
0
230
1
0
LINE
5
8F
100
AcDbEntity
8
SK1
62
256
6
ByLayer
370
18
48
1
60
0
100
AcDbLine
10
-45
20
-3.5
30
0
11
-45
21
-3.499561
31
0
39
0
210
0
220
0
230
1
0
LINE
5
90
100
AcDbEntity
8
SK1
62
256
6
ByLayer
370
18
48
1
60
0
100
AcDbLine
10
-43.556624
20
6
30
0
11
-43.556624
21
-6
31
0
39
0
210
0
220
0
230
1
0
LINE
5
91
100
AcDbEntity
8
SK1
62
256
6
ByLayer
370
18
48
1
60
0
100
AcDbLine
10
-45
20
-2.569733
30
0
11
-45
21
-3.499561
31
0
39
0
210
0
220
0
230
1
0
LINE
5
92
100
AcDbEntity
8
SK1
62
256
6
ByLayer
370
18
48
1
60
0
100
AcDbLine
10
0
20
-6
30
0
11
0
21
6
31
0
39
0
210
0
220
0
230
1
0
LINE
5
93
100
AcDbEntity
8
SK1
62
256
6
ByLayer
370
13
48
1
60
0
100
AcDbLine
10
-43.7
20
-4.746615
30
0
11
-43.7
21
-5.676381
31
0
39
0
210
0
220
0
230
1
0
LINE
5
94
100
AcDbEntity
8
SK1
62
256
6
ByLayer
370
18
48
1
60
0
100
AcDbLine
10
-43.6
20
-5.82299
30
0
11
-43.6
21
-4.967628
31
0
39
0
210
0
220
0
230
1
0
LINE
5
95
100
AcDbEntity
8
1
62
256
6
ByLayer
370
18
48
1
60
0
100
AcDbLine
10
0
20
-6
30
0
11
0
21
6
31
0
39
0
210
0
220
0
230
1
0
LINE
5
96
100
AcDbEntity
8
1
62
256
6
ByLayer
370
13
48
1
60
0
100
AcDbLine
10
104.225656
20
0.715551
30
0
11
105.894177
21
-0.110569
31
0
39
0
210
0
220
0
230
1
0
LINE
5
97
100
AcDbEntity
8
1
62
256
6
ByLayer
370
18
48
1
60
0
100
AcDbLine
10
105.908761
20
-0.312537
30
0
11
105.705763
21
-1.061975
31
0
39
0
210
0
220
0
230
1
0
LINE
5
98
100
AcDbEntity
8
1
62
256
6
ByLayer
370
18
48
1
60
0
100
AcDbLine
10
105.987359
20
0.056712
30
0
11
106
21
0
31
0
39
0
210
0
220
0
230
1
0
LINE
5
99
100
AcDbEntity
8
1
62
256
6
ByLayer
370
18
48
1
60
0
100
AcDbLine
10
0.8
20
5.938088
30
0
11
0.8
21
-5.938088
31
0
39
0
210
0
220
0
230
1
0
LINE
5
9A
100
AcDbEntity
8
1
62
256
6
ByLayer
370
18
48
1
60
0
100
AcDbLine
10
106
20
0
30
0
11
105.987359
21
-0.056712
31
0
39
0
210
0
220
0
230
1
0
LINE
5
9B
100
AcDbEntity
8
1
62
256
6
ByLayer
370
18
48
1
60
0
100
AcDbLine
10
105.908761
20
0.312537
30
0
11
105.705763
21
1.061975
31
0
39
0
210
0
220
0
230
1
0
LINE
5
9C
100
AcDbEntity
8
1
62
256
6
ByLayer
370
18
48
1
60
0
100
AcDbLine
10
7
20
-4.762544
30
0
11
7
21
4.005027
31
0
39
0
210
0
220
0
230
1
0
LINE
5
9D
100
AcDbEntity
8
1
62
256
6
ByLayer
370
13
48
1
60
0
100
AcDbLine
10
105.705763
20
1.061975
30
0
11
104.395115
21
1.061975
31
0
39
0
210
0
220
0
230
1
0
LINE
5
9E
100
AcDbEntity
8
1
62
256
6
ByLayer
370
18
48
1
60
0
100
AcDbLine
10
102.977787
20
-3.360832
30
0
11
105.894177
21
-0.110569
31
0
39
0
210
0
220
0
230
1
0
LINE
5
9F
100
AcDbEntity
8
1
62
256
6
ByLayer
370
18
48
1
60
0
100
AcDbLine
10
106
20
0
30
0
11
103.912647
21
-5.734954
31
0
39
0
210
0
220
0
230
1
0
LINE
5
A0
100
AcDbEntity
8
1
62
256
6
ByLayer
370
13
48
1
60
0
100
AcDbLine
10
104.395115
20
1.061975
30
0
11
105.908761
21
0.312537
31
0
39
0
210
0
220
0
230
1
0
MTEXT
5
EE
100
AcDbEntity
8
SK6
62
256
6
ByLayer
370
13
48
1
60
0
100
AcDbMText
10
32.629169
20
38.382694
30
0
210
0
220
0
230
1
1
\W0.7415;R840-1200-70-A1A1220
40
3.5
41
0
44
1.084337
50
0
71
8
72
5
7
iso_b_vert
0
DIMENSION
5
FB
100
AcDbEntity
8
SK2
62
256
6
ByLayer
370
13
48
1
60
0
100
AcDbDimension
2
DimnDraft3D1
10
103.94
20
-16.213398
30
0
11
50.190059
21
-16.213398
31
0
70
32
71
5
72
1
41
1
210
0
220
0
230
1
3
Standard
100
AcDbAlignedDimension
13
0
23
-1.5875
33
0
14
103.94
24
-7.5875
34
0
50
0
100
AcDbRotatedDimension
1001
ACAD
1000
DSTYLE
1002
{
1070
   279
1070
     0
1070
   172
1070
     1
1070
   173
1070
     1
1070
   340
1005
EF
1070
   271
1070
     2
1070
   272
1070
     2
1070
    77
1070
     1
1070
    73
1070
     0
1070
   171
1070
     3
1070
   274
1070
     4
1070
   177
1070
    35
1070
   176
1070
    35
1070
   178
1070
    35
1070
    48
1040
-0.005
1070
    41
1041
3.5
1070
   147
1041
1.75
1070
    42
1041
1.5875
1070
    44
1041
2.0
1070
   140
1041
3.5
1070
   343
1005
0
1070
   344
1005
0
1002
}
0
DIMENSION
5
105
100
AcDbEntity
8
SK2
62
256
6
ByLayer
370
13
48
1
60
0
100
AcDbDimension
2
DimnDraft3D2
10
106
20
-34.692985
30
0
11
29.7813
21
-34.692985
31
0
70
32
71
5
72
1
41
1
210
0
220
0
230
1
3
Standard
100
AcDbAlignedDimension
13
-45
23
-7.5875
33
0
14
106
24
-1.5875
34
0
50
0
100
AcDbRotatedDimension
1001
ACAD
1000
DSTYLE
1002
{
1070
   279
1070
     0
1070
   172
1070
     1
1070
   173
1070
     1
1070
   340
1005
EF
1070
   271
1070
     2
1070
   272
1070
     2
1070
    77
1070
     1
1070
    73
1070
     0
1070
   171
1070
     3
1070
   274
1070
     4
1070
   177
1070
    35
1070
   176
1070
    35
1070
   178
1070
    35
1070
    48
1040
-0.005
1070
    41
1041
3.5
1070
   147
1041
1.75
1070
    42
1041
1.5875
1070
    44
1041
2.0
1070
   140
1041
3.5
1070
   343
1005
0
1070
   344
1005
0
1002
}
0
DIMENSION
5
10F
100
AcDbEntity
8
SK2
62
256
6
ByLayer
370
13
48
1
60
0
100
AcDbDimension
2
DimnDraft3D3
10
106
20
17.609119
30
0
11
56.97
21
17.609119
31
0
70
32
71
5
72
1
41
1
210
0
220
0
230
1
3
Standard
100
AcDbAlignedDimension
13
7.94
23
7.5875
33
0
14
106
24
1.5875
34
0
50
0
100
AcDbRotatedDimension
1001
ACAD
1000
DSTYLE
1002
{
1070
   279
1070
     0
1070
   172
1070
     1
1070
   173
1070
     1
1070
   340
1005
EF
1070
   271
1070
     2
1070
   272
1070
     2
1070
    77
1070
     1
1070
    73
1070
     0
1070
   171
1070
     3
1070
   274
1070
     4
1070
   177
1070
    35
1070
   176
1070
    35
1070
   178
1070
    35
1070
    48
1040
-0.005
1070
    41
1041
3.5
1070
   147
1041
1.75
1070
    42
1041
1.5875
1070
    44
1041
2.0
1070
   140
1041
3.5
1070
   343
1005
0
1070
   344
1005
0
1002
}
0
DIMENSION
5
119
100
AcDbEntity
8
SK2
62
256
6
ByLayer
370
13
48
1
60
0
100
AcDbDimension
2
DimnDraft3D4
10
103.94
20
-18.802503
30
0
11
115.981425
21
-18.802503
31
0
70
32
71
5
72
1
41
1
210
0
220
0
230
1
3
Standard
100
AcDbAlignedDimension
13
106
23
-1.5875
33
0
14
103.94
24
-7.5875
34
0
50
0
100
AcDbRotatedDimension
1001
ACAD
1000
DSTYLE
1002
{
1070
   279
1070
     0
1070
   172
1070
     1
1070
   173
1070
     1
1070
   340
1005
EF
1070
   271
1070
     2
1070
   272
1070
     2
1070
    77
1070
     1
1070
    73
1070
     0
1070
   171
1070
     3
1070
   274
1070
     4
1070
   177
1070
    35
1070
   176
1070
    35
1070
   178
1070
    35
1070
    48
1040
-0.005
1070
    41
1041
3.5
1070
   147
1041
1.75
1070
    42
1041
1.5875
1070
    44
1041
2.0
1070
   140
1041
3.5
1070
   343
1005
0
1070
   344
1005
0
1002
}
0
DIMENSION
5
123
100
AcDbEntity
8
SK2
62
256
6
ByLayer
370
13
48
1
60
0
100
AcDbDimension
2
DimnDraft3D5
10
103.94
20
-24.343428
30
0
11
26.700676
21
-24.343428
31
0
70
32
71
5
72
1
41
1
210
0
220
0
230
1
3
Standard
100
AcDbAlignedDimension
13
-45
23
-7.5875
33
0
14
103.94
24
-7.5875
34
0
50
0
100
AcDbRotatedDimension
1001
ACAD
1000
DSTYLE
1002
{
1070
   279
1070
     0
1070
   172
1070
     1
1070
   173
1070
     1
1070
   340
1005
EF
1070
   271
1070
     2
1070
   272
1070
     2
1070
    77
1070
     1
1070
    73
1070
     0
1070
   171
1070
     3
1070
   274
1070
     4
1070
   177
1070
    35
1070
   176
1070
    35
1070
   178
1070
    35
1070
    48
1040
-0.005
1070
    41
1041
3.5
1070
   147
1041
1.75
1070
    42
1041
1.5875
1070
    44
1041
2.0
1070
   140
1041
3.5
1070
   343
1005
0
1070
   344
1005
0
1002
}
0
DIMENSION
5
12E
100
AcDbEntity
8
SK2
62
256
6
ByLayer
370
13
48
1
60
0
100
AcDbDimension
2
DimnDraft3D6
10
-55.625163
20
6
30
0
11
-56.250163
21
24.47418
31
0
70
33
71
5
72
1
41
1
210
0
220
0
230
1
3
Standard
100
AcDbAlignedDimension
13
-46.5875
23
-6
33
0
14
-46.5875
24
6
34
0
1001
ACAD
1000
DSTYLE
1002
{
1070
   279
1070
     0
1070
    74
1070
     0
1070
   173
1070
     1
1070
   340
1005
EF
1070
   271
1070
     3
1070
   272
1070
     2
1070
    77
1070
     1
1070
    73
1070
     0
1070
   171
1070
     3
1070
   274
1070
     4
1070
   177
1070
    35
1070
   176
1070
    35
1070
   178
1070
    35
1070
    48
1040
-0.005
1070
    41
1041
3.5
1070
   147
1041
1.75
1070
    42
1041
1.5875
1070
    44
1041
2.0
1070
   140
1041
3.5
1070
   343
1005
0
1070
   344
1005
0
1002
}
0
DIMENSION
5
139
100
AcDbEntity
8
2
62
256
6
ByLayer
370
13
48
1
60
0
100
AcDbDimension
2
DimnDraft3D7
10
120.083343
20
6
30
0
11
115.458343
21
23.067266
31
0
70
33
71
5
72
1
41
1
210
0
220
0
230
1
3
Standard
100
AcDbAlignedDimension
13
105.5275
23
-6
33
0
14
105.5275
24
6
34
0
1001
ACAD
1000
DSTYLE
1002
{
1070
   279
1070
     0
1070
    74
1070
     0
1070
   173
1070
     1
1070
   340
1005
EF
1070
   271
1070
     3
1070
   272
1070
     2
1070
    77
1070
     1
1070
    73
1070
     0
1070
   171
1070
     3
1070
   274
1070
     4
1070
   177
1070
    35
1070
   176
1070
    35
1070
   178
1070
    35
1070
    48
1040
-0.005
1070
    41
1041
3.5
1070
   147
1041
1.75
1070
    42
1041
1.5875
1070
    44
1041
2.0
1070
   140
1041
3.5
1070
   343
1005
0
1070
   344
1005
0
1002
}
0
ENDSEC
0
SECTION
2
OBJECTS
0
DICTIONARY
5
1a4
330
0
100
AcDbDictionary
280
0
281
1
3
ACAD_GROUP
350
1a5
3
ACAD_MLINESTYLE
350
1a6
0
DICTIONARY
5
1a5
330
0
100
AcDbDictionary
280
0
281
1
0
DICTIONARY
5
1a6
330
0
100
AcDbDictionary
280
0
281
1
3
Standard
350
18
0
MLINESTYLE
5
18
330
1a6
100
AcDbMlineStyle
2
Standard
70
0
3

62
256
51
90
52
90
71
2
49
-0.5
62
256
6
ByLayer
49
0.5
62
256
6
ByLayer
0
RASTERVARIABLES
5
192
330

100
AcDbRasterVariables
90
0
70
1
71
1
72
1
0
ENDSEC
0
EOF
