0
SECTION
2
HEADER
9
$ACADVER
1
AC1015
9
$DWGCODEPAGE
3
ANSI_1252
9
$HANDSEED
5
1a2
9
$ANGBASE
50
0
9
$ANGDIR
70
0
9
$ATTMODE
70
1
9
$AUNITS
70
0
9
$AUPREC
70
0
9
$CECOLOR
62
256
9
$CELTSCALE
40
1
9
$CELTYPE
6
ByLayer
9
$CELWEIGHT
370
18
9
$CLAYER
8
0
9
$CMLJUST
70
0
9
$CMLSCALE
40
1
9
$CMLSTYLE
2
Standard
9
$DIMSTYLE
2
Standard
9
$TEXTSIZE
40
0.2
9
$TEXTSTYLE
7
Standard
9
$LUNITS
70
2
9
$LUPREC
70
4
9
$EXTNAMES
290
1
9
$INSUNITS
70
4
9
$LTSCALE
40
1
9
$LWDISPLAY
290
1
9
$PDMODE
70
0
9
$PDSIZE
40
0
9
$PLINEGEN
70
0
0
ENDSEC
0
SECTION
2
CLASSES
0
CLASS
1
RASTERVARIABLES
2
AcDbRasterVariables
3
ISM
90
0
280
0
281
0
0
ENDSEC
0
SECTION
2
TABLES
0
TABLE
2
VPORT
5
198
100
AcDbSymbolTable
0
VPORT
5
1
100
AcDbSymbolTableRecord
100
AcDbViewportTableRecord
2
*Active
70
0
10
0
20
0
11
1
21
1
12
-1
22
1
13
0
23
0
14
0.5
24
0.5
15
10
25
10
16
0
26
0
36
1
17
0
27
0
37
0
0
ENDTAB
0
TABLE
2
LTYPE
5
199
100
AcDbSymbolTable
0
LTYPE
5
14
100
AcDbSymbolTableRecord
100
AcDbLinetypeTableRecord
70
0
2
ByBlock
3

72
65
73
0
40
0
0
LTYPE
5
15
100
AcDbSymbolTableRecord
100
AcDbLinetypeTableRecord
70
0
2
ByLayer
3

72
65
73
0
40
0
0
LTYPE
5
16
100
AcDbSymbolTableRecord
100
AcDbLinetypeTableRecord
70
0
2
CONTINUOUS
3
Solid line
72
65
73
0
40
0
0
LTYPE
5
6A
100
AcDbSymbolTableRecord
100
AcDbLinetypeTableRecord
70
0
2
CENTER
3
____ _ ____ _ ____ _ ____
72
65
73
4
40
47.5
49
22
74
0
49
-8.5
74
0
49
8.5
74
0
49
-8.5
74
0
0
LTYPE
5
6B
100
AcDbSymbolTableRecord
100
AcDbLinetypeTableRecord
70
0
2
DASHED
3
__ __ __ __ __ __ __ __ __
72
65
73
2
40
25.72
49
12.86
74
0
49
-12.86
74
0
0
ENDTAB
0
TABLE
2
LAYER
5
19a
100
AcDbSymbolTable
0
LAYER
5
10
100
AcDbSymbolTableRecord
100
AcDbLayerTableRecord
2
0
70
0
62
7
6
CONTINUOUS
290
1
370
-3
390
0
0
LAYER
5
6D
100
AcDbSymbolTableRecord
100
AcDbLayerTableRecord
2
81
70
0
62
-3
6
CONTINUOUS
290
1
370
-3
390
0
0
LAYER
5
6F
100
AcDbSymbolTableRecord
100
AcDbLayerTableRecord
2
80
70
0
62
-6
6
CONTINUOUS
290
1
370
-3
390
0
0
LAYER
5
74
100
AcDbSymbolTableRecord
100
AcDbLayerTableRecord
2
2
70
0
62
7
6
CONTINUOUS
290
1
370
-3
390
0
0
LAYER
5
78
100
AcDbSymbolTableRecord
100
AcDbLayerTableRecord
2
1
70
0
62
4
6
CONTINUOUS
290
1
370
-3
390
0
0
LAYER
5
88
100
AcDbSymbolTableRecord
100
AcDbLayerTableRecord
2
4
70
0
62
-2
6
CENTER
290
1
370
-3
390
0
0
LAYER
5
184
100
AcDbSymbolTableRecord
100
AcDbLayerTableRecord
2
SK2
70
0
62
7
6
CONTINUOUS
290
1
370
-3
390
0
0
LAYER
5
185
100
AcDbSymbolTableRecord
100
AcDbLayerTableRecord
2
SK1
70
0
62
4
6
CONTINUOUS
290
1
370
-3
390
0
0
LAYER
5
186
100
AcDbSymbolTableRecord
100
AcDbLayerTableRecord
2
SK4
70
0
62
2
6
CENTER
290
1
370
-3
390
0
0
LAYER
5
187
100
AcDbSymbolTableRecord
100
AcDbLayerTableRecord
2
SK6
70
0
62
5
6
CONTINUOUS
290
1
370
-3
390
0
0
ENDTAB
0
TABLE
2
STYLE
5
19b
100
AcDbSymbolTable
0
STYLE
5
11
100
AcDbSymbolTableRecord
100
AcDbTextStyleTableRecord
2
Standard
3
txt
70
0
71
0
40
0
41
1
42
0
50
0
0
STYLE
5
E0
100
AcDbSymbolTableRecord
100
AcDbTextStyleTableRecord
2
iso_b_vert
3
simplex.shx
70
0
71
0
40
0
41
1
42
0
50
0
0
STYLE
5
E1
100
AcDbSymbolTableRecord
100
AcDbTextStyleTableRecord
2
DWGDirectTextStyle
3
simplex
70
0
71
0
40
0
41
1
42
0
50
0
0
ENDTAB
0
TABLE
2
DIMSTYLE
5
19c
100
AcDbSymbolTable
100
AcDbDimStyleTable
0
DIMSTYLE
105
27
100
AcDbSymbolTableRecord
100
AcDbDimStyleTableRecord
2
Standard
70
0
3
<>
41
0.18
42
0.0625
44
0.18
140
0.18
147
0.09
73
0
74
0
77
1
271
2
275
0
278
52
280
0
340
11
0
ENDTAB
0
TABLE
2
VIEW
5
19d
100
AcDbSymbolTable
0
ENDTAB
0
TABLE
2
UCS
5
19e
100
AcDbSymbolTable
0
ENDTAB
0
TABLE
2
APPID
5
19f
100
AcDbSymbolTable
0
APPID
5
12
100
AcDbSymbolTableRecord
100
AcDbRegAppTableRecord
2
ACAD
70
0
0
ENDTAB
0
TABLE
2
BLOCK_RECORD
5
1a0
100
AcDbSymbolTable
0
BLOCK_RECORD
5
1F
100
AcDbSymbolTableRecord
100
AcDbBlockTableRecord
2
*Model_Space
340
0
70
0
0
BLOCK_RECORD
5
1B
100
AcDbSymbolTableRecord
100
AcDbBlockTableRecord
2
*Paper_Space
340
0
70
0
0
BLOCK_RECORD
5
23
100
AcDbSymbolTableRecord
100
AcDbBlockTableRecord
2
*Paper_Space0
340
0
70
0
0
BLOCK_RECORD
5
E3
100
AcDbSymbolTableRecord
100
AcDbBlockTableRecord
2
DimnDraft3D1
340
0
70
0
0
BLOCK_RECORD
5
ED
100
AcDbSymbolTableRecord
100
AcDbBlockTableRecord
2
DimnDraft3D2
340
0
70
0
0
BLOCK_RECORD
5
F7
100
AcDbSymbolTableRecord
100
AcDbBlockTableRecord
2
DimnDraft3D3
340
0
70
0
0
BLOCK_RECORD
5
101
100
AcDbSymbolTableRecord
100
AcDbBlockTableRecord
2
DimnDraft3D4
340
0
70
0
0
BLOCK_RECORD
5
10B
100
AcDbSymbolTableRecord
100
AcDbBlockTableRecord
2
DimnDraft3D5
340
0
70
0
0
BLOCK_RECORD
5
115
100
AcDbSymbolTableRecord
100
AcDbBlockTableRecord
2
DimnDraft3D6
340
0
70
0
0
BLOCK_RECORD
5
120
100
AcDbSymbolTableRecord
100
AcDbBlockTableRecord
2
DimnDraft3D7
340
0
70
0
0
ENDTAB
0
ENDSEC
0
SECTION
2
BLOCKS
0
BLOCK
5
20
100
AcDbEntity
8
0
100
AcDbBlockBegin
2
*Model_Space
70
0
10
0
20
0
30
0
3
*Model_Space
0
ENDBLK
5
21
100
AcDbEntity
8
0
100
AcDbBlockEnd
0
BLOCK
5
1C
100
AcDbEntity
8
0
100
AcDbBlockBegin
2
*Paper_Space
70
0
10
0
20
0
30
0
3
*Paper_Space
0
ENDBLK
5
1D
100
AcDbEntity
8
0
100
AcDbBlockEnd
0
BLOCK
5
24
100
AcDbEntity
8
0
100
AcDbBlockBegin
2
*Paper_Space0
70
0
10
0
20
0
30
0
3
*Paper_Space0
0
ENDBLK
5
25
100
AcDbEntity
8
0
100
AcDbBlockEnd
0
BLOCK
5
EA
100
AcDbEntity
8
0
100
AcDbBlockBegin
2
DimnDraft3D1
70
0
10
0
20
0
30
0
3
DimnDraft3D1
0
MTEXT
5
E4
100
AcDbEntity
8
SK2
62
256
6
ByLayer
370
13
48
1
60
0
100
AcDbMText
10
20.872954
20
-15.338398
30
0
210
0
220
0
230
1
1
\W0.7756;54,94
40
3.5
41
0
44
1.084337
50
0
71
7
72
5
7
iso_b_vert
0
LINE
5
E5
100
AcDbEntity
8
SK2
62
256
6
ByLayer
370
13
48
1
60
0
100
AcDbLine
10
0
20
-1.5875
30
0
11
0
21
-18.213398
31
0
39
0
210
0
220
0
230
1
0
LINE
5
E6
100
AcDbEntity
8
SK2
62
256
6
ByLayer
370
13
48
1
60
0
100
AcDbLine
10
54.94
20
-7.5875
30
0
11
54.94
21
-18.213398
31
0
39
0
210
0
220
0
230
1
0
LINE
5
E7
100
AcDbEntity
8
SK2
62
256
6
ByLayer
370
13
48
1
60
0
100
AcDbLine
10
0
20
-16.213398
30
0
11
54.94
21
-16.213398
31
0
39
0
210
0
220
0
230
1
0
SOLID
5
E8
100
AcDbEntity
8
SK2
62
256
6
ByLayer
370
13
48
1
60
0
100
AcDbTrace
10
0
20
-16.213398
30
0
11
3.499998
21
-15.752615
31
0
12
3.500002
22
-16.674182
32
0
13
0
23
-16.213398
33
0
39
0
210
0
220
0
230
1
0
SOLID
5
E9
100
AcDbEntity
8
SK2
62
256
6
ByLayer
370
13
48
1
60
0
100
AcDbTrace
10
54.94
20
-16.213398
30
0
11
51.440002
21
-16.674182
31
0
12
51.439998
22
-15.752615
32
0
13
54.94
23
-16.213398
33
0
39
0
210
0
220
0
230
1
0
ENDBLK
5
EB
100
AcDbEntity
8
0
100
AcDbBlockEnd
0
BLOCK
5
F4
100
AcDbEntity
8
0
100
AcDbBlockBegin
2
DimnDraft3D2
70
0
10
0
20
0
30
0
3
DimnDraft3D2
0
MTEXT
5
EE
100
AcDbEntity
8
SK2
62
256
6
ByLayer
370
13
48
1
60
0
100
AcDbMText
10
-0.037779
20
-33.817985
30
0
210
0
220
0
230
1
1
\W0.6930;102,00
40
3.5
41
0
44
1.084337
50
0
71
7
72
5
7
iso_b_vert
0
LINE
5
EF
100
AcDbEntity
8
SK2
62
256
6
ByLayer
370
13
48
1
60
0
100
AcDbLine
10
-45
20
-7.5875
30
0
11
-45
21
-36.692985
31
0
39
0
210
0
220
0
230
1
0
LINE
5
F0
100
AcDbEntity
8
SK2
62
256
6
ByLayer
370
13
48
1
60
0
100
AcDbLine
10
57
20
-1.5875
30
0
11
57
21
-36.692985
31
0
39
0
210
0
220
0
230
1
0
LINE
5
F1
100
AcDbEntity
8
SK2
62
256
6
ByLayer
370
13
48
1
60
0
100
AcDbLine
10
-45
20
-34.692985
30
0
11
57
21
-34.692985
31
0
39
0
210
0
220
0
230
1
0
SOLID
5
F2
100
AcDbEntity
8
SK2
62
256
6
ByLayer
370
13
48
1
60
0
100
AcDbTrace
10
-45
20
-34.692985
30
0
11
-41.500002
21
-34.232202
31
0
12
-41.499998
22
-35.153769
32
0
13
-45
23
-34.692985
33
0
39
0
210
0
220
0
230
1
0
SOLID
5
F3
100
AcDbEntity
8
SK2
62
256
6
ByLayer
370
13
48
1
60
0
100
AcDbTrace
10
57
20
-34.692985
30
0
11
53.500002
21
-35.153769
31
0
12
53.499998
22
-34.232202
32
0
13
57
23
-34.692985
33
0
39
0
210
0
220
0
230
1
0
ENDBLK
5
F5
100
AcDbEntity
8
0
100
AcDbBlockEnd
0
BLOCK
5
FE
100
AcDbEntity
8
0
100
AcDbBlockBegin
2
DimnDraft3D3
70
0
10
0
20
0
30
0
3
DimnDraft3D3
0
MTEXT
5
F8
100
AcDbEntity
8
SK2
62
256
6
ByLayer
370
13
48
1
60
0
100
AcDbMText
10
33.521316
20
18.484119
30
0
210
0
220
0
230
1
1
\W0.7317;38,06
40
3.5
41
0
44
1.084337
50
0
71
7
72
5
7
iso_b_vert
0
LINE
5
F9
100
AcDbEntity
8
SK2
62
256
6
ByLayer
370
13
48
1
60
0
100
AcDbLine
10
18.94
20
7.5875
30
0
11
18.94
21
19.609119
31
0
39
0
210
0
220
0
230
1
0
LINE
5
FA
100
AcDbEntity
8
SK2
62
256
6
ByLayer
370
13
48
1
60
0
100
AcDbLine
10
57
20
1.5875
30
0
11
57
21
19.609119
31
0
39
0
210
0
220
0
230
1
0
LINE
5
FB
100
AcDbEntity
8
SK2
62
256
6
ByLayer
370
13
48
1
60
0
100
AcDbLine
10
18.94
20
17.609119
30
0
11
57
21
17.609119
31
0
39
0
210
0
220
0
230
1
0
SOLID
5
FC
100
AcDbEntity
8
SK2
62
256
6
ByLayer
370
13
48
1
60
0
100
AcDbTrace
10
18.94
20
17.609119
30
0
11
22.439998
21
18.069903
31
0
12
22.440002
22
17.148335
32
0
13
18.94
23
17.609119
33
0
39
0
210
0
220
0
230
1
0
SOLID
5
FD
100
AcDbEntity
8
SK2
62
256
6
ByLayer
370
13
48
1
60
0
100
AcDbTrace
10
57
20
17.609119
30
0
11
53.500002
21
17.148335
31
0
12
53.499998
22
18.069903
32
0
13
57
23
17.609119
33
0
39
0
210
0
220
0
230
1
0
ENDBLK
5
FF
100
AcDbEntity
8
0
100
AcDbBlockEnd
0
BLOCK
5
108
100
AcDbEntity
8
0
100
AcDbBlockBegin
2
DimnDraft3D4
70
0
10
0
20
0
30
0
3
DimnDraft3D4
0
MTEXT
5
102
100
AcDbEntity
8
SK2
62
256
6
ByLayer
370
13
48
1
60
0
100
AcDbMText
10
63.840636
20
-17.927503
30
0
210
0
220
0
230
1
1
\W0.7150;2,06
40
3.5
41
0
44
1.084337
50
0
71
7
72
5
7
iso_b_vert
0
LINE
5
103
100
AcDbEntity
8
SK2
62
256
6
ByLayer
370
13
48
1
60
0
100
AcDbLine
10
57
20
-1.5875
30
0
11
57
21
-20.802503
31
0
39
0
210
0
220
0
230
1
0
LINE
5
104
100
AcDbEntity
8
SK2
62
256
6
ByLayer
370
13
48
1
60
0
100
AcDbLine
10
54.94
20
-7.5875
30
0
11
54.94
21
-20.802503
31
0
39
0
210
0
220
0
230
1
0
LINE
5
105
100
AcDbEntity
8
SK2
62
256
6
ByLayer
370
13
48
1
60
0
100
AcDbLine
10
46.19
20
-18.802503
30
0
11
70.997215
21
-18.802503
31
0
39
0
210
0
220
0
230
1
0
SOLID
5
106
100
AcDbEntity
8
SK2
62
256
6
ByLayer
370
13
48
1
60
0
100
AcDbTrace
10
57
20
-18.802503
30
0
11
60.499998
21
-18.341719
31
0
12
60.500002
22
-19.263287
32
0
13
57
23
-18.802503
33
0
39
0
210
0
220
0
230
1
0
SOLID
5
107
100
AcDbEntity
8
SK2
62
256
6
ByLayer
370
13
48
1
60
0
100
AcDbTrace
10
54.94
20
-18.802503
30
0
11
51.440002
21
-19.263287
31
0
12
51.439998
22
-18.341719
32
0
13
54.94
23
-18.802503
33
0
39
0
210
0
220
0
230
1
0
ENDBLK
5
109
100
AcDbEntity
8
0
100
AcDbBlockEnd
0
BLOCK
5
112
100
AcDbEntity
8
0
100
AcDbBlockBegin
2
DimnDraft3D5
70
0
10
0
20
0
30
0
3
DimnDraft3D5
0
MTEXT
5
10C
100
AcDbEntity
8
SK2
62
256
6
ByLayer
370
13
48
1
60
0
100
AcDbMText
10
-2.432218
20
-23.468428
30
0
210
0
220
0
230
1
1
\W0.7495;99,94
40
3.5
41
0
44
1.084337
50
0
71
7
72
5
7
iso_b_vert
0
LINE
5
10D
100
AcDbEntity
8
SK2
62
256
6
ByLayer
370
13
48
1
60
0
100
AcDbLine
10
-45
20
-7.5875
30
0
11
-45
21
-26.343428
31
0
39
0
210
0
220
0
230
1
0
LINE
5
10E
100
AcDbEntity
8
SK2
62
256
6
ByLayer
370
13
48
1
60
0
100
AcDbLine
10
54.94
20
-7.5875
30
0
11
54.94
21
-26.343428
31
0
39
0
210
0
220
0
230
1
0
LINE
5
10F
100
AcDbEntity
8
SK2
62
256
6
ByLayer
370
13
48
1
60
0
100
AcDbLine
10
-45
20
-24.343428
30
0
11
54.94
21
-24.343428
31
0
39
0
210
0
220
0
230
1
0
SOLID
5
110
100
AcDbEntity
8
SK2
62
256
6
ByLayer
370
13
48
1
60
0
100
AcDbTrace
10
-45
20
-24.343428
30
0
11
-41.500002
21
-23.882645
31
0
12
-41.499998
22
-24.804212
32
0
13
-45
23
-24.343428
33
0
39
0
210
0
220
0
230
1
0
SOLID
5
111
100
AcDbEntity
8
SK2
62
256
6
ByLayer
370
13
48
1
60
0
100
AcDbTrace
10
54.94
20
-24.343428
30
0
11
51.440002
21
-24.804212
31
0
12
51.439998
22
-23.882645
32
0
13
54.94
23
-24.343428
33
0
39
0
210
0
220
0
230
1
0
ENDBLK
5
113
100
AcDbEntity
8
0
100
AcDbBlockEnd
0
BLOCK
5
11D
100
AcDbEntity
8
0
100
AcDbBlockBegin
2
DimnDraft3D6
70
0
10
0
20
0
30
0
3
DimnDraft3D6
0
MTEXT
5
116
100
AcDbEntity
8
SK2
62
256
6
ByLayer
370
13
48
1
60
0
100
AcDbMText
10
-55.375163
20
25.34918
30
0
210
0
220
0
230
1
1
\W0.6930;12,000
40
3.5
41
0
44
1.084337
50
90
71
7
72
5
7
iso_b_vert
0
MTEXT
5
117
100
AcDbEntity
8
SK2
62
256
6
ByLayer
370
13
48
1
60
0
100
AcDbMText
10
-55.375163
20
20.126524
30
0
210
0
220
0
230
1
1
%%c
40
3.5
41
0
44
1.084337
50
90
71
7
72
5
7
iso_b_vert
0
LINE
5
118
100
AcDbEntity
8
SK2
62
256
6
ByLayer
370
13
48
1
60
0
100
AcDbLine
10
-46.5875
20
-6
30
0
11
-55.625163
21
-6
31
0
39
0
210
0
220
0
230
1
0
LINE
5
119
100
AcDbEntity
8
SK2
62
256
6
ByLayer
370
13
48
1
60
0
100
AcDbLine
10
-46.5875
20
6
30
0
11
-55.625163
21
6
31
0
39
0
210
0
220
0
230
1
0
LINE
5
11A
100
AcDbEntity
8
SK2
62
256
6
ByLayer
370
13
48
1
60
0
100
AcDbLine
10
-53.625163
20
-6
30
0
11
-53.625163
21
36.862338
31
0
39
0
210
0
220
0
230
1
0
SOLID
5
11B
100
AcDbEntity
8
SK2
62
256
6
ByLayer
370
13
48
1
60
0
100
AcDbTrace
10
-53.625163
20
-6
30
0
11
-54.085946
21
-2.500002
31
0
12
-53.164379
22
-2.499998
32
0
13
-53.625163
23
-6
33
0
39
0
210
0
220
0
230
1
0
SOLID
5
11C
100
AcDbEntity
8
SK2
62
256
6
ByLayer
370
13
48
1
60
0
100
AcDbTrace
10
-53.625163
20
6
30
0
11
-53.164379
21
2.500002
31
0
12
-54.085946
22
2.499998
32
0
13
-53.625163
23
6
33
0
39
0
210
0
220
0
230
1
0
ENDBLK
5
11E
100
AcDbEntity
8
0
100
AcDbBlockEnd
0
BLOCK
5
128
100
AcDbEntity
8
0
100
AcDbBlockBegin
2
DimnDraft3D7
70
0
10
0
20
0
30
0
3
DimnDraft3D7
0
MTEXT
5
121
100
AcDbEntity
8
2
62
256
6
ByLayer
370
13
48
1
60
0
100
AcDbMText
10
67.333343
20
23.942266
30
0
210
0
220
0
230
1
1
\W0.6930;12,000
40
3.5
41
0
44
1.084337
50
90
71
7
72
5
7
iso_b_vert
0
MTEXT
5
122
100
AcDbEntity
8
2
62
256
6
ByLayer
370
13
48
1
60
0
100
AcDbMText
10
67.333343
20
18.71961
30
0
210
0
220
0
230
1
1
%%c
40
3.5
41
0
44
1.084337
50
90
71
7
72
5
7
iso_b_vert
0
LINE
5
123
100
AcDbEntity
8
2
62
256
6
ByLayer
370
13
48
1
60
0
100
AcDbLine
10
56.5275
20
-6
30
0
11
71.083343
21
-6
31
0
39
0
210
0
220
0
230
1
0
LINE
5
124
100
AcDbEntity
8
2
62
256
6
ByLayer
370
13
48
1
60
0
100
AcDbLine
10
56.5275
20
6
30
0
11
71.083343
21
6
31
0
39
0
210
0
220
0
230
1
0
LINE
5
125
100
AcDbEntity
8
2
62
256
6
ByLayer
370
13
48
1
60
0
100
AcDbLine
10
69.083343
20
-6
30
0
11
69.083343
21
35.455424
31
0
39
0
210
0
220
0
230
1
0
SOLID
5
126
100
AcDbEntity
8
2
62
256
6
ByLayer
370
13
48
1
60
0
100
AcDbTrace
10
69.083343
20
-6
30
0
11
68.622559
21
-2.500002
31
0
12
69.544126
22
-2.499998
32
0
13
69.083343
23
-6
33
0
39
0
210
0
220
0
230
1
0
SOLID
5
127
100
AcDbEntity
8
2
62
256
6
ByLayer
370
13
48
1
60
0
100
AcDbTrace
10
69.083343
20
6
30
0
11
69.544126
21
2.500002
31
0
12
68.622559
22
2.499998
32
0
13
69.083343
23
6
33
0
39
0
210
0
220
0
230
1
0
ENDBLK
5
129
100
AcDbEntity
8
0
100
AcDbBlockEnd
0
ENDSEC
0
SECTION
2
ENTITIES
0
ELLIPSE
5
9E
100
AcDbEntity
8
1
62
256
6
ByLayer
370
18
48
1
60
0
100
AcDbEllipse
10
4.25
20
5.95462
30
0
11
-0.25
21
3.06151588455594E-17
31
0
210
0
220
0
230
1
40
0.999961
41
0.0476936041637826
42
1.5756893304232
0
ELLIPSE
5
9F
100
AcDbEntity
8
1
62
256
6
ByLayer
370
18
48
1
60
0
100
AcDbEllipse
10
4.25
20
-5.95462
30
0
11
-0.25
21
3.06151588455594E-17
31
0
210
0
220
0
230
1
40
0.999961
41
-1.5692274243424
42
-0.0476936041637328
0
ELLIPSE
5
A0
100
AcDbEntity
8
1
62
256
6
ByLayer
370
18
48
1
60
0
100
AcDbEllipse
10
57.000508
20
0.001311
30
0
11
2.20009560006905
21
5.99848679415069
31
0
210
0
220
0
230
-1
40
0.082138
41
2.89564384849393
42
2.98960528667776
0
ELLIPSE
5
A1
100
AcDbEntity
8
1
62
256
6
ByLayer
370
13
48
1
60
0
100
AcDbEllipse
10
56.092233
20
2.70976
30
0
11
3.99827366694681
21
-2.05546980874666
31
0
210
0
220
0
230
-1
40
0.482873
41
1.53949524921014
42
1.84800296048327
0
ELLIPSE
5
A2
100
AcDbEntity
8
1
62
256
6
ByLayer
370
18
48
1
60
0
100
AcDbEllipse
10
55.891254
20
2.844052
30
0
11
0.923854104362868
21
-2.5188572077517
31
0
210
0
220
0
230
-1
40
0.082138
41
-1.57301395370756
42
-0.755280950345816
0
ELLIPSE
5
A3
100
AcDbEntity
8
1
62
256
6
ByLayer
370
13
48
1
60
0
100
AcDbEllipse
10
56.261692
20
2.844052
30
0
11
4.04424689541826
21
-1.74513506815667
31
0
210
0
220
0
230
-1
40
0.449512
41
1.59122648756951
42
1.89568007171598
0
ELLIPSE
5
A4
100
AcDbEntity
8
1
62
256
6
ByLayer
370
18
48
1
60
0
100
AcDbEllipse
10
55.891254
20
-2.844052
30
0
11
0.923854104373175
21
2.51885720777601
31
0
210
0
220
0
230
-1
40
0.082138
41
0.755280950348049
42
1.57301395371536
0
ELLIPSE
5
A5
100
AcDbEntity
8
1
62
256
6
ByLayer
370
18
48
1
60
0
100
AcDbEllipse
10
57.020738
20
-0.044962
30
0
11
0.135658546041396
21
0.401200806250774
31
0
210
0
220
0
230
-1
40
0.065863
41
-2.32292776271908
42
-1.62234750766601
0
ELLIPSE
5
A6
100
AcDbEntity
8
1
62
256
6
ByLayer
370
18
48
1
60
0
100
AcDbEllipse
10
56.860151
20
0.124473
30
0
11
0.086880372454016
21
0.290676908846052
31
0
210
0
220
0
230
-1
40
0.467765
41
1.66485402736829
42
2.36053717391143
0
ELLIPSE
5
A7
100
AcDbEntity
8
1
62
256
6
ByLayer
370
18
48
1
60
0
100
AcDbEllipse
10
57.020738
20
0.044962
30
0
11
0.135658546030886
21
-0.401200806223139
31
0
210
0
220
0
230
-1
40
0.065863
41
1.62234750763076
42
2.32292776273068
0
ELLIPSE
5
A8
100
AcDbEntity
8
1
62
256
6
ByLayer
370
13
48
1
60
0
100
AcDbEllipse
10
55.394776
20
0.850011
30
0
11
0.133113781883896
21
0.268850741253519
31
0
210
0
220
0
230
1
40
0.40558
41
0.884485917131049
42
2.28074931872629
0
ELLIPSE
5
A9
100
AcDbEntity
8
1
62
256
6
ByLayer
370
18
48
1
60
0
100
AcDbEllipse
10
57.000508
20
-0.001311
30
0
11
2.20009560035208
21
-5.99848679469233
31
0
210
0
220
0
230
-1
40
0.082138
41
-2.9896052866878
42
-2.89564384850702
0
POINT
5
6C
100
AcDbEntity
8
81
62
256
6
ByLayer
370
18
48
1
60
0
100
AcDbPoint
10
57
20
0
30
0
39
0
210
0
220
0
230
1
50
360
0
POINT
5
6E
100
AcDbEntity
8
80
62
256
6
ByLayer
370
18
48
1
60
0
100
AcDbPoint
10
0
20
0
30
0
39
0
210
0
220
0
230
1
50
360
0
POINT
5
70
100
AcDbEntity
8
SK2
62
256
6
ByLayer
370
18
48
1
60
1
100
AcDbPoint
10
-45
20
-6
30
0
39
0
210
0
220
0
230
1
50
360
0
POINT
5
72
100
AcDbEntity
8
SK2
62
256
6
ByLayer
370
18
48
1
60
1
100
AcDbPoint
10
-45
20
6
30
0
39
0
210
0
220
0
230
1
50
360
0
POINT
5
73
100
AcDbEntity
8
2
62
256
6
ByLayer
370
18
48
1
60
1
100
AcDbPoint
10
54.94
20
-6
30
0
39
0
210
0
220
0
230
1
50
360
0
POINT
5
75
100
AcDbEntity
8
2
62
256
6
ByLayer
370
18
48
1
60
1
100
AcDbPoint
10
54.94
20
6
30
0
39
0
210
0
220
0
230
1
50
360
0
SPLINE
5
AA
100
AcDbEntity
8
1
62
256
6
ByLayer
370
18
48
1
60
0
100
AcDbSpline
70
4
71
3
72
16
73
12
40
0
40
0
40
0
40
0
40
0.15402484237238
40
0.314514153130209
40
0.432891411255219
40
0.512056790248044
40
0.585407763631102
40
0.663779469931058
40
0.751595547227445
40
0.86794167530594
40
1
40
1
40
1
40
1
41
1
10
4.25040698619486
20
-5.70475222904253
30
0
41
1
10
4.51115563288047
20
-5.70522337748218
30
0
41
1
10
5.04359562924739
20
-5.70597441206902
30
0
41
1
10
5.77643407800383
20
-5.70625432090361
30
0
41
1
10
6.38254037452054
20
-5.70628178155795
30
0
41
1
10
6.84112909537936
20
-5.70677859633795
30
0
41
1
10
7.2320081939163
20
-5.70731901339718
30
0
41
1
10
7.63731586502263
20
-5.70777232722153
30
0
41
1
10
8.11521591559654
20
-5.70773162064359
30
0
41
1
10
8.68456665778592
20
-5.70957798245703
30
0
41
1
10
9.10499834694753
20
-5.70998056365565
30
0
41
1
10
9.32852187539578
20
-5.71016306458077
30
0
0
SPLINE
5
AB
100
AcDbEntity
8
1
62
256
6
ByLayer
370
18
48
1
60
0
100
AcDbSpline
70
4
71
3
72
32
73
28
40
0
40
0
40
0
40
0
40
0.0568073914020125
40
0.105086163599895
40
0.140581921505468
40
0.171487543348206
40
0.209700630906054
40
0.243735064612966
40
0.273312424480088
40
0.307675407629421
40
0.35324999532814
40
0.418157733330461
40
0.470582920865202
40
0.518625713831251
40
0.564764673864326
40
0.611782486681888
40
0.658154530623493
40
0.701560203016957
40
0.750553548550413
40
0.800427453031534
40
0.84947206843571
40
0.884354504129372
40
0.896691641391691
40
0.913951301883298
40
0.940128811871179
40
0.975243961361208
40
1
40
1
40
1
40
1
41
1
10
23.9751269531407
20
-5.71641399398146
30
0
41
1
10
24.2624868738053
20
-5.71659268765802
30
0
41
1
10
24.7940976489352
20
-5.71696102692721
30
0
41
1
10
25.5059574981977
20
-5.71713660942913
30
0
41
1
10
26.0858611514461
20
-5.71792194754352
30
0
41
1
10
26.6147157045951
20
-5.71804313302607
30
0
41
1
10
27.1370840991278
20
-5.7183651868547
30
0
41
1
10
27.6524678593588
20
-5.71900523613991
30
0
41
1
10
28.1484653736864
20
-5.71893008341982
30
0
41
1
10
28.7027664138366
20
-5.71942906875458
30
0
41
1
10
29.4358929869958
20
-5.71996846660258
30
0
41
1
10
30.260631064767
20
-5.72031587583132
30
0
41
1
10
31.0976544254423
20
-5.72078417363653
30
0
41
1
10
31.8396551605012
20
-5.7211560880589
30
0
41
1
10
32.5544799794989
20
-5.72145490523187
30
0
41
1
10
33.2607721290549
20
-5.7216008571869
30
0
41
1
10
33.9533411091036
20
-5.7225258828264
30
0
41
1
10
34.6553876996612
20
-5.72191519840473
30
0
41
1
10
35.3755498916443
20
-5.72347298190783
30
0
41
1
10
36.1243552941452
20
-5.7225207285974
30
0
41
1
10
36.8014690244336
20
-5.72424341957327
30
0
41
1
10
37.2889410952073
20
-5.72394136053751
30
0
41
1
10
37.6151335746609
20
-5.72386971904061
30
0
41
1
10
37.8974016054437
20
-5.72407894202587
30
0
41
1
10
38.2950514900607
20
-5.72508439906252
30
0
41
1
10
38.7306638273633
20
-5.72471751034394
30
0
41
1
10
39.0337075833301
20
-5.72487625626405
30
0
41
1
10
39.1590081051673
20
-5.72492343837669
30
0
0
SPLINE
5
AC
100
AcDbEntity
8
1
62
256
6
ByLayer
370
18
48
1
60
0
100
AcDbSpline
70
4
71
3
72
16
73
12
40
0
40
0
40
0
40
0
40
0.128133116395688
40
0.253761236271763
40
0.351054795774408
40
0.398498730506801
40
0.447715020407891
40
0.535570946456011
40
0.664290922735835
40
0.834609162827952
40
1
40
1
40
1
40
1
41
1
10
9.5289869438736
20
5.7082032712843
30
0
41
1
10
9.30093888061478
20
5.70797506457714
30
0
41
1
10
8.85207896280659
20
5.70761427154628
30
0
41
1
10
8.24642858581535
20
5.70828620808854
30
0
41
1
10
7.77461961132246
20
5.70771361632737
30
0
41
1
10
7.43172826997437
20
5.70730346771026
30
0
41
1
10
7.10682583020838
20
5.70713345806467
30
0
41
1
10
6.63749564344187
20
5.70642541279869
30
0
41
1
10
5.95475808974339
20
5.70621434065583
30
0
41
1
10
5.13493561490691
20
5.70609988531689
30
0
41
1
10
4.54236006233208
20
5.70526441188233
30
0
41
1
10
4.25040806080361
20
5.70474080772783
30
0
0
SPLINE
5
AD
100
AcDbEntity
8
1
62
256
6
ByLayer
370
18
48
1
60
0
100
AcDbSpline
70
4
71
2
72
6
73
3
40
0
40
0
40
0
40
1
40
1
40
1
41
1
10
53.9301370910426
20
-5.73455120781108
30
0
41
1
10
54.4195912723503
20
-5.73313582776234
30
0
41
1
10
54.9080234138142
20
-5.73629554256684
30
0
0
SPLINE
5
AE
100
AcDbEntity
8
1
62
256
6
ByLayer
370
18
48
1
60
0
100
AcDbSpline
70
4
71
3
72
32
73
28
40
0
40
0
40
0
40
0
40
0.0114223987523549
40
0.0806222618072307
40
0.133333617956071
40
0.173784932593404
40
0.203335212222625
40
0.235404898756399
40
0.274778797984989
40
0.31105064925994
40
0.352484308236851
40
0.399111656136781
40
0.447855489774198
40
0.487207175770596
40
0.517235884447587
40
0.553029935396697
40
0.615593358349239
40
0.676442223881784
40
0.72828699667084
40
0.771540898353909
40
0.806851003269268
40
0.837498516666519
40
0.879828632959152
40
0.934146805092334
40
0.980106877418538
40
0.997926712300193
40
1
40
1
40
1
40
1
41
1
10
39.2962213164443
20
5.72464933110876
30
0
41
1
10
39.2478155359184
20
5.72458390250682
30
0
41
1
10
38.9061500628466
20
5.72414547984584
30
0
41
1
10
38.3386065179994
20
5.72497294664657
30
0
41
1
10
37.6526246801471
20
5.72373839155412
30
0
41
1
10
37.1323290504339
20
5.72404055331248
30
0
41
1
10
36.6988816815749
20
5.72400871331857
30
0
41
1
10
36.2702485010761
20
5.72306213480718
30
0
41
1
10
35.8129353124972
20
5.72303260107731
30
0
41
1
10
35.315906433701
20
5.72333290859785
30
0
41
1
10
34.7880752291108
20
5.72240254956509
30
0
41
1
10
34.2073014030314
20
5.7221620738043
30
0
41
1
10
33.6353659800348
20
5.72241274443374
30
0
41
1
10
33.1338941356962
20
5.72141092588166
30
0
41
1
10
32.6873977793214
20
5.72139146028775
30
0
41
1
10
32.1423618434233
20
5.72154786986775
30
0
41
1
10
31.4664979696332
20
5.72041424182277
30
0
41
1
10
30.7224786507296
20
5.72123219947844
30
0
41
1
10
30.060434624995
20
5.71986412147083
30
0
41
1
10
29.5068174412925
20
5.71989381043917
30
0
41
1
10
29.0431700067845
20
5.71994166580359
30
0
41
1
10
28.58350226386
20
5.7192244184015
30
0
41
1
10
28.0431047455833
20
5.71892401882332
30
0
41
1
10
27.4376981815021
20
5.71883160123309
30
0
41
1
10
26.9363041012172
20
5.71816244659934
30
0
41
1
10
26.6568413561822
20
5.71803097256981
30
0
41
1
10
26.5725076206179
20
5.71798072167891
30
0
41
1
10
26.563718957667
20
5.71797538208025
30
0
0
SPLINE
5
AF
100
AcDbEntity
8
1
62
256
6
ByLayer
370
18
48
1
60
0
100
AcDbSpline
70
4
71
3
72
10
73
6
40
0
40
0
40
0
40
0
40
0.106019952329603
40
0.484343011593799
40
1
40
1
40
1
40
1
41
1
10
39.9876667115733
20
-1.27320964388554
30
0
41
1
10
39.9876077291387
20
-1.27324553959247
30
0
41
1
10
39.9917337369952
20
-1.27593992252045
30
0
41
1
10
40.0524959940741
20
-1.31205570504412
30
0
41
1
10
40.1168447824102
20
-1.35089765097817
30
0
41
1
10
40.164834793684
20
-1.37982214757292
30
0
0
SPLINE
5
B0
100
AcDbEntity
8
SK1
62
256
6
ByLayer
370
18
48
1
60
0
100
AcDbSpline
70
4
71
3
72
10
73
6
40
0
40
0
40
0
40
0
40
0.5
40
0.5
40
1
40
1
40
1
40
1
41
1
10
-43.7
20
-0.988272712547769
30
0
41
1
10
-43.9194039300083
20
-1.0063292827229
30
0
41
1
10
-44.1380474569928
20
-1.02440648300765
30
0
41
1
10
-44.5722433888257
20
-1.06063921985114
30
0
41
1
10
-44.7878994165178
20
-1.07879164297813
30
0
41
1
10
-45
20
-1.09703296762032
30
0
0
SPLINE
5
B1
100
AcDbEntity
8
SK1
62
256
6
ByLayer
370
18
48
1
60
0
100
AcDbSpline
70
4
71
3
72
10
73
6
40
0
40
0
40
0
40
0
40
0.5
40
0.5
40
1
40
1
40
1
40
1
41
1
10
-43.7
20
0.988272712547769
30
0
41
1
10
-43.9194039300083
20
1.00632928272287
30
0
41
1
10
-44.1380474569928
20
1.02440648300762
30
0
41
1
10
-44.5722433888257
20
1.06063921985114
30
0
41
1
10
-44.7878994165178
20
1.07879164297813
30
0
41
1
10
-45
20
1.09703296762029
30
0
0
SPLINE
5
B2
100
AcDbEntity
8
SK1
62
256
6
ByLayer
370
18
48
1
60
0
100
AcDbSpline
70
4
71
3
72
10
73
6
40
0
40
0
40
0
40
0
40
0.5
40
0.5
40
1
40
1
40
1
40
1
41
1
10
-45
20
-1.40027678912943
30
0
41
1
10
-44.7879264547627
20
-1.41851578839658
30
0
41
1
10
-44.5722802000082
20
-1.43666744417442
30
0
41
1
10
-44.1380884226911
20
-1.47289987614548
30
0
41
1
10
-43.9194336565534
20
-1.49097802758277
30
0
41
1
10
-43.7
20
-1.50903704420196
30
0
0
SPLINE
5
B3
100
AcDbEntity
8
SK1
62
256
6
ByLayer
370
18
48
1
60
0
100
AcDbSpline
70
4
71
3
72
14
73
10
40
0
40
0
40
0
40
0
40
0.125000000000002
40
0.125000000000002
40
0.250000000000005
40
0.250000000000005
40
0.500000000000004
40
0.500000000000004
40
1
40
1
40
1
40
1
41
1
10
-43.6
20
-0.87919718243586
30
0
41
1
10
-43.6
20
-0.889966433611818
30
0
41
1
10
-43.6017275532336
20
-0.900027684923629
30
0
41
1
10
-43.606870604446
20
-0.917559905080338
30
0
41
1
10
-43.6102509413268
20
-0.925116170868989
30
0
41
1
10
-43.6214648735631
20
-0.945106452127959
30
0
41
1
10
-43.6303776551095
20
-0.955029256535937
30
0
41
1
10
-43.6583358930296
20
-0.978649000533864
30
0
41
1
10
-43.6789017002713
20
-0.986536358374025
30
0
41
1
10
-43.7
20
-0.988272712547854
30
0
0
SPLINE
5
B4
100
AcDbEntity
8
SK1
62
256
6
ByLayer
370
18
48
1
60
0
100
AcDbSpline
70
4
71
3
72
14
73
10
40
0
40
0
40
0
40
0
40
0.25
40
0.25
40
0.5
40
0.5
40
0.75
40
0.75
40
1
40
1
40
1
40
1
41
1
10
-44.9999999999889
20
-1.12022108342629
30
0
41
1
10
-44.9782299531373
20
-1.11889097096341
30
0
41
1
10
-44.9593670307704
20
-1.1174620446078
30
0
41
1
10
-44.9317145038292
20
-1.11433852094385
30
0
41
1
10
-44.9235431418889
20
-1.11267625708865
30
0
41
1
10
-44.9226635121415
20
-1.10932063288664
30
0
41
1
10
-44.9300906515571
20
-1.10764463049742
30
0
41
1
10
-44.9574482322953
20
-1.104537611957
30
0
41
1
10
-44.9772458875934
20
-1.10309435808961
30
0
41
1
10
-44.9999999999994
20
-1.10180116991523
30
0
0
SPLINE
5
B5
100
AcDbEntity
8
SK1
62
256
6
ByLayer
370
18
48
1
60
0
100
AcDbSpline
70
4
71
3
72
14
73
10
40
0
40
0
40
0
40
0
40
0.500000000000001
40
0.500000000000001
40
0.75
40
0.75
40
0.875
40
0.875
40
1
40
1
40
1
40
1
41
1
10
-43.7
20
-1.50903704420207
30
0
41
1
10
-43.6789021434844
20
-1.51077336190025
30
0
41
1
10
-43.6585587767126
20
-1.50651991424252
30
0
41
1
10
-43.6303722414292
20
-1.48780241150996
30
0
41
1
10
-43.6214260646625
20
-1.47944269433975
30
0
41
1
10
-43.6102968606991
20
-1.46180624852775
30
0
41
1
10
-43.6069058574072
20
-1.45495664325236
30
0
41
1
10
-43.6017309986994
20
-1.43852689337206
30
0
41
1
10
-43.6
20
-1.42891697613771
30
0
41
1
10
-43.6
20
-1.41832779377393
30
0
0
SPLINE
5
B6
100
AcDbEntity
8
SK1
62
256
6
ByLayer
370
18
48
1
60
0
100
AcDbSpline
70
4
71
3
72
14
73
10
40
0
40
0
40
0
40
0
40
0.124999999999996
40
0.124999999999996
40
0.249999999999993
40
0.249999999999993
40
0.499999999999993
40
0.499999999999993
40
1
40
1
40
1
40
1
41
1
10
-43.6
20
0.87919718243586
30
0
41
1
10
-43.6
20
0.889966433611789
30
0
41
1
10
-43.6017275532336
20
0.9000276849236
30
0
41
1
10
-43.606870604446
20
0.91755990508031
30
0
41
1
10
-43.6102509413268
20
0.925116170868961
30
0
41
1
10
-43.6214648735631
20
0.945106452127959
30
0
41
1
10
-43.6303776551095
20
0.955029256535909
30
0
41
1
10
-43.6583358930296
20
0.978649000533864
30
0
41
1
10
-43.6789017002714
20
0.986536358373996
30
0
41
1
10
-43.7
20
0.988272712547854
30
0
0
SPLINE
5
B7
100
AcDbEntity
8
1
62
256
6
ByLayer
370
13
48
1
60
0
100
AcDbSpline
70
4
71
3
72
26
73
22
40
0
40
0
40
0
40
0
40
0.198065625913273
40
0.198065625913273
40
0.297098438869909
40
0.297098438869909
40
0.396131251826545
40
0.396131251826545
40
0.495164064783182
40
0.495164064783182
40
0.5446804712615
40
0.5446804712615
40
0.594196877739818
40
0.594196877739818
40
0.792262503653091
40
0.792262503653091
40
0.891295316609728
40
0.891295316609728
40
0.990328129566365
40
0.990328129566365
40
1
40
1
40
1
40
1
41
1
10
4.25028182513179
20
2.7287515276
30
0
41
1
10
4.25031031231697
20
3.08593018269957
30
0
41
1
10
4.25032415884206
20
3.41825597050806
30
0
41
1
10
4.2503329377904
20
3.87962157067534
30
0
41
1
10
4.25033382645853
20
4.02579441688178
30
0
41
1
10
4.25033331771311
20
4.30067608690473
30
0
41
1
10
4.25033192601481
20
4.42983858333008
30
0
41
1
10
4.25032850990544
20
4.6717244133587
30
0
41
1
10
4.25032648267938
20
4.78444864448048
30
0
41
1
10
4.25032411148396
20
4.94087579943348
30
0
41
1
10
4.25032343127958
20
4.99103725978381
30
0
41
1
10
4.25032248749918
20
5.08608124127161
30
0
41
1
10
4.25032222223007
20
5.13103218716944
30
0
41
1
10
4.25032230989552
20
5.34317907079694
30
0
41
1
10
4.25032702089717
20
5.47296996994586
30
0
41
1
10
4.25034675813203
20
5.6073511071165
30
0
41
1
10
4.2503554788519
20
5.6420157866867
30
0
41
1
10
4.25037737458496
20
5.68942063665591
30
0
41
1
10
4.2503905588741
20
5.70238734200254
30
0
41
1
10
4.25040756136355
20
5.70474257279292
30
0
41
1
10
4.25040909470701
20
5.70484931820474
30
0
41
1
10
4.25041064837009
20
5.70485342041303
30
0
0
SPLINE
5
B8
100
AcDbEntity
8
1
62
256
6
ByLayer
370
18
48
1
60
0
100
AcDbSpline
70
4
71
3
72
10
73
6
40
0
40
0
40
0
40
0
40
0.835093130860694
40
0.835093130860694
40
1
40
1
40
1
40
1
41
1
10
16.6962839374021
20
4.72923936938946
30
0
41
1
10
16.5128727784965
20
4.61854156433174
30
0
41
1
10
16.3298280965269
20
4.50522924329826
30
0
41
1
10
16.1107858714891
20
4.36642221513688
30
0
41
1
10
16.0746698245392
20
4.34342884757737
30
0
41
1
10
16.0385544555818
20
4.32033730842323
30
0
0
SPLINE
5
B9
100
AcDbEntity
8
1
62
256
6
ByLayer
370
18
48
1
60
0
100
AcDbSpline
70
4
71
3
72
58
73
54
40
0
40
0
40
0
40
0
40
0.0509919524683896
40
0.0509919524683896
40
0.076487928702584
40
0.076487928702584
40
0.101983904936778
40
0.101983904936778
40
0.152975857405167
40
0.152975857405167
40
0.203967809873556
40
0.203967809873556
40
0.229463786107751
40
0.229463786107751
40
0.254959762341945
40
0.254959762341945
40
0.305951714810335
40
0.305951714810335
40
0.33144769104453
40
0.33144769104453
40
0.356943667278726
40
0.356943667278726
40
0.407935619747116
40
0.407935619747116
40
0.433431595981312
40
0.433431595981312
40
0.458927572215507
40
0.458927572215507
40
0.509919524683898
40
0.509919524683898
40
0.560911477152288
40
0.560911477152288
40
0.611903429620679
40
0.611903429620679
40
0.637399405854874
40
0.637399405854874
40
0.66289538208907
40
0.66289538208907
40
0.713887334557459
40
0.713887334557459
40
0.81587123949424
40
0.81587123949424
40
0.841367215728434
40
0.841367215728434
40
0.866863191962629
40
0.866863191962629
40
0.917855144431018
40
0.917855144431018
40
0.943351120665214
40
0.943351120665214
40
0.968847096899409
40
0.968847096899409
40
1
40
1
40
1
40
1
41
1
10
54.9003721472147
20
-5.95538687470562
30
0
41
1
10
54.3703782513839
20
-5.99570884851562
30
0
41
1
10
53.8410071920428
20
-6.0082491771924
30
0
41
1
10
53.0450774711287
20
-5.98530106641493
30
0
41
1
10
52.779747902809
20
-5.97068151390817
30
0
41
1
10
52.2501140914411
20
-5.92773447361299
30
0
41
1
10
51.9855802070181
20
-5.89940131476257
30
0
41
1
10
51.1920501065356
20
-5.79409437666445
30
0
41
1
10
50.6629325077051
20
-5.69677512035383
30
0
41
1
10
49.6013125234387
20
-5.44960046206756
30
0
41
1
10
49.0723895504245
20
-5.30058426530638
30
0
41
1
10
48.2788113058095
20
-5.04140418711768
30
0
41
1
10
48.0142512597637
20
-4.94906620928421
30
0
41
1
10
47.4845035987145
20
-4.75294846373123
30
0
41
1
10
47.2189910534489
20
-4.64903624373378
30
0
41
1
10
46.4234034921329
20
-4.32190466443941
30
0
41
1
10
45.8946059897807
20
-4.08349839724363
30
0
41
1
10
45.1007748855195
20
-3.69906981031031
30
0
41
1
10
44.8360602963734
20
-3.56645268409079
30
0
41
1
10
44.3058660567224
20
-3.29293194566296
30
0
41
1
10
44.0401807850642
20
-3.15191796975094
30
0
41
1
10
43.2450492071465
20
-2.71935701543347
30
0
41
1
10
42.7163626642393
20
-2.41780249397738
30
0
41
1
10
41.9222413921083
20
-1.95038359160807
30
0
41
1
10
41.6573780268545
20
-1.79202352326675
30
0
41
1
10
41.1267358057382
20
-1.47107826650114
30
0
41
1
10
40.8612380443008
20
-1.30864610385757
30
0
41
1
10
40.0665365395457
20
-0.818291773427347
30
0
41
1
10
39.5378188808594
20
-0.486888303957102
30
0
41
1
10
38.478558921014
20
0.178572675966507
30
0
41
1
10
37.9470165467102
20
0.513058967790982
30
0
41
1
10
36.8878161246776
20
1.17185911808701
30
0
41
1
10
36.3590388758984
20
1.49670517286009
30
0
41
1
10
35.5641288760882
20
1.97248761740627
30
0
41
1
10
35.2983837085671
20
2.12942852499412
30
0
41
1
10
34.7683064295666
20
2.437063185336
30
0
41
1
10
34.5041677909901
20
2.58769274866162
30
0
41
1
10
33.7137285539251
20
3.02915317111345
30
0
41
1
10
33.1892781918282
20
3.30937658125515
30
0
41
1
10
31.617680522316
20
4.10073489036137
30
0
41
1
10
30.5721135672341
20
4.56237042281805
30
0
41
1
10
29.2477629440719
20
5.03147898971091
30
0
41
1
10
28.981852011913
20
5.11991101766642
30
0
41
1
10
28.4516539745045
20
5.28414536346614
30
0
41
1
10
28.1868879005837
20
5.36012271827391
30
0
41
1
10
27.3927886167155
20
5.56913909364454
30
0
41
1
10
26.8636777421692
20
5.68328301264592
30
0
41
1
10
26.0672950235417
20
5.81466019154593
30
0
41
1
10
25.801774204269
20
5.85173374180869
30
0
41
1
10
25.2717904309797
20
5.91210069007278
30
0
41
1
10
25.0070736094359
20
5.93543500125659
30
0
41
1
10
24.4188969504172
20
5.97197840966766
30
0
41
1
10
24.0953914222256
20
5.9817940612983
30
0
41
1
10
23.7714991870569
20
5.98125643934659
30
0
0
SPLINE
5
BA
100
AcDbEntity
8
1
62
256
6
ByLayer
370
18
48
1
60
0
100
AcDbSpline
70
4
71
3
72
23
73
19
40
0
40
0
40
0
40
0
40
0.125000000000001
40
0.125000000000001
40
0.187500000000001
40
0.187500000000001
40
0.25
40
0.25
40
0.5
40
0.5
40
0.5625
40
0.5625
40
0.625
40
0.625
40
0.75
40
0.875
40
0.875
40
1
40
1
40
1
40
1
41
1
10
54.912653326341
20
-5.73493785243932
30
0
41
1
10
54.8296126057524
20
-5.73485641398147
30
0
41
1
10
54.7505603288256
20
-5.72275034037651
30
0
41
1
10
54.6382540652008
20
-5.68568151406001
30
0
41
1
10
54.6018665789999
20
-5.67016585185522
30
0
41
1
10
54.5312711688263
20
-5.63256343285451
30
0
41
1
10
54.4969525419834
20
-5.61037727273768
30
0
41
1
10
54.3330333987722
20
-5.48381706867454
30
0
41
1
10
54.2252986785045
20
-5.33325159991244
30
0
41
1
10
54.1212836928743
20
-5.08044196804414
30
0
41
1
10
54.1020333620472
20
-5.02660776075157
30
0
41
1
10
54.0667608177035
20
-4.91213601264491
30
0
41
1
10
54.0506979696356
20
-4.85125667216442
30
0
41
1
10
54.0082030504589
20
-4.66093737215249
30
0
41
1
10
53.9662030127067
20
-4.38567451333344
30
0
41
1
10
53.9530468392931
20
-4.06810206243429
30
0
41
1
10
53.9547082186007
20
-3.72879449990421
30
0
41
1
10
53.963092267149
20
-3.54751627985979
30
0
41
1
10
53.9788376670625
20
-3.35966169077525
30
0
0
SPLINE
5
BB
100
AcDbEntity
8
1
62
256
6
ByLayer
370
18
48
1
60
0
100
AcDbSpline
70
4
71
3
72
67
73
63
40
0
40
0
40
0
40
0
40
0.124999999999979
40
0.124999999999979
40
0.249999999999958
40
0.249999999999958
40
0.374999999999938
40
0.374999999999938
40
0.499999999999917
40
0.499999999999917
40
0.624999999999896
40
0.624999999999896
40
0.656249999999891
40
0.656249999999891
40
0.671874999999888
40
0.679687499999887
40
0.679687499999887
40
0.683593749999887
40
0.683593749999887
40
0.687499999999887
40
0.687499999999887
40
0.691406249999887
40
0.691406249999887
40
0.693359374999887
40
0.693359374999887
40
0.695312499999888
40
0.695312499999888
40
0.70312499999989
40
0.70312499999989
40
0.718749999999896
40
0.718749999999896
40
0.749999999999907
40
0.749999999999907
40
0.765624999999913
40
0.765624999999913
40
0.781249999999919
40
0.781249999999919
40
0.789062499999922
40
0.789062499999922
40
0.796874999999925
40
0.796874999999925
40
0.812499999999931
40
0.812499999999931
40
0.820312499999934
40
0.820312499999934
40
0.828124999999937
40
0.828124999999937
40
0.843749999999942
40
0.843749999999942
40
0.859374999999948
40
0.859374999999948
40
0.874999999999954
40
0.874999999999954
40
0.890624999999959
40
0.890624999999959
40
0.906249999999965
40
0.906249999999965
40
0.937499999999977
40
0.937499999999977
40
0.968749999999988
40
0.968749999999988
40
1
40
1
40
1
40
1
41
1
10
16.6962851980325
20
-4.72926721939834
30
0
41
1
10
15.9662273542452
20
-4.44800724606887
30
0
41
1
10
15.2282932279078
20
-4.13556243822975
30
0
41
1
10
13.7249519063155
20
-3.48013572865224
30
0
41
1
10
12.9685542462023
20
-3.14150399674301
30
0
41
1
10
11.4321167017512
20
-2.48477823998553
30
0
41
1
10
10.6519513122333
20
-2.16699771530986
30
0
41
1
10
9.05585346446276
20
-1.59410661823875
30
0
41
1
10
8.23992873010917
20
-1.33912634824065
30
0
41
1
10
6.56467093074411
20
-0.925489887406599
30
0
41
1
10
5.71226143426361
20
-0.768833787266459
30
0
41
1
10
4.63929340346144
20
-0.648635431666975
30
0
41
1
10
4.42432655213628
20
-0.628339569746345
30
0
41
1
10
4.10130303492309
20
-0.603664914139358
30
0
41
1
10
3.93964793061915
20
-0.592770129999451
30
0
41
1
10
3.77777486025491
20
-0.584071433801228
30
0
41
1
10
3.69680172147994
20
-0.580091044937603
30
0
41
1
10
3.66980805459181
20
-0.578825919114479
30
0
41
1
10
3.61582583823565
20
-0.576419831813837
30
0
41
1
10
3.58882773685175
20
-0.574772068389194
30
0
41
1
10
3.5348682195899
20
-0.573809120412307
30
0
41
1
10
3.50793258063939
20
-0.576133494021946
30
0
41
1
10
3.46763530720304
20
-0.586369049459279
30
0
41
1
10
3.45450053825149
20
-0.590914089975485
30
0
41
1
10
3.43014627970075
20
-0.602675177686564
30
0
41
1
10
3.41892126406535
20
-0.610158070246598
30
0
41
1
10
3.36153481066896
20
-0.645440757284945
30
0
41
1
10
3.31603957216581
20
-0.674341691455197
30
0
41
1
10
3.18090244368958
20
-0.763238009024661
30
0
41
1
10
3.0931163105196
20
-0.825083772809649
30
0
41
1
10
2.83805907985646
20
-1.01936682456338
30
0
41
1
10
2.67871041189272
20
-1.16034148485616
30
0
41
1
10
2.46366891357468
20
-1.39708496353191
30
0
41
1
10
2.39640920506571
20
-1.48003751179897
30
0
41
1
10
2.27549580827716
20
-1.65161893818538
30
0
41
1
10
2.22140424810755
20
-1.74069260819653
30
0
41
1
10
2.1516927412392
20
-1.88009470070168
30
0
41
1
10
2.13029321822034
20
-1.92776079314234
30
0
41
1
10
2.09243535137188
20
-2.02328192942591
30
0
41
1
10
2.07587996580327
20
-2.07128596771685
30
0
41
1
10
2.03341233678501
20
-2.21600187694872
30
0
41
1
10
2.01468979759153
20
-2.31341702007623
30
0
41
1
10
2.00145411268355
20
-2.46085153428041
30
0
41
1
10
1.99953249832998
20
-2.51049889073846
30
0
41
1
10
2.00068700403929
20
-2.60848602085113
30
0
41
1
10
2.00372287056251
20
-2.65684498637151
30
0
41
1
10
2.01965684874762
20
-2.80012023731052
30
0
41
1
10
2.03936112889295
20
-2.89323886636598
30
0
41
1
10
2.09460192964241
20
-3.07510869027718
30
0
41
1
10
2.12970859418777
20
-3.16236097882299
30
0
41
1
10
2.21098965624603
20
-3.32906203241012
30
0
41
1
10
2.25728911189429
20
-3.40885421481841
30
0
41
1
10
2.3590498329811
20
-3.56252002911052
30
0
41
1
10
2.41475780002824
20
-3.63666284401435
30
0
41
1
10
2.53266207131836
20
-3.7784827496661
30
0
41
1
10
2.59463277546979
20
-3.84596508465126
30
0
41
1
10
2.7877459333462
20
-4.0400101625863
30
0
41
1
10
2.92599422773591
20
-4.15826865646233
30
0
41
1
10
3.21560177697569
20
-4.37854464145602
30
0
41
1
10
3.36739539512189
20
-4.48071492361328
30
0
41
1
10
3.67925259819378
20
-4.67100895912824
30
0
41
1
10
3.83843603001174
20
-4.75862964206357
30
0
41
1
10
4.00000001005765
20
-4.84024404902331
30
0
0
SPLINE
5
BC
100
AcDbEntity
8
1
62
256
6
ByLayer
370
18
48
1
60
0
100
AcDbSpline
70
4
71
3
72
22
73
18
40
0
40
0
40
0
40
0
40
0.125
40
0.125
40
0.25
40
0.25
40
0.5
40
0.5
40
0.625
40
0.625
40
0.75
40
0.75
40
0.875
40
0.875
40
0.9375
40
0.9375
40
1
40
1
40
1
40
1
41
1
10
56.0960992017593
20
-2.92552166164398
30
0
41
1
10
56.0501567650027
20
-3.04891993906426
30
0
41
1
10
56.004171967255
20
-3.17221142345125
30
0
41
1
10
55.9120923456014
20
-3.41851701374876
30
0
41
1
10
55.8659865103425
20
-3.54150335978505
30
0
41
1
10
55.7276061043098
20
-3.91030382490126
30
0
41
1
10
55.6353080709237
20
-4.15608857975849
30
0
41
1
10
55.4966179658894
20
-4.52373139769216
30
0
41
1
10
55.4503366167085
20
-4.64602602771066
30
0
41
1
10
55.3577082786419
20
-4.89029168770733
30
0
41
1
10
55.3113884946956
20
-5.01239684504876
30
0
41
1
10
55.2186944573695
20
-5.25622541579224
30
0
41
1
10
55.1723071654488
20
-5.37800387600981
30
0
41
1
10
55.1026856243627
20
-5.55956548498222
30
0
41
1
10
55.0794691253794
20
-5.61987528173057
30
0
41
1
10
55.0330312826226
20
-5.74038531083249
30
0
41
1
10
55.0098102795633
20
-5.80059324840411
30
0
41
1
10
54.9865831004574
20
-5.8606615153721
30
0
0
SPLINE
5
BD
100
AcDbEntity
8
1
62
256
6
ByLayer
370
18
48
1
60
0
100
AcDbSpline
70
4
71
3
72
24
73
20
40
0
40
0
40
0
40
0
40
0.190818920474726
40
0.190818920474726
40
0.286228380712089
40
0.286228380712089
40
0.381637840949453
40
0.381637840949453
40
0.572456761424177
40
0.572456761424177
40
0.667866221661538
40
0.667866221661538
40
0.7632756818989
40
0.7632756818989
40
0.858685142136261
40
0.858685142136261
40
0.954094602373623
40
0.954094602373623
40
1
40
1
40
1
40
1
41
1
10
16.6962635973084
20
-4.72922709311428
30
0
41
1
10
17.0983341498414
20
-4.88452264642757
30
0
41
1
10
17.4994480089774
20
-5.02491950994511
30
0
41
1
10
18.0985727395386
20
-5.21527115274264
30
0
41
1
10
18.2978617478279
20
-5.27532003999704
30
0
41
1
10
18.6954536326566
20
-5.38869057750932
30
0
41
1
10
18.8939345452572
20
-5.44186086123142
30
0
41
1
10
19.4900614471857
20
-5.58987066392311
30
0
41
1
10
19.8876419331337
20
-5.67384455745358
30
0
41
1
10
20.4832649186193
20
-5.77819389298662
30
0
41
1
10
20.6815621351815
20
-5.80938244870819
30
0
41
1
10
21.0792394416619
20
-5.86389973485299
30
0
41
1
10
21.2785454353923
20
-5.88728494285485
30
0
41
1
10
21.6777900291785
20
-5.92641739315323
30
0
41
1
10
21.8777486120633
20
-5.94215721746735
30
0
41
1
10
22.2782000764509
20
-5.96588411155278
30
0
41
1
10
22.4785471851831
20
-5.97387509000015
30
0
41
1
10
22.7761929218345
20
-5.97975712005655
30
0
41
1
10
22.8729556799585
20
-5.98073434994004
30
0
41
1
10
22.9696829289449
20
-5.98078916301992
30
0
0
SPLINE
5
BE
100
AcDbEntity
8
1
62
256
6
ByLayer
370
18
48
1
60
0
100
AcDbSpline
70
4
71
3
72
28
73
24
40
0
40
0
40
0
40
0
40
0.08735027166986
40
0.08735027166986
40
0.217728804288451
40
0.217728804288451
40
0.282918070597747
40
0.282918070597747
40
0.348107336907043
40
0.348107336907043
40
0.413296603216339
40
0.413296603216339
40
0.478485869525635
40
0.478485869525635
40
0.608864402144226
40
0.608864402144226
40
0.674053668453522
40
0.674053668453522
40
0.739242934762818
40
0.739242934762818
40
0.869621467381409
40
0.869621467381409
40
1
40
1
40
1
40
1
41
1
10
45.7988557635139
20
4.39588630244126
30
0
41
1
10
46.0655997654456
20
4.51032023318137
30
0
41
1
10
46.3327318594835
20
4.62000742418775
30
0
41
1
10
47.001892637191
20
4.87886728312969
30
0
41
1
10
47.4058583736685
20
5.02200286168977
30
0
41
1
10
48.0056259578306
20
5.21602054828259
30
0
41
1
10
48.2049862487558
20
5.27720925687464
30
0
41
1
10
48.6037499310751
20
5.39184717718675
30
0
41
1
10
48.8029613974908
20
5.44546284967214
30
0
41
1
10
49.2008797157506
20
5.54550475465444
30
0
41
1
10
49.3995942527891
20
5.59192603429165
30
0
41
1
10
49.7963511153541
20
5.67764534053271
30
0
41
1
10
49.9942692257701
20
5.71698416989392
30
0
41
1
10
50.588962948425
20
5.82327303190402
30
0
41
1
10
50.9863635585225
20
5.87883398424455
30
0
41
1
10
51.5826827004455
20
5.93962804750439
30
0
41
1
10
51.7813695824387
20
5.95612899939587
30
0
41
1
10
52.1794412347752
20
5.98127489223859
30
0
41
1
10
52.3790814083152
20
5.98989529662057
30
0
41
1
10
52.9795753809705
20
6.0039635899694
30
0
41
1
10
53.382928217852
20
5.99757770487713
30
0
41
1
10
54.1847623916402
20
5.95258266602173
30
0
41
1
10
54.5856789121965
20
5.91433197893946
30
0
41
1
10
54.9865831004466
20
5.86066151537304
30
0
0
SPLINE
5
BF
100
AcDbEntity
8
1
62
256
6
ByLayer
370
13
48
1
60
0
100
AcDbSpline
70
4
71
3
72
14
73
10
40
0
40
0
40
0
40
0
40
0.311792114538963
40
0.311792114538963
40
0.483844085904222
40
0.483844085904222
40
0.655896057269482
40
0.655896057269482
40
1
40
1
40
1
40
1
41
1
10
4.25041500201513
20
-5.70460259686152
30
0
41
1
10
4.2504445231844
20
-5.70116558025396
30
0
41
1
10
4.25048096192305
20
-5.66244011118692
30
0
41
1
10
4.25054578914956
20
-5.5492224835528
30
0
41
1
10
4.25057049100883
20
-5.49835666637603
30
0
41
1
10
4.25062210068805
20
-5.37527407975958
30
0
41
1
10
4.25064863273587
20
-5.30396149538348
30
0
41
1
10
4.25072853846584
20
-5.06172634375744
30
0
41
1
10
4.25078235054823
20
-4.86282000161279
30
0
41
1
10
4.25083056310788
20
-4.62532172253262
30
0
0
SPLINE
5
C0
100
AcDbEntity
8
1
62
256
6
ByLayer
370
18
48
1
60
0
100
AcDbSpline
70
4
71
3
72
16
73
12
40
0
40
0
40
0
40
0
40
0.25000000000002
40
0.25000000000002
40
0.375000000000037
40
0.375000000000037
40
0.500000000000054
40
0.500000000000054
40
0.750000000000027
40
0.750000000000027
40
1
40
1
40
1
40
1
41
1
10
54.0433854016148
20
1.41532694732922
30
0
41
1
10
54.0363650229737
20
1.44348437560546
30
0
41
1
10
54.0337879782259
20
1.47288139368197
30
0
41
1
10
54.0394803915548
20
1.51689405686699
30
0
41
1
10
54.0429348223081
20
1.53131670893521
30
0
41
1
10
54.0534637969498
20
1.55956877052574
30
0
41
1
10
54.0606628167183
20
1.57345246955975
30
0
41
1
10
54.086858772848
20
1.61126767810438
30
0
41
1
10
54.1113827885745
20
1.63224527924672
30
0
41
1
10
54.1663721211917
20
1.6632385886661
30
0
41
1
10
54.1964308288877
20
1.6726229129745
30
0
41
1
10
54.2273504391339
20
1.67825771120482
30
0
0
SPLINE
5
C1
100
AcDbEntity
8
1
62
256
6
ByLayer
370
18
48
1
60
0
100
AcDbSpline
70
4
71
3
72
8
73
4
40
0
40
0
40
0
40
0
40
1
40
1
40
1
40
1
41
1
10
54.9003721472147
20
-5.9553868747056
30
0
41
1
10
54.9214812141037
20
-5.89905269456611
30
0
41
1
10
54.9425725627202
20
-5.84266866016787
30
0
41
1
10
54.9636461699129
20
-5.78623470636896
30
0
0
SPLINE
5
C2
100
AcDbEntity
8
1
62
256
6
ByLayer
370
18
48
1
60
0
100
AcDbSpline
70
4
71
3
72
18
73
14
40
0
40
0
40
0
40
0
40
0.0745082733211316
40
0.0745082733211316
40
0.396372206817785
40
0.396372206817785
40
0.718236140314439
40
0.718236140314439
40
0.879168107062765
40
0.879168107062765
40
0.959634090436928
40
0.959634090436928
40
1
40
1
40
1
40
1
41
1
10
13.2255041813654
20
-3.24148785778817
30
0
41
1
10
13.1642378714322
20
-3.30407142211237
30
0
41
1
10
13.1031731354484
20
-3.36715211598138
30
0
41
1
10
12.7789389401322
20
-3.70497102302932
30
0
41
1
10
12.5180638700708
20
-3.98767001582218
30
0
41
1
10
11.9819253599818
20
-4.55125549245048
30
0
41
1
10
11.71527473594
20
-4.82263183580761
30
0
41
1
10
11.2978700141526
20
-5.19247634466262
30
0
41
1
10
11.15576703944
20
-5.30948262647442
30
0
41
1
10
10.9354283828826
20
-5.47264208652135
30
0
41
1
10
10.8608498478531
20
-5.52488533719031
30
0
41
1
10
10.7488416904782
20
-5.59865633746873
30
0
41
1
10
10.7113373669959
20
-5.62257993667978
30
0
41
1
10
10.6737332997702
20
-5.64578762800824
30
0
0
SPLINE
5
C3
100
AcDbEntity
8
1
62
256
6
ByLayer
370
18
48
1
60
0
100
AcDbSpline
70
4
71
3
72
18
73
14
40
0
40
0
40
0
40
0
40
0.0198529653647384
40
0.0198529653647384
40
0.226657014137062
40
0.226657014137062
40
0.640265111681708
40
0.640265111681708
40
0.743667136067869
40
0.743667136067869
40
0.847069160454029
40
0.847069160454029
40
1
40
1
40
1
40
1
41
1
10
8.8206335738106
20
-0.0049039136686986
30
0
41
1
10
8.87177283250031
20
-0.0360343311008648
30
0
41
1
10
8.92288984889015
20
-0.0671488621746619
30
0
41
1
10
9.5060520236419
20
-0.422041434521105
30
0
41
1
10
10.034579735966
20
-0.743383155892673
30
0
41
1
10
11.6152793023554
20
-1.69094757703291
30
0
41
1
10
12.663504484552
20
-2.29921604789996
30
0
41
1
10
13.9851938374589
20
-3.00081721528551
30
0
41
1
10
14.2501167818351
20
-3.13818429570094
30
0
41
1
10
14.7817093233001
20
-3.40610004186624
30
0
41
1
10
15.0488135083481
20
-3.53684103448788
30
0
41
1
10
15.7075037370995
20
-3.84872593813012
30
0
41
1
10
16.0986505000506
20
-4.02460478760236
30
0
41
1
10
16.4887456523568
20
-4.1895626600637
30
0
0
SPLINE
5
C4
100
AcDbEntity
8
1
62
256
6
ByLayer
370
13
48
1
60
0
100
AcDbSpline
70
4
71
3
72
18
73
14
40
0
40
0
40
0
40
0
40
0.046139400712457
40
0.046139400712457
40
0.400372472429689
40
0.400372472429689
40
0.488930740358996
40
0.488930740358996
40
0.577489008288303
40
0.577489008288303
40
0.754605544146917
40
0.754605544146917
40
1
40
1
40
1
40
1
41
1
10
16.48874657343
20
-4.18956304955395
30
0
41
1
10
16.6261657544016
20
-4.24767290641398
30
0
41
1
10
16.7634544360295
20
-4.30442752666701
30
0
41
1
10
17.9539351225419
20
-4.78487764228282
30
0
41
1
10
19.0018392736773
20
-5.12813707681875
30
0
41
1
10
20.3242513381882
20
-5.43619407776697
30
0
41
1
10
20.5893329745809
20
-5.49176052749283
30
0
41
1
10
21.1212799911501
20
-5.59028802064071
30
0
41
1
10
21.3881926017359
20
-5.63322668364495
30
0
41
1
10
22.1845091012899
20
-5.74149503356622
30
0
41
1
10
22.712136634255
20
-5.78690113079008
30
0
41
1
10
23.968047832793
20
-5.83178435354588
30
0
41
1
10
24.695070093392
20
-5.80680596356027
30
0
41
1
10
25.4249188577062
20
-5.73113702519191
30
0
0
SPLINE
5
C5
100
AcDbEntity
8
1
62
256
6
ByLayer
370
18
48
1
60
0
100
AcDbSpline
70
4
71
3
72
12
73
8
40
0
40
0
40
0
40
0
40
0.249999999999992
40
0.249999999999992
40
0.499999999999984
40
0.499999999999984
40
1
40
1
40
1
40
1
41
1
10
54.9636461699129
20
-5.78623470636896
30
0
41
1
10
54.9686114977515
20
-5.77293783321011
30
0
41
1
10
54.9733905733758
20
-5.75930591308938
30
0
41
1
10
54.9812114397483
20
-5.73487677775236
30
0
41
1
10
54.9842276457582
20
-5.72411277632997
30
0
41
1
10
54.9894217381943
20
-5.70084107258609
30
0
41
1
10
54.9881133208474
20
-5.69680240912618
30
0
41
1
10
54.9843733955777
20
-5.69991356144234
30
0
0
SPLINE
5
C6
100
AcDbEntity
8
1
62
256
6
ByLayer
370
18
48
1
60
0
100
AcDbSpline
70
4
71
3
72
18
73
14
40
0
40
0
40
0
40
0
40
0.0421243591524671
40
0.0421243591524671
40
0.429261746271291
40
0.429261746271291
40
0.6228304398307
40
0.6228304398307
40
0.719614786610405
40
0.719614786610405
40
0.81639913339011
40
0.81639913339011
40
1
40
1
40
1
40
1
41
1
10
38.7696950846554
20
-0.0041607736214075
30
0
41
1
10
38.8855011696614
20
-0.074931418936103
30
0
41
1
10
39.001369708609
20
-0.145741679563884
30
0
41
1
10
40.181240761309
20
-0.866246280705838
30
0
41
1
10
41.2304908303803
20
-1.50276122856468
30
0
41
1
10
42.8056383270264
20
-2.40095374656946
30
0
41
1
10
43.3308153872808
20
-2.69104771273729
30
0
41
1
10
44.1218707027338
20
-3.10735281378749
30
0
41
1
10
44.386106833879
20
-3.2429776434964
30
0
41
1
10
44.9161029415623
20
-3.50728409044623
30
0
41
1
10
45.182411319951
20
-3.63620319554082
30
0
41
1
10
45.9531876187841
20
-3.99656881520602
30
0
41
1
10
46.4544972593943
20
-4.21514858071814
30
0
41
1
10
46.9540881561326
20
-4.41489930127742
30
0
0
SPLINE
5
C7
100
AcDbEntity
8
1
62
256
6
ByLayer
370
13
48
1
60
0
100
AcDbSpline
70
4
71
3
72
20
73
16
40
0
40
0
40
0
40
0
40
0.208155215176028
40
0.208155215176028
40
0.406116411382018
40
0.406116411382018
40
0.505097009485015
40
0.505097009485015
40
0.604077607588013
40
0.604077607588013
40
0.802038803794006
40
0.802038803794006
40
0.901019401897003
40
0.901019401897003
40
1
40
1
40
1
40
1
41
1
10
46.9540881566419
20
-4.41489930148106
30
0
41
1
10
47.5079253723708
20
-4.63633925090735
30
0
41
1
10
48.0596503328382
20
-4.83463919097295
30
0
41
1
10
49.1364480467112
20
-5.17256538386528
30
0
41
1
10
49.6615380163539
20
-5.31456627764368
30
0
41
1
10
50.452301062582
20
-5.49093083567078
30
0
41
1
10
50.7164081424713
20
-5.54361292354034
30
0
41
1
10
51.2461473242863
20
-5.63632960513098
30
0
41
1
10
51.5121433397636
20
-5.67640552854627
30
0
41
1
10
52.3107940694823
20
-5.77659575403371
30
0
41
1
10
52.8411758623116
20
-5.81646883229965
30
0
41
1
10
53.6365649456808
20
-5.83569950971008
30
0
41
1
10
53.9016594879606
20
-5.83533723168816
30
0
41
1
10
54.4322451096145
20
-5.8210041897328
30
0
41
1
10
54.6977699118187
20
-5.80656457116461
30
0
41
1
10
54.963646169913
20
-5.78623470636896
30
0
0
SPLINE
5
C8
100
AcDbEntity
8
1
62
256
6
ByLayer
370
18
48
1
60
0
100
AcDbSpline
70
4
71
3
72
40
73
36
40
0
40
0
40
0
40
0
40
0.249999999999983
40
0.249999999999983
40
0.374999999999977
40
0.374999999999977
40
0.437499999999974
40
0.437499999999974
40
0.499999999999971
40
0.499999999999971
40
0.624999999999964
40
0.624999999999964
40
0.687499999999964
40
0.687499999999964
40
0.749999999999963
40
0.749999999999963
40
0.765624999999964
40
0.765624999999964
40
0.781249999999965
40
0.781249999999965
40
0.812499999999971
40
0.812499999999971
40
0.843749999999977
40
0.843749999999977
40
0.874999999999983
40
0.874999999999983
40
0.906249999999989
40
0.906249999999989
40
0.92187499999999
40
0.92187499999999
40
0.937499999999992
40
0.937499999999992
40
0.968749999999996
40
0.968749999999996
40
1
40
1
40
1
40
1
41
1
10
48.6438462268763
20
3.14557700720726
30
0
41
1
10
49.1064754658584
20
2.73104397019813
30
0
41
1
10
49.5845012401111
20
2.35304052479182
30
0
41
1
10
50.3276989407747
20
1.84809990594462
30
0
41
1
10
50.5797789586871
20
1.69010106425625
30
0
41
1
10
50.9652523918281
20
1.47054938456111
30
0
41
1
10
51.0951925673582
20
1.40018070025664
30
0
41
1
10
51.355200085929
20
1.26703377534852
30
0
41
1
10
51.4855252353906
20
1.20409637462538
30
0
41
1
10
51.8775292745741
20
1.02692117917661
30
0
41
1
10
52.141181462973
20
0.923997752892944
30
0
41
1
10
52.5343055391372
20
0.79847889742976
30
0
41
1
10
52.6650095577883
20
0.761419911706838
30
0
41
1
10
52.9256805436437
20
0.697747104080321
30
0
41
1
10
53.0557355277489
20
0.671127904401118
30
0
41
1
10
53.2168182720562
20
0.645261835540055
30
0
41
1
10
53.2489680859909
20
0.640477393853871
30
0
41
1
10
53.3127498919086
20
0.633199032954792
30
0
41
1
10
53.3444600615367
20
0.630439629678165
30
0
41
1
10
53.4386167592164
20
0.624935741696476
30
0
41
1
10
53.5001730259735
20
0.624960267587909
30
0
41
1
10
53.6202932346825
20
0.634107451967566
30
0
41
1
10
53.679004060399
20
0.643392555227337
30
0
41
1
10
53.7881645816524
20
0.675257094434869
30
0
41
1
10
53.8388886063642
20
0.698019702780414
30
0
41
1
10
53.9305721322663
20
0.760840283337728
30
0
41
1
10
53.9696349480068
20
0.800043085786996
30
0
41
1
10
54.016342452956
20
0.870971753433224
30
0
41
1
10
54.0299988085626
20
0.896870985568427
30
0
41
1
10
54.0523287736455
20
0.951341162248497
30
0
41
1
10
54.0611180498854
20
0.980067229037559
30
0
41
1
10
54.0804581010249
20
1.07065601875624
30
0
41
1
10
54.0836323707444
20
1.13760885022509
30
0
41
1
10
54.0736376327488
20
1.27382761830808
30
0
41
1
10
54.0610970544455
20
1.34428881395678
30
0
41
1
10
54.0433854016148
20
1.41532694732922
30
0
0
SPLINE
5
C9
100
AcDbEntity
8
1
62
256
6
ByLayer
370
18
48
1
60
0
100
AcDbSpline
70
4
71
3
72
8
73
4
40
0
40
0
40
0
40
0
40
1
40
1
40
1
40
1
41
1
10
54.9843733955777
20
-5.69991356144232
30
0
41
1
10
54.9563383441923
20
-5.72323523467168
30
0
41
1
10
54.9324107373308
20
-5.73496900958855
30
0
41
1
10
54.9126533263457
20
-5.73493785243934
30
0
0
SPLINE
5
CA
100
AcDbEntity
8
1
62
256
6
ByLayer
370
18
48
1
60
0
100
AcDbSpline
70
4
71
3
72
8
73
4
40
0
40
0
40
0
40
0
40
1
40
1
40
1
40
1
41
1
10
54.9003721472147
20
5.95538687470562
30
0
41
1
10
54.5117801212556
20
5.98495098406002
30
0
41
1
10
54.1232337298437
20
5.99958741177915
30
0
41
1
10
53.7343038910865
20
5.99924806852059
30
0
0
SPLINE
5
CB
100
AcDbEntity
8
1
62
256
6
ByLayer
370
18
48
1
60
0
100
AcDbSpline
70
4
71
3
72
40
73
36
40
0
40
0
40
0
40
0
40
0.0104258736523939
40
0.0104258736523939
40
0.0811097398200801
40
0.0811097398200801
40
0.151793605987766
40
0.151793605987766
40
0.222477472155452
40
0.222477472155452
40
0.257819405239296
40
0.257819405239296
40
0.29316133832314
40
0.29316133832314
40
0.363845204490827
40
0.363845204490827
40
0.39918713757467
40
0.39918713757467
40
0.434529070658513
40
0.434529070658513
40
0.505212936826199
40
0.505212936826199
40
0.575896802993886
40
0.575896802993886
40
0.646580669161572
40
0.646580669161572
40
0.717264535329258
40
0.717264535329258
40
0.787948401496944
40
0.787948401496944
40
0.823290334580787
40
0.823290334580787
40
0.85863226766463
40
0.85863226766463
40
1
40
1
40
1
40
1
41
1
10
26.6095885450264
20
-5.72277165956299
30
0
41
1
10
26.5313282168511
20
-5.73705284980323
30
0
41
1
10
26.4530337878219
20
-5.75076137655407
30
0
41
1
10
25.8436121286136
20
-5.85291917285642
30
0
41
1
10
25.3138561522145
20
-5.91485881478667
30
0
41
1
10
24.2549244058147
20
-5.9835660539803
30
0
41
1
10
23.7249872348567
20
-5.99037941209957
30
0
41
1
10
22.6628543902623
20
-5.948275191725
30
0
41
1
10
22.1336536610233
20
-5.89951027149314
30
0
41
1
10
21.3393100692832
20
-5.78593225807651
30
0
41
1
10
21.0744468905031
20
-5.74133510099713
30
0
41
1
10
20.5441236435831
20
-5.63878304557366
30
0
41
1
10
20.2783193654427
20
-5.58075344782159
30
0
41
1
10
19.4822625443934
20
-5.38778888116713
30
0
41
1
10
18.953167868922
20
-5.23385537193695
30
0
41
1
10
18.1585911998389
20
-4.96771813909157
30
0
41
1
10
17.8935852292691
20
-4.87312953891072
30
0
41
1
10
17.3628758115892
20
-4.67248709453321
30
0
41
1
10
17.0970815875878
20
-4.56640645714461
30
0
41
1
10
16.301550863006
20
-4.2335060856656
30
0
41
1
10
15.7724380591969
20
-3.99150838654074
30
0
41
1
10
14.7126204965716
20
-3.47227045117765
30
0
41
1
10
14.1807720265256
20
-3.19428872902074
30
0
41
1
10
13.1205357271378
20
-2.61308602278828
30
0
41
1
10
12.5913729565997
20
-2.3097342776866
30
0
41
1
10
11.5308914677173
20
-1.68351432172744
30
0
41
1
10
10.9991020836537
20
-1.35978663492128
30
0
41
1
10
9.93928656055886
20
-0.70534413471168
30
0
41
1
10
9.41000445651866
20
-0.374111115275923
30
0
41
1
10
8.61412812891501
20
0.124140205286409
30
0
41
1
10
8.34816406063493
20
0.290789949507911
30
0
41
1
10
7.81760559939164
20
0.622211871674693
30
0
41
1
10
7.552966215965
20
0.787037061519356
30
0
41
1
10
6.23149426790545
20
1.60444809263203
30
0
41
1
10
5.17972953732985
20
2.2367721220019
30
0
41
1
10
4.11732925150392
20
2.82260464409885
30
0
0
SPLINE
5
CC
100
AcDbEntity
8
1
62
256
6
ByLayer
370
18
48
1
60
0
100
AcDbSpline
70
4
71
3
72
14
73
10
40
0
40
0
40
0
40
0
40
0.25
40
0.25
40
0.5
40
0.5
40
0.75
40
0.75
40
1
40
1
40
1
40
1
41
1
10
4.11732925150386
20
2.82260464409887
30
0
41
1
10
4.0992960540282
20
2.83254857361357
30
0
41
1
10
4.0830669322844
20
2.84426147324334
30
0
41
1
10
4.05410228619485
20
2.87107402272326
30
0
41
1
10
4.04143957109335
20
2.88623366325797
30
0
41
1
10
4.02112363771329
20
2.91829885620828
30
0
41
1
10
4.01318251859237
20
2.93565807468155
30
0
41
1
10
4.00266929693672
20
2.97108091596067
30
0
41
1
10
4.00000001022008
20
2.98912338343746
30
0
41
1
10
4.00000001022008
20
3.00750200566372
30
0
0
SPLINE
5
CD
100
AcDbEntity
8
1
62
256
6
ByLayer
370
18
48
1
60
0
100
AcDbSpline
70
4
71
3
72
22
73
18
40
0
40
0
40
0
40
0
40
0.125
40
0.125
40
0.25
40
0.25
40
0.5
40
0.5
40
0.625
40
0.625
40
0.75
40
0.75
40
0.875
40
0.875
40
0.9375
40
0.9375
40
1
40
1
40
1
40
1
41
1
10
56.0960992017719
20
2.92552166161036
30
0
41
1
10
56.0501567650148
20
3.04891993903206
30
0
41
1
10
56.0041719672665
20
3.17221142342044
30
0
41
1
10
55.9120923456118
20
3.41851701372082
30
0
41
1
10
55.8659865103524
20
3.54150335975854
30
0
41
1
10
55.7276061043182
20
3.91030382487892
30
0
41
1
10
55.635308070931
20
4.15608857973896
30
0
41
1
10
55.4966179658951
20
4.52373139767687
30
0
41
1
10
55.4503366167137
20
4.64602602769679
30
0
41
1
10
55.3577082786461
20
4.89029168769628
30
0
41
1
10
55.3113884946993
20
5.01239684503906
30
0
41
1
10
55.2186944573721
20
5.25622541578534
30
0
41
1
10
55.1723071654509
20
5.37800387600433
30
0
41
1
10
55.102685624364
20
5.5595654849788
30
0
41
1
10
55.0794691253805
20
5.61987528172787
30
0
41
1
10
55.0330312826231
20
5.74038531083113
30
0
41
1
10
55.0098102795636
20
5.80059324840346
30
0
41
1
10
54.9865831004574
20
5.8606615153721
30
0
0
SPLINE
5
CE
100
AcDbEntity
8
1
62
256
6
ByLayer
370
18
48
1
60
0
100
AcDbSpline
70
4
71
3
72
8
73
4
40
0
40
0
40
0
40
0
40
1
40
1
40
1
40
1
41
1
10
16.6962851980325
20
4.72926721939831
30
0
41
1
10
16.4140343530007
20
4.62052807520391
30
0
41
1
10
16.1306062347999
20
4.50712771314187
30
0
41
1
10
15.8456621940979
20
4.389985895747
30
0
0
SPLINE
5
CF
100
AcDbEntity
8
1
62
256
6
ByLayer
370
18
48
1
60
0
100
AcDbSpline
70
4
71
3
72
24
73
20
40
0
40
0
40
0
40
0
40
0.250000000000007
40
0.250000000000007
40
0.375000000000002
40
0.375000000000002
40
0.499999999999997
40
0.499999999999997
40
0.624999999999993
40
0.624999999999993
40
0.749999999999988
40
0.749999999999988
40
0.812499999999991
40
0.812499999999991
40
0.874999999999994
40
0.874999999999994
40
0.937499999999997
40
0.937499999999997
40
1
40
1
40
1
40
1
41
1
10
54.2273504391339
20
1.67825771120479
30
0
41
1
10
54.4299205297987
20
1.71517413994684
30
0
41
1
10
54.6316333732412
20
1.75773184745401
30
0
41
1
10
54.9319128622861
20
1.83724971359112
30
0
41
1
10
55.0313245124182
20
1.8663533992918
30
0
41
1
10
55.227363516162
20
1.93174770864945
30
0
41
1
10
55.3244370196675
20
1.96816421581613
30
0
41
1
10
55.5129111788626
20
2.05135542886686
30
0
41
1
10
55.604262834625
20
2.09793594483844
30
0
41
1
10
55.7774005223728
20
2.20795365732661
30
0
41
1
10
55.8602126147787
20
2.2722267014347
30
0
41
1
10
55.9642928265308
20
2.38691587705705
30
0
41
1
10
55.9960245265044
20
2.42887758869622
30
0
41
1
10
56.0484446181798
20
2.51778866748921
30
0
41
1
10
56.0693583397181
20
2.56481537997908
30
0
41
1
10
56.0988923061987
20
2.66490381498863
30
0
41
1
10
56.1070427150035
20
2.7171741644822
30
0
41
1
10
56.1104305612908
20
2.82116728327532
30
0
41
1
10
56.1057416783027
20
2.87414355407259
30
0
41
1
10
56.0960992017694
20
2.92552166160934
30
0
0
SPLINE
5
D0
100
AcDbEntity
8
1
62
256
6
ByLayer
370
18
48
1
60
0
100
AcDbSpline
70
4
71
3
72
32
73
28
40
0
40
0
40
0
40
0
40
0.0625000000000021
40
0.0625000000000021
40
0.0937500000000031
40
0.0937500000000031
40
0.125000000000004
40
0.125000000000004
40
0.187500000000005
40
0.187500000000005
40
0.250000000000005
40
0.250000000000005
40
0.375000000000006
40
0.375000000000006
40
0.437500000000007
40
0.437500000000007
40
0.500000000000008
40
0.500000000000008
40
0.625000000000006
40
0.625000000000006
40
0.687500000000005
40
0.687500000000005
40
0.750000000000004
40
0.750000000000004
40
0.875000000000002
40
0.875000000000002
40
1
40
1
40
1
40
1
41
1
10
48.6438462268762
20
3.14557700720726
30
0
41
1
10
48.6417935595391
20
2.98848606475585
30
0
41
1
10
48.6532072695571
20
2.82682118063093
30
0
41
1
10
48.6904444396551
20
2.57749112015742
30
0
41
1
10
48.7063157888988
20
2.49282339372669
30
0
41
1
10
48.7443114170077
20
2.32340283079583
30
0
41
1
10
48.7663524555866
20
2.23884679328802
30
0
41
1
10
48.8409591294909
20
1.98560866467756
30
0
41
1
10
48.9019770477849
20
1.81735497232327
30
0
41
1
10
49.0440709693351
20
1.48186421927761
30
0
41
1
10
49.1257834215264
20
1.31360625479476
30
0
41
1
10
49.3917496062782
20
0.822124231889461
30
0
41
1
10
49.5971972577158
20
0.509199599918219
30
0
41
1
10
49.9362705663028
20
0.0559902032255764
30
0
41
1
10
50.0550537908417
20
-0.0929368799793906
30
0
41
1
10
50.2987653207855
20
-0.382151866427307
30
0
41
1
10
50.4237320421127
20
-0.52256873251423
30
0
41
1
10
50.8067253148759
20
-0.932917473786887
30
0
41
1
10
51.0728257413128
20
-1.19197340093123
30
0
41
1
10
51.4848998201515
20
-1.56314871731885
30
0
41
1
10
51.624422772887
20
-1.68395754928875
30
0
41
1
10
51.9074378293209
20
-1.92022855135497
30
0
41
1
10
52.0512260331915
20
-2.03589911447167
30
0
41
1
10
52.4857180724085
20
-2.37322982824824
30
0
41
1
10
52.779591334079
20
-2.5851461509526
30
0
41
1
10
53.3742846935036
20
-2.98758557424989
30
0
41
1
10
53.67503931955
20
-3.17831029911761
30
0
41
1
10
53.9788376670624
20
-3.35966169077525
30
0
0
SPLINE
5
D1
100
AcDbEntity
8
1
62
256
6
ByLayer
370
18
48
1
60
0
100
AcDbSpline
70
2053
71
3
72
62
73
58
40
0
40
0
40
0
40
0
40
0.0312499999999999
40
0.0312499999999999
40
0.0624999999999999
40
0.0624999999999999
40
0.0937499999999998
40
0.0937499999999998
40
0.125
40
0.125
40
0.15625
40
0.15625
40
0.1875
40
0.1875
40
0.21875
40
0.21875
40
0.25
40
0.25
40
0.281249999999999
40
0.281249999999999
40
0.312499999999999
40
0.312499999999999
40
0.374999999999997
40
0.374999999999997
40
0.437499999999994
40
0.437499999999994
40
0.468749999999994
40
0.468749999999994
40
0.499999999999995
40
0.499999999999995
40
0.531249999999995
40
0.531249999999995
40
0.562499999999996
40
0.562499999999996
40
0.593749999999996
40
0.593749999999996
40
0.624999999999996
40
0.624999999999996
40
0.656249999999997
40
0.656249999999997
40
0.687499999999997
40
0.687499999999997
40
0.749999999999998
40
0.749999999999998
40
0.781249999999998
40
0.781249999999998
40
0.812499999999997
40
0.812499999999997
40
0.843749999999997
40
0.843749999999997
40
0.874999999999997
40
0.874999999999997
40
0.906249999999997
40
0.906249999999997
40
0.937499999999997
40
0.937499999999997
40
1
40
1
40
1
40
1
41
1
10
55.3454370599955
20
-2.07427529240791
30
0
41
1
10
55.3171771698912
20
-2.11373458298164
30
0
41
1
10
55.2894502781297
20
-2.15614407582723
30
0
41
1
10
55.2351607431941
20
-2.24740730071136
30
0
41
1
10
55.2083006756449
20
-2.29687009145198
30
0
41
1
10
55.1576420207068
20
-2.40031782126232
30
0
41
1
10
55.1339084266299
20
-2.45402407957727
30
0
41
1
10
55.0901282426064
20
-2.56601699336184
30
0
41
1
10
55.0706275309922
20
-2.62307862373257
30
0
41
1
10
55.037999178218
20
-2.73554548061716
30
0
41
1
10
55.0245316524281
20
-2.79240607635546
30
0
41
1
10
55.0054674154816
20
-2.89900259528761
30
0
41
1
10
54.9996058528536
20
-2.94975230538628
30
0
41
1
10
54.9953397922518
20
-3.04284146406366
30
0
41
1
10
54.9968831539116
20
-3.08443722753063
30
0
41
1
10
55.006568044507
20
-3.15874691724824
30
0
41
1
10
55.0146038694513
20
-3.19044734762846
30
0
41
1
10
55.0359683101975
20
-3.24383839614799
30
0
41
1
10
55.0494234525406
20
-3.26561755253889
30
0
41
1
10
55.0802224160731
20
-3.2989644195207
30
0
41
1
10
55.0976521658695
20
-3.31079972650392
30
0
41
1
10
55.1555758417304
20
-3.33287881530126
30
0
41
1
10
55.1999738216858
20
-3.32940573558909
30
0
41
1
10
55.2980881028536
20
-3.29039635607373
30
0
41
1
10
55.3500564170737
20
-3.25560915693987
30
0
41
1
10
55.4324097125182
20
-3.1803257734426
30
0
41
1
10
55.4603119381143
20
-3.15152097540315
30
0
41
1
10
55.5159165747926
20
-3.08749746028468
30
0
41
1
10
55.5437853767396
20
-3.0521361340507
30
0
41
1
10
55.5996694819534
20
-2.97403247071921
30
0
41
1
10
55.6279434118732
20
-2.93081919083147
30
0
41
1
10
55.6824824443356
20
-2.83917456712024
30
0
41
1
10
55.70893341064
20
-2.79056578623596
30
0
41
1
10
55.7599308536191
20
-2.68686505075502
30
0
41
1
10
55.7841310762762
20
-2.63235523453181
30
0
41
1
10
55.8279078436121
20
-2.52123739334979
30
0
41
1
10
55.8479547405994
20
-2.46326377475725
30
0
41
1
10
55.8811644650901
20
-2.35019130209363
30
0
41
1
10
55.8946491895471
20
-2.29433161379117
30
0
41
1
10
55.9144583417381
20
-2.18599062877445
30
0
41
1
10
55.9204282666291
20
-2.13563955500427
30
0
41
1
10
55.9272990198813
20
-1.99530205996172
30
0
41
1
10
55.9164582909613
20
-1.920275883697
30
0
41
1
10
55.8841191269205
20
-1.84066672694402
30
0
41
1
10
55.8705924944596
20
-1.81915225199168
30
0
41
1
10
55.8393708008711
20
-1.78610033774856
30
0
41
1
10
55.8218061058216
20
-1.77457436993839
30
0
41
1
10
55.7832137120743
20
-1.76038442305065
30
0
41
1
10
55.762087475438
20
-1.75779836867983
30
0
41
1
10
55.7177547265883
20
-1.76105350023536
30
0
41
1
10
55.6944199842428
20
-1.76682046517538
30
0
41
1
10
55.645505487114
20
-1.78630822743904
30
0
41
1
10
55.6198184371547
20
-1.80014757926511
30
0
41
1
10
55.5676250085546
20
-1.83501215989716
30
0
41
1
10
55.5409588174973
20
-1.85607477613235
30
0
41
1
10
55.4592147613111
20
-1.93038980808313
30
0
41
1
10
55.4019568402041
20
-1.99535671126046
30
0
41
1
10
55.3454370599955
20
-2.07427529240791
30
0
0
SPLINE
5
D2
100
AcDbEntity
8
1
62
256
6
ByLayer
370
18
48
1
60
0
100
AcDbSpline
70
4
71
3
72
16
73
12
40
0
40
0
40
0
40
0
40
0.229408896761014
40
0.229408896761014
40
0.458817793522027
40
0.458817793522027
40
0.688226690283041
40
0.688226690283041
40
0.917635587044055
40
0.917635587044055
40
1
40
1
40
1
40
1
41
1
10
10.6738282236269
20
-5.64572904323731
30
0
41
1
10
11.0704816376134
20
-5.61021421807612
30
0
41
1
10
11.4665527085471
20
-5.56169617267665
30
0
41
1
10
12.2572954700338
20
-5.43639786764317
30
0
41
1
10
12.6519819202551
20
-5.35806968918379
30
0
41
1
10
13.4435149032689
20
-5.17392591964384
30
0
41
1
10
13.8407508833534
20
-5.06783097680125
30
0
41
1
10
14.632699599308
20
-4.83102536022093
30
0
41
1
10
15.0279346719922
20
-4.70109275603687
30
0
41
1
10
15.565489885466
20
-4.5077805947632
30
0
41
1
10
15.7074743582808
20
-4.45511795897104
30
0
41
1
10
15.8494768593443
20
-4.40092121240068
30
0
0
SPLINE
5
D3
100
AcDbEntity
8
1
62
256
6
ByLayer
370
18
48
1
60
0
100
AcDbSpline
70
4
71
3
72
32
73
28
40
0
40
0
40
0
40
0
40
0.048344156723145
40
0.048344156723145
40
0.111787879608267
40
0.111787879608267
40
0.175231602493389
40
0.175231602493389
40
0.238675325378511
40
0.238675325378511
40
0.302119048263633
40
0.302119048263633
40
0.365562771148755
40
0.365562771148755
40
0.492450216919002
40
0.492450216919002
40
0.555893939804127
40
0.555893939804127
40
0.619337662689252
40
0.619337662689252
40
0.746225108459502
40
0.746225108459502
40
0.873112554229753
40
0.873112554229753
40
0.936556277114877
40
0.936556277114877
40
1
40
1
40
1
40
1
41
1
10
39.2796411595477
20
5.72472169089255
30
0
41
1
10
39.4305356741774
20
5.72417969158897
30
0
41
1
10
39.5813171923438
20
5.72165246671065
30
0
41
1
10
39.9297624374945
20
5.71066484211181
30
0
41
1
10
40.1273957819208
20
5.70037222735431
30
0
41
1
10
40.523098259296
20
5.67249050436828
30
0
41
1
10
40.7210724965581
20
5.65492095469639
30
0
41
1
10
41.1171708202735
20
5.6131199789711
30
0
41
1
10
41.315287902291
20
5.58886446877247
30
0
41
1
10
41.7118977843893
20
5.53178640355921
30
0
41
1
10
41.9102145855869
20
5.4991947088549
30
0
41
1
10
42.3064491382213
20
5.42760303409261
30
0
41
1
10
42.5045480794079
20
5.38864983182813
30
0
41
1
10
43.0984979455935
20
5.26134943603205
30
0
41
1
10
43.4938986904574
20
5.16177089465393
30
0
41
1
10
44.087468066575
20
4.99440259187048
30
0
41
1
10
44.285567870607
20
4.93563283913869
30
0
41
1
10
44.6822966826051
20
4.81108442995836
30
0
41
1
10
44.8809872789307
20
4.74520722012289
30
0
41
1
10
45.475692019432
20
4.53835818027093
30
0
41
1
10
45.8708926171638
20
4.38786322835887
30
0
41
1
10
46.6624616007846
20
4.0672349278347
30
0
41
1
10
47.0583754224712
20
3.89710300926103
30
0
41
1
10
47.6527287787711
20
3.62605867353332
30
0
41
1
10
47.851132227727
20
3.53278195449798
30
0
41
1
10
48.2476903941773
20
3.34222311755184
30
0
41
1
10
48.4458448983954
20
3.24488546661368
30
0
41
1
10
48.6438462268762
20
3.14557700720718
30
0
0
SPLINE
5
D4
100
AcDbEntity
8
1
62
256
6
ByLayer
370
18
48
1
60
0
100
AcDbSpline
70
4
71
3
72
16
73
12
40
0
40
0
40
0
40
0
40
0.139685356504906
40
0.139685356504906
40
0.395997833552431
40
0.395997833552431
40
0.524154072076196
40
0.524154072076196
40
0.652310310599961
40
0.652310310599961
40
1
40
1
40
1
40
1
41
1
10
24.1381300295146
20
-5.71575401690899
30
0
41
1
10
23.8517668744439
20
-5.71842988884987
30
0
41
1
10
23.5653483066062
20
-5.71336657022422
30
0
41
1
10
22.7523417219694
20
-5.67702713795396
30
0
41
1
10
22.2249524353721
20
-5.62742988966937
30
0
41
1
10
21.4291454065544
20
-5.51368684708458
30
0
41
1
10
21.1624356254802
20
-5.46906295128838
30
0
41
1
10
20.6309238217209
20
-5.3675171464437
30
0
41
1
10
20.3660398531243
20
-5.31059274206774
30
0
41
1
10
19.3846879828672
20
-5.07732590379007
30
0
41
1
10
18.6720834088463
20
-4.86347998310296
30
0
41
1
10
17.9592732598308
20
-4.61092498863579
30
0
0
SPLINE
5
D5
100
AcDbEntity
8
1
62
256
6
ByLayer
370
13
48
1
60
0
100
AcDbSpline
70
4
71
3
72
24
73
20
40
0
40
0
40
0
40
0
40
0.0784939956121764
40
0.0784939956121764
40
0.200475128483875
40
0.200475128483875
40
0.261465694919724
40
0.261465694919724
40
0.322456261355574
40
0.322456261355574
40
0.56641852709897
40
0.56641852709897
40
0.688399659970668
40
0.688399659970668
40
0.749390226406517
40
0.749390226406517
40
0.810380792842367
40
0.810380792842367
40
1
40
1
40
1
40
1
41
1
10
17.9592732603714
20
-4.61092498882735
30
0
41
1
10
17.6211340107702
20
-4.49111923630895
30
0
41
1
10
17.2829485003087
20
-4.362602720751
30
0
41
1
10
16.4178298552282
20
-4.01340149778832
30
0
41
1
10
15.8900438596422
20
-3.78112572790951
30
0
41
1
10
15.0934471708802
20
-3.40576497191498
30
0
41
1
10
14.8265647310894
20
-3.27590567077081
30
0
41
1
10
14.2953827754466
20
-3.01004605440565
30
0
41
1
10
14.0306426959518
20
-2.87384530113474
30
0
41
1
10
12.7097920563162
20
-2.17874273401228
30
0
41
1
10
11.6619295206388
20
-1.57788576575032
30
0
41
1
10
10.082020795953
20
-0.644434831523085
30
0
41
1
10
9.5538067508453
20
-0.328282039712832
30
0
41
1
10
8.75625527137674
20
0.148854566863918
30
0
41
1
10
8.48940918630581
20
0.308535382010035
30
0
41
1
10
7.95800506944147
20
0.625573416141577
30
0
41
1
10
7.69289601308662
20
0.78325093418664
30
0
41
1
10
6.6048857190537
20
1.42586740485365
30
0
41
1
10
5.78472222438208
20
1.89961035119964
30
0
41
1
10
4.9603085039972
20
2.34884003595039
30
0
0
SPLINE
5
D6
100
AcDbEntity
8
1
62
256
6
ByLayer
370
18
48
1
60
0
100
AcDbSpline
70
4
71
3
72
8
73
4
40
0
40
0
40
0
40
0
40
1
40
1
40
1
40
1
41
1
10
4.00000001022013
20
-4.82222591981406
30
0
41
1
10
4.00000001022013
20
-4.82822994145099
30
0
41
1
10
4.00000001022016
20
-4.83423703618917
30
0
41
1
10
4.00000001022016
20
-4.84024404910539
30
0
0
SPLINE
5
D7
100
AcDbEntity
8
1
62
256
6
ByLayer
370
18
48
1
60
0
100
AcDbSpline
70
4
71
3
72
14
73
10
40
0
40
0
40
0
40
0
40
0.25
40
0.25
40
0.5
40
0.5
40
0.75
40
0.75
40
1
40
1
40
1
40
1
41
1
10
4.25083056311152
20
-4.62532171308879
30
0
41
1
10
4.22319435042061
20
-4.61092858069199
30
0
41
1
10
4.19382736334171
20
-4.60122598645936
30
0
41
1
10
4.13280953223565
20
-4.59899297691001
30
0
41
1
10
4.1012727939731
20
-4.60743521117897
30
0
41
1
10
4.04848693093021
20
-4.64839659618164
30
0
41
1
10
4.02881292172253
20
-4.67958772335717
30
0
41
1
10
4.0048089659519
20
-4.74850836767666
30
0
41
1
10
4.00000001021954
20
-4.78530228751322
30
0
41
1
10
4.00000001022013
20
-4.82222591982381
30
0
0
SPLINE
5
D8
100
AcDbEntity
8
1
62
256
6
ByLayer
370
18
48
1
60
0
100
AcDbSpline
70
4
71
3
72
94
73
90
40
0
40
0
40
0
40
0
40
0.0211116287014518
40
0.0211116287014518
40
0.0548664001255415
40
0.0548664001255415
40
0.0886211715496312
40
0.0886211715496312
40
0.105498557261676
40
0.105498557261676
40
0.122375942973721
40
0.122375942973721
40
0.139253328685766
40
0.139253328685766
40
0.156130714397811
40
0.156130714397811
40
0.173008100109855
40
0.173008100109855
40
0.1898854858219
40
0.1898854858219
40
0.22364025724599
40
0.22364025724599
40
0.25739502867008
40
0.25739502867008
40
0.274272414382124
40
0.274272414382124
40
0.291149800094169
40
0.291149800094169
40
0.32490457151826
40
0.32490457151826
40
0.341781957230305
40
0.341781957230305
40
0.35865934294235
40
0.35865934294235
40
0.392414114366438
40
0.392414114366438
40
0.409291500078482
40
0.409291500078482
40
0.426168885790526
40
0.426168885790526
40
0.44304627150257
40
0.44304627150257
40
0.459923657214614
40
0.459923657214614
40
0.476801042926658
40
0.476801042926658
40
0.493678428638702
40
0.493678428638702
40
0.510555814350746
40
0.510555814350746
40
0.52743320006279
40
0.52743320006279
40
0.544310585774834
40
0.544310585774834
40
0.561187971486878
40
0.561187971486878
40
0.594942742910965
40
0.594942742910965
40
0.611820128623008
40
0.611820128623008
40
0.628697514335051
40
0.628697514335051
40
0.662452285759139
40
0.662452285759139
40
0.696207057183226
40
0.696207057183226
40
0.713084442895269
40
0.713084442895269
40
0.729961828607312
40
0.729961828607312
40
0.746839214319355
40
0.746839214319355
40
0.763716600031398
40
0.763716600031398
40
0.797471371455484
40
0.797471371455484
40
0.831226142879571
40
0.831226142879571
40
0.864980914303657
40
0.864980914303657
40
0.8818583000157
40
0.8818583000157
40
0.898735685727743
40
0.898735685727743
40
0.932490457151829
40
0.932490457151829
40
0.966245228575914
40
0.966245228575914
40
1
40
1
40
1
40
1
41
1
10
45.8271523805457
20
-4.40145174183974
30
0
41
1
10
45.5795377808863
20
-4.49699980390875
30
0
41
1
10
45.3319535096296
20
-4.58827882577302
30
0
41
1
10
44.6893127977647
20
-4.81199159860887
30
0
41
1
10
44.2941845481054
20
-4.93591598754767
30
0
41
1
10
43.5044399031603
20
-5.15899268551476
30
0
41
1
10
43.1090814834367
20
-5.25883811965122
30
0
41
1
10
42.514458973947
20
-5.3866425270092
30
0
41
1
10
42.3164747986595
20
-5.42567653796897
30
0
41
1
10
41.9210806566211
20
-5.49734056011175
30
0
41
1
10
41.7236829768065
20
-5.52991579154576
30
0
41
1
10
41.3287668358297
20
-5.58708837159514
30
0
41
1
10
41.1312762135533
20
-5.61146252664756
30
0
41
1
10
40.7360838444566
20
-5.65349365955058
30
0
41
1
10
40.5383899147848
20
-5.67121749072805
30
0
41
1
10
40.1428659377035
20
-5.69946307741409
30
0
41
1
10
39.9451302765742
20
-5.70996943922543
30
0
41
1
10
39.5490253466378
20
-5.72286610312403
30
0
41
1
10
39.3510040246961
20
-5.72542505218766
30
0
41
1
10
38.7574297720736
20
-5.7232977432879
30
0
41
1
10
38.3621567335138
20
-5.7076217046077
30
0
41
1
10
37.572344986977
20
-5.64445172963801
30
0
41
1
10
37.1770908169683
20
-5.5995398414816
30
0
41
1
10
36.5825065557805
20
-5.5094030244916
30
0
41
1
10
36.3841880420825
20
-5.47540817334271
30
0
41
1
10
35.9885336690471
20
-5.40096029007205
30
0
41
1
10
35.7909578756153
20
-5.36049019648343
30
0
41
1
10
35.1981466909925
20
-5.22876700296837
30
0
41
1
10
34.802838678573
20
-5.12661244653538
30
0
41
1
10
34.2096402815934
20
-4.95483498796551
30
0
41
1
10
34.0119745135171
20
-4.89424447515185
30
0
41
1
10
33.6160027948818
20
-4.76654759255266
30
0
41
1
10
33.4176633379333
20
-4.69935746128277
30
0
41
1
10
32.8235921125838
20
-4.48930091870602
30
0
41
1
10
32.4281796614632
20
-4.33861784851024
30
0
41
1
10
31.8357021899484
20
-4.0947618746421
30
0
41
1
10
31.6381393849039
20
-4.01063965794415
30
0
41
1
10
31.242665638223
20
-3.83791279020247
30
0
41
1
10
31.044766777235
20
-3.74926662942124
30
0
41
1
10
30.6485631704523
20
-3.56680136274392
30
0
41
1
10
30.4501240810979
20
-3.47280567573202
30
0
41
1
10
30.054204071115
20
-3.28030442399975
30
0
41
1
10
29.8564645909968
20
-3.18199854753269
30
0
41
1
10
29.4609908764732
20
-2.98210708729806
30
0
41
1
10
29.2632965222029
20
-2.88042044251804
30
0
41
1
10
28.8678718960378
20
-2.67320620340772
30
0
41
1
10
28.670131387746
20
-2.56772498645694
30
0
41
1
10
28.2747497214206
20
-2.35326752538808
30
0
41
1
10
28.0771245759743
20
-2.24434686935504
30
0
41
1
10
27.6812621504804
20
-2.02383083935274
30
0
41
1
10
27.4828737441306
20
-1.91202506302082
30
0
41
1
10
27.086436863549
20
-1.6863905119269
30
0
41
1
10
26.8883857933603
20
-1.57262886162073
30
0
41
1
10
26.492668516527
20
-1.34329759493826
30
0
41
1
10
26.2951095392139
20
-1.22752508589994
30
0
41
1
10
25.7024138544776
20
-0.878107297952596
30
0
41
1
10
25.3069628737116
20
-0.642879726867676
30
0
41
1
10
24.7128446935261
20
-0.287993560501406
30
0
41
1
10
24.5145812707387
20
-0.169088219302523
30
0
41
1
10
24.1183204491427
20
0.0690382130108844
30
0
41
1
10
23.9204096248582
20
0.187897263289358
30
0
41
1
10
23.3267553189744
20
0.543293324790056
30
0
41
1
10
22.9311716733971
20
0.778686150864473
30
0
41
1
10
22.1405264029705
20
1.24543811625594
30
0
41
1
10
21.7449719353252
20
1.47678866909175
30
0
41
1
10
21.1497739594074
20
1.81702177638746
30
0
41
1
10
20.9516364414318
20
1.92878692585637
30
0
41
1
10
20.5558254746162
20
2.15011573591653
30
0
41
1
10
20.3582353750002
20
2.25981096330773
30
0
41
1
10
19.962995487801
20
2.47588409352673
30
0
41
1
10
19.765363844444
20
2.58233019556002
30
0
41
1
10
19.3698787373377
20
2.79108747720954
30
0
41
1
10
19.1720079245374
20
2.89349831208108
30
0
41
1
10
18.5781723903942
20
3.19614500859277
30
0
41
1
10
18.1816618133254
20
3.39201470196861
30
0
41
1
10
17.3898561174399
20
3.76058938774943
30
0
41
1
10
16.99423173151
20
3.93598405529897
30
0
41
1
10
16.2039607229069
20
4.26614847570519
30
0
41
1
10
15.8085878795413
20
4.42059699138903
30
0
41
1
10
15.2137115741437
20
4.63416075321746
30
0
41
1
10
15.0152394320696
20
4.70219110020747
30
0
41
1
10
14.6196216530537
20
4.83208411320595
30
0
41
1
10
14.4222408048313
20
4.89407568794957
30
0
41
1
10
13.8303486448822
20
5.07069095296521
30
0
41
1
10
13.4362012479088
20
5.17574833581938
30
0
41
1
10
12.6485025499495
20
5.35875651470306
30
0
41
1
10
12.2552156455765
20
5.4367578831266
30
0
41
1
10
11.4662120678273
20
5.56171960198529
30
0
41
1
10
11.0705345156912
20
5.61020948357614
30
0
41
1
10
10.6738282236265
20
5.64572904323759
30
0
0
SPLINE
5
D9
100
AcDbEntity
8
1
62
256
6
ByLayer
370
18
48
1
60
0
100
AcDbSpline
70
4
71
3
72
20
73
16
40
0
40
0
40
0
40
0
40
0.249999999999998
40
0.249999999999998
40
0.374999999999999
40
0.374999999999999
40
0.499999999999999
40
0.499999999999999
40
0.624999999999999
40
0.624999999999999
40
0.749999999999999
40
0.749999999999999
40
0.875
40
0.875
40
1
40
1
40
1
40
1
41
1
10
10.6735978806557
20
-5.64574966568151
30
0
41
1
10
10.112170115035
20
-5.69581782410125
30
0
41
1
10
9.55917665036486
20
-5.71882991143232
30
0
41
1
10
8.73905188517395
20
-5.70180078498782
30
0
41
1
10
8.46715608431262
20
-5.68721858036909
30
0
41
1
10
7.92542545636223
20
-5.64329379029294
30
0
41
1
10
7.65563941277514
20
-5.61334627075809
30
0
41
1
10
7.11799390303042
20
-5.53552836409571
30
0
41
1
10
6.85012631008823
20
-5.48773637345627
30
0
41
1
10
6.3163458490213
20
-5.37348743381361
30
0
41
1
10
6.0503524633358
20
-5.30709560283478
30
0
41
1
10
5.52123826672204
20
-5.15236247648659
30
0
41
1
10
5.26026128786174
20
-5.06465172584493
30
0
41
1
10
4.74759226555867
20
-4.86488701912435
30
0
41
1
10
4.49584648172902
20
-4.75292771240456
30
0
41
1
10
4.25083057546189
20
-4.62532171951585
30
0
0
SPLINE
5
DA
100
AcDbEntity
8
1
62
256
6
ByLayer
370
18
48
1
60
0
100
AcDbSpline
70
4
71
3
72
16
73
12
40
0
40
0
40
0
40
0
40
0.337640033513959
40
0.337640033513959
40
0.506460050270939
40
0.506460050270939
40
0.590870058649429
40
0.590870058649429
40
0.675280067027919
40
0.675280067027919
40
1
40
1
40
1
40
1
41
1
10
4.00000001022016
20
-4.82222591981406
30
0
41
1
10
4.00000001022016
20
-5.06669606638738
30
0
41
1
10
4.00000001022011
20
-5.27214775168366
30
0
41
1
10
4.00000001022013
20
-5.52367185120951
30
0
41
1
10
4.00000001022011
20
-5.59799401336173
30
0
41
1
10
4.00000001022011
20
-5.69472250190572
30
0
41
1
10
4.00000001022013
20
-5.72441831575111
30
0
41
1
10
4.00000001022011
20
-5.77823822537633
30
0
41
1
10
4.00000001022016
20
-5.80244756649782
30
0
41
1
10
4.00000001022013
20
-5.90687782166216
30
0
41
1
10
4.00000001022011
20
-5.95074532191137
30
0
41
1
10
4.00000001022008
20
-5.95457591981241
30
0
0
SPLINE
5
DB
100
AcDbEntity
8
1
62
256
6
ByLayer
370
18
48
1
60
0
100
AcDbSpline
70
4
71
3
72
16
73
12
40
0
40
0
40
0
40
0
40
0.361650654004283
40
0.361650654004283
40
0.497152631681995
40
0.497152631681995
40
0.632654609359707
40
0.632654609359707
40
0.903658564715131
40
0.903658564715131
40
1
40
1
40
1
40
1
41
1
10
53.9249181062236
20
-5.73457382291147
30
0
41
1
10
53.2175579729045
20
-5.73397770640449
30
0
41
1
10
52.5110280195154
20
-5.68584839766095
30
0
41
1
10
51.5349098366848
20
-5.55530266380489
30
0
41
1
10
51.269253278932
20
-5.51322001198915
30
0
41
1
10
50.7399709725248
20
-5.41678794900417
30
0
41
1
10
50.4760614099683
20
-5.36240317607843
30
0
41
1
10
49.6858306974989
20
-5.18139580375382
30
0
41
1
10
49.1610150979162
20
-5.03692373824651
30
0
41
1
10
48.4498510026145
20
-4.81114773436636
30
0
41
1
10
48.2633537625638
20
-4.74914715396989
30
0
41
1
10
48.07678596765
20
-4.68443554023634
30
0
0
SPLINE
5
DC
100
AcDbEntity
8
1
62
256
6
ByLayer
370
13
48
1
60
0
100
AcDbSpline
70
4
71
3
72
24
73
20
40
0
40
0
40
0
40
0
40
0.198276044040174
40
0.198276044040174
40
0.258560578719629
40
0.258560578719629
40
0.318845113399084
40
0.318845113399084
40
0.439414182757992
40
0.439414182757992
40
0.680552321475807
40
0.680552321475807
40
0.740836856155259
40
0.740836856155259
40
0.801121390834712
40
0.801121390834712
40
0.921690460193617
40
0.921690460193617
40
1
40
1
40
1
40
1
41
1
10
48.0767859676759
20
-4.68443554024532
30
0
41
1
10
47.2137407852767
20
-4.38508566314763
30
0
41
1
10
46.3491857985677
20
-4.02772235302268
30
0
41
1
10
45.2087001310162
20
-3.49594773635846
30
0
41
1
10
44.9427271337953
20
-3.36769117577296
30
0
41
1
10
44.4131836207673
20
-3.10495682681273
30
0
41
1
10
44.1491389197406
20
-2.97027704978245
30
0
41
1
10
43.3586062888595
20
-2.55723384861128
30
0
41
1
10
42.8336977120911
20
-2.26990124696701
30
0
41
1
10
41.2592602047272
20
-1.38167790376349
30
0
41
1
10
40.2103274921168
20
-0.754104238092793
30
0
41
1
10
38.880985268708
20
0.0442362396867395
30
0
41
1
10
38.614819393809
20
0.204252396075447
30
0
41
1
10
38.0850008629389
20
0.521772233484654
30
0
41
1
10
37.8208024989983
20
0.679589847941656
30
0
41
1
10
37.0298303291852
20
1.14944676545426
30
0
41
1
10
36.5044830004379
20
1.45752340471648
30
0
41
1
10
35.6381769880152
20
1.95243555989472
30
0
41
1
10
35.297109667931
20
2.14388069770177
30
0
41
1
10
34.9555692720123
20
2.33106243833515
30
0
0
SPLINE
5
DD
100
AcDbEntity
8
1
62
256
6
ByLayer
370
18
48
1
60
0
100
AcDbSpline
70
4
71
3
72
102
73
98
40
0
40
0
40
0
40
0
40
0.0330268484319997
40
0.0330268484319997
40
0.0495402726479997
40
0.0495402726479997
40
0.0660536968639997
40
0.0660536968639997
40
0.0990805452959998
40
0.0990805452959998
40
0.115593969512
40
0.115593969512
40
0.132107393728001
40
0.132107393728001
40
0.148620817944001
40
0.148620817944001
40
0.165134242160002
40
0.165134242160002
40
0.181647666376002
40
0.181647666376002
40
0.198161090592002
40
0.198161090592002
40
0.231187939024004
40
0.231187939024004
40
0.264214787456006
40
0.264214787456006
40
0.280728211672007
40
0.280728211672007
40
0.297241635888007
40
0.297241635888007
40
0.313755060104007
40
0.313755060104007
40
0.330268484320008
40
0.330268484320008
40
0.346781908536008
40
0.346781908536008
40
0.363295332752009
40
0.363295332752009
40
0.396322181184011
40
0.396322181184011
40
0.429349029616012
40
0.429349029616012
40
0.462375878048014
40
0.462375878048014
40
0.478889302264014
40
0.478889302264014
40
0.495402726480015
40
0.495402726480015
40
0.511916150696015
40
0.511916150696015
40
0.528429574912016
40
0.528429574912016
40
0.544942999128016
40
0.544942999128016
40
0.561456423344017
40
0.561456423344017
40
0.594483271776017
40
0.594483271776017
40
0.627510120208017
40
0.627510120208017
40
0.644023544424017
40
0.644023544424017
40
0.660536968640017
40
0.660536968640017
40
0.677050392856017
40
0.677050392856017
40
0.693563817072017
40
0.693563817072017
40
0.710077241288017
40
0.710077241288017
40
0.726590665504017
40
0.726590665504017
40
0.743104089720017
40
0.743104089720017
40
0.759617513936017
40
0.759617513936017
40
0.792644362368017
40
0.792644362368017
40
0.825671210800017
40
0.825671210800017
40
0.858698059232017
40
0.858698059232017
40
0.875211483448017
40
0.875211483448017
40
0.891724907664018
40
0.891724907664018
40
0.908238331880018
40
0.908238331880018
40
0.924751756096018
40
0.924751756096018
40
0.957778604528018
40
0.957778604528018
40
0.974292028744017
40
0.974292028744017
40
0.990805452960017
40
0.990805452960017
40
1
40
1
40
1
40
1
41
1
10
16.6962635973084
20
4.72922709311428
30
0
41
1
10
17.0983341498414
20
4.88452264642754
30
0
41
1
10
17.4994480089774
20
5.02491950994511
30
0
41
1
10
18.0985727395386
20
5.21527115274264
30
0
41
1
10
18.297861747828
20
5.27532003999701
30
0
41
1
10
18.6954536326566
20
5.38869057750932
30
0
41
1
10
18.8939345452572
20
5.44186086123142
30
0
41
1
10
19.4900614471857
20
5.58987066392311
30
0
41
1
10
19.8876419331337
20
5.67384455745358
30
0
41
1
10
20.4832649186194
20
5.77819389298659
30
0
41
1
10
20.6815621351815
20
5.80938244870816
30
0
41
1
10
21.079239441662
20
5.86389973485296
30
0
41
1
10
21.2785454353923
20
5.88728494285485
30
0
41
1
10
21.6777900291786
20
5.92641739315323
30
0
41
1
10
21.8777486120633
20
5.94215721746735
30
0
41
1
10
22.278200076451
20
5.96588411155278
30
0
41
1
10
22.4785471851831
20
5.97387509000018
30
0
41
1
10
22.8804613151644
20
5.98181765628459
30
0
41
1
10
23.081738412765
20
5.98175640934173
30
0
41
1
10
23.482964758922
20
5.97376817254911
30
0
41
1
10
23.6831764713645
20
5.96584544657676
30
0
41
1
10
24.2823936815804
20
5.93038573778378
30
0
41
1
10
24.6793241435018
20
5.89087989455322
30
0
41
1
10
25.4743524163295
20
5.78219316059688
30
0
41
1
10
25.8718179856666
20
5.71303411525599
30
0
41
1
10
26.4669063872284
20
5.58638455550147
30
0
41
1
10
26.6651731481276
20
5.54035509922468
30
0
41
1
10
27.062830129054
20
5.44148461861994
30
0
41
1
10
27.2620288672785
20
5.38854403587553
30
0
41
1
10
27.6609764012095
20
5.27551003600112
30
0
41
1
10
27.8607341814613
20
5.2154232230242
30
0
41
1
10
28.2606586084536
20
5.08783336755107
30
0
41
1
10
28.4606802718806
20
5.02017890113186
30
0
41
1
10
28.8623235715589
20
4.87834793377723
30
0
41
1
10
29.0639513256259
20
4.80420290623312
30
0
41
1
10
29.4654846535425
20
4.65031649945726
30
0
41
1
10
29.6657932041535
20
4.57046773398324
30
0
41
1
10
30.2651326541964
20
4.32203630815567
30
0
41
1
10
30.6622284604236
20
4.14408453175747
30
0
41
1
10
31.4574608383415
20
3.77080454926349
30
0
41
1
10
31.8547080843091
20
3.57452707312078
30
0
41
1
10
32.6476202961901
20
3.16138294542839
30
0
41
1
10
33.0450635234194
20
2.94687638955142
30
0
41
1
10
33.6429924334933
20
2.6136872639924
30
0
41
1
10
33.842537154094
20
2.50063070733731
30
0
41
1
10
34.2418875718357
20
2.27011318707784
30
0
41
1
10
34.4417005716506
20
2.15264510890577
30
0
41
1
10
34.8430930816099
20
1.91556973143725
30
0
41
1
10
35.0448061899819
20
1.79551331920763
30
0
41
1
10
35.446669663307
20
1.55403024828067
30
0
41
1
10
35.6470857179086
20
1.43247554643398
30
0
41
1
10
36.0467332946556
20
1.18749110608715
30
0
41
1
10
36.2458072318498
20
1.06380596120454
30
0
41
1
10
36.6437985914907
20
0.816227466654965
30
0
41
1
10
36.8428125600605
20
0.692490460374302
30
0
41
1
10
37.4393839929129
20
0.320583364525675
30
0
41
1
10
37.8363211681198
20
0.0714743647475586
30
0
41
1
10
38.6289720188896
20
-0.42854755491382
30
0
41
1
10
39.0265135790031
20
-0.676500694029954
30
0
41
1
10
39.6239147397015
20
-1.04653487602971
30
0
41
1
10
39.8232019740979
20
-1.16960881939727
30
0
41
1
10
40.2219985286992
20
-1.41535149258979
30
0
41
1
10
40.4217221102373
20
-1.53767352001253
30
0
41
1
10
40.8227856340283
20
-1.77965695298508
30
0
41
1
10
41.0243080507781
20
-1.89982460905412
30
0
41
1
10
41.426518299454
20
-2.13717439066247
30
0
41
1
10
41.6270551846563
20
-2.25425535650558
30
0
41
1
10
42.0267956415049
20
-2.48555300986391
30
0
41
1
10
42.225936668188
20
-2.59984643123406
30
0
41
1
10
42.6243320632714
20
-2.82343378264429
30
0
41
1
10
42.8234480317015
20
-2.93294979479504
30
0
41
1
10
43.221265557738
20
-3.14786357319443
30
0
41
1
10
43.4199822133182
20
-3.25323895232185
30
0
41
1
10
43.8168802007662
20
-3.46002328804678
30
0
41
1
10
44.0149051451644
20
-3.56162926115803
30
0
41
1
10
44.6093898594789
20
-3.85883094328074
30
0
41
1
10
45.0069259803431
20
-4.04606340115012
30
0
41
1
10
45.8027462848886
20
-4.40084161681952
30
0
41
1
10
46.2004901716924
20
-4.56885071299328
30
0
41
1
10
47.0018926371911
20
-4.87886728312969
30
0
41
1
10
47.4058583736686
20
-5.02200286168977
30
0
41
1
10
48.0056259578308
20
-5.21602054828261
30
0
41
1
10
48.2049862487559
20
-5.27720925687464
30
0
41
1
10
48.6037499310752
20
-5.3918471771868
30
0
41
1
10
48.8029613974909
20
-5.44546284967217
30
0
41
1
10
49.2008797157507
20
-5.54550475465447
30
0
41
1
10
49.3995942527893
20
-5.59192603429167
30
0
41
1
10
49.7963511153543
20
-5.67764534053271
30
0
41
1
10
49.9942692257703
20
-5.71698416989395
30
0
41
1
10
50.5889629484251
20
-5.82327303190405
30
0
41
1
10
50.9863635585226
20
-5.87883398424455
30
0
41
1
10
51.5826827004456
20
-5.93962804750439
30
0
41
1
10
51.7813695824389
20
-5.9561289993959
30
0
41
1
10
52.1794412347754
20
-5.98127489223859
30
0
41
1
10
52.3790814083154
20
-5.9898952966206
30
0
41
1
10
52.6906962009529
20
-5.9971957667573
30
0
41
1
10
52.8023806723084
20
-5.99858496834671
30
0
41
1
10
52.9141816856186
20
-5.9987448477489
30
0
0
SPLINE
5
DE
100
AcDbEntity
8
1
62
256
6
ByLayer
370
18
48
1
60
0
100
AcDbSpline
70
4
71
3
72
8
73
4
40
0
40
0
40
0
40
0
40
1
40
1
40
1
40
1
41
1
10
9.52950998787441
20
5.70824009748438
30
0
41
1
10
9.90760367957677
20
5.70171825419624
30
0
41
1
10
10.2885640169642
20
5.6800870064132
30
0
41
1
10
10.6735978806554
20
5.64574966568162
30
0
0
LINE
5
76
100
AcDbEntity
8
81
62
256
6
ByLayer
370
18
48
1
60
0
100
AcDbLine
10
57
20
0
30
0
11
62
21
0
31
0
39
0
210
0
220
0
230
1
0
LINE
5
77
100
AcDbEntity
8
1
62
256
6
ByLayer
370
18
48
1
60
0
100
AcDbLine
10
4
20
5.969408
30
0
11
0.8
21
5.967488
31
0
39
0
210
0
220
0
230
1
0
LINE
5
79
100
AcDbEntity
8
1
62
256
6
ByLayer
370
18
48
1
60
0
100
AcDbLine
10
23.78744
20
5.98128
30
0
11
22.969333
21
5.98079
31
0
39
0
210
0
220
0
230
1
0
LINE
5
7A
100
AcDbEntity
8
1
62
256
6
ByLayer
370
18
48
1
60
0
100
AcDbLine
10
53.737864
20
5.999251
30
0
11
52.928206
21
5.998765
31
0
39
0
210
0
220
0
230
1
0
LINE
5
7B
100
AcDbEntity
8
1
62
256
6
ByLayer
370
18
48
1
60
0
100
AcDbLine
10
52.928206
20
-5.998765
30
0
11
53.73769
21
-5.999251
31
0
39
0
210
0
220
0
230
1
0
LINE
5
7C
100
AcDbEntity
8
1
62
256
6
ByLayer
370
18
48
1
60
0
100
AcDbLine
10
22.969333
20
-5.98079
30
0
11
23.787384
21
-5.98128
31
0
39
0
210
0
220
0
230
1
0
LINE
5
7D
100
AcDbEntity
8
1
62
256
6
ByLayer
370
18
48
1
60
0
100
AcDbLine
10
0.8
20
-5.967488
30
0
11
4
21
-5.969408
31
0
39
0
210
0
220
0
230
1
0
LINE
5
7E
100
AcDbEntity
8
1
62
256
6
ByLayer
370
18
48
1
60
0
100
AcDbLine
10
0
20
-6
30
0
11
0.8
21
-5.967488
31
0
39
0
210
0
220
0
230
1
0
LINE
5
7F
100
AcDbEntity
8
1
62
256
6
ByLayer
370
18
48
1
60
0
100
AcDbLine
10
0.8
20
5.967488
30
0
11
0
21
6
31
0
39
0
210
0
220
0
230
1
0
LINE
5
80
100
AcDbEntity
8
SK1
62
256
6
ByLayer
370
18
48
1
60
0
100
AcDbLine
10
-43.556624
20
6
30
0
11
-45
21
3.5
31
0
39
0
210
0
220
0
230
1
0
LINE
5
82
100
AcDbEntity
8
SK1
62
256
6
ByLayer
370
18
48
1
60
0
100
AcDbLine
10
-45
20
-3.5
30
0
11
-43.556624
21
-6
31
0
39
0
210
0
220
0
230
1
0
LINE
5
83
100
AcDbEntity
8
SK1
62
256
6
ByLayer
370
18
48
1
60
0
100
AcDbLine
10
0
20
6
30
0
11
-43.556624
21
6
31
0
39
0
210
0
220
0
230
1
0
LINE
5
84
100
AcDbEntity
8
SK1
62
256
6
ByLayer
370
18
48
1
60
0
100
AcDbLine
10
-43.556624
20
-6
30
0
11
0
21
-6
31
0
39
0
210
0
220
0
230
1
0
LINE
5
85
100
AcDbEntity
8
SK4
62
256
6
ByLayer
370
18
48
0.05
60
0
100
AcDbLine
10
62
20
0
30
0
11
-50
21
0
31
0
39
0
210
0
220
0
230
1
0
LINE
5
87
100
AcDbEntity
8
4
62
256
6
ByLayer
370
18
48
0.05
60
0
100
AcDbLine
10
57
20
0
30
0
11
0
21
0
31
0
39
0
210
0
220
0
230
1
0
LINE
5
89
100
AcDbEntity
8
80
62
256
6
ByLayer
370
18
48
1
60
0
100
AcDbLine
10
0
20
0
30
0
11
-5
21
0
31
0
39
0
210
0
220
0
230
1
0
LINE
5
8A
100
AcDbEntity
8
SK1
62
256
6
ByLayer
370
18
48
1
60
0
100
AcDbLine
10
-43.6
20
-1.418328
30
0
11
-43.6
21
0.879197
31
0
39
0
210
0
220
0
230
1
0
LINE
5
8B
100
AcDbEntity
8
SK1
62
256
6
ByLayer
370
13
48
1
60
0
100
AcDbLine
10
-43.7
20
-0.988273
30
0
11
-43.7
21
-1.509037
31
0
39
0
210
0
220
0
230
1
0
LINE
5
8C
100
AcDbEntity
8
SK1
62
256
6
ByLayer
370
18
48
1
60
0
100
AcDbLine
10
-45
20
3.5
30
0
11
-45
21
1.097033
31
0
39
0
210
0
220
0
230
1
0
LINE
5
8D
100
AcDbEntity
8
SK1
62
256
6
ByLayer
370
18
48
1
60
0
100
AcDbLine
10
0
20
-6
30
0
11
0
21
6
31
0
39
0
210
0
220
0
230
1
0
LINE
5
8E
100
AcDbEntity
8
SK1
62
256
6
ByLayer
370
18
48
1
60
0
100
AcDbLine
10
-45
20
-1.120221
30
0
11
-45
21
-1.400277
31
0
39
0
210
0
220
0
230
1
0
LINE
5
8F
100
AcDbEntity
8
SK1
62
256
6
ByLayer
370
18
48
1
60
0
100
AcDbLine
10
-43.556624
20
6
30
0
11
-43.556624
21
-6
31
0
39
0
210
0
220
0
230
1
0
LINE
5
90
100
AcDbEntity
8
SK1
62
256
6
ByLayer
370
18
48
1
60
0
100
AcDbLine
10
-45
20
-3.5
30
0
11
-45
21
-1.400277
31
0
39
0
210
0
220
0
230
1
0
LINE
5
91
100
AcDbEntity
8
1
62
256
6
ByLayer
370
18
48
1
60
0
100
AcDbLine
10
0.8
20
5.967488
30
0
11
0.8
21
-5.967488
31
0
39
0
210
0
220
0
230
1
0
LINE
5
92
100
AcDbEntity
8
1
62
256
6
ByLayer
370
18
48
1
60
0
100
AcDbLine
10
56.908761
20
-0.312537
30
0
11
56.705717
21
-1.062143
31
0
39
0
210
0
220
0
230
1
0
LINE
5
93
100
AcDbEntity
8
1
62
256
6
ByLayer
370
18
48
1
60
0
100
AcDbLine
10
4.250411
20
-5.704853
30
0
11
4.250415
21
-5.704603
31
0
39
0
210
0
220
0
230
1
0
LINE
5
94
100
AcDbEntity
8
1
62
256
6
ByLayer
370
13
48
1
60
0
100
AcDbLine
10
56.705717
20
1.062143
30
0
11
55.394776
21
1.062143
31
0
39
0
210
0
220
0
230
1
0
LINE
5
95
100
AcDbEntity
8
1
62
256
6
ByLayer
370
18
48
1
60
0
100
AcDbLine
10
56.987359
20
0.056712
30
0
11
57
21
0
31
0
39
0
210
0
220
0
230
1
0
LINE
5
96
100
AcDbEntity
8
1
62
256
6
ByLayer
370
18
48
1
60
0
100
AcDbLine
10
57
20
0
30
0
11
54.912653
21
-5.734938
31
0
39
0
210
0
220
0
230
1
0
LINE
5
97
100
AcDbEntity
8
1
62
256
6
ByLayer
370
18
48
1
60
0
100
AcDbLine
10
53.978838
20
-3.359662
30
0
11
56.894177
21
-0.110569
31
0
39
0
210
0
220
0
230
1
0
LINE
5
98
100
AcDbEntity
8
1
62
256
6
ByLayer
370
18
48
1
60
0
100
AcDbLine
10
56.908761
20
0.312537
30
0
11
56.705717
21
1.062143
31
0
39
0
210
0
220
0
230
1
0
LINE
5
99
100
AcDbEntity
8
1
62
256
6
ByLayer
370
18
48
1
60
0
100
AcDbLine
10
0
20
-6
30
0
11
0
21
6
31
0
39
0
210
0
220
0
230
1
0
LINE
5
9A
100
AcDbEntity
8
1
62
256
6
ByLayer
370
13
48
1
60
0
100
AcDbLine
10
55.394776
20
1.062143
30
0
11
56.908761
21
0.312537
31
0
39
0
210
0
220
0
230
1
0
LINE
5
9B
100
AcDbEntity
8
1
62
256
6
ByLayer
370
13
48
1
60
0
100
AcDbLine
10
55.225318
20
0.715719
30
0
11
56.894177
21
-0.110569
31
0
39
0
210
0
220
0
230
1
0
LINE
5
9C
100
AcDbEntity
8
1
62
256
6
ByLayer
370
18
48
1
60
0
100
AcDbLine
10
57
20
0
30
0
11
56.987359
21
-0.056712
31
0
39
0
210
0
220
0
230
1
0
LINE
5
9D
100
AcDbEntity
8
1
62
256
6
ByLayer
370
18
48
1
60
0
100
AcDbLine
10
4
20
3.007502
30
0
11
4
21
5.969408
31
0
39
0
210
0
220
0
230
1
0
MTEXT
5
DF
100
AcDbEntity
8
SK6
62
256
6
ByLayer
370
13
48
1
60
0
100
AcDbMText
10
8.129169
20
38.382694
30
0
210
0
220
0
230
1
1
\W0.7415;R840-1200-30-A1A1220
40
3.5
41
0
44
1.084337
50
0
71
8
72
5
7
iso_b_vert
0
DIMENSION
5
EC
100
AcDbEntity
8
SK2
62
256
6
ByLayer
370
13
48
1
60
0
100
AcDbDimension
2
DimnDraft3D1
10
54.94
20
-16.213398
30
0
11
25.690059
21
-16.213398
31
0
70
32
71
5
72
1
41
1
210
0
220
0
230
1
3
Standard
100
AcDbAlignedDimension
13
0
23
-1.5875
33
0
14
54.94
24
-7.5875
34
0
50
0
100
AcDbRotatedDimension
1001
ACAD
1000
DSTYLE
1002
{
1070
   279
1070
     0
1070
   172
1070
     1
1070
   173
1070
     1
1070
   340
1005
E0
1070
   271
1070
     2
1070
   272
1070
     2
1070
    77
1070
     1
1070
    73
1070
     0
1070
   171
1070
     3
1070
   274
1070
     4
1070
   177
1070
    35
1070
   176
1070
    35
1070
   178
1070
    35
1070
    48
1040
-0.005
1070
    41
1041
3.5
1070
   147
1041
1.75
1070
    42
1041
1.5875
1070
    44
1041
2.0
1070
   140
1041
3.5
1070
   343
1005
0
1070
   344
1005
0
1002
}
0
DIMENSION
5
F6
100
AcDbEntity
8
SK2
62
256
6
ByLayer
370
13
48
1
60
0
100
AcDbDimension
2
DimnDraft3D2
10
57
20
-34.692985
30
0
11
5.2813
21
-34.692985
31
0
70
32
71
5
72
1
41
1
210
0
220
0
230
1
3
Standard
100
AcDbAlignedDimension
13
-45
23
-7.5875
33
0
14
57
24
-1.5875
34
0
50
0
100
AcDbRotatedDimension
1001
ACAD
1000
DSTYLE
1002
{
1070
   279
1070
     0
1070
   172
1070
     1
1070
   173
1070
     1
1070
   340
1005
E0
1070
   271
1070
     2
1070
   272
1070
     2
1070
    77
1070
     1
1070
    73
1070
     0
1070
   171
1070
     3
1070
   274
1070
     4
1070
   177
1070
    35
1070
   176
1070
    35
1070
   178
1070
    35
1070
    48
1040
-0.005
1070
    41
1041
3.5
1070
   147
1041
1.75
1070
    42
1041
1.5875
1070
    44
1041
2.0
1070
   140
1041
3.5
1070
   343
1005
0
1070
   344
1005
0
1002
}
0
DIMENSION
5
100
100
AcDbEntity
8
SK2
62
256
6
ByLayer
370
13
48
1
60
0
100
AcDbDimension
2
DimnDraft3D3
10
57
20
17.609119
30
0
11
37.97
21
17.609119
31
0
70
32
71
5
72
1
41
1
210
0
220
0
230
1
3
Standard
100
AcDbAlignedDimension
13
18.94
23
7.5875
33
0
14
57
24
1.5875
34
0
50
0
100
AcDbRotatedDimension
1001
ACAD
1000
DSTYLE
1002
{
1070
   279
1070
     0
1070
   172
1070
     1
1070
   173
1070
     1
1070
   340
1005
E0
1070
   271
1070
     2
1070
   272
1070
     2
1070
    77
1070
     1
1070
    73
1070
     0
1070
   171
1070
     3
1070
   274
1070
     4
1070
   177
1070
    35
1070
   176
1070
    35
1070
   178
1070
    35
1070
    48
1040
-0.005
1070
    41
1041
3.5
1070
   147
1041
1.75
1070
    42
1041
1.5875
1070
    44
1041
2.0
1070
   140
1041
3.5
1070
   343
1005
0
1070
   344
1005
0
1002
}
0
DIMENSION
5
10A
100
AcDbEntity
8
SK2
62
256
6
ByLayer
370
13
48
1
60
0
100
AcDbDimension
2
DimnDraft3D4
10
54.94
20
-18.802503
30
0
11
66.981425
21
-18.802503
31
0
70
32
71
5
72
1
41
1
210
0
220
0
230
1
3
Standard
100
AcDbAlignedDimension
13
57
23
-1.5875
33
0
14
54.94
24
-7.5875
34
0
50
0
100
AcDbRotatedDimension
1001
ACAD
1000
DSTYLE
1002
{
1070
   279
1070
     0
1070
   172
1070
     1
1070
   173
1070
     1
1070
   340
1005
E0
1070
   271
1070
     2
1070
   272
1070
     2
1070
    77
1070
     1
1070
    73
1070
     0
1070
   171
1070
     3
1070
   274
1070
     4
1070
   177
1070
    35
1070
   176
1070
    35
1070
   178
1070
    35
1070
    48
1040
-0.005
1070
    41
1041
3.5
1070
   147
1041
1.75
1070
    42
1041
1.5875
1070
    44
1041
2.0
1070
   140
1041
3.5
1070
   343
1005
0
1070
   344
1005
0
1002
}
0
DIMENSION
5
114
100
AcDbEntity
8
SK2
62
256
6
ByLayer
370
13
48
1
60
0
100
AcDbDimension
2
DimnDraft3D5
10
54.94
20
-24.343428
30
0
11
2.200676
21
-24.343428
31
0
70
32
71
5
72
1
41
1
210
0
220
0
230
1
3
Standard
100
AcDbAlignedDimension
13
-45
23
-7.5875
33
0
14
54.94
24
-7.5875
34
0
50
0
100
AcDbRotatedDimension
1001
ACAD
1000
DSTYLE
1002
{
1070
   279
1070
     0
1070
   172
1070
     1
1070
   173
1070
     1
1070
   340
1005
E0
1070
   271
1070
     2
1070
   272
1070
     2
1070
    77
1070
     1
1070
    73
1070
     0
1070
   171
1070
     3
1070
   274
1070
     4
1070
   177
1070
    35
1070
   176
1070
    35
1070
   178
1070
    35
1070
    48
1040
-0.005
1070
    41
1041
3.5
1070
   147
1041
1.75
1070
    42
1041
1.5875
1070
    44
1041
2.0
1070
   140
1041
3.5
1070
   343
1005
0
1070
   344
1005
0
1002
}
0
DIMENSION
5
11F
100
AcDbEntity
8
SK2
62
256
6
ByLayer
370
13
48
1
60
0
100
AcDbDimension
2
DimnDraft3D6
10
-55.625163
20
6
30
0
11
-56.250163
21
24.47418
31
0
70
33
71
5
72
1
41
1
210
0
220
0
230
1
3
Standard
100
AcDbAlignedDimension
13
-46.5875
23
-6
33
0
14
-46.5875
24
6
34
0
1001
ACAD
1000
DSTYLE
1002
{
1070
   279
1070
     0
1070
    74
1070
     0
1070
   173
1070
     1
1070
   340
1005
E0
1070
   271
1070
     3
1070
   272
1070
     2
1070
    77
1070
     1
1070
    73
1070
     0
1070
   171
1070
     3
1070
   274
1070
     4
1070
   177
1070
    35
1070
   176
1070
    35
1070
   178
1070
    35
1070
    48
1040
-0.005
1070
    41
1041
3.5
1070
   147
1041
1.75
1070
    42
1041
1.5875
1070
    44
1041
2.0
1070
   140
1041
3.5
1070
   343
1005
0
1070
   344
1005
0
1002
}
0
DIMENSION
5
12A
100
AcDbEntity
8
2
62
256
6
ByLayer
370
13
48
1
60
0
100
AcDbDimension
2
DimnDraft3D7
10
71.083343
20
6
30
0
11
66.458343
21
23.067266
31
0
70
33
71
5
72
1
41
1
210
0
220
0
230
1
3
Standard
100
AcDbAlignedDimension
13
56.5275
23
-6
33
0
14
56.5275
24
6
34
0
1001
ACAD
1000
DSTYLE
1002
{
1070
   279
1070
     0
1070
    74
1070
     0
1070
   173
1070
     1
1070
   340
1005
E0
1070
   271
1070
     3
1070
   272
1070
     2
1070
    77
1070
     1
1070
    73
1070
     0
1070
   171
1070
     3
1070
   274
1070
     4
1070
   177
1070
    35
1070
   176
1070
    35
1070
   178
1070
    35
1070
    48
1040
-0.005
1070
    41
1041
3.5
1070
   147
1041
1.75
1070
    42
1041
1.5875
1070
    44
1041
2.0
1070
   140
1041
3.5
1070
   343
1005
0
1070
   344
1005
0
1002
}
0
ENDSEC
0
SECTION
2
OBJECTS
0
DICTIONARY
5
195
330
0
100
AcDbDictionary
280
0
281
1
3
ACAD_GROUP
350
196
3
ACAD_MLINESTYLE
350
197
0
DICTIONARY
5
196
330
0
100
AcDbDictionary
280
0
281
1
0
DICTIONARY
5
197
330
0
100
AcDbDictionary
280
0
281
1
3
Standard
350
18
0
MLINESTYLE
5
18
330
197
100
AcDbMlineStyle
2
Standard
70
0
3

62
256
51
90
52
90
71
2
49
-0.5
62
256
6
ByLayer
49
0.5
62
256
6
ByLayer
0
RASTERVARIABLES
5
183
330

100
AcDbRasterVariables
90
0
70
1
71
1
72
1
0
ENDSEC
0
EOF
