0
SECTION
2
HEADER
9
$ACADVER
1
AC1015
9
$DWGCODEPAGE
3
ANSI_1252
9
$HANDSEED
5
1a7
9
$ANGBASE
50
0
9
$ANGDIR
70
0
9
$ATTMODE
70
1
9
$AUNITS
70
0
9
$AUPREC
70
0
9
$CECOLOR
62
256
9
$CELTSCALE
40
1
9
$CELTYPE
6
ByLayer
9
$CELWEIGHT
370
18
9
$CLAYER
8
0
9
$CMLJUST
70
0
9
$CMLSCALE
40
1
9
$CMLSTYLE
2
Standard
9
$DIMSTYLE
2
Standard
9
$TEXTSIZE
40
0.2
9
$TEXTSTYLE
7
Standard
9
$LUNITS
70
2
9
$LUPREC
70
4
9
$EXTNAMES
290
1
9
$INSUNITS
70
4
9
$LTSCALE
40
1
9
$LWDISPLAY
290
1
9
$PDMODE
70
0
9
$PDSIZE
40
0
9
$PLINEGEN
70
0
0
ENDSEC
0
SECTION
2
CLASSES
0
CLASS
1
RASTERVARIABLES
2
AcDbRasterVariables
3
ISM
90
0
280
0
281
0
0
ENDSEC
0
SECTION
2
TABLES
0
TABLE
2
VPORT
5
19d
100
AcDbSymbolTable
0
VPORT
5
1
100
AcDbSymbolTableRecord
100
AcDbViewportTableRecord
2
*Active
70
0
10
0
20
0
11
1
21
1
12
-1
22
1
13
0
23
0
14
0.5
24
0.5
15
10
25
10
16
0
26
0
36
1
17
0
27
0
37
0
0
ENDTAB
0
TABLE
2
LTYPE
5
19e
100
AcDbSymbolTable
0
LTYPE
5
14
100
AcDbSymbolTableRecord
100
AcDbLinetypeTableRecord
70
0
2
ByBlock
3

72
65
73
0
40
0
0
LTYPE
5
15
100
AcDbSymbolTableRecord
100
AcDbLinetypeTableRecord
70
0
2
ByLayer
3

72
65
73
0
40
0
0
LTYPE
5
16
100
AcDbSymbolTableRecord
100
AcDbLinetypeTableRecord
70
0
2
CONTINUOUS
3
Solid line
72
65
73
0
40
0
0
LTYPE
5
6A
100
AcDbSymbolTableRecord
100
AcDbLinetypeTableRecord
70
0
2
CENTER
3
____ _ ____ _ ____ _ ____
72
65
73
4
40
47.5
49
22
74
0
49
-8.5
74
0
49
8.5
74
0
49
-8.5
74
0
0
LTYPE
5
6B
100
AcDbSymbolTableRecord
100
AcDbLinetypeTableRecord
70
0
2
DASHED
3
__ __ __ __ __ __ __ __ __
72
65
73
2
40
25.72
49
12.86
74
0
49
-12.86
74
0
0
ENDTAB
0
TABLE
2
LAYER
5
19f
100
AcDbSymbolTable
0
LAYER
5
10
100
AcDbSymbolTableRecord
100
AcDbLayerTableRecord
2
0
70
0
62
7
6
CONTINUOUS
290
1
370
-3
390
0
0
LAYER
5
6D
100
AcDbSymbolTableRecord
100
AcDbLayerTableRecord
2
81
70
0
62
-3
6
CONTINUOUS
290
1
370
-3
390
0
0
LAYER
5
6F
100
AcDbSymbolTableRecord
100
AcDbLayerTableRecord
2
80
70
0
62
-6
6
CONTINUOUS
290
1
370
-3
390
0
0
LAYER
5
74
100
AcDbSymbolTableRecord
100
AcDbLayerTableRecord
2
2
70
0
62
7
6
CONTINUOUS
290
1
370
-3
390
0
0
LAYER
5
78
100
AcDbSymbolTableRecord
100
AcDbLayerTableRecord
2
1
70
0
62
4
6
CONTINUOUS
290
1
370
-3
390
0
0
LAYER
5
8A
100
AcDbSymbolTableRecord
100
AcDbLayerTableRecord
2
4
70
0
62
-2
6
CENTER
290
1
370
-3
390
0
0
LAYER
5
189
100
AcDbSymbolTableRecord
100
AcDbLayerTableRecord
2
SK2
70
0
62
7
6
CONTINUOUS
290
1
370
-3
390
0
0
LAYER
5
18a
100
AcDbSymbolTableRecord
100
AcDbLayerTableRecord
2
SK1
70
0
62
4
6
CONTINUOUS
290
1
370
-3
390
0
0
LAYER
5
18b
100
AcDbSymbolTableRecord
100
AcDbLayerTableRecord
2
SK4
70
0
62
2
6
CENTER
290
1
370
-3
390
0
0
LAYER
5
18c
100
AcDbSymbolTableRecord
100
AcDbLayerTableRecord
2
SK6
70
0
62
5
6
CONTINUOUS
290
1
370
-3
390
0
0
ENDTAB
0
TABLE
2
STYLE
5
1a0
100
AcDbSymbolTable
0
STYLE
5
11
100
AcDbSymbolTableRecord
100
AcDbTextStyleTableRecord
2
Standard
3
txt
70
0
71
0
40
0
41
1
42
0
50
0
0
STYLE
5
E5
100
AcDbSymbolTableRecord
100
AcDbTextStyleTableRecord
2
iso_b_vert
3
simplex.shx
70
0
71
0
40
0
41
1
42
0
50
0
0
STYLE
5
E6
100
AcDbSymbolTableRecord
100
AcDbTextStyleTableRecord
2
DWGDirectTextStyle
3
simplex
70
0
71
0
40
0
41
1
42
0
50
0
0
ENDTAB
0
TABLE
2
DIMSTYLE
5
1a1
100
AcDbSymbolTable
100
AcDbDimStyleTable
0
DIMSTYLE
105
27
100
AcDbSymbolTableRecord
100
AcDbDimStyleTableRecord
2
Standard
70
0
3
<>
41
0.18
42
0.0625
44
0.18
140
0.18
147
0.09
73
0
74
0
77
1
271
2
275
0
278
52
280
0
340
11
0
ENDTAB
0
TABLE
2
VIEW
5
1a2
100
AcDbSymbolTable
0
ENDTAB
0
TABLE
2
UCS
5
1a3
100
AcDbSymbolTable
0
ENDTAB
0
TABLE
2
APPID
5
1a4
100
AcDbSymbolTable
0
APPID
5
12
100
AcDbSymbolTableRecord
100
AcDbRegAppTableRecord
2
ACAD
70
0
0
ENDTAB
0
TABLE
2
BLOCK_RECORD
5
1a5
100
AcDbSymbolTable
0
BLOCK_RECORD
5
1F
100
AcDbSymbolTableRecord
100
AcDbBlockTableRecord
2
*Model_Space
340
0
70
0
0
BLOCK_RECORD
5
1B
100
AcDbSymbolTableRecord
100
AcDbBlockTableRecord
2
*Paper_Space
340
0
70
0
0
BLOCK_RECORD
5
23
100
AcDbSymbolTableRecord
100
AcDbBlockTableRecord
2
*Paper_Space0
340
0
70
0
0
BLOCK_RECORD
5
E8
100
AcDbSymbolTableRecord
100
AcDbBlockTableRecord
2
DimnDraft3D1
340
0
70
0
0
BLOCK_RECORD
5
F2
100
AcDbSymbolTableRecord
100
AcDbBlockTableRecord
2
DimnDraft3D2
340
0
70
0
0
BLOCK_RECORD
5
FC
100
AcDbSymbolTableRecord
100
AcDbBlockTableRecord
2
DimnDraft3D3
340
0
70
0
0
BLOCK_RECORD
5
106
100
AcDbSymbolTableRecord
100
AcDbBlockTableRecord
2
DimnDraft3D4
340
0
70
0
0
BLOCK_RECORD
5
110
100
AcDbSymbolTableRecord
100
AcDbBlockTableRecord
2
DimnDraft3D5
340
0
70
0
0
BLOCK_RECORD
5
11A
100
AcDbSymbolTableRecord
100
AcDbBlockTableRecord
2
DimnDraft3D6
340
0
70
0
0
BLOCK_RECORD
5
125
100
AcDbSymbolTableRecord
100
AcDbBlockTableRecord
2
DimnDraft3D7
340
0
70
0
0
ENDTAB
0
ENDSEC
0
SECTION
2
BLOCKS
0
BLOCK
5
20
100
AcDbEntity
8
0
100
AcDbBlockBegin
2
*Model_Space
70
0
10
0
20
0
30
0
3
*Model_Space
0
ENDBLK
5
21
100
AcDbEntity
8
0
100
AcDbBlockEnd
0
BLOCK
5
1C
100
AcDbEntity
8
0
100
AcDbBlockBegin
2
*Paper_Space
70
0
10
0
20
0
30
0
3
*Paper_Space
0
ENDBLK
5
1D
100
AcDbEntity
8
0
100
AcDbBlockEnd
0
BLOCK
5
24
100
AcDbEntity
8
0
100
AcDbBlockBegin
2
*Paper_Space0
70
0
10
0
20
0
30
0
3
*Paper_Space0
0
ENDBLK
5
25
100
AcDbEntity
8
0
100
AcDbBlockEnd
0
BLOCK
5
EF
100
AcDbEntity
8
0
100
AcDbBlockBegin
2
DimnDraft3D1
70
0
10
0
20
0
30
0
3
DimnDraft3D1
0
MTEXT
5
E9
100
AcDbEntity
8
SK2
62
256
6
ByLayer
370
13
48
1
60
0
100
AcDbMText
10
29.281375
20
-15.238398
30
0
210
0
220
0
230
1
1
\W0.7317;70,98
40
3.5
41
0
44
1.084337
50
0
71
7
72
5
7
iso_b_vert
0
LINE
5
EA
100
AcDbEntity
8
SK2
62
256
6
ByLayer
370
13
48
1
60
0
100
AcDbLine
10
0
20
-1.5875
30
0
11
0
21
-18.113398
31
0
39
0
210
0
220
0
230
1
0
LINE
5
EB
100
AcDbEntity
8
SK2
62
256
6
ByLayer
370
13
48
1
60
0
100
AcDbLine
10
70.98
20
-7.4875
30
0
11
70.98
21
-18.113398
31
0
39
0
210
0
220
0
230
1
0
LINE
5
EC
100
AcDbEntity
8
SK2
62
256
6
ByLayer
370
13
48
1
60
0
100
AcDbLine
10
0
20
-16.113398
30
0
11
70.98
21
-16.113398
31
0
39
0
210
0
220
0
230
1
0
SOLID
5
ED
100
AcDbEntity
8
SK2
62
256
6
ByLayer
370
13
48
1
60
0
100
AcDbTrace
10
0
20
-16.113398
30
0
11
3.499998
21
-15.652615
31
0
12
3.500002
22
-16.574182
32
0
13
0
23
-16.113398
33
0
39
0
210
0
220
0
230
1
0
SOLID
5
EE
100
AcDbEntity
8
SK2
62
256
6
ByLayer
370
13
48
1
60
0
100
AcDbTrace
10
70.98
20
-16.113398
30
0
11
67.480002
21
-16.574182
31
0
12
67.479998
22
-15.652615
32
0
13
70.98
23
-16.113398
33
0
39
0
210
0
220
0
230
1
0
ENDBLK
5
F0
100
AcDbEntity
8
0
100
AcDbBlockEnd
0
BLOCK
5
F9
100
AcDbEntity
8
0
100
AcDbBlockBegin
2
DimnDraft3D2
70
0
10
0
20
0
30
0
3
DimnDraft3D2
0
MTEXT
5
F3
100
AcDbEntity
8
SK2
62
256
6
ByLayer
370
13
48
1
60
0
100
AcDbMText
10
8.439721
20
-33.817985
30
0
210
0
220
0
230
1
1
\W0.6440;118,00
40
3.5
41
0
44
1.084337
50
0
71
7
72
5
7
iso_b_vert
0
LINE
5
F4
100
AcDbEntity
8
SK2
62
256
6
ByLayer
370
13
48
1
60
0
100
AcDbLine
10
-45
20
-7.5875
30
0
11
-45
21
-36.692985
31
0
39
0
210
0
220
0
230
1
0
LINE
5
F5
100
AcDbEntity
8
SK2
62
256
6
ByLayer
370
13
48
1
60
0
100
AcDbLine
10
73
20
-1.5875
30
0
11
73
21
-36.692985
31
0
39
0
210
0
220
0
230
1
0
LINE
5
F6
100
AcDbEntity
8
SK2
62
256
6
ByLayer
370
13
48
1
60
0
100
AcDbLine
10
-45
20
-34.692985
30
0
11
73
21
-34.692985
31
0
39
0
210
0
220
0
230
1
0
SOLID
5
F7
100
AcDbEntity
8
SK2
62
256
6
ByLayer
370
13
48
1
60
0
100
AcDbTrace
10
-45
20
-34.692985
30
0
11
-41.500002
21
-34.232202
31
0
12
-41.499998
22
-35.153769
32
0
13
-45
23
-34.692985
33
0
39
0
210
0
220
0
230
1
0
SOLID
5
F8
100
AcDbEntity
8
SK2
62
256
6
ByLayer
370
13
48
1
60
0
100
AcDbTrace
10
73
20
-34.692985
30
0
11
69.500002
21
-35.153769
31
0
12
69.499998
22
-34.232202
32
0
13
73
23
-34.692985
33
0
39
0
210
0
220
0
230
1
0
ENDBLK
5
FA
100
AcDbEntity
8
0
100
AcDbBlockEnd
0
BLOCK
5
103
100
AcDbEntity
8
0
100
AcDbBlockBegin
2
DimnDraft3D3
70
0
10
0
20
0
30
0
3
DimnDraft3D3
0
MTEXT
5
FD
100
AcDbEntity
8
SK2
62
256
6
ByLayer
370
13
48
1
60
0
100
AcDbMText
10
38.478816
20
18.384119
30
0
210
0
220
0
230
1
1
\W0.6713;61,02
40
3.5
41
0
44
1.084337
50
0
71
7
72
5
7
iso_b_vert
0
LINE
5
FE
100
AcDbEntity
8
SK2
62
256
6
ByLayer
370
13
48
1
60
0
100
AcDbLine
10
11.98
20
7.4875
30
0
11
11.98
21
19.509119
31
0
39
0
210
0
220
0
230
1
0
LINE
5
FF
100
AcDbEntity
8
SK2
62
256
6
ByLayer
370
13
48
1
60
0
100
AcDbLine
10
73
20
1.5875
30
0
11
73
21
19.509119
31
0
39
0
210
0
220
0
230
1
0
LINE
5
100
100
AcDbEntity
8
SK2
62
256
6
ByLayer
370
13
48
1
60
0
100
AcDbLine
10
11.98
20
17.509119
30
0
11
73
21
17.509119
31
0
39
0
210
0
220
0
230
1
0
SOLID
5
101
100
AcDbEntity
8
SK2
62
256
6
ByLayer
370
13
48
1
60
0
100
AcDbTrace
10
11.98
20
17.509119
30
0
11
15.479998
21
17.969903
31
0
12
15.480002
22
17.048335
32
0
13
11.98
23
17.509119
33
0
39
0
210
0
220
0
230
1
0
SOLID
5
102
100
AcDbEntity
8
SK2
62
256
6
ByLayer
370
13
48
1
60
0
100
AcDbTrace
10
73
20
17.509119
30
0
11
69.500002
21
17.048335
31
0
12
69.499998
22
17.969903
32
0
13
73
23
17.509119
33
0
39
0
210
0
220
0
230
1
0
ENDBLK
5
104
100
AcDbEntity
8
0
100
AcDbBlockEnd
0
BLOCK
5
10D
100
AcDbEntity
8
0
100
AcDbBlockBegin
2
DimnDraft3D4
70
0
10
0
20
0
30
0
3
DimnDraft3D4
0
MTEXT
5
107
100
AcDbEntity
8
SK2
62
256
6
ByLayer
370
13
48
1
60
0
100
AcDbMText
10
79.840636
20
-17.827503
30
0
210
0
220
0
230
1
1
\W0.7150;2,02
40
3.5
41
0
44
1.084337
50
0
71
7
72
5
7
iso_b_vert
0
LINE
5
108
100
AcDbEntity
8
SK2
62
256
6
ByLayer
370
13
48
1
60
0
100
AcDbLine
10
73
20
-1.5875
30
0
11
73
21
-20.702503
31
0
39
0
210
0
220
0
230
1
0
LINE
5
109
100
AcDbEntity
8
SK2
62
256
6
ByLayer
370
13
48
1
60
0
100
AcDbLine
10
70.98
20
-7.4875
30
0
11
70.98
21
-20.702503
31
0
39
0
210
0
220
0
230
1
0
LINE
5
10A
100
AcDbEntity
8
SK2
62
256
6
ByLayer
370
13
48
1
60
0
100
AcDbLine
10
62.23
20
-18.702503
30
0
11
86.997215
21
-18.702503
31
0
39
0
210
0
220
0
230
1
0
SOLID
5
10B
100
AcDbEntity
8
SK2
62
256
6
ByLayer
370
13
48
1
60
0
100
AcDbTrace
10
73
20
-18.702503
30
0
11
76.499998
21
-18.241719
31
0
12
76.500002
22
-19.163287
32
0
13
73
23
-18.702503
33
0
39
0
210
0
220
0
230
1
0
SOLID
5
10C
100
AcDbEntity
8
SK2
62
256
6
ByLayer
370
13
48
1
60
0
100
AcDbTrace
10
70.98
20
-18.702503
30
0
11
67.480002
21
-19.163287
31
0
12
67.479998
22
-18.241719
32
0
13
70.98
23
-18.702503
33
0
39
0
210
0
220
0
230
1
0
ENDBLK
5
10E
100
AcDbEntity
8
0
100
AcDbBlockEnd
0
BLOCK
5
117
100
AcDbEntity
8
0
100
AcDbBlockBegin
2
DimnDraft3D5
70
0
10
0
20
0
30
0
3
DimnDraft3D5
0
MTEXT
5
111
100
AcDbEntity
8
SK2
62
256
6
ByLayer
370
13
48
1
60
0
100
AcDbMText
10
5.359097
20
-23.468428
30
0
210
0
220
0
230
1
1
\W0.6440;115,98
40
3.5
41
0
44
1.084337
50
0
71
7
72
5
7
iso_b_vert
0
LINE
5
112
100
AcDbEntity
8
SK2
62
256
6
ByLayer
370
13
48
1
60
0
100
AcDbLine
10
-45
20
-7.5875
30
0
11
-45
21
-26.343428
31
0
39
0
210
0
220
0
230
1
0
LINE
5
113
100
AcDbEntity
8
SK2
62
256
6
ByLayer
370
13
48
1
60
0
100
AcDbLine
10
70.98
20
-7.4875
30
0
11
70.98
21
-26.343428
31
0
39
0
210
0
220
0
230
1
0
LINE
5
114
100
AcDbEntity
8
SK2
62
256
6
ByLayer
370
13
48
1
60
0
100
AcDbLine
10
-45
20
-24.343428
30
0
11
70.98
21
-24.343428
31
0
39
0
210
0
220
0
230
1
0
SOLID
5
115
100
AcDbEntity
8
SK2
62
256
6
ByLayer
370
13
48
1
60
0
100
AcDbTrace
10
-45
20
-24.343428
30
0
11
-41.500002
21
-23.882645
31
0
12
-41.499998
22
-24.804212
32
0
13
-45
23
-24.343428
33
0
39
0
210
0
220
0
230
1
0
SOLID
5
116
100
AcDbEntity
8
SK2
62
256
6
ByLayer
370
13
48
1
60
0
100
AcDbTrace
10
70.98
20
-24.343428
30
0
11
67.480002
21
-24.804212
31
0
12
67.479998
22
-23.882645
32
0
13
70.98
23
-24.343428
33
0
39
0
210
0
220
0
230
1
0
ENDBLK
5
118
100
AcDbEntity
8
0
100
AcDbBlockEnd
0
BLOCK
5
122
100
AcDbEntity
8
0
100
AcDbBlockBegin
2
DimnDraft3D6
70
0
10
0
20
0
30
0
3
DimnDraft3D6
0
MTEXT
5
11B
100
AcDbEntity
8
SK2
62
256
6
ByLayer
370
13
48
1
60
0
100
AcDbMText
10
-55.375163
20
25.34918
30
0
210
0
220
0
230
1
1
\W0.6930;12,000
40
3.5
41
0
44
1.084337
50
90
71
7
72
5
7
iso_b_vert
0
MTEXT
5
11C
100
AcDbEntity
8
SK2
62
256
6
ByLayer
370
13
48
1
60
0
100
AcDbMText
10
-55.375163
20
20.126524
30
0
210
0
220
0
230
1
1
%%c
40
3.5
41
0
44
1.084337
50
90
71
7
72
5
7
iso_b_vert
0
LINE
5
11D
100
AcDbEntity
8
SK2
62
256
6
ByLayer
370
13
48
1
60
0
100
AcDbLine
10
-46.5875
20
-6
30
0
11
-55.625163
21
-6
31
0
39
0
210
0
220
0
230
1
0
LINE
5
11E
100
AcDbEntity
8
SK2
62
256
6
ByLayer
370
13
48
1
60
0
100
AcDbLine
10
-46.5875
20
6
30
0
11
-55.625163
21
6
31
0
39
0
210
0
220
0
230
1
0
LINE
5
11F
100
AcDbEntity
8
SK2
62
256
6
ByLayer
370
13
48
1
60
0
100
AcDbLine
10
-53.625163
20
-6
30
0
11
-53.625163
21
36.862338
31
0
39
0
210
0
220
0
230
1
0
SOLID
5
120
100
AcDbEntity
8
SK2
62
256
6
ByLayer
370
13
48
1
60
0
100
AcDbTrace
10
-53.625163
20
-6
30
0
11
-54.085946
21
-2.500002
31
0
12
-53.164379
22
-2.499998
32
0
13
-53.625163
23
-6
33
0
39
0
210
0
220
0
230
1
0
SOLID
5
121
100
AcDbEntity
8
SK2
62
256
6
ByLayer
370
13
48
1
60
0
100
AcDbTrace
10
-53.625163
20
6
30
0
11
-53.164379
21
2.500002
31
0
12
-54.085946
22
2.499998
32
0
13
-53.625163
23
6
33
0
39
0
210
0
220
0
230
1
0
ENDBLK
5
123
100
AcDbEntity
8
0
100
AcDbBlockEnd
0
BLOCK
5
12D
100
AcDbEntity
8
0
100
AcDbBlockBegin
2
DimnDraft3D7
70
0
10
0
20
0
30
0
3
DimnDraft3D7
0
MTEXT
5
126
100
AcDbEntity
8
2
62
256
6
ByLayer
370
13
48
1
60
0
100
AcDbMText
10
83.333343
20
23.842266
30
0
210
0
220
0
230
1
1
\W0.6440;11,800
40
3.5
41
0
44
1.084337
50
90
71
7
72
5
7
iso_b_vert
0
MTEXT
5
127
100
AcDbEntity
8
2
62
256
6
ByLayer
370
13
48
1
60
0
100
AcDbMText
10
83.333343
20
18.61961
30
0
210
0
220
0
230
1
1
%%c
40
3.5
41
0
44
1.084337
50
90
71
7
72
5
7
iso_b_vert
0
LINE
5
128
100
AcDbEntity
8
2
62
256
6
ByLayer
370
13
48
1
60
0
100
AcDbLine
10
72.5675
20
-5.9
30
0
11
87.083343
21
-5.9
31
0
39
0
210
0
220
0
230
1
0
LINE
5
129
100
AcDbEntity
8
2
62
256
6
ByLayer
370
13
48
1
60
0
100
AcDbLine
10
72.5675
20
5.9
30
0
11
87.083343
21
5.9
31
0
39
0
210
0
220
0
230
1
0
LINE
5
12A
100
AcDbEntity
8
2
62
256
6
ByLayer
370
13
48
1
60
0
100
AcDbLine
10
85.083343
20
-5.9
30
0
11
85.083343
21
34.480424
31
0
39
0
210
0
220
0
230
1
0
SOLID
5
12B
100
AcDbEntity
8
2
62
256
6
ByLayer
370
13
48
1
60
0
100
AcDbTrace
10
85.083343
20
-5.9
30
0
11
84.622559
21
-2.400002
31
0
12
85.544126
22
-2.399998
32
0
13
85.083343
23
-5.9
33
0
39
0
210
0
220
0
230
1
0
SOLID
5
12C
100
AcDbEntity
8
2
62
256
6
ByLayer
370
13
48
1
60
0
100
AcDbTrace
10
85.083343
20
5.9
30
0
11
85.544126
21
2.400002
31
0
12
84.622559
22
2.399998
32
0
13
85.083343
23
5.9
33
0
39
0
210
0
220
0
230
1
0
ENDBLK
5
12E
100
AcDbEntity
8
0
100
AcDbBlockEnd
0
ENDSEC
0
SECTION
2
ENTITIES
0
ELLIPSE
5
9F
100
AcDbEntity
8
1
62
256
6
ByLayer
370
18
48
1
60
0
100
AcDbEllipse
10
71.907458
20
2.804645
30
0
11
0.908456535949393
21
-2.47687625427244
31
0
210
0
220
0
230
-1
40
0.082138
41
-1.57583891592832
42
-0.755280950347649
0
ELLIPSE
5
A0
100
AcDbEntity
8
1
62
256
6
ByLayer
370
13
48
1
60
0
100
AcDbEllipse
10
4.172799
20
-4.66338
30
0
11
-0.0145445918123713
21
0.0989366203638041
31
0
210
0
220
0
230
1
40
0.634494
41
0.697487046905126
42
1.98874999789419
0
ELLIPSE
5
A1
100
AcDbEntity
8
1
62
256
6
ByLayer
370
18
48
1
60
0
100
AcDbEllipse
10
73.021189
20
0.043296
30
0
11
0.135658546072486
21
-0.40120080632996
31
0
210
0
220
0
230
-1
40
0.065863
41
1.62413596946352
42
2.32292776274396
0
ELLIPSE
5
A2
100
AcDbEntity
8
1
62
256
6
ByLayer
370
18
48
1
60
0
100
AcDbEllipse
10
72.860185
20
0.123013
30
0
11
0.0868803724490285
21
0.290676908895637
31
0
210
0
220
0
230
-1
40
0.467765
41
1.66306556584289
42
2.36053717394555
0
ELLIPSE
5
A3
100
AcDbEntity
8
1
62
256
6
ByLayer
370
18
48
1
60
0
100
AcDbEllipse
10
71.907458
20
-2.804645
30
0
11
0.908456535993501
21
2.47687625437374
31
0
210
0
220
0
230
-1
40
0.082138
41
0.755280950346068
42
1.57583891589648
0
ELLIPSE
5
A4
100
AcDbEntity
8
1
62
256
6
ByLayer
370
13
48
1
60
0
100
AcDbEllipse
10
4.250193
20
-4.672401
30
0
11
0.0324754881607617
21
0.0945798216784121
31
0
210
0
220
0
230
1
40
0.420194
41
0.682609992764667
42
2.24105054986182
0
ELLIPSE
5
A5
100
AcDbEntity
8
1
62
256
6
ByLayer
370
18
48
1
60
0
100
AcDbEllipse
10
73.021189
20
-0.043296
30
0
11
0.135658546098247
21
0.401200806396837
31
0
210
0
220
0
230
-1
40
0.065863
41
-2.32292776273677
42
-1.62413596956461
0
ELLIPSE
5
A6
100
AcDbEntity
8
1
62
256
6
ByLayer
370
13
48
1
60
0
100
AcDbEllipse
10
71.411472
20
0.840302
30
0
11
0.133113781883897
21
0.268850741253518
31
0
210
0
220
0
230
1
40
0.40558
41
0.8844859171309
42
2.28074931872642
0
ELLIPSE
5
A7
100
AcDbEntity
8
1
62
256
6
ByLayer
370
18
48
1
60
0
100
AcDbEllipse
10
73.0005
20
-0.001289
30
0
11
2.1634271636002
21
-5.89851153048373
31
0
210
0
220
0
230
-1
40
0.082138
41
-2.98901677804865
42
-2.89497354852739
0
ELLIPSE
5
A8
100
AcDbEntity
8
1
62
256
6
ByLayer
370
13
48
1
60
0
100
AcDbEllipse
10
72.096016
20
2.670353
30
0
11
3.93872491017423
21
-2.02485642861396
31
0
210
0
220
0
230
-1
40
0.482873
41
1.53949524920435
42
1.84568385191977
0
ELLIPSE
5
A9
100
AcDbEntity
8
1
62
256
6
ByLayer
370
13
48
1
60
0
100
AcDbEllipse
10
72.265475
20
2.804645
30
0
11
3.98458187017953
21
-1.71473156319222
31
0
210
0
220
0
230
-1
40
0.448957
41
1.59196346733429
42
1.8957144129988
0
ELLIPSE
5
AA
100
AcDbEntity
8
1
62
256
6
ByLayer
370
18
48
1
60
0
100
AcDbEllipse
10
73.0005
20
0.001289
30
0
11
2.16342717238319
21
5.89851155544731
31
0
210
0
220
0
230
-1
40
0.082138
41
2.89497354905348
42
2.98901677837442
0
POINT
5
6C
100
AcDbEntity
8
81
62
256
6
ByLayer
370
18
48
1
60
0
100
AcDbPoint
10
73
20
0
30
0
39
0
210
0
220
0
230
1
50
360
0
POINT
5
6E
100
AcDbEntity
8
80
62
256
6
ByLayer
370
18
48
1
60
0
100
AcDbPoint
10
0
20
0
30
0
39
0
210
0
220
0
230
1
50
360
0
POINT
5
70
100
AcDbEntity
8
SK2
62
256
6
ByLayer
370
18
48
1
60
1
100
AcDbPoint
10
-45
20
-6
30
0
39
0
210
0
220
0
230
1
50
360
0
POINT
5
72
100
AcDbEntity
8
SK2
62
256
6
ByLayer
370
18
48
1
60
1
100
AcDbPoint
10
-45
20
6
30
0
39
0
210
0
220
0
230
1
50
360
0
POINT
5
73
100
AcDbEntity
8
2
62
256
6
ByLayer
370
18
48
1
60
1
100
AcDbPoint
10
70.98
20
-5.9
30
0
39
0
210
0
220
0
230
1
50
360
0
POINT
5
75
100
AcDbEntity
8
2
62
256
6
ByLayer
370
18
48
1
60
1
100
AcDbPoint
10
70.98
20
5.9
30
0
39
0
210
0
220
0
230
1
50
360
0
SPLINE
5
AB
100
AcDbEntity
8
1
62
256
6
ByLayer
370
18
48
1
60
0
100
AcDbSpline
70
4
71
3
72
10
73
6
40
0
40
0
40
0
40
0
40
0.0005752026445303
40
0.300397453086885
40
1
40
1
40
1
40
1
41
1
10
26.1559842562448
20
-1.30642812831241
30
0
41
1
10
26.1559802968518
20
-1.306426106971
30
0
41
1
10
26.1539318002238
20
-1.30538135548181
30
0
41
1
10
26.1807448086259
20
-1.32089203986303
30
0
41
1
10
26.2205782101595
20
-1.34504584689495
30
0
41
1
10
26.2660208656692
20
-1.37235440918732
30
0
0
SPLINE
5
AC
100
AcDbEntity
8
1
62
256
6
ByLayer
370
18
48
1
60
0
100
AcDbSpline
70
4
71
3
72
31
73
27
40
0
40
0
40
0
40
0
40
0.0397494167898126
40
0.0724350215480481
40
0.102611864049415
40
0.131930797134859
40
0.161193893425755
40
0.203415066036378
40
0.246388473252515
40
0.285554169602271
40
0.329538391690241
40
0.37661748043916
40
0.410200594459872
40
0.453657439591117
40
0.486848543953757
40
0.517847653789929
40
0.58074716538029
40
0.649625303937854
40
0.716793675377933
40
0.782300251401408
40
0.829026633001654
40
0.869112637361641
40
0.908123228723136
40
0.943340269308293
40
0.980642613409586
40
1
40
1
40
1
40
1
41
1
10
39.9312512825149
20
-5.62050427564662
30
0
41
1
10
40.126680784844
20
-5.61918175608707
30
0
41
1
10
40.4879434183979
20
-5.61787245772689
30
0
41
1
10
41.0357923593335
20
-5.61850316079412
30
0
41
1
10
41.4988367789552
20
-5.62190013311189
30
0
41
1
10
41.9628371639239
20
-5.62172428727646
30
0
41
1
10
42.4901427148717
20
-5.62215153403511
30
0
41
1
10
43.0891354669589
20
-5.62275869481834
30
0
41
1
10
43.7398398079421
20
-5.62284370676485
30
0
41
1
10
44.3998009388589
20
-5.6232277027712
30
0
41
1
10
45.0812649951308
20
-5.6240385570475
30
0
41
1
10
45.7334638495998
20
-5.62388617552284
30
0
41
1
10
46.3829525484252
20
-5.62419723558273
30
0
41
1
10
46.9597583790055
20
-5.62512921775877
30
0
41
1
10
47.5230447084911
20
-5.6250198088031
30
0
41
1
10
48.1880698771151
20
-5.62485259958513
30
0
41
1
10
49.0398359092879
20
-5.62717917980376
30
0
41
1
10
50.080854763926
20
-5.62520262542651
30
0
41
1
10
51.1355475326236
20
-5.62839131036648
30
0
41
1
10
52.0742262338159
20
-5.62643033440838
30
0
41
1
10
52.8714736553724
20
-5.62981785161415
30
0
41
1
10
53.5292076402958
20
-5.62971573395541
30
0
41
1
10
54.1294083535137
20
-5.6289198291548
30
0
41
1
10
54.6977316215003
20
-5.62857631746391
30
0
41
1
10
55.1679478700025
20
-5.62360229347232
30
0
41
1
10
55.4633669483412
20
-5.62474740928621
30
0
41
1
10
55.5647231722185
20
-5.625330387688
30
0
0
SPLINE
5
AD
100
AcDbEntity
8
1
62
256
6
ByLayer
370
18
48
1
60
0
100
AcDbSpline
70
4
71
3
72
11
73
7
40
0
40
0
40
0
40
0
40
0.0929995912702671
40
0.20684744331051
40
0.483134625137998
40
1
40
1
40
1
40
1
41
1
10
56.0702449460679
20
-1.28785924239469
30
0
41
1
10
56.0702839529723
20
-1.28791580009477
30
0
41
1
10
56.0726308508268
20
-1.28929058125706
30
0
41
1
10
56.094542522571
20
-1.3017139044741
30
0
41
1
10
56.1997911807713
20
-1.36232024410052
30
0
41
1
10
56.2987438850938
20
-1.42130029863216
30
0
41
1
10
56.3779102756504
20
-1.4688909979109
30
0
0
SPLINE
5
AE
100
AcDbEntity
8
1
62
256
6
ByLayer
370
18
48
1
60
0
100
AcDbSpline
70
4
71
3
72
33
73
29
40
0
40
0
40
0
40
0
40
0.0023144616454005
40
0.0612017584149687
40
0.10586789945533
40
0.143698929733143
40
0.176700753977624
40
0.208046525924993
40
0.24878505820748
40
0.288944596976294
40
0.32185104539394
40
0.348418468845004
40
0.381123472548925
40
0.418131943892763
40
0.467142032475746
40
0.507061487832444
40
0.543630689282778
40
0.589656700689274
40
0.641111854577068
40
0.680300562256949
40
0.722261731802162
40
0.775946939360304
40
0.823024012741999
40
0.861130598168787
40
0.910173317693979
40
0.95337683328199
40
0.984928511246996
40
1
40
1
40
1
40
1
41
1
10
25.3578772519076
20
5.61283640991039
30
0
41
1
10
25.3481322206823
20
5.61282107355478
30
0
41
1
10
25.0904515908267
20
5.61242227285169
30
0
41
1
10
24.6394692045743
20
5.61362373810218
30
0
41
1
10
24.0514240554914
20
5.61220760993854
30
0
41
1
10
23.5644438172955
20
5.61151635417252
30
0
41
1
10
23.1328149740337
20
5.61203920426286
30
0
41
1
10
22.6895313963327
20
5.6126577929017
30
0
41
1
10
22.2151238358912
20
5.61149909949125
30
0
41
1
10
21.7343662428359
20
5.61025632710087
30
0
41
1
10
21.3134177544863
20
5.61049004012449
30
0
41
1
10
20.92397400255
20
5.61085464862333
30
0
41
1
10
20.5171964660819
20
5.61128522298739
30
0
41
1
10
20.0156028766865
20
5.60980275054689
30
0
41
1
10
19.4835282676991
20
5.60899856233269
30
0
41
1
10
18.9533086578402
20
5.60922656470677
30
0
41
1
10
18.4356952165978
20
5.60976322608875
30
0
41
1
10
17.8693518879778
20
5.60780969977148
30
0
41
1
10
17.2919353418886
20
5.60760290515407
30
0
41
1
10
16.7316922312039
20
5.60809871653473
30
0
41
1
10
16.1620292775849
20
5.60776464398418
30
0
41
1
10
15.5590397027437
20
5.60626309376295
30
0
41
1
10
14.9723333441705
20
5.60648053552177
30
0
41
1
10
14.4052389070907
20
5.6064580849696
30
0
41
1
10
13.8545190852328
20
5.60547671005043
30
0
41
1
10
13.3315054276183
20
5.60500978233947
30
0
41
1
10
12.9519615904246
20
5.60484060826204
30
0
41
1
10
12.7553241512672
20
5.60460763136859
30
0
41
1
10
12.691744884212
20
5.604539417837
30
0
0
SPLINE
5
AF
100
AcDbEntity
8
1
62
256
6
ByLayer
370
18
48
1
60
0
100
AcDbSpline
70
4
71
3
72
25
73
21
40
0
40
0
40
0
40
0
40
0.0232637439529038
40
0.0726513578864447
40
0.11821207427867
40
0.156402752269444
40
0.195177813189734
40
0.242932258783325
40
0.29044996235977
40
0.335058473645513
40
0.417862622993695
40
0.503134464621181
40
0.581110386295412
40
0.637405203071016
40
0.713364743223748
40
0.782131645524287
40
0.866035362997028
40
0.931422516780319
40
0.97215010751254
40
1
40
1
40
1
40
1
41
1
10
55.5638313925387
20
5.6253278125302
30
0
41
1
10
55.462775942388
20
5.62477047040221
30
0
41
1
10
55.1483990391294
20
5.62356402264479
30
0
41
1
10
54.6480453741233
20
5.62888198436801
30
0
41
1
10
54.0827460515216
20
5.628977381981
30
0
41
1
10
53.5495299760288
20
5.62959869009444
30
0
41
1
10
53.0085073452863
20
5.63008247528623
30
0
41
1
10
52.426460550695
20
5.62752527933898
30
0
41
1
10
51.8192463577242
20
5.62722056714443
30
0
41
1
10
51.0598217512319
20
5.62796645165068
30
0
41
1
10
50.136516109234
20
5.62520434167777
30
0
41
1
10
49.0683507905208
20
5.627213151158
30
0
41
1
10
48.1152665887655
20
5.62461814350061
30
0
41
1
10
47.2026091899867
20
5.62534787181261
30
0
41
1
10
46.3299272711332
20
5.62398767612689
30
0
41
1
10
45.3374021081123
20
5.62408465278222
30
0
41
1
10
44.3907699656071
20
5.62316707562658
30
0
41
1
10
43.5658386596165
20
5.62284468592168
30
0
41
1
10
42.9843082046931
20
5.62264636970812
30
0
41
1
10
42.6865750488312
20
5.6223610489061
30
0
41
1
10
42.5656756405982
20
5.62224511101255
30
0
0
SPLINE
5
B0
100
AcDbEntity
8
1
62
256
6
ByLayer
370
18
48
1
60
0
100
AcDbSpline
70
4
71
3
72
38
73
34
40
0
40
0
40
0
40
0
40
0.0554369047898593
40
0.103517655627126
40
0.140381627086186
40
0.166714022804515
40
0.185093150033837
40
0.210455638786488
40
0.245296108763538
40
0.277898628773583
40
0.303732642831524
40
0.334187875991176
40
0.373509254066757
40
0.412276822886773
40
0.442091736174255
40
0.472883808522638
40
0.512288108470801
40
0.545344524109984
40
0.572566310905898
40
0.598158682215636
40
0.630306304156865
40
0.664077536899971
40
0.687600125538552
40
0.710523594592312
40
0.738402318091868
40
0.774750888181111
40
0.818987578424206
40
0.853575879679814
40
0.880928060996388
40
0.912255816523697
40
0.949239512315646
40
0.998014272041346
40
1
40
1
40
1
40
1
41
1
10
10.0494563343841
20
-5.60250417040271
30
0
41
1
10
10.3317625314045
20
-5.60266077793025
30
0
41
1
10
10.8587051616524
20
-5.60303046906134
30
0
41
1
10
11.5784261567482
20
-5.60328265361315
30
0
41
1
10
12.1406637681219
20
-5.60423270937935
30
0
41
1
10
12.5573363275279
20
-5.60435538649366
30
0
41
1
10
12.9145407440074
20
-5.60481851986066
30
0
41
1
10
13.3159108725671
20
-5.60500979680441
30
0
41
1
10
13.7899024844548
20
-5.60538186080325
30
0
41
1
10
14.2663065575284
20
-5.60627474347436
30
0
41
1
10
14.7203155514981
20
-5.60648200965178
30
0
41
1
10
15.2086454269142
20
-5.60642036768257
30
0
41
1
10
15.7630345891156
20
-5.60649168944278
30
0
41
1
10
16.3141454690534
20
-5.6080940614529
30
0
41
1
10
16.8217001504374
20
-5.60797087772403
30
0
41
1
10
17.3325057857851
20
-5.60762264792385
30
0
41
1
10
17.8598678807364
20
-5.60781616734505
30
0
41
1
10
18.3689884531602
20
-5.60960589119389
30
0
41
1
10
18.8075724596243
20
-5.60938102478534
30
0
41
1
10
19.2415123509742
20
-5.60909918428206
30
0
41
1
10
19.7089051006973
20
-5.6091251445317
30
0
41
1
10
20.1657235654499
20
-5.6103851189454
30
0
41
1
10
20.5754321979209
20
-5.61119911241073
30
0
41
1
10
20.9550426045124
20
-5.61083358715544
30
0
41
1
10
21.4001714193277
20
-5.61038678273312
30
0
41
1
10
21.9540988152673
20
-5.61035314696738
30
0
41
1
10
22.5425416417899
20
-5.61282703007646
30
0
41
1
10
23.0842385179977
20
-5.61210735454426
30
0
41
1
10
23.5604162092781
20
-5.61151417768355
30
0
41
1
10
24.0481231902604
20
-5.61219796852944
30
0
41
1
10
24.6367619658566
20
-5.61362563498389
30
0
41
1
10
25.0886402880089
20
-5.61242240128868
30
0
41
1
10
25.3470052172544
20
-5.61282194588782
30
0
41
1
10
25.3571127213304
20
-5.61283784726413
30
0
0
SPLINE
5
B1
100
AcDbEntity
8
1
62
256
6
ByLayer
370
18
48
1
60
0
100
AcDbSpline
70
4
71
2
72
6
73
3
40
0
40
0
40
0
40
1
40
1
40
1
41
1
10
69.9637242380879
20
-5.63852716244466
30
0
41
1
10
70.454961984045
20
-5.63598953538957
30
0
41
1
10
70.9457587692585
20
-5.64105310867518
30
0
0
SPLINE
5
B2
100
AcDbEntity
8
SK1
62
256
6
ByLayer
370
18
48
1
60
0
100
AcDbSpline
70
4
71
3
72
10
73
6
40
0
40
0
40
0
40
0
40
0.5
40
0.5
40
1
40
1
40
1
40
1
41
1
10
-45
20
3.33942365488701
30
0
41
1
10
-44.7879213063754
20
3.73195642610153
30
0
41
1
10
-44.5722737898406
20
4.12260199239338
30
0
41
1
10
-44.1380829418105
20
4.90236180880206
30
0
41
1
10
-43.9194308847408
20
5.29141856448885
30
0
41
1
10
-43.7
20
5.68006347362228
30
0
0
SPLINE
5
B3
100
AcDbEntity
8
SK1
62
256
6
ByLayer
370
18
48
1
60
0
100
AcDbSpline
70
4
71
3
72
14
73
10
40
0
40
0
40
0
40
0
40
0.125000000000004
40
0.125000000000004
40
0.250000000000009
40
0.250000000000009
40
0.500000000000009
40
0.500000000000009
40
1
40
1
40
1
40
1
41
1
10
-43.6
20
-5.73109491082377
30
0
41
1
10
-43.6
20
-5.72834374419966
30
0
41
1
10
-43.6017220508865
20
-5.72272406253376
30
0
41
1
10
-43.6068954324577
20
-5.70909592911289
30
0
41
1
10
-43.610237321167
20
-5.70129563364662
30
0
41
1
10
-43.6215324998379
20
-5.67623851825971
30
0
41
1
10
-43.6303471072619
20
-5.65820179261303
30
0
41
1
10
-43.658490206513
20
-5.60258194791396
30
0
41
1
10
-43.678793979422
20
-5.56491439158893
30
0
41
1
10
-43.7
20
-5.52735535813594
30
0
0
SPLINE
5
B4
100
AcDbEntity
8
SK1
62
256
6
ByLayer
370
18
48
1
60
0
100
AcDbSpline
70
4
71
3
72
14
73
10
40
0
40
0
40
0
40
0
40
0.5
40
0.5
40
0.75
40
0.75
40
0.875
40
0.875
40
1
40
1
40
1
40
1
41
1
10
-43.7
20
-5.68006347362231
30
0
41
1
10
-43.6789021434844
20
-5.71743093234684
30
0
41
1
10
-43.6585587767126
20
-5.75442591288399
30
0
41
1
10
-43.6303722414292
20
-5.80752754693995
30
0
41
1
10
-43.6214260646625
20
-5.8247292752946
30
0
41
1
10
-43.6102968606991
20
-5.84712659158364
30
0
41
1
10
-43.6069058574072
20
-5.85415432352309
30
0
41
1
10
-43.6017309986994
20
-5.86570021896384
30
0
41
1
10
-43.6
20
-5.87012697388667
30
0
41
1
10
-43.6
20
-5.87158637707125
30
0
0
SPLINE
5
B5
100
AcDbEntity
8
SK1
62
256
6
ByLayer
370
18
48
1
60
0
100
AcDbSpline
70
4
71
3
72
14
73
10
40
0
40
0
40
0
40
0
40
0.500000000000001
40
0.500000000000001
40
0.75
40
0.75
40
0.875
40
0.875
40
1
40
1
40
1
40
1
41
1
10
-43.7
20
5.68006347362231
30
0
41
1
10
-43.6789021434844
20
5.71743093234684
30
0
41
1
10
-43.6585587767126
20
5.75442591288399
30
0
41
1
10
-43.6303722414292
20
5.80752754693995
30
0
41
1
10
-43.6214260646625
20
5.8247292752946
30
0
41
1
10
-43.6102968606991
20
5.84712659158364
30
0
41
1
10
-43.6069058574072
20
5.85415432352309
30
0
41
1
10
-43.6017309986994
20
5.86570021896384
30
0
41
1
10
-43.6
20
5.87012697388664
30
0
41
1
10
-43.6
20
5.87158637707125
30
0
0
SPLINE
5
B6
100
AcDbEntity
8
SK1
62
256
6
ByLayer
370
18
48
1
60
0
100
AcDbSpline
70
4
71
3
72
10
73
6
40
0
40
0
40
0
40
0
40
0.5
40
0.5
40
1
40
1
40
1
40
1
41
1
10
-45
20
-3.33942365488701
30
0
41
1
10
-44.7879213063754
20
-3.73195642610153
30
0
41
1
10
-44.5722737898406
20
-4.12260199239338
30
0
41
1
10
-44.1380829418105
20
-4.90236180880206
30
0
41
1
10
-43.9194308847408
20
-5.29141856448885
30
0
41
1
10
-43.7
20
-5.68006347362228
30
0
0
SPLINE
5
B7
100
AcDbEntity
8
SK1
62
256
6
ByLayer
370
18
48
1
60
0
100
AcDbSpline
70
4
71
3
72
10
73
6
40
0
40
0
40
0
40
0
40
0.5
40
0.5
40
1
40
1
40
1
40
1
41
1
10
-43.7
20
-5.52735535813594
30
0
41
1
10
-43.9194045553471
20
-5.13875708229591
30
0
41
1
10
-44.1380490457335
20
-4.74971418653422
30
0
41
1
10
-44.5722419213308
20
-3.96995148971786
30
0
41
1
10
-44.7878974798874
20
-3.57929241064812
30
0
41
1
10
-45
20
-3.18671553940067
30
0
0
SPLINE
5
B8
100
AcDbEntity
8
1
62
256
6
ByLayer
370
18
48
1
60
0
100
AcDbSpline
70
4
71
3
72
23
73
19
40
0
40
0
40
0
40
0
40
0.124999999999999
40
0.124999999999999
40
0.187499999999998
40
0.187499999999998
40
0.249999999999997
40
0.249999999999997
40
0.499999999999997
40
0.499999999999997
40
0.562499999999998
40
0.562499999999998
40
0.624999999999998
40
0.624999999999998
40
0.749999999999999
40
0.875
40
0.875
40
1
40
1
40
1
40
1
41
1
10
70.9475860920371
20
-5.63896086751583
30
0
41
1
10
70.8659402482755
20
-5.63891353829783
30
0
41
1
10
70.7882065802736
20
-5.62707063780584
30
0
41
1
10
70.6777654489995
20
-5.59073521539406
30
0
41
1
10
70.6419807946713
20
-5.57552070874112
30
0
41
1
10
70.5725525352711
20
-5.53863623416336
30
0
41
1
10
70.5387991935606
20
-5.51686844083028
30
0
41
1
10
70.377560467807
20
-5.39265510488278
30
0
41
1
10
70.2715763952273
20
-5.24480328833198
30
0
41
1
10
70.1692275133933
20
-4.99649473612533
30
0
41
1
10
70.1502838189497
20
-4.94361720010724
30
0
41
1
10
70.1155686540488
20
-4.83117748101805
30
0
41
1
10
70.0997550003657
20
-4.77137115155045
30
0
41
1
10
70.0579045476329
20
-4.58436765070877
30
0
41
1
10
70.0165182554019
20
-4.31389299335703
30
0
41
1
10
70.0034794134076
20
-4.00185059867201
30
0
41
1
10
70.0049971721651
20
-3.66846289950777
30
0
41
1
10
70.0131762247321
20
-3.49032859153661
30
0
41
1
10
70.0285929168677
20
-3.30570769232972
30
0
0
SPLINE
5
B9
100
AcDbEntity
8
1
62
256
6
ByLayer
370
18
48
1
60
0
100
AcDbSpline
70
4
71
3
72
20
73
16
40
0
40
0
40
0
40
0
40
0.249999999999999
40
0.249999999999999
40
0.499999999999997
40
0.499999999999997
40
0.624999999999997
40
0.624999999999997
40
0.749999999999996
40
0.749999999999996
40
0.874999999999995
40
0.874999999999995
40
0.937499999999998
40
0.937499999999998
40
1
40
1
40
1
40
1
41
1
10
72.1063208111954
20
2.89175304224332
30
0
41
1
10
72.0164545339702
20
3.13306862441888
30
0
41
1
10
71.9262765100588
20
3.3739109348962
30
0
41
1
10
71.7459037014216
20
3.85526407720403
30
0
41
1
10
71.6556502087951
20
4.09569696537923
30
0
41
1
10
71.5199326934568
20
4.45512121804245
30
0
41
1
10
71.4746120361975
20
4.57464331875565
30
0
41
1
10
71.3839760752403
20
4.81365781873467
30
0
41
1
10
71.3386535522279
20
4.93310984125145
30
0
41
1
10
71.2479684207635
20
5.17152653326031
30
0
41
1
10
71.2026070574615
20
5.2905063411103
30
0
41
1
10
71.1344822862593
20
5.46797027902079
30
0
41
1
10
71.1117539248469
20
5.52688049925015
30
0
41
1
10
71.0662883229772
20
5.64459298955512
30
0
41
1
10
71.043552678693
20
5.70341466567371
30
0
41
1
10
71.0208086976461
20
5.76213498462849
30
0
0
SPLINE
5
BA
100
AcDbEntity
8
1
62
256
6
ByLayer
370
18
48
1
60
0
100
AcDbSpline
70
4
71
3
72
40
73
36
40
0
40
0
40
0
40
0
40
0.124999999999999
40
0.124999999999999
40
0.249999999999998
40
0.249999999999998
40
0.312499999999997
40
0.312499999999997
40
0.374999999999997
40
0.374999999999997
40
0.5
40
0.5
40
0.625000000000003
40
0.625000000000003
40
0.687500000000005
40
0.687500000000005
40
0.750000000000007
40
0.750000000000007
40
0.781250000000007
40
0.781250000000007
40
0.812500000000008
40
0.812500000000008
40
0.843750000000009
40
0.843750000000009
40
0.87500000000001
40
0.87500000000001
40
0.890625000000009
40
0.890625000000009
40
0.906250000000007
40
0.906250000000007
40
0.937500000000005
40
0.937500000000005
40
0.968750000000003
40
0.968750000000003
40
1
40
1
40
1
40
1
41
1
10
64.7816037025337
20
3.01156871322613
30
0
41
1
10
65.0124316518144
20
2.81047663789789
30
0
41
1
10
65.2476247300824
20
2.61742638131807
30
0
41
1
10
65.727775013743
20
2.24931418896168
30
0
41
1
10
65.9721443974912
20
2.07474020013532
30
0
41
1
10
66.3429516719505
20
1.82967519600518
30
0
41
1
10
66.4673852865283
20
1.75070880103985
30
0
41
1
10
66.7180034592237
20
1.59850991574908
30
0
41
1
10
66.8444371589597
20
1.52512166439107
30
0
41
1
10
67.2246092211358
20
1.31505853211465
30
0
41
1
10
67.4782682094849
20
1.1888854449551
30
0
41
1
10
67.986047923313
20
0.966896828764732
30
0
41
1
10
68.2401702347867
20
0.871185573182174
30
0
41
1
10
68.6217566077436
20
0.754108295730731
30
0
41
1
10
68.7490195778827
20
0.719521240131769
30
0
41
1
10
69.0036947769814
20
0.660160360382775
30
0
41
1
10
69.1314828369397
20
0.635354737842079
30
0
41
1
10
69.321446677617
20
0.606792717602019
30
0
41
1
10
69.3842064439072
20
0.600218509989276
30
0
41
1
10
69.5074471623717
20
0.594569395355109
30
0
41
1
10
69.5682787207024
20
0.595355820295566
30
0
41
1
10
69.6855960257207
20
0.606348897339103
30
0
41
1
10
69.7421079192781
20
0.616480849123263
30
0
41
1
10
69.8491865203718
20
0.649581962062257
30
0
41
1
10
69.8999563497106
20
0.673210732254915
30
0
41
1
10
69.964972295948
20
0.721549814640269
30
0
41
1
10
69.9851111530484
20
0.739612167252545
30
0
41
1
10
70.0220942629196
20
0.779925868919605
30
0
41
1
10
70.038935245734
20
0.802255945132913
30
0
41
1
10
70.0825943697122
20
0.873754701421973
30
0
41
1
10
70.1031879156474
20
0.92843951080053
30
0
41
1
10
70.1261239934349
20
1.05024063791097
30
0
41
1
10
70.1281951943976
20
1.11499904081663
30
0
41
1
10
70.1172011902879
20
1.25073004583561
30
0
41
1
10
70.1041269863017
20
1.32009904530557
30
0
41
1
10
70.0858542748275
20
1.38947843645866
30
0
0
SPLINE
5
BB
100
AcDbEntity
8
1
62
256
6
ByLayer
370
18
48
1
60
0
100
AcDbSpline
70
4
71
3
72
10
73
6
40
0
40
0
40
0
40
0
40
0.892849038315501
40
0.892849038315501
40
1
40
1
40
1
40
1
41
1
10
70.9358410606869
20
5.85570678810714
30
0
41
1
10
70.5858123476178
20
5.88202852593037
30
0
41
1
10
70.2357926562458
20
5.89642610681403
30
0
41
1
10
69.8432367573379
20
5.89916898450153
30
0
41
1
10
69.8011691058143
20
5.89928978829369
30
0
41
1
10
69.7591006784604
20
5.89923802121663
30
0
0
SPLINE
5
BC
100
AcDbEntity
8
1
62
256
6
ByLayer
370
18
48
1
60
0
100
AcDbSpline
70
4
71
3
72
50
73
46
40
0
40
0
40
0
40
0
40
0.0098383566411324
40
0.0098383566411324
40
0.0258097319453794
40
0.0258097319453794
40
0.153580734379354
40
0.153580734379354
40
0.185523484987848
40
0.185523484987848
40
0.201494860292094
40
0.201494860292094
40
0.217466235596341
40
0.217466235596341
40
0.281351736813327
40
0.281351736813327
40
0.345237238030314
40
0.345237238030314
40
0.377179988638807
40
0.377179988638807
40
0.393151363943054
40
0.393151363943054
40
0.409122739247301
40
0.409122739247301
40
0.536893741681274
40
0.536893741681274
40
0.568836492289768
40
0.568836492289768
40
0.600779242898261
40
0.600779242898261
40
0.664664744115247
40
0.664664744115247
40
0.728550245332233
40
0.728550245332233
40
0.760492995940726
40
0.760492995940726
40
0.792435746549219
40
0.792435746549219
40
0.92020674898319
40
0.92020674898319
40
0.952149499591684
40
0.952149499591684
40
0.984092250200177
40
0.984092250200177
40
1
40
1
40
1
40
1
41
1
10
42.5495086025709
20
-5.64302299023785
30
0
41
1
10
42.4419388152288
20
-5.66171773881629
30
0
41
1
10
42.3342403930207
20
-5.67935645350255
30
0
41
1
10
42.0513339704662
20
-5.72282373573736
30
0
41
1
10
41.875624430702
20
-5.74693151419672
30
0
41
1
10
40.2988001562162
20
-5.93693453844659
30
0
41
1
10
38.9220338613113
20
-5.91596800429022
30
0
41
1
10
37.1870078139761
20
-5.6610690235992
30
0
41
1
10
36.8392848561529
20
-5.59864515865175
30
0
41
1
10
36.3157675343725
20
-5.48797259380217
30
0
41
1
10
36.1409452515027
20
-5.44823895679414
30
0
41
1
10
35.790537142524
20
-5.36308962983009
30
0
41
1
10
35.6148018925664
20
-5.31762743128519
30
0
41
1
10
34.7392914083559
20
-5.07782918346877
30
0
41
1
10
34.0448602756361
20
-4.84516837582859
30
0
41
1
10
32.6591684630058
20
-4.30844811029934
30
0
41
1
10
31.9677088646124
20
-4.00459615868755
30
0
41
1
10
30.9262335629642
20
-3.50272186483392
30
0
41
1
10
30.578259670432
20
-3.32787588342623
30
0
41
1
10
30.0543470370146
20
-3.05505789704981
30
0
41
1
10
29.8793834132649
20
-2.96236027554699
30
0
41
1
10
29.5286549411183
20
-2.7736098097476
30
0
41
1
10
29.3529950555972
20
-2.67760523805953
30
0
41
1
10
27.7779712652006
20
-1.80488269332625
30
0
41
1
10
26.4010748329479
20
-0.960014250748259
30
0
41
1
10
24.664292729326
20
0.109745001252804
30
0
41
1
10
24.3161477061086
20
0.324375037963733
30
0
41
1
10
23.6170880829862
20
0.753053255516164
30
0
41
1
10
23.265160035595
20
0.967729081430548
30
0
41
1
10
22.2155367694591
20
1.60088821836419
30
0
41
1
10
21.5214712751894
20
2.00983605885429
30
0
41
1
10
20.1356369585018
20
2.78826321859563
30
0
41
1
10
19.4439300900007
20
3.15782278816886
30
0
41
1
10
18.4011798210357
20
3.67242213040572
30
0
41
1
10
18.0528053777422
20
3.83743197647175
30
0
41
1
10
17.3532702608599
20
4.15261120737949
30
0
41
1
10
17.0012758467342
20
4.3030228706271
30
0
41
1
10
15.2525075758485
20
5.00491823057715
30
0
41
1
10
13.8758199270795
20
5.41409465068986
30
0
41
1
10
12.1371547364446
20
5.70304857396786
30
0
41
1
10
11.7885229182674
20
5.74970683424576
30
0
41
1
10
11.0883831748949
20
5.81993145552352
30
0
41
1
10
10.7363714293183
20
5.84342476863404
30
0
41
1
10
10.2126334525712
20
5.86064515637895
30
0
41
1
10
10.038857414041
20
5.86343219408474
30
0
41
1
10
9.86534793203609
20
5.86330683601327
30
0
0
SPLINE
5
BD
100
AcDbEntity
8
1
62
256
6
ByLayer
370
18
48
1
60
0
100
AcDbSpline
70
4
71
3
72
14
73
10
40
0
40
0
40
0
40
0
40
0.25
40
0.25
40
0.5
40
0.5
40
0.75
40
0.75
40
1
40
1
40
1
40
1
41
1
10
4.25128971535273
20
3.7362795396169
30
0
41
1
10
4.22348438810181
20
3.75428541487162
30
0
41
1
10
4.19386803208192
20
3.77354870801185
30
0
41
1
10
4.13249297170267
20
3.813582361713
30
0
41
1
10
4.10074353050709
20
3.83433395279479
30
0
41
1
10
4.04814748103928
20
3.86929677518506
30
0
41
1
10
4.02859378421954
20
3.88270949369803
30
0
41
1
10
4.00479834984762
20
3.90046736500233
30
0
41
1
10
4.00000039925081
20
3.90513050616875
30
0
41
1
10
4.00000039925155
20
3.90702927819987
30
0
0
SPLINE
5
BE
100
AcDbEntity
8
1
62
256
6
ByLayer
370
18
48
1
60
0
100
AcDbSpline
70
4
71
3
72
20
73
16
40
0
40
0
40
0
40
0
40
0.25
40
0.25
40
0.5
40
0.5
40
0.625
40
0.625
40
0.75
40
0.75
40
0.875
40
0.875
40
0.9375
40
0.9375
40
1
40
1
40
1
40
1
41
1
10
72.1063208111955
20
-2.89175304224324
30
0
41
1
10
72.0164545339703
20
-3.13306862441883
30
0
41
1
10
71.9262765100588
20
-3.37391093489612
30
0
41
1
10
71.7459037014216
20
-3.85526407720397
30
0
41
1
10
71.6556502087951
20
-4.09569696537918
30
0
41
1
10
71.5199326934569
20
-4.45512121804242
30
0
41
1
10
71.4746120361975
20
-4.57464331875562
30
0
41
1
10
71.3839760752402
20
-4.81365781873464
30
0
41
1
10
71.3386535522279
20
-4.93310984125142
30
0
41
1
10
71.2479684207634
20
-5.17152653326031
30
0
41
1
10
71.2026070574614
20
-5.2905063411103
30
0
41
1
10
71.1344822862592
20
-5.46797027902079
30
0
41
1
10
71.1117539248469
20
-5.52688049925015
30
0
41
1
10
71.0662883229771
20
-5.64459298955512
30
0
41
1
10
71.0435526786929
20
-5.70341466567373
30
0
41
1
10
71.020808697646
20
-5.76213498462849
30
0
0
SPLINE
5
BF
100
AcDbEntity
8
1
62
256
6
ByLayer
370
18
48
1
60
0
100
AcDbSpline
70
4
71
3
72
8
73
4
40
0
40
0
40
0
40
0
40
1
40
1
40
1
40
1
41
1
10
70.9358410606869
20
-5.85570678810717
30
0
41
1
10
70.9564094112416
20
-5.80075084048789
30
0
41
1
10
70.9769604249493
20
-5.74574914642167
30
0
41
1
10
70.9974940895397
20
-5.69070167353073
30
0
0
SPLINE
5
C0
100
AcDbEntity
8
1
62
256
6
ByLayer
370
13
48
1
60
0
100
AcDbSpline
70
4
71
3
72
10
73
6
40
0
40
0
40
0
40
0
40
0.5
40
0.5
40
1
40
1
40
1
40
1
41
1
10
4.2503220812531
20
-4.59040596985906
30
0
41
1
10
4.22772701123438
20
-4.58582285855806
30
0
41
1
10
4.20559470733201
20
-4.58380217164861
30
0
41
1
10
4.16226278235894
20
-4.58476075698303
30
0
41
1
10
4.14101247945626
20
-4.58782728890878
30
0
41
1
10
4.1213313780687
20
-4.59347681355246
30
0
0
SPLINE
5
C1
100
AcDbEntity
8
1
62
256
6
ByLayer
370
13
48
1
60
0
100
AcDbSpline
70
4
71
3
72
14
73
10
40
0
40
0
40
0
40
0
40
0.25
40
0.25
40
0.5
40
0.5
40
0.75
40
0.75
40
1
40
1
40
1
40
1
41
1
10
4.1213313780687
20
-4.59347681355246
30
0
41
1
10
4.10148667081256
20
-4.59917330179675
30
0
41
1
10
4.08415870291961
20
-4.60588138224205
30
0
41
1
10
4.05381796280278
20
-4.62098017869164
30
0
41
1
10
4.04094002023183
20
-4.6293842090233
30
0
41
1
10
4.02066023887681
20
-4.64672621905785
30
0
41
1
10
4.01299956871429
20
-4.65579107816072
30
0
41
1
10
4.00259440120152
20
-4.67464125081713
30
0
41
1
10
4.00000039925155
20
-4.68432494744721
30
0
41
1
10
4.00000039925155
20
-4.6937363885406
30
0
0
SPLINE
5
C2
100
AcDbEntity
8
1
62
256
6
ByLayer
370
18
48
1
60
0
100
AcDbSpline
70
4
71
3
72
56
73
52
40
0
40
0
40
0
40
0
40
0.0761325248330819
40
0.0761325248330819
40
0.114198787249623
40
0.114198787249623
40
0.152265049666164
40
0.152265049666164
40
0.190331312082705
40
0.190331312082705
40
0.228397574499245
40
0.228397574499245
40
0.266463836915786
40
0.266463836915786
40
0.304530099332327
40
0.304530099332327
40
0.380662624165408
40
0.380662624165408
40
0.418728886581948
40
0.418728886581948
40
0.456795148998488
40
0.456795148998488
40
0.494861411415028
40
0.494861411415028
40
0.532927673831569
40
0.532927673831569
40
0.570993936248109
40
0.570993936248109
40
0.609060198664649
40
0.609060198664649
40
0.64712646108119
40
0.64712646108119
40
0.68519272349773
40
0.68519272349773
40
0.72325898591427
40
0.72325898591427
40
0.76132524833081
40
0.76132524833081
40
0.79939151074735
40
0.79939151074735
40
0.837457773163891
40
0.837457773163891
40
0.875524035580431
40
0.875524035580431
40
0.913590297996971
40
0.913590297996971
40
0.951656560413512
40
0.951656560413512
40
0.989722822830052
40
0.989722822830052
40
1
40
1
40
1
40
1
41
1
10
16.68315841215
20
4.08131997876421
30
0
41
1
10
17.2497434819211
20
3.82900854271605
30
0
41
1
10
17.8170973353566
20
3.55951838500999
30
0
41
1
10
18.6659714635824
20
3.12605761217944
30
0
41
1
10
18.9481716317713
20
2.97605042843836
30
0
41
1
10
19.5147776292652
20
2.67012728959378
30
0
41
1
10
19.7992778843063
20
2.51374479809834
30
0
41
1
10
20.3668317964178
20
2.19509067884553
30
0
41
1
10
20.650105352958
20
2.03275338321885
30
0
41
1
10
21.2151814104736
20
1.70128217963847
30
0
41
1
10
21.4976470031966
20
1.53315980400768
30
0
41
1
10
22.0641645253851
20
1.19493350975716
30
0
41
1
10
22.3478503930206
20
1.02426260691874
30
0
41
1
10
22.9156260468641
20
0.679034900926951
30
0
41
1
10
23.1987097588209
20
0.504193157957332
30
0
41
1
10
24.0471789988541
20
-0.0195842372421282
30
0
41
1
10
24.614159626929
20
-0.365877776618248
30
0
41
1
10
25.463309344645
20
-0.88639340121162
30
0
41
1
10
25.7465170082606
20
-1.06027339742272
30
0
41
1
10
26.3138026515859
20
-1.40151929507942
30
0
41
1
10
26.5973274210305
20
-1.5697239392951
30
0
41
1
10
27.163663869107
20
-1.90210152929708
30
0
41
1
10
27.4463224241709
20
-2.06650453541295
30
0
41
1
10
28.0112204183026
20
-2.39070833918427
30
0
41
1
10
28.2944722329826
20
-2.54898732063711
30
0
41
1
10
28.8622217673977
20
-2.85851440561325
30
0
41
1
10
29.1464454670102
20
-3.00970905242431
30
0
41
1
10
29.7127377548799
20
-3.30425397951504
30
0
41
1
10
29.9947462856996
20
-3.44827732633684
30
0
41
1
10
30.5603280918754
20
-3.72472100297054
30
0
41
1
10
30.8435769736148
20
-3.85762541652045
30
0
41
1
10
31.4104156690327
20
-4.11357625939718
30
0
41
1
10
31.694323723238
20
-4.23673450889791
30
0
41
1
10
32.2606303666252
20
-4.47270067899802
30
0
41
1
10
32.5434565582008
20
-4.58445973334074
30
0
41
1
10
33.1097716786374
20
-4.79449458222189
30
0
41
1
10
33.392953160148
20
-4.89310696983364
30
0
41
1
10
33.9589124019106
20
-5.07789948524115
30
0
41
1
10
34.2412600187964
20
-5.16438432659191
30
0
41
1
10
34.807560077354
20
-5.32300902929049
30
0
41
1
10
35.0918424889492
20
-5.39501478485832
30
0
41
1
10
35.6588777269963
20
-5.52441167697859
30
0
41
1
10
35.9420325326248
20
-5.58188322298284
30
0
41
1
10
36.5071676775612
20
-5.68244320889102
30
0
41
1
10
36.7892329673663
20
-5.72540770938375
30
0
41
1
10
37.355533138821
20
-5.79556263063381
30
0
41
1
10
37.6394061218902
20
-5.82301611628861
30
0
41
1
10
38.2071838761486
20
-5.86263056635488
30
0
41
1
10
38.4901163400656
20
-5.87474862108778
30
0
41
1
10
38.848800438006
20
-5.88018787215276
30
0
41
1
10
38.9250852891181
20
-5.88077910128109
30
0
41
1
10
39.0013984050073
20
-5.88080532071166
30
0
0
SPLINE
5
C3
100
AcDbEntity
8
1
62
256
6
ByLayer
370
18
48
1
60
0
100
AcDbSpline
70
4
71
3
72
28
73
24
40
0
40
0
40
0
40
0
40
0.0781711761260858
40
0.0781711761260858
40
0.170354058513477
40
0.170354058513477
40
0.262536940900869
40
0.262536940900869
40
0.354719823288261
40
0.354719823288261
40
0.446902705675652
40
0.446902705675652
40
0.539085588063044
40
0.539085588063044
40
0.631268470450434
40
0.631268470450434
40
0.723451352837826
40
0.723451352837826
40
0.815634235225218
40
0.815634235225218
40
0.907817117612609
40
0.907817117612609
40
1
40
1
40
1
40
1
41
1
10
61.824901684412
20
4.32242226207785
30
0
41
1
10
62.0654294310731
20
4.42321911733413
30
0
41
1
10
62.3061761523503
20
4.52004570031727
30
0
41
1
10
62.8289629335216
20
4.72180901504859
30
0
41
1
10
63.1107705668401
20
4.82542520288206
30
0
41
1
10
63.6760138998225
20
5.01800912742004
30
0
41
1
10
63.9589831308098
20
5.10748101659436
30
0
41
1
10
64.5251037551363
20
5.27326397502537
30
0
41
1
10
64.808345998065
20
5.34963907716497
30
0
41
1
10
65.3742672843829
20
5.48877443401324
30
0
41
1
10
65.6571244767342
20
5.55068935420869
30
0
41
1
10
66.2230773336875
20
5.65940239356149
30
0
41
1
10
66.5059940216144
20
5.70631047208838
30
0
41
1
10
67.0712672203612
20
5.78535255994524
30
0
41
1
10
67.3531665284064
20
5.81756243419048
30
0
41
1
10
67.9189660615515
20
5.86615938244569
30
0
41
1
10
68.203138957351
20
5.88264429598757
30
0
41
1
10
68.7692023215423
20
5.90010019445498
30
0
41
1
10
69.0514986105318
20
5.90111301720015
30
0
41
1
10
69.6141731332744
20
5.8876056824611
30
0
41
1
10
69.8949109787317
20
5.87303875944141
30
0
41
1
10
70.4576821451868
20
5.82890939724049
30
0
41
1
10
70.7392616884228
20
5.7993216652979
30
0
41
1
10
71.0208086976373
20
5.76213498462962
30
0
0
SPLINE
5
C4
100
AcDbEntity
8
1
62
256
6
ByLayer
370
13
48
1
60
0
100
AcDbSpline
70
4
71
3
72
34
73
30
40
0
40
0
40
0
40
0
40
0.125
40
0.125
40
0.1875
40
0.1875
40
0.25
40
0.25
40
0.3125
40
0.3125
40
0.34375
40
0.34375
40
0.375
40
0.375
40
0.5
40
0.5
40
0.5625
40
0.5625
40
0.625
40
0.625
40
0.6875
40
0.6875
40
0.75
40
0.75
40
0.8125
40
0.8125
40
0.875
40
0.875
40
1
40
1
40
1
40
1
41
1
10
4.2503220812531
20
-4.59040596985906
30
0
41
1
10
4.25038966811906
20
-4.3626739330376
30
0
41
1
10
4.25044619480371
20
-4.10327496222919
30
0
41
1
10
4.25052126316277
20
-3.66688357152535
30
0
41
1
10
4.25054444399734
20
-3.51462570961632
30
0
41
1
10
4.25058793300104
20
-3.19987035774415
30
0
41
1
10
4.25060831645436
20
-3.03692617521446
30
0
41
1
10
4.25064748878546
20
-2.69998774012609
30
0
41
1
10
4.25066627583203
20
-2.52599405728804
30
0
41
1
10
4.25069401321778
20
-2.25649927258723
30
0
41
1
10
4.25070321172632
20
-2.16496677847729
30
0
41
1
10
4.25072140516596
20
-1.98075147210247
30
0
41
1
10
4.25073040482795
20
-1.8880380025906
30
0
41
1
10
4.25077519743684
20
-1.42150065093591
30
0
41
1
10
4.25081049392608
20
-1.03886462749793
30
0
41
1
10
4.25086639653844
20
-0.45072604717393
30
0
41
1
10
4.25088557479478
20
-0.251563988660251
30
0
41
1
10
4.2509245638802
20
0.14507811196566
30
0
41
1
10
4.25094443017946
20
0.343165920528236
30
0
41
1
10
4.25098496144548
20
0.738871870243798
30
0
41
1
10
4.25100544685452
20
0.93472846220493
30
0
41
1
10
4.25104641714498
20
1.32036620367671
30
0
41
1
10
4.2510669392187
20
1.51050942443527
30
0
41
1
10
4.25110762419783
20
1.88545415405125
30
0
41
1
10
4.25112778853088
20
2.07025611629874
30
0
41
1
10
4.25116707928825
20
2.43434622302036
30
0
41
1
10
4.25118589438756
20
2.61080076968401
30
0
41
1
10
4.25123853037726
20
3.1225295601997
30
0
41
1
10
4.25126874088994
20
3.44102357952599
30
0
41
1
10
4.25128971535219
20
3.73627953214992
30
0
0
SPLINE
5
C5
100
AcDbEntity
8
1
62
256
6
ByLayer
370
18
48
1
60
0
100
AcDbSpline
70
4
71
3
72
12
73
8
40
0
40
0
40
0
40
0
40
0.249999999999995
40
0.249999999999995
40
0.49999999999999
40
0.49999999999999
40
1
40
1
40
1
40
1
41
1
10
70.9974940895396
20
-5.69070167353073
30
0
41
1
10
71.002444360664
20
-5.67743078784346
30
0
41
1
10
71.0072050610541
20
-5.66384080577248
30
0
41
1
10
71.0150059992062
20
-5.63947407596442
30
0
41
1
10
71.0180236276121
20
-5.62872363191502
30
0
41
1
10
71.0232551268493
20
-5.60538557372459
30
0
41
1
10
71.0219776855047
20
-5.6012828849656
30
0
41
1
10
71.0182450615572
20
-5.60439109773836
30
0
0
SPLINE
5
C6
100
AcDbEntity
8
1
62
256
6
ByLayer
370
18
48
1
60
0
100
AcDbSpline
70
4
71
3
72
18
73
14
40
0
40
0
40
0
40
0
40
0.25
40
0.25
40
0.5
40
0.5
40
0.625
40
0.625
40
0.75
40
0.75
40
0.875
40
0.875
40
1
40
1
40
1
40
1
41
1
10
10.5754411971428
20
-0.187633601903599
30
0
41
1
10
10.023186648823
20
0.135741468764991
30
0
41
1
10
9.47967715978984
20
0.466566733524189
30
0
41
1
10
8.40287137979755
20
1.1306753122864
30
0
41
1
10
7.86971727550713
20
1.46362428645648
30
0
41
1
10
7.07501485927975
20
1.96003071271696
30
0
41
1
10
6.81100361220902
20
2.12502086887349
30
0
41
1
10
6.28487991045313
20
2.45373977576924
30
0
41
1
10
6.02226846560012
20
2.61777180286558
30
0
41
1
10
5.50175238741957
20
2.94339264404729
30
0
41
1
10
5.24497677859057
20
3.1042600960468
30
0
41
1
10
4.74045610493982
20
3.42255452304647
30
0
41
1
10
4.49265175361572
20
3.57998090263314
30
0
41
1
10
4.25128972352098
20
3.73627953432737
30
0
0
SPLINE
5
C7
100
AcDbEntity
8
1
62
256
6
ByLayer
370
13
48
1
60
0
100
AcDbSpline
70
4
71
3
72
18
73
14
40
0
40
0
40
0
40
0
40
0.281374121334687
40
0.281374121334687
40
0.562748242669374
40
0.562748242669374
40
0.703435303336718
40
0.703435303336718
40
0.773778833670389
40
0.773778833670389
40
0.844122364004059
40
0.844122364004059
40
1
40
1
40
1
40
1
41
1
10
4.19887582873503
20
-4.72045907433377
30
0
41
1
10
4.90066023951564
20
-4.95612198253809
30
0
41
1
10
5.59659994607944
20
-5.15070532249516
30
0
41
1
10
6.98494479739645
20
-5.45543290229057
30
0
41
1
10
7.67731143604462
20
-5.56552286110499
30
0
41
1
10
8.72012612837895
20
-5.66357006166217
30
0
41
1
10
9.06837542340301
20
-5.68505471855889
30
0
41
1
10
9.59261157828695
20
-5.70015218344523
30
0
41
1
10
9.76767000105082
20
-5.70232689057713
30
0
41
1
10
10.1185542758727
20
-5.7008901597562
30
0
41
1
10
10.2944328611164
20
-5.69726664656824
30
0
41
1
10
10.8579651335339
20
-5.67635717908033
30
0
41
1
10
11.2444308777196
20
-5.64786903200459
30
0
41
1
10
11.6298153390196
20
-5.60574125529152
30
0
0
SPLINE
5
C8
100
AcDbEntity
8
1
62
256
6
ByLayer
370
18
48
1
60
0
100
AcDbSpline
70
4
71
3
72
18
73
14
40
0
40
0
40
0
40
0
40
0.4532411046864
40
0.4532411046864
40
0.517294402747233
40
0.517294402747233
40
0.581347700808067
40
0.581347700808067
40
0.709454296929736
40
0.709454296929736
40
0.965667489173069
40
0.965667489173069
40
1
40
1
40
1
40
1
41
1
10
54.8161624922427
20
-0.0143208739277441
30
0
41
1
10
56.0367504536743
20
-0.747992378247289
30
0
41
1
10
57.2511982576133
20
-1.47749809631748
30
0
41
1
10
58.6569802291518
20
-2.26002904345427
30
0
41
1
10
58.8313890887462
20
-2.35605703026229
30
0
41
1
10
59.1810311118323
20
-2.54613135193401
30
0
41
1
10
59.3565634915409
20
-2.64033501206544
30
0
41
1
10
59.8822729229946
20
-2.9183548151515
30
0
41
1
10
60.2308713410442
20
-3.09725085412666
30
0
41
1
10
61.2729447873805
20
-3.61247871702102
30
0
41
1
10
61.9627971975253
20
-3.92735961128204
30
0
41
1
10
62.7441616759683
20
-4.24680992361468
30
0
41
1
10
62.8364792571574
20
-4.28396108142766
30
0
41
1
10
62.9287941849289
20
-4.32050398657682
30
0
0
SPLINE
5
C9
100
AcDbEntity
8
1
62
256
6
ByLayer
370
13
48
1
60
0
100
AcDbSpline
70
4
71
3
72
22
73
18
40
0
40
0
40
0
40
0
40
0.2240041833553
40
0.2240041833553
40
0.353336819462752
40
0.353336819462752
40
0.418003137516476
40
0.418003137516476
40
0.482669455570201
40
0.482669455570201
40
0.741334727785101
40
0.741334727785101
40
0.870667363892551
40
0.870667363892551
40
0.935333681946276
40
0.935333681946276
40
1
40
1
40
1
40
1
41
1
10
62.928794183821
20
-4.32050398613831
30
0
41
1
10
63.5253977702812
20
-4.55666978078131
30
0
41
1
10
64.1218905328304
20
-4.76743100412287
30
0
41
1
10
65.0669369015879
20
-5.05496599014205
30
0
41
1
10
65.4137281467093
20
-5.15072203554857
30
0
41
1
10
65.9360233891356
20
-5.27920462726561
30
0
41
1
10
66.1104758441659
20
-5.31950487102216
30
0
41
1
10
66.460235880598
20
-5.39488096792377
30
0
41
1
10
66.6357949269105
20
-5.42999809267246
30
0
41
1
10
67.5117847714361
20
-5.59135571045266
30
0
41
1
10
68.2082504453807
20
-5.67539874438671
30
0
41
1
10
69.252785994235
20
-5.7329080366134
30
0
41
1
10
69.6009559442276
20
-5.74064302987946
30
0
41
1
10
70.1239400024372
20
-5.73493458363419
30
0
41
1
10
70.298388874961
20
-5.7301462728515
30
0
41
1
10
70.6476454778223
20
-5.71476939787945
30
0
41
1
10
70.8224805292156
20
-5.70389665480241
30
0
41
1
10
70.9974940895401
20
-5.6907016735307
30
0
0
SPLINE
5
CA
100
AcDbEntity
8
1
62
256
6
ByLayer
370
18
48
1
60
0
100
AcDbSpline
70
4
71
3
72
18
73
14
40
0
40
0
40
0
40
0
40
0.0380914529710625
40
0.0380914529710625
40
0.317149668212842
40
0.317149668212842
40
0.456678775833734
40
0.456678775833734
40
0.52644332964418
40
0.52644332964418
40
0.596207883454626
40
0.596207883454626
40
1
40
1
40
1
40
1
41
1
10
24.8038393110421
20
0.0232514656332796
30
0
41
1
10
24.8985503416169
20
-0.0334834944229101
30
0
41
1
10
24.9932176268301
20
-0.090198021125218
30
0
41
1
10
25.7811466515958
20
-0.562077054920337
30
0
41
1
10
26.4727499546297
20
-0.975056676625172
30
0
41
1
10
27.5138700384575
20
-1.58065770103175
30
0
41
1
10
27.8615611647326
20
-1.78015993956075
30
0
41
1
10
28.3849137360135
20
-2.07443501631513
30
0
41
1
10
28.5596677812707
20
-2.17169589860598
30
0
41
1
10
28.9098686355391
20
-2.364411136901
30
0
41
1
10
29.0855912197275
20
-2.46001340144591
30
0
41
1
10
30.2756654069943
20
-3.09855770989904
30
0
41
1
10
31.2776651804238
20
-3.59234424286566
30
0
41
1
10
32.2798087348718
20
-4.01979069381537
30
0
0
SPLINE
5
CB
100
AcDbEntity
8
1
62
256
6
ByLayer
370
13
48
1
60
0
100
AcDbSpline
70
4
71
3
72
20
73
16
40
0
40
0
40
0
40
0
40
0.125614027878386
40
0.125614027878386
40
0.239185329521721
40
0.239185329521721
40
0.352756631165056
40
0.352756631165056
40
0.579899234451725
40
0.579899234451725
40
0.693470536095058
40
0.693470536095058
40
0.807041837738391
40
0.807041837738391
40
1
40
1
40
1
40
1
41
1
10
32.2798087345203
20
-4.01979069366547
30
0
41
1
10
32.6628155100815
20
-4.18315539943305
30
0
41
1
10
33.0458432873495
20
-4.33682998770985
30
0
41
1
10
33.7765884470704
20
-4.60933113703149
30
0
41
1
10
34.1241922952076
20
-4.73005397526967
30
0
41
1
10
34.8218261546578
20
-4.95281304717363
30
0
41
1
10
35.1723510793872
20
-5.05502893667378
30
0
41
1
10
36.2253059185112
20
-5.33055264515923
30
0
41
1
10
36.9256780050213
20
-5.47192935360468
30
0
41
1
10
37.9789043756893
20
-5.61642084653641
30
0
41
1
10
38.3294921272753
20
-5.65316483832203
30
0
41
1
10
39.0307737453397
20
-5.70367291467073
30
0
41
1
10
39.3819826552169
20
-5.71743310515461
30
0
41
1
10
40.3283155937217
20
-5.72306772874538
30
0
41
1
10
40.9194913465217
20
-5.69308960067499
30
0
41
1
10
41.5088406021396
20
-5.63102688862915
30
0
0
SPLINE
5
CC
100
AcDbEntity
8
1
62
256
6
ByLayer
370
18
48
1
60
0
100
AcDbSpline
70
4
71
3
72
96
73
92
40
0
40
0
40
0
40
0
40
0.0032040616285486
40
0.0032040616285486
40
0.0260857727852424
40
0.0260857727852424
40
0.0489674839419364
40
0.0489674839419364
40
0.0718491950986302
40
0.0718491950986302
40
0.0947309062553242
40
0.0947309062553242
40
0.117612617412018
40
0.117612617412018
40
0.140494328568712
40
0.140494328568712
40
0.163376039725406
40
0.163376039725406
40
0.1862577508821
40
0.1862577508821
40
0.232021173195488
40
0.232021173195488
40
0.254902884352182
40
0.254902884352182
40
0.277784595508876
40
0.277784595508876
40
0.30066630666557
40
0.30066630666557
40
0.323548017822264
40
0.323548017822264
40
0.346429728978958
40
0.346429728978958
40
0.369311440135652
40
0.369311440135652
40
0.392193151292346
40
0.392193151292346
40
0.41507486244904
40
0.41507486244904
40
0.437956573605733
40
0.437956573605733
40
0.460838284762427
40
0.460838284762427
40
0.483719995919121
40
0.483719995919121
40
0.506601707075815
40
0.506601707075815
40
0.529483418232509
40
0.529483418232509
40
0.552365129389203
40
0.552365129389203
40
0.575246840545897
40
0.575246840545897
40
0.598128551702591
40
0.598128551702591
40
0.621010262859285
40
0.621010262859285
40
0.643891974015978
40
0.643891974015978
40
0.666773685172673
40
0.666773685172673
40
0.689655396329366
40
0.689655396329366
40
0.71253710748606
40
0.71253710748606
40
0.723977963064407
40
0.723977963064407
40
0.735418818642754
40
0.735418818642754
40
0.758300529799448
40
0.758300529799448
40
0.781182240956142
40
0.781182240956142
40
0.804063952112836
40
0.804063952112836
40
0.82694566326953
40
0.82694566326953
40
0.849827374426224
40
0.849827374426224
40
0.872709085582917
40
0.872709085582917
40
0.895590796739612
40
0.895590796739612
40
0.918472507896305
40
0.918472507896305
40
0.941354219052999
40
0.941354219052999
40
0.964235930209693
40
0.964235930209693
40
0.987117641366387
40
0.987117641366387
40
1
40
1
40
1
40
1
41
1
10
31.8584885747139
20
4.30485164073477
30
0
41
1
10
31.8981639206329
20
4.32157444249106
30
0
41
1
10
31.9378278820337
20
4.33819675453006
30
0
41
1
10
32.2606303666251
20
4.47270067899802
30
0
41
1
10
32.5434565582007
20
4.58445973334071
30
0
41
1
10
33.1097716786373
20
4.79449458222186
30
0
41
1
10
33.3929531601479
20
4.89310696983364
30
0
41
1
10
33.9589124019106
20
5.07789948524112
30
0
41
1
10
34.2412600187964
20
5.16438432659189
30
0
41
1
10
34.807560077354
20
5.32300902929049
30
0
41
1
10
35.0918424889491
20
5.39501478485832
30
0
41
1
10
35.6588777269962
20
5.52441167697856
30
0
41
1
10
35.9420325326247
20
5.58188322298281
30
0
41
1
10
36.5071676775611
20
5.68244320889099
30
0
41
1
10
36.7892329673662
20
5.72540770938375
30
0
41
1
10
37.3555331388209
20
5.79556263063381
30
0
41
1
10
37.6394061218901
20
5.82301611628861
30
0
41
1
10
38.2071838761485
20
5.86263056635488
30
0
41
1
10
38.4901163400656
20
5.87474862108778
30
0
41
1
10
39.3374141190587
20
5.88759743533183
30
0
41
1
10
39.9041092529803
20
5.86515303216751
30
0
41
1
10
40.7537982924958
20
5.78501622895794
30
0
41
1
10
41.0368907016146
20
5.75023169222052
30
0
41
1
10
41.6033461734821
20
5.6661883031594
30
0
41
1
10
41.8866210355919
20
5.61686454881456
30
0
41
1
10
42.4527212288365
20
5.50355048083449
30
0
41
1
10
42.7355393556824
20
5.43955111736943
30
0
41
1
10
43.3004002218894
20
5.29634497969764
30
0
41
1
10
43.5833313440982
20
5.21770207540419
30
0
41
1
10
44.1511582817386
20
5.04722219795278
30
0
41
1
10
44.4348597440711
20
4.95548376071912
30
0
41
1
10
45.0009182736993
20
4.75882122850803
30
0
41
1
10
45.2829042755216
20
4.65339173051237
30
0
41
1
10
45.8479144912802
20
4.43130885020807
30
0
41
1
10
46.1310751774401
20
4.3148694972748
30
0
41
1
10
46.6979920104276
20
4.07054049092474
30
0
41
1
10
46.9821341813713
20
3.94251162006913
30
0
41
1
10
47.5481608062003
20
3.67542148508852
30
0
41
1
10
47.830376666749
20
3.53650901096708
30
0
41
1
10
48.3961630108419
20
3.25190087481229
30
0
41
1
10
48.6792352728923
20
3.10558837300536
30
0
41
1
10
49.2452682853517
20
2.80430756686408
30
0
41
1
10
49.5279932338162
20
2.64898537701325
30
0
41
1
10
50.0940694506595
20
2.33050158561014
30
0
41
1
10
50.3778071340012
20
2.16898636805999
30
0
41
1
10
50.9443095476612
20
1.84149144906962
30
0
41
1
10
51.2273416632992
20
1.67537637433267
30
0
41
1
10
51.7925317223912
20
1.33770022156955
30
0
41
1
10
52.0743819122009
20
1.16562789111211
30
0
41
1
10
52.6404435813595
20
0.821139744380332
30
0
41
1
10
52.9245789115476
20
0.647827305588294
30
0
41
1
10
53.4918105919417
20
0.299875266147893
30
0
41
1
10
53.7747856003904
20
0.125246813865232
30
0
41
1
10
54.3392567661297
20
-0.22562467702042
30
0
41
1
10
54.6217024378434
20
-0.400320893380154
30
0
41
1
10
55.1876754328555
20
-0.747176081884191
30
0
41
1
10
55.4709880402927
20
-0.919684379005645
30
0
41
1
10
56.0378286494322
20
-1.26355927132977
30
0
41
1
10
56.3207295605672
20
-1.43553812358005
30
0
41
1
10
56.8862682644867
20
-1.77269756021138
30
0
41
1
10
57.1692908627384
20
-1.93807502253588
30
0
41
1
10
57.7351618302457
20
-2.26357283314059
30
0
41
1
10
58.0180417764902
20
-2.42364331026445
30
0
41
1
10
58.4419415937011
20
-2.66014867803875
30
0
41
1
10
58.583115366009
20
-2.73846019187454
30
0
41
1
10
58.8660672892709
20
-2.89278592226083
30
0
41
1
10
59.0079256469485
20
-2.96886760483053
30
0
41
1
10
59.4332795752683
20
-3.19360517013655
30
0
41
1
10
59.7166319978462
20
-3.33878533352069
30
0
41
1
10
60.2824436537189
20
-3.62055409832854
30
0
41
1
10
60.5646300481731
20
-3.75747166662319
30
0
41
1
10
61.1290349972646
20
-4.02133745000478
30
0
41
1
10
61.412081881491
20
-4.14730731734258
30
0
41
1
10
61.9790972622606
20
-4.38837166477146
30
0
41
1
10
62.2631766789065
20
-4.50345056706948
30
0
41
1
10
62.8289629335216
20
-4.72180901504854
30
0
41
1
10
63.11077056684
20
-4.825425202882
30
0
41
1
10
63.6760138998224
20
-5.01800912742002
30
0
41
1
10
63.9589831308097
20
-5.10748101659433
30
0
41
1
10
64.5251037551362
20
-5.27326397502534
30
0
41
1
10
64.8083459980649
20
-5.34963907716494
30
0
41
1
10
65.3742672843828
20
-5.48877443401318
30
0
41
1
10
65.6571244767342
20
-5.55068935420866
30
0
41
1
10
66.2230773336874
20
-5.65940239356146
30
0
41
1
10
66.5059940216143
20
-5.70631047208835
30
0
41
1
10
67.0712672203612
20
-5.78535255994524
30
0
41
1
10
67.3531665284063
20
-5.81756243419045
30
0
41
1
10
67.9189660615515
20
-5.86615938244569
30
0
41
1
10
68.2031389573509
20
-5.88264429598757
30
0
41
1
10
68.645516922968
20
-5.89628606357141
30
0
41
1
10
68.8046301112913
20
-5.89875444298241
30
0
41
1
10
68.9634702964605
20
-5.89876821752844
30
0
0
SPLINE
5
CD
100
AcDbEntity
8
1
62
256
6
ByLayer
370
18
48
1
60
0
100
AcDbSpline
70
4
71
3
72
56
73
52
40
0
40
0
40
0
40
0
40
0.039810514567847
40
0.039810514567847
40
0.0796210291356939
40
0.0796210291356939
40
0.119431543703541
40
0.119431543703541
40
0.159242058271388
40
0.159242058271388
40
0.238863087407082
40
0.238863087407082
40
0.278673601974928
40
0.278673601974928
40
0.318484116542775
40
0.318484116542775
40
0.358294631110621
40
0.358294631110621
40
0.398105145678467
40
0.398105145678467
40
0.437915660246313
40
0.437915660246313
40
0.477726174814159
40
0.477726174814159
40
0.517536689382004
40
0.517536689382004
40
0.55734720394985
40
0.55734720394985
40
0.597157718517696
40
0.597157718517696
40
0.636968233085542
40
0.636968233085542
40
0.676778747653388
40
0.676778747653388
40
0.716589262221234
40
0.716589262221234
40
0.75639977678908
40
0.75639977678908
40
0.796210291356926
40
0.796210291356926
40
0.836020805924771
40
0.836020805924771
40
0.875831320492617
40
0.875831320492617
40
0.915641835060463
40
0.915641835060463
40
0.955452349628309
40
0.955452349628309
40
0.995262864196155
40
0.995262864196155
40
1
40
1
40
1
40
1
41
1
10
10.5755567587766
20
-0.187705971911953
30
0
41
1
10
10.858668332714
20
-0.354213647718325
30
0
41
1
10
11.1414690623687
20
-0.519690574968649
30
0
41
1
10
11.7065104833911
20
-0.848804842158756
30
0
41
1
10
11.9887095217158
20
-1.01255648647017
30
0
41
1
10
12.5529190570528
20
-1.3375241705221
30
0
41
1
10
12.8347816675043
20
-1.49892704592915
30
0
41
1
10
13.3999294333644
20
-1.81637610205976
30
0
41
1
10
13.6833543950676
20
-1.97299252604714
30
0
41
1
10
14.5322866758314
20
-2.43492091495295
30
0
41
1
10
15.095394172254
20
-2.73114618507779
30
0
41
1
10
15.9424178829603
20
-3.15113154835416
30
0
41
1
10
16.2249087570905
20
-3.2876534238581
30
0
41
1
10
16.7904381351967
20
-3.55145777685442
30
0
41
1
10
17.0733659750925
20
-3.67921347596334
30
0
41
1
10
17.6383700058826
20
-3.92378966393531
30
0
41
1
10
17.920852365685
20
-4.04095355869958
30
0
41
1
10
18.4855153248636
20
-4.26486197469953
30
0
41
1
10
18.7677179898176
20
-4.37077304841503
30
0
41
1
10
19.3321543984175
20
-4.57153494020579
30
0
41
1
10
19.6145020277586
20
-4.6662505895506
30
0
41
1
10
20.1808491892794
20
-4.84372879000898
30
0
41
1
10
20.4636855870817
20
-4.92634920358935
30
0
41
1
10
21.0284244063116
20
-5.07671397276354
30
0
41
1
10
21.3103094933391
20
-5.14512482439392
30
0
41
1
10
21.8741641783363
20
-5.26903028994406
30
0
41
1
10
22.1564730686821
20
-5.32477044059874
30
0
41
1
10
22.7216825956226
20
-5.42177393536883
30
0
41
1
10
23.005001504055
20
-5.46235252480304
30
0
41
1
10
23.5704006821856
20
-5.52942342457908
30
0
41
1
10
23.8523948123606
20
-5.55583134567888
30
0
41
1
10
24.4169250865942
20
-5.59524644312046
30
0
41
1
10
24.6991891244985
20
-5.6075550528324
30
0
41
1
10
25.2638278404702
20
-5.6158104163882
30
0
41
1
10
25.5461933527978
20
-5.61248079573045
30
0
41
1
10
26.1112898993862
20
-5.59201420239
30
0
41
1
10
26.394451083016
20
-5.57553253458693
30
0
41
1
10
26.959577190589
20
-5.52591305610619
30
0
41
1
10
27.241821864404
20
-5.49271103296388
30
0
41
1
10
27.8059664430541
20
-5.4130365202015
30
0
41
1
10
28.0876660066888
20
-5.36631543984737
30
0
41
1
10
28.6520483641831
20
-5.26068546760183
30
0
41
1
10
28.9348385414189
20
-5.2004410479814
30
0
41
1
10
29.5010507688885
20
-5.06451763808278
30
0
41
1
10
29.783616319411
20
-4.98980047816903
30
0
41
1
10
30.3479013539773
20
-4.82864754465029
30
0
41
1
10
30.6297601297003
20
-4.74239464737298
30
0
41
1
10
31.1942174213028
20
-4.55617097695452
30
0
41
1
10
31.4766224754273
20
-4.45653709761825
30
0
41
1
10
31.7928699812887
20
-4.3387481776914
30
0
41
1
10
31.8265045257361
20
-4.32614027183635
30
0
41
1
10
31.860142764707
20
-4.31345116076051
30
0
0
SPLINE
5
CE
100
AcDbEntity
8
1
62
256
6
ByLayer
370
18
48
1
60
0
100
AcDbSpline
70
4
71
3
72
28
73
24
40
0
40
0
40
0
40
0
40
0.0816419977943331
40
0.0816419977943331
40
0.1734777980149
40
0.1734777980149
40
0.265313598235467
40
0.265313598235467
40
0.357149398456034
40
0.357149398456034
40
0.4489851986766
40
0.4489851986766
40
0.540820998897167
40
0.540820998897167
40
0.632656799117734
40
0.632656799117734
40
0.724492599338301
40
0.724492599338301
40
0.816328399558867
40
0.816328399558867
40
0.908164199779434
40
0.908164199779434
40
1
40
1
40
1
40
1
41
1
10
55.5668099855002
20
5.62534377503422
30
0
41
1
10
55.8175888286717
20
5.61911424603167
30
0
41
1
10
56.0684227557119
20
5.60704507968546
30
0
41
1
10
56.6015777502046
20
5.56999169230374
30
0
41
1
10
56.8842254865791
20
5.5441375427967
30
0
41
1
10
57.4490571468079
20
5.47656562997798
30
0
41
1
10
57.7311362737807
20
5.43488028145728
30
0
41
1
10
58.294862256503
20
5.33675958639563
30
0
41
1
10
58.5764468732232
20
5.28046121004681
30
0
41
1
10
59.1397078488124
20
5.15412506881069
30
0
41
1
10
59.4218465384757
20
5.08437638042525
30
0
41
1
10
59.9871020984571
20
4.93225904829677
30
0
41
1
10
60.2699258444068
20
4.85003248947834
30
0
41
1
10
60.8339874515316
20
4.67360223135552
30
0
41
1
10
61.1153371614036
20
4.57893177316862
30
0
41
1
10
61.6787320987237
20
4.37744406993292
30
0
41
1
10
61.9606369120116
20
4.27063522595176
30
0
41
1
10
62.5248643574339
20
4.04586093225984
30
0
41
1
10
62.8074274245042
20
3.9278158005595
30
0
41
1
10
63.3720570761614
20
3.68102776259491
30
0
41
1
10
63.6539692125952
20
3.5528515375554
30
0
41
1
10
64.2179240265219
20
3.28845735261371
30
0
41
1
10
64.4997995453686
20
3.15207489671417
30
0
41
1
10
64.7816037025336
20
3.01156871322615
30
0
0
SPLINE
5
CF
100
AcDbEntity
8
1
62
256
6
ByLayer
370
18
48
1
60
0
100
AcDbSpline
70
4
71
3
72
86
73
82
40
0
40
0
40
0
40
0
40
0.0381996469123531
40
0.0381996469123531
40
0.107860679838708
40
0.107860679838708
40
0.125275938070297
40
0.125275938070297
40
0.142691196301886
40
0.142691196301886
40
0.177521712765063
40
0.177521712765063
40
0.247182745691418
40
0.247182745691418
40
0.282013262154595
40
0.282013262154595
40
0.316843778617773
40
0.316843778617773
40
0.386504811544128
40
0.386504811544128
40
0.421335328007305
40
0.421335328007305
40
0.456165844470483
40
0.456165844470483
40
0.458342751749432
40
0.458342751749432
40
0.458478808454366
40
0.458478808454366
40
0.4586148651593
40
0.4586148651593
40
0.458886978569169
40
0.458886978569169
40
0.459431205388906
40
0.459431205388906
40
0.46051965902838
40
0.46051965902838
40
0.464873473586276
40
0.464873473586276
40
0.473581102702069
40
0.473581102702069
40
0.490996360933654
40
0.490996360933654
40
0.525826877396824
40
0.525826877396824
40
0.595487910323164
40
0.595487910323164
40
0.665148943249505
40
0.665148943249505
40
0.699979459712675
40
0.699979459712675
40
0.708687088828467
40
0.708687088828467
40
0.71739471794426
40
0.71739471794426
40
0.719571625223208
40
0.719571625223208
40
0.720660078862682
40
0.720660078862682
40
0.721204305682419
40
0.721204305682419
40
0.721476419092288
40
0.721476419092288
40
0.721748532502156
40
0.726102347060052
40
0.734809976175844
40
0.734809976175844
40
0.769640492639012
40
0.769640492639012
40
0.80447100910218
40
0.80447100910218
40
0.839301525565348
40
0.839301525565348
40
0.874132042028516
40
0.874132042028516
40
0.943793074954852
40
0.943793074954852
40
0.961208333186436
40
0.961208333186436
40
0.978623591418021
40
0.978623591418021
40
1
40
1
40
1
40
1
41
1
10
16.6831753320861
20
4.08131748695479
30
0
41
1
10
16.5046278162468
20
4.10761251399845
30
0
41
1
10
16.3264198331551
20
4.12674943655006
30
0
41
1
10
15.8236083734365
20
4.15716406016026
30
0
41
1
10
15.499364835828
20
4.14884512597337
30
0
41
1
10
15.0906620046064
20
4.09512978354897
30
0
41
1
10
15.0086088628328
20
4.08219521883788
30
0
41
1
10
14.8457412182044
20
4.0522156799401
30
0
41
1
10
14.7647302174826
20
4.03515220213569
30
0
41
1
10
14.5227416694488
20
3.97786662867884
30
0
41
1
10
14.3628120116917
20
3.9315389418166
30
0
41
1
10
13.8852447967073
20
3.76960588953867
30
0
41
1
10
13.5698281348632
20
3.63100054792233
30
0
41
1
10
13.0927463610562
20
3.38503082001148
30
0
41
1
10
12.9332886985671
20
3.29678629738646
30
0
41
1
10
12.6171726503274
20
3.1125301961207
30
0
41
1
10
12.4598219641857
20
3.01617261159339
30
0
41
1
10
11.9879294401505
20
2.71717282070051
30
0
41
1
10
11.6735002372778
20
2.50469351255049
30
0
41
1
10
11.1955827502051
20
2.17517671778651
30
0
41
1
10
11.0352712612207
20
2.06352913212254
30
0
41
1
10
10.7147524806963
20
1.84006324753571
30
0
41
1
10
10.5540981008504
20
1.72793493411805
30
0
41
1
10
10.383162717038
20
1.60945800800619
30
0
41
1
10
10.3731067833865
20
1.60249115265452
30
0
41
1
10
10.362421311897
20
1.59509156273705
30
0
41
1
10
10.3616221774483
20
1.59473034339601
30
0
41
1
10
10.3611664950265
20
1.59329674802746
30
0
41
1
10
10.3614268771585
20
1.59253690423574
30
0
41
1
10
10.3623065495548
20
1.59053681482936
30
0
41
1
10
10.3631949254351
20
1.58935796561758
30
0
41
1
10
10.3659185801616
20
1.58596858632694
30
0
41
1
10
10.3679714502786
20
1.58388866626558
30
0
41
1
10
10.3742371057119
20
1.57782243365244
30
0
41
1
10
10.3786393532746
20
1.57402296868182
30
0
41
1
10
10.4009521847989
20
1.55535437823716
30
0
41
1
10
10.4197280407478
20
1.541504511244
30
0
41
1
10
10.4762075436041
20
1.50031048366588
30
0
41
1
10
10.5145591699222
20
1.47375893425024
30
0
41
1
10
10.6300221827756
20
1.39480933184026
30
0
41
1
10
10.7077495783032
20
1.34331047601208
30
0
41
1
10
10.9415783861306
20
1.1899512618468
30
0
41
1
10
11.0984530624013
20
1.08942237473218
30
0
41
1
10
11.5699338005813
20
0.790207147475769
30
0
41
1
10
11.8853876953524
20
0.593797069398875
30
0
41
1
10
12.5159628685761
20
0.20415002768172
30
0
41
1
10
12.8317890207683
20
0.0115919934306135
30
0
41
1
10
13.302796607449
20
-0.277443854469084
30
0
41
1
10
13.4595516275877
20
-0.373648585363554
30
0
41
1
10
13.6536484000764
20
-0.494815299189355
30
0
41
1
10
13.6923672316246
20
-0.519102711896352
30
0
41
1
10
13.7693275881275
20
-0.567965116912376
30
0
41
1
10
13.8077369449889
20
-0.592440127841542
30
0
41
1
10
13.8543187134683
20
-0.623933662004418
30
0
41
1
10
13.8635664259115
20
-0.630275023936491
30
0
41
1
10
13.876977108711
20
-0.640045673789871
30
0
41
1
10
13.8814101085347
20
-0.643334773951068
30
0
41
1
10
13.8874863028197
20
-0.648503552360097
30
0
41
1
10
13.889815087935
20
-0.65029116750577
30
0
41
1
10
13.8910572293418
20
-0.653145863953426
30
0
41
1
10
13.8896280850559
20
-0.653515950636319
30
0
41
1
10
13.8874970484265
20
-0.654299958521051
30
0
41
1
10
13.8693838713328
20
-0.66095605509139
30
0
41
1
10
13.8172071939013
20
-0.679750218379269
30
0
41
1
10
13.7661851371494
20
-0.697068258304256
30
0
41
1
10
13.5963369867116
20
-0.752314512321306
30
0
41
1
10
13.4609883063833
20
-0.78861091304168
30
0
41
1
10
13.192364267511
20
-0.844152944867687
30
0
41
1
10
13.0588356143915
20
-0.863502047473418
30
0
41
1
10
12.7915450209347
20
-0.884582592913347
30
0
41
1
10
12.6575199869918
20
-0.886298601734637
30
0
41
1
10
12.3880657180767
20
-0.8709274592496
30
0
41
1
10
12.2538730203971
20
-0.853938709709638
30
0
41
1
10
11.8489796693763
20
-0.774914819605783
30
0
41
1
10
11.5762205703043
20
-0.684764163091302
30
0
41
1
10
11.2149871375067
20
-0.524256716337732
30
0
41
1
10
11.1421055018943
20
-0.48993505755783
30
0
41
1
10
10.9961541572012
20
-0.417818054698557
30
0
41
1
10
10.9228735815306
20
-0.379930408703501
30
0
41
1
10
10.7586684477884
20
-0.29186278912286
30
0
41
1
10
10.6675115504887
20
-0.240848868106582
30
0
41
1
10
10.5755074063271
20
-0.187677450098874
30
0
0
SPLINE
5
D0
100
AcDbEntity
8
1
62
256
6
ByLayer
370
18
48
1
60
0
100
AcDbSpline
70
4
71
3
72
22
73
18
40
0
40
0
40
0
40
0
40
0.249999999999998
40
0.249999999999998
40
0.499999999999997
40
0.499999999999997
40
0.625000000000003
40
0.625000000000003
40
0.75000000000001
40
0.75000000000001
40
0.812500000000008
40
0.812500000000008
40
0.875000000000005
40
0.875000000000005
40
0.937500000000003
40
0.937500000000003
40
1
40
1
40
1
40
1
41
1
10
70.2639128317942
20
1.65673721878997
30
0
41
1
10
70.4654005511512
20
1.69383793537105
30
0
41
1
10
70.6656824274386
20
1.73644674967812
30
0
41
1
10
71.0606981022075
20
1.84140396901913
30
0
41
1
10
71.254671471382
20
1.90282057972385
30
0
41
1
10
71.5338933910166
20
2.02587097506427
30
0
41
1
10
71.6254203590102
20
2.0724625157003
30
0
41
1
10
71.7971759263386
20
2.18183102638884
30
0
41
1
10
71.8785841752186
20
2.24545868789909
30
0
41
1
10
71.9800633947524
20
2.35818685243413
30
0
41
1
10
72.0106175058258
20
2.39880037876472
30
0
41
1
10
72.0625884715578
20
2.4881474859055
30
0
41
1
10
72.0828994562426
20
2.53509614424806
30
0
41
1
10
72.1110706701406
20
2.63404502649558
30
0
41
1
10
72.1186478580857
20
2.68596799111717
30
0
41
1
10
72.1210918884718
20
2.78882716263561
30
0
41
1
10
72.1160891035807
20
2.84102001557758
30
0
41
1
10
72.1063208111954
20
2.89175304224341
30
0
0
SPLINE
5
D1
100
AcDbEntity
8
1
62
256
6
ByLayer
370
18
48
1
60
0
100
AcDbSpline
70
2053
71
3
72
60
73
56
40
0
40
0
40
0
40
0
40
0.0312499999999993
40
0.0312499999999993
40
0.0624999999999986
40
0.0624999999999986
40
0.0937499999999979
40
0.0937499999999979
40
0.124999999999997
40
0.124999999999997
40
0.156249999999997
40
0.156249999999997
40
0.187499999999996
40
0.187499999999996
40
0.249999999999994
40
0.249999999999994
40
0.281249999999994
40
0.281249999999994
40
0.312499999999994
40
0.312499999999994
40
0.374999999999991
40
0.374999999999991
40
0.437499999999988
40
0.437499999999988
40
0.468749999999989
40
0.468749999999989
40
0.499999999999989
40
0.499999999999989
40
0.53124999999999
40
0.53124999999999
40
0.56249999999999
40
0.56249999999999
40
0.59374999999999
40
0.59374999999999
40
0.624999999999991
40
0.624999999999991
40
0.656249999999991
40
0.656249999999991
40
0.687499999999992
40
0.687499999999992
40
0.749999999999992
40
0.749999999999992
40
0.781249999999993
40
0.781249999999993
40
0.812499999999994
40
0.812499999999994
40
0.843749999999995
40
0.843749999999995
40
0.874999999999996
40
0.874999999999996
40
0.906249999999997
40
0.906249999999997
40
0.937499999999998
40
0.937499999999998
40
1
40
1
40
1
40
1
41
1
10
71.5824280351538
20
-2.99796404057535
30
0
41
1
10
71.6106337254656
20
-2.95759643607596
30
0
41
1
10
71.6382499233058
20
-2.91435017025302
30
0
41
1
10
71.6922015521042
20
-2.82160328548991
30
0
41
1
10
71.7188303357522
20
-2.77148894898184
30
0
41
1
10
71.768910784479
20
-2.66702236736694
30
0
41
1
10
71.7923015062831
20
-2.61294506132069
30
0
41
1
10
71.8352715883025
20
-2.50052964416855
30
0
41
1
10
71.8543221631103
20
-2.44339736732965
30
0
41
1
10
71.8859400385378
20
-2.33116512143724
30
0
41
1
10
71.8988405603478
20
-2.27458917465671
30
0
41
1
10
71.9166861734524
20
-2.16891358721432
30
0
41
1
10
71.9218821190324
20
-2.11883782752287
30
0
41
1
10
71.9261925353092
20
-1.98168190129812
30
0
41
1
10
71.913982922747
20
-1.90972490682569
30
0
41
1
10
71.8799679582003
20
-1.83346324135172
30
0
41
1
10
71.8659007489155
20
-1.81301324495493
30
0
41
1
10
71.8340087689173
20
-1.7822167895406
30
0
41
1
10
71.8160900655728
20
-1.77161862061971
30
0
41
1
10
71.7568995068448
20
-1.75307263446444
30
0
41
1
10
71.7119524433563
20
-1.75852416849631
30
0
41
1
10
71.6129935588123
20
-1.8008356748889
30
0
41
1
10
71.5607951689299
20
-1.83689556145112
30
0
41
1
10
71.4783537344214
20
-1.91370024174148
30
0
41
1
10
71.4503263594133
20
-1.94308675509913
30
0
41
1
10
71.3946690662646
20
-2.00809498086841
30
0
41
1
10
71.3668273606479
20
-2.04389966214325
30
0
41
1
10
71.3111150379861
20
-2.12281615705191
30
0
41
1
10
71.2829299506224
20
-2.16647883711764
30
0
41
1
10
71.2285070959027
20
-2.25935624446277
30
0
41
1
10
71.2022224082407
20
-2.30851999347178
30
0
41
1
10
71.1518027756763
20
-2.41316873411657
30
0
41
1
10
71.1279286068859
20
-2.46826318667962
30
0
41
1
10
71.0851726280357
20
-2.58002005753923
30
0
41
1
10
71.0657941555186
20
-2.63813507866001
30
0
41
1
10
71.0341162574591
20
-2.75099892255045
30
0
41
1
10
71.0214807445433
20
-2.80663921525709
30
0
41
1
10
71.0035305226727
20
-2.91348840685856
30
0
41
1
10
70.9984469397676
20
-2.96300000690934
30
0
41
1
10
70.9940378776549
20
-3.10063331200104
30
0
41
1
10
71.0060931887581
20
-3.17345328126208
30
0
41
1
10
71.0396908336286
20
-3.25060167747347
30
0
41
1
10
71.0535582781301
20
-3.27136262462022
30
0
41
1
10
71.0853977684969
20
-3.30300753903794
30
0
41
1
10
71.1032239289114
20
-3.31386256989077
30
0
41
1
10
71.1422846046715
20
-3.32669169535558
30
0
41
1
10
71.1636497479148
20
-3.32859169252131
30
0
41
1
10
71.2084376552422
20
-3.32389267607837
30
0
41
1
10
71.2319741356787
20
-3.3173695273388
30
0
41
1
10
71.281246592437
20
-3.29628849022552
30
0
41
1
10
71.3071395968142
20
-3.28158332297409
30
0
41
1
10
71.3597160337549
20
-3.24489781149799
30
0
41
1
10
71.3865344513132
20
-3.22289706374951
30
0
41
1
10
71.4686066252244
20
-3.14573922801654
30
0
41
1
10
71.5260166545304
20
-3.07869924957413
30
0
41
1
10
71.5824280351538
20
-2.99796404057535
30
0
0
SPLINE
5
D2
100
AcDbEntity
8
1
62
256
6
ByLayer
370
13
48
1
60
0
100
AcDbSpline
70
4
71
3
72
8
73
4
40
0
40
0
40
0
40
0
40
1
40
1
40
1
40
1
41
1
10
4.1213313780687
20
-4.71197184354983
30
0
41
1
10
4.14542792053635
20
-4.70829642830768
30
0
41
1
10
4.1717902693905
20
-4.71136360058512
30
0
41
1
10
4.19887582873503
20
-4.72045907433377
30
0
0
SPLINE
5
D3
100
AcDbEntity
8
1
62
256
6
ByLayer
370
18
48
1
60
0
100
AcDbSpline
70
4
71
3
72
14
73
10
40
0
40
0
40
0
40
0
40
0.25
40
0.25
40
0.5
40
0.5
40
0.75
40
0.75
40
1
40
1
40
1
40
1
41
1
10
70.0858542748275
20
1.38947843645869
30
0
41
1
10
70.0784262238425
20
1.4176818946876
30
0
41
1
10
70.075209802168
20
1.44706116603555
30
0
41
1
10
70.0810367496812
20
1.50640600272405
30
0
41
1
10
70.0905496311276
20
1.53623076262093
30
0
41
1
10
70.1236811408705
20
1.58783620388061
30
0
41
1
10
70.1478042932036
20
1.61009757845139
30
0
41
1
10
70.2028035417982
20
1.64152865067231
30
0
41
1
10
70.232939591357
20
1.65103399569165
30
0
41
1
10
70.2639128317942
20
1.65673721878997
30
0
0
SPLINE
5
D4
100
AcDbEntity
8
1
62
256
6
ByLayer
370
18
48
1
60
0
100
AcDbSpline
70
4
71
3
72
49
73
45
40
0
40
0
40
0
40
0
40
0.0335322918841322
40
0.0335322918841322
40
0.0670645837682644
40
0.0670645837682644
40
0.13412916753653
40
0.13412916753653
40
0.167661459420662
40
0.167661459420662
40
0.201193751304795
40
0.234726043188928
40
0.234726043188928
40
0.26825833507306
40
0.26825833507306
40
0.335322918841326
40
0.335322918841326
40
0.368855210725458
40
0.368855210725458
40
0.402387502609591
40
0.402387502609591
40
0.435919794493724
40
0.435919794493724
40
0.469452086377856
40
0.469452086377856
40
0.536516670146121
40
0.536516670146121
40
0.603581253914385
40
0.603581253914385
40
0.637113545798517
40
0.637113545798517
40
0.670645837682649
40
0.670645837682649
40
0.804775005219177
40
0.804775005219177
40
0.821541151161243
40
0.821541151161243
40
0.838307297103309
40
0.838307297103309
40
0.87183958898744
40
0.87183958898744
40
0.938904172755701
40
0.938904172755701
40
1
40
1
40
1
40
1
41
1
10
70.9358410606868
20
-5.85570678810717
30
0
41
1
10
70.586154453317
20
-5.88200279999364
30
0
41
1
10
70.2366316893761
20
-5.896386281589
30
0
41
1
10
69.5369524815101
20
-5.90134288077854
30
0
41
1
10
69.186353692742
20
-5.89186799321092
30
0
41
1
10
68.1370620254865
20
-5.82793351745138
30
0
41
1
10
67.4398555337126
20
-5.73813533630226
30
0
41
1
10
66.3908357196496
20
-5.53484231427893
30
0
41
1
10
66.040239059976
20
-5.45553947290222
30
0
41
1
10
65.3410119595867
20
-5.27573396467952
30
0
41
1
10
64.6427713691779
20
-5.07459605953065
30
0
41
1
10
63.9442543372127
20
-4.83268521040526
30
0
41
1
10
63.2444556514466
20
-4.57130540959693
30
0
41
1
10
62.8939004943953
20
-4.43084104893006
30
0
41
1
10
61.8452887035739
20
-3.9847322186842
30
0
41
1
10
61.1479316172506
20
-3.6537164213762
30
0
41
1
10
60.097798481922
20
-3.11481584420432
30
0
41
1
10
59.7474858653584
20
-2.92840277885
30
0
41
1
10
59.0485333154842
20
-2.54558623869963
30
0
41
1
10
58.69940883128
20
-2.34892260053766
30
0
41
1
10
58.0006931112233
20
-1.94684259519391
30
0
41
1
10
57.6511078009442
20
-1.74141911324688
30
0
41
1
10
56.9504585742366
20
-1.32330748541619
30
0
41
1
10
56.6010206365498
20
-1.11161230032306
30
0
41
1
10
55.557448343481
20
-0.473925389350711
30
0
41
1
10
54.8660640269395
20
-0.0449272347292151
30
0
41
1
10
53.4838346033994
20
0.807502604164711
30
0
41
1
10
52.7925297782116
20
1.23017986541603
30
0
41
1
10
51.7493954590211
20
1.84918763354989
30
0
41
1
10
51.4003527179656
20
2.05286908200924
30
0
41
1
10
50.6994057104967
20
2.45252779104516
30
0
41
1
10
50.350622759087
20
2.64683558772313
30
0
41
1
10
48.6125115930813
20
3.58756944585752
30
0
41
1
10
47.2388274833395
20
4.23926240416779
30
0
41
1
10
45.6730415824741
20
4.81006600458716
30
0
41
1
10
45.498770865447
20
4.87121685743611
30
0
41
1
10
45.1494810326583
20
4.98877809174948
30
0
41
1
10
44.9742267522452
20
5.04526023225009
30
0
41
1
10
44.4488071235231
20
5.20678004891087
30
0
41
1
10
44.1001597409553
20
5.30363099385858
30
0
41
1
10
43.0575435030719
20
5.56126915462772
30
0
41
1
10
42.3664551301163
20
5.68887593677223
30
0
41
1
10
41.0453901368508
20
5.84594244857388
30
0
41
1
10
40.4153350674122
20
5.8830682333446
30
0
41
1
10
39.7816350519981
20
5.88121547930447
30
0
0
SPLINE
5
D5
100
AcDbEntity
8
1
62
256
6
ByLayer
370
18
48
1
60
0
100
AcDbSpline
70
4
71
3
72
20
73
16
40
0
40
0
40
0
40
0
40
0.0230798231862981
40
0.0230798231862981
40
0.145194845288011
40
0.145194845288011
40
0.267309867389724
40
0.267309867389724
40
0.51153991159315
40
0.51153991159315
40
0.755769955796576
40
0.755769955796576
40
0.877884977898289
40
0.877884977898289
40
1
40
1
40
1
40
1
41
1
10
12.6779967474364
20
-5.61200511376794
30
0
41
1
10
12.6119083260034
20
-5.62378124182962
30
0
41
1
10
12.5458226242169
20
-5.63515121315726
30
0
41
1
10
12.1300687563199
20
-5.70411325433884
30
0
41
1
10
11.780378372388
20
-5.75070716467422
30
0
41
1
10
11.0798753420938
20
-5.82059696033843
30
0
41
1
10
10.728516909662
20
-5.84385063461994
30
0
41
1
10
9.68061026827417
20
-5.87779725594163
30
0
41
1
10
8.9875325267916
20
-5.85313175004475
30
0
41
1
10
7.60306214629813
20
-5.71255805841719
30
0
41
1
10
6.91186133360483
20
-5.59657618885294
30
0
41
1
10
5.86942148341254
20
-5.35657723633932
30
0
41
1
10
5.52102494531175
20
-5.26556684577605
30
0
41
1
10
4.82129228434857
20
-5.06185805474283
30
0
41
1
10
4.4698545841344
20
-4.94908471648247
30
0
41
1
10
4.11900679915584
20
-4.82651292897606
30
0
0
SPLINE
5
D6
100
AcDbEntity
8
1
62
256
6
ByLayer
370
18
48
1
60
0
100
AcDbSpline
70
4
71
3
72
8
73
4
40
0
40
0
40
0
40
0
40
1
40
1
40
1
40
1
41
1
10
71.0182450615557
20
-5.60439109773952
30
0
41
1
10
70.9906241538381
20
-5.62739144799329
30
0
41
1
10
70.9670498126434
20
-5.63897494461128
30
0
41
1
10
70.9475860920325
20
-5.63896086751583
30
0
0
SPLINE
5
D7
100
AcDbEntity
8
1
62
256
6
ByLayer
370
18
48
1
60
0
100
AcDbSpline
70
4
71
3
72
66
73
62
40
0
40
0
40
0
40
0
40
0.124999999999977
40
0.124999999999977
40
0.249999999999955
40
0.249999999999955
40
0.374999999999932
40
0.374999999999932
40
0.49999999999991
40
0.49999999999991
40
0.531249999999904
40
0.531249999999904
40
0.562499999999899
40
0.562499999999899
40
0.624999999999889
40
0.624999999999889
40
0.687499999999879
40
0.687499999999879
40
0.689453124999879
40
0.689453124999879
40
0.691406249999878
40
0.691406249999878
40
0.695312499999879
40
0.695312499999879
40
0.697265624999879
40
0.697265624999879
40
0.69921874999988
40
0.69921874999988
40
0.703124999999881
40
0.703124999999881
40
0.718749999999887
40
0.718749999999887
40
0.749999999999898
40
0.749999999999898
40
0.765624999999903
40
0.765624999999903
40
0.773437499999906
40
0.773437499999906
40
0.78124999999991
40
0.78124999999991
40
0.796874999999916
40
0.796874999999916
40
0.812499999999922
40
0.812499999999922
40
0.828124999999928
40
0.828124999999928
40
0.843749999999935
40
0.843749999999935
40
0.859374999999941
40
0.859374999999941
40
0.874999999999948
40
0.874999999999948
40
0.890624999999954
40
0.890624999999954
40
0.90624999999996
40
0.90624999999996
40
0.937499999999974
40
0.937499999999974
40
0.968749999999987
40
0.968749999999987
40
1
40
1
40
1
40
1
41
1
10
16.6831735093043
20
4.08127653031045
30
0
41
1
10
15.9549657212538
20
4.40417349588694
30
0
41
1
10
15.2185443861328
20
4.67820294927319
30
0
41
1
10
13.7195037688722
20
5.13256651421886
30
0
41
1
10
12.9653441927625
20
5.30979706485704
30
0
41
1
10
11.4345098152743
20
5.57881356791563
30
0
41
1
10
10.6577184829313
20
5.67058633897338
30
0
41
1
10
9.07030812577375
20
5.79352758414615
30
0
41
1
10
8.25969450557048
20
5.82501255926567
30
0
41
1
10
7.22083596900723
20
5.84576872557437
30
0
41
1
10
7.01166159955486
20
5.84898871372783
30
0
41
1
10
6.592453672159
20
5.85399317207981
30
0
41
1
10
6.38222372058436
20
5.85578309579142
30
0
41
1
10
5.74959778321525
20
5.85965277861317
30
0
41
1
10
5.32483436336312
20
5.86026460333875
30
0
41
1
10
4.47289542495562
20
5.86023929652546
30
0
41
1
10
4.04549054491136
20
5.85961238780453
30
0
41
1
10
3.60341313714952
20
5.8591244427422
30
0
41
1
10
3.59001662634128
20
5.85910975515372
30
0
41
1
10
3.563223152609
20
5.85908060326338
30
0
41
1
10
3.54982886813241
20
5.8590638992253
30
0
41
1
10
3.50960322880664
20
5.85904924902593
30
0
41
1
10
3.48254953303558
20
5.85908059332567
30
0
41
1
10
3.44419896638129
20
5.85918118363497
30
0
41
1
10
3.4315556025075
20
5.85922412738492
30
0
41
1
10
3.40822908242976
20
5.85931349661604
30
0
41
1
10
3.39687292605956
20
5.85934952178809
30
0
41
1
10
3.36249224778896
20
5.85941452310567
30
0
41
1
10
3.33968238109441
20
5.85940715845609
30
0
41
1
10
3.22620828635536
20
5.85909748396085
30
0
41
1
10
3.13708971464087
20
5.8579756896236
30
0
41
1
10
2.87875812361364
20
5.85118796788595
30
0
41
1
10
2.71770506740057
20
5.84226318342883
30
0
41
1
10
2.50013185861911
20
5.81724862319118
30
0
41
1
10
2.43165075892375
20
5.80694491660671
30
0
41
1
10
2.33664618986094
20
5.78741395742477
30
0
41
1
10
2.30614936252388
20
5.78017938700273
30
0
41
1
10
2.24908386008573
20
5.76436054986684
30
0
41
1
10
2.22243316009752
20
5.75576853664461
30
0
41
1
10
2.14850040441462
20
5.72772178548843
30
0
41
1
10
2.10720922660755
20
5.70601166027015
30
0
41
1
10
2.04318481106407
20
5.65507376488054
30
0
41
1
10
2.0212856783007
20
5.62632822512506
30
0
41
1
10
1.99827132486868
20
5.56294371506257
30
0
41
1
10
1.99699491698837
20
5.52801064910727
30
0
41
1
10
2.01426085794165
20
5.45221843350402
30
0
41
1
10
2.03248621100693
20
5.41225930471143
30
0
41
1
10
2.08488403506311
20
5.3285302000009
30
0
41
1
10
2.11938724629243
20
5.28444055597916
30
0
41
1
10
2.20008116676507
20
5.19472432448546
30
0
41
1
10
2.24621605116226
20
5.14903027306019
30
0
41
1
10
2.34756587602226
20
5.05607859804636
30
0
41
1
10
2.40279564720575
20
5.0088205054503
30
0
41
1
10
2.52067976656212
20
4.91281235041598
30
0
41
1
10
2.58356477588797
20
4.86390184361514
30
0
41
1
10
2.77886116851806
20
4.71700204987118
30
0
41
1
10
2.91833808689344
20
4.61833743586476
30
0
41
1
10
3.20968280650112
20
4.41898275421238
30
0
41
1
10
3.36162883867877
20
4.31829989724045
30
0
41
1
10
3.67472258360658
20
4.11458663148503
30
0
41
1
10
3.83638582457829
20
4.01125345287144
30
0
41
1
10
4.00000039901036
20
3.90767838097477
30
0
0
SPLINE
5
D8
100
AcDbEntity
8
1
62
256
6
ByLayer
370
18
48
1
60
0
100
AcDbSpline
70
4
71
3
72
32
73
28
40
0
40
0
40
0
40
0
40
0.125
40
0.125
40
0.1875
40
0.1875
40
0.25
40
0.25
40
0.375
40
0.375
40
0.4375
40
0.4375
40
0.5
40
0.5
40
0.625000000000001
40
0.625000000000001
40
0.656250000000001
40
0.656250000000001
40
0.687500000000001
40
0.687500000000001
40
0.75
40
0.75
40
0.875
40
0.875
40
0.9375
40
0.9375
40
1
40
1
40
1
40
1
41
1
10
4.00000039925158
20
3.90702927819925
30
0
41
1
10
4.00000039925158
20
3.60407055341159
30
0
41
1
10
4.00000039925158
20
3.27764113335363
30
0
41
1
10
4.00000039925158
20
2.75371197169682
30
0
41
1
10
4.00000039925158
20
2.57330907615133
30
0
41
1
10
4.00000039925158
20
2.20056778006534
30
0
41
1
10
4.00000039925158
20
2.01099462044741
30
0
41
1
10
4.00000039925158
20
1.43478078630963
30
0
41
1
10
4.00000039925155
20
1.0399302317245
30
0
41
1
10
4.00000039925155
20
0.43109561528243
30
0
41
1
10
4.00000039925155
20
0.227610382905255
30
0
41
1
10
4.00000039925158
20
-0.179534834218373
30
0
41
1
10
4.00000039925155
20
-0.38421862808903
30
0
41
1
10
4.00000039925155
20
-0.990259737012451
30
0
41
1
10
4.00000039925155
20
-1.38468624397285
30
0
41
1
10
4.00000039925155
20
-1.86590796157174
30
0
41
1
10
4.00000039925155
20
-1.96155576632987
30
0
41
1
10
4.00000039925155
20
-2.15163875717019
30
0
41
1
10
4.00000039925158
20
-2.24633531087451
30
0
41
1
10
4.00000039925158
20
-2.52650859839093
30
0
41
1
10
4.00000039925155
20
-2.70751622259456
30
0
41
1
10
4.00000039925152
20
-3.23376677673821
30
0
41
1
10
4.00000039925152
20
-3.562416844339
30
0
41
1
10
4.00000039925155
20
-4.02101330037283
30
0
41
1
10
4.00000039925155
20
-4.16688824065486
30
0
41
1
10
4.00000039925152
20
-4.44210752332151
30
0
41
1
10
4.00000039925155
20
-4.57189151943015
30
0
41
1
10
4.00000039925155
20
-4.6937363885406
30
0
0
SPLINE
5
D9
100
AcDbEntity
8
1
62
256
6
ByLayer
370
18
48
1
60
0
100
AcDbSpline
70
4
71
3
72
90
73
86
40
0
40
0
40
0
40
0
40
0.0118182438255357
40
0.0118182438255357
40
0.035039580998695
40
0.035039580998695
40
0.0582609181718543
40
0.0582609181718543
40
0.0814822553450136
40
0.0814822553450136
40
0.104703592518173
40
0.104703592518173
40
0.127924929691332
40
0.127924929691332
40
0.151146266864492
40
0.151146266864492
40
0.174367604037651
40
0.174367604037651
40
0.19758894121081
40
0.19758894121081
40
0.220810278383969
40
0.220810278383969
40
0.244031615557129
40
0.244031615557129
40
0.267252952730288
40
0.267252952730288
40
0.290474289903447
40
0.290474289903447
40
0.313695627076606
40
0.313695627076606
40
0.336916964249766
40
0.336916964249766
40
0.383359638596084
40
0.383359638596084
40
0.406580975769244
40
0.406580975769244
40
0.429802312942403
40
0.429802312942403
40
0.453023650115562
40
0.453023650115562
40
0.476244987288722
40
0.476244987288722
40
0.499466324461881
40
0.499466324461881
40
0.52268766163504
40
0.52268766163504
40
0.5459089988082
40
0.5459089988082
40
0.569130335981359
40
0.569130335981359
40
0.592351673154518
40
0.592351673154518
40
0.615573010327677
40
0.615573010327677
40
0.638794347500837
40
0.638794347500837
40
0.662015684673996
40
0.662015684673996
40
0.685237021847155
40
0.685237021847155
40
0.708458359020315
40
0.708458359020315
40
0.731679696193474
40
0.731679696193474
40
0.754901033366633
40
0.754901033366633
40
0.801343707712951
40
0.801343707712951
40
0.82456504488611
40
0.82456504488611
40
0.847786382059269
40
0.847786382059269
40
0.871007719232429
40
0.871007719232429
40
0.894229056405588
40
0.894229056405588
40
0.917450393578747
40
0.917450393578747
40
0.940671730751906
40
0.940671730751906
40
0.963893067925066
40
0.963893067925066
40
0.987114405098225
40
0.987114405098225
40
1
40
1
40
1
40
1
41
1
10
61.8247988623739
20
-4.32066363641263
30
0
41
1
10
61.6807974489888
20
-4.37519596719469
30
0
41
1
10
61.5368299606739
20
-4.4282205587343
30
0
41
1
10
61.1107009706043
20
-4.58053398860702
30
0
41
1
10
60.829042094354
20
-4.67522238953944
30
0
41
1
10
60.2650745442403
20
-4.85147529807944
30
0
41
1
10
59.9829289198422
20
-4.93343815841368
30
0
41
1
10
59.4183077971735
20
-5.08527187341267
30
0
41
1
10
59.1358587100938
20
-5.15506417249671
30
0
41
1
10
58.570647206998
20
-5.28168497275661
30
0
41
1
10
58.2881465907989
20
-5.33805019908951
30
0
41
1
10
57.7236602398639
20
-5.43605674140457
30
0
41
1
10
57.4415968346168
20
-5.47758688537303
30
0
41
1
10
56.877639055411
20
-5.54479347918991
30
0
41
1
10
56.595979157718
20
-5.57046812742269
30
0
41
1
10
56.031637854141
20
-5.6095124995243
30
0
41
1
10
55.7486292297404
20
-5.62228821194711
30
0
41
1
10
55.1831294603243
20
-5.63278091136809
30
0
41
1
10
54.9008195044727
20
-5.6299430310691
30
0
41
1
10
54.337145044824
20
-5.60915831610714
30
0
41
1
10
54.0555660026641
20
-5.59224994126677
30
0
41
1
10
53.4915779123594
20
-5.54382986755041
30
0
41
1
10
53.2093334731731
20
-5.51243759169913
30
0
41
1
10
52.6440301902559
20
-5.43307533992316
30
0
41
1
10
52.3611179525661
20
-5.38555814291897
30
0
41
1
10
51.7966351671646
20
-5.2785455248862
30
0
41
1
10
51.5144819048301
20
-5.21867632150369
30
0
41
1
10
50.95014843921
20
-5.08471538639532
30
0
41
1
10
50.6679297368634
20
-5.01024010645838
30
0
41
1
10
50.1034807017351
20
-4.84894978886672
30
0
41
1
10
49.8213400646283
20
-4.7620315360935
30
0
41
1
10
48.9726383979461
20
-4.48300372482837
30
0
41
1
10
48.4081643279611
20
-4.2719767519948
30
0
41
1
10
47.5628267235957
20
-3.92388086314105
30
0
41
1
10
47.2808230910241
20
-3.80286496195757
30
0
41
1
10
46.7157728438823
20
-3.5506416619555
30
0
41
1
10
46.4324267674721
20
-3.41908840902207
30
0
41
1
10
45.8670593584161
20
-3.14827355654856
30
0
41
1
10
45.5851653385577
20
-3.00840151758726
30
0
41
1
10
45.0211238740366
20
-2.72174517598853
30
0
41
1
10
44.7389991472947
20
-2.57485535076793
30
0
41
1
10
44.1743206498313
20
-2.27443034023241
30
0
41
1
10
43.8917698212077
20
-2.12122617461802
30
0
41
1
10
43.3264812613418
20
-1.808160208712
30
0
41
1
10
43.0437929560451
20
-1.64883432184297
30
0
41
1
10
42.4790238121579
20
-1.32763136910558
30
0
41
1
10
42.1967659970797
20
-1.16542836884898
30
0
41
1
10
41.6324330129726
20
-0.838490646030664
30
0
41
1
10
41.3505975355488
20
-0.673203909417055
30
0
41
1
10
40.7862770840159
20
-0.340905663161436
30
0
41
1
10
40.5032855085946
20
-0.174134526706922
30
0
41
1
10
39.9372627763024
20
0.159001317444364
30
0
41
1
10
39.6545834200132
20
0.325225280819467
30
0
41
1
10
39.090159107811
20
0.657032456080941
30
0
41
1
10
38.808463575712
20
0.822684967434498
30
0
41
1
10
38.2440652560704
20
1.15007585544311
30
0
41
1
10
37.9615494745418
20
1.31223178678746
30
0
41
1
10
37.3959231346905
20
1.63363572783345
30
0
41
1
10
37.1126592723403
20
1.79296429418585
30
0
41
1
10
36.548068437809
20
2.10603621201861
30
0
41
1
10
36.2659287339192
20
2.25900219975878
30
0
41
1
10
35.7014496056526
20
2.55903639875035
30
0
41
1
10
35.4191804612256
20
2.70593412652622
30
0
41
1
10
34.8545544073977
20
2.99279043070007
30
0
41
1
10
34.5724038084655
20
3.132756236413
30
0
41
1
10
33.7234748282958
20
3.53898612668726
30
0
41
1
10
33.1581786139932
20
3.79241682597112
30
0
41
1
10
32.3121083498837
20
4.14000685816083
30
0
41
1
10
32.0300324851198
20
4.25056837532409
30
0
41
1
10
31.4647417629025
20
4.46080232645596
30
0
41
1
10
31.1812991275533
20
4.56063696976537
30
0
41
1
10
30.6155552899469
20
4.74686700108509
30
0
41
1
10
30.3334751198825
20
4.83296897328989
30
0
41
1
10
29.7693143503991
20
4.99367294887668
30
0
41
1
10
29.4871248536093
20
5.06807254151352
30
0
41
1
10
28.9223896710345
20
5.20320748200371
30
0
41
1
10
28.6397837230331
20
5.26317378152615
30
0
41
1
10
28.074112387565
20
5.36865025793952
30
0
41
1
10
27.7912595393291
20
5.41535649466863
30
0
41
1
10
27.2260622945684
20
5.49468040609787
30
0
41
1
10
26.9436113695054
20
5.52762643713265
30
0
41
1
10
26.3788698178836
20
5.5765711783925
30
0
41
1
10
26.0966314685672
20
5.59277307929341
30
0
41
1
10
25.6577078877111
20
5.60830619974678
30
0
41
1
10
25.5008587370601
20
5.61173256588697
30
0
41
1
10
25.343883857108
20
5.61292933290841
30
0
0
SPLINE
5
DA
100
AcDbEntity
8
1
62
256
6
ByLayer
370
18
48
1
60
0
100
AcDbSpline
70
4
71
3
72
14
73
10
40
0
40
0
40
0
40
0
40
0.25
40
0.25
40
0.5
40
0.5
40
0.75
40
0.75
40
1
40
1
40
1
40
1
41
1
10
4.11900679915584
20
-4.82651292897606
30
0
41
1
10
4.10074058223279
20
-4.8201314639787
30
0
41
1
10
4.08429056098413
20
-4.81255116771504
30
0
41
1
10
4.05490940576857
20
-4.79499834533797
30
0
41
1
10
4.04206469474516
20
-4.78499090338244
30
0
41
1
10
4.02144324623379
20
-4.76357781120623
30
0
41
1
10
4.01337636660142
20
-4.75186302425158
30
0
41
1
10
4.00271152639743
20
-4.72772986511842
30
0
41
1
10
4.00000039925152
20
-4.71530945861568
30
0
41
1
10
4.00000039925152
20
-4.70251394011763
30
0
0
SPLINE
5
DB
100
AcDbEntity
8
1
62
256
6
ByLayer
370
18
48
1
60
0
100
AcDbSpline
70
4
71
3
72
16
73
12
40
0
40
0
40
0
40
0
40
0.563259607647147
40
0.563259607647147
40
0.657547226335267
40
0.657547226335267
40
0.751834845023387
40
0.751834845023387
40
0.940410082399627
40
0.940410082399627
40
1
40
1
40
1
40
1
41
1
10
69.9571670808785
20
-5.63853802947068
30
0
41
1
10
68.9162405762418
20
-5.63768256928404
30
0
41
1
10
67.8793723274309
20
-5.53571550031782
30
0
41
1
10
66.6580828095198
20
-5.30231184384317
30
0
41
1
10
66.4826830660313
20
-5.26608027831938
30
0
41
1
10
66.1332130139012
20
-5.18861782251417
30
0
41
1
10
65.958890673005
20
-5.1473433244004
30
0
41
1
10
65.4369462858037
20
-5.01614126691672
30
0
41
1
10
65.0903356421387
20
-4.91884214207462
30
0
41
1
10
64.6352991780602
20
-4.7786626024114
30
0
41
1
10
64.5261192423786
20
-4.74408168777879
30
0
41
1
10
64.4170073473314
20
-4.7085987040536
30
0
0
SPLINE
5
DC
100
AcDbEntity
8
1
62
256
6
ByLayer
370
13
48
1
60
0
100
AcDbSpline
70
4
71
3
72
24
73
20
40
0
40
0
40
0
40
0
40
0.127517737752957
40
0.127517737752957
40
0.278964050117242
40
0.278964050117242
40
0.354687206299383
40
0.354687206299383
40
0.392548784390455
40
0.392548784390455
40
0.430410362481526
40
0.430410362481526
40
0.733302987210104
40
0.733302987210104
40
0.884749299574393
40
0.884749299574393
40
0.960472455756536
40
0.960472455756536
40
1
40
1
40
1
40
1
41
1
10
64.4170073473263
20
-4.70859870405189
30
0
41
1
10
63.8355392806077
20
-4.51950637879079
30
0
41
1
10
63.2560035198534
20
-4.30479592834016
30
0
41
1
10
61.9870141152849
20
-3.78521665703406
30
0
41
1
10
61.2972359123278
20
-3.47104117155536
30
0
41
1
10
60.2553592670381
20
-2.95872258831321
30
0
41
1
10
59.9068501815053
20
-2.78108737855976
30
0
41
1
10
59.3813369437185
20
-2.50540339944786
30
0
41
1
10
59.2059991266902
20
-2.41211576875401
30
0
41
1
10
58.8566435869592
20
-2.22394586601328
30
0
41
1
10
58.682364347479
20
-2.12892692879802
30
0
41
1
10
57.1168052841941
20
-1.26644321174442
30
0
41
1
10
55.7464261953282
20
-0.447415293865021
30
0
41
1
10
53.6734110112951
20
0.774473395775459
30
0
41
1
10
52.9791729059399
20
1.18010011825336
30
0
41
1
10
51.9273787247448
20
1.77639754852629
30
0
41
1
10
51.57793234134
20
1.97125487380185
30
0
41
1
10
51.0479807457178
20
2.25989482648299
30
0
41
1
10
50.8665028180476
20
2.35750199188928
30
0
41
1
10
50.6852558877403
20
2.45367616490316
30
0
0
SPLINE
5
DD
100
AcDbEntity
8
1
62
256
6
ByLayer
370
18
48
1
60
0
100
AcDbSpline
70
4
71
3
72
16
73
12
40
0
40
0
40
0
40
0
40
0.0215272348480988
40
0.0215272348480988
40
0.110479304407362
40
0.110479304407362
40
0.28838344352589
40
0.28838344352589
40
0.644191721762946
40
0.644191721762946
40
1
40
1
40
1
40
1
41
1
10
10.1180431033599
20
-5.60248727988295
30
0
41
1
10
10.0755780261277
20
-5.60260458658001
30
0
41
1
10
10.0331233946495
20
-5.60255542691866
30
0
41
1
10
9.81537466141759
20
-5.60144809934786
30
0
41
1
10
9.6404303189683
20
-5.59772269778247
30
0
41
1
10
9.1165225727828
20
-5.57815136172377
30
0
41
1
10
8.76847324953812
20
-5.55391932067923
30
0
41
1
10
7.7262264502863
20
-5.4483182804118
30
0
41
1
10
7.03419944892528
20
-5.33420283681687
30
0
41
1
10
5.64676397384875
20
-5.02347211359927
30
0
41
1
10
4.95137009700426
20
-4.82689299874315
30
0
41
1
10
4.25032208125282
20
-4.59040596985898
30
0
0
SPLINE
5
DE
100
AcDbEntity
8
1
62
256
6
ByLayer
370
13
48
1
60
0
100
AcDbSpline
70
4
71
3
72
8
73
4
40
0
40
0
40
0
40
0
40
1
40
1
40
1
40
1
41
1
10
4.11900679915584
20
-4.82651292897575
30
0
41
1
10
4.11977401221247
20
-4.78833639283087
30
0
41
1
10
4.12054885070432
20
-4.75015608691112
30
0
41
1
10
4.1213313780687
20
-4.71197184354983
30
0
0
SPLINE
5
DF
100
AcDbEntity
8
1
62
256
6
ByLayer
370
18
48
1
60
0
100
AcDbSpline
70
4
71
3
72
34
73
30
40
0
40
0
40
0
40
0
40
0.0625000000000005
40
0.0625000000000005
40
0.0937500000000003
40
0.0937500000000003
40
0.125
40
0.125
40
0.1875
40
0.1875
40
0.218749999999999
40
0.218749999999999
40
0.249999999999997
40
0.249999999999997
40
0.374999999999999
40
0.374999999999999
40
0.4375
40
0.4375
40
0.500000000000001
40
0.500000000000001
40
0.625
40
0.625
40
0.749999999999999
40
0.749999999999999
40
0.812499999999998
40
0.812499999999998
40
0.874999999999998
40
0.874999999999998
40
1
40
1
40
1
40
1
41
1
10
64.7816037025337
20
3.01156871322613
30
0
41
1
10
64.7842377316542
20
2.8570439175293
30
0
41
1
10
64.7997887352583
20
2.69861519148893
30
0
41
1
10
64.8421439510403
20
2.45522100646321
30
0
41
1
10
64.8595017771056
20
2.3728821525558
30
0
41
1
10
64.9003044452059
20
2.20738219865535
30
0
41
1
10
64.9235610288018
20
2.12489883296894
30
0
41
1
10
65.0012530946661
20
1.87818848856625
30
0
41
1
10
65.0635805524528
20
1.71469842952513
30
0
41
1
10
65.1709926617123
20
1.47076321850616
30
0
41
1
10
65.2091252302569
20
1.38966891009335
30
0
41
1
10
65.2898189637586
20
1.22789381708344
30
0
41
1
10
65.332439267418
20
1.1471361242626
30
0
41
1
10
65.5531218957656
20
0.749504744964554
30
0
41
1
10
65.755571308478
20
0.446493924371026
30
0
41
1
10
66.0875177039462
20
0.0084524118114757
30
0
41
1
10
66.2030865700043
20
-0.134911652743483
30
0
41
1
10
66.4422586265429
20
-0.416056915086159
30
0
41
1
10
66.5646596957812
20
-0.552482271285612
30
0
41
1
10
66.9391783786149
20
-0.950980774939183
30
0
41
1
10
67.1987939324769
20
-1.20200753964056
30
0
41
1
10
67.7340959082543
20
-1.68038457211577
30
0
41
1
10
68.009555700184
20
-1.90806872379326
30
0
41
1
10
68.4326481032973
20
-2.23500572030653
30
0
41
1
10
68.5751919576202
20
-2.34140195136115
30
0
41
1
10
68.8615426016987
20
-2.5482945314906
30
0
41
1
10
69.0055741274767
20
-2.64896599029797
30
0
41
1
10
69.4400599030488
20
-2.94323084249737
30
0
41
1
10
69.7328909694408
20
-3.12912132046159
30
0
41
1
10
70.028592916866
20
-3.30570769232847
30
0
0
SPLINE
5
E0
100
AcDbEntity
8
1
62
256
6
ByLayer
370
18
48
1
60
0
100
AcDbSpline
70
4
71
3
72
20
73
16
40
0
40
0
40
0
40
0
40
0.765865058472538
40
0.765865058472538
40
0.803628739089274
40
0.803628739089274
40
0.841392419706011
40
0.841392419706011
40
0.916919780939466
40
0.916919780939466
40
0.954683461556203
40
0.954683461556203
40
0.992447142172939
40
0.992447142172939
40
1
40
1
40
1
40
1
41
1
10
4.43027979885667
20
-5.86002860672048
30
0
41
1
10
4.15966263063984
20
-5.85980072638657
30
0
41
1
10
3.88849233267419
20
-5.85943910027365
30
0
41
1
10
3.60341313714906
20
-5.8591244427422
30
0
41
1
10
3.59001662634086
20
-5.85910975515372
30
0
41
1
10
3.5632231526086
20
-5.85908060326338
30
0
41
1
10
3.54982886813201
20
-5.85906389922528
30
0
41
1
10
3.50960322880621
20
-5.8590492490259
30
0
41
1
10
3.48254953303515
20
-5.85908059332567
30
0
41
1
10
3.4441989663809
20
-5.85918118363497
30
0
41
1
10
3.43155560250716
20
-5.85922412738492
30
0
41
1
10
3.40822908242947
20
-5.85931349661604
30
0
41
1
10
3.39687292605925
20
-5.85934952178809
30
0
41
1
10
3.3831206178173
20
-5.85937552238494
30
0
41
1
10
3.38082964155606
20
-5.85937934887099
30
0
41
1
10
3.37853977564779
20
-5.85938266448048
30
0
0
SPLINE
5
E1
100
AcDbEntity
8
1
62
256
6
ByLayer
370
13
48
1
60
0
100
AcDbSpline
70
4
71
3
72
14
73
10
40
0
40
0
40
0
40
0
40
0.25
40
0.25
40
0.5
40
0.5
40
0.75
40
0.75
40
1
40
1
40
1
40
1
41
1
10
4.00000039925155
20
-4.6937363885406
30
0
41
1
10
4.00000039925158
20
-4.69559565723097
30
0
41
1
10
4.00260134952038
20
-4.69746757512291
30
0
41
1
10
4.01301447456314
20
-4.70102072584305
30
0
41
1
10
4.02068562458982
20
-4.70268877599634
30
0
41
1
10
4.04097017825978
20
-4.70581068062734
30
0
41
1
10
4.05384280639194
20
-4.70728684552776
30
0
41
1
10
4.08416804025205
20
-4.70989101319597
30
0
41
1
10
4.10148772512963
20
-4.71102266758939
30
0
41
1
10
4.1213313780687
20
-4.71197184354983
30
0
0
SPLINE
5
E2
100
AcDbEntity
8
1
62
256
6
ByLayer
370
18
48
1
60
0
100
AcDbSpline
70
4
71
3
72
18
73
14
40
0
40
0
40
0
40
0
40
0.0402980648516566
40
0.0402980648516566
40
0.209617290349592
40
0.209617290349592
40
0.378936515847527
40
0.378936515847527
40
0.717574966843394
40
0.717574966843394
40
0.886894192341329
40
0.886894192341329
40
1
40
1
40
1
40
1
41
1
10
40.0154721392366
20
-5.62056297165071
30
0
41
1
10
39.9322329930386
20
-5.62053040504529
30
0
41
1
10
39.8489143200639
20
-5.61985496164996
30
0
41
1
10
39.4150672349005
20
-5.61297860240734
30
0
41
1
10
39.0641605991002
20
-5.59596925096344
30
0
41
1
10
38.3633328876771
20
-5.53945065919066
30
0
41
1
10
38.0129610745701
20
-5.49994046263282
30
0
41
1
10
36.9604347061274
20
-5.34789894049692
30
0
41
1
10
36.2605394939183
20
-5.20255523872322
30
0
41
1
10
35.2082754828732
20
-4.92271218438958
30
0
41
1
10
34.8580627361326
20
-4.81935425533342
30
0
41
1
10
34.2765818158211
20
-4.63212829873697
30
0
41
1
10
34.0442354787221
20
-4.55310118313017
30
0
41
1
10
33.8122455659092
20
-4.47022433965228
30
0
0
SPLINE
5
E3
100
AcDbEntity
8
1
62
256
6
ByLayer
370
13
48
1
60
0
100
AcDbSpline
70
4
71
3
72
28
73
24
40
0
40
0
40
0
40
0
40
0.0267868210449802
40
0.0267868210449802
40
0.349523726981013
40
0.349523726981013
40
0.389865840223016
40
0.389865840223016
40
0.430207953465018
40
0.430207953465018
40
0.510892179949021
40
0.510892179949021
40
0.672260632917029
40
0.672260632917029
40
0.833629085885037
40
0.833629085885037
40
0.873971199127039
40
0.873971199127039
40
0.914313312369041
40
0.914313312369041
40
0.994997538853044
40
0.994997538853044
40
1
40
1
40
1
40
1
41
1
10
33.8122446245509
20
-4.47022400335825
30
0
41
1
10
33.696946297894
20
-4.4290344425873
30
0
41
1
10
33.5817360101799
20
-4.38689397532926
30
0
41
1
10
32.0793099824868
20
-3.82493832784695
30
0
41
1
10
30.7012748673823
20
-3.17218364350737
30
0
41
1
10
29.1242743253949
20
-2.33399886147689
30
0
41
1
10
28.9486985812342
20
-2.23943150848089
30
0
41
1
10
28.598746426987
20
-2.04889945348276
30
0
41
1
10
28.4241017812039
20
-1.95279168500798
30
0
41
1
10
27.9010587731588
20
-1.66212296737348
30
0
41
1
10
27.553546048449
20
-1.46522621097938
30
0
41
1
10
26.5128996736549
20
-0.868047882246771
30
0
41
1
10
25.8214805378966
20
-0.461582020323874
30
0
41
1
10
24.435383317667
20
0.354383746704116
30
0
41
1
10
23.7405750588771
20
0.763641007282729
30
0
41
1
10
22.864618528731
20
1.2677956368149
30
0
41
1
10
22.6889276058043
20
1.36831497831199
30
0
41
1
10
22.3387606547001
20
1.56713713126632
30
0
41
1
10
22.1640338187918
20
1.66558810510631
30
0
41
1
10
21.6407481072309
20
1.95778502223479
30
0
41
1
10
21.2930779657799
20
2.14836991423743
30
0
41
1
10
20.9245355284121
20
2.34545669149546
30
0
41
1
10
20.9030222043017
20
2.35694365475257
30
0
41
1
10
20.8815112457924
20
2.36841129621848
30
0
0
LINE
5
76
100
AcDbEntity
8
81
62
256
6
ByLayer
370
18
48
1
60
0
100
AcDbLine
10
73
20
0
30
0
11
78
21
0
31
0
39
0
210
0
220
0
230
1
0
LINE
5
77
100
AcDbEntity
8
1
62
256
6
ByLayer
370
18
48
1
60
0
100
AcDbLine
10
3.352355
20
5.859399
30
0
11
0.8
21
5.857867
31
0
39
0
210
0
220
0
230
1
0
LINE
5
79
100
AcDbEntity
8
1
62
256
6
ByLayer
370
18
48
1
60
0
100
AcDbLine
10
9.86692
20
5.863308
30
0
11
4.392268
21
5.860023
31
0
39
0
210
0
220
0
230
1
0
LINE
5
7A
100
AcDbEntity
8
1
62
256
6
ByLayer
370
18
48
1
60
0
100
AcDbLine
10
39.817715
20
5.881278
30
0
11
38.996322
21
5.880785
31
0
39
0
210
0
220
0
230
1
0
LINE
5
7B
100
AcDbEntity
8
1
62
256
6
ByLayer
370
18
48
1
60
0
100
AcDbLine
10
69.767985
20
5.899248
30
0
11
68.95357
21
5.89876
31
0
39
0
210
0
220
0
230
1
0
LINE
5
7C
100
AcDbEntity
8
1
62
256
6
ByLayer
370
18
48
1
60
0
100
AcDbLine
10
68.95357
20
-5.89876
30
0
11
69.76763
21
-5.899248
31
0
39
0
210
0
220
0
230
1
0
LINE
5
7D
100
AcDbEntity
8
1
62
256
6
ByLayer
370
18
48
1
60
0
100
AcDbLine
10
38.996322
20
-5.880785
30
0
11
39.817613
21
-5.881278
31
0
39
0
210
0
220
0
230
1
0
LINE
5
7E
100
AcDbEntity
8
1
62
256
6
ByLayer
370
18
48
1
60
0
100
AcDbLine
10
4.392268
20
-5.860023
30
0
11
9.866952
21
-5.863308
31
0
39
0
210
0
220
0
230
1
0
LINE
5
7F
100
AcDbEntity
8
1
62
256
6
ByLayer
370
18
48
1
60
0
100
AcDbLine
10
0.8
20
-5.857867
30
0
11
3.352355
21
-5.859399
31
0
39
0
210
0
220
0
230
1
0
LINE
5
80
100
AcDbEntity
8
1
62
256
6
ByLayer
370
18
48
1
60
0
100
AcDbLine
10
0
20
-6
30
0
11
0.8
21
-5.857867
31
0
39
0
210
0
220
0
230
1
0
LINE
5
81
100
AcDbEntity
8
1
62
256
6
ByLayer
370
18
48
1
60
0
100
AcDbLine
10
0.8
20
5.857867
30
0
11
0
21
6
31
0
39
0
210
0
220
0
230
1
0
LINE
5
82
100
AcDbEntity
8
SK1
62
256
6
ByLayer
370
18
48
1
60
0
100
AcDbLine
10
0
20
6
30
0
11
-43.556624
21
6
31
0
39
0
210
0
220
0
230
1
0
LINE
5
84
100
AcDbEntity
8
SK1
62
256
6
ByLayer
370
18
48
1
60
0
100
AcDbLine
10
-43.556624
20
-6
30
0
11
0
21
-6
31
0
39
0
210
0
220
0
230
1
0
LINE
5
85
100
AcDbEntity
8
SK1
62
256
6
ByLayer
370
18
48
1
60
0
100
AcDbLine
10
-43.556624
20
6
30
0
11
-43.6
21
5.924871
31
0
39
0
210
0
220
0
230
1
0
LINE
5
86
100
AcDbEntity
8
SK1
62
256
6
ByLayer
370
18
48
1
60
0
100
AcDbLine
10
-43.6
20
-5.924871
30
0
11
-43.556624
21
-6
31
0
39
0
210
0
220
0
230
1
0
LINE
5
87
100
AcDbEntity
8
SK4
62
256
6
ByLayer
370
18
48
0.05
60
0
100
AcDbLine
10
78
20
0
30
0
11
-50
21
0
31
0
39
0
210
0
220
0
230
1
0
LINE
5
89
100
AcDbEntity
8
4
62
256
6
ByLayer
370
18
48
0.05
60
0
100
AcDbLine
10
73
20
0
30
0
11
0
21
0
31
0
39
0
210
0
220
0
230
1
0
LINE
5
8B
100
AcDbEntity
8
80
62
256
6
ByLayer
370
18
48
1
60
0
100
AcDbLine
10
0
20
0
30
0
11
-5
21
0
31
0
39
0
210
0
220
0
230
1
0
LINE
5
8C
100
AcDbEntity
8
SK1
62
256
6
ByLayer
370
18
48
1
60
0
100
AcDbLine
10
-45
20
3.339424
30
0
11
-45
21
-3.186716
31
0
39
0
210
0
220
0
230
1
0
LINE
5
8D
100
AcDbEntity
8
SK1
62
256
6
ByLayer
370
18
48
1
60
0
100
AcDbLine
10
0
20
-6
30
0
11
0
21
6
31
0
39
0
210
0
220
0
230
1
0
LINE
5
8E
100
AcDbEntity
8
SK1
62
256
6
ByLayer
370
18
48
1
60
0
100
AcDbLine
10
-43.556624
20
6
30
0
11
-43.556624
21
-6
31
0
39
0
210
0
220
0
230
1
0
LINE
5
8F
100
AcDbEntity
8
SK1
62
256
6
ByLayer
370
18
48
1
60
0
100
AcDbLine
10
-43.6
20
-5.924871
30
0
11
-43.6
21
-5.731095
31
0
39
0
210
0
220
0
230
1
0
LINE
5
90
100
AcDbEntity
8
SK1
62
256
6
ByLayer
370
13
48
1
60
0
100
AcDbLine
10
-43.7
20
-5.527187
30
0
11
-43.7
21
-5.680063
31
0
39
0
210
0
220
0
230
1
0
LINE
5
91
100
AcDbEntity
8
SK1
62
256
6
ByLayer
370
18
48
1
60
0
100
AcDbLine
10
-43.6
20
5.924871
30
0
11
-43.6
21
5.871586
31
0
39
0
210
0
220
0
230
1
0
LINE
5
92
100
AcDbEntity
8
SK1
62
256
6
ByLayer
370
18
48
1
60
0
100
AcDbLine
10
-45
20
-3.186678
30
0
11
-45
21
-3.339424
31
0
39
0
210
0
220
0
230
1
0
LINE
5
93
100
AcDbEntity
8
1
62
256
6
ByLayer
370
18
48
1
60
0
100
AcDbLine
10
72.909212
20
0.310871
30
0
11
72.708347
21
1.052434
31
0
39
0
210
0
220
0
230
1
0
LINE
5
94
100
AcDbEntity
8
1
62
256
6
ByLayer
370
18
48
1
60
0
100
AcDbLine
10
4
20
-4.702514
30
0
11
4
21
3.907678
31
0
39
0
210
0
220
0
230
1
0
LINE
5
95
100
AcDbEntity
8
1
62
256
6
ByLayer
370
18
48
1
60
0
100
AcDbLine
10
0.8
20
5.857867
30
0
11
0.8
21
-5.857867
31
0
39
0
210
0
220
0
230
1
0
LINE
5
96
100
AcDbEntity
8
1
62
256
6
ByLayer
370
18
48
1
60
0
100
AcDbLine
10
70.028593
20
-3.305708
30
0
11
72.894211
21
-0.112029
31
0
39
0
210
0
220
0
230
1
0
LINE
5
97
100
AcDbEntity
8
1
62
256
6
ByLayer
370
18
48
1
60
0
100
AcDbLine
10
72.909212
20
-0.310871
30
0
11
72.708347
21
-1.052434
31
0
39
0
210
0
220
0
230
1
0
LINE
5
98
100
AcDbEntity
8
1
62
256
6
ByLayer
370
18
48
1
60
0
100
AcDbLine
10
72.98757
20
0.055764
30
0
11
73
21
0
31
0
39
0
210
0
220
0
230
1
0
LINE
5
99
100
AcDbEntity
8
1
62
256
6
ByLayer
370
13
48
1
60
0
100
AcDbLine
10
71.411472
20
1.052434
30
0
11
72.909212
21
0.310871
31
0
39
0
210
0
220
0
230
1
0
LINE
5
9A
100
AcDbEntity
8
1
62
256
6
ByLayer
370
13
48
1
60
0
100
AcDbLine
10
72.708347
20
1.052434
30
0
11
71.411472
21
1.052434
31
0
39
0
210
0
220
0
230
1
0
LINE
5
9B
100
AcDbEntity
8
1
62
256
6
ByLayer
370
18
48
1
60
0
100
AcDbLine
10
73
20
0
30
0
11
70.947586
21
-5.638961
31
0
39
0
210
0
220
0
230
1
0
LINE
5
9C
100
AcDbEntity
8
1
62
256
6
ByLayer
370
18
48
1
60
0
100
AcDbLine
10
0
20
-6
30
0
11
0
21
6
31
0
39
0
210
0
220
0
230
1
0
LINE
5
9D
100
AcDbEntity
8
1
62
256
6
ByLayer
370
18
48
1
60
0
100
AcDbLine
10
73
20
0
30
0
11
72.98757
21
-0.055764
31
0
39
0
210
0
220
0
230
1
0
LINE
5
9E
100
AcDbEntity
8
1
62
256
6
ByLayer
370
13
48
1
60
0
100
AcDbLine
10
71.242013
20
0.70601
30
0
11
72.894211
21
-0.112029
31
0
39
0
210
0
220
0
230
1
0
MTEXT
5
E4
100
AcDbEntity
8
SK6
62
256
6
ByLayer
370
13
48
1
60
0
100
AcDbMText
10
16.129169
20
38.282694
30
0
210
0
220
0
230
1
1
\W0.7287;R840-1180-50-A1A1220
40
3.5
41
0
44
1.084337
50
0
71
8
72
5
7
iso_b_vert
0
DIMENSION
5
F1
100
AcDbEntity
8
SK2
62
256
6
ByLayer
370
13
48
1
60
0
100
AcDbDimension
2
DimnDraft3D1
10
70.98
20
-16.113398
30
0
11
33.730059
21
-16.113398
31
0
70
32
71
5
72
1
41
1
210
0
220
0
230
1
3
Standard
100
AcDbAlignedDimension
13
0
23
-1.5875
33
0
14
70.98
24
-7.4875
34
0
50
0
100
AcDbRotatedDimension
1001
ACAD
1000
DSTYLE
1002
{
1070
   279
1070
     0
1070
   172
1070
     1
1070
   173
1070
     1
1070
   340
1005
E5
1070
   271
1070
     2
1070
   272
1070
     2
1070
    77
1070
     1
1070
    73
1070
     0
1070
   171
1070
     3
1070
   274
1070
     4
1070
   177
1070
    35
1070
   176
1070
    35
1070
   178
1070
    35
1070
    48
1040
-0.005
1070
    41
1041
3.5
1070
   147
1041
1.75
1070
    42
1041
1.5875
1070
    44
1041
2.0
1070
   140
1041
3.5
1070
   343
1005
0
1070
   344
1005
0
1002
}
0
DIMENSION
5
FB
100
AcDbEntity
8
SK2
62
256
6
ByLayer
370
13
48
1
60
0
100
AcDbDimension
2
DimnDraft3D2
10
73
20
-34.692985
30
0
11
13.3213
21
-34.692985
31
0
70
32
71
5
72
1
41
1
210
0
220
0
230
1
3
Standard
100
AcDbAlignedDimension
13
-45
23
-7.5875
33
0
14
73
24
-1.5875
34
0
50
0
100
AcDbRotatedDimension
1001
ACAD
1000
DSTYLE
1002
{
1070
   279
1070
     0
1070
   172
1070
     1
1070
   173
1070
     1
1070
   340
1005
E5
1070
   271
1070
     2
1070
   272
1070
     2
1070
    77
1070
     1
1070
    73
1070
     0
1070
   171
1070
     3
1070
   274
1070
     4
1070
   177
1070
    35
1070
   176
1070
    35
1070
   178
1070
    35
1070
    48
1040
-0.005
1070
    41
1041
3.5
1070
   147
1041
1.75
1070
    42
1041
1.5875
1070
    44
1041
2.0
1070
   140
1041
3.5
1070
   343
1005
0
1070
   344
1005
0
1002
}
0
DIMENSION
5
105
100
AcDbEntity
8
SK2
62
256
6
ByLayer
370
13
48
1
60
0
100
AcDbDimension
2
DimnDraft3D3
10
73
20
17.509119
30
0
11
42.49
21
17.509119
31
0
70
32
71
5
72
1
41
1
210
0
220
0
230
1
3
Standard
100
AcDbAlignedDimension
13
11.98
23
7.4875
33
0
14
73
24
1.5875
34
0
50
0
100
AcDbRotatedDimension
1001
ACAD
1000
DSTYLE
1002
{
1070
   279
1070
     0
1070
   172
1070
     1
1070
   173
1070
     1
1070
   340
1005
E5
1070
   271
1070
     2
1070
   272
1070
     2
1070
    77
1070
     1
1070
    73
1070
     0
1070
   171
1070
     3
1070
   274
1070
     4
1070
   177
1070
    35
1070
   176
1070
    35
1070
   178
1070
    35
1070
    48
1040
-0.005
1070
    41
1041
3.5
1070
   147
1041
1.75
1070
    42
1041
1.5875
1070
    44
1041
2.0
1070
   140
1041
3.5
1070
   343
1005
0
1070
   344
1005
0
1002
}
0
DIMENSION
5
10F
100
AcDbEntity
8
SK2
62
256
6
ByLayer
370
13
48
1
60
0
100
AcDbDimension
2
DimnDraft3D4
10
70.98
20
-18.702503
30
0
11
82.981425
21
-18.702503
31
0
70
32
71
5
72
1
41
1
210
0
220
0
230
1
3
Standard
100
AcDbAlignedDimension
13
73
23
-1.5875
33
0
14
70.98
24
-7.4875
34
0
50
0
100
AcDbRotatedDimension
1001
ACAD
1000
DSTYLE
1002
{
1070
   279
1070
     0
1070
   172
1070
     1
1070
   173
1070
     1
1070
   340
1005
E5
1070
   271
1070
     2
1070
   272
1070
     2
1070
    77
1070
     1
1070
    73
1070
     0
1070
   171
1070
     3
1070
   274
1070
     4
1070
   177
1070
    35
1070
   176
1070
    35
1070
   178
1070
    35
1070
    48
1040
-0.005
1070
    41
1041
3.5
1070
   147
1041
1.75
1070
    42
1041
1.5875
1070
    44
1041
2.0
1070
   140
1041
3.5
1070
   343
1005
0
1070
   344
1005
0
1002
}
0
DIMENSION
5
119
100
AcDbEntity
8
SK2
62
256
6
ByLayer
370
13
48
1
60
0
100
AcDbDimension
2
DimnDraft3D5
10
70.98
20
-24.343428
30
0
11
10.240676
21
-24.343428
31
0
70
32
71
5
72
1
41
1
210
0
220
0
230
1
3
Standard
100
AcDbAlignedDimension
13
-45
23
-7.5875
33
0
14
70.98
24
-7.4875
34
0
50
0
100
AcDbRotatedDimension
1001
ACAD
1000
DSTYLE
1002
{
1070
   279
1070
     0
1070
   172
1070
     1
1070
   173
1070
     1
1070
   340
1005
E5
1070
   271
1070
     2
1070
   272
1070
     2
1070
    77
1070
     1
1070
    73
1070
     0
1070
   171
1070
     3
1070
   274
1070
     4
1070
   177
1070
    35
1070
   176
1070
    35
1070
   178
1070
    35
1070
    48
1040
-0.005
1070
    41
1041
3.5
1070
   147
1041
1.75
1070
    42
1041
1.5875
1070
    44
1041
2.0
1070
   140
1041
3.5
1070
   343
1005
0
1070
   344
1005
0
1002
}
0
DIMENSION
5
124
100
AcDbEntity
8
SK2
62
256
6
ByLayer
370
13
48
1
60
0
100
AcDbDimension
2
DimnDraft3D6
10
-55.625163
20
6
30
0
11
-56.250163
21
24.47418
31
0
70
33
71
5
72
1
41
1
210
0
220
0
230
1
3
Standard
100
AcDbAlignedDimension
13
-46.5875
23
-6
33
0
14
-46.5875
24
6
34
0
1001
ACAD
1000
DSTYLE
1002
{
1070
   279
1070
     0
1070
    74
1070
     0
1070
   173
1070
     1
1070
   340
1005
E5
1070
   271
1070
     3
1070
   272
1070
     2
1070
    77
1070
     1
1070
    73
1070
     0
1070
   171
1070
     3
1070
   274
1070
     4
1070
   177
1070
    35
1070
   176
1070
    35
1070
   178
1070
    35
1070
    48
1040
-0.005
1070
    41
1041
3.5
1070
   147
1041
1.75
1070
    42
1041
1.5875
1070
    44
1041
2.0
1070
   140
1041
3.5
1070
   343
1005
0
1070
   344
1005
0
1002
}
0
DIMENSION
5
12F
100
AcDbEntity
8
2
62
256
6
ByLayer
370
13
48
1
60
0
100
AcDbDimension
2
DimnDraft3D7
10
87.083343
20
5.9
30
0
11
82.458343
21
22.967266
31
0
70
33
71
5
72
1
41
1
210
0
220
0
230
1
3
Standard
100
AcDbAlignedDimension
13
72.5675
23
-5.9
33
0
14
72.5675
24
5.9
34
0
1001
ACAD
1000
DSTYLE
1002
{
1070
   279
1070
     0
1070
    74
1070
     0
1070
   173
1070
     1
1070
   340
1005
E5
1070
   271
1070
     3
1070
   272
1070
     2
1070
    77
1070
     1
1070
    73
1070
     0
1070
   171
1070
     3
1070
   274
1070
     4
1070
   177
1070
    35
1070
   176
1070
    35
1070
   178
1070
    35
1070
    48
1040
-0.005
1070
    41
1041
3.5
1070
   147
1041
1.75
1070
    42
1041
1.5875
1070
    44
1041
2.0
1070
   140
1041
3.5
1070
   343
1005
0
1070
   344
1005
0
1002
}
0
ENDSEC
0
SECTION
2
OBJECTS
0
DICTIONARY
5
19a
330
0
100
AcDbDictionary
280
0
281
1
3
ACAD_GROUP
350
19b
3
ACAD_MLINESTYLE
350
19c
0
DICTIONARY
5
19b
330
0
100
AcDbDictionary
280
0
281
1
0
DICTIONARY
5
19c
330
0
100
AcDbDictionary
280
0
281
1
3
Standard
350
18
0
MLINESTYLE
5
18
330
19c
100
AcDbMlineStyle
2
Standard
70
0
3

62
256
51
90
52
90
71
2
49
-0.5
62
256
6
ByLayer
49
0.5
62
256
6
ByLayer
0
RASTERVARIABLES
5
188
330

100
AcDbRasterVariables
90
0
70
1
71
1
72
1
0
ENDSEC
0
EOF
