0
SECTION
2
HEADER
9
$ACADVER
1
AC1015
9
$DWGCODEPAGE
3
ANSI_1252
9
$HANDSEED
5
1ab
9
$ANGBASE
50
0
9
$ANGDIR
70
0
9
$ATTMODE
70
1
9
$AUNITS
70
0
9
$AUPREC
70
0
9
$CECOLOR
62
256
9
$CELTSCALE
40
1
9
$CELTYPE
6
ByLayer
9
$CELWEIGHT
370
18
9
$CLAYER
8
0
9
$CMLJUST
70
0
9
$CMLSCALE
40
1
9
$CMLSTYLE
2
Standard
9
$DIMSTYLE
2
Standard
9
$TEXTSIZE
40
0.2
9
$TEXTSTYLE
7
Standard
9
$LUNITS
70
2
9
$LUPREC
70
4
9
$EXTNAMES
290
1
9
$INSUNITS
70
4
9
$LTSCALE
40
1
9
$LWDISPLAY
290
1
9
$PDMODE
70
0
9
$PDSIZE
40
0
9
$PLINEGEN
70
0
0
ENDSEC
0
SECTION
2
CLASSES
0
CLASS
1
RASTERVARIABLES
2
AcDbRasterVariables
3
ISM
90
0
280
0
281
0
0
ENDSEC
0
SECTION
2
TABLES
0
TABLE
2
VPORT
5
1a1
100
AcDbSymbolTable
0
VPORT
5
1
100
AcDbSymbolTableRecord
100
AcDbViewportTableRecord
2
*Active
70
0
10
0
20
0
11
1
21
1
12
-1
22
1
13
0
23
0
14
0.5
24
0.5
15
10
25
10
16
0
26
0
36
1
17
0
27
0
37
0
0
ENDTAB
0
TABLE
2
LTYPE
5
1a2
100
AcDbSymbolTable
0
LTYPE
5
14
100
AcDbSymbolTableRecord
100
AcDbLinetypeTableRecord
70
0
2
ByBlock
3

72
65
73
0
40
0
0
LTYPE
5
15
100
AcDbSymbolTableRecord
100
AcDbLinetypeTableRecord
70
0
2
ByLayer
3

72
65
73
0
40
0
0
LTYPE
5
16
100
AcDbSymbolTableRecord
100
AcDbLinetypeTableRecord
70
0
2
CONTINUOUS
3
Solid line
72
65
73
0
40
0
0
LTYPE
5
6A
100
AcDbSymbolTableRecord
100
AcDbLinetypeTableRecord
70
0
2
CENTER
3
____ _ ____ _ ____ _ ____
72
65
73
4
40
47.5
49
22
74
0
49
-8.5
74
0
49
8.5
74
0
49
-8.5
74
0
0
LTYPE
5
6B
100
AcDbSymbolTableRecord
100
AcDbLinetypeTableRecord
70
0
2
DASHED
3
__ __ __ __ __ __ __ __ __
72
65
73
2
40
25.72
49
12.86
74
0
49
-12.86
74
0
0
ENDTAB
0
TABLE
2
LAYER
5
1a3
100
AcDbSymbolTable
0
LAYER
5
10
100
AcDbSymbolTableRecord
100
AcDbLayerTableRecord
2
0
70
0
62
7
6
CONTINUOUS
290
1
370
-3
390
0
0
LAYER
5
6D
100
AcDbSymbolTableRecord
100
AcDbLayerTableRecord
2
81
70
0
62
-3
6
CONTINUOUS
290
1
370
-3
390
0
0
LAYER
5
6F
100
AcDbSymbolTableRecord
100
AcDbLayerTableRecord
2
80
70
0
62
-6
6
CONTINUOUS
290
1
370
-3
390
0
0
LAYER
5
74
100
AcDbSymbolTableRecord
100
AcDbLayerTableRecord
2
2
70
0
62
7
6
CONTINUOUS
290
1
370
-3
390
0
0
LAYER
5
78
100
AcDbSymbolTableRecord
100
AcDbLayerTableRecord
2
1
70
0
62
4
6
CONTINUOUS
290
1
370
-3
390
0
0
LAYER
5
88
100
AcDbSymbolTableRecord
100
AcDbLayerTableRecord
2
4
70
0
62
-2
6
CENTER
290
1
370
-3
390
0
0
LAYER
5
18d
100
AcDbSymbolTableRecord
100
AcDbLayerTableRecord
2
SK2
70
0
62
7
6
CONTINUOUS
290
1
370
-3
390
0
0
LAYER
5
18e
100
AcDbSymbolTableRecord
100
AcDbLayerTableRecord
2
SK1
70
0
62
4
6
CONTINUOUS
290
1
370
-3
390
0
0
LAYER
5
18f
100
AcDbSymbolTableRecord
100
AcDbLayerTableRecord
2
SK4
70
0
62
2
6
CENTER
290
1
370
-3
390
0
0
LAYER
5
190
100
AcDbSymbolTableRecord
100
AcDbLayerTableRecord
2
SK6
70
0
62
5
6
CONTINUOUS
290
1
370
-3
390
0
0
ENDTAB
0
TABLE
2
STYLE
5
1a4
100
AcDbSymbolTable
0
STYLE
5
11
100
AcDbSymbolTableRecord
100
AcDbTextStyleTableRecord
2
Standard
3
txt
70
0
71
0
40
0
41
1
42
0
50
0
0
STYLE
5
E9
100
AcDbSymbolTableRecord
100
AcDbTextStyleTableRecord
2
iso_b_vert
3
simplex.shx
70
0
71
0
40
0
41
1
42
0
50
0
0
STYLE
5
EA
100
AcDbSymbolTableRecord
100
AcDbTextStyleTableRecord
2
DWGDirectTextStyle
3
simplex
70
0
71
0
40
0
41
1
42
0
50
0
0
ENDTAB
0
TABLE
2
DIMSTYLE
5
1a5
100
AcDbSymbolTable
100
AcDbDimStyleTable
0
DIMSTYLE
105
27
100
AcDbSymbolTableRecord
100
AcDbDimStyleTableRecord
2
Standard
70
0
3
<>
41
0.18
42
0.0625
44
0.18
140
0.18
147
0.09
73
0
74
0
77
1
271
2
275
0
278
52
280
0
340
11
0
ENDTAB
0
TABLE
2
VIEW
5
1a6
100
AcDbSymbolTable
0
ENDTAB
0
TABLE
2
UCS
5
1a7
100
AcDbSymbolTable
0
ENDTAB
0
TABLE
2
APPID
5
1a8
100
AcDbSymbolTable
0
APPID
5
12
100
AcDbSymbolTableRecord
100
AcDbRegAppTableRecord
2
ACAD
70
0
0
ENDTAB
0
TABLE
2
BLOCK_RECORD
5
1a9
100
AcDbSymbolTable
0
BLOCK_RECORD
5
1F
100
AcDbSymbolTableRecord
100
AcDbBlockTableRecord
2
*Model_Space
340
0
70
0
0
BLOCK_RECORD
5
1B
100
AcDbSymbolTableRecord
100
AcDbBlockTableRecord
2
*Paper_Space
340
0
70
0
0
BLOCK_RECORD
5
23
100
AcDbSymbolTableRecord
100
AcDbBlockTableRecord
2
*Paper_Space0
340
0
70
0
0
BLOCK_RECORD
5
EC
100
AcDbSymbolTableRecord
100
AcDbBlockTableRecord
2
DimnDraft3D1
340
0
70
0
0
BLOCK_RECORD
5
F6
100
AcDbSymbolTableRecord
100
AcDbBlockTableRecord
2
DimnDraft3D2
340
0
70
0
0
BLOCK_RECORD
5
100
100
AcDbSymbolTableRecord
100
AcDbBlockTableRecord
2
DimnDraft3D3
340
0
70
0
0
BLOCK_RECORD
5
10A
100
AcDbSymbolTableRecord
100
AcDbBlockTableRecord
2
DimnDraft3D4
340
0
70
0
0
BLOCK_RECORD
5
114
100
AcDbSymbolTableRecord
100
AcDbBlockTableRecord
2
DimnDraft3D5
340
0
70
0
0
BLOCK_RECORD
5
11E
100
AcDbSymbolTableRecord
100
AcDbBlockTableRecord
2
DimnDraft3D6
340
0
70
0
0
BLOCK_RECORD
5
129
100
AcDbSymbolTableRecord
100
AcDbBlockTableRecord
2
DimnDraft3D7
340
0
70
0
0
ENDTAB
0
ENDSEC
0
SECTION
2
BLOCKS
0
BLOCK
5
20
100
AcDbEntity
8
0
100
AcDbBlockBegin
2
*Model_Space
70
0
10
0
20
0
30
0
3
*Model_Space
0
ENDBLK
5
21
100
AcDbEntity
8
0
100
AcDbBlockEnd
0
BLOCK
5
1C
100
AcDbEntity
8
0
100
AcDbBlockBegin
2
*Paper_Space
70
0
10
0
20
0
30
0
3
*Paper_Space
0
ENDBLK
5
1D
100
AcDbEntity
8
0
100
AcDbBlockEnd
0
BLOCK
5
24
100
AcDbEntity
8
0
100
AcDbBlockBegin
2
*Paper_Space0
70
0
10
0
20
0
30
0
3
*Paper_Space0
0
ENDBLK
5
25
100
AcDbEntity
8
0
100
AcDbBlockEnd
0
BLOCK
5
F3
100
AcDbEntity
8
0
100
AcDbBlockBegin
2
DimnDraft3D1
70
0
10
0
20
0
30
0
3
DimnDraft3D1
0
MTEXT
5
ED
100
AcDbEntity
8
SK2
62
256
6
ByLayer
370
13
48
1
60
0
100
AcDbMText
10
29.291375
20
-15.188398
30
0
210
0
220
0
230
1
1
\W0.7402;70,99
40
3.5
41
0
44
1.084337
50
0
71
7
72
5
7
iso_b_vert
0
LINE
5
EE
100
AcDbEntity
8
SK2
62
256
6
ByLayer
370
13
48
1
60
0
100
AcDbLine
10
0
20
-1.5875
30
0
11
0
21
-18.063398
31
0
39
0
210
0
220
0
230
1
0
LINE
5
EF
100
AcDbEntity
8
SK2
62
256
6
ByLayer
370
13
48
1
60
0
100
AcDbLine
10
70.99
20
-7.4375
30
0
11
70.99
21
-18.063398
31
0
39
0
210
0
220
0
230
1
0
LINE
5
F0
100
AcDbEntity
8
SK2
62
256
6
ByLayer
370
13
48
1
60
0
100
AcDbLine
10
0
20
-16.063398
30
0
11
70.99
21
-16.063398
31
0
39
0
210
0
220
0
230
1
0
SOLID
5
F1
100
AcDbEntity
8
SK2
62
256
6
ByLayer
370
13
48
1
60
0
100
AcDbTrace
10
0
20
-16.063398
30
0
11
3.499998
21
-15.602615
31
0
12
3.500002
22
-16.524182
32
0
13
0
23
-16.063398
33
0
39
0
210
0
220
0
230
1
0
SOLID
5
F2
100
AcDbEntity
8
SK2
62
256
6
ByLayer
370
13
48
1
60
0
100
AcDbTrace
10
70.99
20
-16.063398
30
0
11
67.490002
21
-16.524182
31
0
12
67.489998
22
-15.602615
32
0
13
70.99
23
-16.063398
33
0
39
0
210
0
220
0
230
1
0
ENDBLK
5
F4
100
AcDbEntity
8
0
100
AcDbBlockEnd
0
BLOCK
5
FD
100
AcDbEntity
8
0
100
AcDbBlockBegin
2
DimnDraft3D2
70
0
10
0
20
0
30
0
3
DimnDraft3D2
0
MTEXT
5
F7
100
AcDbEntity
8
SK2
62
256
6
ByLayer
370
13
48
1
60
0
100
AcDbMText
10
8.449721
20
-33.817985
30
0
210
0
220
0
230
1
1
\W0.6440;118,00
40
3.5
41
0
44
1.084337
50
0
71
7
72
5
7
iso_b_vert
0
LINE
5
F8
100
AcDbEntity
8
SK2
62
256
6
ByLayer
370
13
48
1
60
0
100
AcDbLine
10
-45
20
-7.5875
30
0
11
-45
21
-36.692985
31
0
39
0
210
0
220
0
230
1
0
LINE
5
F9
100
AcDbEntity
8
SK2
62
256
6
ByLayer
370
13
48
1
60
0
100
AcDbLine
10
73
20
-1.5875
30
0
11
73
21
-36.692985
31
0
39
0
210
0
220
0
230
1
0
LINE
5
FA
100
AcDbEntity
8
SK2
62
256
6
ByLayer
370
13
48
1
60
0
100
AcDbLine
10
-45
20
-34.692985
30
0
11
73
21
-34.692985
31
0
39
0
210
0
220
0
230
1
0
SOLID
5
FB
100
AcDbEntity
8
SK2
62
256
6
ByLayer
370
13
48
1
60
0
100
AcDbTrace
10
-45
20
-34.692985
30
0
11
-41.500002
21
-34.232202
31
0
12
-41.499998
22
-35.153769
32
0
13
-45
23
-34.692985
33
0
39
0
210
0
220
0
230
1
0
SOLID
5
FC
100
AcDbEntity
8
SK2
62
256
6
ByLayer
370
13
48
1
60
0
100
AcDbTrace
10
73
20
-34.692985
30
0
11
69.500002
21
-35.153769
31
0
12
69.499998
22
-34.232202
32
0
13
73
23
-34.692985
33
0
39
0
210
0
220
0
230
1
0
ENDBLK
5
FE
100
AcDbEntity
8
0
100
AcDbBlockEnd
0
BLOCK
5
107
100
AcDbEntity
8
0
100
AcDbBlockBegin
2
DimnDraft3D3
70
0
10
0
20
0
30
0
3
DimnDraft3D3
0
MTEXT
5
101
100
AcDbEntity
8
SK2
62
256
6
ByLayer
370
13
48
1
60
0
100
AcDbMText
10
38.733816
20
18.334119
30
0
210
0
220
0
230
1
1
\W0.7211;60,51
40
3.5
41
0
44
1.084337
50
0
71
7
72
5
7
iso_b_vert
0
LINE
5
102
100
AcDbEntity
8
SK2
62
256
6
ByLayer
370
13
48
1
60
0
100
AcDbLine
10
12.49
20
7.4375
30
0
11
12.49
21
19.459119
31
0
39
0
210
0
220
0
230
1
0
LINE
5
103
100
AcDbEntity
8
SK2
62
256
6
ByLayer
370
13
48
1
60
0
100
AcDbLine
10
73
20
1.5875
30
0
11
73
21
19.459119
31
0
39
0
210
0
220
0
230
1
0
LINE
5
104
100
AcDbEntity
8
SK2
62
256
6
ByLayer
370
13
48
1
60
0
100
AcDbLine
10
12.49
20
17.459119
30
0
11
73
21
17.459119
31
0
39
0
210
0
220
0
230
1
0
SOLID
5
105
100
AcDbEntity
8
SK2
62
256
6
ByLayer
370
13
48
1
60
0
100
AcDbTrace
10
12.49
20
17.459119
30
0
11
15.989998
21
17.919903
31
0
12
15.990002
22
16.998335
32
0
13
12.49
23
17.459119
33
0
39
0
210
0
220
0
230
1
0
SOLID
5
106
100
AcDbEntity
8
SK2
62
256
6
ByLayer
370
13
48
1
60
0
100
AcDbTrace
10
73
20
17.459119
30
0
11
69.500002
21
16.998335
31
0
12
69.499998
22
17.919903
32
0
13
73
23
17.459119
33
0
39
0
210
0
220
0
230
1
0
ENDBLK
5
108
100
AcDbEntity
8
0
100
AcDbBlockEnd
0
BLOCK
5
111
100
AcDbEntity
8
0
100
AcDbBlockBegin
2
DimnDraft3D4
70
0
10
0
20
0
30
0
3
DimnDraft3D4
0
MTEXT
5
10B
100
AcDbEntity
8
SK2
62
256
6
ByLayer
370
13
48
1
60
0
100
AcDbMText
10
80.278136
20
-17.777503
30
0
210
0
220
0
230
1
1
\W0.6993;2,01
40
3.5
41
0
44
1.084337
50
0
71
7
72
5
7
iso_b_vert
0
LINE
5
10C
100
AcDbEntity
8
SK2
62
256
6
ByLayer
370
13
48
1
60
0
100
AcDbLine
10
73
20
-1.5875
30
0
11
73
21
-20.652503
31
0
39
0
210
0
220
0
230
1
0
LINE
5
10D
100
AcDbEntity
8
SK2
62
256
6
ByLayer
370
13
48
1
60
0
100
AcDbLine
10
70.99
20
-7.4375
30
0
11
70.99
21
-20.652503
31
0
39
0
210
0
220
0
230
1
0
LINE
5
10E
100
AcDbEntity
8
SK2
62
256
6
ByLayer
370
13
48
1
60
0
100
AcDbLine
10
62.24
20
-18.652503
30
0
11
86.559715
21
-18.652503
31
0
39
0
210
0
220
0
230
1
0
SOLID
5
10F
100
AcDbEntity
8
SK2
62
256
6
ByLayer
370
13
48
1
60
0
100
AcDbTrace
10
73
20
-18.652503
30
0
11
76.499998
21
-18.191719
31
0
12
76.500002
22
-19.113287
32
0
13
73
23
-18.652503
33
0
39
0
210
0
220
0
230
1
0
SOLID
5
110
100
AcDbEntity
8
SK2
62
256
6
ByLayer
370
13
48
1
60
0
100
AcDbTrace
10
70.99
20
-18.652503
30
0
11
67.490002
21
-19.113287
31
0
12
67.489998
22
-18.191719
32
0
13
70.99
23
-18.652503
33
0
39
0
210
0
220
0
230
1
0
ENDBLK
5
112
100
AcDbEntity
8
0
100
AcDbBlockEnd
0
BLOCK
5
11B
100
AcDbEntity
8
0
100
AcDbBlockBegin
2
DimnDraft3D5
70
0
10
0
20
0
30
0
3
DimnDraft3D5
0
MTEXT
5
115
100
AcDbEntity
8
SK2
62
256
6
ByLayer
370
13
48
1
60
0
100
AcDbMText
10
5.369097
20
-23.468428
30
0
210
0
220
0
230
1
1
\W0.6501;115,99
40
3.5
41
0
44
1.084337
50
0
71
7
72
5
7
iso_b_vert
0
LINE
5
116
100
AcDbEntity
8
SK2
62
256
6
ByLayer
370
13
48
1
60
0
100
AcDbLine
10
-45
20
-7.5875
30
0
11
-45
21
-26.343428
31
0
39
0
210
0
220
0
230
1
0
LINE
5
117
100
AcDbEntity
8
SK2
62
256
6
ByLayer
370
13
48
1
60
0
100
AcDbLine
10
70.99
20
-7.4375
30
0
11
70.99
21
-26.343428
31
0
39
0
210
0
220
0
230
1
0
LINE
5
118
100
AcDbEntity
8
SK2
62
256
6
ByLayer
370
13
48
1
60
0
100
AcDbLine
10
-45
20
-24.343428
30
0
11
70.99
21
-24.343428
31
0
39
0
210
0
220
0
230
1
0
SOLID
5
119
100
AcDbEntity
8
SK2
62
256
6
ByLayer
370
13
48
1
60
0
100
AcDbTrace
10
-45
20
-24.343428
30
0
11
-41.500002
21
-23.882645
31
0
12
-41.499998
22
-24.804212
32
0
13
-45
23
-24.343428
33
0
39
0
210
0
220
0
230
1
0
SOLID
5
11A
100
AcDbEntity
8
SK2
62
256
6
ByLayer
370
13
48
1
60
0
100
AcDbTrace
10
70.99
20
-24.343428
30
0
11
67.490002
21
-24.804212
31
0
12
67.489998
22
-23.882645
32
0
13
70.99
23
-24.343428
33
0
39
0
210
0
220
0
230
1
0
ENDBLK
5
11C
100
AcDbEntity
8
0
100
AcDbBlockEnd
0
BLOCK
5
126
100
AcDbEntity
8
0
100
AcDbBlockBegin
2
DimnDraft3D6
70
0
10
0
20
0
30
0
3
DimnDraft3D6
0
MTEXT
5
11F
100
AcDbEntity
8
SK2
62
256
6
ByLayer
370
13
48
1
60
0
100
AcDbMText
10
-55.375163
20
25.34918
30
0
210
0
220
0
230
1
1
\W0.6930;12,000
40
3.5
41
0
44
1.084337
50
90
71
7
72
5
7
iso_b_vert
0
MTEXT
5
120
100
AcDbEntity
8
SK2
62
256
6
ByLayer
370
13
48
1
60
0
100
AcDbMText
10
-55.375163
20
20.126524
30
0
210
0
220
0
230
1
1
%%c
40
3.5
41
0
44
1.084337
50
90
71
7
72
5
7
iso_b_vert
0
LINE
5
121
100
AcDbEntity
8
SK2
62
256
6
ByLayer
370
13
48
1
60
0
100
AcDbLine
10
-46.5875
20
-6
30
0
11
-55.625163
21
-6
31
0
39
0
210
0
220
0
230
1
0
LINE
5
122
100
AcDbEntity
8
SK2
62
256
6
ByLayer
370
13
48
1
60
0
100
AcDbLine
10
-46.5875
20
6
30
0
11
-55.625163
21
6
31
0
39
0
210
0
220
0
230
1
0
LINE
5
123
100
AcDbEntity
8
SK2
62
256
6
ByLayer
370
13
48
1
60
0
100
AcDbLine
10
-53.625163
20
-6
30
0
11
-53.625163
21
36.862338
31
0
39
0
210
0
220
0
230
1
0
SOLID
5
124
100
AcDbEntity
8
SK2
62
256
6
ByLayer
370
13
48
1
60
0
100
AcDbTrace
10
-53.625163
20
-6
30
0
11
-54.085946
21
-2.500002
31
0
12
-53.164379
22
-2.499998
32
0
13
-53.625163
23
-6
33
0
39
0
210
0
220
0
230
1
0
SOLID
5
125
100
AcDbEntity
8
SK2
62
256
6
ByLayer
370
13
48
1
60
0
100
AcDbTrace
10
-53.625163
20
6
30
0
11
-53.164379
21
2.500002
31
0
12
-54.085946
22
2.499998
32
0
13
-53.625163
23
6
33
0
39
0
210
0
220
0
230
1
0
ENDBLK
5
127
100
AcDbEntity
8
0
100
AcDbBlockEnd
0
BLOCK
5
131
100
AcDbEntity
8
0
100
AcDbBlockBegin
2
DimnDraft3D7
70
0
10
0
20
0
30
0
3
DimnDraft3D7
0
MTEXT
5
12A
100
AcDbEntity
8
2
62
256
6
ByLayer
370
13
48
1
60
0
100
AcDbMText
10
83.333343
20
23.792266
30
0
210
0
220
0
230
1
1
\W0.6440;11,700
40
3.5
41
0
44
1.084337
50
90
71
7
72
5
7
iso_b_vert
0
MTEXT
5
12B
100
AcDbEntity
8
2
62
256
6
ByLayer
370
13
48
1
60
0
100
AcDbMText
10
83.333343
20
18.56961
30
0
210
0
220
0
230
1
1
%%c
40
3.5
41
0
44
1.084337
50
90
71
7
72
5
7
iso_b_vert
0
LINE
5
12C
100
AcDbEntity
8
2
62
256
6
ByLayer
370
13
48
1
60
0
100
AcDbLine
10
72.5775
20
-5.85
30
0
11
87.083343
21
-5.85
31
0
39
0
210
0
220
0
230
1
0
LINE
5
12D
100
AcDbEntity
8
2
62
256
6
ByLayer
370
13
48
1
60
0
100
AcDbLine
10
72.5775
20
5.85
30
0
11
87.083343
21
5.85
31
0
39
0
210
0
220
0
230
1
0
LINE
5
12E
100
AcDbEntity
8
2
62
256
6
ByLayer
370
13
48
1
60
0
100
AcDbLine
10
85.083343
20
-5.85
30
0
11
85.083343
21
34.430424
31
0
39
0
210
0
220
0
230
1
0
SOLID
5
12F
100
AcDbEntity
8
2
62
256
6
ByLayer
370
13
48
1
60
0
100
AcDbTrace
10
85.083343
20
-5.85
30
0
11
84.622559
21
-2.350002
31
0
12
85.544126
22
-2.349998
32
0
13
85.083343
23
-5.85
33
0
39
0
210
0
220
0
230
1
0
SOLID
5
130
100
AcDbEntity
8
2
62
256
6
ByLayer
370
13
48
1
60
0
100
AcDbTrace
10
85.083343
20
5.85
30
0
11
85.544126
21
2.350002
31
0
12
84.622559
22
2.349998
32
0
13
85.083343
23
5.85
33
0
39
0
210
0
220
0
230
1
0
ENDBLK
5
132
100
AcDbEntity
8
0
100
AcDbBlockEnd
0
ENDSEC
0
SECTION
2
ENTITIES
0
ARC
5
9E
100
AcDbEntity
8
1
62
256
6
ByLayer
370
18
48
1
60
0
100
AcDbCircle
39
0
10
0
20
5.8
30
0
40
0.200000000000003
210
0
220
0
230
1
100
AcDbArc
50
31.262235
51
90
0
ARC
5
9F
100
AcDbEntity
8
1
62
256
6
ByLayer
370
18
48
1
60
0
100
AcDbCircle
39
0
10
-0.34192
20
6.007582
30
0
40
0.199999999999997
210
0
220
0
230
-1
100
AcDbArc
50
269.965623
51
328.737765
0
ARC
5
A0
100
AcDbEntity
8
1
62
256
6
ByLayer
370
18
48
1
60
0
100
AcDbCircle
39
0
10
0
20
-5.8
30
0
40
0.200000000000003
210
0
220
0
230
1
100
AcDbArc
50
270
51
328.737765
0
ARC
5
A1
100
AcDbEntity
8
1
62
256
6
ByLayer
370
18
48
1
60
0
100
AcDbCircle
39
0
10
-0.34192
20
-6.007582
30
0
40
0.199999999999997
210
0
220
0
230
-1
100
AcDbArc
50
31.262235
51
90.034377
0
ELLIPSE
5
A2
100
AcDbEntity
8
1
62
256
6
ByLayer
370
13
48
1
60
0
100
AcDbEllipse
10
71.420045
20
0.835336
30
0
11
0.133113781883896
21
0.268850741253519
31
0
210
0
220
0
230
1
40
0.40558
41
0.884485917130896
42
2.28074931872641
0
ELLIPSE
5
A3
100
AcDbEntity
8
1
62
256
6
ByLayer
370
18
48
1
60
0
100
AcDbEllipse
10
71.91559
20
-2.784829
30
0
11
0.900757751748441
21
2.45588577754623
31
0
210
0
220
0
230
-1
40
0.082138
41
0.75528095034889
42
1.57449749852787
0
ELLIPSE
5
A4
100
AcDbEntity
8
1
62
256
6
ByLayer
370
13
48
1
60
0
100
AcDbEllipse
10
72.098135
20
2.650537
30
0
11
3.90895053236711
21
-2.00954973873253
31
0
210
0
220
0
230
-1
40
0.482873
41
1.53949524925304
42
1.84476534410453
0
ELLIPSE
5
A5
100
AcDbEntity
8
1
62
256
6
ByLayer
370
13
48
1
60
0
100
AcDbEllipse
10
72.267593
20
2.784829
30
0
11
3.95474810894007
21
-1.69953224978991
31
0
210
0
220
0
230
-1
40
0.448672
41
1.59233982909422
42
1.89569780112808
0
ELLIPSE
5
A6
100
AcDbEntity
8
1
62
256
6
ByLayer
370
18
48
1
60
0
100
AcDbEllipse
10
72.860202
20
0.122283
30
0
11
0.0868803724535712
21
0.290676908848513
31
0
210
0
220
0
230
-1
40
0.467765
41
1.66216997463076
42
2.36053717391662
0
ELLIPSE
5
A7
100
AcDbEntity
8
1
62
256
6
ByLayer
370
18
48
1
60
0
100
AcDbEllipse
10
71.91559
20
2.784829
30
0
11
0.900757751744739
21
-2.45588577753681
31
0
210
0
220
0
230
-1
40
0.082138
41
-1.5744974985286
42
-0.755280950345858
0
ELLIPSE
5
A8
100
AcDbEntity
8
1
62
256
6
ByLayer
370
18
48
1
60
0
100
AcDbEllipse
10
73.000495
20
-0.001278
30
0
11
2.14509291349309
21
-5.84852380676571
31
0
210
0
220
0
230
-1
40
0.082138
41
-2.98871936452235
42
-2.89462774849856
0
ELLIPSE
5
A9
100
AcDbEntity
8
1
62
256
6
ByLayer
370
13
48
1
60
0
100
AcDbEllipse
10
4.17328
20
-4.618615
30
0
11
-0.0142992730787667
21
0.0989723738697767
31
0
210
0
220
0
230
1
40
0.631489
41
0.698623854166941
42
1.99313385887371
0
ELLIPSE
5
AA
100
AcDbEntity
8
1
62
256
6
ByLayer
370
18
48
1
60
0
100
AcDbEllipse
10
73.000496
20
0.001278
30
0
11
2.14509300303032
21
5.84852406387376
31
0
210
0
220
0
230
-1
40
0.082138
41
2.89462775394707
42
2.98871936787341
0
ELLIPSE
5
AB
100
AcDbEntity
8
1
62
256
6
ByLayer
370
18
48
1
60
0
100
AcDbEllipse
10
73.021415
20
-0.042463
30
0
11
0.135658546034746
21
0.401200806233784
31
0
210
0
220
0
230
-1
40
0.065863
41
-2.32292776270867
42
-1.62503156037715
0
ELLIPSE
5
AC
100
AcDbEntity
8
1
62
256
6
ByLayer
370
13
48
1
60
0
100
AcDbEllipse
10
4.250194
20
-4.627564
30
0
11
0.0323008320611547
21
0.0946396124683374
31
0
210
0
220
0
230
1
40
0.417079
41
0.683283332062916
42
2.24155558317227
0
ELLIPSE
5
AD
100
AcDbEntity
8
1
62
256
6
ByLayer
370
18
48
1
60
0
100
AcDbEllipse
10
73.021415
20
0.042463
30
0
11
0.135658545979466
21
-0.401200806091544
31
0
210
0
220
0
230
-1
40
0.065863
41
1.62503156014291
42
2.32292776269821
0
POINT
5
6C
100
AcDbEntity
8
81
62
256
6
ByLayer
370
18
48
1
60
0
100
AcDbPoint
10
73
20
0
30
0
39
0
210
0
220
0
230
1
50
360
0
POINT
5
6E
100
AcDbEntity
8
80
62
256
6
ByLayer
370
18
48
1
60
0
100
AcDbPoint
10
0
20
0
30
0
39
0
210
0
220
0
230
1
50
360
0
POINT
5
70
100
AcDbEntity
8
SK2
62
256
6
ByLayer
370
18
48
1
60
1
100
AcDbPoint
10
-45
20
-6
30
0
39
0
210
0
220
0
230
1
50
360
0
POINT
5
72
100
AcDbEntity
8
SK2
62
256
6
ByLayer
370
18
48
1
60
1
100
AcDbPoint
10
-45
20
6
30
0
39
0
210
0
220
0
230
1
50
360
0
POINT
5
73
100
AcDbEntity
8
2
62
256
6
ByLayer
370
18
48
1
60
1
100
AcDbPoint
10
70.99
20
-5.85
30
0
39
0
210
0
220
0
230
1
50
360
0
POINT
5
75
100
AcDbEntity
8
2
62
256
6
ByLayer
370
18
48
1
60
1
100
AcDbPoint
10
70.99
20
5.85
30
0
39
0
210
0
220
0
230
1
50
360
0
SPLINE
5
AE
100
AcDbEntity
8
1
62
256
6
ByLayer
370
18
48
1
60
0
100
AcDbSpline
70
4
71
3
72
22
73
18
40
0
40
0
40
0
40
0
40
0.0340241725542813
40
0.0849530288582896
40
0.140389637275117
40
0.195932563837754
40
0.254303428965495
40
0.314054218913258
40
0.39630858612078
40
0.465088687334093
40
0.542263610868984
40
0.645450490928571
40
0.743377416264217
40
0.839550236094796
40
0.914522794394887
40
0.985021151919468
40
1
40
1
40
1
40
1
41
1
10
25.583857586631
20
5.56111945066644
30
0
41
1
10
25.4358904254768
20
5.56024448598131
30
0
41
1
10
25.0685883345167
20
5.5588120789194
30
0
41
1
10
24.4892596644245
20
5.56698098057808
30
0
41
1
10
23.7886699870071
20
5.56298255549885
30
0
41
1
10
23.058673203232
20
5.56451633529673
30
0
41
1
10
22.3089559503
20
5.56407195830428
30
0
41
1
10
21.4447062869145
20
5.56145719619306
30
0
41
1
10
20.5351858501779
20
5.56407578735465
30
0
41
1
10
19.5503372978715
20
5.56031395793065
30
0
41
1
10
18.4751860503701
20
5.56228904269895
30
0
41
1
10
17.2742475176469
20
5.55919195208659
30
0
41
1
10
15.9913198344415
20
5.55931740207726
30
0
41
1
10
14.8301619971577
20
5.55863588956652
30
0
41
1
10
13.7873730801646
20
5.55737396402517
30
0
41
1
10
13.0949429686037
20
5.55694441179446
30
0
41
1
10
12.7261101567474
20
5.55665944942805
30
0
41
1
10
12.6614878659386
20
5.55660283535096
30
0
0
SPLINE
5
AF
100
AcDbEntity
8
1
62
256
6
ByLayer
370
18
48
1
60
0
100
AcDbSpline
70
4
71
3
72
38
73
34
40
0
40
0
40
0
40
0
40
0.0547127854795598
40
0.102504444193214
40
0.139442514419262
40
0.165845295473994
40
0.184281885050171
40
0.209736117016214
40
0.244687772210209
40
0.277349091229883
40
0.303216509884697
40
0.333778311301987
40
0.373234058449404
40
0.412051278907294
40
0.441897068691767
40
0.472826647475533
40
0.512383599328805
40
0.545475039245682
40
0.572713994703418
40
0.598423855005893
40
0.630727052922158
40
0.66448760446878
40
0.687945321156594
40
0.710785586649169
40
0.738418235848395
40
0.77480515605313
40
0.819361981285853
40
0.854108766921723
40
0.881521550348432
40
0.912919361879955
40
0.949932678466841
40
0.998383321234253
40
1
40
1
40
1
40
1
41
1
10
10.0651337286615
20
-5.55450244831141
30
0
41
1
10
10.3432599407072
20
-5.55464261507723
30
0
41
1
10
10.8641387131068
20
-5.55499382536559
30
0
41
1
10
11.5781020233376
20
-5.55525573147432
30
0
41
1
10
12.1385008481474
20
-5.55623732947674
30
0
41
1
10
12.5555671164867
20
-5.55634595128404
30
0
41
1
10
12.9133351170932
20
-5.55681894446298
30
0
41
1
10
13.3154285393181
20
-5.55700978677839
30
0
41
1
10
13.7900470034933
20
-5.55738093339463
30
0
41
1
10
14.2667752298919
20
-5.55826400928777
30
0
41
1
10
14.7211194501326
20
-5.55848162072019
30
0
41
1
10
15.2101178235219
20
-5.55842805282009
30
0
41
1
10
15.7651599905105
20
-5.55850333380172
30
0
41
1
10
16.3165425632087
20
-5.56008645550088
30
0
41
1
10
16.8244501978485
20
-5.55997460373848
30
0
41
1
10
17.3361291361272
20
-5.55963305729153
30
0
41
1
10
17.8643609593021
20
-5.55983452389887
30
0
41
1
10
18.3737649903344
20
-5.56160408998514
30
0
41
1
10
18.8125584137232
20
-5.56138206938309
30
0
41
1
10
19.2473295572135
20
-5.56111216317876
30
0
41
1
10
19.7153614150149
20
-5.56113987576191
30
0
41
1
10
20.1719048517536
20
-5.56239834814943
30
0
41
1
10
20.5801911524322
20
-5.5631887880653
30
0
41
1
10
20.9572237890771
20
-5.56283596200106
30
0
41
1
10
21.4002031926599
20
-5.56240063272028
30
0
41
1
10
21.953875114578
20
-5.56235301170099
30
0
41
1
10
22.5440765530711
20
-5.56481390914038
30
0
41
1
10
23.0877085921059
20
-5.56410521391092
30
0
41
1
10
23.5647154127613
20
-5.56352271141341
30
0
41
1
10
24.0524054941615
20
-5.56420847909862
30
0
41
1
10
24.6389001463697
20
-5.56554536512846
30
0
41
1
10
25.0868096175104
20
-5.56439745621651
30
0
41
1
10
25.3412063563785
20
-5.56478249005681
30
0
41
1
10
25.3494210722051
20
-5.56479510626136
30
0
0
SPLINE
5
B0
100
AcDbEntity
8
1
62
256
6
ByLayer
370
18
48
1
60
0
100
AcDbSpline
70
4
71
3
72
30
73
26
40
0
40
0
40
0
40
0
40
0.0400632368332558
40
0.0731336691217503
40
0.103758778874306
40
0.133506490586773
40
0.163193249437907
40
0.206008397601637
40
0.249496481192994
40
0.289031387220999
40
0.344064753217111
40
0.395229855667628
40
0.441688209626261
40
0.487289009354878
40
0.524574259642944
40
0.587852593769809
40
0.658073779216906
40
0.725529191152924
40
0.792503191343178
40
0.839120072867814
40
0.880029715476184
40
0.920345931141382
40
0.956307105737294
40
0.994086149681041
40
1
40
1
40
1
40
1
41
1
10
39.947554045296
20
-5.57250362860273
30
0
41
1
10
40.1417244974258
20
-5.57117370925303
30
0
41
1
10
40.5013422895794
20
-5.56984812561527
30
0
41
1
10
41.0476008578432
20
-5.57051066079396
30
0
41
1
10
41.5107377799567
20
-5.57388589319797
30
0
41
1
10
41.9750497493426
20
-5.57371442739233
30
0
41
1
10
42.5025193048277
20
-5.57414220871732
30
0
41
1
10
43.1011389306115
20
-5.5747468466603
30
0
41
1
10
43.7504703150906
20
-5.57482540268768
30
0
41
1
10
44.462884523586
20
-5.57525688579841
30
0
41
1
10
45.2149309466074
20
-5.57610081577064
30
0
41
1
10
46.0026596658207
20
-5.57574318899606
30
0
41
1
10
46.7417554573218
20
-5.57687930144567
30
0
41
1
10
47.4092163398297
20
-5.57708622808354
30
0
41
1
10
48.1634776269784
20
-5.57673545654637
30
0
41
1
10
49.0447887325104
20
-5.57913787062574
30
0
41
1
10
50.0817790474256
20
-5.57716541727467
30
0
41
1
10
51.1378685607041
20
-5.58034019977995
30
0
41
1
10
52.0720630777446
20
-5.57838644336709
30
0
41
1
10
52.8695208434498
20
-5.58166586477287
30
0
41
1
10
53.5286423999049
20
-5.58169786629801
30
0
41
1
10
54.1352918518275
20
-5.58085595424683
30
0
41
1
10
54.7086691454205
20
-5.58043712410085
30
0
41
1
10
55.1104988072888
20
-5.57593626692778
30
0
41
1
10
55.3341357206168
20
-5.5761006149707
30
0
41
1
10
55.3644576520286
20
-5.57616183733913
30
0
0
SPLINE
5
B1
100
AcDbEntity
8
1
62
256
6
ByLayer
370
18
48
1
60
0
100
AcDbSpline
70
4
71
3
72
8
73
4
40
0
40
0
40
0
40
0
40
1
40
1
40
1
40
1
41
1
10
55.4979292902223
20
-5.57665218282716
30
0
41
1
10
55.5194497971827
20
-5.57676202906276
30
0
41
1
10
55.5409918730367
20
-5.57688456242278
30
0
41
1
10
55.5625532603136
20
-5.57701651717028
30
0
0
SPLINE
5
B2
100
AcDbEntity
8
1
62
256
6
ByLayer
370
18
48
1
60
0
100
AcDbSpline
70
4
71
3
72
10
73
6
40
0
40
0
40
0
40
0
40
0.0786106542607006
40
0.358491059192026
40
1
40
1
40
1
40
1
41
1
10
26.2072074791688
20
-1.31830868846893
30
0
41
1
10
26.2069252577873
20
-1.31816344262103
30
0
41
1
10
26.2072796660872
20
-1.31842489230479
30
0
41
1
10
26.2332839620053
20
-1.33336236746189
30
0
41
1
10
26.2749190741885
20
-1.35804729132073
30
0
41
1
10
26.3171696029895
20
-1.38309486425962
30
0
0
SPLINE
5
B3
100
AcDbEntity
8
1
62
256
6
ByLayer
370
18
48
1
60
0
100
AcDbSpline
70
4
71
2
72
6
73
3
40
0
40
0
40
0
40
1
40
1
40
1
41
1
10
69.9795392247962
20
-5.59052526499678
30
0
41
1
10
70.4716348604647
20
-5.58800657410777
30
0
41
1
10
70.9633033165951
20
-5.59304087940006
30
0
0
SPLINE
5
B4
100
AcDbEntity
8
1
62
256
6
ByLayer
370
18
48
1
60
0
100
AcDbSpline
70
4
71
3
72
24
73
20
40
0
40
0
40
0
40
0
40
0.0223233239460795
40
0.0717283052027698
40
0.117721248384763
40
0.156726515561037
40
0.195966695975934
40
0.266983404517037
40
0.335631352123526
40
0.417840774887737
40
0.503610008607065
40
0.581088825629387
40
0.637766533223245
40
0.713237905720097
40
0.782169583188587
40
0.866323324161227
40
0.931516622988469
40
0.972253010682426
40
1
40
1
40
1
40
1
41
1
10
55.5627021596076
20
5.57701698727521
30
0
41
1
10
55.4658980974611
20
5.57644765646273
30
0
41
1
10
55.1559894961725
20
5.57516521742636
30
0
41
1
10
54.658510107559
20
5.58076937990833
30
0
41
1
10
54.088302766317
20
5.58091048530625
30
0
41
1
10
53.548380193182
20
5.58159364322233
30
0
41
1
10
52.9015538705645
20
5.58192450558761
30
0
41
1
10
52.1256295725261
20
5.57841181095918
30
0
41
1
10
51.1635927862693
20
5.58027944282219
30
0
41
1
10
50.1375211588021
20
5.57714646662862
30
0
41
1
10
49.0731808812147
20
5.57917697521896
30
0
41
1
10
48.1195410509591
20
5.57658429202982
30
0
41
1
10
47.2105563857364
20
5.57732869532072
30
0
41
1
10
46.3386302900439
20
5.57595329102341
30
0
41
1
10
45.3475767077357
20
5.57607304771491
30
0
41
1
10
44.4010860338143
20
5.57514660719815
30
0
41
1
10
43.5768317563729
20
5.57483130727454
30
0
41
1
10
42.9972251242089
20
5.57463435613136
30
0
41
1
10
42.700245582867
20
5.57435173844337
30
0
41
1
10
42.5799328994085
20
5.57423682652009
30
0
0
SPLINE
5
B5
100
AcDbEntity
8
1
62
256
6
ByLayer
370
18
48
1
60
0
100
AcDbSpline
70
4
71
3
72
10
73
6
40
0
40
0
40
0
40
0
40
0.24364763169405
40
0.550652295080944
40
1
40
1
40
1
40
1
41
1
10
56.1210158714399
20
-1.29951141827468
30
0
41
1
10
56.1211627559057
20
-1.29966217972085
30
0
41
1
10
56.1341623820525
20
-1.30688209253773
30
0
41
1
10
56.2409177275354
20
-1.36756140343121
30
0
41
1
10
56.3296610171916
20
-1.42003674313042
30
0
41
1
10
56.393193772608
20
-1.45790004361334
30
0
0
SPLINE
5
B6
100
AcDbEntity
8
1
62
256
6
ByLayer
370
18
48
1
60
0
100
AcDbSpline
70
4
71
3
72
83
73
79
40
0
40
0
40
0
40
0
40
0.0380734383929285
40
0.0380734383929285
40
0.0729127305121761
40
0.0729127305121761
40
0.107752022631424
40
0.107752022631424
40
0.177430606869919
40
0.177430606869919
40
0.212269898989166
40
0.212269898989166
40
0.247109191108414
40
0.247109191108414
40
0.316787775346909
40
0.316787775346909
40
0.351627067466157
40
0.351627067466157
40
0.386466359585404
40
0.386466359585404
40
0.456144943823899
40
0.456144943823899
40
0.460499855338806
40
0.460499855338806
40
0.460772037308487
40
0.460772037308487
40
0.461044219278169
40
0.461044219278169
40
0.461588583217532
40
0.461588583217532
40
0.462677311096258
40
0.462677311096258
40
0.464854766853711
40
0.464854766853711
40
0.473564589883522
40
0.473564589883522
40
0.490984235943145
40
0.490984235943145
40
0.525823528062389
40
0.525823528062389
40
0.595502112300879
40
0.595502112300879
40
0.665180696539368
40
0.665180696539368
40
0.700019988658612
40
0.700019988658612
40
0.717439634718235
40
0.717439634718235
40
0.72179454623314
40
0.72179454623314
40
0.723972001990593
40
0.723972001990593
40
0.724516365929957
40
0.724516365929957
40
0.724788547899638
40
0.724788547899638
40
0.72506072986932
40
0.72506072986932
40
0.726149457748046
40
0.734859280777858
40
0.734859280777858
40
0.769698572897105
40
0.769698572897105
40
0.804537865016351
40
0.804537865016351
40
0.839377157135598
40
0.839377157135598
40
0.856796803195221
40
0.856796803195221
40
0.874216449254845
40
0.874216449254845
40
0.943895033493339
40
0.943895033493339
40
0.961314679552962
40
0.961314679552962
40
0.978734325612585
40
0.978734325612585
40
1
40
1
40
1
40
1
41
1
10
16.6976678685007
20
4.04602421411053
30
0
41
1
10
16.5199883045265
20
4.0714538986104
30
0
41
1
10
16.3423582706153
20
4.08997603799693
30
0
41
1
10
16.0018253155813
20
4.10991069303466
30
0
41
1
10
15.838930397555
20
4.11262803084909
30
0
41
1
10
15.5120720848904
20
4.1025740141784
30
0
41
1
10
15.3473827088951
20
4.08965376025617
30
0
41
1
10
14.8589866607988
20
4.02649923300305
30
0
41
1
10
14.5392658454189
20
3.95188594166501
30
0
41
1
10
14.061836440026
20
3.79389198290249
30
0
41
1
10
13.9030277419145
20
3.73360498066538
30
0
41
1
10
13.5847727398515
20
3.59875687491305
30
0
41
1
10
13.4246221326802
20
3.52382224683751
30
0
41
1
10
12.9480193084089
20
3.28296165551853
30
0
41
1
10
12.6346652178631
20
3.10112246561914
30
0
41
1
10
12.1632482703021
20
2.8074122055815
30
0
41
1
10
12.0059001568185
20
2.70598743287019
30
0
41
1
10
11.6896638134627
20
2.49760763636783
30
0
41
1
10
11.5303125165706
20
2.39033230697459
30
0
41
1
10
11.0523825686219
20
2.06498213407423
30
0
41
1
10
10.7338455452207
20
1.84347379279674
30
0
41
1
10
10.3927919529431
20
1.60931486482133
30
0
41
1
10
10.3727262341507
20
1.59554877649103
30
0
41
1
10
10.3514024423105
20
1.5809325352763
30
0
41
1
10
10.3519943172497
20
1.57911289661459
30
0
41
1
10
10.3534565625563
20
1.57660508487535
30
0
41
1
10
10.3543629694646
20
1.57547230515263
30
0
41
1
10
10.3571738623742
20
1.57218891375845
30
0
41
1
10
10.3592348214198
20
1.57015214770735
30
0
41
1
10
10.3655406449983
20
1.56419313790474
30
0
41
1
10
10.369943151047
20
1.56044693617079
30
0
41
1
10
10.3833221955938
20
1.54940446547994
30
0
41
1
10
10.3925067929132
20
1.54233985354793
30
0
41
1
10
10.4387726729012
20
1.50752085452291
30
0
41
1
10
10.4769031953593
20
1.48116369328818
30
0
41
1
10
10.5916438675181
20
1.40260821049645
30
0
41
1
10
10.6690389305662
20
1.35158763706627
30
0
41
1
10
10.9018462656367
20
1.19967459773008
30
0
41
1
10
11.0581200097477
20
1.10021457712657
30
0
41
1
10
11.5278195782404
20
0.80419028614898
30
0
41
1
10
11.8421737423711
20
0.610053247506812
30
0
41
1
10
12.47042133876
20
0.22484439691334
30
0
41
1
10
12.7850640110419
20
0.0345717475491938
30
0
41
1
10
13.2546620284515
20
-0.250981957524431
30
0
41
1
10
13.4109551709443
20
-0.346047163789393
30
0
41
1
10
13.6435364312511
20
-0.489433715434331
30
0
41
1
10
13.720957849164
20
-0.537214847599273
30
0
41
1
10
13.815728094382
20
-0.598307769823037
30
0
41
1
10
13.8346108007514
20
-0.610596240332455
30
0
41
1
10
13.8621952802698
20
-0.62947331717038
30
0
41
1
10
13.8714106831286
20
-0.635789408625897
30
0
41
1
10
13.881836721169
20
-0.644192004538809
30
0
41
1
10
13.883923259933
20
-0.645905724758023
30
0
41
1
10
13.8864022425165
20
-0.648632915781462
30
0
41
1
10
13.8875870555613
20
-0.649931684263692
30
0
41
1
10
13.88562016106
20
-0.650882341589949
30
0
41
1
10
13.884428637689
20
-0.651196248525366
30
0
41
1
10
13.8789808057835
20
-0.653156710264142
30
0
41
1
10
13.83976182945
20
-0.66720209437463
30
0
41
1
10
13.8005869311079
20
-0.680617997509046
30
0
41
1
10
13.6266808411854
20
-0.737699723399828
30
0
41
1
10
13.4879523394708
20
-0.775277646249236
30
0
41
1
10
13.2125261736677
20
-0.832860854463689
30
0
41
1
10
13.0758652763653
20
-0.852913663863546
30
0
41
1
10
12.8027919308497
20
-0.874976027705173
30
0
41
1
10
12.6663881302356
20
-0.87698622279288
30
0
41
1
10
12.4602171291997
20
-0.865707271682282
30
0
41
1
10
12.391227908401
20
-0.85956164759051
30
0
41
1
10
12.2523549060503
20
-0.842327506953865
30
0
41
1
10
12.1824853812763
20
-0.83122330754324
30
0
41
1
10
11.8337002291482
20
-0.763773902387044
30
0
41
1
10
11.5536997791658
20
-0.671246425073036
30
0
41
1
10
11.1868334176699
20
-0.509627842173217
30
0
41
1
10
11.1126081569508
20
-0.475014705498523
30
0
41
1
10
10.9620484501633
20
-0.401316604022611
30
0
41
1
10
10.8857373219849
20
-0.362227317558904
30
0
41
1
10
10.7163107509409
20
-0.272180672171146
30
0
41
1
10
10.622742471359
20
-0.22029839945111
30
0
41
1
10
10.5285716095681
20
-0.166396274060276
30
0
0
SPLINE
5
B7
100
AcDbEntity
8
1
62
256
6
ByLayer
370
13
48
1
60
0
100
AcDbSpline
70
4
71
3
72
8
73
4
40
0
40
0
40
0
40
0
40
1
40
1
40
1
40
1
41
1
10
4.12213255417134
20
-4.66741939652204
30
0
41
1
10
4.14610606627861
20
-4.66382265946811
30
0
41
1
10
4.1722834848986
20
-4.66685522691435
30
0
41
1
10
4.19919562222469
20
-4.6758366979949
30
0
0
SPLINE
5
B8
100
AcDbEntity
8
1
62
256
6
ByLayer
370
18
48
1
60
0
100
AcDbSpline
70
4
71
3
72
14
73
10
40
0
40
0
40
0
40
0
40
0.25
40
0.25
40
0.5
40
0.5
40
0.75
40
0.75
40
1
40
1
40
1
40
1
41
1
10
4.11982020645098
20
-4.780450273252
30
0
41
1
10
4.10144120756831
20
-4.77407047883165
30
0
41
1
10
4.08488412810979
20
-4.76647645850875
30
0
41
1
10
4.05530084526168
20
-4.74886452500334
30
0
41
1
10
4.04236790265361
20
-4.73881536367728
30
0
41
1
10
4.02159797369131
20
-4.7172936532414
30
0
41
1
10
4.01347023346659
20
-4.70550847214739
30
0
41
1
10
4.00273181027797
20
-4.68124070331294
30
0
41
1
10
4.0000003327682
20
-4.66874642499241
30
0
41
1
10
4.0000003327682
20
-4.65586957940567
30
0
0
SPLINE
5
B9
100
AcDbEntity
8
1
62
256
6
ByLayer
370
18
48
1
60
0
100
AcDbSpline
70
4
71
3
72
32
73
28
40
0
40
0
40
0
40
0
40
0.125
40
0.125
40
0.1875
40
0.1875
40
0.25
40
0.25
40
0.374999999999999
40
0.374999999999999
40
0.437499999999999
40
0.437499999999999
40
0.499999999999999
40
0.499999999999999
40
0.624999999999999
40
0.624999999999999
40
0.656249999999999
40
0.656249999999999
40
0.687499999999999
40
0.687499999999999
40
0.749999999999999
40
0.749999999999999
40
0.874999999999999
40
0.874999999999999
40
0.9375
40
0.9375
40
1
40
1
40
1
40
1
41
1
10
4.0000003327682
20
3.86650856501657
30
0
41
1
10
4.0000003327682
20
3.56640848071373
30
0
41
1
10
4.0000003327682
20
3.24307906018146
30
0
41
1
10
4.0000003327682
20
2.7240502685697
30
0
41
1
10
4.00000033276822
20
2.54527432351949
30
0
41
1
10
4.00000033276822
20
2.1760566009996
30
0
41
1
10
4.00000033276825
20
1.98867345686457
30
0
41
1
10
4.00000033276825
20
1.41846704674228
30
0
41
1
10
4.00000033276822
20
1.02767290631894
30
0
41
1
10
4.0000003327682
20
0.424971863817319
30
0
41
1
10
4.00000033276822
20
0.223722158914029
30
0
41
1
10
4.00000033276822
20
-0.17917942438541
30
0
41
1
10
4.00000033276822
20
-0.381729543160588
30
0
41
1
10
4.0000003327682
20
-0.981299675157686
30
0
41
1
10
4.00000033276817
20
-1.37160649917689
30
0
41
1
10
4.0000003327682
20
-1.84790687459937
30
0
41
1
10
4.00000033276825
20
-1.94258196945103
30
0
41
1
10
4.00000033276825
20
-2.13074286448526
30
0
41
1
10
4.00000033276814
20
-2.22449326904072
30
0
41
1
10
4.00000033276814
20
-2.50177519664572
30
0
41
1
10
4.0000003327682
20
-2.6809458573897
30
0
41
1
10
4.00000033276822
20
-3.20194303331957
30
0
41
1
10
4.00000033276822
20
-3.52743077645908
30
0
41
1
10
4.00000033276822
20
-3.98180266273971
30
0
41
1
10
4.0000003327682
20
-4.12635669600004
30
0
41
1
10
4.0000003327682
20
-4.39917974222868
30
0
41
1
10
4.0000003327682
20
-4.5278771418574
30
0
41
1
10
4.0000003327682
20
-4.64874878583561
30
0
0
SPLINE
5
BA
100
AcDbEntity
8
1
62
256
6
ByLayer
370
18
48
1
60
0
100
AcDbSpline
70
4
71
3
72
18
73
14
40
0
40
0
40
0
40
0
40
0.747822873267692
40
0.747822873267692
40
0.822965172757707
40
0.822965172757707
40
0.898107472247722
40
0.898107472247722
40
0.935678621992721
40
0.935678621992721
40
0.97324977173772
40
0.97324977173772
40
1
40
1
40
1
40
1
41
1
10
4.42158843698141
20
-5.81001152660065
30
0
41
1
10
4.15612720250806
20
-5.80978632124638
30
0
41
1
10
3.89015073810148
20
-5.80943631247723
30
0
41
1
10
3.59688624143604
20
-5.80911512615441
30
0
41
1
10
3.57011590588826
20
-5.80907998520675
30
0
41
1
10
3.51654023183948
20
-5.80903769083955
30
0
41
1
10
3.48942250509225
20
-5.80905563263721
30
0
41
1
10
3.45065951255373
20
-5.80913941363727
30
0
41
1
10
3.43800457914801
20
-5.80917652956325
30
0
41
1
10
3.41351763378356
20
-5.80926219835874
30
0
41
1
10
3.40230632074935
20
-5.80930849024685
30
0
41
1
10
3.38265423049901
20
-5.80935777186397
30
0
41
1
10
3.37449522370153
20
-5.80937188133163
30
0
41
1
10
3.36635039945162
20
-5.80937943135061
30
0
0
SPLINE
5
BB
100
AcDbEntity
8
1
62
256
6
ByLayer
370
18
48
1
60
0
100
AcDbSpline
70
4
71
3
72
56
73
52
40
0
40
0
40
0
40
0
40
0.076135401775888
40
0.076135401775888
40
0.114203102663831
40
0.114203102663831
40
0.152270803551775
40
0.152270803551775
40
0.190338504439718
40
0.190338504439718
40
0.228406205327661
40
0.228406205327661
40
0.266473906215605
40
0.266473906215605
40
0.285507756659576
40
0.285507756659576
40
0.304541607103548
40
0.304541607103548
40
0.380677008879435
40
0.380677008879435
40
0.418744709767377
40
0.418744709767377
40
0.45681241065532
40
0.45681241065532
40
0.494880111543263
40
0.494880111543263
40
0.532947812431205
40
0.532947812431205
40
0.571015513319148
40
0.571015513319148
40
0.60908321420709
40
0.60908321420709
40
0.685218615982977
40
0.685218615982977
40
0.72328631687092
40
0.72328631687092
40
0.761354017758862
40
0.761354017758862
40
0.799421718646805
40
0.799421718646805
40
0.837489419534748
40
0.837489419534748
40
0.87555712042269
40
0.87555712042269
40
0.913624821310633
40
0.913624821310633
40
0.951692522198575
40
0.951692522198575
40
0.989760223086518
40
0.989760223086518
40
1
40
1
40
1
40
1
41
1
10
16.6976463867864
20
4.04602728856227
30
0
41
1
10
17.2683635469519
20
3.79400305407228
30
0
41
1
10
17.8375149759431
20
3.52575835961258
30
0
41
1
10
18.685830801724
20
3.09604314327385
30
0
41
1
10
18.9673087752653
20
2.94761273411231
30
0
41
1
10
19.5313257965453
20
2.6456285101429
30
0
41
1
10
19.8136237770361
20
2.49176683263448
30
0
41
1
10
20.3782091947181
20
2.17749687052267
30
0
41
1
10
20.6605191389172
20
2.01712175620199
30
0
41
1
10
21.2247281216321
20
1.68902391166472
30
0
41
1
10
21.507266895286
20
1.5222967390911
30
0
41
1
10
22.0749240554259
20
1.18630773301655
30
0
41
1
10
22.3596811247721
20
1.01647065476954
30
0
41
1
10
22.7878977919627
20
0.758316690330531
30
0
41
1
10
22.9309786988819
20
0.67160287277494
30
0
41
1
10
23.2161022151533
20
0.497739821845414
30
0
41
1
10
23.3582096390937
20
0.410437545221185
30
0
41
1
10
24.0685843635649
20
-0.0243000124415573
30
0
41
1
10
24.6356987908591
20
-0.367690502122656
30
0
41
1
10
25.4814447953744
20
-0.881751258103009
30
0
41
1
10
25.762568027502
20
-1.05284940545465
30
0
41
1
10
26.3265150650264
20
-1.38916886505456
30
0
41
1
10
26.6088316483581
20
-1.55523546694511
30
0
41
1
10
27.1736794591137
20
-1.88394242049372
30
0
41
1
10
27.4560591061831
20
-2.04682005268546
30
0
41
1
10
28.0213505063467
20
-2.36854246689546
30
0
41
1
10
28.3052456421248
20
-2.5258489599118
30
0
41
1
10
28.8751734152315
20
-2.83393368467708
30
0
41
1
10
29.1618591531222
20
-2.98513876265136
30
0
41
1
10
29.7317691142809
20
-3.27900628590226
30
0
41
1
10
30.014944979135
20
-3.42232978954917
30
0
41
1
10
30.864788932384
20
-3.83384980687535
30
0
41
1
10
31.4303283139676
20
-4.0861089319958
30
0
41
1
10
32.2744137417906
20
-4.434794022684
30
0
41
1
10
32.5558990539585
20
-4.54505735017034
30
0
41
1
10
33.1202699985546
20
-4.75263664981154
30
0
41
1
10
33.4028711299827
20
-4.85026869038009
30
0
41
1
10
33.9684695945527
20
-5.03349515826031
30
0
41
1
10
34.2510449763774
20
-5.11940381915957
30
0
41
1
10
34.8186167396831
20
-5.27711405393927
30
0
41
1
10
35.1041735936234
20
-5.34888249994063
30
0
41
1
10
35.6760375319992
20
-5.47822886255972
30
0
41
1
10
35.9608622246746
20
-5.53545356313793
30
0
41
1
10
36.5278711195428
20
-5.63529882237214
30
0
41
1
10
36.8101986705177
20
-5.67776233173731
30
0
41
1
10
37.3754682104983
20
-5.7469377723402
30
0
41
1
10
37.6579218550152
20
-5.77389855372834
30
0
41
1
10
38.222008128193
20
-5.81281399988029
30
0
41
1
10
38.5034304752331
20
-5.8247716201507
30
0
41
1
10
38.8604066219136
20
-5.83016869563224
30
0
41
1
10
38.9361316962779
20
-5.83076154061075
30
0
41
1
10
39.0119083022811
20
-5.83080218443973
30
0
0
SPLINE
5
BC
100
AcDbEntity
8
1
62
256
6
ByLayer
370
18
48
1
60
0
100
AcDbSpline
70
4
71
3
72
26
73
22
40
0
40
0
40
0
40
0
40
0.07893614169724
40
0.07893614169724
40
0.171042527527516
40
0.171042527527516
40
0.263148913357792
40
0.263148913357792
40
0.355255299188068
40
0.355255299188068
40
0.447361685018344
40
0.447361685018344
40
0.53946807084862
40
0.53946807084862
40
0.631574456678896
40
0.631574456678896
40
0.815787228339448
40
0.815787228339448
40
0.907893614169724
40
0.907893614169724
40
1
40
1
40
1
40
1
41
1
10
61.8365135962264
20
4.28498787568554
30
0
41
1
10
62.0788625287719
20
4.38567691996093
30
0
41
1
10
62.3208165626261
20
4.48208056836629
30
0
41
1
10
62.8438689937348
20
4.68225335753289
30
0
41
1
10
63.1246094638987
20
4.78456855194085
30
0
41
1
10
63.6878647520911
20
4.97481181610556
30
0
41
1
10
63.9698953686617
20
5.06326559856299
30
0
41
1
10
64.5342736064613
20
5.22727214920531
30
0
41
1
10
64.8165494197766
20
5.30287111011242
30
0
41
1
10
65.3813678748409
20
5.44077368631127
30
0
41
1
10
65.6649034511926
20
5.50241184850782
30
0
41
1
10
66.2344208809822
20
5.61101572887711
30
0
41
1
10
66.5208804847136
20
5.65813031443716
30
0
41
1
10
67.0900652168164
20
5.73696358252758
30
0
41
1
10
67.3728572355531
20
5.76887566575488
30
0
41
1
10
68.2211895553676
20
5.84076080872137
30
0
41
1
10
68.7859536898279
20
5.85779909460038
30
0
41
1
10
69.6290078000187
20
5.83763918599112
30
0
41
1
10
69.9098604881401
20
5.82319017331903
30
0
41
1
10
70.4733061292641
20
5.77934405704909
30
0
41
1
10
70.7554933102596
20
5.74992202944327
30
0
41
1
10
71.0379238716941
20
5.71286813978458
30
0
0
SPLINE
5
BD
100
AcDbEntity
8
1
62
256
6
ByLayer
370
13
48
1
60
0
100
AcDbSpline
70
4
71
3
72
8
73
4
40
0
40
0
40
0
40
0
40
1
40
1
40
1
40
1
41
1
10
4.11982020645098
20
-4.78045027325169
30
0
41
1
10
4.12058350384879
20
-4.74277711496563
30
0
41
1
10
4.12135426682494
20
-4.70510021055935
30
0
41
1
10
4.12213255417134
20
-4.66741939652204
30
0
0
SPLINE
5
BE
100
AcDbEntity
8
1
62
256
6
ByLayer
370
13
48
1
60
0
100
AcDbSpline
70
4
71
3
72
10
73
6
40
0
40
0
40
0
40
0
40
0.5
40
0.5
40
1
40
1
40
1
40
1
41
1
10
4.25032268950139
20
-4.54566496429774
30
0
41
1
10
4.22787929021038
20
-4.54114057658609
30
0
41
1
10
4.2058931700829
20
-4.53914193710568
30
0
41
1
10
4.16284153786151
20
-4.54006935988519
30
0
41
1
10
4.14171718878788
20
-4.5430810212938
30
0
41
1
10
4.12213255417134
20
-4.54863658207634
30
0
0
SPLINE
5
BF
100
AcDbEntity
8
1
62
256
6
ByLayer
370
13
48
1
60
0
100
AcDbSpline
70
4
71
3
72
14
73
10
40
0
40
0
40
0
40
0
40
0.25
40
0.25
40
0.5
40
0.5
40
0.75
40
0.75
40
1
40
1
40
1
40
1
41
1
10
4.0000003327682
20
-4.64874878583561
30
0
41
1
10
4.0000003327682
20
-4.65065358819598
30
0
41
1
10
4.00261955207361
20
-4.65257142100052
30
0
41
1
10
4.01310548390148
20
-4.65621197912961
30
0
41
1
10
4.02082861298373
20
-4.65792062008924
30
0
41
1
10
4.04124519427475
20
-4.66111757786069
30
0
41
1
10
4.05420016618621
20
-4.66262892812566
30
0
41
1
10
4.08473245716763
20
-4.66529432090226
30
0
41
1
10
4.10216507159146
20
-4.66645112962701
30
0
41
1
10
4.12213255417134
20
-4.66741939652204
30
0
0
SPLINE
5
C0
100
AcDbEntity
8
1
62
256
6
ByLayer
370
18
48
1
60
0
100
AcDbSpline
70
4
71
3
72
40
73
36
40
0
40
0
40
0
40
0
40
0.124999999999996
40
0.124999999999996
40
0.187499999999995
40
0.187499999999995
40
0.249999999999995
40
0.249999999999995
40
0.374999999999995
40
0.374999999999995
40
0.499999999999995
40
0.499999999999995
40
0.562499999999995
40
0.562499999999995
40
0.624999999999994
40
0.624999999999994
40
0.749999999999999
40
0.749999999999999
40
0.812500000000001
40
0.812500000000001
40
0.843750000000004
40
0.843750000000004
40
0.859375000000004
40
0.859375000000004
40
0.875000000000003
40
0.875000000000003
40
0.906250000000003
40
0.906250000000003
40
0.937500000000002
40
0.937500000000002
40
0.953125000000001
40
0.953125000000001
40
0.968750000000001
40
0.968750000000001
40
1
40
1
40
1
40
1
41
1
10
64.8512745191399
20
2.94464460464235
30
0
41
1
10
65.0812275433761
20
2.7471659601745
30
0
41
1
10
65.315314670393
20
2.55757343865881
30
0
41
1
10
65.6734405062329
20
2.28652844074105
30
0
41
1
10
65.7941233578518
20
2.19832343198894
30
0
41
1
10
66.0360753080499
20
2.02779303926445
30
0
41
1
10
66.1575443906481
20
1.94530938884523
30
0
41
1
10
66.5234616750408
20
1.70637632909163
30
0
41
1
10
66.7694177405641
20
1.55843255442372
30
0
41
1
10
67.2656689478156
20
1.28702108756863
30
0
41
1
10
67.5159531026118
20
1.16349141973433
30
0
41
1
10
67.8951418670899
20
0.999420802091663
30
0
41
1
10
68.0221692540208
20
0.94829071839419
30
0
41
1
10
68.2776052672755
20
0.853821916652464
30
0
41
1
10
68.4062241440975
20
0.810437796210152
30
0
41
1
10
68.7900385212484
20
0.694550711492639
30
0
41
1
10
69.0450397385171
20
0.635626023241684
30
0
41
1
10
69.4211371522552
20
0.580976278025929
30
0
41
1
10
69.5439624839275
20
0.574477909653751
30
0
41
1
10
69.7184506984278
20
0.592174023468829
30
0
41
1
10
69.7747819867078
20
0.602810581285354
30
0
41
1
10
69.8536333757674
20
0.628320122043419
30
0
41
1
10
69.8790371156102
20
0.638442880306798
30
0
41
1
10
69.9275533379308
20
0.662905023836174
30
0
41
1
10
69.9507170297088
20
0.677498749744387
30
0
41
1
10
70.0148974729539
20
0.726663410448083
30
0
41
1
10
70.0511765664763
20
0.766660715415924
30
0
41
1
10
70.1086233470261
20
0.863422323075696
30
0
41
1
10
70.1281706085507
20
0.917907580019033
30
0
41
1
10
70.1441783572276
20
1.00843395587344
30
0
41
1
10
70.147270696032
20
1.04025418117746
30
0
41
1
10
70.1491215725746
20
1.1048839833916
30
0
41
1
10
70.1479431662473
20
1.13787870476966
30
0
41
1
10
70.1388172072201
20
1.23866941793065
30
0
41
1
10
70.1250271322477
20
1.3084580004157
30
0
41
1
10
70.1063824300647
20
1.37709856480782
30
0
0
SPLINE
5
C1
100
AcDbEntity
8
1
62
256
6
ByLayer
370
18
48
1
60
0
100
AcDbSpline
70
4
71
3
72
12
73
8
40
0
40
0
40
0
40
0
40
0.25
40
0.25
40
0.499999999999999
40
0.499999999999999
40
1
40
1
40
1
40
1
41
1
10
71.0144161178322
20
-5.64293536959585
30
0
41
1
10
71.0193585106709
20
-5.62967820729659
30
0
41
1
10
71.0241096656911
20
-5.61611014476378
30
0
41
1
10
71.0319003549733
20
-5.59177566584813
30
0
41
1
10
71.0349185834027
20
-5.58103279542834
30
0
41
1
10
71.0401696323821
20
-5.5576598212206
30
0
41
1
10
71.0389081416236
20
-5.55352446772335
30
0
41
1
10
71.0351792895855
20
-5.55663127596998
30
0
0
SPLINE
5
C2
100
AcDbEntity
8
1
62
256
6
ByLayer
370
18
48
1
60
0
100
AcDbSpline
70
4
71
3
72
23
73
19
40
0
40
0
40
0
40
0
40
0.125000000000001
40
0.125000000000001
40
0.187500000000001
40
0.187500000000001
40
0.250000000000001
40
0.250000000000001
40
0.5
40
0.5
40
0.562499999999999
40
0.562499999999999
40
0.624999999999999
40
0.624999999999999
40
0.749999999999999
40
0.875
40
0.875
40
1
40
1
40
1
40
1
41
1
10
70.9650569518737
20
-5.59096007461582
30
0
41
1
10
70.8841214544275
20
-5.59091176362753
30
0
41
1
10
70.807063476293
20
-5.57917170258926
30
0
41
1
10
70.6975810802964
20
-5.54315470832995
30
0
41
1
10
70.6621068499625
20
-5.52807376931429
30
0
41
1
10
70.593280361782
20
-5.49151358093491
30
0
41
1
10
70.5598194756288
20
-5.4699374404334
30
0
41
1
10
70.399977717157
20
-5.34682029075225
30
0
41
1
10
70.2949045792621
20
-5.20027500134432
30
0
41
1
10
70.1934251951361
20
-4.95415914006782
30
0
41
1
10
70.1746417636746
20
-4.90174848901006
30
0
41
1
10
70.1402187956425
20
-4.79030142799903
30
0
41
1
10
70.1245376670908
20
-4.73102381373482
30
0
41
1
10
70.0830356275475
20
-4.5456766615203
30
0
41
1
10
70.0419842776458
20
-4.27759634137945
30
0
41
1
10
70.0290285443182
20
-3.96830934039701
30
0
41
1
10
70.0304994580082
20
-3.63786337186946
30
0
41
1
10
70.038589027519
20
-3.46129985291708
30
0
41
1
10
70.0538522843535
20
-3.278305692462
30
0
0
SPLINE
5
C3
100
AcDbEntity
8
1
62
256
6
ByLayer
370
18
48
1
60
0
100
AcDbSpline
70
4
71
3
72
14
73
10
40
0
40
0
40
0
40
0
40
0.25
40
0.25
40
0.5
40
0.5
40
0.75
40
0.75
40
1
40
1
40
1
40
1
41
1
10
70.1063824300643
20
1.37709856480763
30
0
41
1
10
70.0986942234554
20
1.40540273591313
30
0
41
1
10
70.0951691253648
20
1.43489980177554
30
0
41
1
10
70.1004545925854
20
1.49456847019195
30
0
41
1
10
70.1097223538935
20
1.52459825048905
30
0
41
1
10
70.1425393527447
20
1.57665258103634
30
0
41
1
10
70.1662346279625
20
1.5989095080329
30
0
41
1
10
70.2214173640277
20
1.63060850172224
30
0
41
1
10
70.2514854678644
20
1.64008424906444
30
0
41
1
10
70.2825384583308
20
1.64579368819517
30
0
0
SPLINE
5
C4
100
AcDbEntity
8
1
62
256
6
ByLayer
370
18
48
1
60
0
100
AcDbSpline
70
4
71
3
72
18
73
14
40
0
40
0
40
0
40
0
40
0.0300744540840745
40
0.0300744540840745
40
0.553016384282985
40
0.553016384282985
40
0.683751866832714
40
0.683751866832714
40
0.749119608107576
40
0.749119608107576
40
0.814487349382438
40
0.814487349382438
40
1
40
1
40
1
40
1
41
1
10
24.8493648395788
20
0.0048625663347366
30
0
41
1
10
24.9300925717417
20
-0.0430915278094233
30
0
41
1
10
25.0108259395015
20
-0.0910510057791498
30
0
41
1
10
26.49347373177
20
-0.971547716011855
30
0
41
1
10
27.8711690515191
20
-1.78460446904916
30
0
41
1
10
29.6052186423732
20
-2.70805054553014
30
0
41
1
10
29.9526699215438
20
-2.88803281524244
30
0
41
1
10
30.4756063897052
20
-3.14963193276435
30
0
41
1
10
30.6502211636804
20
-3.23542454254172
30
0
41
1
10
31.0001355589137
20
-3.40404925098329
30
0
41
1
10
31.1756712976212
20
-3.48700635166594
30
0
41
1
10
31.848677691336
20
-3.7981004651997
30
0
41
1
10
32.343220744237
20
-4.01202849999333
30
0
41
1
10
32.8361099319099
20
-4.20849402833065
30
0
0
SPLINE
5
C5
100
AcDbEntity
8
1
62
256
6
ByLayer
370
13
48
1
60
0
100
AcDbSpline
70
4
71
3
72
16
73
12
40
0
40
0
40
0
40
0
40
0.0697738435207196
40
0.0697738435207196
40
0.309955663520568
40
0.309955663520568
40
0.550137483520416
40
0.550137483520416
40
0.790319303520264
40
0.790319303520264
40
1
40
1
40
1
40
1
41
1
10
32.8361090031065
20
-4.20849365810977
30
0
41
1
10
33.0379232157227
20
-4.28893677019147
30
0
41
1
10
33.2394601568171
20
-4.36645228409665
30
0
41
1
10
34.1339578201503
20
-4.69738085172287
30
0
41
1
10
34.8252778463299
20
-4.91788499588156
30
0
41
1
10
36.2121687487767
20
-5.27926751095941
30
0
41
1
10
36.9083778626307
20
-5.42019040429022
30
0
41
1
10
38.3122753088751
20
-5.61394748628842
30
0
41
1
10
39.0120214329484
20
-5.66566012234299
30
0
41
1
10
40.3267545725433
20
-5.67618515645998
30
0
41
1
10
40.9349734319678
20
-5.64587006374447
30
0
41
1
10
41.540888695424
20
-5.58196917078118
30
0
0
SPLINE
5
C6
100
AcDbEntity
8
1
62
256
6
ByLayer
370
18
48
1
60
0
100
AcDbSpline
70
2053
71
3
72
60
73
56
40
0
40
0
40
0
40
0
40
0.0312499999999995
40
0.0312499999999995
40
0.0624999999999991
40
0.0624999999999991
40
0.0937499999999986
40
0.0937499999999986
40
0.124999999999998
40
0.124999999999998
40
0.156249999999998
40
0.156249999999998
40
0.187499999999997
40
0.187499999999997
40
0.249999999999996
40
0.249999999999996
40
0.281249999999997
40
0.281249999999997
40
0.312499999999997
40
0.312499999999997
40
0.374999999999999
40
0.374999999999999
40
0.437500000000002
40
0.437500000000002
40
0.468750000000002
40
0.468750000000002
40
0.500000000000001
40
0.500000000000001
40
0.531250000000001
40
0.531250000000001
40
0.5625
40
0.5625
40
0.59375
40
0.59375
40
0.625
40
0.625
40
0.656249999999999
40
0.656249999999999
40
0.687499999999999
40
0.687499999999999
40
0.749999999999998
40
0.749999999999998
40
0.781249999999998
40
0.781249999999998
40
0.812499999999999
40
0.812499999999999
40
0.843749999999999
40
0.843749999999999
40
0.874999999999999
40
0.874999999999999
40
0.906249999999999
40
0.906249999999999
40
0.937499999999999
40
0.937499999999999
40
1
40
1
40
1
40
1
41
1
10
71.5824280351538
20
-2.99796404057535
30
0
41
1
10
71.6106337254655
20
-2.95759643607596
30
0
41
1
10
71.6382499233056
20
-2.91435017025302
30
0
41
1
10
71.6922015521041
20
-2.82160328548991
30
0
41
1
10
71.7188303357522
20
-2.77148894898187
30
0
41
1
10
71.7689107844791
20
-2.66702236736697
30
0
41
1
10
71.7923015062831
20
-2.61294506132072
30
0
41
1
10
71.8352715883026
20
-2.50052964416861
30
0
41
1
10
71.8543221631103
20
-2.44339736732968
30
0
41
1
10
71.8859400385377
20
-2.33116512143724
30
0
41
1
10
71.8988405603477
20
-2.27458917465671
30
0
41
1
10
71.9166861734523
20
-2.16891358721432
30
0
41
1
10
71.9218821190323
20
-2.11883782752284
30
0
41
1
10
71.9261925353091
20
-1.98168190129809
30
0
41
1
10
71.913982922747
20
-1.90972490682569
30
0
41
1
10
71.8799679582003
20
-1.83346324135172
30
0
41
1
10
71.8659007489156
20
-1.81301324495496
30
0
41
1
10
71.8340087689174
20
-1.7822167895406
30
0
41
1
10
71.8160900655727
20
-1.77161862061971
30
0
41
1
10
71.7568995068448
20
-1.75307263446444
30
0
41
1
10
71.7119524433563
20
-1.75852416849634
30
0
41
1
10
71.6129935588124
20
-1.80083567488893
30
0
41
1
10
71.5607951689299
20
-1.83689556145114
30
0
41
1
10
71.4783537344214
20
-1.91370024174151
30
0
41
1
10
71.4503263594132
20
-1.94308675509913
30
0
41
1
10
71.3946690662643
20
-2.00809498086841
30
0
41
1
10
71.366827360648
20
-2.0438996621433
30
0
41
1
10
71.3111150379862
20
-2.12281615705197
30
0
41
1
10
71.2829299506224
20
-2.16647883711767
30
0
41
1
10
71.2285070959026
20
-2.25935624446279
30
0
41
1
10
71.2022224082406
20
-2.30851999347178
30
0
41
1
10
71.1518027756762
20
-2.41316873411657
30
0
41
1
10
71.127928606886
20
-2.46826318667968
30
0
41
1
10
71.0851726280357
20
-2.58002005753926
30
0
41
1
10
71.0657941555187
20
-2.63813507866007
30
0
41
1
10
71.0341162574592
20
-2.75099892255048
30
0
41
1
10
71.0214807445433
20
-2.80663921525712
30
0
41
1
10
71.0035305226726
20
-2.91348840685859
30
0
41
1
10
70.9984469397676
20
-2.96300000690934
30
0
41
1
10
70.9940378776549
20
-3.10063331200104
30
0
41
1
10
71.006093188758
20
-3.17345328126208
30
0
41
1
10
71.0396908336286
20
-3.25060167747347
30
0
41
1
10
71.0535582781301
20
-3.27136262462022
30
0
41
1
10
71.0853977684968
20
-3.30300753903794
30
0
41
1
10
71.1032239289113
20
-3.31386256989077
30
0
41
1
10
71.1422846046715
20
-3.32669169535555
30
0
41
1
10
71.1636497479148
20
-3.32859169252129
30
0
41
1
10
71.2084376552422
20
-3.32389267607837
30
0
41
1
10
71.2319741356787
20
-3.31736952733877
30
0
41
1
10
71.281246592437
20
-3.29628849022549
30
0
41
1
10
71.3071395968141
20
-3.28158332297406
30
0
41
1
10
71.3597160337548
20
-3.24489781149796
30
0
41
1
10
71.3865344513131
20
-3.22289706374946
30
0
41
1
10
71.4686066252243
20
-3.14573922801651
30
0
41
1
10
71.5260166545303
20
-3.07869924957413
30
0
41
1
10
71.5824280351538
20
-2.99796404057535
30
0
0
SPLINE
5
C7
100
AcDbEntity
8
1
62
256
6
ByLayer
370
18
48
1
60
0
100
AcDbSpline
70
4
71
3
72
32
73
28
40
0
40
0
40
0
40
0
40
0.062499999999999
40
0.062499999999999
40
0.124999999999998
40
0.124999999999998
40
0.187499999999997
40
0.187499999999997
40
0.218749999999998
40
0.218749999999998
40
0.249999999999998
40
0.249999999999998
40
0.374999999999996
40
0.374999999999996
40
0.437499999999994
40
0.437499999999994
40
0.499999999999993
40
0.499999999999993
40
0.624999999999994
40
0.624999999999994
40
0.749999999999995
40
0.749999999999995
40
0.812499999999995
40
0.812499999999995
40
0.874999999999996
40
0.874999999999996
40
1
40
1
40
1
40
1
41
1
10
64.8512745191399
20
2.94464460464235
30
0
41
1
10
64.8561585403363
20
2.79146226960066
30
0
41
1
10
64.873686179915
20
2.63469661446953
30
0
41
1
10
64.9334090044559
20
2.31417429038064
30
0
41
1
10
64.976118328431
20
2.14937493420004
30
0
41
1
10
65.0816690878075
20
1.82478997341289
30
0
41
1
10
65.1446204932442
20
1.66367060146189
30
0
41
1
10
65.2524430644426
20
1.42353579383257
30
0
41
1
10
65.2906247971912
20
1.34374918967089
30
0
41
1
10
65.3712420637153
20
1.18466636629958
30
0
41
1
10
65.4138002765154
20
1.10516940981822
30
0
41
1
10
65.6340715507562
20
0.71347610872445
30
0
41
1
10
65.8351428922522
20
0.415379398984129
30
0
41
1
10
66.1637507980121
20
-0.0151899661513539
30
0
41
1
10
66.2778693266052
20
-0.15589987957253
30
0
41
1
10
66.514256576184
20
-0.432316348297007
30
0
41
1
10
66.6356855502613
20
-0.567057893559536
30
0
41
1
10
67.006210837403
20
-0.959569007165584
30
0
41
1
10
67.2627415885746
20
-1.20655858490622
30
0
41
1
10
67.7909251986797
20
-1.67719707854283
30
0
41
1
10
68.062402493326
20
-1.90111697429995
30
0
41
1
10
68.4789933985258
20
-2.22252675529558
30
0
41
1
10
68.6196349301285
20
-2.3273739014717
30
0
41
1
10
68.902334089158
20
-2.53139950276144
30
0
41
1
10
69.0445035549569
20
-2.63067442891716
30
0
41
1
10
69.4733008767818
20
-2.92085572325755
30
0
41
1
10
69.762203641629
20
-3.10416541011392
30
0
41
1
10
70.0538522843535
20
-3.278305692462
30
0
0
SPLINE
5
C8
100
AcDbEntity
8
1
62
256
6
ByLayer
370
18
48
1
60
0
100
AcDbSpline
70
4
71
3
72
14
73
10
40
0
40
0
40
0
40
0
40
0.25
40
0.25
40
0.5
40
0.5
40
0.75
40
0.75
40
1
40
1
40
1
40
1
41
1
10
4.25130411472196
20
3.69783964413892
30
0
41
1
10
4.22342287970997
20
3.71579089932899
30
0
41
1
10
4.19369324804472
20
3.73499573278656
30
0
41
1
10
4.13217860223443
20
3.77478193577207
30
0
41
1
10
4.10035681341148
20
3.79537138223424
30
0
41
1
10
4.04791606499288
20
3.82979801687884
30
0
41
1
10
4.02845113936087
20
3.84293857648257
30
0
41
1
10
4.00478662942578
20
3.86024001979942
30
0
41
1
10
4.00000033276774
20
3.86474036913356
30
0
41
1
10
4.00000033276822
20
3.86650856501703
30
0
0
SPLINE
5
C9
100
AcDbEntity
8
1
62
256
6
ByLayer
370
13
48
1
60
0
100
AcDbSpline
70
4
71
3
72
34
73
30
40
0
40
0
40
0
40
0
40
0.125
40
0.125
40
0.1875
40
0.1875
40
0.25
40
0.25
40
0.3125
40
0.3125
40
0.34375
40
0.34375
40
0.375
40
0.375
40
0.5
40
0.5
40
0.5625
40
0.5625
40
0.625
40
0.625
40
0.6875
40
0.6875
40
0.75
40
0.75
40
0.8125
40
0.8125
40
0.875
40
0.875
40
1
40
1
40
1
40
1
41
1
10
4.25032268950139
20
-4.54566496429774
30
0
41
1
10
4.25039168357483
20
-4.31976862955796
30
0
41
1
10
4.25044981992269
20
-4.06264014991996
30
0
41
1
10
4.25052741580848
20
-3.6303087738311
30
0
41
1
10
4.25055145582272
20
-3.47947495125388
30
0
41
1
10
4.25059663583392
20
-3.16774110722082
30
0
41
1
10
4.25061785544361
20
-3.0063896963905
30
0
41
1
10
4.25065865209271
20
-2.67280171230723
30
0
41
1
10
4.25067822735642
20
-2.50056568241052
30
0
41
1
10
4.25070708970532
20
-2.23383697432357
30
0
41
1
10
4.2507166547847
20
-2.14325045340516
30
0
41
1
10
4.2507355586414
20
-1.96088817428122
30
0
41
1
10
4.25074489919353
20
-1.86911260272524
30
0
41
1
10
4.25079131957867
20
-1.40732097233212
30
0
41
1
10
4.25082767201192
20
-1.02865922701778
30
0
41
1
10
4.25088470497957
20
-0.446762118856839
30
0
41
1
10
4.25090418812954
20
-0.249702176555445
30
0
41
1
10
4.25094363027537
20
0.142818246693935
30
0
41
1
10
4.25096364158657
20
0.33883096696627
30
0
41
1
10
4.25100430296683
20
0.730358349594155
30
0
41
1
10
4.25102478936466
20
0.924288402419762
30
0
41
1
10
4.25106560175851
20
1.30596080511953
30
0
41
1
10
4.25108597216934
20
1.49413044440203
30
0
41
1
10
4.25112622735719
20
1.86515108169152
30
0
41
1
10
4.25114611348795
20
2.04800249879901
30
0
41
1
10
4.25118474375233
20
2.40822124084951
30
0
41
1
10
4.25120322678248
20
2.58321070976143
30
0
41
1
10
4.25125470695141
20
3.09005825155947
30
0
41
1
10
4.2512840176793
20
3.40545508562866
30
0
41
1
10
4.25130411472153
20
3.69783963796311
30
0
0
SPLINE
5
CA
100
AcDbEntity
8
1
62
256
6
ByLayer
370
18
48
1
60
0
100
AcDbSpline
70
4
71
3
72
51
73
47
40
0
40
0
40
0
40
0
40
0.033537914675367
40
0.033537914675367
40
0.0670758293507341
40
0.0670758293507341
40
0.134151658701468
40
0.134151658701468
40
0.167689573376835
40
0.167689573376835
40
0.201227488052202
40
0.201227488052202
40
0.234765402727569
40
0.234765402727569
40
0.268303317402936
40
0.268303317402936
40
0.33537914675367
40
0.33537914675367
40
0.352148104091355
40
0.352148104091355
40
0.368917061429039
40
0.402454976104407
40
0.402454976104407
40
0.536606634805878
40
0.536606634805878
40
0.553375592143562
40
0.553375592143562
40
0.570144549481246
40
0.570144549481246
40
0.603682464156615
40
0.603682464156615
40
0.670758293507352
40
0.670758293507352
40
0.73783412285809
40
0.73783412285809
40
0.754603080195774
40
0.754603080195774
40
0.771372037533459
40
0.771372037533459
40
0.804909952208826
40
0.804909952208826
40
0.9390616109103
40
0.9390616109103
40
0.972599525585669
40
0.972599525585669
40
1
40
1
40
1
40
1
41
1
10
70.9535722755073
20
-5.80586911064751
30
0
41
1
10
70.6034932806594
20
-5.83203339864099
30
0
41
1
10
70.2535755909205
20
-5.84635988102613
30
0
41
1
10
69.5531102478798
20
-5.85135093374862
30
0
41
1
10
69.2021249737334
20
-5.84196806658781
30
0
41
1
10
68.1516770485454
20
-5.77853250871547
30
0
41
1
10
67.4536891998488
20
-5.68935970564846
30
0
41
1
10
66.4035413364008
20
-5.48745234798645
30
0
41
1
10
66.052553214023
20
-5.40868246273845
30
0
41
1
10
65.3525207968746
20
-5.2300706988689
30
0
41
1
10
65.0030044807729
20
-5.13016783201206
30
0
41
1
10
64.3038574998183
20
-4.91011775589738
30
0
41
1
10
63.9542273178894
20
-4.78996966808958
30
0
41
1
10
63.2537198017035
20
-4.5303519262331
30
0
41
1
10
62.9027409570845
20
-4.39080961867052
30
0
41
1
10
61.8528872602903
20
-3.9476383598579
30
0
41
1
10
61.1547690142921
20
-3.61883037620987
30
0
41
1
10
60.2788309714778
20
-3.17286214424942
30
0
41
1
10
60.1033022848166
20
-3.08184216653714
30
0
41
1
10
59.7532898084157
20
-2.89736261750787
30
0
41
1
10
59.2294019731322
20
-2.61675502217474
30
0
41
1
10
58.7082452538181
20
-2.32556059816272
30
0
41
1
10
56.9742565161983
20
-1.33605143223929
30
0
41
1
10
55.5980082972431
20
-0.483037970841565
30
0
41
1
10
54.0217310845406
20
0.480856224421529
30
0
41
1
10
53.8461736444151
20
0.587990301352079
30
0
41
1
10
53.4963427944074
20
0.800707831241994
30
0
41
1
10
53.3217887587308
20
0.906464752960858
30
0
41
1
10
52.7990125698025
20
1.22163743955352
30
0
41
1
10
52.4517371890373
20
1.42905784664569
30
0
41
1
10
51.4119752499894
20
2.04069132476855
30
0
41
1
10
50.7209726186485
20
2.43337841134604
30
0
41
1
10
49.335782296252
20
3.17718179279291
30
0
41
1
10
48.6409705195468
20
3.52738626012481
30
0
41
1
10
47.7648095021987
20
3.93040352047893
30
0
41
1
10
47.5893306251295
20
4.00914907460839
30
0
41
1
10
47.2396101058822
20
4.16191362326344
30
0
41
1
10
47.0651053683116
20
4.23605608048189
30
0
41
1
10
46.5424198441624
20
4.45158108040332
30
0
41
1
10
46.1951105739686
20
4.58611784895652
30
0
41
1
10
44.4620015350241
20
5.21133558920701
30
0
41
1
10
43.0849862576438
20
5.55827960947784
30
0
41
1
10
41.3313995138047
20
5.76411217471389
30
0
41
1
10
40.9814006570864
20
5.7935393564552
30
0
41
1
10
40.348362975409
20
5.82563918559822
30
0
41
1
10
40.0644841063622
20
5.8322645097432
30
0
41
1
10
39.7810705592437
20
5.83116156379987
30
0
0
SPLINE
5
CB
100
AcDbEntity
8
1
62
256
6
ByLayer
370
18
48
1
60
0
100
AcDbSpline
70
4
71
3
72
20
73
16
40
0
40
0
40
0
40
0
40
0.0184048226593438
40
0.0184048226593438
40
0.141104219826928
40
0.141104219826928
40
0.202453918410719
40
0.202453918410719
40
0.263803616994511
40
0.263803616994511
40
0.509202411329674
40
0.509202411329674
40
0.754601205664837
40
0.754601205664837
40
1
40
1
40
1
40
1
41
1
10
12.6261914075643
20
-5.57580723343392
30
0
41
1
10
12.5741738704584
20
-5.58478303056381
30
0
41
1
10
12.5221441003929
20
-5.59351154991498
30
0
41
1
10
12.1231390916976
20
-5.6585255252491
30
0
41
1
10
11.7755483344094
20
-5.70401659985833
30
0
41
1
10
11.2524338308145
20
-5.75515921696956
30
0
41
1
10
11.0777703581032
20
-5.7693556860745
30
0
41
1
10
10.7277032165363
20
-5.7919487449002
30
0
41
1
10
10.5520464677832
20
-5.80035174743952
30
0
41
1
10
9.67466204874302
20
-5.82754498278265
30
0
41
1
10
8.97958265642723
20
-5.80192495321501
30
0
41
1
10
7.59367428997462
20
-5.66034004063525
30
0
41
1
10
6.90303535289837
20
-5.54430077714142
30
0
41
1
10
5.51697107238377
20
-5.22611887510826
30
0
41
1
10
4.82158992722938
20
-5.02405149318659
30
0
41
1
10
4.11982020645104
20
-4.780450273252
30
0
0
SPLINE
5
CC
100
AcDbEntity
8
1
62
256
6
ByLayer
370
18
48
1
60
0
100
AcDbSpline
70
4
71
3
72
10
73
6
40
0
40
0
40
0
40
0
40
0.890463457742637
40
0.890463457742637
40
1
40
1
40
1
40
1
41
1
10
70.9535722755073
20
5.80586911064751
30
0
41
1
10
70.6036419002011
20
5.83202229107798
30
0
41
1
10
70.2537213193121
20
5.84635903193825
30
0
41
1
10
69.8602331968425
20
5.84916255547051
30
0
41
1
10
69.8171265898951
20
5.84928943386501
30
0
41
1
10
69.7740191517757
20
5.84923665993784
30
0
0
SPLINE
5
CD
100
AcDbEntity
8
1
62
256
6
ByLayer
370
18
48
1
60
0
100
AcDbSpline
70
4
71
3
72
54
73
50
40
0
40
0
40
0
40
0
40
0.0260058793627125
40
0.0260058793627125
40
0.0899014544071392
40
0.0899014544071392
40
0.105875348168246
40
0.105875348168246
40
0.121849241929353
40
0.121849241929353
40
0.153797029451566
40
0.153797029451566
40
0.281588179540417
40
0.281588179540417
40
0.297562073301523
40
0.297562073301523
40
0.313535967062629
40
0.313535967062629
40
0.345483754584841
40
0.345483754584841
40
0.409379329629265
40
0.409379329629265
40
0.473274904673689
40
0.473274904673689
40
0.489248798434795
40
0.489248798434795
40
0.505222692195901
40
0.505222692195901
40
0.537170479718113
40
0.537170479718113
40
0.664961629806963
40
0.664961629806963
40
0.68093552356807
40
0.68093552356807
40
0.696909417329177
40
0.696909417329177
40
0.728857204851389
40
0.728857204851389
40
0.792752779895812
40
0.792752779895812
40
0.856648354940235
40
0.856648354940235
40
0.872622248701341
40
0.872622248701341
40
0.888596142462447
40
0.888596142462447
40
0.92054392998466
40
0.92054392998466
40
1
40
1
40
1
40
1
41
1
10
42.5524499085436
20
-5.59711706910974
30
0
41
1
10
42.2705667210715
20
-5.64548540980022
30
0
41
1
10
41.9889405400353
20
-5.68646507862604
30
0
41
1
10
41.0152863649477
20
-5.80229345611073
30
0
41
1
10
40.3230114099062
20
-5.83943016975437
30
0
41
1
10
39.4518225702189
20
-5.82737690559426
30
0
41
1
10
39.2772922550726
20
-5.82204072085631
30
0
41
1
10
38.9274872819293
20
-5.80546416902828
30
0
41
1
10
38.7519486891292
20
-5.79420100031768
30
0
41
1
10
38.2260582725947
20
-5.75164877323451
30
0
41
1
10
37.8770702497231
20
-5.71169455032003
30
0
41
1
10
36.1373567942474
20
-5.45612741682049
30
0
41
1
10
34.761855242037
20
-5.07355325578882
30
0
41
1
10
33.1930898482775
20
-4.47112236667454
30
0
41
1
10
33.0184755548172
20
-4.40180309277485
30
0
41
1
10
32.6684824913504
20
-4.25850861588799
30
0
41
1
10
32.4928232221393
20
-4.18440779226302
30
0
41
1
10
31.9670171105969
20
-3.95633024399203
30
0
41
1
10
31.6181026826428
20
-3.79661260915117
30
0
41
1
10
30.5743898300657
20
-3.29718267155127
30
0
41
1
10
29.8823932107308
20
-2.93753109444529
30
0
41
1
10
28.4979927231489
20
-2.17685678886104
30
0
41
1
10
27.8052273811199
20
-1.77636614330234
30
0
41
1
10
26.9333012094897
20
-1.25830320007921
30
0
41
1
10
26.7586127223695
20
-1.15382443379295
30
0
41
1
10
26.4084579303817
20
-0.943392425240631
30
0
41
1
10
26.2327234950276
20
-0.83727148074388
30
0
41
1
10
25.7070087454098
20
-0.518701860063203
30
0
41
1
10
25.3581011549429
20
-0.305808103378723
30
0
41
1
10
23.6185516886829
20
0.756563022626466
30
0
41
1
10
22.2425832089629
20
1.59928923916263
30
0
41
1
10
20.6723853712232
20
2.47389627136207
30
0
41
1
10
20.4976102247121
20
2.57005389854695
30
0
41
1
10
20.1472929303488
20
2.76008117107381
30
0
41
1
10
19.9715175056823
20
2.8540694478813
30
0
41
1
10
19.4459035055043
20
3.13060738930605
30
0
41
1
10
19.0970245939799
20
3.30813931515982
30
0
41
1
10
18.0531866796086
20
3.81829791609667
30
0
41
1
10
17.3613561296704
20
4.12891199818898
30
0
41
1
10
15.9761516125341
20
4.68030009213893
30
0
41
1
10
15.2831420084885
20
4.9214788342212
30
0
41
1
10
14.4103772812728
20
5.17307172564827
30
0
41
1
10
14.2355093906619
20
5.22090590518476
30
0
41
1
10
13.8850231567548
20
5.31145430084834
30
0
41
1
10
13.7092275806059
20
5.35419665362556
30
0
41
1
10
13.1837199034101
20
5.47375849614022
30
0
41
1
10
12.8349110864412
20
5.54217725188815
30
0
41
1
10
11.6217444320556
20
5.74111723278773
30
0
41
1
10
10.7622893890215
20
5.81290142337451
30
0
41
1
10
9.90015712361449
20
5.81335019070332
30
0
0
SPLINE
5
CE
100
AcDbEntity
8
1
62
256
6
ByLayer
370
18
48
1
60
0
100
AcDbSpline
70
4
71
3
72
8
73
4
40
0
40
0
40
0
40
0
40
1
40
1
40
1
40
1
41
1
10
71.0351792895856
20
-5.55663127596992
30
0
41
1
10
71.0077656672426
20
-5.57947178213638
30
0
41
1
10
70.9843702949981
20
-5.59097469968927
30
0
41
1
10
70.9650569518691
20
-5.59096007461582
30
0
0
SPLINE
5
CF
100
AcDbEntity
8
1
62
256
6
ByLayer
370
18
48
1
60
0
100
AcDbSpline
70
4
71
3
72
8
73
4
40
0
40
0
40
0
40
0
40
1
40
1
40
1
40
1
41
1
10
70.9535722755073
20
-5.80586911064751
30
0
41
1
10
70.973870716427
20
-5.75160179349592
30
0
41
1
10
70.9941520010165
20
-5.69729055626067
30
0
41
1
10
71.0144161178165
20
-5.642935369605
30
0
0
SPLINE
5
D0
100
AcDbEntity
8
1
62
256
6
ByLayer
370
13
48
1
60
0
100
AcDbSpline
70
4
71
3
72
14
73
10
40
0
40
0
40
0
40
0
40
0.25
40
0.25
40
0.5
40
0.5
40
0.75
40
0.75
40
1
40
1
40
1
40
1
41
1
10
4.12213255417134
20
-4.54863658207631
30
0
41
1
10
4.10216418523933
20
-4.55430099652651
30
0
41
1
10
4.08472318906183
20
-4.56098630203692
30
0
41
1
10
4.0541750787215
20
-4.57605465273559
30
0
41
1
10
4.04121472470314
20
-4.5844454420392
30
0
41
1
10
4.02080295201981
20
-4.60176556708893
30
0
41
1
10
4.01309046540047
20
-4.61082249630613
30
0
41
1
10
4.00261250750643
20
-4.62966299938776
30
0
41
1
10
4.00000033276822
20
-4.63934185495353
30
0
41
1
10
4.00000033276822
20
-4.64874878583561
30
0
0
SPLINE
5
D1
100
AcDbEntity
8
1
62
256
6
ByLayer
370
18
48
1
60
0
100
AcDbSpline
70
4
71
3
72
62
73
58
40
0
40
0
40
0
40
0
40
0.124999999999998
40
0.124999999999998
40
0.249999999999997
40
0.249999999999997
40
0.374999999999995
40
0.374999999999995
40
0.499999999999994
40
0.499999999999994
40
0.531249999999994
40
0.531249999999994
40
0.562499999999994
40
0.562499999999994
40
0.624999999999995
40
0.624999999999995
40
0.687499999999996
40
0.687499999999996
40
0.691406249999996
40
0.691406249999996
40
0.695312499999996
40
0.695312499999996
40
0.697265624999996
40
0.697265624999996
40
0.699218749999996
40
0.699218749999996
40
0.703124999999996
40
0.703124999999996
40
0.718749999999998
40
0.718749999999998
40
0.749999999999999
40
0.749999999999999
40
0.765624999999999
40
0.765624999999999
40
0.78125
40
0.78125
40
0.7890625
40
0.7890625
40
0.796875
40
0.796875
40
0.8125
40
0.8125
40
0.828125
40
0.828125
40
0.843749999999999
40
0.843749999999999
40
0.859374999999999
40
0.859374999999999
40
0.874999999999999
40
0.874999999999999
40
0.906249999999999
40
0.906249999999999
40
0.937499999999999
40
0.937499999999999
40
0.96875
40
0.96875
40
1
40
1
40
1
40
1
41
1
10
16.6976707534048
20
4.04597896864826
30
0
41
1
10
15.9682033163986
20
4.36672921995643
30
0
41
1
10
15.2304141251235
20
4.63865990172826
30
0
41
1
10
13.7289744055964
20
5.08927538210602
30
0
41
1
10
12.9736594206001
20
5.26492772580016
30
0
41
1
10
11.4409262398528
20
5.53148656277349
30
0
41
1
10
10.6633939567524
20
5.6223780218416
30
0
41
1
10
9.07519098688437
20
5.7441325564993
30
0
41
1
10
8.26452505270521
20
5.77530837241392
30
0
41
1
10
7.22615096570081
20
5.7958711187469
30
0
41
1
10
7.01704323781792
20
5.79906299078741
30
0
41
1
10
6.59789678591164
20
5.80402570257209
30
0
41
1
10
6.38771686102939
20
5.80580133834096
30
0
41
1
10
5.75530081210724
20
5.80964185271026
30
0
41
1
10
5.33075456511943
20
5.81025234240349
30
0
41
1
10
4.47920767856817
20
5.81023319828321
30
0
41
1
10
4.05209586542861
20
5.80961367646279
30
0
41
1
10
3.59688624143647
20
5.80911512615441
30
0
41
1
10
3.57011590588863
20
5.80907998520675
30
0
41
1
10
3.51654023183985
20
5.80903769083955
30
0
41
1
10
3.48942250509259
20
5.80905563263721
30
0
41
1
10
3.45065951255407
20
5.8091394136373
30
0
41
1
10
3.43800457914841
20
5.80917652956325
30
0
41
1
10
3.41351763378393
20
5.80926219835874
30
0
41
1
10
3.40230632074972
20
5.80930849024682
30
0
41
1
10
3.36786901630418
20
5.80939484879855
30
0
41
1
10
3.34502114048422
20
5.8094020316083
30
0
41
1
10
3.23135562617085
20
5.80916677145572
30
0
41
1
10
3.14206602506869
20
5.80811181196262
30
0
41
1
10
2.88259325836827
20
5.80151613495195
30
0
41
1
10
2.7203579245857
20
5.79272751745989
30
0
41
1
10
2.50057900641588
20
5.76768460938877
30
0
41
1
10
2.43085271630466
20
5.75722865337147
30
0
41
1
10
2.30401751381999
20
5.73120931699239
30
0
41
1
10
2.24708208026507
20
5.7157299882002
30
0
41
1
10
2.17312458759676
20
5.68779527631517
30
0
41
1
10
2.15038566287495
20
5.67769449856084
30
0
41
1
10
2.10911411699013
20
5.65569505041489
30
0
41
1
10
2.09063570457113
20
5.64379355707689
30
0
41
1
10
2.04307622192951
20
5.60596875149585
30
0
41
1
10
2.02137416324311
20
5.57769315938287
30
0
41
1
10
1.99826521323663
20
5.51444306914351
30
0
41
1
10
1.99706886535859
20
5.47902550199566
30
0
41
1
10
2.01438375001715
20
5.40390914256093
30
0
41
1
10
2.03258609378435
20
5.36411547839097
30
0
41
1
10
2.08534807533158
20
5.28031178252584
30
0
41
1
10
2.11994780034416
20
5.23640391491833
30
0
41
1
10
2.20046418247881
20
5.14735479506226
30
0
41
1
10
2.24659452129657
20
5.10186959336008
30
0
41
1
10
2.39904520506357
20
4.96273428169451
30
0
41
1
10
2.52004648167088
20
4.86590555335121
30
0
41
1
10
2.77935741714054
20
4.67182576518036
30
0
41
1
10
2.91859705682447
20
4.57378698460255
30
0
41
1
10
3.2101205400659
20
4.37529966052779
30
0
41
1
10
3.3625572455872
20
4.27480461207045
30
0
41
1
10
3.67691546765116
20
4.07135910312221
30
0
41
1
10
3.83729372943088
20
3.96941558255631
30
0
41
1
10
4.00000033278232
20
3.86698572430461
30
0
0
SPLINE
5
D2
100
AcDbEntity
8
1
62
256
6
ByLayer
370
18
48
1
60
0
100
AcDbSpline
70
4
71
3
72
92
73
88
40
0
40
0
40
0
40
0
40
0.0032948831378189
40
0.0032948831378189
40
0.0261760820704605
40
0.0261760820704605
40
0.0490572810031021
40
0.0490572810031021
40
0.0719384799357436
40
0.0719384799357436
40
0.0948196788683852
40
0.0948196788683852
40
0.117700877801027
40
0.117700877801027
40
0.140582076733668
40
0.140582076733668
40
0.16346327566631
40
0.16346327566631
40
0.186344474598952
40
0.186344474598952
40
0.232106872464234
40
0.232106872464234
40
0.254988071396875
40
0.254988071396875
40
0.277869270329516
40
0.277869270329516
40
0.300750469262157
40
0.300750469262157
40
0.323631668194798
40
0.323631668194798
40
0.34651286712744
40
0.34651286712744
40
0.369394066060081
40
0.369394066060081
40
0.415156463925362
40
0.415156463925362
40
0.426597063391683
40
0.426597063391683
40
0.438037662858004
40
0.438037662858004
40
0.460918861790647
40
0.460918861790647
40
0.483800060723289
40
0.483800060723289
40
0.506681259655931
40
0.506681259655931
40
0.529562458588574
40
0.529562458588574
40
0.552443657521216
40
0.552443657521216
40
0.575324856453859
40
0.575324856453859
40
0.598206055386501
40
0.598206055386501
40
0.621087254319143
40
0.621087254319143
40
0.643968453251786
40
0.643968453251786
40
0.666849652184428
40
0.666849652184428
40
0.68973085111707
40
0.68973085111707
40
0.712612050049713
40
0.712612050049713
40
0.735493248982355
40
0.735493248982355
40
0.758374447914998
40
0.758374447914998
40
0.769815047381319
40
0.769815047381319
40
0.781255646847641
40
0.781255646847641
40
0.82701804471293
40
0.82701804471293
40
0.849899243645574
40
0.849899243645574
40
0.872780442578218
40
0.872780442578218
40
0.895661641510862
40
0.895661641510862
40
0.918542840443506
40
0.918542840443506
40
0.94142403937615
40
0.94142403937615
40
0.964305238308794
40
0.964305238308794
40
1
40
1
40
1
40
1
41
1
10
31.8714608602274
20
4.26804633292301
30
0
41
1
10
31.9120053684586
20
4.28498933197594
30
0
41
1
10
31.9525359489031
20
4.30182882306795
30
0
41
1
10
32.2744137417906
20
4.43479402268397
30
0
41
1
10
32.5558990539585
20
4.54505735017034
30
0
41
1
10
33.1202699985545
20
4.75263664981151
30
0
41
1
10
33.4028711299827
20
4.85026869038006
30
0
41
1
10
33.9684695945527
20
5.03349515826031
30
0
41
1
10
34.2510449763774
20
5.11940381915957
30
0
41
1
10
34.8186167396832
20
5.27711405393927
30
0
41
1
10
35.1041735936234
20
5.34888249994066
30
0
41
1
10
35.6760375319992
20
5.47822886255969
30
0
41
1
10
35.9608622246746
20
5.53545356313793
30
0
41
1
10
36.5278711195428
20
5.63529882237214
30
0
41
1
10
36.8101986705176
20
5.67776233173731
30
0
41
1
10
37.3754682104983
20
5.74693777234017
30
0
41
1
10
37.6579218550152
20
5.77389855372834
30
0
41
1
10
38.222008128193
20
5.81281399988029
30
0
41
1
10
38.5034304752331
20
5.8247716201507
30
0
41
1
10
39.3473533083705
20
5.83753077863619
30
0
41
1
10
39.9130941660438
20
5.8155660801429
30
0
41
1
10
40.7633067032316
20
5.7362817860899
30
0
41
1
10
41.0466824328852
20
5.7018571517296
30
0
41
1
10
41.6171357828107
20
5.61801812380077
30
0
41
1
10
41.903407395173
20
5.56856426315804
30
0
41
1
10
42.4724810669828
20
5.45545915842817
30
0
41
1
10
42.7559640060018
20
5.39169008256789
30
0
41
1
10
43.3206079891634
20
5.24949618449821
30
0
41
1
10
43.602686724479
20
5.1716883463186
30
0
41
1
10
44.1670734010138
20
5.00357839193259
30
0
41
1
10
44.449164040005
20
4.9131213412555
30
0
41
1
10
45.0127025283201
20
4.71898866306586
30
0
41
1
10
45.293707433738
20
4.6148235035237
30
0
41
1
10
46.1391756134857
20
4.28555098568353
30
0
41
1
10
46.7062199883513
20
4.0443880288814
30
0
41
1
10
47.4167990702483
20
3.71197895827575
30
0
41
1
10
47.5589517580713
20
3.64384809461996
30
0
41
1
10
47.8441597024594
20
3.50536721650008
30
0
41
1
10
47.986991612985
20
3.43513033143046
30
0
41
1
10
48.4145048270619
20
3.22190625852394
30
0
41
1
10
48.6988002233628
20
3.07615003938622
30
0
41
1
10
49.2655352324813
20
2.77689684293262
30
0
41
1
10
49.5477071376783
20
2.62299110105354
30
0
41
1
10
50.1110943939601
20
2.30872777221018
30
0
41
1
10
50.3931139249099
20
2.14960769690541
30
0
41
1
10
50.9570632845167
20
1.82637527529417
30
0
41
1
10
51.239016940362
20
1.66229756469636
30
0
41
1
10
51.8024550846439
20
1.3284758221277
30
0
41
1
10
52.0836738786683
20
1.15827054952709
30
0
41
1
10
52.6488414103325
20
0.817349712853144
30
0
41
1
10
52.9323401347979
20
0.645921396310257
30
0
41
1
10
53.5006721591137
20
0.300256872569776
30
0
41
1
10
53.7858126487391
20
0.125718729486209
30
0
41
1
10
54.3557981279428
20
-0.225628377751065
30
0
41
1
10
54.6401101954461
20
-0.39983407005252
30
0
41
1
10
55.2078326724289
20
-0.744732613644516
30
0
41
1
10
55.491072094704
20
-0.915721939216724
30
0
41
1
10
56.0558850113059
20
-1.25552029487599
30
0
41
1
10
56.3370092336059
20
-1.42503903087217
30
0
41
1
10
56.9001253359847
20
-1.75774379754944
30
0
41
1
10
57.1820520840682
20
-1.92106616673982
30
0
41
1
10
57.7459997984134
20
-2.2427308171421
30
0
41
1
10
58.0280491203762
20
-2.40102764451259
30
0
41
1
10
58.5918602266773
20
-2.71310292618946
30
0
41
1
10
58.873987361749
20
-2.86630785754451
30
0
41
1
10
59.4411100543486
20
-3.16346699072554
30
0
41
1
10
59.7256587454368
20
-3.3080963427019
30
0
41
1
10
60.1536475882139
20
-3.5194930487304
30
0
41
1
10
60.2966024874139
20
-3.58907210968712
30
0
41
1
10
60.5813907865166
20
-3.72571404125392
30
0
41
1
10
60.7233230988322
20
-3.79294996217061
30
0
41
1
10
61.4324719139415
20
-4.12137360887189
30
0
41
1
10
61.9988779311217
20
-4.35887427015234
30
0
41
1
10
62.8438689937348
20
-4.68225335753291
30
0
41
1
10
63.1246094638986
20
-4.78456855194085
30
0
41
1
10
63.6878647520911
20
-4.97481181610553
30
0
41
1
10
63.9698953686617
20
-5.06326559856299
30
0
41
1
10
64.5342736064613
20
-5.22727214920528
30
0
41
1
10
64.8165494197766
20
-5.30287111011239
30
0
41
1
10
65.3813678748408
20
-5.44077368631127
30
0
41
1
10
65.6649034511925
20
-5.50241184850782
30
0
41
1
10
66.2344208809822
20
-5.61101572887708
30
0
41
1
10
66.5208804847136
20
-5.65813031443716
30
0
41
1
10
67.0900652168164
20
-5.73696358252758
30
0
41
1
10
67.3728572355531
20
-5.76887566575488
30
0
41
1
10
68.0967686108219
20
-5.83021775009004
30
0
41
1
10
68.537421454179
20
-5.84880750306019
30
0
41
1
10
68.9766738415184
20
-5.84879974413249
30
0
0
SPLINE
5
D3
100
AcDbEntity
8
1
62
256
6
ByLayer
370
13
48
1
60
0
100
AcDbSpline
70
4
71
3
72
16
73
12
40
0
40
0
40
0
40
0
40
0.143328082884405
40
0.143328082884405
40
0.286656165768811
40
0.286656165768811
40
0.573312331537623
40
0.573312331537623
40
0.859968497306436
40
0.859968497306436
40
1
40
1
40
1
40
1
41
1
10
4.19919562222469
20
-4.6758366979949
30
0
41
1
10
4.55036369011808
20
-4.79303310673737
30
0
41
1
10
4.90123416333054
20
-4.9003989171313
30
0
41
1
10
5.60331246061932
20
-5.09487534916926
30
0
41
1
10
5.95511453304673
20
-5.18208744346293
30
0
41
1
10
7.00491108060913
20
-5.4106103381402
30
0
41
1
10
7.6990851768623
20
-5.5194975165218
30
0
41
1
10
9.08534036429126
20
-5.64832898139306
30
0
41
1
10
9.77720441242172
20
-5.66833428021476
30
0
41
1
10
10.8116847221886
20
-5.63107136112603
30
0
41
1
10
11.1518728144651
20
-5.60805617475069
30
0
41
1
10
11.4932952838181
20
-5.57421680245162
30
0
0
SPLINE
5
D4
100
AcDbEntity
8
1
62
256
6
ByLayer
370
18
48
1
60
0
100
AcDbSpline
70
4
71
3
72
18
73
14
40
0
40
0
40
0
40
0
40
0.221246242381317
40
0.221246242381317
40
0.509139937618184
40
0.509139937618184
40
0.581113361427404
40
0.581113361427404
40
0.653086785236623
40
0.653086785236623
40
0.797033632855063
40
0.797033632855063
40
1
40
1
40
1
40
1
41
1
10
54.8014147301388
20
0.0035213020643994
30
0
41
1
10
55.3335391000497
20
-0.313551824640285
30
0
41
1
10
55.8647852883437
20
-0.630006478832684
30
0
41
1
10
57.0892193325433
20
-1.35010584537807
30
0
41
1
10
57.7834704645745
20
-1.75047549062987
30
0
41
1
10
58.6586700623354
20
-2.23386340829293
30
0
41
1
10
58.8342924505862
20
-2.3298014105109
30
0
41
1
10
59.1843628168032
20
-2.51862351680475
30
0
41
1
10
59.3590108728365
20
-2.61162075307379
30
0
41
1
10
59.8820060913027
20
-2.88609466669089
30
0
41
1
10
60.2293885805409
20
-3.06306062326536
30
0
41
1
10
61.0649476484146
20
-3.47323381510569
30
0
41
1
10
61.5525034136494
20
-3.69975193437156
30
0
41
1
10
62.0401618398139
20
-3.91100327319722
30
0
0
SPLINE
5
D5
100
AcDbEntity
8
1
62
256
6
ByLayer
370
13
48
1
60
0
100
AcDbSpline
70
4
71
3
72
24
73
20
40
0
40
0
40
0
40
0
40
0.06868352884543
40
0.06868352884543
40
0.301512646634071
40
0.301512646634071
40
0.359719926081232
40
0.359719926081232
40
0.417927205528394
40
0.417927205528394
40
0.534341764422715
40
0.534341764422715
40
0.76717088221136
40
0.76717088221136
40
0.883585441105679
40
0.883585441105679
40
0.94179272055284
40
0.94179272055284
40
1
40
1
40
1
40
1
41
1
10
62.0401618384077
20
-3.91100327258801
30
0
41
1
10
62.2442130210415
20
-3.99939728613018
30
0
41
1
10
62.4482821779739
20
-4.08511832879705
30
0
41
1
10
63.3446517555672
20
-4.44910836415031
30
0
41
1
10
64.0383172546259
20
-4.69787934842628
30
0
41
1
10
64.9126865972362
20
-4.96159638842477
30
0
41
1
10
65.0881808095762
20
-5.01204298863524
30
0
41
1
10
65.4385133262507
20
-5.10762578678469
30
0
41
1
10
65.6133453678042
20
-5.15277118120264
30
0
41
1
10
66.1370514857904
20
-5.2801936065425
30
0
41
1
10
66.485132823368
20
-5.35444690728406
30
0
41
1
10
67.5279639752315
20
-5.54450541670127
30
0
41
1
10
68.2214420763913
20
-5.62770740153763
30
0
41
1
10
69.2651716884114
20
-5.68484609142891
30
0
41
1
10
69.6136889204183
20
-5.69260549600395
30
0
41
1
10
70.1381214684445
20
-5.68697253630091
30
0
41
1
10
70.3132915345357
20
-5.68221195721057
30
0
41
1
10
70.6639289627091
20
-5.66688957067137
30
0
41
1
10
70.8391822171454
20
-5.65606471101447
30
0
41
1
10
71.0144161178016
20
-5.64293536959815
30
0
0
SPLINE
5
D6
100
AcDbEntity
8
1
62
256
6
ByLayer
370
18
48
1
60
0
100
AcDbSpline
70
4
71
3
72
24
73
20
40
0
40
0
40
0
40
0
40
0.249999999999993
40
0.249999999999993
40
0.374999999999998
40
0.374999999999998
40
0.500000000000003
40
0.500000000000003
40
0.625000000000008
40
0.625000000000008
40
0.750000000000013
40
0.750000000000013
40
0.81250000000001
40
0.81250000000001
40
0.875000000000006
40
0.875000000000006
40
0.937500000000003
40
0.937500000000003
40
1
40
1
40
1
40
1
41
1
10
70.2825384583309
20
1.64579368819517
30
0
41
1
10
70.4813825200856
20
1.68235338985485
30
0
41
1
10
70.6796465301238
20
1.72438486568495
30
0
41
1
10
70.9741307758214
20
1.80238089952309
30
0
41
1
10
71.0714539515943
20
1.8308263774739
30
0
41
1
10
71.2637295067088
20
1.89476411109652
30
0
41
1
10
71.35894981262
20
1.9303359755383
30
0
41
1
10
71.5436133160721
20
2.01143729498227
30
0
41
1
10
71.6332717833159
20
2.05687334609735
30
0
41
1
10
71.80356518436
20
2.16456694211874
30
0
41
1
10
71.8847789543393
20
2.22730458498245
30
0
41
1
10
71.9869968849303
20
2.33989004522044
30
0
41
1
10
72.0179988010826
20
2.38097833664503
30
0
41
1
10
72.0690600455846
20
2.4679248328379
30
0
41
1
10
72.089496686624
20
2.51412416942597
30
0
41
1
10
72.1181621653275
20
2.61312942966995
30
0
41
1
10
72.1256903093247
20
2.66369059387483
30
0
41
1
10
72.1284629178271
20
2.76573439871481
30
0
41
1
10
72.1235794790395
20
2.81771935469843
30
0
41
1
10
72.1139775112131
20
2.86790497579128
30
0
0
SPLINE
5
D7
100
AcDbEntity
8
1
62
256
6
ByLayer
370
18
48
1
60
0
100
AcDbSpline
70
4
71
3
72
14
73
10
40
0
40
0
40
0
40
0
40
0.0442181713714007
40
0.0442181713714007
40
0.40652946778251
40
0.40652946778251
40
0.76884076419362
40
0.76884076419362
40
1
40
1
40
1
40
1
41
1
10
40.0147891067564
20
-5.57254532054159
30
0
41
1
10
39.9293242665928
20
-5.57242461560253
30
0
41
1
10
39.8437799318178
20
-5.57163161844539
30
0
41
1
10
39.0565267941941
20
-5.55812268252237
30
0
41
1
10
38.3569828236579
20
-5.50086628154574
30
0
41
1
10
36.9536628044143
20
-5.29796279379462
30
0
41
1
10
36.2576337357992
20
-5.15350123776784
30
0
41
1
10
35.1219028587996
20
-4.85336092039722
30
0
41
1
10
34.6803547013423
20
-4.72066499236604
30
0
41
1
10
34.2386508224697
20
-4.57319651385058
30
0
0
SPLINE
5
D8
100
AcDbEntity
8
1
62
256
6
ByLayer
370
13
48
1
60
0
100
AcDbSpline
70
4
71
3
72
28
73
24
40
0
40
0
40
0
40
0
40
0.0566846118282309
40
0.0566846118282309
40
0.213277463698547
40
0.213277463698547
40
0.252425676666126
40
0.252425676666126
40
0.291573889633705
40
0.291573889633705
40
0.369870315568863
40
0.369870315568863
40
0.683056019309493
40
0.683056019309493
40
0.722204232277072
40
0.722204232277072
40
0.761352445244651
40
0.761352445244651
40
0.839648871179808
40
0.839648871179808
40
0.996241723050121
40
0.996241723050121
40
1
40
1
40
1
40
1
41
1
10
34.2386508224435
20
-4.57319651384179
30
0
41
1
10
33.9880427353942
20
-4.48952780485217
30
0
41
1
10
33.7373845208411
20
-4.4011037378425
30
0
41
1
10
32.7934141922934
20
-4.05121269381362
30
0
41
1
10
32.0982368471581
20
-3.75961369803949
30
0
41
1
10
31.2217844855357
20
-3.35653024662423
30
0
41
1
10
31.0463376062348
20
-3.27409249323935
30
0
41
1
10
30.6965537715574
20
-3.10661849818834
30
0
41
1
10
30.5219893405826
20
-3.02146865458218
30
0
41
1
10
29.9991785632427
20
-2.76198042990521
30
0
41
1
10
29.6517882024057
20
-2.58363105584249
30
0
41
1
10
27.917956606035
20
-1.6694818400583
30
0
41
1
10
26.5400759418588
20
-0.86764018496703
30
0
41
1
10
24.9633641510867
20
0.0526018266760673
30
0
41
1
10
24.7877084898469
20
0.155145002724311
30
0
41
1
10
24.4376185632733
20
0.359211981902547
30
0
41
1
10
24.2629248000449
20
0.460888134319418
30
0
41
1
10
23.7397295629407
20
0.764557893536818
30
0
41
1
10
23.3921110961581
20
0.965188227668904
30
0
41
1
10
22.3511942376133
20
1.55901462256554
30
0
41
1
10
21.6597489746093
20
1.94403598210488
30
0
41
1
10
20.9501370255182
20
2.32035355127388
30
0
41
1
10
20.9335044154274
20
2.32916356513434
30
0
41
1
10
20.9168708740347
20
2.33796343780327
30
0
0
SPLINE
5
D9
100
AcDbEntity
8
1
62
256
6
ByLayer
370
18
48
1
60
0
100
AcDbSpline
70
4
71
3
72
20
73
16
40
0
40
0
40
0
40
0
40
0.249999999999997
40
0.249999999999997
40
0.499999999999993
40
0.499999999999993
40
0.624999999999994
40
0.624999999999994
40
0.749999999999994
40
0.749999999999994
40
0.874999999999995
40
0.874999999999995
40
0.937499999999997
40
0.937499999999997
40
1
40
1
40
1
40
1
41
1
10
72.1139775112129
20
2.86790497579125
30
0
41
1
10
72.0248003486881
20
3.10746029048656
30
0
41
1
10
71.9354464719602
20
3.34613018088717
30
0
41
1
10
71.7566882222843
20
3.82321695101359
30
0
41
1
10
71.6672530597342
20
4.06147955982408
30
0
41
1
10
71.5328280376335
20
4.41750922616197
30
0
41
1
10
71.4879522145726
20
4.5358476620882
30
0
41
1
10
71.3981893600823
20
4.7724683745509
30
0
41
1
10
71.3532991503923
20
4.89073472645265
30
0
41
1
10
71.2634417463992
20
5.12688169981939
30
0
41
1
10
71.2184786225627
20
5.24478271630642
30
0
41
1
10
71.1508709614087
20
5.42081765484775
30
0
41
1
10
71.128297027011
20
5.47930533194352
30
0
41
1
10
71.0831236322391
20
5.59615278855136
30
0
41
1
10
71.060531599836
20
5.65454978581894
30
0
41
1
10
71.0379238716941
20
5.71286813978458
30
0
0
SPLINE
5
DA
100
AcDbEntity
8
1
62
256
6
ByLayer
370
18
48
1
60
0
100
AcDbSpline
70
4
71
3
72
16
73
12
40
0
40
0
40
0
40
0
40
0.547064573506935
40
0.547064573506935
40
0.730216773099213
40
0.730216773099213
40
0.821792872895352
40
0.821792872895352
40
0.913368972691491
40
0.913368972691491
40
1
40
1
40
1
40
1
41
1
10
69.975885985803
20
-5.59053941347642
30
0
41
1
10
68.9378158737107
20
-5.58985596155742
30
0
41
1
10
67.9071674474393
20
-5.48947056478306
30
0
41
1
10
66.5240530246832
20
-5.22913151941611
30
0
41
1
10
66.1764799507689
20
-5.15318473567334
30
0
41
1
10
65.6532739150573
20
-5.02355909276704
30
0
41
1
10
65.4785643310105
20
-4.97773567573589
30
0
41
1
10
65.1283910938838
20
-4.88090632816369
30
0
41
1
10
64.9529688366688
20
-4.82990133686286
30
0
41
1
10
64.6127995852586
20
-4.72631202814068
30
0
41
1
10
64.4477513506772
20
-4.67389981460363
30
0
41
1
10
64.2829637755194
20
-4.61950507044224
30
0
0
SPLINE
5
DB
100
AcDbEntity
8
1
62
256
6
ByLayer
370
13
48
1
60
0
100
AcDbSpline
70
4
71
3
72
26
73
22
40
0
40
0
40
0
40
0
40
0.118252836943993
40
0.118252836943993
40
0.273135420503617
40
0.273135420503617
40
0.350576712283427
40
0.350576712283427
40
0.389297358173331
40
0.389297358173331
40
0.428018004063235
40
0.428018004063235
40
0.737783171182463
40
0.737783171182463
40
0.81522446296227
40
0.81522446296227
40
0.853945108852173
40
0.853945108852173
40
0.892665754742075
40
0.892665754742075
40
1
40
1
40
1
40
1
41
1
10
64.2829637755063
20
-4.61950507043792
30
0
41
1
10
63.7509754311554
20
-4.44390099434091
30
0
41
1
10
63.2217037058351
20
-4.24763478239231
30
0
41
1
10
62.0011329856057
20
-3.75219993702348
30
0
41
1
10
61.3103315585826
20
-3.44003900637094
30
0
41
1
10
60.2702421104651
20
-2.93289426744809
30
0
41
1
10
59.9228879208953
20
-2.75733970999883
30
0
41
1
10
59.3999837979308
20
-2.4853858126327
30
0
41
1
10
59.2253741725759
20
-2.39329581787564
30
0
41
1
10
58.8753999519478
20
-2.20642401091857
30
0
41
1
10
58.6998576302461
20
-2.11154252431066
30
0
41
1
10
57.1252007832961
20
-1.25144887405304
30
0
41
1
10
55.748610436375
20
-0.435364167230574
30
0
41
1
10
54.0154210427544
20
0.57738289834839
30
0
41
1
10
53.6681375750759
20
0.779522838146789
30
0
41
1
10
53.1453768676551
20
1.08061909774654
30
0
41
1
10
52.9708128289807
20
1.1806246915101
30
0
41
1
10
52.6209923581661
20
1.37979165050726
30
0
41
1
10
52.4454890904685
20
1.47913283279493
30
0
41
1
10
51.7851276065981
20
1.85005490086306
30
0
41
1
10
51.3025670299813
20
2.1145235830852
30
0
41
1
10
50.8215226481075
20
2.36922745898562
30
0
0
SPLINE
5
DC
100
AcDbEntity
8
1
62
256
6
ByLayer
370
18
48
1
60
0
100
AcDbSpline
70
4
71
3
72
14
73
10
40
0
40
0
40
0
40
0
40
0.281607304563099
40
0.281607304563099
40
0.640803652281551
40
0.640803652281551
40
0.820401826140776
40
0.820401826140776
40
1
40
1
40
1
40
1
41
1
10
10.0720427370817
20
-5.55455691489155
30
0
41
1
10
9.52812844296986
20
-5.55399949380143
30
0
41
1
10
8.98550582031569
20
-5.52634721709742
30
0
41
1
10
7.74903364880973
20
-5.40251008997228
30
0
41
1
10
7.0549125227019
20
-5.28955744706764
30
0
41
1
10
6.00544693458582
20
-5.05644836853841
30
0
41
1
10
5.65380165337069
20
-4.96795937175997
30
0
41
1
10
4.95202835778042
20
-4.77145506634886
30
0
41
1
10
4.60131571965812
20
-4.66333720070472
30
0
41
1
10
4.25032268950156
20
-4.54566496429777
30
0
0
SPLINE
5
DD
100
AcDbEntity
8
1
62
256
6
ByLayer
370
18
48
1
60
0
100
AcDbSpline
70
4
71
3
72
18
73
14
40
0
40
0
40
0
40
0
40
0.25
40
0.25
40
0.5
40
0.5
40
0.625
40
0.625
40
0.75
40
0.75
40
0.875
40
0.875
40
1
40
1
40
1
40
1
41
1
10
10.5285021062647
20
-0.166348785690047
30
0
41
1
10
9.98094752665364
20
0.151569791068027
30
0
41
1
10
9.44169181383054
20
0.476800383707371
30
0
41
1
10
8.37297847548587
20
1.12998211502048
30
0
41
1
10
7.84364483910812
20
1.4576232368569
30
0
41
1
10
7.05449994123404
20
1.94650461115526
30
0
41
1
10
6.79231140127447
20
2.10905521655178
30
0
41
1
10
6.26977354291429
20
2.43305507466823
30
0
41
1
10
6.00875947261579
20
2.5949087278585
30
0
41
1
10
5.49243681819641
20
2.91568307607039
30
0
41
1
10
5.2376808877986
20
3.07424482531016
30
0
41
1
10
4.73699399156044
20
3.38815825856807
30
0
41
1
10
4.49100534301002
20
3.54350867871148
30
0
41
1
10
4.25130412154903
20
3.69783963974334
30
0
0
SPLINE
5
DE
100
AcDbEntity
8
1
62
256
6
ByLayer
370
18
48
1
60
0
100
AcDbSpline
70
4
71
3
72
58
73
54
40
0
40
0
40
0
40
0
40
0.0397962356904749
40
0.0397962356904749
40
0.0795924713809498
40
0.0795924713809498
40
0.119388707071425
40
0.119388707071425
40
0.1591849427619
40
0.1591849427619
40
0.198981178452375
40
0.198981178452375
40
0.238777414142849
40
0.238777414142849
40
0.278573649833324
40
0.278573649833324
40
0.318369885523799
40
0.318369885523799
40
0.358166121214274
40
0.358166121214274
40
0.397962356904749
40
0.397962356904749
40
0.437758592595224
40
0.437758592595224
40
0.477554828285699
40
0.477554828285699
40
0.517351063976174
40
0.517351063976174
40
0.557147299666649
40
0.557147299666649
40
0.596943535357124
40
0.596943535357124
40
0.636739771047598
40
0.636739771047598
40
0.676536006738073
40
0.676536006738073
40
0.716332242428548
40
0.716332242428548
40
0.756128478119023
40
0.756128478119023
40
0.795924713809498
40
0.795924713809498
40
0.835720949499973
40
0.835720949499973
40
0.875517185190448
40
0.875517185190448
40
0.915313420880923
40
0.915313420880923
40
0.955109656571398
40
0.955109656571398
40
0.994905892261873
40
0.994905892261873
40
1
40
1
40
1
40
1
41
1
10
10.5286248308645
20
-0.166426737030946
30
0
41
1
10
10.8136498670096
20
-0.332657307071401
30
0
41
1
10
11.0977829045783
20
-0.497535558173269
30
0
41
1
10
11.6644629294798
20
-0.824896890123767
30
0
41
1
10
11.9469889441731
20
-0.987501147666336
30
0
41
1
10
12.5108165460177
20
-1.30967473133666
30
0
41
1
10
12.7919517115673
20
-1.46942259778675
30
0
41
1
10
13.3545073141417
20
-1.78302060442596
30
0
41
1
10
13.6357625701133
20
-1.93726750421314
30
0
41
1
10
14.1981777789687
20
-2.2411239512555
30
0
41
1
10
14.4793227405351
20
-2.39047921536212
30
0
41
1
10
15.0418733176049
20
-2.68321244746073
30
0
41
1
10
15.323667934396
20
-2.82608066054246
30
0
41
1
10
15.8887737607368
20
-3.1045616165469
30
0
41
1
10
16.1718982678644
20
-3.24061747107385
30
0
41
1
10
16.7397855593063
20
-3.50416350472455
30
0
41
1
10
17.0250090153366
20
-3.6322737692476
30
0
41
1
10
17.5933441403504
20
-3.87693021017421
30
0
41
1
10
17.8769139653601
20
-3.99381811790411
30
0
41
1
10
18.4426215155226
20
-4.21703143530189
30
0
41
1
10
18.7246831574902
20
-4.32245418286041
30
0
41
1
10
19.2876299930747
20
-4.52181096510122
30
0
41
1
10
19.5686428632714
20
-4.61567727983095
30
0
41
1
10
20.1311643195048
20
-4.79133880838265
30
0
41
1
10
20.4124064884092
20
-4.8734503939128
30
0
41
1
10
20.9749973073385
20
-5.02327434338417
30
0
41
1
10
21.2562527950313
20
-5.09158326732518
30
0
41
1
10
21.8196231051449
20
-5.21554750918273
30
0
41
1
10
22.1020516737082
20
-5.27135488554416
30
0
41
1
10
22.6683051870679
20
-5.36921826058284
30
0
41
1
10
22.9522586516227
20
-5.41032860382538
30
0
41
1
10
23.5218291300951
20
-5.47857446820808
30
0
41
1
10
23.8063413412523
20
-5.50549524276329
30
0
41
1
10
24.3736862358863
20
-5.54572350054517
30
0
41
1
10
24.6566876784466
20
-5.55861962285201
30
0
41
1
10
25.2212565310496
20
-5.56787630760076
30
0
41
1
10
25.5028872006123
20
-5.56503555992452
30
0
41
1
10
26.0652561648304
20
-5.54579926481537
30
0
41
1
10
26.3464338981469
20
-5.5300221064999
30
0
41
1
10
26.9089867566555
20
-5.48261878920576
30
0
41
1
10
27.1903305387652
20
-5.4504648950718
30
0
41
1
10
27.7532888333043
20
-5.37285545219785
30
0
41
1
10
28.034719695875
20
-5.32708466649828
30
0
41
1
10
28.5991190060371
20
-5.22354436707241
30
0
41
1
10
28.882118921517
20
-5.16470679264921
30
0
41
1
10
29.4499502655249
20
-5.03086253801857
30
0
41
1
10
29.7353434269561
20
-4.95656548133636
30
0
41
1
10
30.304446858596
20
-4.79625499418248
30
0
41
1
10
30.5880714499547
20
-4.71066601094483
30
0
41
1
10
31.1542154771674
20
-4.5264104832857
30
0
41
1
10
31.4366100597368
20
-4.42798321269709
30
0
41
1
10
31.7545642917731
20
-4.31093857613533
30
0
41
1
10
31.7906343705851
20
-4.29756804536314
30
0
41
1
10
31.8266946136694
20
-4.28410976328144
30
0
0
SPLINE
5
DF
100
AcDbEntity
8
1
62
256
6
ByLayer
370
18
48
1
60
0
100
AcDbSpline
70
4
71
3
72
26
73
22
40
0
40
0
40
0
40
0
40
0.0867573605612162
40
0.0867573605612162
40
0.178081624505095
40
0.178081624505095
40
0.269405888448973
40
0.269405888448973
40
0.360730152392852
40
0.360730152392852
40
0.45205441633673
40
0.45205441633673
40
0.543378680280609
40
0.543378680280609
40
0.634702944224488
40
0.634702944224488
40
0.726027208168367
40
0.726027208168367
40
0.817351472112245
40
0.817351472112245
40
1
40
1
40
1
40
1
41
1
10
55.52584486336
20
5.57798460629829
30
0
41
1
10
55.7967322069387
20
5.57177484796935
30
0
41
1
10
56.0672402627405
20
5.55877868860685
30
0
41
1
10
56.621481538088
20
5.51952692255077
30
0
41
1
10
56.9053850918583
20
5.49324750719435
30
0
41
1
10
57.4738449530973
20
5.42459674263139
30
0
41
1
10
57.7581935424345
20
5.38227203491042
30
0
41
1
10
58.3273327162321
20
5.28255805759704
30
0
41
1
10
58.6123205364664
20
5.22516631313368
30
0
41
1
10
59.1817353559791
20
5.09692392466718
30
0
41
1
10
59.4663740685259
20
5.02633172913929
30
0
41
1
10
60.0353127374726
20
4.87273679489823
30
0
41
1
10
60.3196303256339
20
4.78986196418484
30
0
41
1
10
60.887993834708
20
4.61155332703822
30
0
41
1
10
61.1720096512916
20
4.5158269861532
30
0
41
1
10
61.7417513914118
20
4.31189436835931
30
0
41
1
10
62.0273406868129
20
4.20353311386711
30
0
41
1
10
62.595474683596
20
3.97696243334292
30
0
41
1
10
62.8785147752283
20
3.85848640037213
30
0
41
1
10
63.7253657995988
20
3.48833397798728
30
0
41
1
10
64.2887971051486
20
3.22444871499152
30
0
41
1
10
64.8512745191401
20
2.94464460464224
30
0
0
SPLINE
5
E0
100
AcDbEntity
8
1
62
256
6
ByLayer
370
18
48
1
60
0
100
AcDbSpline
70
4
71
3
72
20
73
16
40
0
40
0
40
0
40
0
40
0.249999999999997
40
0.249999999999997
40
0.499999999999993
40
0.499999999999993
40
0.624999999999994
40
0.624999999999994
40
0.749999999999995
40
0.749999999999995
40
0.874999999999995
40
0.874999999999995
40
0.937499999999998
40
0.937499999999998
40
1
40
1
40
1
40
1
41
1
10
72.1139775112129
20
-2.86790497579133
30
0
41
1
10
72.0248003486881
20
-3.10746029048664
30
0
41
1
10
71.9354464719601
20
-3.34613018088723
30
0
41
1
10
71.7566882222843
20
-3.82321695101365
30
0
41
1
10
71.6672530597342
20
-4.06147955982414
30
0
41
1
10
71.5328280376335
20
-4.41750922616203
30
0
41
1
10
71.4879522145727
20
-4.53584766208823
30
0
41
1
10
71.3981893600824
20
-4.77246837455095
30
0
41
1
10
71.3532991503923
20
-4.89073472645268
30
0
41
1
10
71.2634417463992
20
-5.12688169981942
30
0
41
1
10
71.2184786225627
20
-5.24478271630645
30
0
41
1
10
71.1508709614087
20
-5.42081765484775
30
0
41
1
10
71.128297027011
20
-5.47930533194355
30
0
41
1
10
71.0831236322391
20
-5.59615278855139
30
0
41
1
10
71.060531599836
20
-5.65454978581897
30
0
41
1
10
71.037923871694
20
-5.71286813978458
30
0
0
SPLINE
5
E1
100
AcDbEntity
8
1
62
256
6
ByLayer
370
18
48
1
60
0
100
AcDbSpline
70
4
71
3
72
92
73
88
40
0
40
0
40
0
40
0
40
0.0100966774961415
40
0.0100966774961415
40
0.0335147068100854
40
0.0335147068100854
40
0.0569327361240294
40
0.0569327361240294
40
0.0803507654379733
40
0.0803507654379733
40
0.103768794751917
40
0.103768794751917
40
0.127186824065861
40
0.127186824065861
40
0.150604853379805
40
0.150604853379805
40
0.174022882693749
40
0.174022882693749
40
0.197440912007693
40
0.197440912007693
40
0.220858941321637
40
0.220858941321637
40
0.244276970635581
40
0.244276970635581
40
0.267694999949525
40
0.267694999949525
40
0.291113029263469
40
0.291113029263469
40
0.314531058577412
40
0.314531058577412
40
0.337949087891356
40
0.337949087891356
40
0.361367117205301
40
0.361367117205301
40
0.384785146519244
40
0.384785146519244
40
0.408203175833188
40
0.408203175833188
40
0.431621205147132
40
0.431621205147132
40
0.455039234461076
40
0.455039234461076
40
0.47845726377502
40
0.47845726377502
40
0.501875293088964
40
0.501875293088964
40
0.525293322402908
40
0.525293322402908
40
0.548711351716852
40
0.548711351716852
40
0.572129381030796
40
0.572129381030796
40
0.59554741034474
40
0.59554741034474
40
0.618965439658684
40
0.618965439658684
40
0.642383468972627
40
0.642383468972627
40
0.665801498286571
40
0.665801498286571
40
0.689219527600515
40
0.689219527600515
40
0.712637556914459
40
0.712637556914459
40
0.736055586228403
40
0.736055586228403
40
0.759473615542347
40
0.759473615542347
40
0.806309674170235
40
0.806309674170235
40
0.829727703484179
40
0.829727703484179
40
0.853145732798122
40
0.853145732798122
40
0.876563762112066
40
0.876563762112066
40
0.89998179142601
40
0.89998179142601
40
0.923399820739954
40
0.923399820739954
40
0.946817850053898
40
0.946817850053898
40
0.970235879367842
40
0.970235879367842
40
0.993653908681785
40
0.993653908681785
40
1
40
1
40
1
40
1
41
1
10
61.8234829681548
20
-4.27930806528087
30
0
41
1
10
61.700490563278
20
-4.3255492230978
30
0
41
1
10
61.5774418794147
20
-4.37072151945517
30
0
41
1
10
61.1693797792525
20
-4.51673441219276
30
0
41
1
10
60.885123966623
20
-4.61250048989689
30
0
41
1
10
60.316302906523
20
-4.79085851918632
30
0
41
1
10
60.031770960842
20
-4.87374737423735
30
0
41
1
10
59.462432670362
20
-5.02734064366575
30
0
41
1
10
59.1776097196924
20
-5.09791879303231
30
0
41
1
10
58.6078556167485
20
-5.22610519344482
30
0
41
1
10
58.3225381705947
20
-5.28347324374826
30
0
41
1
10
57.7542529231635
20
-5.38288609748571
30
0
41
1
10
57.470911783932
20
-5.424975302142
30
0
41
1
10
56.9056802383052
20
-5.49318741796534
30
0
41
1
10
56.6239972900941
20
-5.51926584158335
30
0
41
1
10
56.0609265270493
20
-5.55930722563346
30
0
41
1
10
55.7794416253039
20
-5.57262978699805
30
0
41
1
10
55.2164666244802
20
-5.58456992781677
30
0
41
1
10
54.9349467556989
20
-5.58267528657433
30
0
41
1
10
54.3718752885238
20
-5.56372159376201
30
0
41
1
10
54.0904028367726
20
-5.54776424253714
30
0
41
1
10
53.5257370877047
20
-5.50130674041273
30
0
41
1
10
53.2427357208297
20
-5.47093391503515
30
0
41
1
10
52.6749516732869
20
-5.39352037307296
30
0
41
1
10
52.3898108382026
20
-5.34683713357262
30
0
41
1
10
51.8201634921853
20
-5.24099716482223
30
0
41
1
10
51.5360835371517
20
-5.18176047649459
30
0
41
1
10
50.969284176088
20
-5.04942025674097
30
0
41
1
10
50.6865902426886
20
-4.9759310507599
30
0
41
1
10
50.1223288435328
20
-4.81714056097638
30
0
41
1
10
49.8409990325508
20
-4.73168005616876
30
0
41
1
10
49.2780977568337
20
-4.54908958122743
30
0
41
1
10
48.9966265729713
20
-4.45178389178392
30
0
41
1
10
48.433420313308
20
-4.24477156005977
30
0
41
1
10
48.1516861118868
20
-4.13573852814861
30
0
41
1
10
47.5881743229006
20
-3.90673415605755
30
0
41
1
10
47.3060170116279
20
-3.7869832045665
30
0
41
1
10
46.7398189278454
20
-3.53719580362545
30
0
41
1
10
46.455830625738
20
-3.4068668976966
30
0
41
1
10
45.8862878334218
20
-3.13719493212812
30
0
41
1
10
45.6008561248894
20
-2.99720668284297
30
0
41
1
10
45.032912429785
20
-2.71136438483856
30
0
41
1
10
44.7496525859422
20
-2.56527085383718
30
0
41
1
10
44.1842579058021
20
-2.26736513626267
30
0
41
1
10
43.9020511301622
20
-2.11584919696452
30
0
41
1
10
43.3388846913726
20
-1.8071624611249
30
0
41
1
10
43.0578374579435
20
-1.65009090113324
30
0
41
1
10
42.4951554167705
20
-1.33294026907933
30
0
41
1
10
42.2136636135467
20
-1.17264839368301
30
0
41
1
10
41.6504013277601
20
-0.849384177002634
30
0
41
1
10
41.3687660697416
20
-0.68596935663183
30
0
41
1
10
40.8046610622842
20
-0.356540542743346
30
0
41
1
10
40.5217853532695
20
-0.191189758321656
30
0
41
1
10
39.9542791714848
20
0.140018181441008
30
0
41
1
10
39.6696169824681
20
0.30598718815375
30
0
41
1
10
39.0990427591865
20
0.638396143191443
30
0
41
1
10
38.8147100694861
20
0.804263297742438
30
0
41
1
10
38.245792489397
20
1.13170118413621
30
0
41
1
10
37.9613275867398
20
1.29366311669423
30
0
41
1
10
37.3923879000268
20
1.61426183941171
30
0
41
1
10
37.1079430245808
20
1.77279871156313
30
0
41
1
10
36.5389463506125
20
2.08566058673728
30
0
41
1
10
36.2533688498555
20
2.23931738251804
30
0
41
1
10
35.6836870917132
20
2.53956463742267
30
0
41
1
10
35.3996632699501
20
2.68606194813336
30
0
41
1
10
34.8333514630589
20
2.97110377506246
30
0
41
1
10
34.5513582867405
20
3.10960611561916
30
0
41
1
10
33.7057672627746
20
3.51076559049315
30
0
41
1
10
33.1425524838549
20
3.76099698486704
30
0
41
1
10
32.2985749361274
20
4.10457664668644
30
0
41
1
10
32.0171726440147
20
4.21404238204855
30
0
41
1
10
31.4529967118759
20
4.4221634688293
30
0
41
1
10
31.1703838399487
20
4.52089525452146
30
0
41
1
10
30.6038002832681
20
4.70578620759929
30
0
41
1
10
30.3199396295453
20
4.79166396351982
30
0
41
1
10
29.7504047069927
20
4.95253789967259
30
0
41
1
10
29.4647887003758
20
5.02711469493343
30
0
41
1
10
28.896517435515
20
5.1615505937533
30
0
41
1
10
28.6132994612852
20
5.2207321712861
30
0
41
1
10
28.048476280995
20
5.32476159334547
30
0
41
1
10
27.7668564118512
20
5.37076174133645
30
0
41
1
10
27.2035261798421
20
5.44885866363256
30
0
41
1
10
26.9219979348624
20
5.48125997446965
30
0
41
1
10
26.3590854699843
20
5.529206774058
30
0
41
1
10
26.0777199976031
20
5.54517047320471
30
0
41
1
10
25.7201252770326
20
5.55765411078974
30
0
41
1
10
25.6438497261189
20
5.5598178607305
30
0
41
1
10
25.5675379723806
20
5.56147015563644
30
0
0
SPLINE
5
E2
100
AcDbEntity
8
SK1
62
256
6
ByLayer
370
18
48
1
60
0
100
AcDbSpline
70
4
71
3
72
10
73
6
40
0
40
0
40
0
40
0
40
0.5
40
0.5
40
1
40
1
40
1
40
1
41
1
10
-45
20
3.33942365488701
30
0
41
1
10
-44.7879213063754
20
3.73195642610153
30
0
41
1
10
-44.5722737898406
20
4.12260199239338
30
0
41
1
10
-44.1380829418105
20
4.90236180880206
30
0
41
1
10
-43.9194308847408
20
5.29141856448885
30
0
41
1
10
-43.7
20
5.68006347362228
30
0
0
SPLINE
5
E3
100
AcDbEntity
8
SK1
62
256
6
ByLayer
370
18
48
1
60
0
100
AcDbSpline
70
4
71
3
72
14
73
10
40
0
40
0
40
0
40
0
40
0.5
40
0.5
40
0.75
40
0.75
40
0.875
40
0.875
40
1
40
1
40
1
40
1
41
1
10
-43.7
20
5.68006347362231
30
0
41
1
10
-43.6789021434844
20
5.71743093234684
30
0
41
1
10
-43.6585587767126
20
5.75442591288399
30
0
41
1
10
-43.6303722414292
20
5.80752754693995
30
0
41
1
10
-43.6214260646625
20
5.8247292752946
30
0
41
1
10
-43.6102968606991
20
5.84712659158364
30
0
41
1
10
-43.6069058574072
20
5.85415432352309
30
0
41
1
10
-43.6017309986994
20
5.86570021896384
30
0
41
1
10
-43.6
20
5.87012697388667
30
0
41
1
10
-43.6
20
5.87158637707125
30
0
0
SPLINE
5
E4
100
AcDbEntity
8
SK1
62
256
6
ByLayer
370
18
48
1
60
0
100
AcDbSpline
70
4
71
3
72
10
73
6
40
0
40
0
40
0
40
0
40
0.5
40
0.5
40
1
40
1
40
1
40
1
41
1
10
-45
20
-3.33942365488701
30
0
41
1
10
-44.7879213063754
20
-3.73195642610153
30
0
41
1
10
-44.5722737898406
20
-4.12260199239338
30
0
41
1
10
-44.1380829418105
20
-4.90236180880206
30
0
41
1
10
-43.9194308847408
20
-5.29141856448885
30
0
41
1
10
-43.7
20
-5.68006347362228
30
0
0
SPLINE
5
E5
100
AcDbEntity
8
SK1
62
256
6
ByLayer
370
18
48
1
60
0
100
AcDbSpline
70
4
71
3
72
14
73
10
40
0
40
0
40
0
40
0
40
0.124999999999995
40
0.124999999999995
40
0.249999999999991
40
0.249999999999991
40
0.499999999999991
40
0.499999999999991
40
1
40
1
40
1
40
1
41
1
10
-43.6
20
-5.73109491082377
30
0
41
1
10
-43.6
20
-5.72834374419966
30
0
41
1
10
-43.6017220508865
20
-5.72272406253376
30
0
41
1
10
-43.6068954324577
20
-5.70909592911289
30
0
41
1
10
-43.610237321167
20
-5.70129563364662
30
0
41
1
10
-43.6215324998379
20
-5.67623851825971
30
0
41
1
10
-43.6303471072619
20
-5.65820179261303
30
0
41
1
10
-43.658490206513
20
-5.60258194791396
30
0
41
1
10
-43.678793979422
20
-5.56491439158893
30
0
41
1
10
-43.7
20
-5.52735535813594
30
0
0
SPLINE
5
E6
100
AcDbEntity
8
SK1
62
256
6
ByLayer
370
18
48
1
60
0
100
AcDbSpline
70
4
71
3
72
10
73
6
40
0
40
0
40
0
40
0
40
0.5
40
0.5
40
1
40
1
40
1
40
1
41
1
10
-43.7
20
-5.52735535813594
30
0
41
1
10
-43.9194045553471
20
-5.13875708229591
30
0
41
1
10
-44.1380490457335
20
-4.74971418653422
30
0
41
1
10
-44.5722419213308
20
-3.96995148971786
30
0
41
1
10
-44.7878974798874
20
-3.57929241064812
30
0
41
1
10
-45
20
-3.18671553940067
30
0
0
SPLINE
5
E7
100
AcDbEntity
8
SK1
62
256
6
ByLayer
370
18
48
1
60
0
100
AcDbSpline
70
4
71
3
72
14
73
10
40
0
40
0
40
0
40
0
40
0.499999999999996
40
0.499999999999996
40
0.749999999999998
40
0.749999999999998
40
0.874999999999999
40
0.874999999999999
40
1
40
1
40
1
40
1
41
1
10
-43.7
20
-5.68006347362231
30
0
41
1
10
-43.6789021434844
20
-5.71743093234684
30
0
41
1
10
-43.6585587767126
20
-5.75442591288399
30
0
41
1
10
-43.6303722414292
20
-5.80752754693995
30
0
41
1
10
-43.6214260646625
20
-5.8247292752946
30
0
41
1
10
-43.6102968606991
20
-5.84712659158364
30
0
41
1
10
-43.6069058574072
20
-5.85415432352309
30
0
41
1
10
-43.6017309986994
20
-5.86570021896384
30
0
41
1
10
-43.6
20
-5.87012697388667
30
0
41
1
10
-43.6
20
-5.87158637707125
30
0
0
LINE
5
76
100
AcDbEntity
8
81
62
256
6
ByLayer
370
18
48
1
60
0
100
AcDbLine
10
73
20
0
30
0
11
78
21
0
31
0
39
0
210
0
220
0
230
1
0
LINE
5
77
100
AcDbEntity
8
1
62
256
6
ByLayer
370
18
48
1
60
0
100
AcDbLine
10
3.348418
20
5.809386
30
0
11
0.34204
21
5.807582
31
0
39
0
210
0
220
0
230
1
0
LINE
5
79
100
AcDbEntity
8
1
62
256
6
ByLayer
370
18
48
1
60
0
100
AcDbLine
10
9.882063
20
5.813306
30
0
11
4.392606
21
5.810013
31
0
39
0
210
0
220
0
230
1
0
LINE
5
7A
100
AcDbEntity
8
1
62
256
6
ByLayer
370
18
48
1
60
0
100
AcDbLine
10
39.832625
20
5.831277
30
0
11
39.011325
21
5.830784
31
0
39
0
210
0
220
0
230
1
0
LINE
5
7B
100
AcDbEntity
8
1
62
256
6
ByLayer
370
18
48
1
60
0
100
AcDbLine
10
69.782882
20
5.849247
30
0
11
68.968049
21
5.848758
31
0
39
0
210
0
220
0
230
1
0
LINE
5
7C
100
AcDbEntity
8
1
62
256
6
ByLayer
370
18
48
1
60
0
100
AcDbLine
10
68.968049
20
-5.848758
30
0
11
69.782528
21
-5.849247
31
0
39
0
210
0
220
0
230
1
0
LINE
5
7D
100
AcDbEntity
8
1
62
256
6
ByLayer
370
18
48
1
60
0
100
AcDbLine
10
39.011325
20
-5.830784
30
0
11
39.832633
21
-5.831277
31
0
39
0
210
0
220
0
230
1
0
LINE
5
7E
100
AcDbEntity
8
1
62
256
6
ByLayer
370
18
48
1
60
0
100
AcDbLine
10
4.392606
20
-5.810013
30
0
11
9.882358
21
-5.813307
31
0
39
0
210
0
220
0
230
1
0
LINE
5
7F
100
AcDbEntity
8
1
62
256
6
ByLayer
370
18
48
1
60
0
100
AcDbLine
10
0.34204
20
-5.807582
30
0
11
3.348418
21
-5.809386
31
0
39
0
210
0
220
0
230
1
0
LINE
5
80
100
AcDbEntity
8
SK1
62
256
6
ByLayer
370
18
48
1
60
0
100
AcDbLine
10
-43.556624
20
6
30
0
11
-43.6
21
5.924871
31
0
39
0
210
0
220
0
230
1
0
LINE
5
82
100
AcDbEntity
8
SK1
62
256
6
ByLayer
370
18
48
1
60
0
100
AcDbLine
10
-43.6
20
-5.924871
30
0
11
-43.556624
21
-6
31
0
39
0
210
0
220
0
230
1
0
LINE
5
83
100
AcDbEntity
8
SK1
62
256
6
ByLayer
370
18
48
1
60
0
100
AcDbLine
10
0
20
6
30
0
11
-43.556624
21
6
31
0
39
0
210
0
220
0
230
1
0
LINE
5
84
100
AcDbEntity
8
SK1
62
256
6
ByLayer
370
18
48
1
60
0
100
AcDbLine
10
-43.556624
20
-6
30
0
11
0
21
-6
31
0
39
0
210
0
220
0
230
1
0
LINE
5
85
100
AcDbEntity
8
SK4
62
256
6
ByLayer
370
18
48
0.05
60
0
100
AcDbLine
10
78
20
0
30
0
11
-50
21
0
31
0
39
0
210
0
220
0
230
1
0
LINE
5
87
100
AcDbEntity
8
4
62
256
6
ByLayer
370
18
48
0.05
60
0
100
AcDbLine
10
73
20
0
30
0
11
0
21
0
31
0
39
0
210
0
220
0
230
1
0
LINE
5
89
100
AcDbEntity
8
80
62
256
6
ByLayer
370
18
48
1
60
0
100
AcDbLine
10
0
20
0
30
0
11
-5
21
0
31
0
39
0
210
0
220
0
230
1
0
LINE
5
8A
100
AcDbEntity
8
1
62
256
6
ByLayer
370
13
48
1
60
0
100
AcDbLine
10
0.17096
20
5.903791
30
0
11
0.17096
21
-5.903791
31
0
39
0
210
0
220
0
230
1
0
LINE
5
8B
100
AcDbEntity
8
1
62
256
6
ByLayer
370
13
48
1
60
0
100
AcDbLine
10
72.709692
20
1.047468
30
0
11
71.420045
21
1.047468
31
0
39
0
210
0
220
0
230
1
0
LINE
5
8C
100
AcDbEntity
8
1
62
256
6
ByLayer
370
18
48
1
60
0
100
AcDbLine
10
70.053852
20
-3.278306
30
0
11
72.894228
21
-0.112759
31
0
39
0
210
0
220
0
230
1
0
LINE
5
8D
100
AcDbEntity
8
1
62
256
6
ByLayer
370
18
48
1
60
0
100
AcDbLine
10
73
20
0
30
0
11
70.965057
21
-5.59096
31
0
39
0
210
0
220
0
230
1
0
LINE
5
8E
100
AcDbEntity
8
1
62
256
6
ByLayer
370
13
48
1
60
0
100
AcDbLine
10
71.250587
20
0.701044
30
0
11
72.894228
21
-0.112759
31
0
39
0
210
0
220
0
230
1
0
LINE
5
8F
100
AcDbEntity
8
1
62
256
6
ByLayer
370
18
48
1
60
0
100
AcDbLine
10
72.909438
20
0.310038
30
0
11
72.709692
21
1.047468
31
0
39
0
210
0
220
0
230
1
0
LINE
5
90
100
AcDbEntity
8
1
62
256
6
ByLayer
370
13
48
1
60
0
100
AcDbLine
10
71.420045
20
1.047468
30
0
11
72.909438
21
0.310038
31
0
39
0
210
0
220
0
230
1
0
LINE
5
91
100
AcDbEntity
8
1
62
256
6
ByLayer
370
18
48
1
60
0
100
AcDbLine
10
72.909438
20
-0.310038
30
0
11
72.709692
21
-1.047468
31
0
39
0
210
0
220
0
230
1
0
LINE
5
92
100
AcDbEntity
8
1
62
256
6
ByLayer
370
18
48
1
60
0
100
AcDbLine
10
72.987676
20
0.05529
30
0
11
73
21
0
31
0
39
0
210
0
220
0
230
1
0
LINE
5
93
100
AcDbEntity
8
1
62
256
6
ByLayer
370
18
48
1
60
0
100
AcDbLine
10
4
20
-4.65587
30
0
11
4
21
3.866986
31
0
39
0
210
0
220
0
230
1
0
LINE
5
94
100
AcDbEntity
8
1
62
256
6
ByLayer
370
18
48
1
60
0
100
AcDbLine
10
0
20
-6
30
0
11
0
21
6
31
0
39
0
210
0
220
0
230
1
0
LINE
5
95
100
AcDbEntity
8
1
62
256
6
ByLayer
370
13
48
1
60
0
100
AcDbLine
10
0.34204
20
5.807582
30
0
11
0.34204
21
-5.807582
31
0
39
0
210
0
220
0
230
1
0
LINE
5
96
100
AcDbEntity
8
1
62
256
6
ByLayer
370
18
48
1
60
0
100
AcDbLine
10
73
20
0
30
0
11
72.987676
21
-0.05529
31
0
39
0
210
0
220
0
230
1
0
LINE
5
97
100
AcDbEntity
8
SK1
62
256
6
ByLayer
370
18
48
1
60
0
100
AcDbLine
10
-43.6
20
5.924871
30
0
11
-43.6
21
5.871586
31
0
39
0
210
0
220
0
230
1
0
LINE
5
98
100
AcDbEntity
8
SK1
62
256
6
ByLayer
370
18
48
1
60
0
100
AcDbLine
10
0
20
-6
30
0
11
0
21
6
31
0
39
0
210
0
220
0
230
1
0
LINE
5
99
100
AcDbEntity
8
SK1
62
256
6
ByLayer
370
18
48
1
60
0
100
AcDbLine
10
-43.6
20
-5.924871
30
0
11
-43.6
21
-5.731095
31
0
39
0
210
0
220
0
230
1
0
LINE
5
9A
100
AcDbEntity
8
SK1
62
256
6
ByLayer
370
18
48
1
60
0
100
AcDbLine
10
-45
20
3.339424
30
0
11
-45
21
-3.186716
31
0
39
0
210
0
220
0
230
1
0
LINE
5
9B
100
AcDbEntity
8
SK1
62
256
6
ByLayer
370
13
48
1
60
0
100
AcDbLine
10
-43.7
20
-5.527187
30
0
11
-43.7
21
-5.680063
31
0
39
0
210
0
220
0
230
1
0
LINE
5
9C
100
AcDbEntity
8
SK1
62
256
6
ByLayer
370
18
48
1
60
0
100
AcDbLine
10
-43.556624
20
6
30
0
11
-43.556624
21
-6
31
0
39
0
210
0
220
0
230
1
0
LINE
5
9D
100
AcDbEntity
8
SK1
62
256
6
ByLayer
370
18
48
1
60
0
100
AcDbLine
10
-45
20
-3.186678
30
0
11
-45
21
-3.339424
31
0
39
0
210
0
220
0
230
1
0
MTEXT
5
E8
100
AcDbEntity
8
SK6
62
256
6
ByLayer
370
13
48
1
60
0
100
AcDbMText
10
16.129169
20
38.232694
30
0
210
0
220
0
230
1
1
\W0.7287;R840-1170-50-A1A1220
40
3.5
41
0
44
1.084337
50
0
71
8
72
5
7
iso_b_vert
0
DIMENSION
5
F5
100
AcDbEntity
8
SK2
62
256
6
ByLayer
370
13
48
1
60
0
100
AcDbDimension
2
DimnDraft3D1
10
70.99
20
-16.063398
30
0
11
33.740059
21
-16.063398
31
0
70
32
71
5
72
1
41
1
210
0
220
0
230
1
3
Standard
100
AcDbAlignedDimension
13
0
23
-1.5875
33
0
14
70.99
24
-7.4375
34
0
50
0
100
AcDbRotatedDimension
1001
ACAD
1000
DSTYLE
1002
{
1070
   279
1070
     0
1070
   172
1070
     1
1070
   173
1070
     1
1070
   340
1005
E9
1070
   271
1070
     2
1070
   272
1070
     2
1070
    77
1070
     1
1070
    73
1070
     0
1070
   171
1070
     3
1070
   274
1070
     4
1070
   177
1070
    35
1070
   176
1070
    35
1070
   178
1070
    35
1070
    48
1040
-0.005
1070
    41
1041
3.5
1070
   147
1041
1.75
1070
    42
1041
1.5875
1070
    44
1041
2.0
1070
   140
1041
3.5
1070
   343
1005
0
1070
   344
1005
0
1002
}
0
DIMENSION
5
FF
100
AcDbEntity
8
SK2
62
256
6
ByLayer
370
13
48
1
60
0
100
AcDbDimension
2
DimnDraft3D2
10
73
20
-34.692985
30
0
11
13.3313
21
-34.692985
31
0
70
32
71
5
72
1
41
1
210
0
220
0
230
1
3
Standard
100
AcDbAlignedDimension
13
-45
23
-7.5875
33
0
14
73
24
-1.5875
34
0
50
0
100
AcDbRotatedDimension
1001
ACAD
1000
DSTYLE
1002
{
1070
   279
1070
     0
1070
   172
1070
     1
1070
   173
1070
     1
1070
   340
1005
E9
1070
   271
1070
     2
1070
   272
1070
     2
1070
    77
1070
     1
1070
    73
1070
     0
1070
   171
1070
     3
1070
   274
1070
     4
1070
   177
1070
    35
1070
   176
1070
    35
1070
   178
1070
    35
1070
    48
1040
-0.005
1070
    41
1041
3.5
1070
   147
1041
1.75
1070
    42
1041
1.5875
1070
    44
1041
2.0
1070
   140
1041
3.5
1070
   343
1005
0
1070
   344
1005
0
1002
}
0
DIMENSION
5
109
100
AcDbEntity
8
SK2
62
256
6
ByLayer
370
13
48
1
60
0
100
AcDbDimension
2
DimnDraft3D3
10
73
20
17.459119
30
0
11
42.745
21
17.459119
31
0
70
32
71
5
72
1
41
1
210
0
220
0
230
1
3
Standard
100
AcDbAlignedDimension
13
12.49
23
7.4375
33
0
14
73
24
1.5875
34
0
50
0
100
AcDbRotatedDimension
1001
ACAD
1000
DSTYLE
1002
{
1070
   279
1070
     0
1070
   172
1070
     1
1070
   173
1070
     1
1070
   340
1005
E9
1070
   271
1070
     2
1070
   272
1070
     2
1070
    77
1070
     1
1070
    73
1070
     0
1070
   171
1070
     3
1070
   274
1070
     4
1070
   177
1070
    35
1070
   176
1070
    35
1070
   178
1070
    35
1070
    48
1040
-0.005
1070
    41
1041
3.5
1070
   147
1041
1.75
1070
    42
1041
1.5875
1070
    44
1041
2.0
1070
   140
1041
3.5
1070
   343
1005
0
1070
   344
1005
0
1002
}
0
DIMENSION
5
113
100
AcDbEntity
8
SK2
62
256
6
ByLayer
370
13
48
1
60
0
100
AcDbDimension
2
DimnDraft3D4
10
70.99
20
-18.652503
30
0
11
82.981425
21
-18.652503
31
0
70
32
71
5
72
1
41
1
210
0
220
0
230
1
3
Standard
100
AcDbAlignedDimension
13
73
23
-1.5875
33
0
14
70.99
24
-7.4375
34
0
50
0
100
AcDbRotatedDimension
1001
ACAD
1000
DSTYLE
1002
{
1070
   279
1070
     0
1070
   172
1070
     1
1070
   173
1070
     1
1070
   340
1005
E9
1070
   271
1070
     2
1070
   272
1070
     2
1070
    77
1070
     1
1070
    73
1070
     0
1070
   171
1070
     3
1070
   274
1070
     4
1070
   177
1070
    35
1070
   176
1070
    35
1070
   178
1070
    35
1070
    48
1040
-0.005
1070
    41
1041
3.5
1070
   147
1041
1.75
1070
    42
1041
1.5875
1070
    44
1041
2.0
1070
   140
1041
3.5
1070
   343
1005
0
1070
   344
1005
0
1002
}
0
DIMENSION
5
11D
100
AcDbEntity
8
SK2
62
256
6
ByLayer
370
13
48
1
60
0
100
AcDbDimension
2
DimnDraft3D5
10
70.99
20
-24.343428
30
0
11
10.250676
21
-24.343428
31
0
70
32
71
5
72
1
41
1
210
0
220
0
230
1
3
Standard
100
AcDbAlignedDimension
13
-45
23
-7.5875
33
0
14
70.99
24
-7.4375
34
0
50
0
100
AcDbRotatedDimension
1001
ACAD
1000
DSTYLE
1002
{
1070
   279
1070
     0
1070
   172
1070
     1
1070
   173
1070
     1
1070
   340
1005
E9
1070
   271
1070
     2
1070
   272
1070
     2
1070
    77
1070
     1
1070
    73
1070
     0
1070
   171
1070
     3
1070
   274
1070
     4
1070
   177
1070
    35
1070
   176
1070
    35
1070
   178
1070
    35
1070
    48
1040
-0.005
1070
    41
1041
3.5
1070
   147
1041
1.75
1070
    42
1041
1.5875
1070
    44
1041
2.0
1070
   140
1041
3.5
1070
   343
1005
0
1070
   344
1005
0
1002
}
0
DIMENSION
5
128
100
AcDbEntity
8
SK2
62
256
6
ByLayer
370
13
48
1
60
0
100
AcDbDimension
2
DimnDraft3D6
10
-55.625163
20
6
30
0
11
-56.250163
21
24.47418
31
0
70
33
71
5
72
1
41
1
210
0
220
0
230
1
3
Standard
100
AcDbAlignedDimension
13
-46.5875
23
-6
33
0
14
-46.5875
24
6
34
0
1001
ACAD
1000
DSTYLE
1002
{
1070
   279
1070
     0
1070
    74
1070
     0
1070
   173
1070
     1
1070
   340
1005
E9
1070
   271
1070
     3
1070
   272
1070
     2
1070
    77
1070
     1
1070
    73
1070
     0
1070
   171
1070
     3
1070
   274
1070
     4
1070
   177
1070
    35
1070
   176
1070
    35
1070
   178
1070
    35
1070
    48
1040
-0.005
1070
    41
1041
3.5
1070
   147
1041
1.75
1070
    42
1041
1.5875
1070
    44
1041
2.0
1070
   140
1041
3.5
1070
   343
1005
0
1070
   344
1005
0
1002
}
0
DIMENSION
5
133
100
AcDbEntity
8
2
62
256
6
ByLayer
370
13
48
1
60
0
100
AcDbDimension
2
DimnDraft3D7
10
87.083343
20
5.85
30
0
11
82.458343
21
22.917266
31
0
70
33
71
5
72
1
41
1
210
0
220
0
230
1
3
Standard
100
AcDbAlignedDimension
13
72.5775
23
-5.85
33
0
14
72.5775
24
5.85
34
0
1001
ACAD
1000
DSTYLE
1002
{
1070
   279
1070
     0
1070
    74
1070
     0
1070
   173
1070
     1
1070
   340
1005
E9
1070
   271
1070
     3
1070
   272
1070
     2
1070
    77
1070
     1
1070
    73
1070
     0
1070
   171
1070
     3
1070
   274
1070
     4
1070
   177
1070
    35
1070
   176
1070
    35
1070
   178
1070
    35
1070
    48
1040
-0.005
1070
    41
1041
3.5
1070
   147
1041
1.75
1070
    42
1041
1.5875
1070
    44
1041
2.0
1070
   140
1041
3.5
1070
   343
1005
0
1070
   344
1005
0
1002
}
0
ENDSEC
0
SECTION
2
OBJECTS
0
DICTIONARY
5
19e
330
0
100
AcDbDictionary
280
0
281
1
3
ACAD_GROUP
350
19f
3
ACAD_MLINESTYLE
350
1a0
0
DICTIONARY
5
19f
330
0
100
AcDbDictionary
280
0
281
1
0
DICTIONARY
5
1a0
330
0
100
AcDbDictionary
280
0
281
1
3
Standard
350
18
0
MLINESTYLE
5
18
330
1a0
100
AcDbMlineStyle
2
Standard
70
0
3

62
256
51
90
52
90
71
2
49
-0.5
62
256
6
ByLayer
49
0.5
62
256
6
ByLayer
0
RASTERVARIABLES
5
18c
330

100
AcDbRasterVariables
90
0
70
1
71
1
72
1
0
ENDSEC
0
EOF
