0
SECTION
2
HEADER
9
$ACADVER
1
AC1015
9
$DWGCODEPAGE
3
ANSI_1252
9
$HANDSEED
5
1ab
9
$ANGBASE
50
0
9
$ANGDIR
70
0
9
$ATTMODE
70
1
9
$AUNITS
70
0
9
$AUPREC
70
0
9
$CECOLOR
62
256
9
$CELTSCALE
40
1
9
$CELTYPE
6
ByLayer
9
$CELWEIGHT
370
18
9
$CLAYER
8
0
9
$CMLJUST
70
0
9
$CMLSCALE
40
1
9
$CMLSTYLE
2
Standard
9
$DIMSTYLE
2
Standard
9
$TEXTSIZE
40
0.2
9
$TEXTSTYLE
7
Standard
9
$LUNITS
70
2
9
$LUPREC
70
4
9
$EXTNAMES
290
1
9
$INSUNITS
70
4
9
$LTSCALE
40
1
9
$LWDISPLAY
290
1
9
$PDMODE
70
0
9
$PDSIZE
40
0
9
$PLINEGEN
70
0
0
ENDSEC
0
SECTION
2
CLASSES
0
CLASS
1
RASTERVARIABLES
2
AcDbRasterVariables
3
ISM
90
0
280
0
281
0
0
ENDSEC
0
SECTION
2
TABLES
0
TABLE
2
VPORT
5
1a1
100
AcDbSymbolTable
0
VPORT
5
1
100
AcDbSymbolTableRecord
100
AcDbViewportTableRecord
2
*Active
70
0
10
0
20
0
11
1
21
1
12
-1
22
1
13
0
23
0
14
0.5
24
0.5
15
10
25
10
16
0
26
0
36
1
17
0
27
0
37
0
0
ENDTAB
0
TABLE
2
LTYPE
5
1a2
100
AcDbSymbolTable
0
LTYPE
5
14
100
AcDbSymbolTableRecord
100
AcDbLinetypeTableRecord
70
0
2
ByBlock
3

72
65
73
0
40
0
0
LTYPE
5
15
100
AcDbSymbolTableRecord
100
AcDbLinetypeTableRecord
70
0
2
ByLayer
3

72
65
73
0
40
0
0
LTYPE
5
16
100
AcDbSymbolTableRecord
100
AcDbLinetypeTableRecord
70
0
2
CONTINUOUS
3
Solid line
72
65
73
0
40
0
0
LTYPE
5
6A
100
AcDbSymbolTableRecord
100
AcDbLinetypeTableRecord
70
0
2
CENTER
3
____ _ ____ _ ____ _ ____
72
65
73
4
40
47.5
49
22
74
0
49
-8.5
74
0
49
8.5
74
0
49
-8.5
74
0
0
LTYPE
5
6B
100
AcDbSymbolTableRecord
100
AcDbLinetypeTableRecord
70
0
2
DASHED
3
__ __ __ __ __ __ __ __ __
72
65
73
2
40
25.72
49
12.86
74
0
49
-12.86
74
0
0
ENDTAB
0
TABLE
2
LAYER
5
1a3
100
AcDbSymbolTable
0
LAYER
5
10
100
AcDbSymbolTableRecord
100
AcDbLayerTableRecord
2
0
70
0
62
7
6
CONTINUOUS
290
1
370
-3
390
0
0
LAYER
5
6D
100
AcDbSymbolTableRecord
100
AcDbLayerTableRecord
2
81
70
0
62
-3
6
CONTINUOUS
290
1
370
-3
390
0
0
LAYER
5
6F
100
AcDbSymbolTableRecord
100
AcDbLayerTableRecord
2
80
70
0
62
-6
6
CONTINUOUS
290
1
370
-3
390
0
0
LAYER
5
74
100
AcDbSymbolTableRecord
100
AcDbLayerTableRecord
2
2
70
0
62
7
6
CONTINUOUS
290
1
370
-3
390
0
0
LAYER
5
78
100
AcDbSymbolTableRecord
100
AcDbLayerTableRecord
2
1
70
0
62
4
6
CONTINUOUS
290
1
370
-3
390
0
0
LAYER
5
88
100
AcDbSymbolTableRecord
100
AcDbLayerTableRecord
2
4
70
0
62
-2
6
CENTER
290
1
370
-3
390
0
0
LAYER
5
18d
100
AcDbSymbolTableRecord
100
AcDbLayerTableRecord
2
SK2
70
0
62
7
6
CONTINUOUS
290
1
370
-3
390
0
0
LAYER
5
18e
100
AcDbSymbolTableRecord
100
AcDbLayerTableRecord
2
SK1
70
0
62
4
6
CONTINUOUS
290
1
370
-3
390
0
0
LAYER
5
18f
100
AcDbSymbolTableRecord
100
AcDbLayerTableRecord
2
SK4
70
0
62
2
6
CENTER
290
1
370
-3
390
0
0
LAYER
5
190
100
AcDbSymbolTableRecord
100
AcDbLayerTableRecord
2
SK6
70
0
62
5
6
CONTINUOUS
290
1
370
-3
390
0
0
ENDTAB
0
TABLE
2
STYLE
5
1a4
100
AcDbSymbolTable
0
STYLE
5
11
100
AcDbSymbolTableRecord
100
AcDbTextStyleTableRecord
2
Standard
3
txt
70
0
71
0
40
0
41
1
42
0
50
0
0
STYLE
5
E9
100
AcDbSymbolTableRecord
100
AcDbTextStyleTableRecord
2
iso_b_vert
3
simplex.shx
70
0
71
0
40
0
41
1
42
0
50
0
0
STYLE
5
EA
100
AcDbSymbolTableRecord
100
AcDbTextStyleTableRecord
2
DWGDirectTextStyle
3
simplex
70
0
71
0
40
0
41
1
42
0
50
0
0
ENDTAB
0
TABLE
2
DIMSTYLE
5
1a5
100
AcDbSymbolTable
100
AcDbDimStyleTable
0
DIMSTYLE
105
27
100
AcDbSymbolTableRecord
100
AcDbDimStyleTableRecord
2
Standard
70
0
3
<>
41
0.18
42
0.0625
44
0.18
140
0.18
147
0.09
73
0
74
0
77
1
271
2
275
0
278
52
280
0
340
11
0
ENDTAB
0
TABLE
2
VIEW
5
1a6
100
AcDbSymbolTable
0
ENDTAB
0
TABLE
2
UCS
5
1a7
100
AcDbSymbolTable
0
ENDTAB
0
TABLE
2
APPID
5
1a8
100
AcDbSymbolTable
0
APPID
5
12
100
AcDbSymbolTableRecord
100
AcDbRegAppTableRecord
2
ACAD
70
0
0
ENDTAB
0
TABLE
2
BLOCK_RECORD
5
1a9
100
AcDbSymbolTable
0
BLOCK_RECORD
5
1F
100
AcDbSymbolTableRecord
100
AcDbBlockTableRecord
2
*Model_Space
340
0
70
0
0
BLOCK_RECORD
5
1B
100
AcDbSymbolTableRecord
100
AcDbBlockTableRecord
2
*Paper_Space
340
0
70
0
0
BLOCK_RECORD
5
23
100
AcDbSymbolTableRecord
100
AcDbBlockTableRecord
2
*Paper_Space0
340
0
70
0
0
BLOCK_RECORD
5
EC
100
AcDbSymbolTableRecord
100
AcDbBlockTableRecord
2
DimnDraft3D1
340
0
70
0
0
BLOCK_RECORD
5
F6
100
AcDbSymbolTableRecord
100
AcDbBlockTableRecord
2
DimnDraft3D2
340
0
70
0
0
BLOCK_RECORD
5
100
100
AcDbSymbolTableRecord
100
AcDbBlockTableRecord
2
DimnDraft3D3
340
0
70
0
0
BLOCK_RECORD
5
10A
100
AcDbSymbolTableRecord
100
AcDbBlockTableRecord
2
DimnDraft3D4
340
0
70
0
0
BLOCK_RECORD
5
114
100
AcDbSymbolTableRecord
100
AcDbBlockTableRecord
2
DimnDraft3D5
340
0
70
0
0
BLOCK_RECORD
5
11E
100
AcDbSymbolTableRecord
100
AcDbBlockTableRecord
2
DimnDraft3D6
340
0
70
0
0
BLOCK_RECORD
5
129
100
AcDbSymbolTableRecord
100
AcDbBlockTableRecord
2
DimnDraft3D7
340
0
70
0
0
ENDTAB
0
ENDSEC
0
SECTION
2
BLOCKS
0
BLOCK
5
20
100
AcDbEntity
8
0
100
AcDbBlockBegin
2
*Model_Space
70
0
10
0
20
0
30
0
3
*Model_Space
0
ENDBLK
5
21
100
AcDbEntity
8
0
100
AcDbBlockEnd
0
BLOCK
5
1C
100
AcDbEntity
8
0
100
AcDbBlockBegin
2
*Paper_Space
70
0
10
0
20
0
30
0
3
*Paper_Space
0
ENDBLK
5
1D
100
AcDbEntity
8
0
100
AcDbBlockEnd
0
BLOCK
5
24
100
AcDbEntity
8
0
100
AcDbBlockBegin
2
*Paper_Space0
70
0
10
0
20
0
30
0
3
*Paper_Space0
0
ENDBLK
5
25
100
AcDbEntity
8
0
100
AcDbBlockEnd
0
BLOCK
5
F3
100
AcDbEntity
8
0
100
AcDbBlockBegin
2
DimnDraft3D1
70
0
10
0
20
0
30
0
3
DimnDraft3D1
0
MTEXT
5
ED
100
AcDbEntity
8
SK2
62
256
6
ByLayer
370
13
48
1
60
0
100
AcDbMText
10
29.768875
20
-15.088398
30
0
210
0
220
0
230
1
1
\W0.6713;71,03
40
3.5
41
0
44
1.084337
50
0
71
7
72
5
7
iso_b_vert
0
LINE
5
EE
100
AcDbEntity
8
SK2
62
256
6
ByLayer
370
13
48
1
60
0
100
AcDbLine
10
0
20
-1.5875
30
0
11
0
21
-17.963398
31
0
39
0
210
0
220
0
230
1
0
LINE
5
EF
100
AcDbEntity
8
SK2
62
256
6
ByLayer
370
13
48
1
60
0
100
AcDbLine
10
71.03
20
-7.3375
30
0
11
71.03
21
-17.963398
31
0
39
0
210
0
220
0
230
1
0
LINE
5
F0
100
AcDbEntity
8
SK2
62
256
6
ByLayer
370
13
48
1
60
0
100
AcDbLine
10
0
20
-15.963398
30
0
11
71.03
21
-15.963398
31
0
39
0
210
0
220
0
230
1
0
SOLID
5
F1
100
AcDbEntity
8
SK2
62
256
6
ByLayer
370
13
48
1
60
0
100
AcDbTrace
10
0
20
-15.963398
30
0
11
3.499998
21
-15.502615
31
0
12
3.500002
22
-16.424182
32
0
13
0
23
-15.963398
33
0
39
0
210
0
220
0
230
1
0
SOLID
5
F2
100
AcDbEntity
8
SK2
62
256
6
ByLayer
370
13
48
1
60
0
100
AcDbTrace
10
71.03
20
-15.963398
30
0
11
67.530002
21
-16.424182
31
0
12
67.529998
22
-15.502615
32
0
13
71.03
23
-15.963398
33
0
39
0
210
0
220
0
230
1
0
ENDBLK
5
F4
100
AcDbEntity
8
0
100
AcDbBlockEnd
0
BLOCK
5
FD
100
AcDbEntity
8
0
100
AcDbBlockBegin
2
DimnDraft3D2
70
0
10
0
20
0
30
0
3
DimnDraft3D2
0
MTEXT
5
F7
100
AcDbEntity
8
SK2
62
256
6
ByLayer
370
13
48
1
60
0
100
AcDbMText
10
8.489721
20
-33.817985
30
0
210
0
220
0
230
1
1
\W0.6440;118,00
40
3.5
41
0
44
1.084337
50
0
71
7
72
5
7
iso_b_vert
0
LINE
5
F8
100
AcDbEntity
8
SK2
62
256
6
ByLayer
370
13
48
1
60
0
100
AcDbLine
10
-45
20
-7.5875
30
0
11
-45
21
-36.692985
31
0
39
0
210
0
220
0
230
1
0
LINE
5
F9
100
AcDbEntity
8
SK2
62
256
6
ByLayer
370
13
48
1
60
0
100
AcDbLine
10
73
20
-1.5875
30
0
11
73
21
-36.692985
31
0
39
0
210
0
220
0
230
1
0
LINE
5
FA
100
AcDbEntity
8
SK2
62
256
6
ByLayer
370
13
48
1
60
0
100
AcDbLine
10
-45
20
-34.692985
30
0
11
73
21
-34.692985
31
0
39
0
210
0
220
0
230
1
0
SOLID
5
FB
100
AcDbEntity
8
SK2
62
256
6
ByLayer
370
13
48
1
60
0
100
AcDbTrace
10
-45
20
-34.692985
30
0
11
-41.500002
21
-34.232202
31
0
12
-41.499998
22
-35.153769
32
0
13
-45
23
-34.692985
33
0
39
0
210
0
220
0
230
1
0
SOLID
5
FC
100
AcDbEntity
8
SK2
62
256
6
ByLayer
370
13
48
1
60
0
100
AcDbTrace
10
73
20
-34.692985
30
0
11
69.500002
21
-35.153769
31
0
12
69.499998
22
-34.232202
32
0
13
73
23
-34.692985
33
0
39
0
210
0
220
0
230
1
0
ENDBLK
5
FE
100
AcDbEntity
8
0
100
AcDbBlockEnd
0
BLOCK
5
107
100
AcDbEntity
8
0
100
AcDbBlockBegin
2
DimnDraft3D3
70
0
10
0
20
0
30
0
3
DimnDraft3D3
0
MTEXT
5
101
100
AcDbEntity
8
SK2
62
256
6
ByLayer
370
13
48
1
60
0
100
AcDbMText
10
38.632105
20
18.234119
30
0
210
0
220
0
230
1
1
\W0.7581;59,47
40
3.5
41
0
44
1.084337
50
0
71
7
72
5
7
iso_b_vert
0
LINE
5
102
100
AcDbEntity
8
SK2
62
256
6
ByLayer
370
13
48
1
60
0
100
AcDbLine
10
13.53
20
7.3375
30
0
11
13.53
21
19.359119
31
0
39
0
210
0
220
0
230
1
0
LINE
5
103
100
AcDbEntity
8
SK2
62
256
6
ByLayer
370
13
48
1
60
0
100
AcDbLine
10
73
20
1.5875
30
0
11
73
21
19.359119
31
0
39
0
210
0
220
0
230
1
0
LINE
5
104
100
AcDbEntity
8
SK2
62
256
6
ByLayer
370
13
48
1
60
0
100
AcDbLine
10
13.53
20
17.359119
30
0
11
73
21
17.359119
31
0
39
0
210
0
220
0
230
1
0
SOLID
5
105
100
AcDbEntity
8
SK2
62
256
6
ByLayer
370
13
48
1
60
0
100
AcDbTrace
10
13.53
20
17.359119
30
0
11
17.029998
21
17.819903
31
0
12
17.030002
22
16.898335
32
0
13
13.53
23
17.359119
33
0
39
0
210
0
220
0
230
1
0
SOLID
5
106
100
AcDbEntity
8
SK2
62
256
6
ByLayer
370
13
48
1
60
0
100
AcDbTrace
10
73
20
17.359119
30
0
11
69.500002
21
16.898335
31
0
12
69.499998
22
17.819903
32
0
13
73
23
17.359119
33
0
39
0
210
0
220
0
230
1
0
ENDBLK
5
108
100
AcDbEntity
8
0
100
AcDbBlockEnd
0
BLOCK
5
111
100
AcDbEntity
8
0
100
AcDbBlockBegin
2
DimnDraft3D4
70
0
10
0
20
0
30
0
3
DimnDraft3D4
0
MTEXT
5
10B
100
AcDbEntity
8
SK2
62
256
6
ByLayer
370
13
48
1
60
0
100
AcDbMText
10
80.278136
20
-17.677503
30
0
210
0
220
0
230
1
1
\W0.6367;1,97
40
3.5
41
0
44
1.084337
50
0
71
7
72
5
7
iso_b_vert
0
LINE
5
10C
100
AcDbEntity
8
SK2
62
256
6
ByLayer
370
13
48
1
60
0
100
AcDbLine
10
73
20
-1.5875
30
0
11
73
21
-20.552503
31
0
39
0
210
0
220
0
230
1
0
LINE
5
10D
100
AcDbEntity
8
SK2
62
256
6
ByLayer
370
13
48
1
60
0
100
AcDbLine
10
71.03
20
-7.3375
30
0
11
71.03
21
-20.552503
31
0
39
0
210
0
220
0
230
1
0
LINE
5
10E
100
AcDbEntity
8
SK2
62
256
6
ByLayer
370
13
48
1
60
0
100
AcDbLine
10
62.28
20
-18.552503
30
0
11
86.559715
21
-18.552503
31
0
39
0
210
0
220
0
230
1
0
SOLID
5
10F
100
AcDbEntity
8
SK2
62
256
6
ByLayer
370
13
48
1
60
0
100
AcDbTrace
10
73
20
-18.552503
30
0
11
76.499998
21
-18.091719
31
0
12
76.500002
22
-19.013287
32
0
13
73
23
-18.552503
33
0
39
0
210
0
220
0
230
1
0
SOLID
5
110
100
AcDbEntity
8
SK2
62
256
6
ByLayer
370
13
48
1
60
0
100
AcDbTrace
10
71.03
20
-18.552503
30
0
11
67.530002
21
-19.013287
31
0
12
67.529998
22
-18.091719
32
0
13
71.03
23
-18.552503
33
0
39
0
210
0
220
0
230
1
0
ENDBLK
5
112
100
AcDbEntity
8
0
100
AcDbBlockEnd
0
BLOCK
5
11B
100
AcDbEntity
8
0
100
AcDbBlockBegin
2
DimnDraft3D5
70
0
10
0
20
0
30
0
3
DimnDraft3D5
0
MTEXT
5
115
100
AcDbEntity
8
SK2
62
256
6
ByLayer
370
13
48
1
60
0
100
AcDbMText
10
5.409097
20
-23.468428
30
0
210
0
220
0
230
1
1
\W0.6440;116,03
40
3.5
41
0
44
1.084337
50
0
71
7
72
5
7
iso_b_vert
0
LINE
5
116
100
AcDbEntity
8
SK2
62
256
6
ByLayer
370
13
48
1
60
0
100
AcDbLine
10
-45
20
-7.5875
30
0
11
-45
21
-26.343428
31
0
39
0
210
0
220
0
230
1
0
LINE
5
117
100
AcDbEntity
8
SK2
62
256
6
ByLayer
370
13
48
1
60
0
100
AcDbLine
10
71.03
20
-7.3375
30
0
11
71.03
21
-26.343428
31
0
39
0
210
0
220
0
230
1
0
LINE
5
118
100
AcDbEntity
8
SK2
62
256
6
ByLayer
370
13
48
1
60
0
100
AcDbLine
10
-45
20
-24.343428
30
0
11
71.03
21
-24.343428
31
0
39
0
210
0
220
0
230
1
0
SOLID
5
119
100
AcDbEntity
8
SK2
62
256
6
ByLayer
370
13
48
1
60
0
100
AcDbTrace
10
-45
20
-24.343428
30
0
11
-41.500002
21
-23.882645
31
0
12
-41.499998
22
-24.804212
32
0
13
-45
23
-24.343428
33
0
39
0
210
0
220
0
230
1
0
SOLID
5
11A
100
AcDbEntity
8
SK2
62
256
6
ByLayer
370
13
48
1
60
0
100
AcDbTrace
10
71.03
20
-24.343428
30
0
11
67.530002
21
-24.804212
31
0
12
67.529998
22
-23.882645
32
0
13
71.03
23
-24.343428
33
0
39
0
210
0
220
0
230
1
0
ENDBLK
5
11C
100
AcDbEntity
8
0
100
AcDbBlockEnd
0
BLOCK
5
126
100
AcDbEntity
8
0
100
AcDbBlockBegin
2
DimnDraft3D6
70
0
10
0
20
0
30
0
3
DimnDraft3D6
0
MTEXT
5
11F
100
AcDbEntity
8
SK2
62
256
6
ByLayer
370
13
48
1
60
0
100
AcDbMText
10
-55.375163
20
25.34918
30
0
210
0
220
0
230
1
1
\W0.6930;12,000
40
3.5
41
0
44
1.084337
50
90
71
7
72
5
7
iso_b_vert
0
MTEXT
5
120
100
AcDbEntity
8
SK2
62
256
6
ByLayer
370
13
48
1
60
0
100
AcDbMText
10
-55.375163
20
20.126524
30
0
210
0
220
0
230
1
1
%%c
40
3.5
41
0
44
1.084337
50
90
71
7
72
5
7
iso_b_vert
0
LINE
5
121
100
AcDbEntity
8
SK2
62
256
6
ByLayer
370
13
48
1
60
0
100
AcDbLine
10
-46.5875
20
-6
30
0
11
-55.625163
21
-6
31
0
39
0
210
0
220
0
230
1
0
LINE
5
122
100
AcDbEntity
8
SK2
62
256
6
ByLayer
370
13
48
1
60
0
100
AcDbLine
10
-46.5875
20
6
30
0
11
-55.625163
21
6
31
0
39
0
210
0
220
0
230
1
0
LINE
5
123
100
AcDbEntity
8
SK2
62
256
6
ByLayer
370
13
48
1
60
0
100
AcDbLine
10
-53.625163
20
-6
30
0
11
-53.625163
21
36.862338
31
0
39
0
210
0
220
0
230
1
0
SOLID
5
124
100
AcDbEntity
8
SK2
62
256
6
ByLayer
370
13
48
1
60
0
100
AcDbTrace
10
-53.625163
20
-6
30
0
11
-54.085946
21
-2.500002
31
0
12
-53.164379
22
-2.499998
32
0
13
-53.625163
23
-6
33
0
39
0
210
0
220
0
230
1
0
SOLID
5
125
100
AcDbEntity
8
SK2
62
256
6
ByLayer
370
13
48
1
60
0
100
AcDbTrace
10
-53.625163
20
6
30
0
11
-53.164379
21
2.500002
31
0
12
-54.085946
22
2.499998
32
0
13
-53.625163
23
6
33
0
39
0
210
0
220
0
230
1
0
ENDBLK
5
127
100
AcDbEntity
8
0
100
AcDbBlockEnd
0
BLOCK
5
131
100
AcDbEntity
8
0
100
AcDbBlockBegin
2
DimnDraft3D7
70
0
10
0
20
0
30
0
3
DimnDraft3D7
0
MTEXT
5
12A
100
AcDbEntity
8
2
62
256
6
ByLayer
370
13
48
1
60
0
100
AcDbMText
10
83.333343
20
23.692266
30
0
210
0
220
0
230
1
1
\W0.6440;11,500
40
3.5
41
0
44
1.084337
50
90
71
7
72
5
7
iso_b_vert
0
MTEXT
5
12B
100
AcDbEntity
8
2
62
256
6
ByLayer
370
13
48
1
60
0
100
AcDbMText
10
83.333343
20
18.46961
30
0
210
0
220
0
230
1
1
%%c
40
3.5
41
0
44
1.084337
50
90
71
7
72
5
7
iso_b_vert
0
LINE
5
12C
100
AcDbEntity
8
2
62
256
6
ByLayer
370
13
48
1
60
0
100
AcDbLine
10
72.6175
20
-5.75
30
0
11
87.083343
21
-5.75
31
0
39
0
210
0
220
0
230
1
0
LINE
5
12D
100
AcDbEntity
8
2
62
256
6
ByLayer
370
13
48
1
60
0
100
AcDbLine
10
72.6175
20
5.75
30
0
11
87.083343
21
5.75
31
0
39
0
210
0
220
0
230
1
0
LINE
5
12E
100
AcDbEntity
8
2
62
256
6
ByLayer
370
13
48
1
60
0
100
AcDbLine
10
85.083343
20
-5.75
30
0
11
85.083343
21
34.330424
31
0
39
0
210
0
220
0
230
1
0
SOLID
5
12F
100
AcDbEntity
8
2
62
256
6
ByLayer
370
13
48
1
60
0
100
AcDbTrace
10
85.083343
20
-5.75
30
0
11
84.622559
21
-2.250002
31
0
12
85.544126
22
-2.249998
32
0
13
85.083343
23
-5.75
33
0
39
0
210
0
220
0
230
1
0
SOLID
5
130
100
AcDbEntity
8
2
62
256
6
ByLayer
370
13
48
1
60
0
100
AcDbTrace
10
85.083343
20
5.75
30
0
11
85.544126
21
2.250002
31
0
12
84.622559
22
2.249998
32
0
13
85.083343
23
5.75
33
0
39
0
210
0
220
0
230
1
0
ENDBLK
5
132
100
AcDbEntity
8
0
100
AcDbBlockEnd
0
ENDSEC
0
SECTION
2
ENTITIES
0
ARC
5
9E
100
AcDbEntity
8
1
62
256
6
ByLayer
370
18
48
1
60
0
100
AcDbCircle
39
0
10
0
20
5.2
30
0
40
0.799999999999998
210
0
220
0
230
1
100
AcDbArc
50
54.829697
51
90
0
ARC
5
9F
100
AcDbEntity
8
1
62
256
6
ByLayer
370
18
48
1
60
0
100
AcDbCircle
39
0
10
-0.921614
20
-6.50791
30
0
40
0.800000000000003
210
0
220
0
230
-1
100
AcDbArc
50
54.829697
51
90.034377
0
ARC
5
A0
100
AcDbEntity
8
1
62
256
6
ByLayer
370
18
48
1
60
0
100
AcDbCircle
39
0
10
0
20
-5.2
30
0
40
0.799999999999998
210
0
220
0
230
1
100
AcDbArc
50
270
51
305.170303
0
ARC
5
A1
100
AcDbEntity
8
1
62
256
6
ByLayer
370
18
48
1
60
0
100
AcDbCircle
39
0
10
-0.921614
20
6.50791
30
0
40
0.800000000000003
210
0
220
0
230
-1
100
AcDbArc
50
269.965623
51
305.170303
0
ELLIPSE
5
A2
100
AcDbEntity
8
1
62
256
6
ByLayer
370
13
48
1
60
0
100
AcDbEllipse
10
4.174251
20
-4.52931
30
0
11
-0.0138141499336697
21
0.0990412503031444
31
0
210
0
220
0
230
1
40
0.625367
41
0.700858529277244
42
2.00184762868366
0
ELLIPSE
5
A3
100
AcDbEntity
8
1
62
256
6
ByLayer
370
13
48
1
60
0
100
AcDbEllipse
10
72.272252
20
2.744987
30
0
11
3.89507799921084
21
-1.66913869116692
31
0
210
0
220
0
230
-1
40
0.448088
41
1.59310886028895
42
1.89576802508197
0
ELLIPSE
5
A4
100
AcDbEntity
8
1
62
256
6
ByLayer
370
18
48
1
60
0
100
AcDbEllipse
10
72.860236
20
0.120822
30
0
11
0.0868803724503566
21
0.290676908884266
31
0
210
0
220
0
230
-1
40
0.467765
41
1.66037605452603
42
2.36053717393507
0
ELLIPSE
5
A5
100
AcDbEntity
8
1
62
256
6
ByLayer
370
18
48
1
60
0
100
AcDbEllipse
10
73.000487
20
0.001256
30
0
11
2.10842452988754
21
5.74854869436858
31
0
210
0
220
0
230
-1
40
0.082138
41
2.8939589187027
42
2.98812350753038
0
ELLIPSE
5
A6
100
AcDbEntity
8
1
62
256
6
ByLayer
370
18
48
1
60
0
100
AcDbEllipse
10
73.021867
20
-0.040795
30
0
11
0.135658546044954
21
0.401200806259856
31
0
210
0
220
0
230
-1
40
0.065863
41
-2.32292776272013
42
-1.62682548061904
0
ELLIPSE
5
A7
100
AcDbEntity
8
1
62
256
6
ByLayer
370
18
48
1
60
0
100
AcDbEllipse
10
71.931912
20
2.744987
30
0
11
0.885360183355555
21
-2.41390482411378
31
0
210
0
220
0
230
-1
40
0.082138
41
-1.57196217228177
42
-0.755280950347762
0
ELLIPSE
5
A8
100
AcDbEntity
8
1
62
256
6
ByLayer
370
13
48
1
60
0
100
AcDbEllipse
10
4.250194
20
-4.538112
30
0
11
0.0319469761944969
21
0.0947596470657645
31
0
210
0
220
0
230
1
40
0.41081
41
0.684642895892395
42
2.24256986393053
0
ELLIPSE
5
A9
100
AcDbEntity
8
1
62
256
6
ByLayer
370
18
48
1
60
0
100
AcDbEllipse
10
73.021867
20
0.040795
30
0
11
0.135658545985116
21
-0.40120080610516
31
0
210
0
220
0
230
-1
40
0.065863
41
1.62682548037465
42
2.32292776272183
0
ELLIPSE
5
AA
100
AcDbEntity
8
1
62
256
6
ByLayer
370
18
48
1
60
0
100
AcDbEllipse
10
71.931912
20
-2.744987
30
0
11
0.885360183355181
21
2.41390482411277
31
0
210
0
220
0
230
-1
40
0.082138
41
0.755280950347304
42
1.57196217228797
0
ELLIPSE
5
AB
100
AcDbEntity
8
1
62
256
6
ByLayer
370
13
48
1
60
0
100
AcDbEllipse
10
71.437615
20
0.825192
30
0
11
0.133113781883896
21
0.268850741253519
31
0
210
0
220
0
230
1
40
0.40558
41
0.8844859171309
42
2.28074931872648
0
ELLIPSE
5
AC
100
AcDbEntity
8
1
62
256
6
ByLayer
370
18
48
1
60
0
100
AcDbEllipse
10
73.000487
20
-0.001256
30
0
11
2.10842455507861
21
-5.7485487667944
31
0
210
0
220
0
230
-1
40
0.082138
41
-2.98812350849345
42
-2.89395892026778
0
ELLIPSE
5
AD
100
AcDbEntity
8
1
62
256
6
ByLayer
370
13
48
1
60
0
100
AcDbEllipse
10
72.102793
20
2.610695
30
0
11
3.84940177501341
21
-1.97893635839916
31
0
210
0
220
0
230
-1
40
0.482873
41
1.53949524920153
42
1.84305114455734
0
POINT
5
6C
100
AcDbEntity
8
81
62
256
6
ByLayer
370
18
48
1
60
0
100
AcDbPoint
10
73
20
0
30
0
39
0
210
0
220
0
230
1
50
360
0
POINT
5
6E
100
AcDbEntity
8
80
62
256
6
ByLayer
370
18
48
1
60
0
100
AcDbPoint
10
0
20
0
30
0
39
0
210
0
220
0
230
1
50
360
0
POINT
5
70
100
AcDbEntity
8
SK2
62
256
6
ByLayer
370
18
48
1
60
1
100
AcDbPoint
10
-45
20
-6
30
0
39
0
210
0
220
0
230
1
50
360
0
POINT
5
72
100
AcDbEntity
8
SK2
62
256
6
ByLayer
370
18
48
1
60
1
100
AcDbPoint
10
-45
20
6
30
0
39
0
210
0
220
0
230
1
50
360
0
POINT
5
73
100
AcDbEntity
8
2
62
256
6
ByLayer
370
18
48
1
60
1
100
AcDbPoint
10
71.03
20
-5.75
30
0
39
0
210
0
220
0
230
1
50
360
0
POINT
5
75
100
AcDbEntity
8
2
62
256
6
ByLayer
370
18
48
1
60
1
100
AcDbPoint
10
71.03
20
5.75
30
0
39
0
210
0
220
0
230
1
50
360
0
SPLINE
5
AE
100
AcDbEntity
8
1
62
256
6
ByLayer
370
18
48
1
60
0
100
AcDbSpline
70
4
71
1
72
4
73
2
40
0
40
0
40
1
40
1
41
1
10
54.8363602254095
20
0.0004276709920248
30
0
41
1
10
54.8363457445254
20
0.0004380574968366
30
0
0
SPLINE
5
AF
100
AcDbEntity
8
1
62
256
6
ByLayer
370
18
48
1
60
0
100
AcDbSpline
70
4
71
3
72
32
73
28
40
0
40
0
40
0
40
0
40
0.0372525895838337
40
0.0685847048677395
40
0.0974434232645718
40
0.125463267297427
40
0.152915148682602
40
0.211924327136891
40
0.270703190485472
40
0.299265700293942
40
0.335355997401018
40
0.376128616853458
40
0.405389935842308
40
0.434535940788932
40
0.469256101283086
40
0.496948795541739
40
0.547918809281531
40
0.60834948767764
40
0.674524433989457
40
0.736127953659297
40
0.799645655531743
40
0.862362715293175
40
0.881728579465172
40
0.900223056432249
40
0.92545254302106
40
0.962250160325508
40
1
40
1
40
1
40
1
41
1
10
39.9801811710314
20
-5.47648631552133
30
0
41
1
10
40.1562740529609
20
-5.47541205077536
30
0
41
1
10
40.4857077079967
20
-5.4743375831217
30
0
41
1
10
40.9892131488418
20
-5.47363989237564
30
0
41
1
10
41.4180403853691
20
-5.47755321493631
30
0
41
1
10
41.8420092189558
20
-5.47768107194045
30
0
41
1
10
42.420944260113
20
-5.47793965591185
30
0
41
1
10
43.1560457028435
20
-5.47881558696588
30
0
41
1
10
43.8965471614413
20
-5.47875579474152
30
0
41
1
10
44.5211079087319
20
-5.47930657629249
30
0
41
1
10
45.0545829311036
20
-5.4798905471589
30
0
41
1
10
45.5915555924728
20
-5.47987349571284
30
0
41
1
10
46.0934140164635
20
-5.47989716419343
30
0
41
1
10
46.5646493547714
20
-5.48039431446384
30
0
41
1
10
47.0279474275851
20
-5.48099992267737
30
0
41
1
10
47.6016765187871
20
-5.48093422285814
30
0
41
1
10
48.3055052040194
20
-5.48075548636862
30
0
41
1
10
49.2040574667075
20
-5.48304012615981
30
0
41
1
10
50.1564128258038
20
-5.48114705698515
30
0
41
1
10
51.1243901054498
20
-5.48413161842376
30
0
41
1
10
52.0748777992932
20
-5.48226739579172
30
0
41
1
10
52.8116206454984
20
-5.48529206795052
30
0
41
1
10
53.3205506986921
20
-5.48564107908135
30
0
41
1
10
53.6397929103914
20
-5.4853677163197
30
0
41
1
10
54.0472273687103
20
-5.48489312148106
30
0
41
1
10
54.552104723827
20
-5.48479606403575
30
0
41
1
10
54.9293209571335
20
-5.48530920229473
30
0
41
1
10
55.1203394156927
20
-5.48570696105821
30
0
0
SPLINE
5
B0
100
AcDbEntity
8
1
62
256
6
ByLayer
370
18
48
1
60
0
100
AcDbSpline
70
4
71
3
72
10
73
6
40
0
40
0
40
0
40
0
40
0.0152893379998017
40
0.313827796558797
40
1
40
1
40
1
40
1
41
1
10
26.3346714939483
20
-1.35410594267361
30
0
41
1
10
26.3347221835284
20
-1.35413723824504
30
0
41
1
10
26.3360313807326
20
-1.35492839880683
30
0
41
1
10
26.3589528097113
20
-1.36782728500035
30
0
41
1
10
26.4003881483265
20
-1.39192757557271
30
0
41
1
10
26.4428345381432
20
-1.41659065692846
30
0
0
SPLINE
5
B1
100
AcDbEntity
8
1
62
256
6
ByLayer
370
18
48
1
60
0
100
AcDbSpline
70
4
71
3
72
35
73
31
40
0
40
0
40
0
40
0
40
0.0536844765378316
40
0.101128705023
40
0.13829617214263
40
0.164764211065115
40
0.183472863578015
40
0.209733257085723
40
0.245409268267794
40
0.278041562542432
40
0.303736089622351
40
0.335286035261455
40
0.375823284113423
40
0.414338160555138
40
0.44390916960633
40
0.476152619348697
40
0.516873145295292
40
0.56333519490902
40
0.602480871210311
40
0.653760947774934
40
0.69568183132684
40
0.740598667023297
40
0.795430844924675
40
0.831069017701324
40
0.859108310415944
40
0.883626958754979
40
0.913758913703455
40
0.950778986826945
40
0.998793017213101
40
1
40
1
40
1
40
1
41
1
10
10.096067546537
20
-5.45850153112804
30
0
41
1
10
10.3679845015297
20
-5.45860615870205
30
0
41
1
10
10.8800494990428
20
-5.45891686161471
30
0
41
1
10
11.5862659847161
20
-5.45922045017701
30
0
41
1
10
12.1440962093212
20
-5.46025395909297
30
0
41
1
10
12.5628848455798
20
-5.46034268172886
30
0
41
1
10
12.9252649692661
20
-5.46083791905596
30
0
41
1
10
13.3353571616411
20
-5.46101965939903
30
0
41
1
10
13.8161536083454
20
-5.4614259584045
30
0
41
1
10
14.2940982232909
20
-5.46227778593155
30
0
41
1
10
14.7510654028061
20
-5.46248949137507
30
0
41
1
10
15.2482264196847
20
-5.46243365935069
30
0
41
1
10
15.8105743641019
20
-5.46261522696321
30
0
41
1
10
16.362851634876
20
-5.4641272643039
30
0
41
1
10
16.8729678995827
20
-5.46396386576228
30
0
41
1
10
17.3942973350641
20
-5.46359090417425
30
0
41
1
10
18.001505964183
20
-5.46426665297545
30
0
41
1
10
18.6438069464491
20
-5.46586163534738
30
0
41
1
10
19.3398002976669
20
-5.46485481107618
30
0
41
1
10
20.0127050086693
20
-5.46582332831929
30
0
41
1
10
20.7149453423035
20
-5.46751910017525
30
0
41
1
10
21.4352747352509
20
-5.4660128391005
30
0
41
1
10
22.1235389364136
20
-5.46719599284941
30
0
41
1
10
22.7263207107568
20
-5.46866614150181
30
0
41
1
10
23.1739280482009
20
-5.4679857481492
30
0
41
1
10
23.5945697434573
20
-5.46754846478157
30
0
41
1
10
24.059050180167
20
-5.46823886712829
30
0
41
1
10
24.6348768894944
20
-5.46938338872639
30
0
41
1
10
25.0774053549454
20
-5.46834873581156
30
0
41
1
10
25.326616473657
20
-5.46871076197243
30
0
41
1
10
25.3327276425993
20
-5.46871974384621
30
0
0
SPLINE
5
B2
100
AcDbEntity
8
1
62
256
6
ByLayer
370
18
48
1
60
0
100
AcDbSpline
70
4
71
2
72
6
73
3
40
0
40
0
40
0
40
1
40
1
40
1
41
1
10
70.012347510917
20
-5.49452113433603
30
0
41
1
10
70.5055682463084
20
-5.4920451507453
30
0
41
1
10
70.9983890466249
20
-5.4970157966975
30
0
0
SPLINE
5
B3
100
AcDbEntity
8
1
62
256
6
ByLayer
370
18
48
1
60
0
100
AcDbSpline
70
4
71
3
72
31
73
27
40
0
40
0
40
0
40
0
40
0.0068369018614671
40
0.0655236718331968
40
0.109885263005856
40
0.145665788432983
40
0.174547107226309
40
0.218639163892196
40
0.273199105035025
40
0.31893413100289
40
0.352540535133807
40
0.394674632928108
40
0.443483586244358
40
0.483665044843736
40
0.517656388808808
40
0.562656128478779
40
0.619892236686893
40
0.660611105444135
40
0.706832539886019
40
0.761679739173208
40
0.810777610830399
40
0.853920140112808
40
0.906451705957966
40
0.954398087963535
40
0.991764830063435
40
1
40
1
40
1
40
1
41
1
10
55.321932137896
20
5.48480974205202
30
0
41
1
10
55.2933300505158
20
5.48479502094546
30
0
41
1
10
55.0192239365356
20
5.4846719633658
30
0
41
1
10
54.5492967891923
20
5.48290456583763
30
0
41
1
10
53.9790767155242
20
5.48535306677854
30
0
41
1
10
53.5199956792845
20
5.48527201314411
30
0
41
1
10
53.0621987056664
20
5.48581517049021
30
0
41
1
10
52.5250161369025
20
5.48356312853574
30
0
41
1
10
51.9160691453235
20
5.48300608093749
30
0
41
1
10
51.3512594681271
20
5.48359666334835
30
0
41
1
10
50.8407960314723
20
5.4827411063697
30
0
41
1
10
50.3148594929386
20
5.48154660099576
30
0
41
1
10
49.7631544071667
20
5.48202449340943
30
0
41
1
10
49.2440523734134
20
5.48244579347761
30
0
41
1
10
48.7425397655751
20
5.48177112803441
30
0
41
1
10
48.1676321544505
20
5.48062217552842
30
0
41
1
10
47.5656961439188
20
5.48096020540498
30
0
41
1
10
46.957725314333
20
5.48100529075955
30
0
41
1
10
46.3598704277897
20
5.48003002049836
30
0
41
1
10
45.7266553439948
20
5.47983990700271
30
0
41
1
10
45.1064821976344
20
5.47991696876457
30
0
41
1
10
44.4959226626714
20
5.47928566082953
30
0
41
1
10
43.891092552398
20
5.47872600583514
30
0
41
1
10
43.3072415418336
20
5.47892241041552
30
0
41
1
10
42.9192710224845
20
5.4779107115281
30
0
41
1
10
42.7272673814311
20
5.47743443766376
30
0
41
1
10
42.6925442360292
20
5.47735302219257
30
0
0
SPLINE
5
B4
100
AcDbEntity
8
1
62
256
6
ByLayer
370
18
48
1
60
0
100
AcDbSpline
70
4
71
3
72
26
73
22
40
0
40
0
40
0
40
0
40
0.0333924319591777
40
0.0765647568103738
40
0.123344076693452
40
0.162181363461568
40
0.196461897702002
40
0.230494865521429
40
0.263085456775877
40
0.296928491599583
40
0.344789325077252
40
0.400052456271661
40
0.445704453522182
40
0.49106999639588
40
0.538789832324483
40
0.627338018218919
40
0.70877680407559
40
0.792668273604608
40
0.873827814642021
40
0.948112462938582
40
1
40
1
40
1
40
1
41
1
10
25.5700031405225
20
5.46487375631099
30
0
41
1
10
25.4248846489339
20
5.4639056003945
30
0
41
1
10
25.0945789018659
20
5.46255399255938
30
0
41
1
10
24.5868885512182
20
5.47035016657841
30
0
41
1
10
24.0342283891611
20
5.46770414010999
30
0
41
1
10
23.5185319966125
20
5.46786178397116
30
0
41
1
10
23.0572945424069
20
5.46816498162698
30
0
41
1
10
22.622885283414
20
5.46862331713558
30
0
41
1
10
22.1903813829505
20
5.46735544076264
30
0
41
1
10
21.6983390526362
20
5.46620837082875
30
0
41
1
10
21.1086921078305
20
5.46667209734287
30
0
41
1
10
20.4682064671024
20
5.46742904931867
30
0
41
1
10
19.8384663256067
20
5.46525500713548
30
0
41
1
10
19.2411985490769
20
5.46504200218857
30
0
41
1
10
18.4592602299977
20
5.46600267153545
30
0
41
1
10
17.5220263887203
20
5.46287477992752
30
0
41
1
10
16.4290752532778
20
5.46469468724132
30
0
41
1
10
15.3679288573106
20
5.4619120416163
30
0
41
1
10
14.3375823088053
20
5.46264649291197
30
0
41
1
10
13.4450358989505
20
5.46096021114391
30
0
41
1
10
12.9018217282894
20
5.46077176321927
30
0
41
1
10
12.6784971982428
20
5.46060803627876
30
0
0
SPLINE
5
B5
100
AcDbEntity
8
1
62
256
6
ByLayer
370
18
48
1
60
0
100
AcDbSpline
70
4
71
3
72
11
73
7
40
0
40
0
40
0
40
0
40
0.161283997521132
40
0.303411358719171
40
0.510170976250643
40
1
40
1
40
1
40
1
41
1
10
56.2286567705577
20
-1.32453792847946
30
0
41
1
10
56.228393879425
20
-1.32444857206892
30
0
41
1
10
56.2333218574253
20
-1.32717924868362
30
0
41
1
10
56.2660892938526
20
-1.34528128729013
30
0
41
1
10
56.3548132254505
20
-1.39500069065116
30
0
41
1
10
56.4394041569087
20
-1.44399929602304
30
0
41
1
10
56.5095851103081
20
-1.48513785595364
30
0
0
SPLINE
5
B6
100
AcDbEntity
8
1
62
256
6
ByLayer
370
13
48
1
60
0
100
AcDbSpline
70
4
71
3
72
14
73
10
40
0
40
0
40
0
40
0
40
0.25
40
0.25
40
0.5
40
0.5
40
0.75
40
0.75
40
1
40
1
40
1
40
1
41
1
10
4.00000015257251
20
-4.5589948359154
30
0
41
1
10
4.00000015257251
20
-4.5495974667289
30
0
41
1
10
4.00264912019585
20
-4.53992887908805
30
0
41
1
10
4.013274500851
20
-4.52110867607348
30
0
41
1
10
4.02109170099055
20
-4.51206828961003
30
0
41
1
10
4.04177010506436
20
-4.4947931298972
30
0
41
1
10
4.05489623499636
20
-4.48642976413157
30
0
41
1
10
4.08586387181521
20
-4.47142339956622
30
0
41
1
10
4.10353321611797
20
-4.4647843877656
30
0
41
1
10
4.12375096607076
20
-4.45918508355857
30
0
0
SPLINE
5
B7
100
AcDbEntity
8
1
62
256
6
ByLayer
370
18
48
1
60
0
100
AcDbSpline
70
4
71
3
72
56
73
52
40
0
40
0
40
0
40
0
40
0.0761469573023415
40
0.0761469573023415
40
0.114220435953512
40
0.114220435953512
40
0.152293914604683
40
0.152293914604683
40
0.190367393255854
40
0.190367393255854
40
0.228440871907025
40
0.228440871907025
40
0.266514350558195
40
0.266514350558195
40
0.285551089883781
40
0.285551089883781
40
0.304587829209366
40
0.304587829209366
40
0.380734786511706
40
0.380734786511706
40
0.418808265162877
40
0.418808265162877
40
0.456881743814048
40
0.456881743814048
40
0.494955222465219
40
0.494955222465219
40
0.533028701116389
40
0.533028701116389
40
0.57110217976756
40
0.57110217976756
40
0.609175658418731
40
0.609175658418731
40
0.685322615721071
40
0.685322615721071
40
0.723396094372242
40
0.723396094372242
40
0.761469573023413
40
0.761469573023413
40
0.799543051674583
40
0.799543051674583
40
0.837616530325754
40
0.837616530325754
40
0.875690008976925
40
0.875690008976925
40
0.913763487628095
40
0.913763487628095
40
0.951836966279266
40
0.951836966279266
40
0.989910444930437
40
0.989910444930437
40
1
40
1
40
1
40
1
41
1
10
16.7244679850547
20
3.97647662597305
30
0
41
1
10
17.2951645797676
20
3.72877678253863
30
0
41
1
10
17.8643123022963
20
3.46518979676756
30
0
41
1
10
18.7126465492742
20
3.04285680939071
30
0
41
1
10
18.9941417206777
20
2.89695342737679
30
0
41
1
10
19.5581619607314
20
2.60017456214638
30
0
41
1
10
19.8404429511162
20
2.44898011591411
30
0
41
1
10
20.4049618732891
20
2.14016535194042
30
0
41
1
10
20.6872208713382
20
1.98257658454452
30
0
41
1
10
21.2512928405062
20
1.66016084797866
30
0
41
1
10
21.533757680121
20
1.49636772054825
30
0
41
1
10
22.101161381885
20
1.16633078407676
30
0
41
1
10
22.3857526906442
20
0.999523870834906
30
0
41
1
10
22.8136597349736
20
0.745988995705943
30
0
41
1
10
22.9566457719402
20
0.660818149354782
30
0
41
1
10
23.2419526326937
20
0.489811000448214
30
0
41
1
10
23.3841541312018
20
0.403943672871094
30
0
41
1
10
24.0949888459247
20
-0.0235467803895801
30
0
41
1
10
24.6623309089119
20
-0.361129811063733
30
0
41
1
10
25.5082337214727
20
-0.866544472859346
30
0
41
1
10
25.7894107871325
20
-1.03471391446274
30
0
41
1
10
26.3533402844091
20
-1.36520391792897
30
0
41
1
10
26.6355952025619
20
-1.52836932936464
30
0
41
1
10
27.2002146925988
20
-1.85131489660486
30
0
41
1
10
27.4824129540327
20
-2.01135943346037
30
0
41
1
10
28.0473032130863
20
-2.32733963817273
30
0
41
1
10
28.3309489733346
20
-2.48176132001785
30
0
41
1
10
28.9001957725336
20
-2.78419726284616
30
0
41
1
10
29.1864284319852
20
-2.9325973000735
30
0
41
1
10
29.7570571947483
20
-3.22187358963609
30
0
41
1
10
30.0405711899336
20
-3.36293669047439
30
0
41
1
10
30.8912810859952
20
-3.76775220674659
30
0
41
1
10
31.457099682867
20
-4.01583548190868
30
0
41
1
10
32.3012713013597
20
-4.35866800737415
30
0
41
1
10
32.5827813356782
20
-4.46697698149288
30
0
41
1
10
33.1469565919303
20
-4.6709047521106
30
0
41
1
10
33.4293725546295
20
-4.76680470599456
30
0
41
1
10
33.9944239216426
20
-4.94677377659863
30
0
41
1
10
34.2766306359639
20
-5.03116442419608
30
0
41
1
10
34.8434005251258
20
-5.18595616785692
30
0
41
1
10
35.1281024892801
20
-5.25632217350784
30
0
41
1
10
35.6994583147206
20
-5.38345312542768
30
0
41
1
10
35.9854157638422
20
-5.4399960992703
30
0
41
1
10
36.5533043960777
20
-5.53839504694531
30
0
41
1
10
36.8360696757601
20
-5.58019446310058
30
0
41
1
10
37.4019617289602
20
-5.64828187935822
30
0
41
1
10
37.6846238410564
20
-5.67481013575917
30
0
41
1
10
38.2489261816941
20
-5.71309856875459
30
0
41
1
10
38.5303199364517
20
-5.72486183422942
30
0
41
1
10
38.8861319694768
20
-5.73015476208258
30
0
41
1
10
38.9607174769211
20
-5.7307383091665
30
0
41
1
10
39.0353452794476
20
-5.73079582746274
30
0
0
SPLINE
5
B8
100
AcDbEntity
8
1
62
256
6
ByLayer
370
18
48
1
60
0
100
AcDbSpline
70
4
71
3
72
26
73
22
40
0
40
0
40
0
40
0
40
0.0813058224798397
40
0.0813058224798397
40
0.173175240231855
40
0.173175240231855
40
0.265044657983871
40
0.265044657983871
40
0.356914075735886
40
0.356914075735886
40
0.448783493487902
40
0.448783493487902
40
0.540652911239918
40
0.540652911239918
40
0.632522328991933
40
0.632522328991933
40
0.816261164495965
40
0.816261164495965
40
0.908130582247983
40
0.908130582247983
40
1
40
1
40
1
40
1
41
1
10
61.8364824850637
20
4.20030510175459
30
0
41
1
10
62.0875555999432
20
4.30315602242703
30
0
41
1
10
62.3380247900554
20
4.40144309797867
30
0
41
1
10
62.8698371690678
20
4.6017049545251
30
0
41
1
10
63.1509610464754
20
4.70234146302181
30
0
41
1
10
63.7144893962874
20
4.88933793090146
30
0
41
1
10
63.9963957082193
20
4.9762429691697
30
0
41
1
10
64.5600227048968
20
5.13732741146629
30
0
41
1
10
64.8416057635748
20
5.21159692620017
30
0
41
1
10
65.404816750049
20
5.34686184216329
30
0
41
1
10
65.6874289292067
20
5.4072121742349
30
0
41
1
10
66.2543731512286
20
5.51367550070395
30
0
41
1
10
66.5386456230123
20
5.55982491449293
30
0
41
1
10
67.1084008869672
20
5.63777487727339
30
0
41
1
10
67.3934219230612
20
5.66956336214682
30
0
41
1
10
68.2462880094668
20
5.74083392104976
30
0
41
1
10
68.8134417090635
20
5.75772289226913
30
0
41
1
10
69.6592994571083
20
5.73771750291701
30
0
41
1
10
69.9412449734047
20
5.72342589383194
30
0
41
1
10
70.5063317171098
20
5.68007802803169
30
0
41
1
10
70.7891812901132
20
5.65099940486903
30
0
41
1
10
71.0721151711787
20
5.61438300173489
30
0
0
SPLINE
5
B9
100
AcDbEntity
8
1
62
256
6
ByLayer
370
18
48
1
60
0
100
AcDbSpline
70
4
71
3
72
14
73
10
40
0
40
0
40
0
40
0
40
0.25
40
0.25
40
0.5
40
0.5
40
0.75
40
0.75
40
1
40
1
40
1
40
1
41
1
10
70.1472954029217
20
1.35253012897621
30
0
41
1
10
70.1391724919497
20
1.38093273147723
30
0
41
1
10
70.135156981908
20
1.41052515788937
30
0
41
1
10
70.1393624995184
20
1.47062248653438
30
0
41
1
10
70.1480235942834
20
1.500969473103
30
0
41
1
10
70.1799142980688
20
1.55382603774873
30
0
41
1
10
70.2032608408139
20
1.57659236445304
30
0
41
1
10
70.258515884277
20
1.6086882435122
30
0
41
1
10
70.2886879332922
20
1.61821428454297
30
0
41
1
10
70.3198492565624
20
1.62392740285932
30
0
0
SPLINE
5
BA
100
AcDbEntity
8
1
62
256
6
ByLayer
370
18
48
1
60
0
100
AcDbSpline
70
4
71
3
72
28
73
24
40
0
40
0
40
0
40
0
40
0.0624999999999992
40
0.0624999999999992
40
0.124999999999998
40
0.124999999999998
40
0.187499999999997
40
0.187499999999997
40
0.249999999999997
40
0.249999999999997
40
0.374999999999997
40
0.374999999999997
40
0.437499999999998
40
0.437499999999998
40
0.499999999999998
40
0.499999999999998
40
0.624999999999998
40
0.624999999999998
40
0.749999999999999
40
0.749999999999999
40
0.874999999999999
40
0.874999999999999
40
1
40
1
40
1
40
1
41
1
10
64.9924422026626
20
2.81087339914032
30
0
41
1
10
65.0017021796643
20
2.66049271662266
30
0
41
1
10
65.0230389309643
20
2.50715379203021
30
0
41
1
10
65.088963267096
20
2.19478058145759
30
0
41
1
10
65.134112427939
20
2.03446107290557
30
0
41
1
10
65.2433357509663
20
1.71865855084894
30
0
41
1
10
65.30742299157
20
1.56227917118545
30
0
41
1
10
65.452103610777
20
1.25217147767575
30
0
41
1
10
65.5329887700971
20
1.0979696606488
30
0
41
1
10
65.7961603651981
20
0.642059803779148
30
0
41
1
10
65.9944294619494
20
0.353631112424466
30
0
41
1
10
66.3164268279978
20
-0.0622960786858755
30
0
41
1
10
66.4279354338814
20
-0.198100032158237
30
0
41
1
10
66.6583514462441
20
-0.464679126620553
30
0
41
1
10
66.7775023199089
20
-0.595695714072718
30
0
41
1
10
67.1402344470616
20
-0.976464938467132
30
0
41
1
10
67.3907260781722
20
-1.21557787776385
30
0
41
1
10
67.9050375028309
20
-1.67115533700465
30
0
41
1
10
68.1687902336689
20
-1.8877338159721
30
0
41
1
10
68.7074533531146
20
-2.30193067244247
30
0
41
1
10
68.9831197589979
20
-2.50000855101359
30
0
41
1
10
69.5397226637729
20
-2.87607063817742
30
0
41
1
10
69.8207948494736
20
-3.0542392628075
30
0
41
1
10
70.1043679008287
20
-3.22350606180527
30
0
0
SPLINE
5
BB
100
AcDbEntity
8
1
62
256
6
ByLayer
370
18
48
1
60
0
100
AcDbSpline
70
4
71
3
72
81
73
77
40
0
40
0
40
0
40
0
40
0.0387656454809292
40
0.0387656454809292
40
0.10867543088239
40
0.10867543088239
40
0.126152877232755
40
0.126152877232755
40
0.14363032358312
40
0.14363032358312
40
0.17858521628385
40
0.17858521628385
40
0.248495001685311
40
0.248495001685311
40
0.283449894386042
40
0.283449894386042
40
0.318404787086772
40
0.318404787086772
40
0.388314572488232
40
0.388314572488232
40
0.423269465188963
40
0.423269465188963
40
0.440746911539328
40
0.440746911539328
40
0.449485634714511
40
0.453854996302102
40
0.454947336699
40
0.455493506897449
40
0.455766591996673
40
0.455766591996673
40
0.456039677095898
40
0.456039677095898
40
0.457132017492795
40
0.457132017492795
40
0.458224357889693
40
0.458224357889693
40
0.466963081064875
40
0.466963081064875
40
0.475701804240057
40
0.475701804240057
40
0.493179250590422
40
0.493179250590422
40
0.52813414329115
40
0.52813414329115
40
0.598043928692608
40
0.598043928692608
40
0.667953714094065
40
0.667953714094065
40
0.702908606794794
40
0.702908606794794
40
0.711647329969976
40
0.711647329969976
40
0.716016691557567
40
0.716016691557567
40
0.717109031954465
40
0.717109031954465
40
0.717382117053689
40
0.717382117053689
40
0.717655202152914
40
0.718201372351363
40
0.720386053145158
40
0.737863499495519
40
0.737863499495519
40
0.772818392196242
40
0.772818392196242
40
0.807773284896965
40
0.807773284896965
40
0.87768307029841
40
0.87768307029841
40
0.912637962999133
40
0.912637962999133
40
0.947592855699856
40
0.947592855699856
40
0.982547748400579
40
0.982547748400579
40
1
40
1
40
1
40
1
41
1
10
16.724480313839
20
3.97647496557809
30
0
41
1
10
16.5404642506219
20
4.00125772544789
30
0
41
1
10
16.3567768821553
20
4.01889400940721
30
0
41
1
10
15.8421770444792
20
4.0450103111647
30
0
41
1
10
15.511587603526
20
4.03461966146727
30
0
41
1
10
15.0951576069082
20
3.97990249597308
30
0
41
1
10
15.0115054245401
20
3.96684020904834
30
0
41
1
10
14.8452221028675
20
3.93670752208828
30
0
41
1
10
14.7624855288572
20
3.91963367746609
30
0
41
1
10
14.5152859170627
20
3.86250171876131
30
0
41
1
10
14.3518366317925
20
3.81652257468815
30
0
41
1
10
13.8637232421336
20
3.65625729086142
30
0
41
1
10
13.5412998639533
20
3.51957984150945
30
0
41
1
10
13.0542502635765
20
3.27739521450903
30
0
41
1
10
12.8909434116877
20
3.19023965941241
30
0
41
1
10
12.5672792104948
20
3.00817893079136
30
0
41
1
10
12.4062865247137
20
2.91298719884341
30
0
41
1
10
11.9239095020774
20
2.6177193541931
30
0
41
1
10
11.6030796711535
20
2.40803581402758
30
0
41
1
10
11.1165536466697
20
2.08343549938533
30
0
41
1
10
10.9531360584305
20
1.97327767111355
30
0
41
1
10
10.7080360076204
20
1.80787143788865
30
0
41
1
10
10.6262988256515
20
1.75267928812673
30
0
41
1
10
10.503555473782
20
1.66992740482294
30
0
41
1
10
10.4421407337269
20
1.62855459322495
30
0
41
1
10
10.3755766111253
20
1.58379982217141
30
0
41
1
10
10.347410024881
20
1.56488017412906
30
0
41
1
10
10.338447465269
20
1.55886179406963
30
0
41
1
10
10.334606270429
20
1.55628282015164
30
0
41
1
10
10.3320454513709
20
1.55456357828527
30
0
41
1
10
10.3327709670808
20
1.55270006596854
30
0
41
1
10
10.3365907328394
20
1.54647038532201
30
0
41
1
10
10.3412558743596
20
1.54271069594472
30
0
41
1
10
10.3500486585384
20
1.53498659345419
30
0
41
1
10
10.3545815342796
20
1.53128946933393
30
0
41
1
10
10.395826300616
20
1.49855934039664
30
0
41
1
10
10.4347726215375
20
1.47230010501272
30
0
41
1
10
10.5123269347021
20
1.41961777722381
30
0
41
1
10
10.5514203329742
20
1.3937257372967
30
0
41
1
10
10.6690659532835
20
1.31663759407516
30
0
41
1
10
10.7479961366834
20
1.26606219593504
30
0
41
1
10
10.9853478834192
20
1.11540075066199
30
0
41
1
10
11.144376781323
20
1.01644758226743
30
0
41
1
10
11.6223505749565
20
0.721842296171928
30
0
41
1
10
11.9418450803855
20
0.528229885498263
30
0
41
1
10
12.5806578551863
20
0.144467323222671
30
0
41
1
10
12.900422281773
20
-0.0453792461470641
30
0
41
1
10
13.3770424799404
20
-0.330582445224252
30
0
41
1
10
13.5357917435285
20
-0.42542585417246
30
0
41
1
10
13.7313480224993
20
-0.545668836466717
30
0
41
1
10
13.7703442748713
20
-0.569790934302858
30
0
41
1
10
13.8278013254397
20
-0.606638978096555
30
0
41
1
10
13.8470375191749
20
-0.61891886751377
30
0
41
1
10
13.8693778385507
20
-0.635215467127125
30
0
41
1
10
13.8740585312965
20
-0.638468675519221
30
0
41
1
10
13.8782368276304
20
-0.643045896664376
30
0
41
1
10
13.8792546666624
20
-0.644346013242739
30
0
41
1
10
13.8770828037988
20
-0.645096400584833
30
0
41
1
10
13.8738250906667
20
-0.646220571620887
30
0
41
1
10
13.8618810819616
20
-0.65032699705867
30
0
41
1
10
13.7815510961277
20
-0.677603492760426
30
0
41
1
10
13.7035399975167
20
-0.701687038970306
30
0
41
1
10
13.4959174819052
20
-0.759862420864494
30
0
41
1
10
13.3576035721403
20
-0.790659351282557
30
0
41
1
10
13.0831896956011
20
-0.834938314356918
30
0
41
1
10
12.9468688462794
20
-0.848526173513733
30
0
41
1
10
12.5377828459065
20
-0.862989246868381
30
0
41
1
10
12.2652293739884
20
-0.837708409253509
30
0
41
1
10
11.8411021658179
20
-0.741907610073667
30
0
41
1
10
11.6988499699505
20
-0.700632349595935
30
0
41
1
10
11.4120596810536
20
-0.600852180530268
30
0
41
1
10
11.2671773125154
20
-0.542267652110837
30
0
41
1
10
10.9718452366023
20
-0.408951015871651
30
0
41
1
10
10.8210096281313
20
-0.334017023193923
30
0
41
1
10
10.5901691139188
20
-0.211402066846659
30
0
41
1
10
10.5131256969698
20
-0.169204119234991
30
0
41
1
10
10.4358368383598
20
-0.125827148072062
30
0
0
SPLINE
5
BC
100
AcDbEntity
8
1
62
256
6
ByLayer
370
13
48
1
60
0
100
AcDbSpline
70
4
71
3
72
8
73
4
40
0
40
0
40
0
40
0
40
1
40
1
40
1
40
1
41
1
10
4.12375096607076
20
-4.57854090665339
30
0
41
1
10
4.14747496347059
20
-4.57509864194901
30
0
41
1
10
4.17327926615664
20
-4.57806184459125
30
0
41
1
10
4.19984160504163
20
-4.58681538918111
30
0
0
SPLINE
5
BD
100
AcDbEntity
8
1
62
256
6
ByLayer
370
13
48
1
60
0
100
AcDbSpline
70
4
71
3
72
18
73
14
40
0
40
0
40
0
40
0
40
0.282686518597403
40
0.282686518597403
40
0.565373037194806
40
0.565373037194806
40
0.706716296493507
40
0.706716296493507
40
0.777387926142856
40
0.777387926142856
40
0.848059555792205
40
0.848059555792205
40
1
40
1
40
1
40
1
41
1
10
4.19984160504163
20
-4.58681538918111
30
0
41
1
10
4.90195578775285
20
-4.81819515706056
30
0
41
1
10
5.59890731399275
20
-5.00981075729194
30
0
41
1
10
6.99035241451958
20
-5.31073889149414
30
0
41
1
10
7.68480603708119
20
-5.42000144851886
30
0
41
1
10
8.73136394917057
20
-5.51811749597107
30
0
41
1
10
9.08096470873031
20
-5.53984845936918
30
0
41
1
10
9.60736899555769
20
-5.5556194616008
30
0
41
1
10
9.78330705753203
20
-5.55806127831201
30
0
41
1
10
10.1339919789277
20
-5.55729182070459
30
0
41
1
10
10.3089722672207
20
-5.55409255590899
30
0
41
1
10
10.8591809867607
20
-5.53522797672235
30
0
41
1
10
11.2333101122755
20
-5.50949764516491
30
0
41
1
10
11.6066868367809
20
-5.47124249851407
30
0
0
SPLINE
5
BE
100
AcDbEntity
8
1
62
256
6
ByLayer
370
18
48
1
60
0
100
AcDbSpline
70
4
71
3
72
14
73
10
40
0
40
0
40
0
40
0
40
0.224534721768048
40
0.224534721768048
40
0.371097809615317
40
0.371097809615317
40
0.517660897462585
40
0.517660897462585
40
1
40
1
40
1
40
1
41
1
10
54.8289625026496
20
0.0047645730491865
30
0
41
1
10
55.3602819400666
20
-0.306484482305052
30
0
41
1
10
55.8930401105737
20
-0.618493122532442
30
0
41
1
10
56.7787575468669
20
-1.13056915139748
30
0
41
1
10
57.1304670453885
20
-1.33189233664191
30
0
41
1
10
57.8291929089928
20
-1.72566081919564
30
0
41
1
10
58.1772980039203
20
-1.91866304918079
30
0
41
1
10
59.6674917917484
20
-2.7274461444525
30
0
41
1
10
60.8017058194054
20
-3.29842470558432
30
0
41
1
10
61.9461578382079
20
-3.79187314299227
30
0
0
SPLINE
5
BF
100
AcDbEntity
8
1
62
256
6
ByLayer
370
13
48
1
60
0
100
AcDbSpline
70
4
71
3
72
20
73
16
40
0
40
0
40
0
40
0
40
0.0814100496686551
40
0.0814100496686551
40
0.196233793460073
40
0.196233793460073
40
0.311057537251491
40
0.311057537251491
40
0.540705024834328
40
0.540705024834328
40
0.770352512417165
40
0.770352512417165
40
0.885176256208583
40
0.885176256208583
40
1
40
1
40
1
40
1
41
1
10
61.9461578382971
20
-3.79187314303078
30
0
41
1
10
62.1927141029431
20
-3.89817974350228
30
0
41
1
10
62.4397455404783
20
-4.00088796101386
30
0
41
1
10
63.0368009739874
20
-4.23910607551787
30
0
41
1
10
63.3884677963828
20
-4.37107785808985
30
0
41
1
10
64.0878592366734
20
-4.61537808457248
30
0
41
1
10
64.4361747052729
20
-4.72798373776726
30
0
41
1
10
65.4785692197435
20
-5.03618767426511
30
0
41
1
10
66.1700248426315
20
-5.20224335768063
30
0
41
1
10
67.5544701641742
20
-5.45033165776215
30
0
41
1
10
68.2476175039632
20
-5.53245639022757
30
0
41
1
10
69.2947333393523
20
-5.58891675141246
30
0
41
1
10
69.6457154987372
20
-5.59658389940699
30
0
41
1
10
70.3472082309419
20
-5.58904103531023
30
0
41
1
10
70.6976725057588
20
-5.57334361197206
30
0
41
1
10
71.0482531329734
20
-5.54740857682467
30
0
0
SPLINE
5
C0
100
AcDbEntity
8
1
62
256
6
ByLayer
370
13
48
1
60
0
100
AcDbSpline
70
4
71
3
72
35
73
31
40
0
40
0
40
0
40
0
40
0.124999999999999
40
0.124999999999999
40
0.187499999999999
40
0.187499999999999
40
0.249999999999999
40
0.312499999999998
40
0.312499999999998
40
0.343749999999998
40
0.343749999999998
40
0.374999999999998
40
0.374999999999998
40
0.499999999999998
40
0.499999999999998
40
0.562499999999999
40
0.562499999999999
40
0.624999999999999
40
0.624999999999999
40
0.687499999999999
40
0.687499999999999
40
0.749999999999999
40
0.749999999999999
40
0.812499999999999
40
0.812499999999999
40
0.843749999999999
40
0.843749999999999
40
0.875
40
0.875
40
1
40
1
40
1
40
1
41
1
10
4.25032395965152
20
-4.45640711366369
30
0
41
1
10
4.2503956706604
20
-4.23420046422913
30
0
41
1
10
4.25045692232032
20
-3.98162310376981
30
0
41
1
10
4.2505394160238
20
-3.55741436704667
30
0
41
1
10
4.25056512314308
20
-3.40942928574629
30
0
41
1
10
4.2506135853877
20
-3.10373414711512
30
0
41
1
10
4.25065927396071
20
-2.7873938969189
30
0
41
1
10
4.25070148870245
20
-2.44993668245189
30
0
41
1
10
4.25073253862899
20
-2.18872508146697
30
0
41
1
10
4.2507428161052
20
-2.1000304956213
30
0
41
1
10
4.25076310399157
20
-1.92136553113028
30
0
41
1
10
4.2507731088491
20
-1.831461008492
30
0
41
1
10
4.25082270223879
20
-1.37913518968222
30
0
41
1
10
4.25086111593097
20
-1.00839553886652
30
0
41
1
10
4.25092036074528
20
-0.438931306267932
30
0
41
1
10
4.25094044115806
20
-0.246070524161041
30
0
41
1
10
4.25098077683097
20
0.138237297402043
30
0
41
1
10
4.25100107636837
20
0.330116398833127
30
0
41
1
10
4.25104200326956
20
0.713322241447543
30
0
41
1
10
4.2510624975248
20
0.903397221414394
30
0
41
1
10
4.25110301566698
20
1.27717213702945
30
0
41
1
10
4.25112309715365
20
1.46141197916344
30
0
41
1
10
4.25116252811861
20
1.82462063363474
30
0
41
1
10
4.25118187880716
20
2.00358979797164
30
0
41
1
10
4.25120989644682
20
2.26797609016279
30
0
41
1
10
4.25121905486265
20
2.35533398475133
30
0
41
1
10
4.25123673159908
20
2.52669589825669
30
0
41
1
10
4.251245276833
20
2.61095239764362
30
0
41
1
10
4.25128631386144
20
3.0252292238327
30
0
41
1
10
4.25131387997803
20
3.33446214186907
30
0
41
1
10
4.25133227486074
20
3.62113085157242
30
0
0
SPLINE
5
C1
100
AcDbEntity
8
1
62
256
6
ByLayer
370
18
48
1
60
0
100
AcDbSpline
70
4
71
3
72
12
73
8
40
0
40
0
40
0
40
0
40
0.25
40
0.25
40
0.5
40
0.5
40
1
40
1
40
1
40
1
41
1
10
71.0482531329903
20
-5.54740857682341
30
0
41
1
10
71.0531798559967
20
-5.53417869038722
30
0
41
1
10
71.0579120167656
20
-5.52065420930344
30
0
41
1
10
71.0656822879719
20
-5.49638359267723
30
0
41
1
10
71.0687011987963
20
-5.48565723430553
30
0
41
1
10
71.0739910919647
20
-5.46221424953461
30
0
41
1
10
71.0727613841283
20
-5.45801407555143
30
0
41
1
10
71.0690400461607
20
-5.461117964376
30
0
0
SPLINE
5
C2
100
AcDbEntity
8
1
62
256
6
ByLayer
370
18
48
1
60
0
100
AcDbSpline
70
4
71
3
72
8
73
4
40
0
40
0
40
0
40
0
40
1
40
1
40
1
40
1
41
1
10
70.9890238339826
20
-5.70620242957759
30
0
41
1
10
71.0087837487951
20
-5.65331146563165
30
0
41
1
10
71.028526851707
20
-5.60038018916038
30
0
41
1
10
71.0482531329876
20
-5.54740857683097
30
0
0
SPLINE
5
C3
100
AcDbEntity
8
1
62
256
6
ByLayer
370
18
48
1
60
0
100
AcDbSpline
70
4
71
3
72
20
73
16
40
0
40
0
40
0
40
0
40
0.0249706056628865
40
0.0249706056628865
40
0.260541974670475
40
0.260541974670475
40
0.378327659174269
40
0.378327659174269
40
0.437220501426167
40
0.437220501426167
40
0.496113343678066
40
0.496113343678066
40
0.967256081693269
40
0.967256081693269
40
1
40
1
40
1
40
1
41
1
10
24.8828985987283
20
0.0025777077870259
30
0
41
1
10
24.956418141662
20
-0.0403529766824988
30
0
41
1
10
25.02991768784
20
-0.0832736661309355
30
0
41
1
10
25.7966514294848
20
-0.530911312534016
30
0
41
1
10
26.4886289672097
20
-0.933859431407569
30
0
41
1
10
27.5307037873314
20
-1.52516564952782
30
0
41
1
10
27.8787793645877
20
-1.72002580970337
30
0
41
1
10
28.4027795910598
20
-2.00753460829483
30
0
41
1
10
28.5777610160695
20
-2.10257354099852
30
0
41
1
10
28.9284484680037
20
-2.29089345543295
30
0
41
1
10
29.1042856858753
20
-2.38423894075331
30
0
41
1
10
30.6813143429323
20
-3.21005294455492
30
0
41
1
10
32.0599118846799
20
-3.85122643631456
30
0
41
1
10
33.5450360792298
20
-4.39285944175575
30
0
41
1
10
33.6415903068308
20
-4.42740618358621
30
0
41
1
10
33.7382043458424
20
-4.46128777070433
30
0
0
SPLINE
5
C4
100
AcDbEntity
8
1
62
256
6
ByLayer
370
13
48
1
60
0
100
AcDbSpline
70
4
71
3
72
16
73
12
40
0
40
0
40
0
40
0
40
0.0976076002365219
40
0.0976076002365219
40
0.232797384377701
40
0.232797384377701
40
0.36798716851888
40
0.36798716851888
40
0.503176952660059
40
0.503176952660059
40
1
40
1
40
1
40
1
41
1
10
33.7382043464012
20
-4.46128777090033
30
0
41
1
10
33.9891281495311
20
-4.549284264806
30
0
41
1
10
34.2404554004042
20
-4.63279407021776
30
0
41
1
10
34.8413835401796
20
-4.82063515245198
30
0
41
1
10
35.1920346341259
20
-4.92078578733631
30
0
41
1
10
35.8942552294643
20
-5.10087726723782
30
0
41
1
10
36.2448896349953
20
-5.18058881222879
30
0
41
1
10
36.9463356672716
20
-5.3187737371191
30
0
41
1
10
37.2973641995347
20
-5.37729802630966
30
0
41
1
10
38.9385054833339
20
-5.59916017334282
30
0
41
1
10
40.2071900495424
20
-5.62163662515587
30
0
41
1
10
41.4804682666972
20
-5.4965769337376
30
0
0
SPLINE
5
C5
100
AcDbEntity
8
1
62
256
6
ByLayer
370
18
48
1
60
0
100
AcDbSpline
70
4
71
3
72
54
73
50
40
0
40
0
40
0
40
0
40
0.0795576285705108
40
0.0795576285705108
40
0.119336442855766
40
0.119336442855766
40
0.159115257141021
40
0.159115257141021
40
0.198894071426276
40
0.198894071426276
40
0.238672885711531
40
0.238672885711531
40
0.278451699996786
40
0.278451699996786
40
0.318230514282041
40
0.318230514282041
40
0.397788142852553
40
0.397788142852553
40
0.437566957137808
40
0.437566957137808
40
0.477345771423064
40
0.477345771423064
40
0.51712458570832
40
0.51712458570832
40
0.556903399993576
40
0.556903399993576
40
0.596682214278831
40
0.596682214278831
40
0.636461028564087
40
0.636461028564087
40
0.676239842849343
40
0.676239842849343
40
0.716018657134599
40
0.716018657134599
40
0.755797471419855
40
0.755797471419855
40
0.79557628570511
40
0.79557628570511
40
0.835355099990366
40
0.835355099990366
40
0.875133914275622
40
0.875133914275622
40
0.914912728560878
40
0.914912728560878
40
0.954691542846134
40
0.954691542846134
40
0.99447035713139
40
0.99447035713139
40
1
40
1
40
1
40
1
41
1
10
10.4359082510168
20
-0.125867226835311
30
0
41
1
10
11.0078398429017
20
-0.453782719486668
30
0
41
1
10
11.5761391583662
20
-0.776936184947544
30
0
41
1
10
12.4247636790663
20
-1.25407765342695
30
0
41
1
10
12.7068672872512
20
-1.41189106563317
30
0
41
1
10
13.2713421023457
20
-1.72168132711536
30
0
41
1
10
13.5535448224586
20
-1.87404670859252
30
0
41
1
10
14.1178430903334
20
-2.17430317127241
30
0
41
1
10
14.3999125369078
20
-2.32203008364289
30
0
41
1
10
14.9642957831462
20
-2.61152204830842
30
0
41
1
10
15.2470235779605
20
-2.75275336402743
30
0
41
1
10
15.8139272442439
20
-3.02807399265143
30
0
41
1
10
16.0979316031074
20
-3.16261241976619
30
0
41
1
10
16.6674718993402
20
-3.42350749468761
30
0
41
1
10
16.9535570980192
20
-3.55033251390438
30
0
41
1
10
17.8092528893335
20
-3.91366399071205
30
0
41
1
10
18.3769874219197
20
-4.13523622270213
30
0
41
1
10
19.2243356102889
20
-4.43170408528616
30
0
41
1
10
19.5063628197727
20
-4.52469271843609
30
0
41
1
10
20.0707966417539
20
-4.69873203855857
30
0
41
1
10
20.3529645725186
20
-4.7802471343997
30
0
41
1
10
20.9173236956639
20
-4.92908514169005
30
0
41
1
10
21.1994000349129
20
-4.99691799222728
30
0
41
1
10
21.7645107799015
20
-5.11989630913061
30
0
41
1
10
22.047785170193
20
-5.17515634448563
30
0
41
1
10
22.6155644559157
20
-5.27257248901824
30
0
41
1
10
22.900215060265
20
-5.31363769474609
30
0
41
1
10
23.471110548999
20
-5.38169252370972
30
0
41
1
10
23.7570236134882
20
-5.40861075838362
30
0
41
1
10
24.3266965129515
20
-5.44883585985266
30
0
41
1
10
24.6108325931618
20
-5.46207653549558
30
0
41
1
10
25.1775422785389
20
-5.47191295733467
30
0
41
1
10
25.4601514608742
20
-5.46933813615607
30
0
41
1
10
26.0245364121866
20
-5.45073840124181
30
0
41
1
10
26.3067561103441
20
-5.43527200990152
30
0
41
1
10
26.871161012943
20
-5.3891935595658
30
0
41
1
10
27.153359920932
20
-5.35772228456062
30
0
41
1
10
27.7179051274808
20
-5.2814491049765
30
0
41
1
10
28.0000975988374
20
-5.23634945343005
30
0
41
1
10
28.5660551862455
20
-5.1344806651914
30
0
41
1
10
28.8497122754786
20
-5.07673673406404
30
0
41
1
10
29.4187404300896
20
-4.94496449342762
30
0
41
1
10
29.7041710571462
20
-4.87200824226269
30
0
41
1
10
30.2759028770049
20
-4.71340311520524
30
0
41
1
10
30.5614240865719
20
-4.62880283935311
30
0
41
1
10
31.1323090236169
20
-4.44672903534783
30
0
41
1
10
31.4175576981871
20
-4.34890618440713
30
0
41
1
10
31.7423531749912
20
-4.2311348291754
30
0
41
1
10
31.7819867674688
20
-4.21665346681502
30
0
41
1
10
31.8216167596264
20
-4.20206584274339
30
0
0
SPLINE
5
C6
100
AcDbEntity
8
1
62
256
6
ByLayer
370
18
48
1
60
0
100
AcDbSpline
70
4
71
3
72
26
73
22
40
0
40
0
40
0
40
0
40
0.0309227083023079
40
0.0309227083023079
40
0.119020643911189
40
0.119020643911189
40
0.207118579520069
40
0.207118579520069
40
0.295216515128949
40
0.295216515128949
40
0.38331445073783
40
0.38331445073783
40
0.471412386346711
40
0.471412386346711
40
0.647608257564473
40
0.647608257564473
40
0.735706193173354
40
0.735706193173354
40
0.823804128782235
40
0.823804128782235
40
1
40
1
40
1
40
1
41
1
10
55.2903683360588
20
5.48518913566431
30
0
41
1
10
55.3906962898957
20
5.4842817305416
30
0
41
1
10
55.4910782917111
20
5.48241129013803
30
0
41
1
10
55.8776662358257
20
5.47152081303915
30
0
41
1
10
56.1631966217976
20
5.45605619964408
30
0
41
1
10
56.7334479472743
20
5.41188115178014
30
0
41
1
10
57.0186485730583
20
5.38378475609133
30
0
41
1
10
57.5891177589557
20
5.3111123968699
30
0
41
1
10
57.874403550968
20
5.26686072232025
30
0
41
1
10
58.4452777397058
20
5.16359746866436
30
0
41
1
10
58.7310674093367
20
5.10451042459732
30
0
41
1
10
59.3028488960659
20
4.97361156653815
30
0
41
1
10
59.588519064892
20
4.90176131630943
30
0
41
1
10
60.4448020646817
20
4.66787592931604
30
0
41
1
10
61.0139637043545
20
4.48770155753172
30
0
41
1
10
61.8715999197682
20
4.17972393768642
30
0
41
1
10
62.1582216040867
20
4.0707352382048
30
0
41
1
10
62.7283633956492
20
3.84302996120044
30
0
41
1
10
63.0122033803106
20
3.72383824709957
30
0
41
1
10
63.8627756671169
20
3.35378043489519
30
0
41
1
10
64.4282712448066
20
3.09024096910054
30
0
41
1
10
64.9924422026626
20
2.81087339914038
30
0
0
SPLINE
5
C7
100
AcDbEntity
8
1
62
256
6
ByLayer
370
13
48
1
60
0
100
AcDbSpline
70
4
71
3
72
10
73
6
40
0
40
0
40
0
40
0
40
0.5
40
0.5
40
1
40
1
40
1
40
1
41
1
10
4.12375096607076
20
-4.45918508355857
30
0
41
1
10
4.14313934495652
20
-4.45381547360088
30
0
41
1
10
4.16400793323345
20
-4.45091237226123
30
0
41
1
10
4.20649456755189
20
-4.45004569701575
30
0
41
1
10
4.22818612991878
20
-4.45200003493522
30
0
41
1
10
4.25032395965152
20
-4.45640711366369
30
0
0
SPLINE
5
C8
100
AcDbEntity
8
1
62
256
6
ByLayer
370
18
48
1
60
0
100
AcDbSpline
70
4
71
3
72
36
73
32
40
0
40
0
40
0
40
0
40
0.249999999999997
40
0.249999999999997
40
0.374999999999998
40
0.374999999999998
40
0.437499999999998
40
0.437499999999998
40
0.499999999999999
40
0.499999999999999
40
0.624999999999999
40
0.624999999999999
40
0.75
40
0.75
40
0.781250000000002
40
0.781250000000002
40
0.812500000000003
40
0.812500000000003
40
0.843750000000004
40
0.843750000000004
40
0.875000000000006
40
0.875000000000006
40
0.890625000000005
40
0.890625000000005
40
0.906250000000004
40
0.906250000000004
40
0.937500000000003
40
0.937500000000003
40
0.968750000000001
40
0.968750000000001
40
1
40
1
40
1
40
1
41
1
10
64.9924422026627
20
2.81087339914032
30
0
41
1
10
65.4466548213744
20
2.43214295896189
30
0
41
1
10
65.9120676781762
20
2.08655390367335
30
0
41
1
10
66.6304308906988
20
1.62807188547367
30
0
41
1
10
66.873233246797
20
1.48515110006082
30
0
41
1
10
67.2431388318052
20
1.28764222954038
30
0
41
1
10
67.3673951340855
20
1.22463011894132
30
0
41
1
10
67.6179926766025
20
1.10477520688855
30
0
41
1
10
67.7439432705093
20
1.04813775090719
30
0
41
1
10
68.1206596908376
20
0.890117401107574
30
0
41
1
10
68.3715040706562
20
0.799884649388304
30
0
41
1
10
68.8725001219836
20
0.654329722923165
30
0
41
1
10
69.1235267593805
20
0.598883969077264
30
0
41
1
10
69.4313297887092
20
0.557186964062254
30
0
41
1
10
69.4922405730694
20
0.552100985558354
30
0
41
1
10
69.6119190174132
20
0.548845982326071
30
0
41
1
10
69.670908072312
20
0.550806524278499
30
0
41
1
10
69.7841319474718
20
0.564226783169886
30
0
41
1
10
69.8385607284406
20
0.575460079758074
30
0
41
1
10
69.9408259882593
20
0.611584916315962
30
0
41
1
10
69.9885960218331
20
0.637722822472568
30
0
41
1
10
70.050206237994
20
0.687709849841099
30
0
41
1
10
70.0692255754521
20
0.70619670233782
30
0
41
1
10
70.1039540657143
20
0.747150544482849
30
0
41
1
10
70.1196977444293
20
0.769768435160813
30
0
41
1
10
70.1599294347278
20
0.841984299204768
30
0
41
1
10
70.1780551183081
20
0.896511311759042
30
0
41
1
10
70.1965236393538
20
1.01815419382797
30
0
41
1
10
70.1965433275834
20
1.082345774304
30
0
41
1
10
70.1816924403108
20
1.21617490317541
30
0
41
1
10
70.166742120198
20
1.28453266074729
30
0
41
1
10
70.1472954029217
20
1.35253012897621
30
0
0
SPLINE
5
C9
100
AcDbEntity
8
1
62
256
6
ByLayer
370
13
48
1
60
0
100
AcDbSpline
70
4
71
3
72
14
73
10
40
0
40
0
40
0
40
0
40
0.25
40
0.25
40
0.5
40
0.5
40
0.75
40
0.75
40
1
40
1
40
1
40
1
41
1
10
4.00000015257251
20
-4.5589948359154
30
0
41
1
10
4.00000015257251
20
-4.56099169853618
30
0
41
1
10
4.00265636167546
20
-4.56300230026807
30
0
41
1
10
4.0132897442067
20
-4.56681938314637
30
0
41
1
10
4.02111791782588
20
-4.56860982903692
30
0
41
1
10
4.04180119818875
20
-4.57195782923699
30
0
41
1
10
4.05492181286749
20
-4.57353981655677
30
0
41
1
10
4.08587298473893
20
-4.57632802215298
30
0
41
1
10
4.1035337476562
20
-4.57753498219344
30
0
41
1
10
4.12375096607076
20
-4.57854090665339
30
0
0
SPLINE
5
CA
100
AcDbEntity
8
1
62
256
6
ByLayer
370
18
48
1
60
0
100
AcDbSpline
70
4
71
3
72
14
73
10
40
0
40
0
40
0
40
0
40
0.37786325160753
40
0.37786325160753
40
0.712704989424174
40
0.712704989424174
40
0.8801258583325
40
0.8801258583325
40
1
40
1
40
1
40
1
41
1
10
40.0409731397087
20
-5.47650510055703
30
0
41
1
10
39.2590036976461
20
-5.47511599461282
30
0
41
1
10
38.4749950033915
20
-5.41845610032354
30
0
41
1
10
36.9814022746165
20
-5.20581892686303
30
0
41
1
10
36.2809657627868
20
-5.06299002992512
30
0
41
1
10
35.2282990218892
20
-4.78860559344454
30
0
41
1
10
34.8779409179674
20
-4.68733263183913
30
0
41
1
10
34.2794379554685
20
-4.4986937514885
30
0
41
1
10
34.0303136604211
20
-4.41545262286326
30
0
41
1
10
33.7815773384647
20
-4.32792992324144
30
0
0
SPLINE
5
CB
100
AcDbEntity
8
1
62
256
6
ByLayer
370
13
48
1
60
0
100
AcDbSpline
70
4
71
3
72
26
73
22
40
0
40
0
40
0
40
0
40
0.0229380686367156
40
0.0229380686367156
40
0.346013860489345
40
0.346013860489345
40
0.386398334470923
40
0.386398334470923
40
0.426782808452501
40
0.426782808452501
40
0.507551756415657
40
0.507551756415657
40
0.669089652341972
40
0.669089652341972
40
0.830627548268288
40
0.830627548268288
40
0.911396496231446
40
0.911396496231446
40
0.992165444194604
40
0.992165444194604
40
1
40
1
40
1
40
1
41
1
10
33.7815782821137
20
-4.32793025528264
30
0
41
1
10
33.6829195084744
20
-4.29321525652435
30
0
41
1
10
33.5843217720787
20
-4.25782666690287
30
0
41
1
10
32.0977241583441
20
-3.71407465502284
30
0
41
1
10
30.7192373042957
20
-3.07597714807443
30
0
41
1
10
29.1430449310654
20
-2.25861935737655
30
0
41
1
10
28.9673267320404
20
-2.16629567427796
30
0
41
1
10
28.616884861185
20
-1.98016768618453
30
0
41
1
10
28.4420096204491
20
-1.88628815795624
30
0
41
1
10
27.9183077864281
20
-1.60240306531307
30
0
41
1
10
27.5704013822173
20
-1.4101577047185
30
0
41
1
10
26.5287666782291
20
-0.82729794894766
30
0
41
1
10
25.8369459743862
20
-0.430871362382931
30
0
41
1
10
24.4508669025347
20
0.364166415662083
30
0
41
1
10
23.7564750723809
20
0.762527988377144
30
0
41
1
10
22.7068544759019
20
1.35070787658498
30
0
41
1
10
22.3550379748473
20
1.54545011189856
30
0
41
1
10
21.6558627326363
20
1.92539953475134
30
0
41
1
10
21.3075686796232
20
2.11116229481237
30
0
41
1
10
20.9263314794613
20
2.30947170757787
30
0
41
1
10
20.89262870228
20
2.32695987263281
30
0
41
1
10
20.8589326838562
20
2.34440047980811
30
0
0
SPLINE
5
CC
100
AcDbEntity
8
1
62
256
6
ByLayer
370
18
48
1
60
0
100
AcDbSpline
70
4
71
3
72
23
73
19
40
0
40
0
40
0
40
0
40
0.125000000000001
40
0.125000000000001
40
0.187500000000001
40
0.187500000000001
40
0.250000000000001
40
0.250000000000001
40
0.5
40
0.5
40
0.562499999999999
40
0.562499999999999
40
0.624999999999999
40
0.624999999999999
40
0.749999999999999
40
0.875
40
0.875
40
1
40
1
40
1
40
1
41
1
10
70.9999986666414
20
-5.49495850229374
30
0
41
1
10
70.920483789443
20
-5.49490829396117
30
0
41
1
10
70.8447771078893
20
-5.48337407470137
30
0
41
1
10
70.7372120632906
20
-5.4479942655515
30
0
41
1
10
70.7023586419364
20
-5.43318058619442
30
0
41
1
10
70.6347356208547
20
-5.39726924615042
30
0
41
1
10
70.6018595917506
20
-5.37607655877781
30
0
41
1
10
70.4448111697986
20
-5.25515223271239
30
0
41
1
10
70.34155968307
20
-5.1112203521046
30
0
41
1
10
70.2418190895251
20
-4.86949088057418
30
0
41
1
10
70.2233561460785
20
-4.81801423051289
30
0
41
1
10
70.1895174936493
20
-4.70855302703905
30
0
41
1
10
70.1741013318786
20
-4.65033302607696
30
0
41
1
10
70.1332957290409
20
-4.4682982970034
30
0
41
1
10
70.0929153640351
20
-4.20500429801123
30
0
41
1
10
70.0801241743345
20
-3.90123056061628
30
0
41
1
10
70.0815011387672
20
-3.57666884508768
30
0
41
1
10
70.0894115989674
20
-3.40324697420678
30
0
41
1
10
70.1043679008286
20
-3.22350606180527
30
0
0
SPLINE
5
CD
100
AcDbEntity
8
1
62
256
6
ByLayer
370
18
48
1
60
0
100
AcDbSpline
70
4
71
3
72
24
73
20
40
0
40
0
40
0
40
0
40
0.250000000000012
40
0.250000000000012
40
0.37500000000001
40
0.37500000000001
40
0.500000000000008
40
0.500000000000008
40
0.625000000000006
40
0.625000000000006
40
0.750000000000004
40
0.750000000000004
40
0.812500000000003
40
0.812500000000003
40
0.875000000000002
40
0.875000000000002
40
0.937500000000001
40
0.937500000000001
40
1
40
1
40
1
40
1
41
1
10
70.3198492565624
20
1.62392740285932
30
0
41
1
10
70.5157130106443
20
1.65983707175394
30
0
41
1
10
70.7111857991828
20
1.70116040014949
30
0
41
1
10
71.0009148568699
20
1.7775710563491
30
0
41
1
10
71.0967017056863
20
1.80542925626446
30
0
41
1
10
71.286037585236
20
1.86803791289228
30
0
41
1
10
71.379739972341
20
1.9028262070585
30
0
41
1
10
71.5615880739533
20
1.98205240998837
30
0
41
1
10
71.6500070952886
20
2.02641846596202
30
0
41
1
10
71.8183237045303
20
2.13164048060597
30
0
41
1
10
71.8985180820318
20
2.19273082359004
30
0
41
1
10
72.0001864364392
20
2.30272007973196
30
0
41
1
10
72.0309845196589
20
2.34271915171649
30
0
41
1
10
72.0820469011579
20
2.42764193556636
30
0
41
1
10
72.1027234768622
20
2.47306675222075
30
0
41
1
10
72.1318695451039
20
2.57021381516387
30
0
41
1
10
72.1396638806889
20
2.61962862256078
30
0
41
1
10
72.1430593155633
20
2.71999921686737
30
0
41
1
10
72.1384733080428
20
2.77118609543936
30
0
41
1
10
72.1291540875574
20
2.82052337497527
30
0
0
SPLINE
5
CE
100
AcDbEntity
8
1
62
256
6
ByLayer
370
18
48
1
60
0
100
AcDbSpline
70
4
71
3
72
14
73
10
40
0
40
0
40
0
40
0
40
0.25
40
0.25
40
0.5
40
0.5
40
0.75
40
0.75
40
1
40
1
40
1
40
1
41
1
10
4.12146414247533
20
-4.6885587641255
30
0
41
1
10
4.10285767077735
20
-4.6821839600459
30
0
41
1
10
4.08608437800223
20
-4.67456357460819
30
0
41
1
10
4.05609234540387
20
-4.65683433458898
30
0
41
1
10
4.04298115863168
20
-4.64670190996216
30
0
41
1
10
4.02191053908669
20
-4.62496166406163
30
0
41
1
10
4.01366008984542
20
-4.61303524107109
30
0
41
1
10
4.0027728693297
20
-4.58849638835045
30
0
41
1
10
4.00000015257248
20
-4.57585310437133
30
0
41
1
10
4.00000015257248
20
-4.56281191600226
30
0
0
SPLINE
5
CF
100
AcDbEntity
8
1
62
256
6
ByLayer
370
18
48
1
60
0
100
AcDbSpline
70
4
71
3
72
18
73
14
40
0
40
0
40
0
40
0
40
0.25
40
0.25
40
0.5
40
0.5
40
0.625
40
0.625
40
0.75
40
0.75
40
0.875
40
0.875
40
1
40
1
40
1
40
1
41
1
10
72.1291540875595
20
2.8205233749762
30
0
41
1
10
72.041739101238
20
3.05551314118713
30
0
41
1
10
71.954005440114
20
3.28994359429581
30
0
41
1
10
71.7784228842834
20
3.75860225153693
30
0
41
1
10
71.6905133588303
20
3.99282796799474
30
0
41
1
10
71.5582543020074
20
4.34314717550004
30
0
41
1
10
71.5141305511721
20
4.45950300755047
30
0
41
1
10
71.4258629565069
20
4.69199050412126
30
0
41
1
10
71.3817246984773
20
4.80818448663317
30
0
41
1
10
71.2934036359806
20
5.04007546923935
30
0
41
1
10
71.2492232153326
20
5.15579906441903
30
0
41
1
10
71.1607504308271
20
5.38599736014785
30
0
41
1
10
71.1164379139792
20
5.50024722382094
30
0
41
1
10
71.0721151711875
20
5.61438300173376
30
0
0
SPLINE
5
D0
100
AcDbEntity
8
1
62
256
6
ByLayer
370
18
48
1
60
0
100
AcDbSpline
70
4
71
3
72
18
73
14
40
0
40
0
40
0
40
0
40
0.250000000000002
40
0.250000000000002
40
0.500000000000005
40
0.500000000000005
40
0.625000000000004
40
0.625000000000004
40
0.750000000000002
40
0.750000000000002
40
0.875000000000001
40
0.875000000000001
40
1
40
1
40
1
40
1
41
1
10
72.129154087554
20
-2.82052337499113
30
0
41
1
10
72.0417391012328
20
-3.05551314120078
30
0
41
1
10
71.9540054401093
20
-3.2899435943082
30
0
41
1
10
71.7784228842796
20
-3.75860225154685
30
0
41
1
10
71.690513358827
20
-3.99282796800341
30
0
41
1
10
71.5582543020049
20
-4.34314717550683
30
0
41
1
10
71.5141305511697
20
-4.45950300755661
30
0
41
1
10
71.4258629565049
20
-4.69199050412621
30
0
41
1
10
71.3817246984756
20
-4.80818448663746
30
0
41
1
10
71.2934036359794
20
-5.04007546924242
30
0
41
1
10
71.2492232153317
20
-5.15579906442147
30
0
41
1
10
71.1607504308266
20
-5.38599736014908
30
0
41
1
10
71.116437913979
20
-5.50024722382153
30
0
41
1
10
71.0721151711875
20
-5.61438300173376
30
0
0
SPLINE
5
D1
100
AcDbEntity
8
1
62
256
6
ByLayer
370
18
48
1
60
0
100
AcDbSpline
70
4
71
3
72
44
73
40
40
0
40
0
40
0
40
0
40
0.0335480413653246
40
0.0335480413653246
40
0.0670960827306492
40
0.0670960827306492
40
0.134192165461298
40
0.134192165461298
40
0.167740206826623
40
0.167740206826623
40
0.201288248191949
40
0.201288248191949
40
0.234836289557274
40
0.234836289557274
40
0.268384330922599
40
0.268384330922599
40
0.402576496383898
40
0.402576496383898
40
0.436124537749223
40
0.436124537749223
40
0.469672579114548
40
0.469672579114548
40
0.536768661845199
40
0.536768661845199
40
0.603864744575849
40
0.603864744575849
40
0.637412785941174
40
0.637412785941174
40
0.6709608273065
40
0.6709608273065
40
0.805152992767801
40
0.805152992767801
40
0.838701034133127
40
0.838701034133127
40
0.872249075498453
40
0.872249075498453
40
0.939345158229104
40
0.939345158229104
40
1
40
1
40
1
40
1
41
1
10
70.9890238339826
20
-5.70620242957759
30
0
41
1
10
70.6388326002951
20
-5.73204945825216
30
0
41
1
10
70.2888019145194
20
-5.74625380417905
30
0
41
1
10
69.5881322934238
20
-5.75139086038544
30
0
41
1
10
69.2370575728308
20
-5.74227799437412
30
0
41
1
10
68.1862879565595
20
-5.68022971871028
30
0
41
1
10
67.4880827950246
20
-5.59274660716559
30
0
41
1
10
66.4377661779599
20
-5.39453616325829
30
0
41
1
10
66.0866806894535
20
-5.31718129306668
30
0
41
1
10
65.3863515559426
20
-5.14171226199315
30
0
41
1
10
65.0367083167806
20
-5.04355697916657
30
0
41
1
10
64.3373787076177
20
-4.82735542271521
30
0
41
1
10
63.9876932457878
20
-4.70930782240063
30
0
41
1
10
63.2871745387661
20
-4.45425211977025
30
0
41
1
10
62.935882998721
20
-4.31702096229739
30
0
41
1
10
61.1898481335837
20
-3.59289353639889
30
0
41
1
10
59.8143291907919
20
-2.88838163113226
30
0
41
1
10
58.0773295304708
20
-1.91543320944945
30
0
41
1
10
57.7290516748816
20
-1.71622788528236
30
0
41
1
10
57.0297659629776
20
-1.30994576311224
30
0
41
1
10
56.6781969565154
20
-1.10255503276576
30
0
41
1
10
55.6306468867199
20
-0.479035121240514
30
0
41
1
10
54.937370699091
20
-0.0598573702398539
30
0
41
1
10
53.5530876529368
20
0.772241528689932
30
0
41
1
10
52.8616294184957
20
1.18440136825046
30
0
41
1
10
51.8198404581846
20
1.78733020671663
30
0
41
1
10
51.4716704556579
20
1.98552154184239
30
0
41
1
10
50.7724337612051
20
2.37451695061216
30
0
41
1
10
50.4207272319144
20
2.56572297110733
30
0
41
1
10
48.6741412054816
20
3.48821848422338
30
0
41
1
10
47.2978134592003
20
4.12493199077107
30
0
41
1
10
45.5613158694332
20
4.74330670301723
30
0
41
1
10
45.2131802163896
20
4.8580556720689
30
0
41
1
10
44.5140200235426
20
5.06826211275816
30
0
41
1
10
44.1622307356037
20
5.1639078376177
30
0
41
1
10
43.1137825730939
20
5.41730707279459
30
0
41
1
10
42.420112992739
20
5.54244113524146
30
0
41
1
10
41.1015934881744
20
5.69582122988407
30
0
41
1
10
40.476430312627
20
5.73215973389512
30
0
41
1
10
39.8489785973195
20
5.73126092537385
30
0
0
SPLINE
5
D2
100
AcDbEntity
8
1
62
256
6
ByLayer
370
18
48
1
60
0
100
AcDbSpline
70
4
71
3
72
18
73
14
40
0
40
0
40
0
40
0
40
0.0256972981025327
40
0.0256972981025327
40
0.2692729735769
40
0.2692729735769
40
0.391060811314082
40
0.391060811314082
40
0.512848649051265
40
0.512848649051265
40
0.756424324525632
40
0.756424324525632
40
1
40
1
40
1
40
1
41
1
10
12.70468231542
20
-5.47157895143019
30
0
41
1
10
12.6315907530862
20
-5.48419012420996
30
0
41
1
10
12.5584926911972
20
-5.49631859909164
30
0
41
1
10
11.7923984215379
20
-5.61832019644032
30
0
41
1
10
11.0984974103905
20
-5.68515544308966
30
0
41
1
10
10.0496260691373
20
-5.71662704362265
30
0
41
1
10
9.69765666225504
20
-5.71558536628152
30
0
41
1
10
8.9971438198865
20
-5.69032397075679
30
0
41
1
10
8.64819343633351
20
-5.66619041127095
30
0
41
1
10
7.60348823581842
20
-5.5602261859037
30
0
41
1
10
6.91008038082413
20
-5.44475103575488
30
0
41
1
10
5.52007114144942
20
-5.12914712282378
30
0
41
1
10
4.82351398711018
20
-4.92908960126098
30
0
41
1
10
4.12146414247542
20
-4.68855876412553
30
0
0
SPLINE
5
D3
100
AcDbEntity
8
1
62
256
6
ByLayer
370
18
48
1
60
0
100
AcDbSpline
70
4
71
3
72
64
73
60
40
0
40
0
40
0
40
0
40
0.125000000000013
40
0.125000000000013
40
0.250000000000027
40
0.250000000000027
40
0.375000000000041
40
0.375000000000041
40
0.500000000000054
40
0.500000000000054
40
0.562500000000061
40
0.562500000000061
40
0.625000000000068
40
0.625000000000068
40
0.687500000000074
40
0.687500000000074
40
0.689453125000074
40
0.689453125000074
40
0.691406250000074
40
0.691406250000074
40
0.695312500000073
40
0.695312500000073
40
0.697265625000072
40
0.697265625000072
40
0.699218750000071
40
0.699218750000071
40
0.703125000000069
40
0.703125000000069
40
0.718750000000065
40
0.718750000000065
40
0.750000000000059
40
0.750000000000059
40
0.765625000000055
40
0.765625000000055
40
0.781250000000051
40
0.781250000000051
40
0.796875000000047
40
0.796875000000047
40
0.812500000000044
40
0.812500000000044
40
0.820312500000042
40
0.820312500000042
40
0.82812500000004
40
0.82812500000004
40
0.843750000000036
40
0.843750000000036
40
0.859375000000032
40
0.859375000000032
40
0.875000000000029
40
0.875000000000029
40
0.890625000000025
40
0.890625000000025
40
0.906250000000021
40
0.906250000000021
40
0.937500000000014
40
0.937500000000014
40
0.968750000000007
40
0.968750000000007
40
1
40
1
40
1
40
1
41
1
10
16.7244752798241
20
3.97643930900918
30
0
41
1
10
15.9905192830899
20
4.29363987547265
30
0
41
1
10
15.2479437084285
20
4.56186614171321
30
0
41
1
10
13.7376147330872
20
5.00544160990344
30
0
41
1
10
12.9778982733094
20
5.17791695725748
30
0
41
1
10
11.4369877178863
20
5.43919040274375
30
0
41
1
10
10.6556834812756
20
5.52797239318872
30
0
41
1
10
9.06105001910259
20
5.64660566129743
30
0
41
1
10
8.24772569156056
20
5.67676782037717
30
0
41
1
10
6.9987909887405
20
5.70053025665206
30
0
41
1
10
6.57768417985963
20
5.70486760268003
30
0
41
1
10
5.73247190763377
20
5.70971953177403
30
0
41
1
10
5.30708463439245
20
5.71026267777475
30
0
41
1
10
4.45386929122191
20
5.71018199403082
30
0
41
1
10
4.02600187398053
20
5.70956788157559
30
0
41
1
10
3.58350118379738
20
5.70909766066634
30
0
41
1
10
3.57009214838521
20
5.70908351548297
30
0
41
1
10
3.54327423057674
20
5.70905545711943
30
0
41
1
10
3.52986478055419
20
5.70904018582732
30
0
41
1
10
3.48965186100318
20
5.7090310463042
30
0
41
1
10
3.4624225753557
20
5.70906671303288
30
0
41
1
10
3.42483613083834
20
5.70916808694591
30
0
41
1
10
3.41278885266846
20
5.70921001368768
30
0
41
1
10
3.39003791792379
20
5.70929456840287
30
0
41
1
10
3.37868070269096
20
5.70932472703475
30
0
41
1
10
3.34467344483704
20
5.70937733748806
30
0
41
1
10
3.32211539276531
20
5.70936190577512
30
0
41
1
10
3.20991486020799
20
5.70901342790049
30
0
41
1
10
3.12203189938779
20
5.70787408265863
30
0
41
1
10
2.86508891634483
20
5.70098595379599
30
0
41
1
10
2.70431755388475
20
5.69193255021173
30
0
41
1
10
2.4882530287895
20
5.66668079602587
30
0
41
1
10
2.42035540437178
20
5.65628827787069
30
0
41
1
10
2.29505084036799
20
5.63005232973791
30
0
41
1
10
2.23870704110829
20
5.61438276616821
30
0
41
1
10
2.14213293191472
20
5.5770263555693
30
0
41
1
10
2.10150482840692
20
5.55516610132787
30
0
41
1
10
2.03949488081986
20
5.50425738810426
30
0
41
1
10
2.01878485646358
20
5.47583298812228
30
0
41
1
10
2.00295099469511
20
5.42844262390713
30
0
41
1
10
2.00021370940991
20
5.41185310197633
30
0
41
1
10
1.99981001989536
20
5.37703264722697
30
0
41
1
10
2.00218339759744
20
5.35871383940091
30
0
41
1
10
2.01651436143359
20
5.30237873938265
30
0
41
1
10
2.0355560239172
20
5.26273755224324
30
0
41
1
10
2.08959311509841
20
5.1795788945478
30
0
41
1
10
2.12482899850562
20
5.13589305622904
30
0
41
1
10
2.20639004744339
20
5.04745290433053
30
0
41
1
10
2.25288231453709
20
5.00239017959066
30
0
41
1
10
2.35489107273625
20
4.91069100073935
30
0
41
1
10
2.41042127874385
20
4.86405406454514
30
0
41
1
10
2.52890042581578
20
4.76928049679864
30
0
41
1
10
2.59162827696264
20
4.72133623152104
30
0
41
1
10
2.78610724327382
20
4.57747686845335
30
0
41
1
10
2.92491830994112
20
4.48082703535596
30
0
41
1
10
3.21489913991817
20
4.28553005915589
30
0
41
1
10
3.36614258647822
20
4.18688929705377
30
0
41
1
10
3.6778779701481
20
3.98731580425869
30
0
41
1
10
3.83811627624925
20
3.88657122338407
30
0
41
1
10
4.00000015255512
20
3.78580689238879
30
0
0
SPLINE
5
D4
100
AcDbEntity
8
1
62
256
6
ByLayer
370
18
48
1
60
0
100
AcDbSpline
70
4
71
3
72
10
73
6
40
0
40
0
40
0
40
0
40
0.886516660438294
40
0.886516660438294
40
1
40
1
40
1
40
1
41
1
10
70.9890238339826
20
5.70620242957759
30
0
41
1
10
70.6389257167916
20
5.73204258547946
30
0
41
1
10
70.2888389488741
20
5.74625726038585
30
0
41
1
10
69.893426183409
20
5.74915207782212
30
0
41
1
10
69.8485475502716
20
5.74928860819963
30
0
41
1
10
69.803668038458
20
5.74923376384245
30
0
0
SPLINE
5
D5
100
AcDbEntity
8
1
62
256
6
ByLayer
370
18
48
1
60
0
100
AcDbSpline
70
4
71
3
72
58
73
54
40
0
40
0
40
0
40
0
40
0.0269599635886923
40
0.0269599635886923
40
0.0429312381225582
40
0.0429312381225582
40
0.058902512656424
40
0.058902512656424
40
0.0908450617241556
40
0.0908450617241556
40
0.15473015985962
40
0.15473015985962
40
0.218615257995084
40
0.218615257995084
40
0.250557807062817
40
0.250557807062817
40
0.282500356130549
40
0.282500356130549
40
0.314442905198282
40
0.314442905198282
40
0.330414179732148
40
0.330414179732148
40
0.346385454266014
40
0.346385454266014
40
0.410270552401481
40
0.410270552401481
40
0.474155650536947
40
0.474155650536947
40
0.50609819960468
40
0.50609819960468
40
0.522069474138547
40
0.522069474138547
40
0.538040748672414
40
0.538040748672414
40
0.665810944943348
40
0.665810944943348
40
0.697753494011083
40
0.697753494011083
40
0.71372476854495
40
0.71372476854495
40
0.729696043078817
40
0.729696043078817
40
0.793581141214284
40
0.793581141214284
40
0.857466239349751
40
0.857466239349751
40
0.889408788417484
40
0.889408788417484
40
0.921351337485218
40
0.921351337485218
40
0.985236435620685
40
0.985236435620685
40
1
40
1
40
1
40
1
41
1
10
42.6376376191139
20
-5.49173450221414
30
0
41
1
10
42.3438961985669
20
-5.54224561991055
30
0
41
1
10
42.049432935301
20
-5.58505920969839
30
0
41
1
10
41.5788638320921
20
-5.64056498395982
30
0
41
1
10
41.4031598276533
20
-5.65843553224056
30
0
41
1
10
41.0526516752449
20
-5.68831738120514
30
0
41
1
10
40.8777827344673
20
-5.70034701632432
30
0
41
1
10
40.3541195632556
20
-5.72777132978263
30
0
41
1
10
40.0062721986471
20
-5.73450409628865
30
0
41
1
10
38.9649230729474
20
-5.72055133661783
30
0
41
1
10
38.2735074368378
20
-5.6657279475362
30
0
41
1
10
36.8878189187409
20
-5.46749424523281
30
0
41
1
10
36.1934695636668
20
-5.32412433675432
30
0
41
1
10
35.1432617304803
20
-5.04432990619188
30
0
41
1
10
34.7916070801094
20
-4.94023947968421
30
0
41
1
10
34.0908907329561
20
-4.71323643762238
30
0
41
1
10
33.74105053874
20
-4.59006323177127
30
0
41
1
10
33.0410872955017
20
-4.3257129685816
30
0
41
1
10
32.6909599474508
20
-4.18454968549486
30
0
41
1
10
32.1648442904463
20
-3.96002589611939
30
0
41
1
10
31.9891072738624
20
-3.88297478830387
30
0
41
1
10
31.6385503805042
20
-3.72541897272473
30
0
41
1
10
31.4636582847308
20
-3.64488675073812
30
0
41
1
10
30.5907955703201
20
-3.23397679587194
30
0
41
1
10
29.8973370172178
20
-2.87925805857864
30
0
41
1
10
28.5119015154124
20
-2.13063611928473
30
0
41
1
10
27.8197004197059
20
-1.73707050870121
30
0
41
1
10
26.7759952701471
20
-1.12738248903355
30
0
41
1
10
26.4271569189704
20
-0.920986642581909
30
0
41
1
10
25.9016411310913
20
-0.607964826131308
30
0
41
1
10
25.7258334394009
20
-0.502887281962387
30
0
41
1
10
25.3752172367639
20
-0.292924045298633
30
0
41
1
10
25.2002982131058
20
-0.187973510032151
30
0
41
1
10
23.6288893810759
20
0.755249472514038
30
0
41
1
10
22.2520209773056
20
1.58351917590832
30
0
41
1
10
20.512639911096
20
2.53498315732395
30
0
41
1
10
20.1638594589526
20
2.72109655815916
30
0
41
1
10
19.638460460026
20
2.99255902004305
30
0
41
1
10
19.4626771147005
20
3.0818981937287
30
0
41
1
10
19.111874786424
20
3.25693066889522
30
0
41
1
10
18.9368579851564
20
3.34262589535774
30
0
41
1
10
18.0633454932608
20
3.76164458078924
30
0
41
1
10
17.3698503872263
20
4.06696846631471
30
0
41
1
10
15.9839532162275
20
4.60770705399909
30
0
41
1
10
15.2919072501073
20
4.84352407629834
30
0
41
1
10
14.2482465200206
20
5.13812327498528
30
0
41
1
10
13.8994920653195
20
5.22652767112811
30
0
41
1
10
13.1991357937294
20
5.38253003763373
30
0
41
1
10
12.8473053807672
20
5.4500794037323
30
0
41
1
10
11.7955685440557
20
5.61829436107382
30
0
41
1
10
11.0962999843029
20
5.68543485244416
30
0
41
1
10
10.232177276138
20
5.71109931027198
30
0
41
1
10
10.0698309313742
20
5.7134299643829
30
0
41
1
10
9.90761387542844
20
5.7132878140809
30
0
0
SPLINE
5
D6
100
AcDbEntity
8
1
62
256
6
ByLayer
370
13
48
1
60
0
100
AcDbSpline
70
4
71
3
72
8
73
4
40
0
40
0
40
0
40
0
40
1
40
1
40
1
40
1
41
1
10
4.12146414247533
20
-4.68855876412519
30
0
41
1
10
4.12221925380624
20
-4.65188989133662
30
0
41
1
10
4.12298151167693
20
-4.61521732391574
30
0
41
1
10
4.12375096607076
20
-4.57854090665339
30
0
0
SPLINE
5
D7
100
AcDbEntity
8
1
62
256
6
ByLayer
370
18
48
1
60
0
100
AcDbSpline
70
4
71
3
72
18
73
14
40
0
40
0
40
0
40
0
40
0.249999999999999
40
0.249999999999999
40
0.499999999999998
40
0.499999999999998
40
0.624999999999998
40
0.624999999999998
40
0.749999999999999
40
0.749999999999999
40
0.874999999999999
40
0.874999999999999
40
1
40
1
40
1
40
1
41
1
10
10.4357459282888
20
-0.125766543527391
30
0
41
1
10
9.89736616800451
20
0.181489308530644
30
0
41
1
10
9.36646484537815
20
0.495795498586261
30
0
41
1
10
8.31368696724564
20
1.12761546587061
30
0
41
1
10
7.79189749476461
20
1.44487023057454
30
0
41
1
10
7.01374423769283
20
1.91898362611667
30
0
41
1
10
6.75516300286543
20
2.07674112946984
30
0
41
1
10
6.23972577856807
20
2.39145692858298
30
0
41
1
10
5.98218534285803
20
2.54882700348031
30
0
41
1
10
5.47410372544138
20
2.86009714264051
30
0
41
1
10
5.22331852191888
20
3.01413007711704
30
0
41
1
10
4.73017358715663
20
3.31942491814161
30
0
41
1
10
4.48775932046541
20
3.47068428369835
30
0
41
1
10
4.25133227987209
20
3.62113085257238
30
0
0
SPLINE
5
D8
100
AcDbEntity
8
1
62
256
6
ByLayer
370
18
48
1
60
0
100
AcDbSpline
70
4
71
3
72
8
73
4
40
0
40
0
40
0
40
0
40
1
40
1
40
1
40
1
41
1
10
71.069040046161
20
-5.46111796437575
30
0
41
1
10
71.0420430477431
20
-5.48363558637649
30
0
41
1
10
71.0190085504854
20
-5.49497417616448
30
0
41
1
10
70.9999986666371
20
-5.49495850229374
30
0
0
SPLINE
5
D9
100
AcDbEntity
8
1
62
256
6
ByLayer
370
18
48
1
60
0
100
AcDbSpline
70
4
71
3
72
88
73
84
40
0
40
0
40
0
40
0
40
0.0040473241815337
40
0.0040473241815337
40
0.0269138701278098
40
0.0269138701278098
40
0.0497804160740861
40
0.0497804160740861
40
0.0726469620203622
40
0.0726469620203622
40
0.0955135079666385
40
0.0955135079666385
40
0.118380053912915
40
0.118380053912915
40
0.141246599859191
40
0.141246599859191
40
0.164113145805467
40
0.164113145805467
40
0.186979691751743
40
0.186979691751743
40
0.232712783644296
40
0.232712783644296
40
0.255579329590572
40
0.255579329590572
40
0.278445875536848
40
0.278445875536848
40
0.301312421483124
40
0.301312421483124
40
0.3241789674294
40
0.3241789674294
40
0.347045513375677
40
0.347045513375677
40
0.369912059321953
40
0.369912059321953
40
0.415645151214505
40
0.415645151214505
40
0.438511697160781
40
0.438511697160781
40
0.461378243107057
40
0.461378243107057
40
0.484244789053333
40
0.484244789053333
40
0.507111334999608
40
0.507111334999608
40
0.529977880945884
40
0.529977880945884
40
0.55284442689216
40
0.55284442689216
40
0.598577518784711
40
0.598577518784711
40
0.621444064730987
40
0.621444064730987
40
0.644310610677263
40
0.644310610677263
40
0.667177156623538
40
0.667177156623538
40
0.690043702569814
40
0.690043702569814
40
0.71291024851609
40
0.71291024851609
40
0.735776794462365
40
0.735776794462365
40
0.758643340408641
40
0.758643340408641
40
0.770076613381779
40
0.770076613381779
40
0.781509886354916
40
0.781509886354916
40
0.827242978247464
40
0.827242978247464
40
0.850109524193739
40
0.850109524193739
40
0.872976070140013
40
0.872976070140013
40
0.895842616086288
40
0.895842616086288
40
0.918709162032563
40
0.918709162032563
40
0.941575707978837
40
0.941575707978837
40
0.964442253925112
40
0.964442253925112
40
1
40
1
40
1
40
1
41
1
10
31.8703942152267
20
4.18324954973204
30
0
41
1
10
31.9202460610431
20
4.20378385904252
30
0
41
1
10
31.9700753064323
20
4.2241636520065
30
0
41
1
10
32.3012713013597
20
4.35866800737418
30
0
41
1
10
32.5827813356783
20
4.46697698149285
30
0
41
1
10
33.1469565919303
20
4.67090475211057
30
0
41
1
10
33.4293725546295
20
4.76680470599456
30
0
41
1
10
33.9944239216426
20
4.94677377659863
30
0
41
1
10
34.2766306359639
20
5.03116442419608
30
0
41
1
10
34.8434005251258
20
5.18595616785692
30
0
41
1
10
35.1281024892801
20
5.25632217350784
30
0
41
1
10
35.6994583147207
20
5.38345312542771
30
0
41
1
10
35.9854157638422
20
5.43999609927033
30
0
41
1
10
36.5533043960777
20
5.53839504694531
30
0
41
1
10
36.8360696757601
20
5.58019446310058
30
0
41
1
10
37.4019617289602
20
5.64828187935822
30
0
41
1
10
37.6846238410564
20
5.67481013575917
30
0
41
1
10
38.2489261816941
20
5.71309856875456
30
0
41
1
10
38.5303199364518
20
5.72486183422939
30
0
41
1
10
39.3741414815245
20
5.73741421060933
30
0
41
1
10
39.9393846283591
20
5.71586453236733
30
0
41
1
10
40.7880506076687
20
5.63816437338852
30
0
41
1
10
41.0708374724156
20
5.60444316308977
30
0
41
1
10
41.6398706955929
20
5.52241333194581
30
0
41
1
10
41.9264068889026
20
5.47387442736658
30
0
41
1
10
42.4968468427437
20
5.36256319904547
30
0
41
1
10
42.7808686201006
20
5.29976943072242
30
0
41
1
10
43.346460383048
20
5.15980527207913
30
0
41
1
10
43.6289878039726
20
5.08330623872592
30
0
41
1
10
44.1938921132561
20
4.9179912639525
30
0
41
1
10
44.4761040331871
20
4.82905310537794
30
0
41
1
10
45.0396115469442
20
4.63821155684761
30
0
41
1
10
45.320466604549
20
4.53581026276115
30
0
41
1
10
46.1653557012431
20
4.21263754628885
30
0
41
1
10
46.7313481336874
20
3.9760850353814
30
0
41
1
10
47.5814955407884
20
3.58510077090003
30
0
41
1
10
47.8654782175198
20
3.44915635079605
30
0
41
1
10
48.4369683836986
20
3.16921315034369
30
0
41
1
10
48.7223473086121
20
3.02546483307245
30
0
41
1
10
49.2904498290976
20
2.73061832621425
30
0
41
1
10
49.5730944367005
20
2.57889811471097
30
0
41
1
10
50.1374343621155
20
2.26970877307011
30
0
41
1
10
50.419764717551
20
2.11324503699944
30
0
41
1
10
50.9839594335073
20
1.79545839623711
30
0
41
1
10
51.2658618216956
20
1.63419341245185
30
0
41
1
10
51.8288414408007
20
1.30616850533929
30
0
41
1
10
52.1097543432317
20
1.13911215139834
30
0
41
1
10
52.9560750640454
20
0.637624634287903
30
0
41
1
10
53.5228639917253
20
0.299364393642549
30
0
41
1
10
54.3753412664104
20
-0.217203262302149
30
0
41
1
10
54.6615043362248
20
-0.389329280535691
30
0
41
1
10
55.231243737798
20
-0.729466457044168
30
0
41
1
10
55.515290950867
20
-0.898030903982459
30
0
41
1
10
56.081325790654
20
-1.23291652466205
30
0
41
1
10
56.362890899689
20
-1.39991463504742
30
0
41
1
10
56.9267104546332
20
-1.72707899547677
30
0
41
1
10
57.2087526112257
20
-1.8876321862692
30
0
41
1
10
57.772513304986
20
-2.20371440457245
30
0
41
1
10
58.0542552097285
20
-2.35920525996303
30
0
41
1
10
58.6170068424702
20
-2.66566970393188
30
0
41
1
10
58.8985995838796
20
-2.81573305220499
30
0
41
1
10
59.4640168655848
20
-3.10688357797693
30
0
41
1
10
59.7474706366786
20
-3.24853661367169
30
0
41
1
10
60.1734477490727
20
-3.45552486765683
30
0
41
1
10
60.3155750567625
20
-3.52360078457591
30
0
41
1
10
60.60004574031
20
-3.65795424958847
30
0
41
1
10
60.7424771444765
20
-3.72437204414234
30
0
41
1
10
61.4552061634762
20
-4.04873436246072
30
0
41
1
10
62.0234582026329
20
-4.28298837354808
30
0
41
1
10
62.8698371690678
20
-4.6017049545251
30
0
41
1
10
63.1509610464755
20
-4.70234146302181
30
0
41
1
10
63.7144893962875
20
-4.88933793090146
30
0
41
1
10
63.9963957082194
20
-4.97624296916973
30
0
41
1
10
64.5600227048968
20
-5.13732741146629
30
0
41
1
10
64.8416057635749
20
-5.21159692620017
30
0
41
1
10
65.404816750049
20
-5.34686184216329
30
0
41
1
10
65.6874289292067
20
-5.4072121742349
30
0
41
1
10
66.2543731512287
20
-5.51367550070393
30
0
41
1
10
66.5386456230123
20
-5.55982491449291
30
0
41
1
10
67.1084008869672
20
-5.63777487727339
30
0
41
1
10
67.3934219230612
20
-5.66956336214682
30
0
41
1
10
68.1197828610618
20
-5.73026239900821
30
0
41
1
10
68.5609944603494
20
-5.74869146120207
30
0
41
1
10
69.0004877143157
20
-5.74879486087352
30
0
0
SPLINE
5
DA
100
AcDbEntity
8
1
62
256
6
ByLayer
370
18
48
1
60
0
100
AcDbSpline
70
4
71
3
72
14
73
10
40
0
40
0
40
0
40
0
40
0.25
40
0.25
40
0.5
40
0.5
40
0.75
40
0.75
40
1
40
1
40
1
40
1
41
1
10
4.25133227486288
20
3.62113085575575
30
0
41
1
10
4.2232963659566
20
3.63897105834366
30
0
41
1
10
4.19333917281204
20
3.65805398258544
30
0
41
1
10
4.13154323307208
20
3.69733511517148
30
0
41
1
10
4.09959079696253
20
3.71758322506182
30
0
41
1
10
4.0474600415543
20
3.75093622896486
30
0
41
1
10
4.0281744256769
20
3.76353217876502
30
0
41
1
10
4.0047637734111
20
3.77993155870709
30
0
41
1
10
4.00000015257297
20
3.7841081135611
30
0
41
1
10
4.00000015257251
20
3.78561647365106
30
0
0
SPLINE
5
DB
100
AcDbEntity
8
1
62
256
6
ByLayer
370
18
48
1
60
0
100
AcDbSpline
70
4
71
3
72
90
73
86
40
0
40
0
40
0
40
0
40
0.0069135349492222
40
0.0069135349492222
40
0.053919123827254
40
0.053919123827254
40
0.07742191826627
40
0.07742191826627
40
0.100924712705286
40
0.100924712705286
40
0.124427507144302
40
0.124427507144302
40
0.147930301583318
40
0.147930301583318
40
0.171433096022334
40
0.171433096022334
40
0.19493589046135
40
0.19493589046135
40
0.218438684900366
40
0.218438684900366
40
0.241941479339382
40
0.241941479339382
40
0.265444273778398
40
0.265444273778398
40
0.288947068217413
40
0.288947068217413
40
0.312449862656429
40
0.312449862656429
40
0.335952657095445
40
0.335952657095445
40
0.359455451534461
40
0.359455451534461
40
0.382958245973477
40
0.382958245973477
40
0.406461040412493
40
0.406461040412493
40
0.429963834851509
40
0.429963834851509
40
0.47696942372954
40
0.47696942372954
40
0.500472218168556
40
0.500472218168556
40
0.523975012607571
40
0.523975012607571
40
0.547477807046587
40
0.547477807046587
40
0.570980601485602
40
0.570980601485602
40
0.594483395924618
40
0.594483395924618
40
0.617986190363633
40
0.617986190363633
40
0.641488984802649
40
0.641488984802649
40
0.664991779241664
40
0.664991779241664
40
0.68849457368068
40
0.68849457368068
40
0.711997368119695
40
0.711997368119695
40
0.735500162558711
40
0.735500162558711
40
0.759002956997726
40
0.759002956997726
40
0.782505751436742
40
0.782505751436742
40
0.806008545875758
40
0.806008545875758
40
0.829511340314773
40
0.829511340314773
40
0.853014134753789
40
0.853014134753789
40
0.876516929192804
40
0.876516929192804
40
0.90001972363182
40
0.90001972363182
40
0.923522518070836
40
0.923522518070836
40
0.947025312509851
40
0.947025312509851
40
0.970528106948867
40
0.970528106948867
40
0.994030901387882
40
0.994030901387882
40
1
40
1
40
1
40
1
41
1
10
61.8141583495212
20
-4.19907512787515
30
0
41
1
10
61.7299066153764
20
-4.23026672110177
30
0
41
1
10
61.6456637751982
20
-4.26094407870642
30
0
41
1
10
60.989002349209
20
-4.49596481876011
30
0
41
1
10
60.4217006088994
20
-4.67472315306904
30
0
41
1
10
59.5714705610475
20
-4.90613552226708
30
0
41
1
10
59.288388041142
20
-4.97708595561886
30
0
41
1
10
58.7229773979963
20
-5.10619197436537
30
0
41
1
10
58.4408307368099
20
-5.16442836277639
30
0
41
1
10
57.8756948445907
20
-5.26660050407384
30
0
41
1
10
57.5928362866325
20
-5.31053435895058
30
0
41
1
10
57.0262813609368
20
-5.38291467442971
30
0
41
1
10
56.7425430943081
20
-5.41101928000785
30
0
41
1
10
56.1745048761697
20
-5.45533194923763
30
0
41
1
10
55.8897593504915
20
-5.47096158209632
30
0
41
1
10
55.3180378652506
20
-5.48749525982279
30
0
41
1
10
55.0310102018047
20
-5.48802757204564
30
0
41
1
10
54.4605552687584
20
-5.47321176769668
30
0
41
1
10
54.1764942579611
20
-5.45921813023759
30
0
41
1
10
53.6091611800367
20
-5.41707830768578
30
0
41
1
10
53.32589107529
20
-5.38904158487716
30
0
41
1
10
52.7600525079034
20
-5.31713894699607
30
0
41
1
10
52.4774157326325
20
-5.2734744921533
30
0
41
1
10
51.9128383775827
20
-5.17416501170069
30
0
41
1
10
51.630693830248
20
-5.11810996418401
30
0
41
1
10
51.0653878260261
20
-4.9922359813759
30
0
41
1
10
50.7823338728978
20
-4.92193512815288
30
0
41
1
10
50.2153992233182
20
-4.76877466627752
30
0
41
1
10
49.9317750505564
20
-4.68606429766788
30
0
41
1
10
49.3629572858548
20
-4.50779426387987
30
0
41
1
10
49.0775435389074
20
-4.41237281795114
30
0
41
1
10
48.5042258986329
20
-4.20805970608384
30
0
41
1
10
48.2183294746411
20
-4.10053621436009
30
0
41
1
10
47.6486943237119
20
-3.87571073062128
30
0
41
1
10
47.3649285951736
20
-3.75806774293082
30
0
41
1
10
46.797780550512
20
-3.51391179278039
30
0
41
1
10
46.5145689970767
20
-3.38701933268919
30
0
41
1
10
45.6656470165927
20
-2.99476668810269
30
0
41
1
10
45.1015812623934
20
-2.71588016093003
30
0
41
1
10
44.2520512209567
20
-2.27791150394191
30
0
41
1
10
43.968460036227
20
-2.12890725344255
30
0
41
1
10
43.4005050514144
20
-1.82463007644893
30
0
41
1
10
43.116339964491
20
-1.66890629823385
30
0
41
1
10
42.5454782115698
20
-1.35311031707585
30
0
41
1
10
42.2582152713464
20
-1.19254193139611
30
0
41
1
10
41.6858485003654
20
-0.870227034907487
30
0
41
1
10
41.4006375487406
20
-0.708183546540425
30
0
41
1
10
40.8323506340914
20
-0.382175375417319
30
0
41
1
10
40.5488417009285
20
-0.219019780820986
30
0
41
1
10
39.9821312638918
20
0.106169743676844
30
0
41
1
10
39.699005827159
20
0.268425512355435
30
0
41
1
10
39.1333281264022
20
0.592126525451135
30
0
41
1
10
38.8510149435618
20
0.753981962395642
30
0
41
1
10
38.285634447064
20
1.07452821781376
30
0
41
1
10
38.0025467078358
20
1.23326403259799
30
0
41
1
10
37.4355906232426
20
1.54780873723453
30
0
41
1
10
37.1516725182197
20
1.70345091706886
30
0
41
1
10
36.5829640955837
20
2.0112824368166
30
0
41
1
10
36.2978933929466
20
2.1629297998397
30
0
41
1
10
35.7254041068443
20
2.46066065008711
30
0
41
1
10
35.4382292258774
20
2.60677419109953
30
0
41
1
10
34.8672232347411
20
2.89014123610374
30
0
41
1
10
34.5829832696673
20
3.0276671873842
30
0
41
1
10
34.0155687582163
20
3.29361348045242
30
0
41
1
10
33.7321436832231
20
3.42216709439794
30
0
41
1
10
33.1658200515059
20
3.66983230233822
30
0
41
1
10
32.882920997491
20
3.78899580364239
30
0
41
1
10
32.3177127738697
20
4.01563850755215
30
0
41
1
10
32.0354163447216
20
4.12416128551763
30
0
41
1
10
31.4696902527519
20
4.33059632025308
30
0
41
1
10
31.1864535217376
20
4.42848634212876
30
0
41
1
10
30.6189403886798
20
4.61125840601855
30
0
41
1
10
30.334701814963
20
4.69614547286537
30
0
41
1
10
29.765265155528
20
4.85582497485765
30
0
41
1
10
29.4795694330967
20
4.92981413936164
30
0
41
1
10
28.9059971930998
20
5.06456866532
30
0
41
1
10
28.6203560481669
20
5.12387643952087
30
0
41
1
10
28.0509957207574
20
5.22787888718818
30
0
41
1
10
27.7673587938731
20
5.27391760196773
30
0
41
1
10
27.2004654543144
20
5.35207456801012
30
0
41
1
10
26.9173217061079
20
5.38446989857769
30
0
41
1
10
26.3516183666064
20
5.43242278453198
30
0
41
1
10
26.068997114128
20
5.44851431922373
30
0
41
1
10
25.7149323422587
20
5.46106505890526
30
0
41
1
10
25.6432143921766
20
5.46317361667897
30
0
41
1
10
25.5714825361427
20
5.46483754396013
30
0
0
SPLINE
5
DC
100
AcDbEntity
8
1
62
256
6
ByLayer
370
18
48
1
60
0
100
AcDbSpline
70
4
71
3
72
14
73
10
40
0
40
0
40
0
40
0
40
0.184126921081465
40
0.184126921081465
40
0.557609600382608
40
0.557609600382608
40
0.931092279683751
40
0.931092279683751
40
1
40
1
40
1
40
1
41
1
10
70.003113828268
20
-5.49450784108541
30
0
41
1
10
69.6574708946528
20
-5.49416383912464
30
0
41
1
10
69.3117483766609
20
-5.48291279633025
30
0
41
1
10
68.2702584061504
20
-5.41675211929092
30
0
41
1
10
67.5774336806045
20
-5.32890008523307
30
0
41
1
10
66.1934075205638
20
-5.07144939301037
30
0
41
1
10
65.5020905385571
20
-4.90171959502149
30
0
41
1
10
64.679160584456
20
-4.65528987497333
30
0
41
1
10
64.5508652879794
20
-4.61559928479238
30
0
41
1
10
64.4224300932469
20
-4.57461974384216
30
0
0
SPLINE
5
DD
100
AcDbEntity
8
1
62
256
6
ByLayer
370
13
48
1
60
0
100
AcDbSpline
70
4
71
3
72
24
73
20
40
0
40
0
40
0
40
0
40
0.0487295647603738
40
0.0487295647603738
40
0.125955608186509
40
0.125955608186509
40
0.434859781891051
40
0.434859781891051
40
0.512085825317187
40
0.512085825317187
40
0.589311868743322
40
0.589311868743322
40
0.743763955595591
40
0.743763955595591
40
0.898216042447859
40
0.898216042447859
40
0.975442085873993
40
0.975442085873993
40
1
40
1
40
1
40
1
41
1
10
64.4224300932593
20
-4.57461974384609
30
0
41
1
10
64.2028032680492
20
-4.50454388577467
30
0
41
1
10
63.9827673565057
20
-4.43069891607087
30
0
41
1
10
63.4126274509943
20
-4.23030517703896
30
0
41
1
10
63.0612462831177
20
-4.09796272229195
30
0
41
1
10
61.315719621024
20
-3.40058761344724
30
0
41
1
10
59.9396062054674
20
-2.72364050687793
30
0
41
1
10
58.2037050715837
20
-1.79153352476484
30
0
41
1
10
57.8557184669833
20
-1.60084662272413
30
0
41
1
10
57.1572499738851
20
-1.21229433367179
30
0
41
1
10
56.8057433752682
20
-1.01392250303695
30
0
41
1
10
55.7570702550986
20
-0.416744038009597
30
0
41
1
10
55.063146501289
20
-0.0156404998964774
30
0
41
1
10
53.6782245796321
20
0.779546061550263
30
0
41
1
10
52.9867731029201
20
1.17279601743769
30
0
41
1
10
51.9459672358213
20
1.74717472169911
30
0
41
1
10
51.5983260705188
20
1.93587423840549
30
0
41
1
10
51.13845298712
20
2.17961765303153
30
0
41
1
10
51.0273664785862
20
2.23804299371972
30
0
41
1
10
50.9161397690206
20
2.29606792703996
30
0
0
SPLINE
5
DE
100
AcDbEntity
8
1
62
256
6
ByLayer
370
18
48
1
60
0
100
AcDbSpline
70
4
71
3
72
16
73
12
40
0
40
0
40
0
40
0
40
0.0169793805416497
40
0.0169793805416497
40
0.1063448914015
40
0.1063448914015
40
0.2850759131212
40
0.2850759131212
40
0.642537956560599
40
0.642537956560599
40
1
40
1
40
1
40
1
41
1
10
10.1052294127107
20
-5.45854701044527
30
0
41
1
10
10.0719586262365
20
-5.45851338995868
30
0
41
1
10
10.0386754470534
20
-5.45838016924563
30
0
41
1
10
9.8301371625229
20
-5.45692117006448
30
0
41
1
10
9.65431778457634
20
-5.45291866847339
30
0
41
1
10
9.1282627461037
20
-5.43265195877262
30
0
41
1
10
8.77887111545192
20
-5.40816298991231
30
0
41
1
10
7.73289798980915
20
-5.3024680113507
30
0
41
1
10
7.03877809853554
20
-5.18917296673573
30
0
41
1
10
5.64820013711866
20
-4.88223419201699
30
0
41
1
10
4.95175784106712
20
-4.68862148406285
30
0
41
1
10
4.25032395965141
20
-4.45640711366366
30
0
0
SPLINE
5
DF
100
AcDbEntity
8
1
62
256
6
ByLayer
370
18
48
1
60
0
100
AcDbSpline
70
4
71
3
72
32
73
28
40
0
40
0
40
0
40
0
40
0.125
40
0.125
40
0.1875
40
0.1875
40
0.25
40
0.25
40
0.375
40
0.375
40
0.4375
40
0.4375
40
0.5
40
0.5
40
0.625
40
0.625
40
0.65625
40
0.65625
40
0.6875
40
0.6875
40
0.75
40
0.75
40
0.875
40
0.875
40
0.9375
40
0.9375
40
1
40
1
40
1
40
1
41
1
10
4.00000015257248
20
3.78561647365106
30
0
41
1
10
4.00000015257248
20
3.49120693961748
30
0
41
1
10
4.00000015257245
20
3.17404651036006
30
0
41
1
10
4.00000015257245
20
2.66476998558028
30
0
41
1
10
4.00000015257251
20
2.4888882915246
30
0
41
1
10
4.00000015257251
20
2.12752205321664
30
0
41
1
10
4.00000015257251
20
1.94409875740564
30
0
41
1
10
4.00000015257251
20
1.3858520690689
30
0
41
1
10
4.00000015257248
20
1.00282534995603
30
0
41
1
10
4.00000015257248
20
0.41282492208208
30
0
41
1
10
4.00000015257251
20
0.215878989265235
30
0
41
1
10
4.00000015257251
20
-0.17856629203817
30
0
41
1
10
4.00000015257254
20
-0.376850369360028
30
0
41
1
10
4.00000015257254
20
-0.963529549875915
30
0
41
1
10
4.00000015257251
20
-1.34562367648877
30
0
41
1
10
4.00000015257251
20
-1.81210695693096
30
0
41
1
10
4.00000015257245
20
-1.9048413549715
30
0
41
1
10
4.00000015257251
20
-2.0891667221978
30
0
41
1
10
4.00000015257251
20
-2.18102299340879
30
0
41
1
10
4.00000015257251
20
-2.45253744049444
30
0
41
1
10
4.00000015257248
20
-2.62804206861117
30
0
41
1
10
4.00000015257248
20
-3.13855011792785
30
0
41
1
10
4.00000015257248
20
-3.45771700838841
30
0
41
1
10
4.00000015257248
20
-3.90363398765027
30
0
41
1
10
4.00000015257248
20
-4.04554311671052
30
0
41
1
10
4.00000015257248
20
-4.31356272238355
30
0
41
1
10
4.00000015257251
20
-4.44007935082618
30
0
41
1
10
4.00000015257251
20
-4.5589948359154
30
0
0
SPLINE
5
E0
100
AcDbEntity
8
1
62
256
6
ByLayer
370
18
48
1
60
0
100
AcDbSpline
70
2053
71
3
72
60
73
56
40
0
40
0
40
0
40
0
40
0.0312500000000006
40
0.0312500000000006
40
0.0625000000000012
40
0.0625000000000012
40
0.0937500000000017
40
0.0937500000000017
40
0.125000000000002
40
0.125000000000002
40
0.156250000000003
40
0.156250000000003
40
0.187500000000003
40
0.187500000000003
40
0.250000000000004
40
0.250000000000004
40
0.281250000000006
40
0.281250000000006
40
0.312500000000007
40
0.312500000000007
40
0.375000000000009
40
0.375000000000009
40
0.437500000000011
40
0.437500000000011
40
0.468750000000011
40
0.468750000000011
40
0.50000000000001
40
0.50000000000001
40
0.53125000000001
40
0.53125000000001
40
0.562500000000009
40
0.562500000000009
40
0.593750000000009
40
0.593750000000009
40
0.625000000000008
40
0.625000000000008
40
0.656250000000008
40
0.656250000000008
40
0.687500000000007
40
0.687500000000007
40
0.750000000000006
40
0.750000000000006
40
0.781250000000005
40
0.781250000000005
40
0.812500000000004
40
0.812500000000004
40
0.843750000000004
40
0.843750000000004
40
0.875000000000003
40
0.875000000000003
40
0.906250000000002
40
0.906250000000002
40
0.937500000000001
40
0.937500000000001
40
1
40
1
40
1
40
1
41
1
10
71.5824280351539
20
-2.99796404057514
30
0
41
1
10
71.6106337254657
20
-2.95759643607573
30
0
41
1
10
71.6382499233059
20
-2.91435017025279
30
0
41
1
10
71.6922015521043
20
-2.82160328548966
30
0
41
1
10
71.7188303357523
20
-2.77148894898159
30
0
41
1
10
71.7689107844791
20
-2.66702236736668
30
0
41
1
10
71.7923015062833
20
-2.61294506132043
30
0
41
1
10
71.8352715883026
20
-2.5005296441683
30
0
41
1
10
71.8543221631105
20
-2.44339736732937
30
0
41
1
10
71.8859400385379
20
-2.33116512143695
30
0
41
1
10
71.8988405603479
20
-2.27458917465643
30
0
41
1
10
71.9166861734524
20
-2.16891358721406
30
0
41
1
10
71.9218821190324
20
-2.11883782752258
30
0
41
1
10
71.9261925353092
20
-1.98168190129789
30
0
41
1
10
71.9139829227469
20
-1.90972490682549
30
0
41
1
10
71.8799679582003
20
-1.83346324135155
30
0
41
1
10
71.8659007489156
20
-1.81301324495482
30
0
41
1
10
71.8340087689173
20
-1.78221678954051
30
0
41
1
10
71.8160900655728
20
-1.77161862061962
30
0
41
1
10
71.7568995068447
20
-1.75307263446442
30
0
41
1
10
71.7119524433563
20
-1.75852416849634
30
0
41
1
10
71.6129935588123
20
-1.80083567488899
30
0
41
1
10
71.5607951689297
20
-1.83689556145123
30
0
41
1
10
71.4783537344214
20
-1.91370024174162
30
0
41
1
10
71.4503263594131
20
-1.94308675509925
30
0
41
1
10
71.3946690662643
20
-2.00809498086855
30
0
41
1
10
71.3668273606479
20
-2.04389966214347
30
0
41
1
10
71.3111150379861
20
-2.12281615705217
30
0
41
1
10
71.2829299506221
20
-2.16647883711784
30
0
41
1
10
71.2285070959024
20
-2.25935624446299
30
0
41
1
10
71.2022224082405
20
-2.308519993472
30
0
41
1
10
71.1518027756762
20
-2.41316873411682
30
0
41
1
10
71.1279286068859
20
-2.46826318667991
30
0
41
1
10
71.0851726280356
20
-2.58002005753951
30
0
41
1
10
71.0657941555186
20
-2.6381350786603
30
0
41
1
10
71.034116257459
20
-2.75099892255071
30
0
41
1
10
71.0214807445433
20
-2.80663921525738
30
0
41
1
10
71.0035305226728
20
-2.91348840685882
30
0
41
1
10
70.9984469397677
20
-2.96300000690957
30
0
41
1
10
70.994037877655
20
-3.10063331200124
30
0
41
1
10
71.0060931887583
20
-3.17345328126228
30
0
41
1
10
71.0396908336288
20
-3.25060167747364
30
0
41
1
10
71.0535582781301
20
-3.27136262462034
30
0
41
1
10
71.0853977684969
20
-3.30300753903805
30
0
41
1
10
71.1032239289113
20
-3.31386256989086
30
0
41
1
10
71.1422846046715
20
-3.32669169535564
30
0
41
1
10
71.1636497479148
20
-3.32859169252137
30
0
41
1
10
71.2084376552423
20
-3.32389267607843
30
0
41
1
10
71.2319741356789
20
-3.31736952733883
30
0
41
1
10
71.281246592437
20
-3.29628849022552
30
0
41
1
10
71.3071395968142
20
-3.28158332297409
30
0
41
1
10
71.3597160337549
20
-3.24489781149794
30
0
41
1
10
71.3865344513133
20
-3.22289706374946
30
0
41
1
10
71.4686066252245
20
-3.14573922801642
30
0
41
1
10
71.5260166545305
20
-3.07869924957396
30
0
41
1
10
71.5824280351539
20
-2.99796404057514
30
0
0
SPLINE
5
E1
100
AcDbEntity
8
1
62
256
6
ByLayer
370
18
48
1
60
0
100
AcDbSpline
70
4
71
3
72
20
73
16
40
0
40
0
40
0
40
0
40
0.712213773156465
40
0.712213773156465
40
0.749261489470348
40
0.749261489470348
40
0.786309205784231
40
0.786309205784231
40
0.86040463841198
40
0.86040463841198
40
0.897452354725853
40
0.897452354725853
40
0.934500071039725
40
0.934500071039725
40
1
40
1
40
1
40
1
41
1
10
4.36891664655562
20
-5.7099462258785
30
0
41
1
10
4.11202815079116
20
-5.70971684082343
30
0
41
1
10
3.85469012868117
20
-5.7093858380976
30
0
41
1
10
3.5835011837971
20
-5.70909766066634
30
0
41
1
10
3.57009214838499
20
-5.70908351548297
30
0
41
1
10
3.54327423057652
20
-5.70905545711943
30
0
41
1
10
3.52986478055394
20
-5.70904018582732
30
0
41
1
10
3.48965186100293
20
-5.7090310463042
30
0
41
1
10
3.46242257535547
20
-5.70906671303288
30
0
41
1
10
3.42483613083812
20
-5.70916808694591
30
0
41
1
10
3.41278885266826
20
-5.70921001368768
30
0
41
1
10
3.39003791792362
20
-5.70929456840287
30
0
41
1
10
3.37868070269076
20
-5.70932472703475
30
0
41
1
10
3.34730347207997
20
-5.70937326874116
30
0
41
1
10
3.32735065156959
20
-5.70936480644457
30
0
41
1
10
3.30748959185908
20
-5.70931428060646
30
0
0
SPLINE
5
E2
100
AcDbEntity
8
SK1
62
256
6
ByLayer
370
18
48
1
60
0
100
AcDbSpline
70
4
71
3
72
10
73
6
40
0
40
0
40
0
40
0
40
0.5
40
0.5
40
1
40
1
40
1
40
1
41
1
10
-43.7
20
-5.52735535813596
30
0
41
1
10
-43.9194045553471
20
-5.13875708229594
30
0
41
1
10
-44.1380490457335
20
-4.74971418653422
30
0
41
1
10
-44.5722419213308
20
-3.96995148971789
30
0
41
1
10
-44.7878974798874
20
-3.57929241064815
30
0
41
1
10
-45
20
-3.18671553940069
30
0
0
SPLINE
5
E3
100
AcDbEntity
8
SK1
62
256
6
ByLayer
370
18
48
1
60
0
100
AcDbSpline
70
4
71
3
72
14
73
10
40
0
40
0
40
0
40
0
40
0.125000000000001
40
0.125000000000001
40
0.250000000000002
40
0.250000000000002
40
0.500000000000004
40
0.500000000000004
40
1
40
1
40
1
40
1
41
1
10
-43.6
20
-5.73109491082377
30
0
41
1
10
-43.6
20
-5.72834374419969
30
0
41
1
10
-43.6017220508865
20
-5.72272406253376
30
0
41
1
10
-43.6068954324577
20
-5.70909592911289
30
0
41
1
10
-43.610237321167
20
-5.70129563364665
30
0
41
1
10
-43.6215324998379
20
-5.67623851825971
30
0
41
1
10
-43.6303471072619
20
-5.65820179261306
30
0
41
1
10
-43.658490206513
20
-5.60258194791399
30
0
41
1
10
-43.678793979422
20
-5.56491439158893
30
0
41
1
10
-43.7
20
-5.52735535813596
30
0
0
SPLINE
5
E4
100
AcDbEntity
8
SK1
62
256
6
ByLayer
370
18
48
1
60
0
100
AcDbSpline
70
4
71
3
72
10
73
6
40
0
40
0
40
0
40
0
40
0.5
40
0.5
40
1
40
1
40
1
40
1
41
1
10
-45
20
3.33942365488699
30
0
41
1
10
-44.7879213063754
20
3.73195642610151
30
0
41
1
10
-44.5722737898406
20
4.12260199239336
30
0
41
1
10
-44.1380829418105
20
4.90236180880203
30
0
41
1
10
-43.9194308847408
20
5.29141856448879
30
0
41
1
10
-43.7
20
5.68006347362223
30
0
0
SPLINE
5
E5
100
AcDbEntity
8
SK1
62
256
6
ByLayer
370
18
48
1
60
0
100
AcDbSpline
70
4
71
3
72
10
73
6
40
0
40
0
40
0
40
0
40
0.5
40
0.5
40
1
40
1
40
1
40
1
41
1
10
-45
20
-3.33942365488699
30
0
41
1
10
-44.7879213063754
20
-3.73195642610151
30
0
41
1
10
-44.5722737898406
20
-4.12260199239336
30
0
41
1
10
-44.1380829418105
20
-4.90236180880203
30
0
41
1
10
-43.9194308847408
20
-5.29141856448879
30
0
41
1
10
-43.7
20
-5.68006347362225
30
0
0
SPLINE
5
E6
100
AcDbEntity
8
SK1
62
256
6
ByLayer
370
18
48
1
60
0
100
AcDbSpline
70
4
71
3
72
14
73
10
40
0
40
0
40
0
40
0
40
0.499999999999999
40
0.499999999999999
40
0.75
40
0.75
40
0.875
40
0.875
40
1
40
1
40
1
40
1
41
1
10
-43.7
20
-5.68006347362228
30
0
41
1
10
-43.6789021434844
20
-5.71743093234682
30
0
41
1
10
-43.6585587767127
20
-5.75442591288396
30
0
41
1
10
-43.6303722414292
20
-5.80752754693989
30
0
41
1
10
-43.6214260646625
20
-5.82472927529454
30
0
41
1
10
-43.6102968606991
20
-5.84712659158359
30
0
41
1
10
-43.6069058574072
20
-5.85415432352306
30
0
41
1
10
-43.6017309986994
20
-5.86570021896381
30
0
41
1
10
-43.6
20
-5.87012697388661
30
0
41
1
10
-43.6
20
-5.87158637707122
30
0
0
SPLINE
5
E7
100
AcDbEntity
8
SK1
62
256
6
ByLayer
370
18
48
1
60
0
100
AcDbSpline
70
4
71
3
72
14
73
10
40
0
40
0
40
0
40
0
40
0.500000000000001
40
0.500000000000001
40
0.750000000000001
40
0.750000000000001
40
0.875000000000001
40
0.875000000000001
40
1
40
1
40
1
40
1
41
1
10
-43.7
20
5.68006347362228
30
0
41
1
10
-43.6789021434844
20
5.71743093234682
30
0
41
1
10
-43.6585587767127
20
5.75442591288396
30
0
41
1
10
-43.6303722414292
20
5.80752754693989
30
0
41
1
10
-43.6214260646625
20
5.82472927529454
30
0
41
1
10
-43.6102968606991
20
5.84712659158359
30
0
41
1
10
-43.6069058574072
20
5.85415432352306
30
0
41
1
10
-43.6017309986994
20
5.86570021896381
30
0
41
1
10
-43.6
20
5.87012697388661
30
0
41
1
10
-43.6
20
5.87158637707122
30
0
0
LINE
5
76
100
AcDbEntity
8
81
62
256
6
ByLayer
370
18
48
1
60
0
100
AcDbLine
10
73
20
0
30
0
11
78
21
0
31
0
39
0
210
0
220
0
230
1
0
LINE
5
77
100
AcDbEntity
8
1
62
256
6
ByLayer
370
18
48
1
60
0
100
AcDbLine
10
3.33831
20
5.70936
30
0
11
0.922094
21
5.70791
31
0
39
0
210
0
220
0
230
1
0
LINE
5
79
100
AcDbEntity
8
1
62
256
6
ByLayer
370
18
48
1
60
0
100
AcDbLine
10
9.91209
20
5.713304
30
0
11
4.396424
21
5.709994
31
0
39
0
210
0
220
0
230
1
0
LINE
5
7A
100
AcDbEntity
8
1
62
256
6
ByLayer
370
18
48
1
60
0
100
AcDbLine
10
69.812656
20
5.749244
30
0
11
68.997223
21
5.748755
31
0
39
0
210
0
220
0
230
1
0
LINE
5
7B
100
AcDbEntity
8
1
62
256
6
ByLayer
370
18
48
1
60
0
100
AcDbLine
10
68.997223
20
-5.748755
30
0
11
69.812297
21
-5.749244
31
0
39
0
210
0
220
0
230
1
0
LINE
5
7C
100
AcDbEntity
8
1
62
256
6
ByLayer
370
18
48
1
60
0
100
AcDbLine
10
4.396424
20
-5.709994
30
0
11
9.911609
21
-5.713304
31
0
39
0
210
0
220
0
230
1
0
LINE
5
7D
100
AcDbEntity
8
1
62
256
6
ByLayer
370
18
48
1
60
0
100
AcDbLine
10
0.922094
20
-5.70791
30
0
11
3.33831
21
-5.70936
31
0
39
0
210
0
220
0
230
1
0
LINE
5
7E
100
AcDbEntity
8
1
62
256
6
ByLayer
370
18
48
1
60
0
100
AcDbLine
10
39.861791
20
5.731274
30
0
11
39.037498
21
5.730779
31
0
39
0
210
0
220
0
230
1
0
LINE
5
7F
100
AcDbEntity
8
1
62
256
6
ByLayer
370
18
48
1
60
0
100
AcDbLine
10
39.037498
20
-5.730779
30
0
11
39.862157
21
-5.731274
31
0
39
0
210
0
220
0
230
1
0
LINE
5
80
100
AcDbEntity
8
SK1
62
256
6
ByLayer
370
18
48
1
60
0
100
AcDbLine
10
-43.556624
20
6
30
0
11
-43.6
21
5.924871
31
0
39
0
210
0
220
0
230
1
0
LINE
5
82
100
AcDbEntity
8
SK1
62
256
6
ByLayer
370
18
48
1
60
0
100
AcDbLine
10
-43.6
20
-5.924871
30
0
11
-43.556624
21
-6
31
0
39
0
210
0
220
0
230
1
0
LINE
5
83
100
AcDbEntity
8
SK1
62
256
6
ByLayer
370
18
48
1
60
0
100
AcDbLine
10
0
20
6
30
0
11
-43.556624
21
6
31
0
39
0
210
0
220
0
230
1
0
LINE
5
84
100
AcDbEntity
8
SK1
62
256
6
ByLayer
370
18
48
1
60
0
100
AcDbLine
10
-43.556624
20
-6
30
0
11
0
21
-6
31
0
39
0
210
0
220
0
230
1
0
LINE
5
85
100
AcDbEntity
8
SK4
62
256
6
ByLayer
370
18
48
0.05
60
0
100
AcDbLine
10
78
20
0
30
0
11
-50
21
0
31
0
39
0
210
0
220
0
230
1
0
LINE
5
87
100
AcDbEntity
8
4
62
256
6
ByLayer
370
18
48
0.05
60
0
100
AcDbLine
10
73
20
0
30
0
11
0
21
0
31
0
39
0
210
0
220
0
230
1
0
LINE
5
89
100
AcDbEntity
8
80
62
256
6
ByLayer
370
18
48
1
60
0
100
AcDbLine
10
0
20
0
30
0
11
-5
21
0
31
0
39
0
210
0
220
0
230
1
0
LINE
5
8A
100
AcDbEntity
8
1
62
256
6
ByLayer
370
18
48
1
60
0
100
AcDbLine
10
4
20
-4.562812
30
0
11
4
21
3.785807
31
0
39
0
210
0
220
0
230
1
0
LINE
5
8B
100
AcDbEntity
8
1
62
256
6
ByLayer
370
18
48
1
60
0
100
AcDbLine
10
72.90989
20
0.30837
30
0
11
72.71244
21
1.037324
31
0
39
0
210
0
220
0
230
1
0
LINE
5
8C
100
AcDbEntity
8
1
62
256
6
ByLayer
370
13
48
1
60
0
100
AcDbLine
10
0.460807
20
5.853955
30
0
11
0.460807
21
-5.853955
31
0
39
0
210
0
220
0
230
1
0
LINE
5
8D
100
AcDbEntity
8
1
62
256
6
ByLayer
370
13
48
1
60
0
100
AcDbLine
10
71.437615
20
1.037324
30
0
11
72.90989
21
0.30837
31
0
39
0
210
0
220
0
230
1
0
LINE
5
8E
100
AcDbEntity
8
1
62
256
6
ByLayer
370
13
48
1
60
0
100
AcDbLine
10
71.268157
20
0.6909
30
0
11
72.894262
21
-0.11422
31
0
39
0
210
0
220
0
230
1
0
LINE
5
8F
100
AcDbEntity
8
1
62
256
6
ByLayer
370
18
48
1
60
0
100
AcDbLine
10
73
20
0
30
0
11
72.987887
21
-0.054341
31
0
39
0
210
0
220
0
230
1
0
LINE
5
90
100
AcDbEntity
8
1
62
256
6
ByLayer
370
18
48
1
60
0
100
AcDbLine
10
72.90989
20
-0.30837
30
0
11
72.71244
21
-1.037324
31
0
39
0
210
0
220
0
230
1
0
LINE
5
91
100
AcDbEntity
8
1
62
256
6
ByLayer
370
13
48
1
60
0
100
AcDbLine
10
0.922094
20
5.70791
30
0
11
0.922094
21
-5.70791
31
0
39
0
210
0
220
0
230
1
0
LINE
5
92
100
AcDbEntity
8
1
62
256
6
ByLayer
370
18
48
1
60
0
100
AcDbLine
10
73
20
0
30
0
11
70.999999
21
-5.494959
31
0
39
0
210
0
220
0
230
1
0
LINE
5
93
100
AcDbEntity
8
1
62
256
6
ByLayer
370
18
48
1
60
0
100
AcDbLine
10
0
20
-6
30
0
11
0
21
6
31
0
39
0
210
0
220
0
230
1
0
LINE
5
94
100
AcDbEntity
8
1
62
256
6
ByLayer
370
13
48
1
60
0
100
AcDbLine
10
72.71244
20
1.037324
30
0
11
71.437615
21
1.037324
31
0
39
0
210
0
220
0
230
1
0
LINE
5
95
100
AcDbEntity
8
1
62
256
6
ByLayer
370
18
48
1
60
0
100
AcDbLine
10
72.987887
20
0.054341
30
0
11
73
21
0
31
0
39
0
210
0
220
0
230
1
0
LINE
5
96
100
AcDbEntity
8
1
62
256
6
ByLayer
370
18
48
1
60
0
100
AcDbLine
10
70.104368
20
-3.223506
30
0
11
72.894262
21
-0.11422
31
0
39
0
210
0
220
0
230
1
0
LINE
5
97
100
AcDbEntity
8
SK1
62
256
6
ByLayer
370
18
48
1
60
0
100
AcDbLine
10
-43.556624
20
6
30
0
11
-43.556624
21
-6
31
0
39
0
210
0
220
0
230
1
0
LINE
5
98
100
AcDbEntity
8
SK1
62
256
6
ByLayer
370
18
48
1
60
0
100
AcDbLine
10
-43.6
20
5.924871
30
0
11
-43.6
21
5.871586
31
0
39
0
210
0
220
0
230
1
0
LINE
5
99
100
AcDbEntity
8
SK1
62
256
6
ByLayer
370
18
48
1
60
0
100
AcDbLine
10
0
20
-6
30
0
11
0
21
6
31
0
39
0
210
0
220
0
230
1
0
LINE
5
9A
100
AcDbEntity
8
SK1
62
256
6
ByLayer
370
18
48
1
60
0
100
AcDbLine
10
-43.6
20
-5.924871
30
0
11
-43.6
21
-5.731095
31
0
39
0
210
0
220
0
230
1
0
LINE
5
9B
100
AcDbEntity
8
SK1
62
256
6
ByLayer
370
13
48
1
60
0
100
AcDbLine
10
-43.7
20
-5.527187
30
0
11
-43.7
21
-5.680063
31
0
39
0
210
0
220
0
230
1
0
LINE
5
9C
100
AcDbEntity
8
SK1
62
256
6
ByLayer
370
18
48
1
60
0
100
AcDbLine
10
-45
20
3.339424
30
0
11
-45
21
-3.186716
31
0
39
0
210
0
220
0
230
1
0
LINE
5
9D
100
AcDbEntity
8
SK1
62
256
6
ByLayer
370
18
48
1
60
0
100
AcDbLine
10
-45
20
-3.186678
30
0
11
-45
21
-3.339424
31
0
39
0
210
0
220
0
230
1
0
MTEXT
5
E8
100
AcDbEntity
8
SK6
62
256
6
ByLayer
370
13
48
1
60
0
100
AcDbMText
10
16.129169
20
38.132694
30
0
210
0
220
0
230
1
1
\W0.7287;R840-1150-50-A1A1220
40
3.5
41
0
44
1.084337
50
0
71
8
72
5
7
iso_b_vert
0
DIMENSION
5
F5
100
AcDbEntity
8
SK2
62
256
6
ByLayer
370
13
48
1
60
0
100
AcDbDimension
2
DimnDraft3D1
10
71.03
20
-15.963398
30
0
11
33.780059
21
-15.963398
31
0
70
32
71
5
72
1
41
1
210
0
220
0
230
1
3
Standard
100
AcDbAlignedDimension
13
0
23
-1.5875
33
0
14
71.03
24
-7.3375
34
0
50
0
100
AcDbRotatedDimension
1001
ACAD
1000
DSTYLE
1002
{
1070
   279
1070
     0
1070
   172
1070
     1
1070
   173
1070
     1
1070
   340
1005
E9
1070
   271
1070
     2
1070
   272
1070
     2
1070
    77
1070
     1
1070
    73
1070
     0
1070
   171
1070
     3
1070
   274
1070
     4
1070
   177
1070
    35
1070
   176
1070
    35
1070
   178
1070
    35
1070
    48
1040
-0.005
1070
    41
1041
3.5
1070
   147
1041
1.75
1070
    42
1041
1.5875
1070
    44
1041
2.0
1070
   140
1041
3.5
1070
   343
1005
0
1070
   344
1005
0
1002
}
0
DIMENSION
5
FF
100
AcDbEntity
8
SK2
62
256
6
ByLayer
370
13
48
1
60
0
100
AcDbDimension
2
DimnDraft3D2
10
73
20
-34.692985
30
0
11
13.3713
21
-34.692985
31
0
70
32
71
5
72
1
41
1
210
0
220
0
230
1
3
Standard
100
AcDbAlignedDimension
13
-45
23
-7.5875
33
0
14
73
24
-1.5875
34
0
50
0
100
AcDbRotatedDimension
1001
ACAD
1000
DSTYLE
1002
{
1070
   279
1070
     0
1070
   172
1070
     1
1070
   173
1070
     1
1070
   340
1005
E9
1070
   271
1070
     2
1070
   272
1070
     2
1070
    77
1070
     1
1070
    73
1070
     0
1070
   171
1070
     3
1070
   274
1070
     4
1070
   177
1070
    35
1070
   176
1070
    35
1070
   178
1070
    35
1070
    48
1040
-0.005
1070
    41
1041
3.5
1070
   147
1041
1.75
1070
    42
1041
1.5875
1070
    44
1041
2.0
1070
   140
1041
3.5
1070
   343
1005
0
1070
   344
1005
0
1002
}
0
DIMENSION
5
109
100
AcDbEntity
8
SK2
62
256
6
ByLayer
370
13
48
1
60
0
100
AcDbDimension
2
DimnDraft3D3
10
73
20
17.359119
30
0
11
43.265
21
17.359119
31
0
70
32
71
5
72
1
41
1
210
0
220
0
230
1
3
Standard
100
AcDbAlignedDimension
13
13.53
23
7.3375
33
0
14
73
24
1.5875
34
0
50
0
100
AcDbRotatedDimension
1001
ACAD
1000
DSTYLE
1002
{
1070
   279
1070
     0
1070
   172
1070
     1
1070
   173
1070
     1
1070
   340
1005
E9
1070
   271
1070
     2
1070
   272
1070
     2
1070
    77
1070
     1
1070
    73
1070
     0
1070
   171
1070
     3
1070
   274
1070
     4
1070
   177
1070
    35
1070
   176
1070
    35
1070
   178
1070
    35
1070
    48
1040
-0.005
1070
    41
1041
3.5
1070
   147
1041
1.75
1070
    42
1041
1.5875
1070
    44
1041
2.0
1070
   140
1041
3.5
1070
   343
1005
0
1070
   344
1005
0
1002
}
0
DIMENSION
5
113
100
AcDbEntity
8
SK2
62
256
6
ByLayer
370
13
48
1
60
0
100
AcDbDimension
2
DimnDraft3D4
10
71.03
20
-18.552503
30
0
11
82.981425
21
-18.552503
31
0
70
32
71
5
72
1
41
1
210
0
220
0
230
1
3
Standard
100
AcDbAlignedDimension
13
73
23
-1.5875
33
0
14
71.03
24
-7.3375
34
0
50
0
100
AcDbRotatedDimension
1001
ACAD
1000
DSTYLE
1002
{
1070
   279
1070
     0
1070
   172
1070
     1
1070
   173
1070
     1
1070
   340
1005
E9
1070
   271
1070
     2
1070
   272
1070
     2
1070
    77
1070
     1
1070
    73
1070
     0
1070
   171
1070
     3
1070
   274
1070
     4
1070
   177
1070
    35
1070
   176
1070
    35
1070
   178
1070
    35
1070
    48
1040
-0.005
1070
    41
1041
3.5
1070
   147
1041
1.75
1070
    42
1041
1.5875
1070
    44
1041
2.0
1070
   140
1041
3.5
1070
   343
1005
0
1070
   344
1005
0
1002
}
0
DIMENSION
5
11D
100
AcDbEntity
8
SK2
62
256
6
ByLayer
370
13
48
1
60
0
100
AcDbDimension
2
DimnDraft3D5
10
71.03
20
-24.343428
30
0
11
10.290676
21
-24.343428
31
0
70
32
71
5
72
1
41
1
210
0
220
0
230
1
3
Standard
100
AcDbAlignedDimension
13
-45
23
-7.5875
33
0
14
71.03
24
-7.3375
34
0
50
0
100
AcDbRotatedDimension
1001
ACAD
1000
DSTYLE
1002
{
1070
   279
1070
     0
1070
   172
1070
     1
1070
   173
1070
     1
1070
   340
1005
E9
1070
   271
1070
     2
1070
   272
1070
     2
1070
    77
1070
     1
1070
    73
1070
     0
1070
   171
1070
     3
1070
   274
1070
     4
1070
   177
1070
    35
1070
   176
1070
    35
1070
   178
1070
    35
1070
    48
1040
-0.005
1070
    41
1041
3.5
1070
   147
1041
1.75
1070
    42
1041
1.5875
1070
    44
1041
2.0
1070
   140
1041
3.5
1070
   343
1005
0
1070
   344
1005
0
1002
}
0
DIMENSION
5
128
100
AcDbEntity
8
SK2
62
256
6
ByLayer
370
13
48
1
60
0
100
AcDbDimension
2
DimnDraft3D6
10
-55.625163
20
6
30
0
11
-56.250163
21
24.47418
31
0
70
33
71
5
72
1
41
1
210
0
220
0
230
1
3
Standard
100
AcDbAlignedDimension
13
-46.5875
23
-6
33
0
14
-46.5875
24
6
34
0
1001
ACAD
1000
DSTYLE
1002
{
1070
   279
1070
     0
1070
    74
1070
     0
1070
   173
1070
     1
1070
   340
1005
E9
1070
   271
1070
     3
1070
   272
1070
     2
1070
    77
1070
     1
1070
    73
1070
     0
1070
   171
1070
     3
1070
   274
1070
     4
1070
   177
1070
    35
1070
   176
1070
    35
1070
   178
1070
    35
1070
    48
1040
-0.005
1070
    41
1041
3.5
1070
   147
1041
1.75
1070
    42
1041
1.5875
1070
    44
1041
2.0
1070
   140
1041
3.5
1070
   343
1005
0
1070
   344
1005
0
1002
}
0
DIMENSION
5
133
100
AcDbEntity
8
2
62
256
6
ByLayer
370
13
48
1
60
0
100
AcDbDimension
2
DimnDraft3D7
10
87.083343
20
5.75
30
0
11
82.458343
21
22.817266
31
0
70
33
71
5
72
1
41
1
210
0
220
0
230
1
3
Standard
100
AcDbAlignedDimension
13
72.6175
23
-5.75
33
0
14
72.6175
24
5.75
34
0
1001
ACAD
1000
DSTYLE
1002
{
1070
   279
1070
     0
1070
    74
1070
     0
1070
   173
1070
     1
1070
   340
1005
E9
1070
   271
1070
     3
1070
   272
1070
     2
1070
    77
1070
     1
1070
    73
1070
     0
1070
   171
1070
     3
1070
   274
1070
     4
1070
   177
1070
    35
1070
   176
1070
    35
1070
   178
1070
    35
1070
    48
1040
-0.005
1070
    41
1041
3.5
1070
   147
1041
1.75
1070
    42
1041
1.5875
1070
    44
1041
2.0
1070
   140
1041
3.5
1070
   343
1005
0
1070
   344
1005
0
1002
}
0
ENDSEC
0
SECTION
2
OBJECTS
0
DICTIONARY
5
19e
330
0
100
AcDbDictionary
280
0
281
1
3
ACAD_GROUP
350
19f
3
ACAD_MLINESTYLE
350
1a0
0
DICTIONARY
5
19f
330
0
100
AcDbDictionary
280
0
281
1
0
DICTIONARY
5
1a0
330
0
100
AcDbDictionary
280
0
281
1
3
Standard
350
18
0
MLINESTYLE
5
18
330
1a0
100
AcDbMlineStyle
2
Standard
70
0
3

62
256
51
90
52
90
71
2
49
-0.5
62
256
6
ByLayer
49
0.5
62
256
6
ByLayer
0
RASTERVARIABLES
5
18c
330

100
AcDbRasterVariables
90
0
70
1
71
1
72
1
0
ENDSEC
0
EOF
