0
SECTION
2
HEADER
9
$ACADVER
1
AC1015
9
$DWGCODEPAGE
3
ANSI_1252
9
$HANDSEED
5
1b8
9
$ANGBASE
50
0
9
$ANGDIR
70
0
9
$ATTMODE
70
1
9
$AUNITS
70
0
9
$AUPREC
70
0
9
$CECOLOR
62
256
9
$CELTSCALE
40
1
9
$CELTYPE
6
ByLayer
9
$CELWEIGHT
370
18
9
$CLAYER
8
0
9
$CMLJUST
70
0
9
$CMLSCALE
40
1
9
$CMLSTYLE
2
Standard
9
$DIMSTYLE
2
Standard
9
$TEXTSIZE
40
0.2
9
$TEXTSTYLE
7
Standard
9
$LUNITS
70
2
9
$LUPREC
70
4
9
$EXTNAMES
290
1
9
$INSUNITS
70
4
9
$LTSCALE
40
1
9
$LWDISPLAY
290
1
9
$PDMODE
70
0
9
$PDSIZE
40
0
9
$PLINEGEN
70
0
0
ENDSEC
0
SECTION
2
CLASSES
0
CLASS
1
RASTERVARIABLES
2
AcDbRasterVariables
3
ISM
90
0
280
0
281
0
0
ENDSEC
0
SECTION
2
TABLES
0
TABLE
2
VPORT
5
1ae
100
AcDbSymbolTable
0
VPORT
5
1
100
AcDbSymbolTableRecord
100
AcDbViewportTableRecord
2
*Active
70
0
10
0
20
0
11
1
21
1
12
-1
22
1
13
0
23
0
14
0.5
24
0.5
15
10
25
10
16
0
26
0
36
1
17
0
27
0
37
0
0
ENDTAB
0
TABLE
2
LTYPE
5
1af
100
AcDbSymbolTable
0
LTYPE
5
14
100
AcDbSymbolTableRecord
100
AcDbLinetypeTableRecord
70
0
2
ByBlock
3

72
65
73
0
40
0
0
LTYPE
5
15
100
AcDbSymbolTableRecord
100
AcDbLinetypeTableRecord
70
0
2
ByLayer
3

72
65
73
0
40
0
0
LTYPE
5
16
100
AcDbSymbolTableRecord
100
AcDbLinetypeTableRecord
70
0
2
CONTINUOUS
3
Solid line
72
65
73
0
40
0
0
LTYPE
5
6A
100
AcDbSymbolTableRecord
100
AcDbLinetypeTableRecord
70
0
2
CENTER
3
____ _ ____ _ ____ _ ____
72
65
73
4
40
47.5
49
22
74
0
49
-8.5
74
0
49
8.5
74
0
49
-8.5
74
0
0
LTYPE
5
6B
100
AcDbSymbolTableRecord
100
AcDbLinetypeTableRecord
70
0
2
DASHED
3
__ __ __ __ __ __ __ __ __
72
65
73
2
40
25.72
49
12.86
74
0
49
-12.86
74
0
0
ENDTAB
0
TABLE
2
LAYER
5
1b0
100
AcDbSymbolTable
0
LAYER
5
10
100
AcDbSymbolTableRecord
100
AcDbLayerTableRecord
2
0
70
0
62
7
6
CONTINUOUS
290
1
370
-3
390
0
0
LAYER
5
6D
100
AcDbSymbolTableRecord
100
AcDbLayerTableRecord
2
81
70
0
62
-3
6
CONTINUOUS
290
1
370
-3
390
0
0
LAYER
5
6F
100
AcDbSymbolTableRecord
100
AcDbLayerTableRecord
2
80
70
0
62
-6
6
CONTINUOUS
290
1
370
-3
390
0
0
LAYER
5
74
100
AcDbSymbolTableRecord
100
AcDbLayerTableRecord
2
2
70
0
62
7
6
CONTINUOUS
290
1
370
-3
390
0
0
LAYER
5
78
100
AcDbSymbolTableRecord
100
AcDbLayerTableRecord
2
1
70
0
62
4
6
CONTINUOUS
290
1
370
-3
390
0
0
LAYER
5
8A
100
AcDbSymbolTableRecord
100
AcDbLayerTableRecord
2
4
70
0
62
-2
6
CENTER
290
1
370
-3
390
0
0
LAYER
5
19a
100
AcDbSymbolTableRecord
100
AcDbLayerTableRecord
2
SK2
70
0
62
7
6
CONTINUOUS
290
1
370
-3
390
0
0
LAYER
5
19b
100
AcDbSymbolTableRecord
100
AcDbLayerTableRecord
2
SK1
70
0
62
4
6
CONTINUOUS
290
1
370
-3
390
0
0
LAYER
5
19c
100
AcDbSymbolTableRecord
100
AcDbLayerTableRecord
2
SK4
70
0
62
2
6
CENTER
290
1
370
-3
390
0
0
LAYER
5
19d
100
AcDbSymbolTableRecord
100
AcDbLayerTableRecord
2
SK6
70
0
62
5
6
CONTINUOUS
290
1
370
-3
390
0
0
ENDTAB
0
TABLE
2
STYLE
5
1b1
100
AcDbSymbolTable
0
STYLE
5
11
100
AcDbSymbolTableRecord
100
AcDbTextStyleTableRecord
2
Standard
3
txt
70
0
71
0
40
0
41
1
42
0
50
0
0
STYLE
5
F6
100
AcDbSymbolTableRecord
100
AcDbTextStyleTableRecord
2
iso_b_vert
3
simplex.shx
70
0
71
0
40
0
41
1
42
0
50
0
0
STYLE
5
F7
100
AcDbSymbolTableRecord
100
AcDbTextStyleTableRecord
2
DWGDirectTextStyle
3
simplex
70
0
71
0
40
0
41
1
42
0
50
0
0
ENDTAB
0
TABLE
2
DIMSTYLE
5
1b2
100
AcDbSymbolTable
100
AcDbDimStyleTable
0
DIMSTYLE
105
27
100
AcDbSymbolTableRecord
100
AcDbDimStyleTableRecord
2
Standard
70
0
3
<>
41
0.18
42
0.0625
44
0.18
140
0.18
147
0.09
73
0
74
0
77
1
271
2
275
0
278
52
280
0
340
11
0
ENDTAB
0
TABLE
2
VIEW
5
1b3
100
AcDbSymbolTable
0
ENDTAB
0
TABLE
2
UCS
5
1b4
100
AcDbSymbolTable
0
ENDTAB
0
TABLE
2
APPID
5
1b5
100
AcDbSymbolTable
0
APPID
5
12
100
AcDbSymbolTableRecord
100
AcDbRegAppTableRecord
2
ACAD
70
0
0
ENDTAB
0
TABLE
2
BLOCK_RECORD
5
1b6
100
AcDbSymbolTable
0
BLOCK_RECORD
5
1F
100
AcDbSymbolTableRecord
100
AcDbBlockTableRecord
2
*Model_Space
340
0
70
0
0
BLOCK_RECORD
5
1B
100
AcDbSymbolTableRecord
100
AcDbBlockTableRecord
2
*Paper_Space
340
0
70
0
0
BLOCK_RECORD
5
23
100
AcDbSymbolTableRecord
100
AcDbBlockTableRecord
2
*Paper_Space0
340
0
70
0
0
BLOCK_RECORD
5
F9
100
AcDbSymbolTableRecord
100
AcDbBlockTableRecord
2
DimnDraft3D1
340
0
70
0
0
BLOCK_RECORD
5
103
100
AcDbSymbolTableRecord
100
AcDbBlockTableRecord
2
DimnDraft3D2
340
0
70
0
0
BLOCK_RECORD
5
10D
100
AcDbSymbolTableRecord
100
AcDbBlockTableRecord
2
DimnDraft3D3
340
0
70
0
0
BLOCK_RECORD
5
117
100
AcDbSymbolTableRecord
100
AcDbBlockTableRecord
2
DimnDraft3D4
340
0
70
0
0
BLOCK_RECORD
5
121
100
AcDbSymbolTableRecord
100
AcDbBlockTableRecord
2
DimnDraft3D5
340
0
70
0
0
BLOCK_RECORD
5
12B
100
AcDbSymbolTableRecord
100
AcDbBlockTableRecord
2
DimnDraft3D6
340
0
70
0
0
BLOCK_RECORD
5
136
100
AcDbSymbolTableRecord
100
AcDbBlockTableRecord
2
DimnDraft3D7
340
0
70
0
0
ENDTAB
0
ENDSEC
0
SECTION
2
BLOCKS
0
BLOCK
5
20
100
AcDbEntity
8
0
100
AcDbBlockBegin
2
*Model_Space
70
0
10
0
20
0
30
0
3
*Model_Space
0
ENDBLK
5
21
100
AcDbEntity
8
0
100
AcDbBlockEnd
0
BLOCK
5
1C
100
AcDbEntity
8
0
100
AcDbBlockBegin
2
*Paper_Space
70
0
10
0
20
0
30
0
3
*Paper_Space
0
ENDBLK
5
1D
100
AcDbEntity
8
0
100
AcDbBlockEnd
0
BLOCK
5
24
100
AcDbEntity
8
0
100
AcDbBlockBegin
2
*Paper_Space0
70
0
10
0
20
0
30
0
3
*Paper_Space0
0
ENDBLK
5
25
100
AcDbEntity
8
0
100
AcDbBlockEnd
0
BLOCK
5
100
100
AcDbEntity
8
0
100
AcDbBlockBegin
2
DimnDraft3D1
70
0
10
0
20
0
30
0
3
DimnDraft3D1
0
MTEXT
5
FA
100
AcDbEntity
8
SK2
62
256
6
ByLayer
370
13
48
1
60
0
100
AcDbMText
10
44.836769
20
-14.893398
30
0
210
0
220
0
230
1
1
\W0.7213;104,09
40
3.5
41
0
44
1.084337
50
0
71
7
72
5
7
iso_b_vert
0
LINE
5
FB
100
AcDbEntity
8
SK2
62
256
6
ByLayer
370
13
48
1
60
0
100
AcDbLine
10
0
20
-1.5875
30
0
11
0
21
-17.768398
31
0
39
0
210
0
220
0
230
1
0
LINE
5
FC
100
AcDbEntity
8
SK2
62
256
6
ByLayer
370
13
48
1
60
0
100
AcDbLine
10
104.09
20
-7.1425
30
0
11
104.09
21
-17.768398
31
0
39
0
210
0
220
0
230
1
0
LINE
5
FD
100
AcDbEntity
8
SK2
62
256
6
ByLayer
370
13
48
1
60
0
100
AcDbLine
10
0
20
-15.768398
30
0
11
104.09
21
-15.768398
31
0
39
0
210
0
220
0
230
1
0
SOLID
5
FE
100
AcDbEntity
8
SK2
62
256
6
ByLayer
370
13
48
1
60
0
100
AcDbTrace
10
0
20
-15.768398
30
0
11
3.499998
21
-15.307615
31
0
12
3.500002
22
-16.229182
32
0
13
0
23
-15.768398
33
0
39
0
210
0
220
0
230
1
0
SOLID
5
FF
100
AcDbEntity
8
SK2
62
256
6
ByLayer
370
13
48
1
60
0
100
AcDbTrace
10
104.09
20
-15.768398
30
0
11
100.590002
21
-16.229182
31
0
12
100.589998
22
-15.307615
32
0
13
104.09
23
-15.768398
33
0
39
0
210
0
220
0
230
1
0
ENDBLK
5
101
100
AcDbEntity
8
0
100
AcDbBlockEnd
0
BLOCK
5
10A
100
AcDbEntity
8
0
100
AcDbBlockBegin
2
DimnDraft3D2
70
0
10
0
20
0
30
0
3
DimnDraft3D2
0
MTEXT
5
104
100
AcDbEntity
8
SK2
62
256
6
ByLayer
370
13
48
1
60
0
100
AcDbMText
10
25.049721
20
-33.817985
30
0
210
0
220
0
230
1
1
\W0.6440;151,00
40
3.5
41
0
44
1.084337
50
0
71
7
72
5
7
iso_b_vert
0
LINE
5
105
100
AcDbEntity
8
SK2
62
256
6
ByLayer
370
13
48
1
60
0
100
AcDbLine
10
-45
20
-7.5875
30
0
11
-45
21
-36.692985
31
0
39
0
210
0
220
0
230
1
0
LINE
5
106
100
AcDbEntity
8
SK2
62
256
6
ByLayer
370
13
48
1
60
0
100
AcDbLine
10
106
20
-1.5875
30
0
11
106
21
-36.692985
31
0
39
0
210
0
220
0
230
1
0
LINE
5
107
100
AcDbEntity
8
SK2
62
256
6
ByLayer
370
13
48
1
60
0
100
AcDbLine
10
-45
20
-34.692985
30
0
11
106
21
-34.692985
31
0
39
0
210
0
220
0
230
1
0
SOLID
5
108
100
AcDbEntity
8
SK2
62
256
6
ByLayer
370
13
48
1
60
0
100
AcDbTrace
10
-45
20
-34.692985
30
0
11
-41.500002
21
-34.232202
31
0
12
-41.499998
22
-35.153769
32
0
13
-45
23
-34.692985
33
0
39
0
210
0
220
0
230
1
0
SOLID
5
109
100
AcDbEntity
8
SK2
62
256
6
ByLayer
370
13
48
1
60
0
100
AcDbTrace
10
106
20
-34.692985
30
0
11
102.500002
21
-35.153769
31
0
12
102.499998
22
-34.232202
32
0
13
106
23
-34.692985
33
0
39
0
210
0
220
0
230
1
0
ENDBLK
5
10B
100
AcDbEntity
8
0
100
AcDbBlockEnd
0
BLOCK
5
114
100
AcDbEntity
8
0
100
AcDbBlockBegin
2
DimnDraft3D3
70
0
10
0
20
0
30
0
3
DimnDraft3D3
0
MTEXT
5
10E
100
AcDbEntity
8
SK2
62
256
6
ByLayer
370
13
48
1
60
0
100
AcDbMText
10
56.156316
20
18.039119
30
0
210
0
220
0
230
1
1
\W0.7402;90,79
40
3.5
41
0
44
1.084337
50
0
71
7
72
5
7
iso_b_vert
0
LINE
5
10F
100
AcDbEntity
8
SK2
62
256
6
ByLayer
370
13
48
1
60
0
100
AcDbLine
10
15.21
20
7.1425
30
0
11
15.21
21
19.164119
31
0
39
0
210
0
220
0
230
1
0
LINE
5
110
100
AcDbEntity
8
SK2
62
256
6
ByLayer
370
13
48
1
60
0
100
AcDbLine
10
106
20
1.5875
30
0
11
106
21
19.164119
31
0
39
0
210
0
220
0
230
1
0
LINE
5
111
100
AcDbEntity
8
SK2
62
256
6
ByLayer
370
13
48
1
60
0
100
AcDbLine
10
15.21
20
17.164119
30
0
11
106
21
17.164119
31
0
39
0
210
0
220
0
230
1
0
SOLID
5
112
100
AcDbEntity
8
SK2
62
256
6
ByLayer
370
13
48
1
60
0
100
AcDbTrace
10
15.21
20
17.164119
30
0
11
18.709998
21
17.624903
31
0
12
18.710002
22
16.703335
32
0
13
15.21
23
17.164119
33
0
39
0
210
0
220
0
230
1
0
SOLID
5
113
100
AcDbEntity
8
SK2
62
256
6
ByLayer
370
13
48
1
60
0
100
AcDbTrace
10
106
20
17.164119
30
0
11
102.500002
21
16.703335
31
0
12
102.499998
22
17.624903
32
0
13
106
23
17.164119
33
0
39
0
210
0
220
0
230
1
0
ENDBLK
5
115
100
AcDbEntity
8
0
100
AcDbBlockEnd
0
BLOCK
5
11E
100
AcDbEntity
8
0
100
AcDbBlockBegin
2
DimnDraft3D4
70
0
10
0
20
0
30
0
3
DimnDraft3D4
0
MTEXT
5
118
100
AcDbEntity
8
SK2
62
256
6
ByLayer
370
13
48
1
60
0
100
AcDbMText
10
113.715636
20
-17.482503
30
0
210
0
220
0
230
1
1
\W0.6132;1,91
40
3.5
41
0
44
1.084337
50
0
71
7
72
5
7
iso_b_vert
0
LINE
5
119
100
AcDbEntity
8
SK2
62
256
6
ByLayer
370
13
48
1
60
0
100
AcDbLine
10
106
20
-1.5875
30
0
11
106
21
-20.357503
31
0
39
0
210
0
220
0
230
1
0
LINE
5
11A
100
AcDbEntity
8
SK2
62
256
6
ByLayer
370
13
48
1
60
0
100
AcDbLine
10
104.09
20
-7.1425
30
0
11
104.09
21
-20.357503
31
0
39
0
210
0
220
0
230
1
0
LINE
5
11B
100
AcDbEntity
8
SK2
62
256
6
ByLayer
370
13
48
1
60
0
100
AcDbLine
10
95.34
20
-18.357503
30
0
11
119.122215
21
-18.357503
31
0
39
0
210
0
220
0
230
1
0
SOLID
5
11C
100
AcDbEntity
8
SK2
62
256
6
ByLayer
370
13
48
1
60
0
100
AcDbTrace
10
106
20
-18.357503
30
0
11
109.499998
21
-17.896719
31
0
12
109.500002
22
-18.818287
32
0
13
106
23
-18.357503
33
0
39
0
210
0
220
0
230
1
0
SOLID
5
11D
100
AcDbEntity
8
SK2
62
256
6
ByLayer
370
13
48
1
60
0
100
AcDbTrace
10
104.09
20
-18.357503
30
0
11
100.590002
21
-18.818287
31
0
12
100.589998
22
-17.896719
32
0
13
104.09
23
-18.357503
33
0
39
0
210
0
220
0
230
1
0
ENDBLK
5
11F
100
AcDbEntity
8
0
100
AcDbBlockEnd
0
BLOCK
5
128
100
AcDbEntity
8
0
100
AcDbBlockBegin
2
DimnDraft3D5
70
0
10
0
20
0
30
0
3
DimnDraft3D5
0
MTEXT
5
122
100
AcDbEntity
8
SK2
62
256
6
ByLayer
370
13
48
1
60
0
100
AcDbMText
10
21.347387
20
-23.468428
30
0
210
0
220
0
230
1
1
\W0.7213;149,09
40
3.5
41
0
44
1.084337
50
0
71
7
72
5
7
iso_b_vert
0
LINE
5
123
100
AcDbEntity
8
SK2
62
256
6
ByLayer
370
13
48
1
60
0
100
AcDbLine
10
-45
20
-7.5875
30
0
11
-45
21
-26.343428
31
0
39
0
210
0
220
0
230
1
0
LINE
5
124
100
AcDbEntity
8
SK2
62
256
6
ByLayer
370
13
48
1
60
0
100
AcDbLine
10
104.09
20
-7.1425
30
0
11
104.09
21
-26.343428
31
0
39
0
210
0
220
0
230
1
0
LINE
5
125
100
AcDbEntity
8
SK2
62
256
6
ByLayer
370
13
48
1
60
0
100
AcDbLine
10
-45
20
-24.343428
30
0
11
104.09
21
-24.343428
31
0
39
0
210
0
220
0
230
1
0
SOLID
5
126
100
AcDbEntity
8
SK2
62
256
6
ByLayer
370
13
48
1
60
0
100
AcDbTrace
10
-45
20
-24.343428
30
0
11
-41.500002
21
-23.882645
31
0
12
-41.499998
22
-24.804212
32
0
13
-45
23
-24.343428
33
0
39
0
210
0
220
0
230
1
0
SOLID
5
127
100
AcDbEntity
8
SK2
62
256
6
ByLayer
370
13
48
1
60
0
100
AcDbTrace
10
104.09
20
-24.343428
30
0
11
100.590002
21
-24.804212
31
0
12
100.589998
22
-23.882645
32
0
13
104.09
23
-24.343428
33
0
39
0
210
0
220
0
230
1
0
ENDBLK
5
129
100
AcDbEntity
8
0
100
AcDbBlockEnd
0
BLOCK
5
133
100
AcDbEntity
8
0
100
AcDbBlockBegin
2
DimnDraft3D6
70
0
10
0
20
0
30
0
3
DimnDraft3D6
0
MTEXT
5
12C
100
AcDbEntity
8
SK2
62
256
6
ByLayer
370
13
48
1
60
0
100
AcDbMText
10
-55.375163
20
25.34918
30
0
210
0
220
0
230
1
1
\W0.6930;12,000
40
3.5
41
0
44
1.084337
50
90
71
7
72
5
7
iso_b_vert
0
MTEXT
5
12D
100
AcDbEntity
8
SK2
62
256
6
ByLayer
370
13
48
1
60
0
100
AcDbMText
10
-55.375163
20
20.126524
30
0
210
0
220
0
230
1
1
%%c
40
3.5
41
0
44
1.084337
50
90
71
7
72
5
7
iso_b_vert
0
LINE
5
12E
100
AcDbEntity
8
SK2
62
256
6
ByLayer
370
13
48
1
60
0
100
AcDbLine
10
-46.5875
20
-6
30
0
11
-55.625163
21
-6
31
0
39
0
210
0
220
0
230
1
0
LINE
5
12F
100
AcDbEntity
8
SK2
62
256
6
ByLayer
370
13
48
1
60
0
100
AcDbLine
10
-46.5875
20
6
30
0
11
-55.625163
21
6
31
0
39
0
210
0
220
0
230
1
0
LINE
5
130
100
AcDbEntity
8
SK2
62
256
6
ByLayer
370
13
48
1
60
0
100
AcDbLine
10
-53.625163
20
-6
30
0
11
-53.625163
21
36.862338
31
0
39
0
210
0
220
0
230
1
0
SOLID
5
131
100
AcDbEntity
8
SK2
62
256
6
ByLayer
370
13
48
1
60
0
100
AcDbTrace
10
-53.625163
20
-6
30
0
11
-54.085946
21
-2.500002
31
0
12
-53.164379
22
-2.499998
32
0
13
-53.625163
23
-6
33
0
39
0
210
0
220
0
230
1
0
SOLID
5
132
100
AcDbEntity
8
SK2
62
256
6
ByLayer
370
13
48
1
60
0
100
AcDbTrace
10
-53.625163
20
6
30
0
11
-53.164379
21
2.500002
31
0
12
-54.085946
22
2.499998
32
0
13
-53.625163
23
6
33
0
39
0
210
0
220
0
230
1
0
ENDBLK
5
134
100
AcDbEntity
8
0
100
AcDbBlockEnd
0
BLOCK
5
13E
100
AcDbEntity
8
0
100
AcDbBlockBegin
2
DimnDraft3D7
70
0
10
0
20
0
30
0
3
DimnDraft3D7
0
MTEXT
5
137
100
AcDbEntity
8
2
62
256
6
ByLayer
370
13
48
1
60
0
100
AcDbMText
10
116.333343
20
23.497266
30
0
210
0
220
0
230
1
1
\W0.5459;11,110
40
3.5
41
0
44
1.084337
50
90
71
7
72
5
7
iso_b_vert
0
MTEXT
5
138
100
AcDbEntity
8
2
62
256
6
ByLayer
370
13
48
1
60
0
100
AcDbMText
10
116.333343
20
18.27461
30
0
210
0
220
0
230
1
1
%%c
40
3.5
41
0
44
1.084337
50
90
71
7
72
5
7
iso_b_vert
0
LINE
5
139
100
AcDbEntity
8
2
62
256
6
ByLayer
370
13
48
1
60
0
100
AcDbLine
10
105.6775
20
-5.555
30
0
11
120.083343
21
-5.555
31
0
39
0
210
0
220
0
230
1
0
LINE
5
13A
100
AcDbEntity
8
2
62
256
6
ByLayer
370
13
48
1
60
0
100
AcDbLine
10
105.6775
20
5.555
30
0
11
120.083343
21
5.555
31
0
39
0
210
0
220
0
230
1
0
LINE
5
13B
100
AcDbEntity
8
2
62
256
6
ByLayer
370
13
48
1
60
0
100
AcDbLine
10
118.083343
20
-5.555
30
0
11
118.083343
21
32.385424
31
0
39
0
210
0
220
0
230
1
0
SOLID
5
13C
100
AcDbEntity
8
2
62
256
6
ByLayer
370
13
48
1
60
0
100
AcDbTrace
10
118.083343
20
-5.555
30
0
11
117.622559
21
-2.055002
31
0
12
118.544126
22
-2.054998
32
0
13
118.083343
23
-5.555
33
0
39
0
210
0
220
0
230
1
0
SOLID
5
13D
100
AcDbEntity
8
2
62
256
6
ByLayer
370
13
48
1
60
0
100
AcDbTrace
10
118.083343
20
5.555
30
0
11
118.544126
21
2.055002
31
0
12
117.622559
22
2.054998
32
0
13
118.083343
23
5.555
33
0
39
0
210
0
220
0
230
1
0
ENDBLK
5
13F
100
AcDbEntity
8
0
100
AcDbBlockEnd
0
ENDSEC
0
SECTION
2
ENTITIES
0
ARC
5
9F
100
AcDbEntity
8
1
62
256
6
ByLayer
370
18
48
1
60
0
100
AcDbCircle
39
0
10
0
20
5.2
30
0
40
0.799999999999999
210
0
220
0
230
1
100
AcDbArc
50
43.099
51
90
0
ARC
5
A0
100
AcDbEntity
8
1
62
256
6
ByLayer
370
18
48
1
60
0
100
AcDbCircle
39
0
10
-1.168279
20
6.293218
30
0
40
0.799999999999999
210
0
220
0
230
-1
100
AcDbArc
50
269.965623
51
316.901
0
ARC
5
A1
100
AcDbEntity
8
1
62
256
6
ByLayer
370
18
48
1
60
0
100
AcDbCircle
39
0
10
-1.168279
20
-6.293218
30
0
40
0.799999999999999
210
0
220
0
230
-1
100
AcDbArc
50
43.099
51
90.034377
0
ARC
5
A2
100
AcDbEntity
8
1
62
256
6
ByLayer
370
18
48
1
60
0
100
AcDbCircle
39
0
10
0
20
-5.2
30
0
40
0.799999999999999
210
0
220
0
230
1
100
AcDbArc
50
270
51
316.901
0
ELLIPSE
5
A3
100
AcDbEntity
8
1
62
256
6
ByLayer
370
18
48
1
60
0
100
AcDbEllipse
10
106.022749
20
-0.037539
30
0
11
0.135658546029547
21
0.401200806219911
31
0
210
0
220
0
230
-1
40
0.065863
41
-2.3229277627254
42
-1.63033421870122
0
ELLIPSE
5
A4
100
AcDbEntity
8
1
62
256
6
ByLayer
370
18
48
1
60
0
100
AcDbEllipse
10
106.000471
20
0.001213
30
0
11
2.03692115300981
21
5.55359714101244
31
0
210
0
220
0
230
-1
40
0.082138
41
2.89218035359712
42
2.98695334909444
0
ELLIPSE
5
A5
100
AcDbEntity
8
1
62
256
6
ByLayer
370
18
48
1
60
0
100
AcDbEllipse
10
106.000471
20
-0.001213
30
0
11
2.03692117811635
21
-5.55359721286492
31
0
210
0
220
0
230
-1
40
0.082138
41
-2.986953350096
42
-2.89218035521904
0
ELLIPSE
5
A6
100
AcDbEntity
8
1
62
256
6
ByLayer
370
13
48
1
60
0
100
AcDbEllipse
10
7.250137
20
-4.333189
30
0
11
0.0313092134470624
21
0.0949722757088946
31
0
210
0
220
0
230
1
40
0.39576
41
0.69267152519337
42
2.2495341185669
0
ELLIPSE
5
A7
100
AcDbEntity
8
1
62
256
6
ByLayer
370
18
48
1
60
0
100
AcDbEllipse
10
106.022749
20
0.037539
30
0
11
0.135658545961883
21
-0.401200806047063
31
0
210
0
220
0
230
-1
40
0.065863
41
1.63033421839599
42
2.32292776268358
0
ELLIPSE
5
A8
100
AcDbEntity
8
1
62
256
6
ByLayer
370
13
48
1
60
0
100
AcDbEllipse
10
105.2827
20
2.666616
30
0
11
3.778710864364
21
-1.60989176730299
31
0
210
0
220
0
230
-1
40
0.44689
41
1.59467419009801
42
1.89582250788951
0
ELLIPSE
5
A9
100
AcDbEntity
8
1
62
256
6
ByLayer
370
18
48
1
60
0
100
AcDbEllipse
10
104.963924
20
2.666616
30
0
11
0.855334924963247
21
-2.33204196486014
31
0
210
0
220
0
230
-1
40
0.082138
41
-1.56558871785203
42
-0.755280950346183
0
ELLIPSE
5
AA
100
AcDbEntity
8
1
62
256
6
ByLayer
370
13
48
1
60
0
100
AcDbEllipse
10
105.113242
20
2.532324
30
0
11
3.73328169967383
21
-1.91924026723675
31
0
210
0
220
0
230
-1
40
0.482873
41
1.53949524923277
42
1.83979291639089
0
ELLIPSE
5
AB
100
AcDbEntity
8
1
62
256
6
ByLayer
370
18
48
1
60
0
100
AcDbEllipse
10
104.963924
20
-2.666616
30
0
11
0.85533492498959
21
2.33204196492083
31
0
210
0
220
0
230
-1
40
0.082138
41
0.755280950344972
42
1.56558871783867
0
ELLIPSE
5
AC
100
AcDbEntity
8
1
62
256
6
ByLayer
370
13
48
1
60
0
100
AcDbEllipse
10
104.473242
20
0.804733
30
0
11
0.133113781883907
21
0.268850741253513
31
0
210
0
220
0
230
1
40
0.40558
41
0.884485917130962
42
2.28074931872655
0
ELLIPSE
5
AD
100
AcDbEntity
8
1
62
256
6
ByLayer
370
13
48
1
60
0
100
AcDbEllipse
10
7.176426
20
-4.324533
30
0
11
0.0124216318955596
21
-0.0992255161793136
31
0
210
0
220
0
230
1
40
0.611843
41
-2.43012581957394
42
-1.11510511518716
0
ELLIPSE
5
AE
100
AcDbEntity
8
1
62
256
6
ByLayer
370
18
48
1
60
0
100
AcDbEllipse
10
105.860303
20
0.11797
30
0
11
0.0868803724517221
21
0.290676908876587
31
0
210
0
220
0
230
-1
40
0.467765
41
1.6568673163606
42
2.36053717392216
0
POINT
5
6C
100
AcDbEntity
8
81
62
256
6
ByLayer
370
18
48
1
60
0
100
AcDbPoint
10
106
20
0
30
0
39
0
210
0
220
0
230
1
50
360
0
POINT
5
6E
100
AcDbEntity
8
80
62
256
6
ByLayer
370
18
48
1
60
0
100
AcDbPoint
10
0
20
0
30
0
39
0
210
0
220
0
230
1
50
360
0
POINT
5
70
100
AcDbEntity
8
SK2
62
256
6
ByLayer
370
18
48
1
60
1
100
AcDbPoint
10
-45
20
-6
30
0
39
0
210
0
220
0
230
1
50
360
0
POINT
5
72
100
AcDbEntity
8
SK2
62
256
6
ByLayer
370
18
48
1
60
1
100
AcDbPoint
10
-45
20
6
30
0
39
0
210
0
220
0
230
1
50
360
0
POINT
5
73
100
AcDbEntity
8
2
62
256
6
ByLayer
370
18
48
1
60
1
100
AcDbPoint
10
104.09
20
-5.555
30
0
39
0
210
0
220
0
230
1
50
360
0
POINT
5
75
100
AcDbEntity
8
2
62
256
6
ByLayer
370
18
48
1
60
1
100
AcDbPoint
10
104.09
20
5.555
30
0
39
0
210
0
220
0
230
1
50
360
0
SPLINE
5
AF
100
AcDbEntity
8
1
62
256
6
ByLayer
370
18
48
1
60
0
100
AcDbSpline
70
4
71
2
72
6
73
3
40
0
40
0
40
0
40
1
40
1
40
1
41
1
10
57.9430509686989
20
0.0013999757502745
30
0
41
1
10
57.9430404946753
20
0.0014055943454139
30
0
41
1
10
57.9430300206634
20
0.0014113810601657
30
0
0
SPLINE
5
B0
100
AcDbEntity
8
1
62
256
6
ByLayer
370
18
48
1
60
0
100
AcDbSpline
70
4
71
3
72
13
73
9
40
0
40
0
40
0
40
0
40
0.0759537781895009
40
0.197118940297965
40
0.308085068534648
40
0.463354537992907
40
0.738582772980001
40
1
40
1
40
1
40
1
41
1
10
29.5195707037575
20
-1.36391857162653
30
0
41
1
10
29.5196606381415
20
-1.36402370096414
30
0
41
1
10
29.5219156871824
20
-1.36526517304051
30
0
41
1
10
29.5351248336837
20
-1.37191570853983
30
0
41
1
10
29.568984825196
20
-1.38899825360045
30
0
41
1
10
29.6491415212029
20
-1.43050195548759
30
0
41
1
10
29.7037293419079
20
-1.45889220848204
30
0
41
1
10
29.7483212727366
20
-1.48314239377359
30
0
41
1
10
29.766676035968
20
-1.49338849612892
30
0
0
SPLINE
5
B1
100
AcDbEntity
8
1
62
256
6
ByLayer
370
18
48
1
60
0
100
AcDbSpline
70
4
71
1
72
4
73
2
40
0
40
0
40
1
40
1
41
1
10
87.8946518770902
20
0.0004729685612404
30
0
41
1
10
87.8946411962538
20
0.0004797577168176
30
0
0
SPLINE
5
B2
100
AcDbEntity
8
1
62
256
6
ByLayer
370
18
48
1
60
0
100
AcDbSpline
70
4
71
3
72
32
73
28
40
0
40
0
40
0
40
0
40
0.0559746989940145
40
0.103572055377401
40
0.138683923041357
40
0.168362353212489
40
0.195237167830195
40
0.243558491145453
40
0.292691381164313
40
0.340759670851749
40
0.391904076056058
40
0.44225308569793
40
0.491837990981462
40
0.537395374563848
40
0.56481193893926
40
0.594073329112217
40
0.633169484913372
40
0.679406520233193
40
0.72125317275569
40
0.757412553649426
40
0.812344705192615
40
0.873629511035998
40
0.892026620444265
40
0.911345193110707
40
0.93864416624743
40
0.974510935151978
40
1
40
1
40
1
40
1
41
1
10
73.1140074124938
20
-5.28928248874556
30
0
41
1
10
73.3927298747843
20
-5.28941735748256
30
0
41
1
10
73.9085005565399
20
-5.2896976357552
30
0
41
1
10
74.5996055233458
20
-5.28976611307934
30
0
41
1
10
75.1591921265465
20
-5.29041013254417
30
0
41
1
10
75.6152838562497
20
-5.29048225220916
30
0
41
1
10
76.1378716346691
20
-5.29064619991908
30
0
41
1
10
76.7573122135026
20
-5.29121828788581
30
0
41
1
10
77.4823892102103
20
-5.29153417117192
30
0
41
1
10
78.2215288998077
20
-5.29208080302195
30
0
41
1
10
78.9667163288511
20
-5.29222208925438
30
0
41
1
10
79.7194696307793
20
-5.29333082873023
30
0
41
1
10
80.4443872122951
20
-5.29253741660824
30
0
41
1
10
81.0550404839968
20
-5.29305241013236
30
0
41
1
10
81.564435164773
20
-5.29279843792386
30
0
41
1
10
82.0416254189216
20
-5.29423555948256
30
0
41
1
10
82.6125779815167
20
-5.29552918974656
30
0
41
1
10
83.2462438781993
20
-5.29401423299242
30
0
41
1
10
83.8653006797242
20
-5.29356806016852
30
0
41
1
10
84.5276378358774
20
-5.29372916331937
30
0
41
1
10
85.2867928277004
20
-5.29540865591406
30
0
41
1
10
85.9575271559207
20
-5.29643408248566
30
0
41
1
10
86.450795610627
20
-5.29757756385533
30
0
41
1
10
86.7747335970539
20
-5.29830365965535
30
0
41
1
10
87.1857091959379
20
-5.29816663827376
30
0
41
1
10
87.6274218880342
20
-5.29748710086625
30
0
41
1
10
87.9331306795046
20
-5.29723075975039
30
0
41
1
10
88.0601321384851
20
-5.29712478889533
30
0
0
SPLINE
5
B3
100
AcDbEntity
8
1
62
256
6
ByLayer
370
18
48
1
60
0
100
AcDbSpline
70
4
71
3
72
12
73
8
40
0
40
0
40
0
40
0
40
0.0597056631912716
40
0.16306198116173
40
0.358954762522107
40
0.691147535865396
40
1
40
1
40
1
40
1
41
1
10
59.4436163867932
20
-1.34952719579599
30
0
41
1
10
59.443747635729
20
-1.3496204500901
30
0
41
1
10
59.4456893081146
20
-1.35066351072496
30
0
41
1
10
59.4611066844691
20
-1.35857623452915
30
0
41
1
10
59.5540722723851
20
-1.40696698717397
30
0
41
1
10
59.6787360362219
20
-1.47457402191921
30
0
41
1
10
59.7859110568232
20
-1.53438410154874
30
0
41
1
10
59.8394411318178
20
-1.5646830882136
30
0
0
SPLINE
5
B4
100
AcDbEntity
8
1
62
256
6
ByLayer
370
18
48
1
60
0
100
AcDbSpline
70
4
71
1
72
4
73
2
40
0
40
0
40
1
40
1
41
1
10
27.9927058595438
20
0.0015770031583031
30
0
41
1
10
27.992690086437
20
0.0015862786493983
30
0
0
SPLINE
5
B5
100
AcDbEntity
8
1
62
256
6
ByLayer
370
18
48
1
60
0
100
AcDbSpline
70
4
71
3
72
32
73
28
40
0
40
0
40
0
40
0
40
0.0597025368530327
40
0.104219189852295
40
0.130404045411882
40
0.153725977509193
40
0.179101566268061
40
0.21621465638105
40
0.263846657436699
40
0.312253562485516
40
0.356510407480793
40
0.403708620933834
40
0.443314262628851
40
0.474697610234597
40
0.503134809273044
40
0.542361190619852
40
0.591647276323462
40
0.638916113889557
40
0.67521127245608
40
0.724140351873835
40
0.792967015622217
40
0.853177388890114
40
0.899936835753857
40
0.937828087846171
40
0.967524184061465
40
0.996787301440421
40
1
40
1
40
1
40
1
41
1
10
58.0772683484396
20
5.28004971458358
30
0
41
1
10
57.8319360532874
20
5.28041418627765
30
0
41
1
10
57.4056715451561
20
5.28018916731924
30
0
41
1
10
56.8679875809655
20
5.27832359275618
30
0
41
1
10
56.4923877128044
20
5.27571805373259
30
0
41
1
10
56.1806140577779
20
5.27547188414988
30
0
41
1
10
55.8403228416817
20
5.27826307282052
30
0
41
1
10
55.3935034238411
20
5.27870717653732
30
0
41
1
10
54.8452693103894
20
5.27892898092398
30
0
41
1
10
54.2696929341365
20
5.2785998817819
30
0
41
1
10
53.6953485790711
20
5.27529077850886
30
0
41
1
10
53.1572753215232
20
5.27576076811164
30
0
41
1
10
52.6720250290171
20
5.27631031916144
30
0
41
1
10
52.2638090182679
20
5.27721591334085
30
0
41
1
10
51.8571480871127
20
5.27784927125833
30
0
41
1
10
51.3769819692957
20
5.27779995160512
30
0
41
1
10
50.8195009596475
20
5.27489401508271
30
0
41
1
10
50.2740516757185
20
5.27504725580775
30
0
41
1
10
49.7300624005511
20
5.27486860145933
30
0
41
1
10
49.0975930405205
20
5.27447775107004
30
0
41
1
10
48.3669148760024
20
5.27464835094557
30
0
41
1
10
47.6451272941673
20
5.27427026184628
30
0
41
1
10
47.0503927335366
20
5.27414367219714
30
0
41
1
10
46.5808781991135
20
5.27273607046342
30
0
41
1
10
46.1833255070429
20
5.272389053068
30
0
41
1
10
45.9279612546258
20
5.27232572042357
30
0
41
1
10
45.7947008690905
20
5.27232921508619
30
0
41
1
10
45.7815192698864
20
5.27232983883786
30
0
0
SPLINE
5
B6
100
AcDbEntity
8
1
62
256
6
ByLayer
370
18
48
1
60
0
100
AcDbSpline
70
4
71
3
72
32
73
28
40
0
40
0
40
0
40
0
40
0.0519887063518229
40
0.0961272822576942
40
0.127381306332108
40
0.151561803445195
40
0.179062253693117
40
0.249309668492821
40
0.308418332753581
40
0.347651826113727
40
0.401069482199962
40
0.455922330168508
40
0.502402546965509
40
0.546233115577136
40
0.577742118800491
40
0.61324190169711
40
0.652483376509379
40
0.688228801456012
40
0.717079931872428
40
0.739388363752399
40
0.767345735789244
40
0.806847982324607
40
0.857068154067077
40
0.899024895332849
40
0.940648363803218
40
0.996658270521614
40
1
40
1
40
1
40
1
41
1
10
13.2226089518815
20
-5.25328007403309
30
0
41
1
10
13.4826159507451
20
-5.25351805911848
30
0
41
1
10
13.963375947145
20
-5.25388452401168
30
0
41
1
10
14.6002437980064
20
-5.25411006698261
30
0
41
1
10
15.0983791148269
20
-5.25428242258192
30
0
41
1
10
15.5127567086906
20
-5.2545428945202
30
0
41
1
10
16.1223618795529
20
-5.25537840566264
30
0
41
1
10
16.9068648961163
20
-5.25568644724677
30
0
41
1
10
17.7499530938468
20
-5.25536780507986
30
0
41
1
10
18.5088819653579
20
-5.25597301308323
30
0
41
1
10
19.2465748490994
20
-5.25872126554862
30
0
41
1
10
20.0205022174876
20
-5.25704819877586
30
0
41
1
10
20.7464741890549
20
-5.25672970654858
30
0
41
1
10
21.3557119392853
20
-5.25659057195378
30
0
41
1
10
21.9100283325103
20
-5.25918291359699
30
0
41
1
10
22.4413997039705
20
-5.25923086961927
30
0
41
1
10
22.993955840786
20
-5.25962645102112
30
0
41
1
10
23.5132610484087
20
-5.2597220303787
30
0
41
1
10
23.9478842044387
20
-5.25917851464757
30
0
41
1
10
24.3435554655649
20
-5.2590783030094
30
0
41
1
10
24.7925007921849
20
-5.25940935274411
30
0
41
1
10
25.3809948289375
20
-5.2598986105445
30
0
41
1
10
26.0396581524546
20
-5.26107074172015
30
0
41
1
10
26.7083082999275
20
-5.26326871459943
30
0
41
1
10
27.4061871732509
20
-5.26127186851804
30
0
41
1
10
27.9112242525056
20
-5.26003272899848
30
0
41
1
10
28.207958824117
20
-5.26076972951665
30
0
41
1
10
28.224666066202
20
-5.26081372840179
30
0
0
SPLINE
5
B7
100
AcDbEntity
8
1
62
256
6
ByLayer
370
18
48
1
60
0
100
AcDbSpline
70
4
71
3
72
33
73
29
40
0
40
0
40
0
40
0
40
0.0667332031089345
40
0.126478674087917
40
0.172609277027744
40
0.204126855850052
40
0.236449161506379
40
0.275717241453795
40
0.315717336568908
40
0.365063290118077
40
0.414791283991853
40
0.447921546458056
40
0.475980809248275
40
0.51208464896434
40
0.562500003814993
40
0.598739233326992
40
0.629217501437112
40
0.67040052760266
40
0.721406254196629
40
0.780294112188511
40
0.819910799754128
40
0.850966595117743
40
0.875592599446192
40
0.898019478009997
40
0.91370816084272
40
0.937176757593742
40
0.96861181100041
40
1
40
1
40
1
40
1
41
1
10
43.168669468464
20
-5.27126589592234
30
0
41
1
10
43.4997698445466
20
-5.27127881580603
30
0
41
1
10
44.1274869589947
20
-5.27137823422871
30
0
41
1
10
44.9878000466909
20
-5.27232439055632
30
0
41
1
10
45.6684473274466
20
-5.27233680857012
30
0
41
1
10
46.2164174256946
20
-5.27232361902011
30
0
41
1
10
46.7295097285217
20
-5.27311761380244
30
0
41
1
10
47.2850509499595
20
-5.27435217156219
30
0
41
1
10
47.9252533734212
20
-5.27436725366448
30
0
41
1
10
48.6175689411624
20
-5.27470780150435
30
0
41
1
10
49.2756499093114
20
-5.27447079063799
30
0
41
1
10
49.827775597129
20
-5.27496237099803
30
0
41
1
10
50.3120975521617
20
-5.27499228930915
30
0
41
1
10
50.8824599382372
20
-5.27503496199816
30
0
41
1
10
51.4935394624533
20
-5.27824743757304
30
0
41
1
10
52.0766145763452
20
-5.27757204644612
30
0
41
1
10
52.6137386683169
20
-5.27646064490776
30
0
41
1
10
53.2243286955229
20
-5.27540637433233
30
0
41
1
10
53.9765404131971
20
-5.27649678639725
30
0
41
1
10
54.7201399640899
20
-5.27931676022632
30
0
41
1
10
55.3667109954636
20
-5.27863224287492
30
0
41
1
10
55.8360963233054
20
-5.27838854398027
30
0
41
1
10
56.2125745269859
20
-5.27511681810822
30
0
41
1
10
56.5287176020805
20
-5.27613429372002
30
0
41
1
10
56.8276445975301
20
-5.27792751160914
30
0
41
1
10
57.1794410731129
20
-5.27953495278666
30
0
41
1
10
57.607897194878
20
-5.28013620802489
30
0
41
1
10
57.9205843724485
20
-5.28018985247019
30
0
41
1
10
58.0768278415874
20
-5.28005817822677
30
0
0
SPLINE
5
B8
100
AcDbEntity
8
1
62
256
6
ByLayer
370
18
48
1
60
0
100
AcDbSpline
70
4
71
3
72
30
73
26
40
0
40
0
40
0
40
0
40
0.0008735158048284
40
0.0660926497130541
40
0.130336334475804
40
0.185754288672912
40
0.23467544898076
40
0.292058681692278
40
0.348301886289341
40
0.393524628646947
40
0.43543219351473
40
0.477195156425058
40
0.528868419033418
40
0.593916966142065
40
0.660387079703534
40
0.701750448733945
40
0.742333890960369
40
0.795160387248032
40
0.844854914975777
40
0.88001345215645
40
0.910074516575854
40
0.944123318892738
40
0.963801288547646
40
0.992715995922815
40
1
40
1
40
1
40
1
41
1
10
28.4377963922671
20
5.25893648877985
30
0
41
1
10
28.4341849397895
20
5.25891651262177
30
0
41
1
10
28.1609072934834
20
5.25742333669771
30
0
41
1
10
27.6043930196601
20
5.25928078978285
30
0
41
1
10
26.8436440229439
20
5.26364961699861
30
0
41
1
10
26.1345851862195
20
5.26128712972786
30
0
41
1
10
25.4560645478995
20
5.25988565762961
30
0
41
1
10
24.7733263151647
20
5.25940850323241
30
0
41
1
10
24.1061756412485
20
5.25891863016193
30
0
41
1
10
23.5040097350876
20
5.25979241821244
30
0
41
1
10
22.9626644315792
20
5.25954736460821
30
0
41
1
10
22.3942263738554
20
5.25932539548094
30
0
41
1
10
21.7285998339181
20
5.25858060779385
30
0
41
1
10
20.9592069208711
20
5.25611638496522
30
0
41
1
10
20.2331007759794
20
5.25705433856592
30
0
41
1
10
19.6097674355777
20
5.25771441437667
30
0
41
1
10
19.0437176066499
20
5.25815678776885
30
0
41
1
10
18.4427158777723
20
5.25580379236698
30
0
41
1
10
17.8644499345378
20
5.25548664411818
30
0
41
1
10
17.38183775586
20
5.25550788985396
30
0
41
1
10
16.9649094891888
20
5.25560317284481
30
0
41
1
10
16.6130111582817
20
5.25560317538358
30
0
41
1
10
16.2659342489851
20
5.25548469677236
30
0
41
1
10
16.0313303230073
20
5.25518127663437
30
0
41
1
10
15.8793374725436
20
5.25497614903301
30
0
41
1
10
15.8487526719309
20
5.25493506410689
30
0
0
SPLINE
5
B9
100
AcDbEntity
8
1
62
256
6
ByLayer
370
18
48
1
60
0
100
AcDbSpline
70
4
71
2
72
6
73
3
40
0
40
0
40
0
40
1
40
1
40
1
41
1
10
103.078430874025
20
-5.30730886190545
30
0
41
1
10
103.575682916287
20
-5.30153100212391
30
0
41
1
10
104.072904592366
20
-5.31029432271868
30
0
0
SPLINE
5
BA
100
AcDbEntity
8
1
62
256
6
ByLayer
370
18
48
1
60
0
100
AcDbSpline
70
4
71
3
72
11
73
7
40
0
40
0
40
0
40
0
40
0.0080483116527946
40
0.188118401982362
40
0.374802387573774
40
1
40
1
40
1
40
1
41
1
10
89.443418425275
20
-1.37292491858545
30
0
41
1
10
89.4434161716332
20
-1.37292940447725
30
0
41
1
10
89.4435666633352
20
-1.37313740570647
30
0
41
1
10
89.4535509583873
20
-1.37846793762324
30
0
41
1
10
89.5361234098979
20
-1.42292560545513
30
0
41
1
10
89.6157591774706
20
-1.46743842642036
30
0
41
1
10
89.6941725805232
20
-1.51172974535234
30
0
0
SPLINE
5
BB
100
AcDbEntity
8
1
62
256
6
ByLayer
370
18
48
1
60
0
100
AcDbSpline
70
4
71
3
72
29
73
25
40
0
40
0
40
0
40
0
40
0.0311131840547661
40
0.0747450634265097
40
0.124593587926697
40
0.162239949257734
40
0.20390196010364
40
0.24576857617581
40
0.283006049005059
40
0.318109937120328
40
0.357727731238331
40
0.406962701961928
40
0.458249152709961
40
0.500098100448814
40
0.53172604015403
40
0.562863865667145
40
0.618284365634019
40
0.678604340698045
40
0.739853847756514
40
0.802070952519297
40
0.860545966614801
40
0.911372346483952
40
0.961179131131002
40
1
40
1
40
1
40
1
41
1
10
88.0614317618786
20
5.29712357496629
30
0
41
1
10
87.9339970890427
20
5.29722988201087
30
0
41
1
10
87.6278547205665
20
5.29747316264701
30
0
41
1
10
87.1175616854736
20
5.29834287736543
30
0
41
1
10
86.5804884517718
20
5.29803840065796
30
0
41
1
10
86.0514930506638
20
5.29660651933801
30
0
41
1
10
85.5551824491863
20
5.29595875547639
30
0
41
1
10
85.0605589787591
20
5.29479342991081
30
0
41
1
10
84.5928179166644
20
5.2939727069068
30
0
41
1
10
84.1342986574174
20
5.29354660639575
30
0
41
1
10
83.6265969272358
20
5.29376340533011
30
0
41
1
10
83.0526095432758
20
5.29423622008377
30
0
41
1
10
82.4695058493533
20
5.29583162886573
30
0
41
1
10
81.9585171442374
20
5.29371228375967
30
0
41
1
10
81.5300410233227
20
5.29287191102927
30
0
41
1
10
81.0459709306971
20
5.2930184083969
30
0
41
1
10
80.4443871729652
20
5.29254699951716
30
0
41
1
10
79.7194695986622
20
5.29332779628484
30
0
41
1
10
78.9667165017696
20
5.29222417142302
30
0
41
1
10
78.2215282468129
20
5.29207564182803
30
0
41
1
10
77.5190231723469
20
5.29157767010352
30
0
41
1
10
76.8673338053304
20
5.29121044906202
30
0
41
1
10
76.2962253577285
20
5.29081920671928
30
0
41
1
10
75.9330993039825
20
5.2906205471055
30
0
41
1
10
75.7741311209361
20
5.29055440991456
30
0
0
SPLINE
5
BC
100
AcDbEntity
8
1
62
256
6
ByLayer
370
13
48
1
60
0
100
AcDbSpline
70
4
71
3
72
8
73
4
40
0
40
0
40
0
40
0
40
1
40
1
40
1
40
1
41
1
10
7.12514928326152
20
-4.47898515241192
30
0
41
1
10
7.12588560582401
20
-4.44433532181822
30
0
41
1
10
7.12662839845626
20
-4.40968189820364
30
0
41
1
10
7.12737769450143
20
-4.37502474300035
30
0
0
SPLINE
5
BD
100
AcDbEntity
8
1
62
256
6
ByLayer
370
18
48
1
60
0
100
AcDbSpline
70
4
71
3
72
20
73
16
40
0
40
0
40
0
40
0
40
0.24999999999999
40
0.24999999999999
40
0.37499999999999
40
0.37499999999999
40
0.49999999999999
40
0.49999999999999
40
0.74999999999999
40
0.74999999999999
40
0.874999999999995
40
0.874999999999995
40
0.937499999999997
40
0.937499999999997
40
1
40
1
40
1
40
1
41
1
10
105.159925624079
20
-2.7247269319104
30
0
41
1
10
105.075511046472
20
-2.95184385400097
30
0
41
1
10
104.991013125483
20
-3.17867970515806
30
0
41
1
10
104.864035084919
20
-3.51815391071378
30
0
41
1
10
104.821668451598
20
-3.63117499120923
30
0
41
1
10
104.73680664136
20
-3.85678364605354
30
0
41
1
10
104.694286787736
20
-3.96928799957553
30
0
41
1
10
104.566661432827
20
-4.30657917340167
30
0
41
1
10
104.481562848607
20
-4.53138932112554
30
0
41
1
10
104.353526556171
20
-4.86729463092919
30
0
41
1
10
104.310767566311
20
-4.97907218689278
30
0
41
1
10
104.246414049696
20
-5.14576711544859
30
0
41
1
10
104.22496565842
20
-5.20101167735751
30
0
41
1
10
104.182068710502
20
-5.31151985417892
30
0
41
1
10
104.160620614339
20
-5.36673041364639
30
0
41
1
10
104.139173392603
20
-5.42184022288811
30
0
0
SPLINE
5
BE
100
AcDbEntity
8
1
62
256
6
ByLayer
370
13
48
1
60
0
100
AcDbSpline
70
4
71
3
72
14
73
10
40
0
40
0
40
0
40
0
40
0.405761833169703
40
0.405761833169703
40
0.811523666339407
40
0.811523666339407
40
0.912964124631832
40
0.912964124631832
40
1
40
1
40
1
40
1
41
1
10
7.20122470640695
20
-4.38316856249955
30
0
41
1
10
8.2211229589023
20
-4.71168960594929
30
0
41
1
10
9.22769736835431
20
-4.96057520275815
30
0
41
1
10
11.2396321968415
20
-5.28711509551232
30
0
41
1
10
12.2443925425251
20
-5.36459471849429
30
0
41
1
10
13.5146763241372
20
-5.34748120611769
30
0
41
1
10
13.7700000284688
20
-5.33830002164453
30
0
41
1
10
14.242881383659
20
-5.31066778015631
30
0
41
1
10
14.4606690005322
20
-5.29374100760458
30
0
41
1
10
14.6780037318265
20
-5.27273941142613
30
0
0
SPLINE
5
BF
100
AcDbEntity
8
1
62
256
6
ByLayer
370
18
48
1
60
0
100
AcDbSpline
70
4
71
3
72
18
73
14
40
0
40
0
40
0
40
0
40
0.10345014220158
40
0.10345014220158
40
0.490978506523005
40
0.490978506523005
40
0.684742688683716
40
0.684742688683716
40
0.78162477976407
40
0.78162477976407
40
0.878506870844424
40
0.878506870844424
40
1
40
1
40
1
40
1
41
1
10
57.9408378244981
20
0.002644387102265
30
0
41
1
10
58.2115569802799
20
-0.150108146320008
30
0
41
1
10
58.4815622886327
20
-0.302521629277322
30
0
41
1
10
59.7598413900474
20
-1.02180180055711
30
0
41
1
10
60.7618066853259
20
-1.57701101487143
30
0
41
1
10
62.2707722699805
20
-2.36229562833338
30
0
41
1
10
62.7750348995537
20
-2.61573805978531
30
0
41
1
10
63.5355164143197
20
-2.97950236821157
30
0
41
1
10
63.7900678309844
20
-3.09827364037247
30
0
41
1
10
64.2989226720454
20
-3.32894862579033
30
0
41
1
10
64.5525092620574
20
-3.440542574821
30
0
41
1
10
65.1226864102421
20
-3.68314487601555
30
0
41
1
10
65.4390108325694
20
-3.81176682565891
30
0
41
1
10
65.7547827506459
20
-3.93368118600162
30
0
0
SPLINE
5
C0
100
AcDbEntity
8
1
62
256
6
ByLayer
370
13
48
1
60
0
100
AcDbSpline
70
4
71
3
72
18
73
14
40
0
40
0
40
0
40
0
40
0.235140834779476
40
0.235140834779476
40
0.406403457166853
40
0.406403457166853
40
0.492034768360542
40
0.492034768360542
40
0.577666079554232
40
0.577666079554232
40
0.920191324328982
40
0.920191324328982
40
1
40
1
40
1
40
1
41
1
10
65.7547836829865
20
-3.93368154596303
30
0
41
1
10
66.4462336359273
20
-4.20063900816015
30
0
41
1
10
67.1350344187046
20
-4.43543462335353
30
0
41
1
10
68.3271319832123
20
-4.77916445679952
30
0
41
1
10
68.8301865964251
20
-4.90489018359338
30
0
41
1
10
69.5878083592693
20
-5.06250888879836
30
0
41
1
10
69.8408687110758
20
-5.10989639379997
30
0
41
1
10
70.348472045089
20
-5.19395318771564
30
0
41
1
10
70.6034969163212
20
-5.23066880146402
30
0
41
1
10
71.8732487415799
20
-5.3854453560036
30
0
41
1
10
72.8772600348002
20
-5.41827028299545
30
0
41
1
10
74.1153489220575
20
-5.34851119679158
30
0
41
1
10
74.3493265721866
20
-5.33048906941397
30
0
41
1
10
74.58347052472
20
-5.30765106317455
30
0
0
SPLINE
5
C1
100
AcDbEntity
8
1
62
256
6
ByLayer
370
18
48
1
60
0
100
AcDbSpline
70
4
71
3
72
20
73
16
40
0
40
0
40
0
40
0
40
0.250000000000003
40
0.250000000000003
40
0.375000000000009
40
0.375000000000009
40
0.500000000000015
40
0.500000000000015
40
0.750000000000018
40
0.750000000000018
40
0.875000000000014
40
0.875000000000014
40
0.937500000000007
40
0.937500000000007
40
1
40
1
40
1
40
1
41
1
10
105.159925624085
20
2.72472693189482
30
0
41
1
10
105.075511046477
20
2.95184385398673
30
0
41
1
10
104.991013125488
20
3.17867970514516
30
0
41
1
10
104.864035084923
20
3.51815391070289
30
0
41
1
10
104.821668451602
20
3.631174991199
30
0
41
1
10
104.736806641363
20
3.85678364604462
30
0
41
1
10
104.694286787739
20
3.96928799956731
30
0
41
1
10
104.566661432829
20
4.30657917339542
30
0
41
1
10
104.481562848609
20
4.53138932112057
30
0
41
1
10
104.353526556172
20
4.86729463092621
30
0
41
1
10
104.310767566312
20
4.97907218689045
30
0
41
1
10
104.246414049696
20
5.14576711544726
30
0
41
1
10
104.22496565842
20
5.20101167735646
30
0
41
1
10
104.182068710503
20
5.3115198541785
30
0
41
1
10
104.160620614339
20
5.36673041364628
30
0
41
1
10
104.139173392603
20
5.42184022288831
30
0
0
SPLINE
5
C2
100
AcDbEntity
8
1
62
256
6
ByLayer
370
18
48
1
60
0
100
AcDbSpline
70
4
71
3
72
20
73
16
40
0
40
0
40
0
40
0
40
0.738439808081131
40
0.738439808081131
40
0.7618259249551
40
0.7618259249551
40
0.785212041829067
40
0.785212041829067
40
0.831984275577003
40
0.831984275577003
40
0.87875650932494
40
0.87875650932494
40
0.925528743072876
40
0.925528743072876
40
1
40
1
40
1
40
1
41
1
10
7.82911946133831
20
-5.49718430675875
30
0
41
1
10
7.41051888448541
20
-5.49679568458532
30
0
41
1
10
6.99076002498867
20
-5.4960087778415
30
0
41
1
10
6.55678393426524
20
-5.49545889482866
30
0
41
1
10
6.5434620991831
20
-5.49544222152872
30
0
41
1
10
6.51681868202354
20
-5.49540931016847
30
0
41
1
10
6.5034960169983
20
-5.4953907331348
30
0
41
1
10
6.46355404558659
20
-5.49539107961081
30
0
41
1
10
6.43622420382306
20
-5.49545398626344
30
0
41
1
10
6.38614883749122
20
-5.49570460480126
30
0
41
1
10
6.36443546469755
20
-5.49590719783353
30
0
41
1
10
6.31993604143034
20
-5.49615898300701
30
0
41
1
10
6.29777681603866
20
-5.49623635447
30
0
41
1
10
6.24058069488515
20
-5.49630104202811
30
0
41
1
10
6.20574865906036
20
-5.49620878020926
30
0
41
1
10
6.17124564495691
20
-5.49596710887809
30
0
0
SPLINE
5
C3
100
AcDbEntity
8
1
62
256
6
ByLayer
370
18
48
1
60
0
100
AcDbSpline
70
4
71
3
72
96
73
92
40
0
40
0
40
0
40
0
40
0.0166531414292765
40
0.0166531414292765
40
0.0344069283223541
40
0.0344069283223541
40
0.0521607152154316
40
0.0521607152154316
40
0.0876682890015876
40
0.0876682890015876
40
0.105422075894666
40
0.105422075894666
40
0.123175862787744
40
0.123175862787744
40
0.1586834365739
40
0.1586834365739
40
0.176437223466978
40
0.176437223466978
40
0.194191010360057
40
0.194191010360057
40
0.229698584146214
40
0.229698584146214
40
0.247452371039293
40
0.247452371039293
40
0.265206157932372
40
0.265206157932372
40
0.282959944825451
40
0.282959944825451
40
0.30071373171853
40
0.30071373171853
40
0.318467518611608
40
0.318467518611608
40
0.336221305504687
40
0.336221305504687
40
0.371728879290844
40
0.371728879290844
40
0.389482666183923
40
0.389482666183923
40
0.407236453077002
40
0.407236453077002
40
0.442744026863159
40
0.442744026863159
40
0.460497813756237
40
0.460497813756237
40
0.478251600649314
40
0.478251600649314
40
0.51375917443547
40
0.51375917443547
40
0.531512961328547
40
0.531512961328547
40
0.549266748221625
40
0.549266748221625
40
0.58477432200778
40
0.58477432200778
40
0.602528108900858
40
0.602528108900858
40
0.620281895793935
40
0.620281895793935
40
0.655789469580089
40
0.655789469580089
40
0.673543256473167
40
0.673543256473167
40
0.691297043366244
40
0.691297043366244
40
0.709050830259322
40
0.709050830259322
40
0.7268046171524
40
0.7268046171524
40
0.744558404045477
40
0.744558404045477
40
0.762312190938555
40
0.762312190938555
40
0.79781976472471
40
0.79781976472471
40
0.815573551617788
40
0.815573551617788
40
0.833327338510865
40
0.833327338510865
40
0.86883491229702
40
0.86883491229702
40
0.886588699190099
40
0.886588699190099
40
0.904342486083177
40
0.904342486083177
40
0.939850059869333
40
0.939850059869333
40
0.957603846762411
40
0.957603846762411
40
0.975357633655488
40
0.975357633655488
40
1
40
1
40
1
40
1
41
1
10
34.9056796922821
20
4.00577147877587
30
0
41
1
10
35.1127239224539
20
4.08794689752034
30
0
41
1
10
35.3197209752965
20
4.16759224702426
30
0
41
1
10
35.747144835551
20
4.32699409059353
30
0
41
1
10
35.9676069015943
20
4.40582452443076
30
0
41
1
10
36.4090175328778
20
4.55480325112046
30
0
41
1
10
36.6298181405838
20
4.62533557113397
30
0
41
1
10
37.2920758240923
20
4.82566884997937
30
0
41
1
10
37.7333739591897
20
4.94430681130609
30
0
41
1
10
38.3938999031891
20
5.09992743684677
30
0
41
1
10
38.614232095596
20
5.14782674827765
30
0
41
1
10
39.0563816705596
20
5.23451832218197
30
0
41
1
10
39.2774533893501
20
5.27345199197265
30
0
41
1
10
39.9402291566014
20
5.37750819267023
30
0
41
1
10
40.3814819886873
20
5.42998894265435
30
0
41
1
10
41.0413372170033
20
5.4829678341537
30
0
41
1
10
41.2611877273067
20
5.49621184600372
30
0
41
1
10
41.7026213892556
20
5.51364799308772
30
0
41
1
10
41.9240864825885
20
5.51792060117876
30
0
41
1
10
42.5878450691668
20
5.51753510131678
30
0
41
1
10
43.0293791112487
20
5.49981571710569
30
0
41
1
10
43.689081631757
20
5.44626183607738
30
0
41
1
10
43.9087238186379
20
5.42388508337189
30
0
41
1
10
44.3495673847875
20
5.37084532064483
30
0
41
1
10
44.5704321599616
20
5.34010721633132
30
0
41
1
10
45.0127413273518
20
5.27014831136782
30
0
41
1
10
45.2343850692103
20
5.23087768179621
30
0
41
1
10
45.6756407661411
20
5.14412730965097
30
0
41
1
10
45.8955197943345
20
5.09661114348904
30
0
41
1
10
46.3336145865028
20
4.99309930007468
30
0
41
1
10
46.5519262478503
20
4.93713471721745
30
0
41
1
10
46.9892645774103
20
4.81868414538417
30
0
41
1
10
47.2079593489295
20
4.75596198907201
30
0
41
1
10
47.8636809289956
20
4.55714623828052
30
0
41
1
10
48.3003387378921
20
4.41047308361294
30
0
41
1
10
48.9534843983504
20
4.16758285189448
30
0
41
1
10
49.1708657111301
20
4.08271176275585
30
0
41
1
10
49.6074069882156
20
3.90807436596393
30
0
41
1
10
49.8262355245961
20
3.81794753046199
30
0
41
1
10
50.4839160249773
20
3.5386336411128
30
0
41
1
10
50.9239510560553
20
3.34058176330288
30
0
41
1
10
51.5853868996377
20
3.02317976322595
30
0
41
1
10
51.8057101189206
20
2.91390642393154
30
0
41
1
10
52.2467481232883
20
2.6933737093205
30
0
41
1
10
52.4674253378581
20
2.58151913337042
30
0
41
1
10
53.1294266954296
20
2.24054075306864
30
0
41
1
10
53.5707201431962
20
2.00604175115663
30
0
41
1
10
54.2314306217884
20
1.64134634617289
30
0
41
1
10
54.4513161588147
20
1.51734634099699
30
0
41
1
10
54.8931000124706
20
1.26902079168264
30
0
41
1
10
55.1141360965194
20
1.14450909532459
30
0
41
1
10
55.7767755757747
20
0.769314064998468
30
0
41
1
10
56.2180857907219
20
0.516888320133376
30
0
41
1
10
56.878193674638
20
0.13271671424539
30
0
41
1
10
57.0977380639017
20
0.0034142281820664
30
0
41
1
10
57.5386056951786
20
-0.252878133677228
30
0
41
1
10
57.7598031857064
20
-0.380455253469762
30
0
41
1
10
58.4235326057959
20
-0.761479467880207
30
0
41
1
10
58.8651849120423
20
-1.01265076762653
30
0
41
1
10
59.5252183731368
20
-1.38709539655247
30
0
41
1
10
59.7446105951903
20
-1.51186073121406
30
0
41
1
10
60.1849243167911
20
-1.75666394197683
30
0
41
1
10
60.4055858411407
20
-1.87714853255329
30
0
41
1
10
60.8475529194643
20
-2.11491774919864
30
0
41
1
10
61.0691769172847
20
-2.23234991202133
30
0
41
1
10
61.5108178437162
20
-2.46325277855917
30
0
41
1
10
61.730913731213
20
-2.57677024181399
30
0
41
1
10
62.169485074764
20
-2.80017202362518
30
0
41
1
10
62.387719580555
20
-2.91039598358202
30
0
41
1
10
62.8247741815437
20
-3.12383004504113
30
0
41
1
10
63.0433812671546
20
-3.22740188166065
30
0
41
1
10
63.6989202055989
20
-3.52969122998093
30
0
41
1
10
64.1355797109499
20
-3.72003148530695
30
0
41
1
10
64.7888537455392
20
-3.99001274922065
30
0
41
1
10
65.0060490889583
20
-4.07770674015828
30
0
41
1
10
65.4419073822136
20
-4.24532976961257
30
0
41
1
10
65.6604545405737
20
-4.32543458144653
30
0
41
1
10
66.3173776675762
20
-4.55541181503162
30
0
41
1
10
66.7570383068362
20
-4.69501301707936
30
0
41
1
10
67.418019246072
20
-4.88411519822782
30
0
41
1
10
67.6384444658377
20
-4.94398016367452
30
0
41
1
10
68.0791671020448
20
-5.05448217661655
30
0
41
1
10
68.2997457657598
20
-5.10528909702725
30
0
41
1
10
68.9615356511507
20
-5.2451547210411
30
0
41
1
10
69.4028140449935
20
-5.32174076141825
30
0
41
1
10
70.0636179332577
20
-5.41181548325
30
0
41
1
10
70.2833988381776
20
-5.43775046329387
30
0
41
1
10
70.7244246425325
20
-5.48047282502219
30
0
41
1
10
70.9455558328885
20
-5.49728349896827
30
0
41
1
10
71.4729460278444
20
-5.52684397140959
30
0
41
1
10
71.7793318760325
20
-5.53557151837938
30
0
41
1
10
72.0852840019971
20
-5.53578788745838
30
0
0
SPLINE
5
C4
100
AcDbEntity
8
1
62
256
6
ByLayer
370
18
48
1
60
0
100
AcDbSpline
70
4
71
3
72
28
73
24
40
0
40
0
40
0
40
0
40
0.0086391896236104
40
0.0086391896236104
40
0.150262162534512
40
0.150262162534512
40
0.221073648989967
40
0.221073648989967
40
0.29188513544542
40
0.29188513544542
40
0.433508108356336
40
0.433508108356336
40
0.504319594811794
40
0.504319594811794
40
0.575131081267252
40
0.575131081267252
40
0.716754054178167
40
0.716754054178167
40
0.787565540633625
40
0.787565540633625
40
0.858377027089084
40
0.858377027089084
40
1
40
1
40
1
40
1
41
1
10
94.8387356352634
20
4.04056677263864
30
0
41
1
10
94.8653774222493
20
4.05119663299223
30
0
41
1
10
94.8920201849888
20
4.06177209403018
30
0
41
1
10
95.3554381928902
20
4.24476868370323
30
0
41
1
10
95.792146902016
20
4.40319316168123
30
0
41
1
10
96.4458108932499
20
4.62125654953076
30
0
41
1
10
96.6634361408026
20
4.69068435966861
30
0
41
1
10
97.0982368414159
20
4.82273937106197
30
0
41
1
10
97.316062740168
20
4.88477092531215
30
0
41
1
10
97.971534891367
20
5.05849921908575
30
0
41
1
10
98.4105510582274
20
5.15847615508397
30
0
41
1
10
99.0708562665383
20
5.28508441368314
30
0
41
1
10
99.2915665422783
20
5.32341706595957
30
0
41
1
10
99.7318782702055
20
5.39167122381363
30
0
41
1
10
99.9519145528641
20
5.42128599137047
30
0
41
1
10
100.612946815164
20
5.49652071557628
30
0
41
1
10
101.054031591328
20
5.52901440077369
30
0
41
1
10
101.714851684478
20
5.55164287384326
30
0
41
1
10
101.934992142458
20
5.55480227113458
30
0
41
1
10
102.374887695182
20
5.55207423830552
30
0
41
1
10
102.59540644192
20
5.54615979669714
30
0
41
1
10
103.2575647507
20
5.51526919440016
30
0
41
1
10
103.698892172319
20
5.47727925558385
30
0
41
1
10
104.139173392588
20
5.42184022290397
30
0
0
SPLINE
5
C5
100
AcDbEntity
8
1
62
256
6
ByLayer
370
18
48
1
60
0
100
AcDbSpline
70
4
71
3
72
18
73
14
40
0
40
0
40
0
40
0
40
0.0480721031641469
40
0.0480721031641469
40
0.387804157730418
40
0.387804157730418
40
0.557670185013555
40
0.557670185013555
40
0.642603198655121
40
0.642603198655121
40
0.727536212296687
40
0.727536212296687
40
1
40
1
40
1
40
1
41
1
10
27.9963925926102
20
-0.0004964028103132
30
0
41
1
10
28.1396679891176
20
-0.0810798455977135
30
0
41
1
10
28.2827545008781
20
-0.161562690696996
30
0
41
1
10
29.4358151302378
20
-0.809505430208048
30
0
41
1
10
30.4382872167557
20
-1.3689461731843
30
0
41
1
10
31.9487237955662
20
-2.1637666682727
30
0
41
1
10
32.4532530098141
20
-2.42143310492187
30
0
41
1
10
33.2139062246483
20
-2.7930338237363
30
0
41
1
10
33.4684032861323
20
-2.9144898083608
30
0
41
1
10
33.9779152289381
20
-3.15117001595212
30
0
41
1
10
34.2318407847415
20
-3.26590848713011
30
0
41
1
10
35.2978102136869
20
-3.73244606751467
30
0
41
1
10
36.1040852304006
20
-4.04859582805838
30
0
41
1
10
36.9101833294352
20
-4.31846833030679
30
0
0
SPLINE
5
C6
100
AcDbEntity
8
1
62
256
6
ByLayer
370
13
48
1
60
0
100
AcDbSpline
70
4
71
3
72
18
73
14
40
0
40
0
40
0
40
0
40
0.0777399085848782
40
0.0777399085848782
40
0.27404895668641
40
0.27404895668641
40
0.372203480737176
40
0.372203480737176
40
0.470358004787942
40
0.470358004787942
40
0.862976100991004
40
0.862976100991004
40
1
40
1
40
1
40
1
41
1
10
36.9101833295545
20
-4.31846833034675
30
0
41
1
10
37.1091999493035
20
-4.38509683775067
30
0
41
1
10
37.3082057851954
20
-4.44890455669372
30
0
41
1
10
38.0100324778292
20
-4.66353729533003
30
0
41
1
10
38.5133537427474
20
-4.79853876572221
30
0
41
1
10
39.27138596614
20
-4.97076756103615
30
0
41
1
10
39.5245647910626
20
-5.02314938845609
30
0
41
1
10
40.0323086950119
20
-5.11744099330508
30
0
41
1
10
40.2874297372687
20
-5.15942170796203
30
0
41
1
10
41.5587716585059
20
-5.34071982043025
30
0
41
1
10
42.5638911711119
20
-5.39522859276653
30
0
41
1
10
43.9194520455621
20
-5.34806625284287
30
0
41
1
10
44.2701520364134
20
-5.32498264583876
30
0
41
1
10
44.6213593582625
20
-5.29108192764429
30
0
0
SPLINE
5
C7
100
AcDbEntity
8
1
62
256
6
ByLayer
370
18
48
1
60
0
100
AcDbSpline
70
4
71
3
72
18
73
14
40
0
40
0
40
0
40
0
40
0.132199632047865
40
0.132199632047865
40
0.223623956156996
40
0.223623956156996
40
0.315048280266128
40
0.315048280266128
40
0.497896928484391
40
0.497896928484391
40
0.863594224920918
40
0.863594224920918
40
1
40
1
40
1
40
1
41
1
10
87.9148868206333
20
-0.0110789067923065
30
0
41
1
10
88.2781201142207
20
-0.216696541447988
30
0
41
1
10
88.6418008822258
20
-0.422592122732652
30
0
41
1
10
89.2586598237991
20
-0.769710603075509
30
0
41
1
10
89.5113426226512
20
-0.911256505766801
30
0
41
1
10
90.0182172234061
20
-1.19266034358958
30
0
41
1
10
90.2729234341301
20
-1.33293311850542
30
0
41
1
10
91.0351715562556
20
-1.74824576797422
30
0
41
1
10
91.5395950283335
20
-2.0169970435833
30
0
41
1
10
93.0465439815492
20
-2.79170623194162
30
0
41
1
10
94.0428610741307
20
-3.26585099115502
30
0
41
1
10
95.4154638490681
20
-3.83553699711774
30
0
41
1
10
95.788772332845
20
-3.98211530358364
30
0
41
1
10
96.1631801489866
20
-4.11957811011007
30
0
0
SPLINE
5
C8
100
AcDbEntity
8
1
62
256
6
ByLayer
370
13
48
1
60
0
100
AcDbSpline
70
4
71
3
72
18
73
14
40
0
40
0
40
0
40
0
40
0.0483434420996616
40
0.0483434420996616
40
0.238674753679723
40
0.238674753679723
40
0.619337376839854
40
0.619337376839854
40
0.809668688419923
40
0.809668688419923
40
0.904834344209963
40
0.904834344209963
40
1
40
1
40
1
40
1
41
1
10
96.1631801455248
20
-4.11957810883908
30
0
41
1
10
96.2906569686608
20
-4.16638087610872
30
0
41
1
10
96.4182612305938
20
-4.2121269398852
30
0
41
1
10
97.0490143828461
20
-4.43258044791733
30
0
41
1
10
97.5548646600242
20
-4.59156772292283
30
0
41
1
10
99.0811469268783
20
-5.0103170216405
30
0
41
1
10
100.085975726178
20
-5.20512261529353
30
0
41
1
10
101.592543345393
20
-5.36455246768108
30
0
41
1
10
102.094645097272
20
-5.3956365748229
30
0
41
1
10
102.849910969593
20
-5.40834819804863
30
0
41
1
10
103.102013750582
20
-5.40693160991398
30
0
41
1
10
103.607255287087
20
-5.39265355033092
30
0
41
1
10
103.860439405429
20
-5.37944200380588
30
0
41
1
10
104.114209187413
20
-5.36115191066182
30
0
0
SPLINE
5
C9
100
AcDbEntity
8
1
62
256
6
ByLayer
370
18
48
1
60
0
100
AcDbSpline
70
4
71
3
72
14
73
10
40
0
40
0
40
0
40
0
40
0.25
40
0.25
40
0.5
40
0.5
40
0.75
40
0.75
40
1
40
1
40
1
40
1
41
1
10
7.12514928326146
20
-4.47898515241226
30
0
41
1
10
7.10639320294808
20
-4.47270861674818
30
0
41
1
10
7.08942624220589
20
-4.46515525637483
30
0
41
1
10
7.05896097637833
20
-4.44749870626231
30
0
41
1
10
7.04556556029536
20
-4.43736829642361
30
0
41
1
10
7.02386760530365
20
-4.41556423971412
30
0
41
1
10
7.01526227754565
20
-4.40356621224475
30
0
41
1
10
7.00363418373101
20
-4.37883851696719
30
0
41
1
10
7.00047502270169
20
-4.36608275568508
30
0
41
1
10
7.0000486018628
20
-4.3529122393912
30
0
0
SPLINE
5
CA
100
AcDbEntity
8
1
62
256
6
ByLayer
370
13
48
1
60
0
100
AcDbSpline
70
4
71
3
72
12
73
8
40
0
40
0
40
0
40
0
40
0.50000000000002
40
0.50000000000002
40
0.75000000000001
40
0.75000000000001
40
1
40
1
40
1
40
1
41
1
10
7.00001821555031
20
-4.35103468541931
30
0
41
1
10
7.00053221149386
20
-4.33250049694837
30
0
41
1
10
7.011883210826
20
-4.3137122889118
30
0
41
1
10
7.04388948111682
20
-4.28855409245818
30
0
41
1
10
7.05732964690034
20
-4.28047603958797
30
0
41
1
10
7.08892593231104
20
-4.26602179788912
30
0
41
1
10
7.10689062716637
20
-4.25966066641303
30
0
41
1
10
7.12737769450143
20
-4.25434126642372
30
0
0
SPLINE
5
CB
100
AcDbEntity
8
1
62
256
6
ByLayer
370
18
48
1
60
0
100
AcDbSpline
70
4
71
3
72
66
73
62
40
0
40
0
40
0
40
0
40
0.0625000000000038
40
0.0625000000000038
40
0.125000000000008
40
0.125000000000008
40
0.250000000000016
40
0.250000000000016
40
0.375000000000025
40
0.375000000000025
40
0.500000000000033
40
0.500000000000033
40
0.562500000000037
40
0.562500000000037
40
0.625000000000042
40
0.625000000000042
40
0.687500000000046
40
0.687500000000046
40
0.689453125000046
40
0.689453125000046
40
0.691406250000046
40
0.691406250000046
40
0.695312500000045
40
0.695312500000045
40
0.699218750000045
40
0.699218750000045
40
0.703125000000044
40
0.703125000000044
40
0.718750000000041
40
0.718750000000041
40
0.734375000000039
40
0.734375000000039
40
0.750000000000037
40
0.750000000000037
40
0.765625000000034
40
0.765625000000034
40
0.781250000000032
40
0.781250000000032
40
0.79687500000003
40
0.79687500000003
40
0.804687500000028
40
0.804687500000028
40
0.812500000000027
40
0.812500000000027
40
0.828125000000024
40
0.828125000000024
40
0.843750000000022
40
0.843750000000022
40
0.859375000000019
40
0.859375000000019
40
0.875000000000017
40
0.875000000000017
40
0.906250000000012
40
0.906250000000012
40
0.92187500000001
40
0.92187500000001
40
0.937500000000008
40
0.937500000000008
40
0.968750000000004
40
0.968750000000004
40
1
40
1
40
1
40
1
41
1
10
19.6822034869788
20
3.88205620952391
30
0
41
1
10
19.314052736578
20
4.03321278707696
30
0
41
1
10
18.9437289562784
20
4.17210529650851
30
0
41
1
10
18.1977463588947
20
4.42659455827635
30
0
41
1
10
17.8216664556065
20
4.54227833444327
30
0
41
1
10
16.6860427166481
20
4.85476471886318
30
0
41
1
10
15.924454444381
20
5.01535411899675
30
0
41
1
10
14.3812884079171
20
5.25692344205893
30
0
41
1
10
13.5996141527245
20
5.33789219940994
30
0
41
1
10
12.0069999511422
20
5.44476510035923
30
0
41
1
10
11.1960658033028
20
5.47096323584847
30
0
41
1
10
9.95342990955635
20
5.49079305736356
30
0
41
1
10
9.53427865459057
20
5.4941573520351
30
0
41
1
10
8.69314550174593
20
5.49753916355044
30
0
41
1
10
8.270172079688
20
5.49758262659566
30
0
41
1
10
7.42179195131376
20
5.49681686388152
30
0
41
1
10
6.99640866099486
20
5.49601593512287
30
0
41
1
10
6.55678393425768
20
5.49545889482869
30
0
41
1
10
6.54346209917566
20
5.49544222152872
30
0
41
1
10
6.51681868201601
20
5.49540931016844
30
0
41
1
10
6.50349601699079
20
5.49539073313483
30
0
41
1
10
6.46355404557909
20
5.49539107961084
30
0
41
1
10
6.43622420381547
20
5.49545398626347
30
0
41
1
10
6.38614883748448
20
5.49570460480132
30
0
41
1
10
6.36443546469127
20
5.49590719783356
30
0
41
1
10
6.31993604142406
20
5.49615898300701
30
0
41
1
10
6.29777681603241
20
5.49623635446997
30
0
41
1
10
6.18745376556711
20
5.49636112741945
30
0
41
1
10
6.10108540330765
20
5.49562788705413
30
0
41
1
10
5.93306577998689
20
5.49194305266232
30
0
41
1
10
5.85137304065472
20
5.48899561903229
30
0
41
1
10
5.69365803456887
20
5.48010185483082
30
0
41
1
10
5.61772940961743
20
5.47414460451938
30
0
41
1
10
5.4753921843166
20
5.45841696362632
30
0
41
1
10
5.40867437293906
20
5.44864046677941
30
0
41
1
10
5.28625625784096
20
5.42395332028804
30
0
41
1
10
5.2302162512056
20
5.40887360703803
30
0
41
1
10
5.13523206228066
20
5.37287733417276
30
0
41
1
10
5.09591855844948
20
5.35195134223855
30
0
41
1
10
5.05101222469133
20
5.31515548275448
30
0
41
1
10
5.03835307993668
20
5.3018997498811
30
0
41
1
10
5.0184800651013
20
5.27398929633506
30
0
41
1
10
5.01119329675277
20
5.25930999565051
30
0
41
1
10
4.99707256204098
20
5.21306953417363
30
0
41
1
10
4.99796872333383
20
5.17930746243175
30
0
41
1
10
5.01951533973491
20
5.10571513432143
30
0
41
1
10
5.03983259505617
20
5.06697605533347
30
0
41
1
10
5.09563601544261
20
4.98646808478378
30
0
41
1
10
5.13116665300515
20
4.94461567170782
30
0
41
1
10
5.21490520018008
20
4.85795683125446
30
0
41
1
10
5.26237147223617
20
4.81391450344998
30
0
41
1
10
5.41695411453196
20
4.68043224931031
30
0
41
1
10
5.53636305010116
20
4.58932457188405
30
0
41
1
10
5.7315360437907
20
4.44960842734682
30
0
41
1
10
5.79920969917933
20
4.40262473003261
30
0
41
1
10
5.93746264012307
20
4.30878138975672
30
0
41
1
10
6.0082517503015
20
4.26177343369645
30
0
41
1
10
6.2247191935262
20
4.12036446822816
30
0
41
1
10
6.37445221275158
20
4.0255723986651
30
0
41
1
10
6.68175819297039
20
3.83451306254523
30
0
41
1
10
6.83935921767247
20
3.73824964314161
30
0
41
1
10
7.00001956857793
20
3.64111506928421
30
0
0
SPLINE
5
CC
100
AcDbEntity
8
1
62
256
6
ByLayer
370
18
48
1
60
0
100
AcDbSpline
70
4
71
3
72
8
73
4
40
0
40
0
40
0
40
0
40
1
40
1
40
1
40
1
41
1
10
13.2758271690091
20
0.038318096783172
30
0
41
1
10
13.2528737682854
20
0.0257138160377508
30
0
41
1
10
13.2299331518243
20
0.0130967913736413
30
0
41
1
10
13.2070050373919
20
0.0004674262445121
30
0
0
SPLINE
5
CD
100
AcDbEntity
8
1
62
256
6
ByLayer
370
13
48
1
60
0
100
AcDbSpline
70
4
71
3
72
32
73
28
40
0
40
0
40
0
40
0
40
0.125
40
0.125
40
0.1875
40
0.1875
40
0.25
40
0.3125
40
0.3125
40
0.375
40
0.375
40
0.5
40
0.5
40
0.5625
40
0.5625
40
0.625
40
0.625
40
0.6875
40
0.6875
40
0.75
40
0.8125
40
0.8125
40
0.84375
40
0.84375
40
0.875
40
0.875
40
1
40
1
40
1
40
1
41
1
10
7.25022819556443
20
-4.25219057708765
30
0
41
1
10
7.25022622798758
20
-4.03622063277527
30
0
41
1
10
7.25021284270116
20
-3.79173833280024
30
0
41
1
10
7.25018357955756
20
-3.38246171727988
30
0
41
1
10
7.25017235221122
20
-3.2398050270626
30
0
41
1
10
7.2501486239818
20
-2.94551001282605
30
0
41
1
10
7.25012355354323
20
-2.64129996180799
30
0
41
1
10
7.25009840919225
20
-2.31743375258117
30
0
41
1
10
7.25007446578331
20
-1.98350283119717
30
0
41
1
10
7.2500630922824
20
-1.81115280696727
30
0
41
1
10
7.25003322847178
20
-1.29094300445232
30
0
41
1
10
7.25001874783842
20
-0.936136394937819
30
0
41
1
10
7.25000983136357
20
-0.391930609374498
30
0
41
1
10
7.2500089944869
20
-0.207699866188875
30
0
41
1
10
7.25001211821228
20
0.159632653253084
30
0
41
1
10
7.25001605253027
20
0.342924656859594
30
0
41
1
10
7.25002880879504
20
0.70875804850283
30
0
41
1
10
7.25003762540413
20
0.890576089110709
30
0
41
1
10
7.25005963935357
20
1.24756038824429
30
0
41
1
10
7.2500860756129
20
1.59924745377287
30
0
41
1
10
7.25012043301609
20
1.94042541660852
30
0
41
1
10
7.25014872085532
20
2.19226976775482
30
0
41
1
10
7.25015859725002
20
2.27576030039151
30
0
41
1
10
7.25017888515967
20
2.43969953976421
30
0
41
1
10
7.25018930804504
20
2.52027438094734
30
0
41
1
10
7.25024248839034
20
2.91630514217201
30
0
41
1
10
7.25028851675603
20
3.2114506705569
30
0
41
1
10
7.25033335251482
20
3.48477827656313
30
0
0
SPLINE
5
CE
100
AcDbEntity
8
1
62
256
6
ByLayer
370
18
48
1
60
0
100
AcDbSpline
70
4
71
3
72
29
73
25
40
0
40
0
40
0
40
0
40
0.0624999999999993
40
0.0624999999999993
40
0.0937500000000001
40
0.0937500000000001
40
0.125000000000001
40
0.125000000000001
40
0.249999999999997
40
0.249999999999997
40
0.312499999999996
40
0.312499999999996
40
0.374999999999994
40
0.374999999999994
40
0.499999999999991
40
0.499999999999991
40
0.562499999999989
40
0.562499999999989
40
0.624999999999987
40
0.749999999999991
40
0.749999999999991
40
0.874999999999996
40
0.874999999999996
40
1
40
1
40
1
40
1
41
1
10
98.2733468914555
20
2.54958078611446
30
0
41
1
10
98.2906907991033
20
2.40516289249706
30
0
41
1
10
98.3189519398622
20
2.25893433123525
30
0
41
1
10
98.3767170894432
20
2.03704174186632
30
0
41
1
10
98.398539768267
20
1.96265169367254
30
0
41
1
10
98.4472109422231
20
1.81303804514948
30
0
41
1
10
98.4741442395014
20
1.7376420530241
30
0
41
1
10
98.61862883089
20
1.36474261160194
30
0
41
1
10
98.7664762156435
20
1.07468320150264
30
0
41
1
10
99.0249557354188
20
0.648993333015426
30
0
41
1
10
99.1169183185713
20
0.509446647363376
30
0
41
1
10
99.308075005083
20
0.238291738970901
30
0
41
1
10
99.4076769886937
20
0.106025748334304
30
0
41
1
10
99.7169481749701
20
-0.282159315174084
30
0
41
1
10
99.9370224798977
20
-0.529514969366375
30
0
41
1
10
100.284067282884
20
-0.886612275466462
30
0
41
1
10
100.402184771871
20
-1.00288047427622
30
0
41
1
10
100.640747302249
20
-1.2286757691374
30
0
41
1
10
101.002998006226
20
-1.55822541772946
30
0
41
1
10
101.377019658712
20
-1.86335312936987
30
0
41
1
10
101.884873954302
20
-2.25118781742168
30
0
41
1
10
102.143368693756
20
-2.4356284879731
30
0
41
1
10
102.668101985683
20
-2.78844324674412
30
0
41
1
10
102.934665552159
20
-2.95696908058565
30
0
41
1
10
103.202794359892
20
-3.1167382694282
30
0
0
SPLINE
5
CF
100
AcDbEntity
8
1
62
256
6
ByLayer
370
18
48
1
60
0
100
AcDbSpline
70
4
71
3
72
12
73
8
40
0
40
0
40
0
40
0
40
0.336855549553888
40
0.336855549553888
40
0.854706869435282
40
0.854706869435282
40
1
40
1
40
1
40
1
41
1
10
103.07422183448
20
-5.30730249654721
30
0
41
1
10
102.417989120969
20
-5.30695982515644
30
0
41
1
10
101.764697843116
20
-5.26879103514321
30
0
41
1
10
100.1068644848
20
-5.0792939452725
30
0
41
1
10
99.1019558483998
20
-4.87789530771434
30
0
41
1
10
97.7992933216332
20
-4.5150045875755
30
0
41
1
10
97.5149979540268
20
-4.42963580367049
30
0
41
1
10
97.2315803143259
20
-4.3388014772149
30
0
0
SPLINE
5
D0
100
AcDbEntity
8
1
62
256
6
ByLayer
370
13
48
1
60
0
100
AcDbSpline
70
4
71
3
72
22
73
18
40
0
40
0
40
0
40
0
40
0.161472546728142
40
0.161472546728142
40
0.385917408889864
40
0.385917408889864
40
0.498139839970727
40
0.498139839970727
40
0.554251055511159
40
0.554251055511159
40
0.610362271051591
40
0.610362271051591
40
0.834807133213327
40
0.834807133213327
40
0.947029564294195
40
0.947029564294195
40
1
40
1
40
1
40
1
41
1
10
97.2315803143097
20
-4.3388014772097
30
0
41
1
10
96.5048455935683
20
-4.10588563280331
30
0
41
1
10
95.7838819644803
20
-3.83703365511587
30
0
41
1
10
94.0650432466296
20
-3.12450517414655
30
0
41
1
10
93.0685627897079
20
-2.65312669342228
30
0
41
1
10
91.5615568864467
20
-1.88611461569562
30
0
41
1
10
91.0571632883883
20
-1.62049538995464
30
0
41
1
10
90.2950769503908
20
-1.21075793139133
30
0
41
1
10
90.0405998355228
20
-1.07256808701274
30
0
41
1
10
89.534015233873
20
-0.795495002525826
30
0
41
1
10
89.2814289481041
20
-0.656256322613785
30
0
41
1
10
88.020908121608
20
0.0413674599762714
30
0
41
1
10
87.0197888071795
20
0.603251446073415
30
0
41
1
10
85.5122410957409
20
1.42108532192444
30
0
41
1
10
85.0086191659941
20
1.68928338800637
30
0
41
1
10
84.2637008826725
20
2.07405222301006
30
0
41
1
10
84.0239310727799
20
2.19601779005151
30
0
41
1
10
83.7841126595226
20
2.31578418952327
30
0
0
SPLINE
5
D1
100
AcDbEntity
8
1
62
256
6
ByLayer
370
18
48
1
60
0
100
AcDbSpline
70
4
71
3
72
16
73
12
40
0
40
0
40
0
40
0
40
0.433896417706691
40
0.433896417706691
40
0.549663805296936
40
0.549663805296936
40
0.66543119288718
40
0.66543119288718
40
0.896965968067675
40
0.896965968067675
40
1
40
1
40
1
40
1
41
1
10
43.4136615755251
20
-5.26978014822279
30
0
41
1
10
42.472108866461
20
-5.28230420422119
30
0
41
1
10
41.5297402033654
20
-5.21765752240205
30
0
41
1
10
40.3228533056679
20
-5.03733725997273
30
0
41
1
10
40.0678984314749
20
-4.99378855673251
30
0
41
1
10
39.5604151789683
20
-4.89664205801816
30
0
41
1
10
39.3073456225352
20
-4.84297083264943
30
0
41
1
10
38.5495896985503
20
-4.66727082467344
30
0
41
1
10
38.0463687588124
20
-4.53046372068442
30
0
41
1
10
37.3200007346336
20
-4.3065429993423
30
0
41
1
10
37.0964088817829
20
-4.23400437588933
30
0
41
1
10
36.8727886691347
20
-4.15803213788487
30
0
0
SPLINE
5
D2
100
AcDbEntity
8
1
62
256
6
ByLayer
370
13
48
1
60
0
100
AcDbSpline
70
4
71
3
72
24
73
20
40
0
40
0
40
0
40
0
40
0.180268714933417
40
0.180268714933417
40
0.238233102106413
40
0.238233102106413
40
0.29619748927941
40
0.29619748927941
40
0.412126263625403
40
0.412126263625403
40
0.643983812317389
40
0.643983812317389
40
0.701948199490386
40
0.701948199490386
40
0.759912586663383
40
0.759912586663383
40
0.875841361009376
40
0.875841361009376
40
1
40
1
40
1
40
1
41
1
10
36.8727886697933
20
-4.15803213810864
30
0
41
1
10
36.0913845288059
20
-3.89255961812279
30
0
41
1
10
35.3096341038146
20
-3.5851613476502
30
0
41
1
10
34.2687686290308
20
-3.13175984627509
30
0
41
1
10
34.0149290359385
20
-3.01772563663633
30
0
41
1
10
33.5056269421203
20
-2.78276880805521
30
0
41
1
10
33.2513112549648
20
-2.66235633514375
30
0
41
1
10
32.4910024750889
20
-2.29419471052663
30
0
41
1
10
31.9866027619605
20
-2.03934557452575
30
0
41
1
10
30.476474214241
20
-1.25435376099088
30
0
41
1
10
29.4740164185702
20
-0.703413131476282
30
0
41
1
10
28.211612949575
20
-0.006729847190968
30
0
41
1
10
27.9586688177772
20
0.133013237711509
30
0
41
1
10
27.4514688794388
20
0.412612785770648
30
0
41
1
10
27.1967966071904
20
0.552699372386343
30
0
41
1
10
26.4331490284126
20
0.970435154713329
30
0
41
1
10
25.9270585288687
20
1.24406156400059
30
0
41
1
10
24.8824601178483
20
1.79613600060435
30
0
41
1
10
24.344051668682
20
2.07330694905846
30
0
41
1
10
23.8056810936707
20
2.33921979369518
30
0
0
SPLINE
5
D3
100
AcDbEntity
8
1
62
256
6
ByLayer
370
18
48
1
60
0
100
AcDbSpline
70
4
71
3
72
89
73
85
40
0
40
0
40
0
40
0
40
0.0352918070009388
40
0.0352918070009388
40
0.0705694322988555
40
0.0705694322988555
40
0.105847057596772
40
0.105847057596772
40
0.176402308192606
40
0.176402308192606
40
0.246957558788439
40
0.246957558788439
40
0.282235184086356
40
0.282235184086356
40
0.317512809384273
40
0.317512809384273
40
0.388068059980106
40
0.388068059980106
40
0.423345685278023
40
0.423345685278023
40
0.440984497926981
40
0.440984497926981
40
0.449803904251461
40
0.449803904251461
40
0.4542136074137
40
0.45641845899482
40
0.45752088478538
40
0.45779649123302
40
0.45779649123302
40
0.45807209768066
40
0.45807209768066
40
0.4583477041283
40
0.4583477041283
40
0.45862331057594
40
0.45862331057594
40
0.46082816215706
40
0.46082816215706
40
0.463033013738179
40
0.463033013738179
40
0.467442716900419
40
0.467442716900419
40
0.476262123224898
40
0.476262123224898
40
0.493900935873855
40
0.493900935873855
40
0.52917856117177
40
0.52917856117177
40
0.599733811767601
40
0.599733811767601
40
0.670289062363431
40
0.670289062363431
40
0.705566687661347
40
0.705566687661347
40
0.714386093985825
40
0.714386093985825
40
0.718795797148065
40
0.718795797148065
40
0.719898222938625
40
0.719898222938625
40
0.720449435833905
40
0.720449435833905
40
0.720587239057725
40
0.720587239057725
40
0.720725042281545
40
0.720725042281545
40
0.721000648729185
40
0.723205500310304
40
0.74084431295926
40
0.74084431295926
40
0.776121938257172
40
0.776121938257172
40
0.811399563555084
40
0.811399563555084
40
0.846677188852996
40
0.846677188852996
40
0.881954814150907
40
0.881954814150907
40
0.917232439448819
40
0.917232439448819
40
0.934871252097775
40
0.934871252097775
40
0.952510064746731
40
0.952510064746731
40
1
40
1
40
1
40
1
41
1
10
19.6822031626111
20
3.8820958868593
30
0
41
1
10
19.5147021133406
20
3.89987838342373
30
0
41
1
10
19.3470070605494
20
3.91213073650241
30
0
41
1
10
19.0109101689559
20
3.92389802144859
30
0
41
1
10
18.8421546052463
20
3.92338765208868
30
0
41
1
10
18.5045922626948
20
3.90797325553422
30
0
41
1
10
18.3372057992553
20
3.89314959074045
30
0
41
1
10
17.8383324098392
20
3.82679433619492
30
0
41
1
10
17.5102105208304
20
3.75318538898378
30
0
41
1
10
16.8557662734727
20
3.54924740555219
30
0
41
1
10
16.5293959149355
20
3.41899887291976
30
0
41
1
10
16.0343671355415
20
3.18649697332643
30
0
41
1
10
15.8701010758855
20
3.10361589325888
30
0
41
1
10
15.543603995608
20
2.92984672649018
30
0
41
1
10
15.381079279099
20
2.83882160476389
30
0
41
1
10
14.8939405401695
20
2.55590942944875
30
0
41
1
10
14.5697278664061
20
2.35424899441648
30
0
41
1
10
14.0781671449143
20
2.04112776467545
30
0
41
1
10
13.9132641848051
20
1.93484299071983
30
0
41
1
10
13.6662382721498
20
1.77525214269411
30
0
41
1
10
13.5838607090611
20
1.72196930404999
30
0
41
1
10
13.4601608291565
20
1.64204014775839
30
0
41
1
10
13.418912626763
20
1.61540096375055
30
0
41
1
10
13.3570331911895
20
1.57547914916705
30
0
41
1
10
13.3260891602829
20
1.55552584207913
30
0
41
1
10
13.2899834885314
20
1.53226696893935
30
0
41
1
10
13.2732187522436
20
1.52147312226651
30
0
41
1
10
13.2667705656337
20
1.51732248019124
30
0
41
1
10
13.2641912776999
20
1.51566229351354
30
0
41
1
10
13.262622193541
20
1.51513472532633
30
0
41
1
10
13.2606906507791
20
1.51275916449106
30
0
41
1
10
13.2619070541413
20
1.5111156302215
30
0
41
1
10
13.263596372171
20
1.50873967618125
30
0
41
1
10
13.2645669910971
20
1.50765279382617
30
0
41
1
10
13.2736209628717
20
1.49812649786887
30
0
41
1
10
13.2831692577476
20
1.49121684414558
30
0
41
1
10
13.3019165062462
20
1.47718038583182
30
0
41
1
10
13.3114528925175
20
1.4703818138664
30
0
41
1
10
13.340249006083
20
1.45024053371975
30
0
41
1
10
13.359708949648
20
1.43716860573127
30
0
41
1
10
13.4183637781354
20
1.39834497949187
30
0
41
1
10
13.4578409528284
20
1.37303338770505
30
0
41
1
10
13.5766573033393
20
1.29772426473917
30
0
41
1
10
13.6564245472878
20
1.24841615040688
30
0
41
1
10
13.8963006268617
20
1.10157156954975
30
0
41
1
10
14.0570085529929
20
1.00523947961656
30
0
41
1
10
14.5399548502941
20
0.718544899420294
30
0
41
1
10
14.8628655894793
20
0.530323192299818
30
0
41
1
10
15.5085294921466
20
0.157272227610179
30
0
41
1
10
15.831618940662
20
-0.0271641252725487
30
0
41
1
10
16.3134182282624
20
-0.304130573589276
30
0
41
1
10
16.473857892522
20
-0.396211949223243
30
0
41
1
10
16.6718703357687
20
-0.512918427262122
30
0
41
1
10
16.7113770776133
20
-0.536341612492663
30
0
41
1
10
16.7697457910213
20
-0.572056348526672
30
0
41
1
10
16.789182663366
20
-0.583996487674511
30
0
41
1
10
16.8123771867295
20
-0.599587516670255
30
0
41
1
10
16.8169680689674
20
-0.602730843373365
30
0
41
1
10
16.8234317226366
20
-0.607670003536583
30
0
41
1
10
16.8256343919538
20
-0.60932498410574
30
0
41
1
10
16.8275602526959
20
-0.611626630362395
30
0
41
1
10
16.827949352603
20
-0.612129782383732
30
0
41
1
10
16.8278738428604
20
-0.613021163235146
30
0
41
1
10
16.8271126193064
20
-0.613134623985388
30
0
41
1
10
16.825407391384
20
-0.613662440364152
30
0
41
1
10
16.8151761742854
20
-0.616824904745272
30
0
41
1
10
16.7321988203146
20
-0.642152652807141
30
0
41
1
10
16.6504630184207
20
-0.6645607995045
30
0
41
1
10
16.4326373238345
20
-0.718029791431377
30
0
41
1
10
16.2878272567744
20
-0.745225093862899
30
0
41
1
10
15.9989204615039
20
-0.781881942891744
30
0
41
1
10
15.8545961122552
20
-0.791403992351576
30
0
41
1
10
15.5641618483391
20
-0.792077797892858
30
0
41
1
10
15.4174978884067
20
-0.783102746613594
30
0
41
1
10
15.1246815245783
20
-0.746538489655535
30
0
41
1
10
14.9781223171486
20
-0.719012953762672
30
0
41
1
10
14.6822504904435
20
-0.645880481747696
30
0
41
1
10
14.5329342285744
20
-0.600267304637811
30
0
41
1
10
14.3049293718708
20
-0.518693742155818
30
0
41
1
10
14.2282550226184
20
-0.489312027731955
30
0
41
1
10
14.0732328736417
20
-0.42626598596425
30
0
41
1
10
13.9946290660722
20
-0.392479956569957
30
0
41
1
10
13.7043407613841
20
-0.261731076259366
30
0
41
1
10
13.4913990314834
20
-0.154390453649683
30
0
41
1
10
13.2757714241562
20
-0.0383555643791169
30
0
0
SPLINE
5
D4
100
AcDbEntity
8
1
62
256
6
ByLayer
370
18
48
1
60
0
100
AcDbSpline
70
2053
71
3
72
60
73
56
40
0
40
0
40
0
40
0
40
0.0312499999999998
40
0.0312499999999998
40
0.0624999999999997
40
0.0624999999999997
40
0.0937499999999995
40
0.0937499999999995
40
0.124999999999999
40
0.124999999999999
40
0.156249999999999
40
0.156249999999999
40
0.187499999999999
40
0.187499999999999
40
0.249999999999999
40
0.249999999999999
40
0.281249999999998
40
0.281249999999998
40
0.312499999999998
40
0.312499999999998
40
0.374999999999998
40
0.374999999999998
40
0.437499999999997
40
0.437499999999997
40
0.468749999999997
40
0.468749999999997
40
0.499999999999997
40
0.499999999999997
40
0.531249999999997
40
0.531249999999997
40
0.562499999999997
40
0.562499999999997
40
0.593749999999997
40
0.593749999999997
40
0.624999999999996
40
0.624999999999996
40
0.656249999999996
40
0.656249999999996
40
0.687499999999996
40
0.687499999999996
40
0.749999999999996
40
0.749999999999996
40
0.781249999999995
40
0.781249999999995
40
0.812499999999995
40
0.812499999999995
40
0.843749999999995
40
0.843749999999995
40
0.874999999999994
40
0.874999999999994
40
0.906249999999994
40
0.906249999999994
40
0.937499999999994
40
0.937499999999994
40
1
40
1
40
1
40
1
41
1
10
104.582474258137
20
-2.9978886225618
30
0
41
1
10
104.610679990907
20
-2.9575190572815
30
0
41
1
10
104.638296129458
20
-2.91427101150404
30
0
41
1
10
104.692247445868
20
-2.82152109275472
30
0
41
1
10
104.71887595138
20
-2.77140554495236
30
0
41
1
10
104.768955896067
20
-2.66693685637873
30
0
41
1
10
104.792346309391
20
-2.61285881072121
30
0
41
1
10
104.83531566584
20
-2.50044266399263
30
0
41
1
10
104.854366084522
20
-2.4433096713272
30
0
41
1
10
104.885983300104
20
-2.33107719129973
30
0
41
1
10
104.898883478777
20
-2.27450125648838
30
0
41
1
10
104.916728225951
20
-2.16882565993765
30
0
41
1
10
104.921923544044
20
-2.11875068116217
30
0
41
1
10
104.926231595864
20
-1.98159629780346
30
0
41
1
10
104.914019465349
20
-1.90964283553433
30
0
41
1
10
104.880000485095
20
-1.83338833526295
30
0
41
1
10
104.865931873123
20
-1.81294103816623
30
0
41
1
10
104.834037211827
20
-1.78215020392651
30
0
41
1
10
104.816117249729
20
-1.77155498750253
30
0
41
1
10
104.756923139664
20
-1.7530177688455
30
0
41
1
10
104.711974218448
20
-1.75847478233962
30
0
41
1
10
104.613012536491
20
-1.80079545719332
30
0
41
1
10
104.560813204294
20
-1.83685892569707
30
0
41
1
10
104.478370979724
20
-1.91366784694114
30
0
41
1
10
104.450343207906
20
-1.94305582818353
30
0
41
1
10
104.394685477969
20
-2.00806662884534
30
0
41
1
10
104.366843670293
20
-2.04387247778979
30
0
41
1
10
104.311131400886
20
-2.12279108876024
30
0
41
1
10
104.282946409546
20
-2.16645478758588
30
0
41
1
10
104.228523375734
20
-2.2593351322879
30
0
41
1
10
104.202238826685
20
-2.30850012693816
30
0
41
1
10
104.151819914496
20
-2.41315058838487
30
0
41
1
10
104.127945904137
20
-2.46824645710703
30
0
41
1
10
104.085190892967
20
-2.58000462595945
30
0
41
1
10
104.065813004252
20
-2.63812002123055
30
0
41
1
10
104.034136232147
20
-2.75098466642885
30
0
41
1
10
104.021501540193
20
-2.80662422509502
30
0
41
1
10
104.003552712289
20
-2.91347351516072
30
0
41
1
10
103.99846999181
20
-2.96298455247128
30
0
41
1
10
103.994063777831
20
-3.1006146655925
30
0
41
1
10
104.006121424319
20
-3.17343208265612
30
0
41
1
10
104.039722502961
20
-3.25057481485067
30
0
41
1
10
104.053590994573
20
-3.27133360030888
30
0
41
1
10
104.085432668251
20
-3.30297441208842
30
0
41
1
10
104.103259821206
20
-3.3138273211093
30
0
41
1
10
104.142322244297
20
-3.32665223462328
30
0
41
1
10
104.163688230478
20
-3.32855015431238
30
0
41
1
10
104.208477739706
20
-3.32384702995006
30
0
41
1
10
104.232014911447
20
-3.31732184633407
30
0
41
1
10
104.281288542752
20
-3.29623676517556
30
0
41
1
10
104.307182170034
20
-3.28152951226841
30
0
41
1
10
104.359759849728
20
-3.2448396612206
30
0
41
1
10
104.386578764832
20
-3.22283673879363
30
0
41
1
10
104.468652034689
20
-3.14567249555048
30
0
41
1
10
104.526062792598
20
-3.07862775312239
30
0
41
1
10
104.582474258137
20
-2.9978886225618
30
0
0
SPLINE
5
D5
100
AcDbEntity
8
1
62
256
6
ByLayer
370
18
48
1
60
0
100
AcDbSpline
70
4
71
3
72
22
73
18
40
0
40
0
40
0
40
0
40
0.250000000000016
40
0.250000000000016
40
0.500000000000033
40
0.500000000000033
40
0.625000000000025
40
0.625000000000025
40
0.750000000000017
40
0.750000000000017
40
0.812500000000013
40
0.812500000000013
40
0.875000000000008
40
0.875000000000008
40
0.937500000000004
40
0.937500000000004
40
1
40
1
40
1
40
1
41
1
10
103.394254510622
20
1.58045427199238
30
0
41
1
10
103.583885532246
20
1.61510589389584
30
0
41
1
10
103.772695128921
20
1.65519819161759
30
0
41
1
10
104.144279375974
20
1.75383741336586
30
0
41
1
10
104.327436548888
20
1.81207969457068
30
0
41
1
10
104.591628012449
20
1.92703500763588
30
0
41
1
10
104.677191069047
20
1.96974423637144
30
0
41
1
10
104.840042564146
20
2.06995893650276
30
0
41
1
10
104.917924570647
20
2.12792106802919
30
0
41
1
10
105.01796229347
20
2.23100911205466
30
0
41
1
10
105.048907210691
20
2.26863997972566
30
0
41
1
10
105.101480543393
20
2.34912463561423
30
0
41
1
10
105.12319395002
20
2.39195966952445
30
0
41
1
10
105.155169989388
20
2.48418149921511
30
0
41
1
10
105.164663091071
20
2.53143066554162
30
0
41
1
10
105.171234336308
20
2.62779670988743
30
0
41
1
10
105.168109936345
20
2.67720079626386
30
0
41
1
10
105.159925624082
20
2.72472693189366
30
0
0
SPLINE
5
D6
100
AcDbEntity
8
1
62
256
6
ByLayer
370
18
48
1
60
0
100
AcDbSpline
70
4
71
3
72
8
73
4
40
0
40
0
40
0
40
0
40
1
40
1
40
1
40
1
41
1
10
104.058115650677
20
-5.51188319217493
30
0
41
1
10
104.076829541107
20
-5.46167314786848
30
0
41
1
10
104.095527388323
20
-5.41142939080532
30
0
41
1
10
104.114209187413
20
-5.36115191066176
30
0
0
SPLINE
5
D7
100
AcDbEntity
8
1
62
256
6
ByLayer
370
18
48
1
60
0
100
AcDbSpline
70
4
71
3
72
90
73
86
40
0
40
0
40
0
40
0
40
0.0034281484370183
40
0.0034281484370183
40
0.021663005991578
40
0.021663005991578
40
0.0398978635461377
40
0.0398978635461377
40
0.0581327211006974
40
0.0581327211006974
40
0.0946024362098167
40
0.0946024362098167
40
0.112837293764377
40
0.112837293764377
40
0.131072151318937
40
0.131072151318937
40
0.149307008873497
40
0.149307008873497
40
0.167541866428057
40
0.167541866428057
40
0.185776723982617
40
0.185776723982617
40
0.204011581537177
40
0.204011581537177
40
0.222246439091738
40
0.222246439091738
40
0.240481296646298
40
0.240481296646298
40
0.276951011755417
40
0.276951011755417
40
0.295185869309977
40
0.295185869309977
40
0.313420726864536
40
0.313420726864536
40
0.331655584419096
40
0.331655584419096
40
0.349890441973656
40
0.349890441973656
40
0.386360157082775
40
0.386360157082775
40
0.404595014637335
40
0.404595014637335
40
0.422829872191894
40
0.422829872191894
40
0.459299587301015
40
0.459299587301015
40
0.495769302410135
40
0.495769302410135
40
0.514004159964696
40
0.514004159964696
40
0.532239017519256
40
0.532239017519256
40
0.568708732628378
40
0.568708732628378
40
0.586943590182938
40
0.586943590182938
40
0.605178447737499
40
0.605178447737499
40
0.641648162846619
40
0.641648162846619
40
0.67811787795574
40
0.67811787795574
40
0.6963527355103
40
0.6963527355103
40
0.71458759306486
40
0.71458759306486
40
0.751057308173979
40
0.751057308173979
40
0.787527023283099
40
0.787527023283099
40
0.823996738392218
40
0.823996738392218
40
0.860466453501337
40
0.860466453501337
40
0.878701311055896
40
0.878701311055896
40
0.896936168610456
40
0.896936168610456
40
0.933405883719573
40
0.933405883719573
40
0.951640741274132
40
0.951640741274132
40
0.969875598828692
40
0.969875598828692
40
1
40
1
40
1
40
1
41
1
10
28.4318956148004
20
5.25904342540719
30
0
41
1
10
28.473494150788
20
5.25847989568572
30
0
41
1
10
28.5150904863448
20
5.25777841742797
30
0
41
1
10
28.7779289718104
20
5.25248147218474
30
0
41
1
10
28.9990029364362
20
5.24436866969145
30
0
41
1
10
29.4415710547667
20
5.2195024825088
30
0
41
1
10
29.6636042248808
20
5.20205228362715
30
0
41
1
10
30.1072040350865
20
5.15841799818514
30
0
41
1
10
30.3288134643638
20
5.13247581785845
30
0
41
1
10
30.9931773738988
20
5.04241338906323
30
0
41
1
10
31.435199867275
20
4.96524261480829
30
0
41
1
10
32.0982299493891
20
4.82732113965042
30
0
41
1
10
32.3196116363159
20
4.77759920584512
30
0
41
1
10
32.7630182303406
20
4.66980694515212
30
0
41
1
10
32.9852098731122
20
4.61186575475659
30
0
41
1
10
33.4288153003559
20
4.48915004470612
30
0
41
1
10
33.6503486542051
20
4.42426421845849
30
0
41
1
10
34.0928566054239
20
4.28693631751301
30
0
41
1
10
34.3137535791232
20
4.2144313467559
30
0
41
1
10
34.755585041501
20
4.06320920847617
30
0
41
1
10
34.9767610043661
20
3.98483581125663
30
0
41
1
10
35.419489874157
20
3.82141494970415
30
0
41
1
10
35.6410613610628
20
3.73624753813948
30
0
41
1
10
36.0846958262766
20
3.55968326168355
30
0
41
1
10
36.3068516090041
20
3.4683279197894
30
0
41
1
10
36.7500416865627
20
3.28019145634428
30
0
41
1
10
36.9711694985295
20
3.18312599601964
30
0
41
1
10
37.6343041330727
20
2.88505929463952
30
0
41
1
10
38.0768444875436
20
2.67931890512943
30
0
41
1
10
38.7412243220532
20
2.355505669856
30
0
41
1
10
38.9628223333314
20
2.24529591545837
30
0
41
1
10
39.4062945030487
20
2.02068191757695
30
0
41
1
10
39.628070721723
20
1.90611902693874
30
0
41
1
10
40.0708615391215
20
1.67478772298088
30
0
41
1
10
40.2923281949904
20
1.558344666121
30
0
41
1
10
40.7351889411696
20
1.32377985287749
30
0
41
1
10
40.9565615765149
20
1.20564543305835
30
0
41
1
10
41.6206561879284
20
0.847573643366701
30
0
41
1
10
42.0631195226918
20
0.604149212859681
30
0
41
1
10
42.7281083840418
20
0.235667333498469
30
0
41
1
10
42.9501639469102
20
0.11301622534981
30
0
41
1
10
43.3936809600156
20
-0.131666949151281
30
0
41
1
10
43.6153216469845
20
-0.253821880383413
30
0
41
1
10
44.2798086951028
20
-0.619682744688902
30
0
41
1
10
44.7219269590863
20
-0.862769476202402
30
0
41
1
10
45.6071091670875
20
-1.34326362847023
30
0
41
1
10
46.0520695023489
20
-1.57867136158305
30
0
41
1
10
46.7174524395707
20
-1.9240562200595
30
0
41
1
10
46.9390228578192
20
-2.0381095536776
30
0
41
1
10
47.3816441108306
20
-2.26214287987821
30
0
41
1
10
47.6026318028306
20
-2.37263679731279
30
0
41
1
10
48.2659467954729
20
-2.69803512757486
30
0
41
1
10
48.7093521795098
20
-2.9054206030041
30
0
41
1
10
49.3760181463697
20
-3.20260793812133
30
0
41
1
10
49.597640077825
20
-3.29909378815361
30
0
41
1
10
50.0396055179742
20
-3.48660848558239
30
0
41
1
10
50.259839527444
20
-3.57759107276837
30
0
41
1
10
50.9196630806051
20
-3.84154670119253
30
0
41
1
10
51.3591198432349
20
-4.00629004935624
30
0
41
1
10
52.23637293887
20
-4.30472013676271
30
0
41
1
10
52.6742023108111
20
-4.43977751204318
30
0
41
1
10
53.3311305061105
20
-4.62267877576758
30
0
41
1
10
53.5505084360573
20
-4.67983302077943
30
0
41
1
10
53.9897619073389
20
-4.78811040696385
30
0
41
1
10
54.2096145741921
20
-4.83923524998644
30
0
41
1
10
54.8703969858583
20
-4.97865563804572
30
0
41
1
10
55.3122758180801
20
-5.05520156265348
30
0
41
1
10
56.1997376333595
20
-5.17647464045797
30
0
41
1
10
56.6432681971068
20
-5.21985498416765
30
0
41
1
10
57.5294249258587
20
-5.27587927875916
30
0
41
1
10
57.9718993081844
20
-5.2851693040592
30
0
41
1
10
58.8575458697693
20
-5.27027342037493
30
0
41
1
10
59.3026761696109
20
-5.24527084715876
30
0
41
1
10
59.9680197500287
20
-5.18513168591147
30
0
41
1
10
60.1895871426888
20
-5.16139203188217
30
0
41
1
10
60.6322703364812
20
-5.10368691612538
30
0
41
1
10
60.8533280217407
20
-5.07010183536238
30
0
41
1
10
61.5167803420375
20
-4.95685811171819
30
0
41
1
10
61.9606423346364
20
-4.86540360412647
30
0
41
1
10
62.6272757906952
20
-4.70637471531032
30
0
41
1
10
62.8492031838722
20
-4.65023045357054
30
0
41
1
10
63.2923386129683
20
-4.53023108792399
30
0
41
1
10
63.5134516411927
20
-4.46570809055982
30
0
41
1
10
64.0997941211194
20
-4.2843509081975
30
0
41
1
10
64.4656263050511
20
-4.16175276833448
30
0
41
1
10
64.8318961598933
20
-4.0306744619383
30
0
0
SPLINE
5
D8
100
AcDbEntity
8
1
62
256
6
ByLayer
370
18
48
1
60
0
100
AcDbSpline
70
4
71
3
72
32
73
28
40
0
40
0
40
0
40
0
40
0.0905605235057189
40
0.0905605235057189
40
0.155520486112455
40
0.155520486112455
40
0.220480448719191
40
0.220480448719191
40
0.350400373932661
40
0.350400373932661
40
0.415360336539397
40
0.415360336539397
40
0.480320299146133
40
0.480320299146133
40
0.545280261752869
40
0.545280261752869
40
0.610240224359605
40
0.610240224359605
40
0.675200186966341
40
0.675200186966341
40
0.740160149573077
40
0.740160149573077
40
0.870080074786542
40
0.870080074786542
40
0.935040037393271
40
0.935040037393271
40
1
40
1
40
1
40
1
41
1
10
88.0520043740254
20
5.29701352493012
30
0
41
1
10
88.360904018847
20
5.29713368171005
30
0
41
1
10
88.6703829163605
20
5.28913824193975
30
0
41
1
10
89.2006645929715
20
5.26265474785293
30
0
41
1
10
89.4219506367139
20
5.24840293374874
30
0
41
1
10
89.8640042404182
20
5.20946038685412
30
0
41
1
10
90.0847068576578
20
5.1846852404812
30
0
41
1
10
90.7472300326617
20
5.09840314492453
30
0
41
1
10
91.1903175372182
20
5.02425708413409
30
0
41
1
10
91.8560213550114
20
4.88995197271811
30
0
41
1
10
92.0776143670911
20
4.84143024368328
30
0
41
1
10
92.5201425522097
20
4.73689909296473
30
0
41
1
10
92.7409694808318
20
4.68075626171398
30
0
41
1
10
93.1826228380713
20
4.56049720427885
30
0
41
1
10
93.4036660789136
20
4.49664919381337
30
0
41
1
10
93.846031434551
20
4.36224994080283
30
0
41
1
10
94.0673504598382
20
4.29156602675781
30
0
41
1
10
94.5104049098996
20
4.14249439086157
30
0
41
1
10
94.7323004784308
20
4.06428602755221
30
0
41
1
10
95.1756199891671
20
3.90122151998955
30
0
41
1
10
95.3967564129695
20
3.81628165358208
30
0
41
1
10
96.0598839565822
20
3.55306299665074
30
0
41
1
10
96.5022990215663
20
3.36772129067782
30
0
41
1
10
97.166129770544
20
3.07318030800354
30
0
41
1
10
97.387483428112
20
2.97211929563508
30
0
41
1
10
97.8303468779152
20
2.76468658110633
30
0
41
1
10
98.051963895287
20
2.65806080141792
30
0
41
1
10
98.273346891442
20
2.54958078612117
30
0
0
SPLINE
5
D9
100
AcDbEntity
8
1
62
256
6
ByLayer
370
13
48
1
60
0
100
AcDbSpline
70
4
71
3
72
12
73
8
40
0
40
0
40
0
40
0
40
0.500000000000018
40
0.500000000000018
40
0.750000000000009
40
0.750000000000009
40
1
40
1
40
1
40
1
41
1
10
7.00004860186283
20
-4.35291223939214
30
0
41
1
10
7.00087778259422
20
-4.35749494558709
30
0
41
1
10
7.0123927342182
20
-4.36192129110546
30
0
41
1
10
7.04445674516444
20
-4.36762092955115
30
0
41
1
10
7.05785552267119
20
-4.36940589291487
30
0
41
1
10
7.08924049448819
20
-4.37254605057186
30
0
41
1
10
7.1070643575645
20
-4.37390161656842
30
0
41
1
10
7.12737769450143
20
-4.37502474300038
30
0
0
SPLINE
5
DA
100
AcDbEntity
8
1
62
256
6
ByLayer
370
18
48
1
60
0
100
AcDbSpline
70
4
71
3
72
14
73
10
40
0
40
0
40
0
40
0
40
0.25
40
0.25
40
0.5
40
0.5
40
0.75
40
0.75
40
1
40
1
40
1
40
1
41
1
10
7.00001956857807
20
3.6411150692841
30
0
41
1
10
7.00037443742474
20
3.63972906057933
30
0
41
1
10
7.00536280438462
20
3.63584803791582
30
0
41
1
10
7.02865039659477
20
3.62064358276186
30
0
41
1
10
7.04725157975932
20
3.60916100511534
30
0
41
1
10
7.09891211796733
20
3.57763836933341
30
0
41
1
10
7.1301493227956
20
3.55865033566084
30
0
41
1
10
7.19239748357404
20
3.52052331456446
30
0
41
1
10
7.22223594800079
20
3.50213063403498
30
0
41
1
10
7.25033335251493
20
3.48477827838411
30
0
0
SPLINE
5
DB
100
AcDbEntity
8
1
62
256
6
ByLayer
370
18
48
1
60
0
100
AcDbSpline
70
4
71
3
72
36
73
32
40
0
40
0
40
0
40
0
40
0.0625000000000001
40
0.0625000000000001
40
0.125
40
0.1875
40
0.1875
40
0.21875
40
0.21875
40
0.25
40
0.25
40
0.375
40
0.375
40
0.4375
40
0.4375
40
0.5
40
0.5
40
0.625
40
0.625
40
0.65625
40
0.65625
40
0.6875
40
0.6875
40
0.75
40
0.812500000000001
40
0.812500000000001
40
0.84375
40
0.84375
40
0.875
40
0.875
40
1
40
1
40
1
40
1
41
1
10
7.00001821555026
20
-4.3510346854201
30
0
41
1
10
7.00001820248778
20
-4.23548273385555
30
0
41
1
10
7.00001815253228
20
-4.11189481037724
30
0
41
1
10
7.00001799858114
20
-3.85299233880735
30
0
41
1
10
7.0000177908482
20
-3.58168718529396
30
0
41
1
10
7.00001751278177
20
-3.28604624196578
30
0
41
1
10
7.000017290855
20
-3.05507810953105
30
0
41
1
10
7.00001721464088
20
-2.97654620462583
30
0
41
1
10
7.0000170598162
20
-2.81634141641433
30
0
41
1
10
7.00001698101991
20
-2.73446725798553
30
0
41
1
10
7.00001659039449
20
-2.32156929010392
30
0
41
1
10
7.00001628763783
20
-1.97759993902414
30
0
41
1
10
7.00001592713591
20
-1.44168975310819
30
0
41
1
10
7.00001582228015
20
-1.25970114851575
30
0
41
1
10
7.00001565418029
20
-0.888784988639884
30
0
41
1
10
7.00001559221286
20
-0.702395123135432
30
0
41
1
10
7.00001548219402
20
-0.143612213408147
30
0
41
1
10
7.0000155095733
20
0.229748559870558
30
0
41
1
10
7.00001569052355
20
0.697517691982796
30
0
41
1
10
7.00001573418962
20
0.791394748963228
30
0
41
1
10
7.00001583575931
20
0.977761012729928
30
0
41
1
10
7.00001589357154
20
1.07018151514526
30
0
41
1
10
7.00001608757944
20
1.34520003436978
30
0
41
1
10
7.00001640115588
20
1.70592158745774
30
0
41
1
10
7.00001681800649
20
2.05488965832518
30
0
41
1
10
7.00001716589156
20
2.31213900455899
30
0
41
1
10
7.00001728771477
20
2.39714123255757
30
0
41
1
10
7.00001754231013
20
2.56562076672918
30
0
41
1
10
7.00001767504119
20
2.64904050914359
30
0
41
1
10
7.00001835529187
20
3.0575016778657
30
0
41
1
10
7.0000189599952
20
3.36081658227482
30
0
41
1
10
7.00001956857813
20
3.64111506928401
30
0
0
SPLINE
5
DC
100
AcDbEntity
8
1
62
256
6
ByLayer
370
18
48
1
60
0
100
AcDbSpline
70
4
71
3
72
8
73
4
40
0
40
0
40
0
40
0
40
1
40
1
40
1
40
1
41
1
10
104.135040535204
20
-5.27489014549431
30
0
41
1
10
104.108870010949
20
-5.29676145536803
30
0
41
1
10
104.086548191375
20
-5.30777294296129
30
0
41
1
10
104.068135784434
20
-5.30775330972071
30
0
0
SPLINE
5
DD
100
AcDbEntity
8
1
62
256
6
ByLayer
370
18
48
1
60
0
100
AcDbSpline
70
4
71
3
72
8
73
4
40
0
40
0
40
0
40
0
40
1
40
1
40
1
40
1
41
1
10
7.000048601863
20
-4.35291223939061
30
0
41
1
10
7.00002834887641
20
-4.35228670174027
30
0
41
1
10
7.00001821561676
20
-4.35166078929529
30
0
41
1
10
7.00001821555009
20
-4.35103468541993
30
0
0
SPLINE
5
DE
100
AcDbEntity
8
1
62
256
6
ByLayer
370
18
48
1
60
0
100
AcDbSpline
70
4
71
3
72
12
73
8
40
0
40
0
40
0
40
0
40
0.250000000000017
40
0.250000000000017
40
0.500000000000035
40
0.500000000000035
40
1
40
1
40
1
40
1
41
1
10
104.114209187413
20
-5.36115191066179
30
0
41
1
10
104.119105247631
20
-5.34797536544772
30
0
41
1
10
104.123800227768
20
-5.33453610124451
30
0
41
1
10
104.13153047127
20
-5.31038930347543
30
0
41
1
10
104.134548749367
20
-5.29970086976044
30
0
41
1
10
104.139914527742
20
-5.27611864184948
30
0
41
1
10
104.138747116813
20
-5.27179246987581
30
0
41
1
10
104.135040535206
20
-5.27489014549329
30
0
0
SPLINE
5
DF
100
AcDbEntity
8
1
62
256
6
ByLayer
370
18
48
1
60
0
100
AcDbSpline
70
4
71
3
72
58
73
54
40
0
40
0
40
0
40
0
40
0.0485955588962146
40
0.0485955588962146
40
0.0971911177924292
40
0.0971911177924292
40
0.145786676688644
40
0.145786676688644
40
0.194382235584858
40
0.194382235584858
40
0.242977794481073
40
0.242977794481073
40
0.26727557392918
40
0.26727557392918
40
0.291573353377288
40
0.291573353377288
40
0.340168912273502
40
0.340168912273502
40
0.364466691721609
40
0.364466691721609
40
0.388764471169717
40
0.388764471169717
40
0.437360030065933
40
0.437360030065933
40
0.46165780951404
40
0.46165780951404
40
0.485955588962148
40
0.485955588962148
40
0.534551147858362
40
0.534551147858362
40
0.583146706754577
40
0.583146706754577
40
0.631742265650791
40
0.631742265650791
40
0.680337824547006
40
0.680337824547006
40
0.728933383443221
40
0.728933383443221
40
0.777528942339435
40
0.777528942339435
40
0.82612450123565
40
0.82612450123565
40
0.850422280683758
40
0.850422280683758
40
0.874720060131865
40
0.874720060131865
40
0.923315619028081
40
0.923315619028081
40
0.947613398476189
40
0.947613398476189
40
0.971911177924297
40
0.971911177924297
40
1
40
1
40
1
40
1
41
1
10
104.058115650677
20
-5.51188319217488
30
0
41
1
10
103.55365521933
20
-5.54816754870714
30
0
41
1
10
103.049187600556
20
-5.56116913666307
30
0
41
1
10
102.038550053325
20
-5.54039348804255
30
0
41
1
10
101.534875239177
20
-5.50665933407655
30
0
41
1
10
100.527585824394
20
-5.39355813461017
30
0
41
1
10
100.023909821856
20
-5.31421964106099
30
0
41
1
10
99.013453346859
20
-5.11097885512348
30
0
41
1
10
98.5091877972221
20
-4.98760367317223
30
0
41
1
10
97.5017256492579
20
-4.70055355519787
30
0
41
1
10
96.9981316022059
20
-4.53683310731668
30
0
41
1
10
96.2406483021427
20
-4.26293227804362
30
0
41
1
10
95.98788799838
20
-4.16690788863718
30
0
41
1
10
95.4834092395165
20
-3.96680718055867
30
0
41
1
10
95.2314286234342
20
-3.86261951486191
30
0
41
1
10
94.475674753501
20
-3.53842621151847
30
0
41
1
10
93.9720935124856
20
-3.30679261190412
30
0
41
1
10
93.2149006599522
20
-2.93893516960645
30
0
41
1
10
92.9620033779521
20
-2.8128392036937
30
0
41
1
10
92.4572874428019
20
-2.5555681761216
30
0
41
1
10
92.2052395678403
20
-2.42427583757413
30
0
41
1
10
91.4494209932573
20
-2.02339871504904
30
0
41
1
10
90.9459491266626
20
-1.74685404555947
30
0
41
1
10
90.1889017080795
20
-1.32204737368735
30
0
41
1
10
89.9359521893828
20
-1.178648894893
30
0
41
1
10
89.4308901093483
20
-0.890019046216224
30
0
41
1
10
89.1787694620492
20
-0.74470950738953
30
0
41
1
10
88.4227987671505
20
-0.30724232464874
30
0
41
1
10
87.9193225543252
20
-0.0135768846224664
30
0
41
1
10
86.9102215533723
20
0.57234450074975
30
0
41
1
10
86.4042391712126
20
0.864983622170342
30
0
41
1
10
85.3959380965314
20
1.43864573263059
30
0
41
1
10
84.8924445563304
20
1.72010434343548
30
0
41
1
10
83.8837972567115
20
2.26734260699914
30
0
41
1
10
83.3777046724033
20
2.53329724891611
30
0
41
1
10
82.3687789653685
20
3.03966840200698
30
0
41
1
10
81.865233131565
20
3.28080466998159
30
0
41
1
10
80.8567932308378
20
3.73441716119288
30
0
41
1
10
80.3506942486578
20
3.94704346564711
30
0
41
1
10
79.3414699654649
20
4.33608492155341
30
0
41
1
10
78.8378818919433
20
4.51283810156622
30
0
41
1
10
78.0815892536609
20
4.74882031655514
30
0
41
1
10
77.8293059042997
20
4.82259453278547
30
0
41
1
10
77.3241012756785
20
4.96008170541006
30
0
41
1
10
77.0711643030634
20
5.02376471494631
30
0
41
1
10
76.3139871881959
20
5.19829225772042
30
0
41
1
10
75.8102751530423
20
5.29295787713664
30
0
41
1
10
75.0540645921054
20
5.40131517847848
30
0
41
1
10
74.8018513214577
20
5.4318113964444
30
0
41
1
10
74.296809255362
20
5.48138913962313
30
0
41
1
10
74.0437790559934
20
5.500473887119
30
0
41
1
10
73.4993363301228
20
5.52899789768719
30
0
41
1
10
73.2078235106654
20
5.53651212156001
30
0
41
1
10
72.9164261757799
20
5.53626730091028
30
0
0
SPLINE
5
E0
100
AcDbEntity
8
1
62
256
6
ByLayer
370
18
48
1
60
0
100
AcDbSpline
70
4
71
3
72
66
73
62
40
0
40
0
40
0
40
0
40
0.0242206652821582
40
0.0242206652821582
40
0.070437655431732
40
0.070437655431732
40
0.0935461505065188
40
0.0935461505065188
40
0.116654645581305
40
0.116654645581305
40
0.162871635730878
40
0.162871635730878
40
0.185980130805665
40
0.185980130805665
40
0.209088625880451
40
0.209088625880451
40
0.255305616030023
40
0.255305616030023
40
0.278414111104809
40
0.278414111104809
40
0.301522606179594
40
0.301522606179594
40
0.347739596329166
40
0.347739596329166
40
0.370848091403952
40
0.370848091403952
40
0.393956586478738
40
0.393956586478738
40
0.440173576628311
40
0.440173576628311
40
0.486390566777884
40
0.486390566777884
40
0.532607556927458
40
0.532607556927458
40
0.57882454707703
40
0.57882454707703
40
0.625041537226604
40
0.625041537226604
40
0.671258527376177
40
0.671258527376177
40
0.694367022450964
40
0.694367022450964
40
0.717475517525751
40
0.717475517525751
40
0.763692507675325
40
0.763692507675325
40
0.786801002750112
40
0.786801002750112
40
0.8099094978249
40
0.8099094978249
40
0.856126487974474
40
0.856126487974474
40
0.879234983049261
40
0.879234983049261
40
0.902343478124048
40
0.902343478124048
40
0.948560468273622
40
0.948560468273622
40
0.994777458423196
40
0.994777458423196
40
1
40
1
40
1
40
1
41
1
10
45.8110922629072
20
-5.2767242992054
30
0
41
1
10
45.5460509419275
20
-5.32162507459941
30
0
41
1
10
45.2809576959488
20
-5.36042616839927
30
0
41
1
10
44.5112756856145
20
-5.45484744284585
30
0
41
1
10
44.0072569570117
20
-5.49401968500149
30
0
41
1
10
43.2501900894004
20
-5.51802367239455
30
0
41
1
10
42.9976533275424
20
-5.52023399222406
30
0
41
1
10
42.4918108865334
20
-5.51299925832325
30
0
41
1
10
42.2386747676669
20
-5.50354300463698
30
0
41
1
10
41.4807800308591
20
-5.45791539997478
30
0
41
1
10
40.9766908061627
20
-5.40443324283314
30
0
41
1
10
40.2197234808778
20
-5.29047941052065
30
0
41
1
10
39.967252667533
20
-5.24688045149054
30
0
41
1
10
39.4616168205881
20
-5.14860809510736
30
0
41
1
10
39.2083320309835
20
-5.09389401557067
30
0
41
1
10
38.4501415725658
20
-4.9142088467828
30
0
41
1
10
37.9459177789834
20
-4.77346683847148
30
0
41
1
10
37.1889932385917
20
-4.53308076833849
30
0
41
1
10
36.9365689656822
20
-4.4480916757762
30
0
41
1
10
36.4311199912115
20
-4.26872472761559
30
0
41
1
10
36.1778330060425
20
-4.17423809584531
30
0
41
1
10
35.4193420269203
20
-3.87834274885614
30
0
41
1
10
34.9149408269992
20
-3.66450859931339
30
0
41
1
10
34.1579836882841
20
-3.32191567421884
30
0
41
1
10
33.905608102722
20
-3.20407208625099
30
0
41
1
10
33.4003050849437
20
-2.96168067705264
30
0
41
1
10
33.1471325161116
20
-2.83698934833373
30
0
41
1
10
32.3882238103156
20
-2.45453018156635
30
0
41
1
10
31.883705166437
20
-2.18895640117341
30
0
41
1
10
30.8743477347575
20
-1.64176157040924
30
0
41
1
10
30.3693692093864
20
-1.35991809013461
30
0
41
1
10
29.3568966979731
20
-0.78556397023857
30
0
41
1
10
28.8522038192386
20
-0.494913946913641
30
0
41
1
10
27.8428617737651
20
0.0880432114997234
30
0
41
1
10
27.3381783471317
20
0.380290992545042
30
0
41
1
10
26.3256485091942
20
0.960872485459561
30
0
41
1
10
25.8204059550984
20
1.24762968326488
30
0
41
1
10
24.8109975812161
20
1.80786312364987
30
0
41
1
10
24.3063943710577
20
2.08135574045994
30
0
41
1
10
23.5473239469348
20
2.47781411310734
30
0
41
1
10
23.2940348413019
20
2.60762031862075
30
0
41
1
10
22.7885512661003
20
2.86090789757785
30
0
41
1
10
22.536085798486
20
2.98453269586861
30
0
41
1
10
21.7789037395692
20
3.34548276918366
30
0
41
1
10
21.2743932977621
20
3.572871890822
30
0
41
1
10
20.5156412784413
20
3.8907243780026
30
0
41
1
10
20.262216213073
20
3.99284634085706
30
0
41
1
10
19.7564392987147
20
4.18797819865327
30
0
41
1
10
19.5038382198906
20
4.28108585697217
30
0
41
1
10
18.7464243670142
20
4.54657494887289
30
0
41
1
10
18.2420389648347
20
4.705139460834
30
0
41
1
10
17.4835778563819
20
4.91263310642594
30
0
41
1
10
17.2301708373447
20
4.97680307320024
30
0
41
1
10
16.7241238068969
20
5.09426112501078
30
0
41
1
10
16.4714139300788
20
5.14757392144998
30
0
41
1
10
15.7137633556616
20
5.29106944085004
30
0
41
1
10
15.2093751903415
20
5.3648230413946
30
0
41
1
10
14.1983927411908
20
5.46673837568835
30
0
41
1
10
13.6913420720392
20
5.49481305375224
30
0
41
1
10
13.1292375110981
20
5.50013136135649
30
0
41
1
10
13.0721811567916
20
5.50037555722162
30
0
41
1
10
13.0151350730275
20
5.50032427566225
30
0
0
SPLINE
5
E1
100
AcDbEntity
8
1
62
256
6
ByLayer
370
18
48
1
60
0
100
AcDbSpline
70
4
71
3
72
16
73
12
40
0
40
0
40
0
40
0
40
0.378994422613484
40
0.378994422613484
40
0.50583501734544
40
0.50583501734544
40
0.632675612077395
40
0.632675612077395
40
0.886356801541304
40
0.886356801541304
40
1
40
1
40
1
40
1
41
1
10
73.1454858655461
20
-5.28930887824086
30
0
41
1
10
72.3949531317223
20
-5.28981242235014
30
0
41
1
10
71.6427949316889
20
-5.24110393509022
30
0
41
1
10
70.6303271000282
20
-5.10982475925238
30
0
41
1
10
70.3754626683459
20
-5.0712766973071
30
0
41
1
10
69.8681503515943
20
-4.9838527003856
30
0
41
1
10
69.615210543585
20
-4.93492314478664
30
0
41
1
10
68.857888303247
20
-4.77308607812256
30
0
41
1
10
68.3549432268854
20
-4.64509650419672
30
0
41
1
10
67.6276554709094
20
-4.4329004112553
30
0
41
1
10
67.4027371221082
20
-4.36353741511871
30
0
41
1
10
67.1777893063267
20
-4.29059502652558
30
0
0
SPLINE
5
E2
100
AcDbEntity
8
1
62
256
6
ByLayer
370
13
48
1
60
0
100
AcDbSpline
70
4
71
3
72
24
73
20
40
0
40
0
40
0
40
0
40
0.178311509643523
40
0.178311509643523
40
0.235756356267547
40
0.235756356267547
40
0.29320120289157
40
0.29320120289157
40
0.40809089613962
40
0.40809089613962
40
0.637870282635723
40
0.637870282635723
40
0.752759975883774
40
0.752759975883774
40
0.867649669131825
40
0.867649669131825
40
0.982539362379877
40
0.982539362379877
40
1
40
1
40
1
40
1
41
1
10
67.1777893058876
20
-4.29059502638319
30
0
41
1
10
66.3984530071702
20
-4.03788463241074
30
0
41
1
10
65.6187630191833
20
-3.74221114276725
30
0
41
1
10
64.5808141611183
20
-3.30185549146591
30
0
41
1
10
64.3272941907566
20
-3.19074035255318
30
0
41
1
10
63.8186095680321
20
-2.96133147012867
30
0
41
1
10
63.5642782234674
20
-2.84340104137343
30
0
41
1
10
62.8041927348755
20
-2.48248524256997
30
0
41
1
10
62.3000826779924
20
-2.23149277486925
30
0
41
1
10
60.7914518971764
20
-1.45502950605837
30
0
41
1
10
59.7895087787111
20
-0.907706565596897
30
0
41
1
10
58.27632621996
20
-0.0708038689806187
30
0
41
1
10
57.7695557200222
20
0.210756228762534
30
0
41
1
10
56.7511917138082
20
0.771940304400943
30
0
41
1
10
56.2427826979791
20
1.0500882344096
30
0
41
1
10
55.2244988297929
20
1.59617073047733
30
0
41
1
10
54.7163331040835
20
1.86287763251585
30
0
41
1
10
54.1303574314859
20
2.15953979457191
30
0
41
1
10
54.0530255555826
20
2.19848627245031
30
0
41
1
10
53.9756845987509
20
2.23722161558615
30
0
0
SPLINE
5
E3
100
AcDbEntity
8
1
62
256
6
ByLayer
370
18
48
1
60
0
100
AcDbSpline
70
4
71
3
72
12
73
8
40
0
40
0
40
0
40
0
40
0.0328701220446889
40
0.0328701220446889
40
0.516435061022345
40
0.516435061022345
40
1
40
1
40
1
40
1
41
1
10
13.510676759243
20
-5.25111769805358
30
0
41
1
10
13.4414949895879
20
-5.25221619572159
30
0
41
1
10
13.3723652900592
20
-5.25289852996815
30
0
41
1
10
12.2876964047867
20
-5.25706976320888
30
0
41
1
10
11.2834892790671
20
-5.17172401396036
30
0
41
1
10
9.27340141814457
20
-4.83380125686793
30
0
41
1
10
8.26808619024294
20
-4.58150162602482
30
0
41
1
10
7.25022819556401
20
-4.25219057708748
30
0
0
SPLINE
5
E4
100
AcDbEntity
8
1
62
256
6
ByLayer
370
18
48
1
60
0
100
AcDbSpline
70
4
71
3
72
58
73
54
40
0
40
0
40
0
40
0
40
0.0588477605809657
40
0.0588477605809657
40
0.117695521161931
40
0.117695521161931
40
0.176543281742897
40
0.176543281742897
40
0.235391042323863
40
0.235391042323863
40
0.264814922614345
40
0.264814922614345
40
0.294238802904827
40
0.294238802904827
40
0.353086563485793
40
0.353086563485793
40
0.382510443776276
40
0.382510443776276
40
0.411934324066759
40
0.411934324066759
40
0.441358204357242
40
0.441358204357242
40
0.470782084647725
40
0.470782084647725
40
0.500205964938207
40
0.500205964938207
40
0.52962984522869
40
0.52962984522869
40
0.559053725519173
40
0.559053725519173
40
0.588477605809656
40
0.588477605809656
40
0.617901486100139
40
0.617901486100139
40
0.647325366390622
40
0.647325366390622
40
0.706173126971589
40
0.706173126971589
40
0.735597007262073
40
0.735597007262073
40
0.765020887552558
40
0.765020887552558
40
0.823868648133525
40
0.823868648133525
40
0.853292528424008
40
0.853292528424008
40
0.882716408714492
40
0.882716408714492
40
0.941564169295459
40
0.941564169295459
40
0.970988049585943
40
0.970988049585943
40
1
40
1
40
1
40
1
41
1
10
19.6821862560379
20
3.88209768170134
30
0
41
1
10
20.1233471492395
20
3.69942481880986
30
0
41
1
10
20.564035879886
20
3.50792546543951
30
0
41
1
10
21.4422447978012
20
3.1053016243965
30
0
41
1
10
21.8796851753776
20
2.89402617300828
30
0
41
1
10
22.750434585055
20
2.44997390024079
30
0
41
1
10
23.1870254388209
20
2.22227642308991
30
0
41
1
10
24.061597396998
20
1.75442895095691
30
0
41
1
10
24.4993349020246
20
1.51388171060916
30
0
41
1
10
25.1557742572099
20
1.14108276013977
30
0
41
1
10
25.3751632342633
20
1.01586100166992
30
0
41
1
10
25.8158962126815
20
0.764995866725855
30
0
41
1
10
26.0373232995354
20
0.638857996895354
30
0
41
1
10
26.701548084295
20
0.259234031193358
30
0
41
1
10
27.1431877977503
20
0.0050986792286096
30
0
41
1
10
27.8028295758154
20
-0.379477528781507
30
0
41
1
10
28.0228010589926
20
-0.507254194760122
30
0
41
1
10
28.4639544718467
20
-0.76020366678145
30
0
41
1
10
28.6849125993611
20
-0.885765593128866
30
0
41
1
10
29.127312868239
20
-1.13554914281221
30
0
41
1
10
29.348952173237
20
-1.2598787124069
30
0
41
1
10
29.7910580030999
20
-1.50669975176379
30
0
41
1
10
30.0116189640457
20
-1.62925373222032
30
0
41
1
10
30.4516003506369
20
-1.87283569465885
30
0
41
1
10
30.6715192585954
20
-1.99302965306191
30
0
41
1
10
31.1124254992299
20
-2.22833588641288
30
0
41
1
10
31.333165765441
20
-2.34385631239331
30
0
41
1
10
31.7749380241963
20
-2.57111299754595
30
0
41
1
10
31.9959708002474
20
-2.68284747225795
30
0
41
1
10
32.4381322772071
20
-2.90278480340248
30
0
41
1
10
32.6593029421347
20
-3.01100655077133
30
0
41
1
10
33.0998775988442
20
-3.22320714136677
30
0
41
1
10
33.3199248525483
20
-3.32664590946791
30
0
41
1
10
33.7609348196121
20
-3.52640475001641
30
0
41
1
10
33.9816287860411
20
-3.62311284849463
30
0
41
1
10
34.6438502891863
20
-3.90440350497585
30
0
41
1
10
35.0854997107476
20
-4.08024265135595
30
0
41
1
10
35.7471448355504
20
-4.3269940905933
30
0
41
1
10
35.9676069015937
20
-4.40582452443056
30
0
41
1
10
36.4090175328772
20
-4.55480325112023
30
0
41
1
10
36.6298181405831
20
-4.62533557113377
30
0
41
1
10
37.2920758240915
20
-4.82566884997917
30
0
41
1
10
37.7333739591891
20
-4.94430681130592
30
0
41
1
10
38.3938999031885
20
-5.0999274368466
30
0
41
1
10
38.6142320955954
20
-5.14782674827751
30
0
41
1
10
39.0563816705589
20
-5.23451832218186
30
0
41
1
10
39.2774533893493
20
-5.27345199197251
30
0
41
1
10
39.9402291566007
20
-5.37750819267012
30
0
41
1
10
40.3814819886866
20
-5.42998894265426
30
0
41
1
10
41.0413372170025
20
-5.48296783415364
30
0
41
1
10
41.2611877273059
20
-5.49621184600366
30
0
41
1
10
41.6995313869842
20
-5.51352594137592
30
0
41
1
10
41.9178856735829
20
-5.51780009815144
30
0
41
1
10
42.1360467027467
20
-5.51779491024715
30
0
0
SPLINE
5
E5
100
AcDbEntity
8
1
62
256
6
ByLayer
370
18
48
1
60
0
100
AcDbSpline
70
4
71
3
72
92
73
88
40
0
40
0
40
0
40
0
40
0.0097563304392089
40
0.0097563304392089
40
0.0274962732148877
40
0.0274962732148877
40
0.0629761587662448
40
0.0629761587662448
40
0.0807161015419226
40
0.0807161015419226
40
0.0984560443176007
40
0.0984560443176007
40
0.133935929868957
40
0.133935929868957
40
0.151675872644635
40
0.151675872644635
40
0.169415815420313
40
0.169415815420313
40
0.204895700971669
40
0.204895700971669
40
0.222635643747347
40
0.222635643747347
40
0.240375586523026
40
0.240375586523026
40
0.275855472074382
40
0.275855472074382
40
0.293595414850061
40
0.293595414850061
40
0.31133535762574
40
0.31133535762574
40
0.346815243177096
40
0.346815243177096
40
0.364555185952775
40
0.364555185952775
40
0.382295128728453
40
0.382295128728453
40
0.41777501427981
40
0.41777501427981
40
0.435514957055488
40
0.435514957055488
40
0.453254899831166
40
0.453254899831166
40
0.488734785382523
40
0.488734785382523
40
0.506474728158201
40
0.506474728158201
40
0.524214670933878
40
0.524214670933878
40
0.559694556485233
40
0.559694556485233
40
0.57743449926091
40
0.57743449926091
40
0.595174442036587
40
0.595174442036587
40
0.630654327587942
40
0.630654327587942
40
0.64839427036362
40
0.64839427036362
40
0.666134213139297
40
0.666134213139297
40
0.701614098690653
40
0.701614098690653
40
0.71935404146633
40
0.71935404146633
40
0.737093984242008
40
0.737093984242008
40
0.772573869793363
40
0.772573869793363
40
0.790313812569041
40
0.790313812569041
40
0.808053755344719
40
0.808053755344719
40
0.843533640896074
40
0.843533640896074
40
0.861273583671752
40
0.861273583671752
40
0.879013526447431
40
0.879013526447431
40
0.914493411998789
40
0.914493411998789
40
0.93223335477447
40
0.93223335477447
40
0.94997329755015
40
0.94997329755015
40
0.985453183101508
40
0.985453183101508
40
1
40
1
40
1
40
1
41
1
10
64.8648688409221
20
4.01997868522488
30
0
41
1
10
64.9844937981044
20
4.06815732246693
30
0
41
1
10
65.1041250436253
20
4.1154249363984
30
0
41
1
10
65.4419073822118
20
4.24532976961191
30
0
41
1
10
65.660454540572
20
4.32543458144593
30
0
41
1
10
66.3173776675744
20
4.55541181503105
30
0
41
1
10
66.7570383068345
20
4.69501301707879
30
0
41
1
10
67.4180192460702
20
4.88411519822731
30
0
41
1
10
67.6384444658358
20
4.94398016367404
30
0
41
1
10
68.079167102043
20
5.05448217661609
30
0
41
1
10
68.299745765758
20
5.10528909702683
30
0
41
1
10
68.9615356511488
20
5.24515472104076
30
0
41
1
10
69.4028140449917
20
5.32174076141794
30
0
41
1
10
70.0636179332558
20
5.41181548324977
30
0
41
1
10
70.2833988381758
20
5.43775046329364
30
0
41
1
10
70.7244246425306
20
5.48047282502205
30
0
41
1
10
70.9455558328866
20
5.49728349896813
30
0
41
1
10
71.6081046078857
20
5.53441967440662
30
0
41
1
10
72.0494824827653
20
5.54162419104179
30
0
41
1
10
72.7098154600569
20
5.52584587717502
30
0
41
1
10
72.9293368694446
20
5.51605446760334
30
0
41
1
10
73.3695246190062
20
5.48760001244273
30
0
41
1
10
73.5902860721828
20
5.46901083787222
30
0
41
1
10
74.2539341549428
20
5.40024587015523
30
0
41
1
10
74.6957882353737
20
5.33741462192819
30
0
41
1
10
75.3561629016217
20
5.21705080639771
30
0
41
1
10
75.575609634698
20
5.17234406912087
30
0
41
1
10
76.0153195063148
20
5.07496508930549
30
0
41
1
10
76.2357452060405
20
5.02244895903644
30
0
41
1
10
76.8980876811427
20
4.85323485441648
30
0
41
1
10
77.34157424092
20
4.72470915115278
30
0
41
1
10
78.0002325449666
20
4.50957582279395
30
0
41
1
10
78.2187231928643
20
4.43374678872539
30
0
41
1
10
78.6554964890834
20
4.27587119202289
30
0
41
1
10
78.8740252337286
20
4.19412885107144
30
0
41
1
10
79.5294288333361
20
3.94009598576753
30
0
41
1
10
79.966134897695
20
3.75907586957413
30
0
41
1
10
80.6196160211102
20
3.46837051848973
30
0
41
1
10
80.8369667763071
20
3.36794673069448
30
0
41
1
10
81.2721382378901
20
3.1618999128649
30
0
41
1
10
81.4904086656573
20
3.05694176577302
30
0
41
1
10
82.1466164584747
20
2.73549582741475
30
0
41
1
10
82.5859462960404
20
2.51249583254682
30
0
41
1
10
83.2465541080935
20
2.16249402714078
30
0
41
1
10
83.4671716273432
20
2.04275934283643
30
0
41
1
10
83.9075002017221
20
1.80035682309247
30
0
41
1
10
84.1279286352988
20
1.67861071198956
30
0
41
1
10
84.7894241337093
20
1.31088061649282
30
0
41
1
10
85.2306600086233
20
1.06235751322302
30
0
41
1
10
85.8915531847583
20
0.682248751567101
30
0
41
1
10
86.1115442649991
20
0.554063361811387
30
0
41
1
10
86.5518136612902
20
0.296225947170654
30
0
41
1
10
86.7728230627208
20
0.167649808931913
30
0
41
1
10
87.4351798537447
20
-0.216256208206374
30
0
41
1
10
87.876585336422
20
-0.470421625168683
30
0
41
1
10
88.5371207360474
20
-0.851294153840513
30
0
41
1
10
88.7569141681894
20
-0.978394071655231
30
0
41
1
10
89.1964479911416
20
-1.23162761447986
30
0
41
1
10
89.4168743077668
20
-1.35659802515724
30
0
41
1
10
90.0797736904501
20
-1.72721330843564
30
0
41
1
10
90.52207045564
20
-1.9679533093902
30
0
41
1
10
91.1827436322079
20
-2.32067783583267
30
0
41
1
10
91.4025108663227
20
-2.43705330480185
30
0
41
1
10
91.8416756802129
20
-2.66645956332559
30
0
41
1
10
92.0617798668343
20
-2.77841127108584
30
0
41
1
10
92.723477512988
20
-3.10643827320573
30
0
41
1
10
93.1671040703191
20
-3.31547282155273
30
0
41
1
10
93.8264465768112
20
-3.61248701356394
30
0
41
1
10
94.0453909897582
20
-3.70894287753012
30
0
41
1
10
94.4819599421019
20
-3.89617429791261
30
0
41
1
10
94.7002768914085
20
-3.98605563886517
30
0
41
1
10
95.3554381928875
20
-4.24476868370223
30
0
41
1
10
95.7921469020133
20
-4.40319316168026
30
0
41
1
10
96.4458108932472
20
-4.62125654952982
30
0
41
1
10
96.6634361407998
20
-4.69068435966767
30
0
41
1
10
97.098236841413
20
-4.8227393710612
30
0
41
1
10
97.3160627401652
20
-4.88477092531136
30
0
41
1
10
97.9715348913642
20
-5.05849921908504
30
0
41
1
10
98.4105510582245
20
-5.15847615508335
30
0
41
1
10
99.0708562665353
20
-5.2850844136826
30
0
41
1
10
99.2915665422753
20
-5.32341706595906
30
0
41
1
10
99.7318782702025
20
-5.39167122381323
30
0
41
1
10
99.9519145528611
20
-5.4212859913701
30
0
41
1
10
100.612946815161
20
-5.49652071557603
30
0
41
1
10
101.054031591325
20
-5.52901440077352
30
0
41
1
10
101.675203271357
20
-5.55028519259557
30
0
41
1
10
101.855738855572
20
-5.55352289348286
30
0
41
1
10
102.036152114163
20
-5.55373596697842
30
0
0
SPLINE
5
E6
100
AcDbEntity
8
1
62
256
6
ByLayer
370
18
48
1
60
0
100
AcDbSpline
70
4
71
3
72
20
73
16
40
0
40
0
40
0
40
0
40
0.125
40
0.125
40
0.249999999999999
40
0.249999999999999
40
0.374999999999999
40
0.374999999999999
40
0.499999999999999
40
0.499999999999999
40
0.749999999999998
40
0.749999999999998
40
0.874999999999999
40
0.874999999999999
40
1
40
1
40
1
40
1
41
1
10
7.25033335546021
20
3.48477827656518
30
0
41
1
10
7.48159637619273
20
3.34195518477634
30
0
41
1
10
7.71821291135646
20
3.19861567270181
30
0
41
1
10
8.19886843566655
20
2.90991884146379
30
0
41
1
10
8.44294728546652
20
2.76457334946753
30
0
41
1
10
8.93694893234496
20
2.47148767241674
30
0
41
1
10
9.18744119033863
20
2.32342402392584
30
0
41
1
10
9.69052241873123
20
2.02665254269425
30
0
41
1
10
9.94281811725867
20
1.87812471785344
30
0
41
1
10
10.7019014894732
20
1.43219458152328
30
0
41
1
10
11.2108017410952
20
1.13429790507399
30
0
41
1
10
11.9799348705733
20
0.690519239076366
30
0
41
1
10
12.2373133920371
20
0.543129573264679
30
0
41
1
10
12.7545423310635
20
0.250496810567114
30
0
41
1
10
13.014371240322
20
0.105253828239881
30
0
41
1
10
13.2758271690089
20
-0.0383180967830583
30
0
0
SPLINE
5
E7
100
AcDbEntity
8
1
62
256
6
ByLayer
370
18
48
1
60
0
100
AcDbSpline
70
4
71
3
72
16
73
12
40
0
40
0
40
0
40
0
40
0.249999999999948
40
0.249999999999948
40
0.499999999999897
40
0.499999999999897
40
0.624999999999922
40
0.624999999999922
40
0.749999999999948
40
0.749999999999948
40
1
40
1
40
1
40
1
41
1
10
103.227647072425
20
1.30451690361437
30
0
41
1
10
103.219037483686
20
1.33303360742616
30
0
41
1
10
103.214412818811
20
1.36269043532889
30
0
41
1
10
103.2169946172
20
1.42340815019256
30
0
41
1
10
103.224424996985
20
1.45398686727205
30
0
41
1
10
103.247402397618
20
1.49548186265665
30
0
41
1
10
103.256682201459
20
1.50852214549411
30
0
41
1
10
103.279068710328
20
1.53131818504087
30
0
41
1
10
103.291669213541
20
1.54086748295418
30
0
41
1
10
103.332716213328
20
1.56510373361783
30
0
41
1
10
103.363077690681
20
1.57475727491101
30
0
41
1
10
103.394254510622
20
1.58045427199238
30
0
0
SPLINE
5
E8
100
AcDbEntity
8
1
62
256
6
ByLayer
370
18
48
1
60
0
100
AcDbSpline
70
4
71
3
72
42
73
38
40
0
40
0
40
0
40
0
40
0.250000000000022
40
0.250000000000022
40
0.375000000000033
40
0.375000000000033
40
0.437500000000034
40
0.437500000000034
40
0.500000000000035
40
0.500000000000035
40
0.625000000000026
40
0.625000000000026
40
0.687500000000022
40
0.687500000000022
40
0.71875000000002
40
0.71875000000002
40
0.734375000000019
40
0.734375000000019
40
0.750000000000018
40
0.750000000000018
40
0.781250000000016
40
0.781250000000016
40
0.812500000000014
40
0.812500000000014
40
0.843750000000011
40
0.843750000000011
40
0.85937500000001
40
0.85937500000001
40
0.875000000000009
40
0.875000000000009
40
0.890625000000008
40
0.890625000000008
40
0.906250000000007
40
0.906250000000007
40
0.937500000000005
40
0.937500000000005
40
1
40
1
40
1
40
1
41
1
10
98.2733468914557
20
2.5495807861144
30
0
41
1
10
98.7197479937213
20
2.19891205210118
30
0
41
1
10
99.1747996136114
20
1.87889786875724
30
0
41
1
10
99.8736074169717
20
1.45639162685097
30
0
41
1
10
100.109233686846
20
1.3250898647473
30
0
41
1
10
100.467323941634
20
1.14461828346864
30
0
41
1
10
100.587467755191
20
1.08722655047279
30
0
41
1
10
100.829422706126
20
0.978351524277912
30
0
41
1
10
100.951587607338
20
0.926735436166069
30
0
41
1
10
101.316746778017
20
0.783322315709114
30
0
41
1
10
101.559158739423
20
0.702370966845166
30
0
41
1
10
101.921015366978
20
0.60606963461413
30
0
41
1
10
102.041340042673
20
0.578166045793267
30
0
41
1
10
102.221341707464
20
0.543234311005506
30
0
41
1
10
102.281296930371
20
0.532742291002137
30
0
41
1
10
102.37098066331
20
0.518850436912544
30
0
41
1
10
102.400812161685
20
0.514530784789542
30
0
41
1
10
102.460346370542
20
0.506526374420559
30
0
41
1
10
102.490124508037
20
0.502544993898226
30
0
41
1
10
102.578755920473
20
0.493476283569208
30
0
41
1
10
102.637090997023
20
0.490549195862343
30
0
41
1
10
102.751208677177
20
0.491521764740895
30
0
41
1
10
102.807043689725
20
0.495582981424491
30
0
41
1
10
102.915331861135
20
0.513460731612071
30
0
41
1
10
102.966884473062
20
0.52701589183431
30
0
41
1
10
103.039125130919
20
0.556412532144691
30
0
41
1
10
103.06234325048
20
0.567747101389358
30
0
41
1
10
103.106610280538
20
0.594280329734289
30
0
41
1
10
103.127621637322
20
0.60944526241525
30
0
41
1
10
103.165535411031
20
0.643669379916588
30
0
41
1
10
103.182126306732
20
0.663319098175606
30
0
41
1
10
103.212028783213
20
0.706135785669233
30
0
41
1
10
103.225304740508
20
0.729618683369523
30
0
41
1
10
103.258538030626
20
0.804054109945753
30
0
41
1
10
103.272388952328
20
0.859381102689383
30
0
41
1
10
103.289529304023
20
1.03946152213649
30
0
41
1
10
103.267681017309
20
1.17191635982795
30
0
41
1
10
103.227647072425
20
1.3045169036144
30
0
0
SPLINE
5
E9
100
AcDbEntity
8
1
62
256
6
ByLayer
370
18
48
1
60
0
100
AcDbSpline
70
4
71
3
72
23
73
19
40
0
40
0
40
0
40
0
40
0.124999999999998
40
0.124999999999998
40
0.187499999999998
40
0.187499999999998
40
0.249999999999997
40
0.249999999999997
40
0.499999999999998
40
0.499999999999998
40
0.562499999999999
40
0.562499999999999
40
0.625
40
0.625
40
0.75
40
0.875
40
0.875
40
1
40
1
40
1
40
1
41
1
10
104.068135784438
20
-5.30775330972071
30
0
41
1
10
103.991391490493
20
-5.30769643746316
30
0
41
1
10
103.918321267437
20
-5.2965586389692
30
0
41
1
10
103.814497084806
20
-5.26241609954025
30
0
41
1
10
103.780854902068
20
-5.24812218341197
30
0
41
1
10
103.715579716067
20
-5.21347470499026
30
0
41
1
10
103.683844178412
20
-5.19302963769221
30
0
41
1
10
103.532235191462
20
-5.07637864980867
30
0
41
1
10
103.432529033668
20
-4.93755209434946
30
0
41
1
10
103.336166958423
20
-4.70440746441892
30
0
41
1
10
103.318326392127
20
-4.65475934204949
30
0
41
1
10
103.285621712238
20
-4.5491869489218
30
0
41
1
10
103.270718441773
20
-4.49303568311774
30
0
41
1
10
103.231257262961
20
-4.31746550259879
30
0
41
1
10
103.192169321061
20
-4.06351599856612
30
0
41
1
10
103.179690317218
20
-3.77050782300998
30
0
41
1
10
103.180876724627
20
-3.45744049258724
30
0
41
1
10
103.188435600147
20
-3.29014405766637
30
0
41
1
10
103.202794359893
20
-3.11673826942916
30
0
0
SPLINE
5
EA
100
AcDbEntity
8
1
62
256
6
ByLayer
370
13
48
1
60
0
100
AcDbSpline
70
4
71
3
72
8
73
4
40
0
40
0
40
0
40
0
40
1
40
1
40
1
40
1
41
1
10
7.12737769450143
20
-4.37502474300038
30
0
41
1
10
7.15051914534985
20
-4.3719951827766
30
0
41
1
10
7.17546616461701
20
-4.37487143775613
30
0
41
1
10
7.20122470640695
20
-4.38316856249955
30
0
0
SPLINE
5
EB
100
AcDbEntity
8
1
62
256
6
ByLayer
370
18
48
1
60
0
100
AcDbSpline
70
4
71
3
72
96
73
92
40
0
40
0
40
0
40
0
40
0.0142357357833844
40
0.0142357357833844
40
0.0323006660516524
40
0.0323006660516524
40
0.0503655963199204
40
0.0503655963199204
40
0.0684305265881884
40
0.0684305265881884
40
0.0864954568564564
40
0.0864954568564564
40
0.122625317392994
40
0.122625317392994
40
0.140690247661264
40
0.140690247661264
40
0.158755177929534
40
0.158755177929534
40
0.176820108197803
40
0.176820108197803
40
0.194885038466073
40
0.194885038466073
40
0.212949968734343
40
0.212949968734343
40
0.231014899002613
40
0.231014899002613
40
0.267144759539154
40
0.267144759539154
40
0.285209689807424
40
0.285209689807424
40
0.303274620075695
40
0.303274620075695
40
0.339404480612234
40
0.339404480612234
40
0.357469410880504
40
0.357469410880504
40
0.375534341148774
40
0.375534341148774
40
0.411664201685313
40
0.411664201685313
40
0.429729131953583
40
0.429729131953583
40
0.447794062221854
40
0.447794062221854
40
0.465858992490124
40
0.465858992490124
40
0.483923922758394
40
0.483923922758394
40
0.520053783294934
40
0.520053783294934
40
0.556183643831473
40
0.556183643831473
40
0.574248574099743
40
0.574248574099743
40
0.592313504368013
40
0.592313504368013
40
0.628443364904551
40
0.628443364904551
40
0.646508295172821
40
0.646508295172821
40
0.664573225441091
40
0.664573225441091
40
0.682638155709361
40
0.682638155709361
40
0.70070308597763
40
0.70070308597763
40
0.7187680162459
40
0.7187680162459
40
0.73683294651417
40
0.73683294651417
40
0.772962807050709
40
0.772962807050709
40
0.791027737318978
40
0.791027737318978
40
0.809092667587248
40
0.809092667587248
40
0.845222528123788
40
0.845222528123788
40
0.863287458392058
40
0.863287458392058
40
0.881352388660328
40
0.881352388660328
40
0.917482249196867
40
0.917482249196867
40
0.935547179465137
40
0.935547179465137
40
0.953612109733407
40
0.953612109733407
40
0.989741970269945
40
0.989741970269945
40
1
40
1
40
1
40
1
41
1
10
94.8104021320305
20
-4.03508019379831
30
0
41
1
10
94.6356329205862
20
-4.09819976370523
30
0
41
1
10
94.4606112303242
20
-4.15927539780395
30
0
41
1
10
94.063686445466
20
-4.29276367920625
30
0
41
1
10
93.8419861549722
20
-4.36352356378649
30
0
41
1
10
93.3990019168028
20
-4.49802078431409
30
0
41
1
10
93.1777194081305
20
-4.56188889056645
30
0
41
1
10
92.7357448109104
20
-4.68212107444199
30
0
41
1
10
92.5148245628754
20
-4.73821663889581
30
0
41
1
10
92.072254723426
20
-4.84263340045922
30
0
41
1
10
91.8507094598301
20
-4.89108258427655
30
0
41
1
10
91.1853585317336
20
-5.02513758005446
30
0
41
1
10
90.7407588794165
20
-5.09941896048153
30
0
41
1
10
90.0774135116127
20
-5.18554646491282
30
0
41
1
10
89.856496472179
20
-5.2102466750608
30
0
41
1
10
89.4142135457048
20
-5.24895525845096
30
0
41
1
10
89.1929063911126
20
-5.26312803579444
30
0
41
1
10
88.7499924883183
20
-5.28507348610199
30
0
41
1
10
88.5284011622871
20
-5.29227571448493
30
0
41
1
10
88.0849110408655
20
-5.29840067844657
30
0
41
1
10
87.8628267889767
20
-5.29736059119247
30
0
41
1
10
87.4199297837812
20
-5.28664453203132
30
0
41
1
10
87.1987861784824
20
-5.27695214223769
30
0
41
1
10
86.7562947158275
20
-5.24861078916371
30
0
41
1
10
86.5350396603104
20
-5.2297116731832
30
0
41
1
10
85.8711428159927
20
-5.16055877282935
30
0
41
1
10
85.4283035947194
20
-5.09813288392996
30
0
41
1
10
84.7639148007705
20
-4.97875119119615
30
0
41
1
10
84.5421376049798
20
-4.93489304395939
30
0
41
1
10
84.0989174687987
20
-4.84006446962911
30
0
41
1
10
83.877376532318
20
-4.78903574314342
30
0
41
1
10
83.2130189742043
20
-4.62488913476821
30
0
41
1
10
82.7703996424391
20
-4.50124471510728
30
0
41
1
10
82.1069994638327
20
-4.29030477410302
30
0
41
1
10
81.8856985061056
20
-4.21551005535059
30
0
41
1
10
81.4421160404677
20
-4.06136444412934
30
0
41
1
10
81.2199986431979
20
-3.98138761248441
30
0
41
1
10
80.5547989380307
20
-3.73211182846521
30
0
41
1
10
80.1119738858175
20
-3.55411821619137
30
0
41
1
10
79.4489859203739
20
-3.26889234719531
30
0
41
1
10
79.2279832902582
20
-3.17074677307502
30
0
41
1
10
78.7851119962006
20
-2.96963551807357
30
0
41
1
10
78.5633629432933
20
-2.86710312779726
30
0
41
1
10
78.1192777416742
20
-2.65754719855877
30
0
41
1
10
77.897441760006
20
-2.55073322679041
30
0
41
1
10
77.4554190511443
20
-2.33305268573983
30
0
41
1
10
77.2349519065775
20
-2.22243946063139
30
0
41
1
10
76.5753589822542
20
-1.88512370802243
30
0
41
1
10
76.1368275022487
20
-1.65457619202738
30
0
41
1
10
75.259866011991
20
-1.18716493502248
30
0
41
1
10
74.8217266518643
20
-0.949451273121042
30
0
41
1
10
74.1651854756089
20
-0.586867766116711
30
0
41
1
10
73.946305606383
20
-0.465295828585937
30
0
41
1
10
73.5075690855701
20
-0.222192969912697
30
0
41
1
10
73.2877969132309
20
-0.100489429404917
30
0
41
1
10
72.6273367655836
20
0.264893167485155
30
0
41
1
10
72.1855192527808
20
0.50878755543232
30
0
41
1
10
71.5202477814457
20
0.875431791227726
30
0
41
1
10
71.2987785990929
20
0.997088224310403
30
0
41
1
10
70.8557701853285
20
1.23747033202301
30
0
41
1
10
70.634306497956
20
1.35638388420517
30
0
41
1
10
70.191450894679
20
1.59148638193284
30
0
41
1
10
69.9700525912966
20
1.70772609982865
30
0
41
1
10
69.5272568578757
20
1.93773487729999
30
0
41
1
10
69.3058633977615
20
2.05146773425793
30
0
41
1
10
68.8631890996149
20
2.27616127789065
30
0
41
1
10
68.6416954698992
20
2.38685538299959
30
0
41
1
10
68.1977138915258
20
2.60381368188268
30
0
41
1
10
67.9758412348533
20
2.71008281952385
30
0
41
1
10
67.3107253913948
20
3.0216121801956
30
0
41
1
10
66.8678719064154
20
3.21949959245498
30
0
41
1
10
66.2045503164564
20
3.50156581214833
30
0
41
1
10
65.9834461024265
20
3.5924237606651
30
0
41
1
10
65.5402633629969
20
3.76777952257436
30
0
41
1
10
65.318232901126
20
3.85280147306631
30
0
41
1
10
64.651747430252
20
4.0985124644647
30
0
41
1
10
64.2083515020749
20
4.25008257296159
30
0
41
1
10
63.5450707570154
20
4.45623802849627
30
0
41
1
10
63.3241259775465
20
4.52116657044732
30
0
41
1
10
62.8814994595116
20
4.64187997166198
30
0
41
1
10
62.6599135733151
20
4.69820809763664
30
0
41
1
10
61.9945149686944
20
4.85800518997218
30
0
41
1
10
61.5495495149062
20
4.95045873987416
30
0
41
1
10
60.885679578293
20
5.06493998067327
30
0
41
1
10
60.6646440614933
20
5.09897209045218
30
0
41
1
10
60.2221552261935
20
5.15757378829716
30
0
41
1
10
60.0007941990075
20
5.18179333484471
30
0
41
1
10
59.3362815097939
20
5.24290690015431
30
0
41
1
10
58.892232988801
20
5.26877863155687
30
0
41
1
10
58.3229604821549
20
5.27948011509594
30
0
41
1
10
58.1971425853401
20
5.28049685740689
30
0
41
1
10
58.0713664132635
20
5.28011984516695
30
0
0
SPLINE
5
EC
100
AcDbEntity
8
1
62
256
6
ByLayer
370
18
48
1
60
0
100
AcDbSpline
70
4
71
3
72
54
73
50
40
0
40
0
40
0
40
0
40
0.0168972097757759
40
0.0168972097757759
40
0.0476191719702832
40
0.0476191719702832
40
0.0783411341647901
40
0.0783411341647901
40
0.109063096359297
40
0.109063096359297
40
0.139785058553805
40
0.139785058553805
40
0.201228982942817
40
0.201228982942817
40
0.262672907331831
40
0.262672907331831
40
0.293394869526337
40
0.293394869526337
40
0.324116831720843
40
0.324116831720843
40
0.385560756109857
40
0.385560756109857
40
0.416282718304363
40
0.416282718304363
40
0.447004680498869
40
0.447004680498869
40
0.508448604887882
40
0.508448604887882
40
0.539170567082388
40
0.539170567082388
40
0.569892529276895
40
0.569892529276895
40
0.600614491471401
40
0.600614491471401
40
0.631336453665907
40
0.631336453665907
40
0.69278037805492
40
0.69278037805492
40
0.723502340249428
40
0.723502340249428
40
0.754224302443935
40
0.754224302443935
40
0.815668226832951
40
0.815668226832951
40
0.877112151221967
40
0.877112151221967
40
0.938556075610984
40
0.938556075610984
40
1
40
1
40
1
40
1
41
1
10
34.8996887450122
20
-4.01135833029122
30
0
41
1
10
34.7780450335514
20
-4.05471072035948
30
0
41
1
10
34.6564932173169
20
-4.09712289796283
30
0
41
1
10
34.3142262282801
20
-4.21427262513208
30
0
41
1
10
34.0935071170791
20
-4.28672389134815
30
0
41
1
10
33.6515280709628
20
-4.42390870113272
30
0
41
1
10
33.4303465880438
20
-4.48870511656651
30
0
41
1
10
32.9876082575754
20
-4.61122341915845
30
0
41
1
10
32.7660623576927
20
-4.66903150553827
30
0
41
1
10
32.3225091118575
20
-4.77692976898041
30
0
41
1
10
32.1008164917281
20
-4.82675579675958
30
0
41
1
10
31.437532021472
20
-4.964811623245
30
0
41
1
10
30.9956585327295
20
-5.0420024073139
30
0
41
1
10
30.1108124682441
20
-5.1621025777257
30
0
41
1
10
29.6680386290023
20
-5.20665069459136
30
0
41
1
10
29.0032633107122
20
-5.24419204245174
30
0
41
1
10
28.7819728824526
20
-5.25235416612384
30
0
41
1
10
28.339174259975
20
-5.26136864319258
30
0
41
1
10
28.1177766717024
20
-5.26200054580698
30
0
41
1
10
27.4536955278292
20
-5.25175560379245
30
0
41
1
10
27.0110484920438
20
-5.22927249568932
30
0
41
1
10
26.347316470721
20
-5.16697337294116
30
0
41
1
10
26.1257190300701
20
-5.14076674084913
30
0
41
1
10
25.6819882542665
20
-5.08156635997182
30
0
41
1
10
25.4602083933632
20
-5.04840932742687
30
0
41
1
10
24.7952943964903
20
-4.93672151795363
30
0
41
1
10
24.3524176870195
20
-4.84644396116533
30
0
41
1
10
23.6890534218821
20
-4.68766710753971
30
0
41
1
10
23.4678647247588
20
-4.63089421208085
30
0
41
1
10
23.0245761220612
20
-4.50970900731932
30
0
41
1
10
22.8023576026441
20
-4.44525226131785
30
0
41
1
10
22.3583425851159
20
-4.30966002237864
30
0
41
1
10
22.1365742679887
20
-4.23851279720441
30
0
41
1
10
21.6934822474813
20
-4.08850321454446
30
0
41
1
10
21.4721374971823
20
-4.00961441803344
30
0
41
1
10
20.8088759318148
20
-3.76472422023488
30
0
41
1
10
20.3663051899794
20
-3.59034112391487
30
0
41
1
10
19.7006190050023
20
-3.31208922614547
30
0
41
1
10
19.4782998072552
20
-3.21651422130097
30
0
41
1
10
19.0346122763571
20
-3.01970997304912
30
0
41
1
10
18.8131211186121
20
-2.91822634898051
30
0
41
1
10
18.1496983550333
20
-2.60628507194349
30
0
41
1
10
17.7072717218715
20
-2.39115390558473
30
0
41
1
10
16.8207400606796
20
-1.94767300152722
30
0
41
1
10
16.3759548410413
20
-1.71862103942769
30
0
41
1
10
15.490690354649
20
-1.24742434728708
30
0
41
1
10
15.0484345979282
20
-1.00830194519401
30
0
41
1
10
14.1627929703223
20
-0.526459061567181
30
0
41
1
10
13.7195207977249
20
-0.283533672069552
30
0
41
1
10
13.2757500895676
20
-0.0383440836520208
30
0
0
SPLINE
5
ED
100
AcDbEntity
8
1
62
256
6
ByLayer
370
13
48
1
60
0
100
AcDbSpline
70
4
71
3
72
10
73
6
40
0
40
0
40
0
40
0
40
0.5
40
0.5
40
1
40
1
40
1
40
1
41
1
10
7.25022819556446
20
-4.25219057708765
30
0
41
1
10
7.2287880086285
20
-4.24802247664002
30
0
41
1
10
7.20776999389162
20
-4.24613854361755
30
0
41
1
10
7.16657804469259
20
-4.24680417263141
30
0
41
1
10
7.14630529993394
20
-4.24942677561384
30
0
41
1
10
7.12737769450143
20
-4.25434126642372
30
0
0
SPLINE
5
EE
100
AcDbEntity
8
1
62
256
6
ByLayer
370
18
48
1
60
0
100
AcDbSpline
70
4
71
3
72
10
73
6
40
0
40
0
40
0
40
0
40
0.636133065768689
40
0.636133065768689
40
1
40
1
40
1
40
1
41
1
10
104.058115650677
20
5.51188319217488
30
0
41
1
10
103.805924826856
20
5.53002253710082
30
0
41
1
10
103.553689895654
20
5.54234479067921
30
0
41
1
10
103.156853353919
20
5.55254596242122
30
0
41
1
10
103.012324710462
20
5.55434552543437
30
0
41
1
10
102.867827532758
20
5.55423424857955
30
0
0
SPLINE
5
EF
100
AcDbEntity
8
1
62
256
6
ByLayer
370
18
48
1
60
0
100
AcDbSpline
70
4
71
3
72
62
73
58
40
0
40
0
40
0
40
0
40
0.0121665677948924
40
0.0121665677948924
40
0.0584285799227547
40
0.0584285799227547
40
0.104690592050617
40
0.104690592050617
40
0.127821598114548
40
0.127821598114548
40
0.150952604178479
40
0.150952604178479
40
0.197214616306342
40
0.197214616306342
40
0.220345622370274
40
0.220345622370274
40
0.243476628434205
40
0.243476628434205
40
0.289738640562068
40
0.289738640562068
40
0.312869646625999
40
0.312869646625999
40
0.33600065268993
40
0.33600065268993
40
0.382262664817793
40
0.382262664817793
40
0.405393670881724
40
0.405393670881724
40
0.428524676945655
40
0.428524676945655
40
0.521048701201377
40
0.521048701201377
40
0.6135727254571
40
0.6135727254571
40
0.659834737584962
40
0.659834737584962
40
0.706096749712824
40
0.706096749712824
40
0.729227755776754
40
0.729227755776754
40
0.752358761840685
40
0.752358761840685
40
0.798620773968546
40
0.798620773968546
40
0.821751780032477
40
0.821751780032477
40
0.844882786096408
40
0.844882786096408
40
0.891144798224267
40
0.891144798224267
40
0.914275804288197
40
0.914275804288197
40
0.937406810352127
40
0.937406810352127
40
0.983668822479986
40
0.983668822479986
40
1
40
1
40
1
40
1
41
1
10
75.7033337356869
20
-5.30364421489764
30
0
41
1
10
75.5707544358323
20
-5.3257317109283
30
0
41
1
10
75.4381507727613
20
-5.34628453068382
30
0
41
1
10
74.8010884773269
20
-5.43754499943452
30
0
41
1
10
74.2948578166234
20
-5.48735068119137
30
0
41
1
10
73.2856242214968
20
-5.5401633569501
30
0
41
1
10
72.7819097293118
20
-5.54333932569565
30
0
41
1
10
72.0254199705198
20
-5.51328775723161
30
0
41
1
10
71.7730680337594
20
-5.49747190494818
30
0
41
1
10
71.2676584992213
20
-5.45423965406428
30
0
41
1
10
71.0147061794588
20
-5.42680890343678
30
0
41
1
10
70.2574523157595
20
-5.32767834679706
30
0
41
1
10
69.7536634470324
20
-5.23907061861283
30
0
41
1
10
68.9972444522913
20
-5.07371278115082
30
0
41
1
10
68.7449490848639
20
-5.01320784842639
30
0
41
1
10
68.2397307867544
20
-4.88160078103982
30
0
41
1
10
67.9866520867475
20
-4.81042586078067
30
0
41
1
10
67.2290650961884
20
-4.58239567879664
30
0
41
1
10
66.7252007835621
20
-4.41084941417327
30
0
41
1
10
65.9687322347851
20
-4.12693047515293
30
0
41
1
10
65.7164653175253
20
-4.02785949758223
30
0
41
1
10
65.2114519092234
20
-3.82110599775203
30
0
41
1
10
64.958443271572
20
-3.71327575151685
30
0
41
1
10
64.2005595388156
20
-3.37897007535514
30
0
41
1
10
63.6965372725592
20
-3.14171207239099
30
0
41
1
10
62.9400104008277
20
-2.76773731575457
30
0
41
1
10
62.6877593195467
20
-2.64005626910017
30
0
41
1
10
62.182893259752
20
-2.37893525525385
30
0
41
1
10
61.9300280843049
20
-2.24539362240208
30
0
41
1
10
60.6661072867305
20
-1.56699447798656
30
0
41
1
10
59.6603554416093
20
-0.992759642459674
30
0
41
1
10
57.6366944901211
20
0.178042831219784
30
0
41
1
10
56.6310576582698
20
0.765677436170279
30
0
41
1
10
55.1138134291551
20
1.61928577126105
30
0
41
1
10
54.6088308715533
20
1.89753592713774
30
0
41
1
10
53.59995503314
20
2.43482644153954
30
0
41
1
10
53.0958717725604
20
2.69451885794882
30
0
41
1
10
52.3375042146113
20
3.06623586118863
30
0
41
1
10
52.084359036989
20
3.1871596021129
30
0
41
1
10
51.5791778836527
20
3.42148866288176
30
0
41
1
10
51.3268432200466
20
3.53500497085136
30
0
41
1
10
50.5701027406886
20
3.86398746161132
30
0
41
1
10
50.0660546611954
20
4.06799429186893
30
0
41
1
10
49.3079767614584
20
4.34764379823534
30
0
41
1
10
49.0547557521941
20
4.43654454415102
30
0
41
1
10
48.549335371071
20
4.60439678392916
30
0
41
1
10
48.2969242227457
20
4.68343430625194
30
0
41
1
10
47.540048824115
20
4.90545967423151
30
0
41
1
10
47.0359975357375
20
5.03339771415674
30
0
41
1
10
46.2781866997832
20
5.1931195483433
30
0
41
1
10
46.025015579721
20
5.24104004889026
30
0
41
1
10
45.5193315226892
20
5.3255662924675
30
0
41
1
10
45.2668256190558
20
5.36218724498463
30
0
41
1
10
44.509722842747
20
5.45498280998518
30
0
41
1
10
44.0056726455508
20
5.49412905964306
30
0
41
1
10
43.3223185527928
20
5.51571569551129
30
0
41
1
10
43.1438303916627
20
5.5184415649712
30
0
41
1
10
42.9652910826693
20
5.51827118133446
30
0
0
SPLINE
5
F0
100
AcDbEntity
8
1
62
256
6
ByLayer
370
18
48
1
60
0
100
AcDbSpline
70
4
71
3
72
20
73
16
40
0
40
0
40
0
40
0
40
0.131643170952274
40
0.131643170952274
40
0.218478853857047
40
0.218478853857047
40
0.30531453676182
40
0.30531453676182
40
0.478985902571364
40
0.478985902571364
40
0.565821585476137
40
0.565821585476137
40
0.652657268380909
40
0.652657268380909
40
1
40
1
40
1
40
1
41
1
10
15.8495618424481
20
-5.26144983165543
30
0
41
1
10
15.466870036456
20
-5.32582691391744
30
0
41
1
10
15.0841542989042
20
-5.37752069466603
30
0
41
1
10
14.4476338360866
20
-5.44156324997434
30
0
41
1
10
14.1941826065619
20
-5.46131277404425
30
0
41
1
10
13.6883640179818
20
-5.48915309331221
30
0
41
1
10
13.4357326562584
20
-5.49727841730277
30
0
41
1
10
12.678176429782
20
-5.50430430152778
30
0
41
1
10
12.1736664892032
20
-5.48583003424676
30
0
41
1
10
11.414973206708
20
-5.42347889866301
30
0
41
1
10
11.1614580256962
20
-5.39687989369335
30
0
41
1
10
10.655640695311
20
-5.33248260578549
30
0
41
1
10
10.4031895174142
20
-5.29468771328146
30
0
41
1
10
9.14227244332224
20
-5.07841252529383
30
0
41
1
10
8.13794469529125
20
-4.81790706028343
30
0
41
1
10
7.12514928326158
20
-4.47898515241229
30
0
0
SPLINE
5
F1
100
AcDbEntity
8
SK1
62
256
6
ByLayer
370
18
48
1
60
0
100
AcDbSpline
70
4
71
3
72
10
73
6
40
0
40
0
40
0
40
0
40
0.5
40
0.5
40
1
40
1
40
1
40
1
41
1
10
-45
20
-3.499560693186
30
0
41
1
10
-44.7879558642864
20
-3.86456091291163
30
0
41
1
10
-44.5723067007185
20
-4.22786985164655
30
0
41
1
10
-44.1380805577028
20
-4.95311415877435
30
0
41
1
10
-43.919419630997
20
-5.31495552340988
30
0
41
1
10
-43.7
20
-5.67638093842746
30
0
0
SPLINE
5
F2
100
AcDbEntity
8
SK1
62
256
6
ByLayer
370
18
48
1
60
0
100
AcDbSpline
70
4
71
3
72
14
73
10
40
0
40
0
40
0
40
0
40
0.125000000000002
40
0.125000000000002
40
0.250000000000005
40
0.250000000000005
40
0.500000000000001
40
0.500000000000001
40
1
40
1
40
1
40
1
41
1
10
-43.6
20
-4.9676281399764
30
0
41
1
10
-43.6
20
-4.96171705251905
30
0
41
1
10
-43.6017220508865
20
-4.95337963184465
30
0
41
1
10
-43.6068954324577
20
-4.93533353753591
30
0
41
1
10
-43.610237321167
20
-4.92583355320389
30
0
41
1
10
-43.6215324998379
20
-4.89653284132442
30
0
41
1
10
-43.6303471072619
20
-4.8769267890732
30
0
41
1
10
-43.658490206513
20
-4.81850179183212
30
0
41
1
10
-43.678793979422
20
-4.78156960926111
30
0
41
1
10
-43.7
20
-4.74663930355678
30
0
0
SPLINE
5
F3
100
AcDbEntity
8
SK1
62
256
6
ByLayer
370
18
48
1
60
0
100
AcDbSpline
70
4
71
3
72
14
73
10
40
0
40
0
40
0
40
0
40
0.499999999999996
40
0.499999999999996
40
0.749999999999997
40
0.749999999999997
40
0.874999999999999
40
0.874999999999999
40
1
40
1
40
1
40
1
41
1
10
-43.7
20
-5.67638093842751
30
0
41
1
10
-43.6789021434844
20
-5.71113307757062
30
0
41
1
10
-43.6585587767126
20
-5.74364955950495
30
0
41
1
10
-43.6303722414292
20
-5.78633329150483
30
0
41
1
10
-43.6214260646625
20
-5.79943384276223
30
0
41
1
10
-43.6102968606991
20
-5.81435550173376
30
0
41
1
10
-43.6069058574072
20
-5.81862135760548
30
0
41
1
10
-43.6017309986994
20
-5.8239922876601
30
0
41
1
10
-43.6
20
-5.82500427656438
30
0
41
1
10
-43.6
20
-5.8229904440575
30
0
0
SPLINE
5
F4
100
AcDbEntity
8
SK1
62
256
6
ByLayer
370
18
48
1
60
0
100
AcDbSpline
70
4
71
3
72
10
73
6
40
0
40
0
40
0
40
0
40
0.5
40
0.5
40
1
40
1
40
1
40
1
41
1
10
-43.7
20
-4.74663930355678
30
0
41
1
10
-43.9194066643506
20
-4.3852352470455
30
0
41
1
10
-44.1380460883857
20
-4.02342950243505
30
0
41
1
10
-44.5722311260931
20
-3.29825503343736
30
0
41
1
10
-44.787887135766
20
-2.93493758324629
30
0
41
1
10
-45
20
-2.56981905831529
30
0
0
LINE
5
76
100
AcDbEntity
8
81
62
256
6
ByLayer
370
18
48
1
60
0
100
AcDbLine
10
106
20
0
30
0
11
111
21
0
31
0
39
0
210
0
220
0
230
1
0
LINE
5
77
100
AcDbEntity
8
1
62
256
6
ByLayer
370
18
48
1
60
0
100
AcDbLine
10
6.253985
20
5.496269
30
0
11
1.168759
21
5.493218
31
0
39
0
210
0
220
0
230
1
0
LINE
5
79
100
AcDbEntity
8
1
62
256
6
ByLayer
370
18
48
1
60
0
100
AcDbLine
10
13.019851
20
5.500328
30
0
11
7.910745
21
5.497263
31
0
39
0
210
0
220
0
230
1
0
LINE
5
7A
100
AcDbEntity
8
1
62
256
6
ByLayer
370
18
48
1
60
0
100
AcDbLine
10
42.970215
20
5.518299
30
0
11
42.124644
21
5.517791
31
0
39
0
210
0
220
0
230
1
0
LINE
5
7B
100
AcDbEntity
8
1
62
256
6
ByLayer
370
18
48
1
60
0
100
AcDbLine
10
72.919908
20
5.536268
30
0
11
72.088001
21
5.535769
31
0
39
0
210
0
220
0
230
1
0
LINE
5
7C
100
AcDbEntity
8
1
62
256
6
ByLayer
370
18
48
1
60
0
100
AcDbLine
10
102.870728
20
5.554239
30
0
11
102.042488
21
5.553742
31
0
39
0
210
0
220
0
230
1
0
LINE
5
7D
100
AcDbEntity
8
1
62
256
6
ByLayer
370
18
48
1
60
0
100
AcDbLine
10
102.042488
20
-5.553742
30
0
11
102.870217
21
-5.554239
31
0
39
0
210
0
220
0
230
1
0
LINE
5
7E
100
AcDbEntity
8
1
62
256
6
ByLayer
370
18
48
1
60
0
100
AcDbLine
10
72.088001
20
-5.535769
30
0
11
72.920209
21
-5.536269
31
0
39
0
210
0
220
0
230
1
0
LINE
5
7F
100
AcDbEntity
8
1
62
256
6
ByLayer
370
18
48
1
60
0
100
AcDbLine
10
42.124644
20
-5.517791
30
0
11
42.969955
21
-5.518298
31
0
39
0
210
0
220
0
230
1
0
LINE
5
80
100
AcDbEntity
8
1
62
256
6
ByLayer
370
18
48
1
60
0
100
AcDbLine
10
7.910745
20
-5.497263
30
0
11
13.01969
21
-5.500328
31
0
39
0
210
0
220
0
230
1
0
LINE
5
81
100
AcDbEntity
8
1
62
256
6
ByLayer
370
18
48
1
60
0
100
AcDbLine
10
1.168759
20
-5.493218
30
0
11
6.253985
21
-5.496269
31
0
39
0
210
0
220
0
230
1
0
LINE
5
82
100
AcDbEntity
8
SK1
62
256
6
ByLayer
370
18
48
1
60
0
100
AcDbLine
10
0
20
6
30
0
11
-43.556624
21
6
31
0
39
0
210
0
220
0
230
1
0
LINE
5
84
100
AcDbEntity
8
SK1
62
256
6
ByLayer
370
18
48
1
60
0
100
AcDbLine
10
-43.556624
20
-6
30
0
11
0
21
-6
31
0
39
0
210
0
220
0
230
1
0
LINE
5
85
100
AcDbEntity
8
SK1
62
256
6
ByLayer
370
18
48
1
60
0
100
AcDbLine
10
-43.556624
20
6
30
0
11
-45
21
3.5
31
0
39
0
210
0
220
0
230
1
0
LINE
5
86
100
AcDbEntity
8
SK1
62
256
6
ByLayer
370
18
48
1
60
0
100
AcDbLine
10
-45
20
-3.5
30
0
11
-43.556624
21
-6
31
0
39
0
210
0
220
0
230
1
0
LINE
5
87
100
AcDbEntity
8
SK4
62
256
6
ByLayer
370
18
48
0.05
60
0
100
AcDbLine
10
111
20
0
30
0
11
-50
21
0
31
0
39
0
210
0
220
0
230
1
0
LINE
5
89
100
AcDbEntity
8
4
62
256
6
ByLayer
370
18
48
0.05
60
0
100
AcDbLine
10
106
20
0
30
0
11
0
21
0
31
0
39
0
210
0
220
0
230
1
0
LINE
5
8B
100
AcDbEntity
8
80
62
256
6
ByLayer
370
18
48
1
60
0
100
AcDbLine
10
0
20
0
30
0
11
-5
21
0
31
0
39
0
210
0
220
0
230
1
0
LINE
5
8C
100
AcDbEntity
8
1
62
256
6
ByLayer
370
18
48
1
60
0
100
AcDbLine
10
105.988299
20
0.052492
30
0
11
106
21
0
31
0
39
0
210
0
220
0
230
1
0
LINE
5
8D
100
AcDbEntity
8
1
62
256
6
ByLayer
370
13
48
1
60
0
100
AcDbLine
10
104.303783
20
0.670441
30
0
11
105.894329
21
-0.117072
31
0
39
0
210
0
220
0
230
1
0
LINE
5
8E
100
AcDbEntity
8
1
62
256
6
ByLayer
370
18
48
1
60
0
100
AcDbLine
10
0
20
-6
30
0
11
0
21
6
31
0
39
0
210
0
220
0
230
1
0
LINE
5
8F
100
AcDbEntity
8
1
62
256
6
ByLayer
370
13
48
1
60
0
100
AcDbLine
10
1.168759
20
5.493218
30
0
11
1.168759
21
-5.493218
31
0
39
0
210
0
220
0
230
1
0
LINE
5
90
100
AcDbEntity
8
1
62
256
6
ByLayer
370
13
48
1
60
0
100
AcDbLine
10
0.584139
20
5.746609
30
0
11
0.584139
21
-5.746609
31
0
39
0
210
0
220
0
230
1
0
LINE
5
91
100
AcDbEntity
8
1
62
256
6
ByLayer
370
18
48
1
60
0
100
AcDbLine
10
106
20
0
30
0
11
104.068136
21
-5.307753
31
0
39
0
210
0
220
0
230
1
0
LINE
5
92
100
AcDbEntity
8
1
62
256
6
ByLayer
370
18
48
1
60
0
100
AcDbLine
10
105.910771
20
-0.305114
30
0
11
105.717982
21
-1.016866
31
0
39
0
210
0
220
0
230
1
0
LINE
5
93
100
AcDbEntity
8
1
62
256
6
ByLayer
370
18
48
1
60
0
100
AcDbLine
10
103.202794
20
-3.116738
30
0
11
105.894329
21
-0.117072
31
0
39
0
210
0
220
0
230
1
0
LINE
5
94
100
AcDbEntity
8
1
62
256
6
ByLayer
370
13
48
1
60
0
100
AcDbLine
10
105.717982
20
1.016866
30
0
11
104.473242
21
1.016866
31
0
39
0
210
0
220
0
230
1
0
LINE
5
95
100
AcDbEntity
8
1
62
256
6
ByLayer
370
18
48
1
60
0
100
AcDbLine
10
105.910771
20
0.305114
30
0
11
105.717982
21
1.016866
31
0
39
0
210
0
220
0
230
1
0
LINE
5
96
100
AcDbEntity
8
1
62
256
6
ByLayer
370
13
48
1
60
0
100
AcDbLine
10
104.473242
20
1.016866
30
0
11
105.910771
21
0.305114
31
0
39
0
210
0
220
0
230
1
0
LINE
5
97
100
AcDbEntity
8
1
62
256
6
ByLayer
370
18
48
1
60
0
100
AcDbLine
10
106
20
0
30
0
11
105.988299
21
-0.052492
31
0
39
0
210
0
220
0
230
1
0
LINE
5
98
100
AcDbEntity
8
SK1
62
256
6
ByLayer
370
18
48
1
60
0
100
AcDbLine
10
-45
20
-3.5
30
0
11
-45
21
-3.499561
31
0
39
0
210
0
220
0
230
1
0
LINE
5
99
100
AcDbEntity
8
SK1
62
256
6
ByLayer
370
13
48
1
60
0
100
AcDbLine
10
-43.7
20
-4.746615
30
0
11
-43.7
21
-5.676381
31
0
39
0
210
0
220
0
230
1
0
LINE
5
9A
100
AcDbEntity
8
SK1
62
256
6
ByLayer
370
18
48
1
60
0
100
AcDbLine
10
0
20
-6
30
0
11
0
21
6
31
0
39
0
210
0
220
0
230
1
0
LINE
5
9B
100
AcDbEntity
8
SK1
62
256
6
ByLayer
370
18
48
1
60
0
100
AcDbLine
10
-45
20
3.5
30
0
11
-45
21
-2.569819
31
0
39
0
210
0
220
0
230
1
0
LINE
5
9C
100
AcDbEntity
8
SK1
62
256
6
ByLayer
370
18
48
1
60
0
100
AcDbLine
10
-43.556624
20
6
30
0
11
-43.556624
21
-6
31
0
39
0
210
0
220
0
230
1
0
LINE
5
9D
100
AcDbEntity
8
SK1
62
256
6
ByLayer
370
18
48
1
60
0
100
AcDbLine
10
-45
20
-2.569733
30
0
11
-45
21
-3.499561
31
0
39
0
210
0
220
0
230
1
0
LINE
5
9E
100
AcDbEntity
8
SK1
62
256
6
ByLayer
370
18
48
1
60
0
100
AcDbLine
10
-43.6
20
-5.82299
30
0
11
-43.6
21
-4.967628
31
0
39
0
210
0
220
0
230
1
0
MTEXT
5
F5
100
AcDbEntity
8
SK6
62
256
6
ByLayer
370
13
48
1
60
0
100
AcDbMText
10
32.629169
20
37.937694
30
0
210
0
220
0
230
1
1
\W0.7032;R840-1111-70-A1A1220
40
3.5
41
0
44
1.084337
50
0
71
8
72
5
7
iso_b_vert
0
DIMENSION
5
102
100
AcDbEntity
8
SK2
62
256
6
ByLayer
370
13
48
1
60
0
100
AcDbDimension
2
DimnDraft3D1
10
104.09
20
-15.768398
30
0
11
50.340059
21
-15.768398
31
0
70
32
71
5
72
1
41
1
210
0
220
0
230
1
3
Standard
100
AcDbAlignedDimension
13
0
23
-1.5875
33
0
14
104.09
24
-7.1425
34
0
50
0
100
AcDbRotatedDimension
1001
ACAD
1000
DSTYLE
1002
{
1070
   279
1070
     0
1070
   172
1070
     1
1070
   173
1070
     1
1070
   340
1005
F6
1070
   271
1070
     2
1070
   272
1070
     2
1070
    77
1070
     1
1070
    73
1070
     0
1070
   171
1070
     3
1070
   274
1070
     4
1070
   177
1070
    35
1070
   176
1070
    35
1070
   178
1070
    35
1070
    48
1040
-0.005
1070
    41
1041
3.5
1070
   147
1041
1.75
1070
    42
1041
1.5875
1070
    44
1041
2.0
1070
   140
1041
3.5
1070
   343
1005
0
1070
   344
1005
0
1002
}
0
DIMENSION
5
10C
100
AcDbEntity
8
SK2
62
256
6
ByLayer
370
13
48
1
60
0
100
AcDbDimension
2
DimnDraft3D2
10
106
20
-34.692985
30
0
11
29.9313
21
-34.692985
31
0
70
32
71
5
72
1
41
1
210
0
220
0
230
1
3
Standard
100
AcDbAlignedDimension
13
-45
23
-7.5875
33
0
14
106
24
-1.5875
34
0
50
0
100
AcDbRotatedDimension
1001
ACAD
1000
DSTYLE
1002
{
1070
   279
1070
     0
1070
   172
1070
     1
1070
   173
1070
     1
1070
   340
1005
F6
1070
   271
1070
     2
1070
   272
1070
     2
1070
    77
1070
     1
1070
    73
1070
     0
1070
   171
1070
     3
1070
   274
1070
     4
1070
   177
1070
    35
1070
   176
1070
    35
1070
   178
1070
    35
1070
    48
1040
-0.005
1070
    41
1041
3.5
1070
   147
1041
1.75
1070
    42
1041
1.5875
1070
    44
1041
2.0
1070
   140
1041
3.5
1070
   343
1005
0
1070
   344
1005
0
1002
}
0
DIMENSION
5
116
100
AcDbEntity
8
SK2
62
256
6
ByLayer
370
13
48
1
60
0
100
AcDbDimension
2
DimnDraft3D3
10
106
20
17.164119
30
0
11
60.605
21
17.164119
31
0
70
32
71
5
72
1
41
1
210
0
220
0
230
1
3
Standard
100
AcDbAlignedDimension
13
15.21
23
7.1425
33
0
14
106
24
1.5875
34
0
50
0
100
AcDbRotatedDimension
1001
ACAD
1000
DSTYLE
1002
{
1070
   279
1070
     0
1070
   172
1070
     1
1070
   173
1070
     1
1070
   340
1005
F6
1070
   271
1070
     2
1070
   272
1070
     2
1070
    77
1070
     1
1070
    73
1070
     0
1070
   171
1070
     3
1070
   274
1070
     4
1070
   177
1070
    35
1070
   176
1070
    35
1070
   178
1070
    35
1070
    48
1040
-0.005
1070
    41
1041
3.5
1070
   147
1041
1.75
1070
    42
1041
1.5875
1070
    44
1041
2.0
1070
   140
1041
3.5
1070
   343
1005
0
1070
   344
1005
0
1002
}
0
DIMENSION
5
120
100
AcDbEntity
8
SK2
62
256
6
ByLayer
370
13
48
1
60
0
100
AcDbDimension
2
DimnDraft3D4
10
104.09
20
-18.357503
30
0
11
115.981425
21
-18.357503
31
0
70
32
71
5
72
1
41
1
210
0
220
0
230
1
3
Standard
100
AcDbAlignedDimension
13
106
23
-1.5875
33
0
14
104.09
24
-7.1425
34
0
50
0
100
AcDbRotatedDimension
1001
ACAD
1000
DSTYLE
1002
{
1070
   279
1070
     0
1070
   172
1070
     1
1070
   173
1070
     1
1070
   340
1005
F6
1070
   271
1070
     2
1070
   272
1070
     2
1070
    77
1070
     1
1070
    73
1070
     0
1070
   171
1070
     3
1070
   274
1070
     4
1070
   177
1070
    35
1070
   176
1070
    35
1070
   178
1070
    35
1070
    48
1040
-0.005
1070
    41
1041
3.5
1070
   147
1041
1.75
1070
    42
1041
1.5875
1070
    44
1041
2.0
1070
   140
1041
3.5
1070
   343
1005
0
1070
   344
1005
0
1002
}
0
DIMENSION
5
12A
100
AcDbEntity
8
SK2
62
256
6
ByLayer
370
13
48
1
60
0
100
AcDbDimension
2
DimnDraft3D5
10
104.09
20
-24.343428
30
0
11
26.850676
21
-24.343428
31
0
70
32
71
5
72
1
41
1
210
0
220
0
230
1
3
Standard
100
AcDbAlignedDimension
13
-45
23
-7.5875
33
0
14
104.09
24
-7.1425
34
0
50
0
100
AcDbRotatedDimension
1001
ACAD
1000
DSTYLE
1002
{
1070
   279
1070
     0
1070
   172
1070
     1
1070
   173
1070
     1
1070
   340
1005
F6
1070
   271
1070
     2
1070
   272
1070
     2
1070
    77
1070
     1
1070
    73
1070
     0
1070
   171
1070
     3
1070
   274
1070
     4
1070
   177
1070
    35
1070
   176
1070
    35
1070
   178
1070
    35
1070
    48
1040
-0.005
1070
    41
1041
3.5
1070
   147
1041
1.75
1070
    42
1041
1.5875
1070
    44
1041
2.0
1070
   140
1041
3.5
1070
   343
1005
0
1070
   344
1005
0
1002
}
0
DIMENSION
5
135
100
AcDbEntity
8
SK2
62
256
6
ByLayer
370
13
48
1
60
0
100
AcDbDimension
2
DimnDraft3D6
10
-55.625163
20
6
30
0
11
-56.250163
21
24.47418
31
0
70
33
71
5
72
1
41
1
210
0
220
0
230
1
3
Standard
100
AcDbAlignedDimension
13
-46.5875
23
-6
33
0
14
-46.5875
24
6
34
0
1001
ACAD
1000
DSTYLE
1002
{
1070
   279
1070
     0
1070
    74
1070
     0
1070
   173
1070
     1
1070
   340
1005
F6
1070
   271
1070
     3
1070
   272
1070
     2
1070
    77
1070
     1
1070
    73
1070
     0
1070
   171
1070
     3
1070
   274
1070
     4
1070
   177
1070
    35
1070
   176
1070
    35
1070
   178
1070
    35
1070
    48
1040
-0.005
1070
    41
1041
3.5
1070
   147
1041
1.75
1070
    42
1041
1.5875
1070
    44
1041
2.0
1070
   140
1041
3.5
1070
   343
1005
0
1070
   344
1005
0
1002
}
0
DIMENSION
5
140
100
AcDbEntity
8
2
62
256
6
ByLayer
370
13
48
1
60
0
100
AcDbDimension
2
DimnDraft3D7
10
120.083343
20
5.555
30
0
11
115.458343
21
22.622266
31
0
70
33
71
5
72
1
41
1
210
0
220
0
230
1
3
Standard
100
AcDbAlignedDimension
13
105.6775
23
-5.555
33
0
14
105.6775
24
5.555
34
0
1001
ACAD
1000
DSTYLE
1002
{
1070
   279
1070
     0
1070
    74
1070
     0
1070
   173
1070
     1
1070
   340
1005
F6
1070
   271
1070
     3
1070
   272
1070
     2
1070
    77
1070
     1
1070
    73
1070
     0
1070
   171
1070
     3
1070
   274
1070
     4
1070
   177
1070
    35
1070
   176
1070
    35
1070
   178
1070
    35
1070
    48
1040
-0.005
1070
    41
1041
3.5
1070
   147
1041
1.75
1070
    42
1041
1.5875
1070
    44
1041
2.0
1070
   140
1041
3.5
1070
   343
1005
0
1070
   344
1005
0
1002
}
0
ENDSEC
0
SECTION
2
OBJECTS
0
DICTIONARY
5
1ab
330
0
100
AcDbDictionary
280
0
281
1
3
ACAD_GROUP
350
1ac
3
ACAD_MLINESTYLE
350
1ad
0
DICTIONARY
5
1ac
330
0
100
AcDbDictionary
280
0
281
1
0
DICTIONARY
5
1ad
330
0
100
AcDbDictionary
280
0
281
1
3
Standard
350
18
0
MLINESTYLE
5
18
330
1ad
100
AcDbMlineStyle
2
Standard
70
0
3

62
256
51
90
52
90
71
2
49
-0.5
62
256
6
ByLayer
49
0.5
62
256
6
ByLayer
0
RASTERVARIABLES
5
199
330

100
AcDbRasterVariables
90
0
70
1
71
1
72
1
0
ENDSEC
0
EOF
