0
SECTION
2
HEADER
9
$ACADVER
1
AC1015
9
$DWGCODEPAGE
3
ANSI_1252
9
$HANDSEED
5
1a2
9
$ANGBASE
50
0
9
$ANGDIR
70
0
9
$ATTMODE
70
1
9
$AUNITS
70
0
9
$AUPREC
70
0
9
$CECOLOR
62
256
9
$CELTSCALE
40
1
9
$CELTYPE
6
ByLayer
9
$CELWEIGHT
370
18
9
$CLAYER
8
0
9
$CMLJUST
70
0
9
$CMLSCALE
40
1
9
$CMLSTYLE
2
Standard
9
$DIMSTYLE
2
Standard
9
$TEXTSIZE
40
0.2
9
$TEXTSTYLE
7
Standard
9
$LUNITS
70
2
9
$LUPREC
70
4
9
$EXTNAMES
290
1
9
$INSUNITS
70
4
9
$LTSCALE
40
1
9
$LWDISPLAY
290
1
9
$PDMODE
70
0
9
$PDSIZE
40
0
9
$PLINEGEN
70
0
0
ENDSEC
0
SECTION
2
CLASSES
0
CLASS
1
RASTERVARIABLES
2
AcDbRasterVariables
3
ISM
90
0
280
0
281
0
0
ENDSEC
0
SECTION
2
TABLES
0
TABLE
2
VPORT
5
198
100
AcDbSymbolTable
0
VPORT
5
1
100
AcDbSymbolTableRecord
100
AcDbViewportTableRecord
2
*Active
70
0
10
0
20
0
11
1
21
1
12
-1
22
1
13
0
23
0
14
0.5
24
0.5
15
10
25
10
16
0
26
0
36
1
17
0
27
0
37
0
0
ENDTAB
0
TABLE
2
LTYPE
5
199
100
AcDbSymbolTable
0
LTYPE
5
14
100
AcDbSymbolTableRecord
100
AcDbLinetypeTableRecord
70
0
2
ByBlock
3

72
65
73
0
40
0
0
LTYPE
5
15
100
AcDbSymbolTableRecord
100
AcDbLinetypeTableRecord
70
0
2
ByLayer
3

72
65
73
0
40
0
0
LTYPE
5
16
100
AcDbSymbolTableRecord
100
AcDbLinetypeTableRecord
70
0
2
CONTINUOUS
3
Solid line
72
65
73
0
40
0
0
LTYPE
5
6A
100
AcDbSymbolTableRecord
100
AcDbLinetypeTableRecord
70
0
2
CENTER
3
____ _ ____ _ ____ _ ____
72
65
73
4
40
47.5
49
22
74
0
49
-8.5
74
0
49
8.5
74
0
49
-8.5
74
0
0
LTYPE
5
6B
100
AcDbSymbolTableRecord
100
AcDbLinetypeTableRecord
70
0
2
DASHED
3
__ __ __ __ __ __ __ __ __
72
65
73
2
40
25.72
49
12.86
74
0
49
-12.86
74
0
0
ENDTAB
0
TABLE
2
LAYER
5
19a
100
AcDbSymbolTable
0
LAYER
5
10
100
AcDbSymbolTableRecord
100
AcDbLayerTableRecord
2
0
70
0
62
7
6
CONTINUOUS
290
1
370
-3
390
0
0
LAYER
5
6D
100
AcDbSymbolTableRecord
100
AcDbLayerTableRecord
2
81
70
0
62
-3
6
CONTINUOUS
290
1
370
-3
390
0
0
LAYER
5
6F
100
AcDbSymbolTableRecord
100
AcDbLayerTableRecord
2
80
70
0
62
-6
6
CONTINUOUS
290
1
370
-3
390
0
0
LAYER
5
74
100
AcDbSymbolTableRecord
100
AcDbLayerTableRecord
2
2
70
0
62
7
6
CONTINUOUS
290
1
370
-3
390
0
0
LAYER
5
78
100
AcDbSymbolTableRecord
100
AcDbLayerTableRecord
2
1
70
0
62
4
6
CONTINUOUS
290
1
370
-3
390
0
0
LAYER
5
88
100
AcDbSymbolTableRecord
100
AcDbLayerTableRecord
2
4
70
0
62
-2
6
CENTER
290
1
370
-3
390
0
0
LAYER
5
184
100
AcDbSymbolTableRecord
100
AcDbLayerTableRecord
2
SK2
70
0
62
7
6
CONTINUOUS
290
1
370
-3
390
0
0
LAYER
5
185
100
AcDbSymbolTableRecord
100
AcDbLayerTableRecord
2
SK1
70
0
62
4
6
CONTINUOUS
290
1
370
-3
390
0
0
LAYER
5
186
100
AcDbSymbolTableRecord
100
AcDbLayerTableRecord
2
SK4
70
0
62
2
6
CENTER
290
1
370
-3
390
0
0
LAYER
5
187
100
AcDbSymbolTableRecord
100
AcDbLayerTableRecord
2
SK6
70
0
62
5
6
CONTINUOUS
290
1
370
-3
390
0
0
ENDTAB
0
TABLE
2
STYLE
5
19b
100
AcDbSymbolTable
0
STYLE
5
11
100
AcDbSymbolTableRecord
100
AcDbTextStyleTableRecord
2
Standard
3
txt
70
0
71
0
40
0
41
1
42
0
50
0
0
STYLE
5
E0
100
AcDbSymbolTableRecord
100
AcDbTextStyleTableRecord
2
iso_b_vert
3
simplex.shx
70
0
71
0
40
0
41
1
42
0
50
0
0
STYLE
5
E1
100
AcDbSymbolTableRecord
100
AcDbTextStyleTableRecord
2
DWGDirectTextStyle
3
simplex
70
0
71
0
40
0
41
1
42
0
50
0
0
ENDTAB
0
TABLE
2
DIMSTYLE
5
19c
100
AcDbSymbolTable
100
AcDbDimStyleTable
0
DIMSTYLE
105
27
100
AcDbSymbolTableRecord
100
AcDbDimStyleTableRecord
2
Standard
70
0
3
<>
41
0.18
42
0.0625
44
0.18
140
0.18
147
0.09
73
0
74
0
77
1
271
2
275
0
278
52
280
0
340
11
0
ENDTAB
0
TABLE
2
VIEW
5
19d
100
AcDbSymbolTable
0
ENDTAB
0
TABLE
2
UCS
5
19e
100
AcDbSymbolTable
0
ENDTAB
0
TABLE
2
APPID
5
19f
100
AcDbSymbolTable
0
APPID
5
12
100
AcDbSymbolTableRecord
100
AcDbRegAppTableRecord
2
ACAD
70
0
0
ENDTAB
0
TABLE
2
BLOCK_RECORD
5
1a0
100
AcDbSymbolTable
0
BLOCK_RECORD
5
1F
100
AcDbSymbolTableRecord
100
AcDbBlockTableRecord
2
*Model_Space
340
0
70
0
0
BLOCK_RECORD
5
1B
100
AcDbSymbolTableRecord
100
AcDbBlockTableRecord
2
*Paper_Space
340
0
70
0
0
BLOCK_RECORD
5
23
100
AcDbSymbolTableRecord
100
AcDbBlockTableRecord
2
*Paper_Space0
340
0
70
0
0
BLOCK_RECORD
5
E3
100
AcDbSymbolTableRecord
100
AcDbBlockTableRecord
2
DimnDraft3D1
340
0
70
0
0
BLOCK_RECORD
5
ED
100
AcDbSymbolTableRecord
100
AcDbBlockTableRecord
2
DimnDraft3D2
340
0
70
0
0
BLOCK_RECORD
5
F7
100
AcDbSymbolTableRecord
100
AcDbBlockTableRecord
2
DimnDraft3D3
340
0
70
0
0
BLOCK_RECORD
5
101
100
AcDbSymbolTableRecord
100
AcDbBlockTableRecord
2
DimnDraft3D4
340
0
70
0
0
BLOCK_RECORD
5
10B
100
AcDbSymbolTableRecord
100
AcDbBlockTableRecord
2
DimnDraft3D5
340
0
70
0
0
BLOCK_RECORD
5
115
100
AcDbSymbolTableRecord
100
AcDbBlockTableRecord
2
DimnDraft3D6
340
0
70
0
0
BLOCK_RECORD
5
120
100
AcDbSymbolTableRecord
100
AcDbBlockTableRecord
2
DimnDraft3D7
340
0
70
0
0
ENDTAB
0
ENDSEC
0
SECTION
2
BLOCKS
0
BLOCK
5
20
100
AcDbEntity
8
0
100
AcDbBlockBegin
2
*Model_Space
70
0
10
0
20
0
30
0
3
*Model_Space
0
ENDBLK
5
21
100
AcDbEntity
8
0
100
AcDbBlockEnd
0
BLOCK
5
1C
100
AcDbEntity
8
0
100
AcDbBlockBegin
2
*Paper_Space
70
0
10
0
20
0
30
0
3
*Paper_Space
0
ENDBLK
5
1D
100
AcDbEntity
8
0
100
AcDbBlockEnd
0
BLOCK
5
24
100
AcDbEntity
8
0
100
AcDbBlockBegin
2
*Paper_Space0
70
0
10
0
20
0
30
0
3
*Paper_Space0
0
ENDBLK
5
25
100
AcDbEntity
8
0
100
AcDbBlockEnd
0
BLOCK
5
EA
100
AcDbEntity
8
0
100
AcDbBlockBegin
2
DimnDraft3D1
70
0
10
0
20
0
30
0
3
DimnDraft3D1
0
MTEXT
5
E4
100
AcDbEntity
8
SK2
62
256
6
ByLayer
370
13
48
1
60
0
100
AcDbMText
10
30.276375
20
-14.888398
30
0
210
0
220
0
230
1
1
\W0.6110;71,10
40
3.5
41
0
44
1.084337
50
0
71
7
72
5
7
iso_b_vert
0
LINE
5
E5
100
AcDbEntity
8
SK2
62
256
6
ByLayer
370
13
48
1
60
0
100
AcDbLine
10
0
20
-1.5875
30
0
11
0
21
-17.763398
31
0
39
0
210
0
220
0
230
1
0
LINE
5
E6
100
AcDbEntity
8
SK2
62
256
6
ByLayer
370
13
48
1
60
0
100
AcDbLine
10
71.1
20
-7.1375
30
0
11
71.1
21
-17.763398
31
0
39
0
210
0
220
0
230
1
0
LINE
5
E7
100
AcDbEntity
8
SK2
62
256
6
ByLayer
370
13
48
1
60
0
100
AcDbLine
10
0
20
-15.763398
30
0
11
71.1
21
-15.763398
31
0
39
0
210
0
220
0
230
1
0
SOLID
5
E8
100
AcDbEntity
8
SK2
62
256
6
ByLayer
370
13
48
1
60
0
100
AcDbTrace
10
0
20
-15.763398
30
0
11
3.499998
21
-15.302615
31
0
12
3.500002
22
-16.224182
32
0
13
0
23
-15.763398
33
0
39
0
210
0
220
0
230
1
0
SOLID
5
E9
100
AcDbEntity
8
SK2
62
256
6
ByLayer
370
13
48
1
60
0
100
AcDbTrace
10
71.1
20
-15.763398
30
0
11
67.600002
21
-16.224182
31
0
12
67.599998
22
-15.302615
32
0
13
71.1
23
-15.763398
33
0
39
0
210
0
220
0
230
1
0
ENDBLK
5
EB
100
AcDbEntity
8
0
100
AcDbBlockEnd
0
BLOCK
5
F4
100
AcDbEntity
8
0
100
AcDbBlockBegin
2
DimnDraft3D2
70
0
10
0
20
0
30
0
3
DimnDraft3D2
0
MTEXT
5
EE
100
AcDbEntity
8
SK2
62
256
6
ByLayer
370
13
48
1
60
0
100
AcDbMText
10
8.559721
20
-33.817985
30
0
210
0
220
0
230
1
1
\W0.6440;118,00
40
3.5
41
0
44
1.084337
50
0
71
7
72
5
7
iso_b_vert
0
LINE
5
EF
100
AcDbEntity
8
SK2
62
256
6
ByLayer
370
13
48
1
60
0
100
AcDbLine
10
-45
20
-7.5875
30
0
11
-45
21
-36.692985
31
0
39
0
210
0
220
0
230
1
0
LINE
5
F0
100
AcDbEntity
8
SK2
62
256
6
ByLayer
370
13
48
1
60
0
100
AcDbLine
10
73
20
-1.5875
30
0
11
73
21
-36.692985
31
0
39
0
210
0
220
0
230
1
0
LINE
5
F1
100
AcDbEntity
8
SK2
62
256
6
ByLayer
370
13
48
1
60
0
100
AcDbLine
10
-45
20
-34.692985
30
0
11
73
21
-34.692985
31
0
39
0
210
0
220
0
230
1
0
SOLID
5
F2
100
AcDbEntity
8
SK2
62
256
6
ByLayer
370
13
48
1
60
0
100
AcDbTrace
10
-45
20
-34.692985
30
0
11
-41.500002
21
-34.232202
31
0
12
-41.499998
22
-35.153769
32
0
13
-45
23
-34.692985
33
0
39
0
210
0
220
0
230
1
0
SOLID
5
F3
100
AcDbEntity
8
SK2
62
256
6
ByLayer
370
13
48
1
60
0
100
AcDbTrace
10
73
20
-34.692985
30
0
11
69.500002
21
-35.153769
31
0
12
69.499998
22
-34.232202
32
0
13
73
23
-34.692985
33
0
39
0
210
0
220
0
230
1
0
ENDBLK
5
F5
100
AcDbEntity
8
0
100
AcDbBlockEnd
0
BLOCK
5
FE
100
AcDbEntity
8
0
100
AcDbBlockBegin
2
DimnDraft3D3
70
0
10
0
20
0
30
0
3
DimnDraft3D3
0
MTEXT
5
F8
100
AcDbEntity
8
SK2
62
256
6
ByLayer
370
13
48
1
60
0
100
AcDbMText
10
39.667105
20
18.034119
30
0
210
0
220
0
230
1
1
\W0.7581;57,40
40
3.5
41
0
44
1.084337
50
0
71
7
72
5
7
iso_b_vert
0
LINE
5
F9
100
AcDbEntity
8
SK2
62
256
6
ByLayer
370
13
48
1
60
0
100
AcDbLine
10
15.6
20
7.1375
30
0
11
15.6
21
19.159119
31
0
39
0
210
0
220
0
230
1
0
LINE
5
FA
100
AcDbEntity
8
SK2
62
256
6
ByLayer
370
13
48
1
60
0
100
AcDbLine
10
73
20
1.5875
30
0
11
73
21
19.159119
31
0
39
0
210
0
220
0
230
1
0
LINE
5
FB
100
AcDbEntity
8
SK2
62
256
6
ByLayer
370
13
48
1
60
0
100
AcDbLine
10
15.6
20
17.159119
30
0
11
73
21
17.159119
31
0
39
0
210
0
220
0
230
1
0
SOLID
5
FC
100
AcDbEntity
8
SK2
62
256
6
ByLayer
370
13
48
1
60
0
100
AcDbTrace
10
15.6
20
17.159119
30
0
11
19.099998
21
17.619903
31
0
12
19.100002
22
16.698335
32
0
13
15.6
23
17.159119
33
0
39
0
210
0
220
0
230
1
0
SOLID
5
FD
100
AcDbEntity
8
SK2
62
256
6
ByLayer
370
13
48
1
60
0
100
AcDbTrace
10
73
20
17.159119
30
0
11
69.500002
21
16.698335
31
0
12
69.499998
22
17.619903
32
0
13
73
23
17.159119
33
0
39
0
210
0
220
0
230
1
0
ENDBLK
5
FF
100
AcDbEntity
8
0
100
AcDbBlockEnd
0
BLOCK
5
108
100
AcDbEntity
8
0
100
AcDbBlockBegin
2
DimnDraft3D4
70
0
10
0
20
0
30
0
3
DimnDraft3D4
0
MTEXT
5
102
100
AcDbEntity
8
SK2
62
256
6
ByLayer
370
13
48
1
60
0
100
AcDbMText
10
80.278136
20
-17.477503
30
0
210
0
220
0
230
1
1
\W0.6367;1,90
40
3.5
41
0
44
1.084337
50
0
71
7
72
5
7
iso_b_vert
0
LINE
5
103
100
AcDbEntity
8
SK2
62
256
6
ByLayer
370
13
48
1
60
0
100
AcDbLine
10
73
20
-1.5875
30
0
11
73
21
-20.352503
31
0
39
0
210
0
220
0
230
1
0
LINE
5
104
100
AcDbEntity
8
SK2
62
256
6
ByLayer
370
13
48
1
60
0
100
AcDbLine
10
71.1
20
-7.1375
30
0
11
71.1
21
-20.352503
31
0
39
0
210
0
220
0
230
1
0
LINE
5
105
100
AcDbEntity
8
SK2
62
256
6
ByLayer
370
13
48
1
60
0
100
AcDbLine
10
62.35
20
-18.352503
30
0
11
86.559715
21
-18.352503
31
0
39
0
210
0
220
0
230
1
0
SOLID
5
106
100
AcDbEntity
8
SK2
62
256
6
ByLayer
370
13
48
1
60
0
100
AcDbTrace
10
73
20
-18.352503
30
0
11
76.499998
21
-17.891719
31
0
12
76.500002
22
-18.813287
32
0
13
73
23
-18.352503
33
0
39
0
210
0
220
0
230
1
0
SOLID
5
107
100
AcDbEntity
8
SK2
62
256
6
ByLayer
370
13
48
1
60
0
100
AcDbTrace
10
71.1
20
-18.352503
30
0
11
67.600002
21
-18.813287
31
0
12
67.599998
22
-17.891719
32
0
13
71.1
23
-18.352503
33
0
39
0
210
0
220
0
230
1
0
ENDBLK
5
109
100
AcDbEntity
8
0
100
AcDbBlockEnd
0
BLOCK
5
112
100
AcDbEntity
8
0
100
AcDbBlockBegin
2
DimnDraft3D5
70
0
10
0
20
0
30
0
3
DimnDraft3D5
0
MTEXT
5
10C
100
AcDbEntity
8
SK2
62
256
6
ByLayer
370
13
48
1
60
0
100
AcDbMText
10
5.916597
20
-23.468428
30
0
210
0
220
0
230
1
1
\W0.5949;116,10
40
3.5
41
0
44
1.084337
50
0
71
7
72
5
7
iso_b_vert
0
LINE
5
10D
100
AcDbEntity
8
SK2
62
256
6
ByLayer
370
13
48
1
60
0
100
AcDbLine
10
-45
20
-7.5875
30
0
11
-45
21
-26.343428
31
0
39
0
210
0
220
0
230
1
0
LINE
5
10E
100
AcDbEntity
8
SK2
62
256
6
ByLayer
370
13
48
1
60
0
100
AcDbLine
10
71.1
20
-7.1375
30
0
11
71.1
21
-26.343428
31
0
39
0
210
0
220
0
230
1
0
LINE
5
10F
100
AcDbEntity
8
SK2
62
256
6
ByLayer
370
13
48
1
60
0
100
AcDbLine
10
-45
20
-24.343428
30
0
11
71.1
21
-24.343428
31
0
39
0
210
0
220
0
230
1
0
SOLID
5
110
100
AcDbEntity
8
SK2
62
256
6
ByLayer
370
13
48
1
60
0
100
AcDbTrace
10
-45
20
-24.343428
30
0
11
-41.500002
21
-23.882645
31
0
12
-41.499998
22
-24.804212
32
0
13
-45
23
-24.343428
33
0
39
0
210
0
220
0
230
1
0
SOLID
5
111
100
AcDbEntity
8
SK2
62
256
6
ByLayer
370
13
48
1
60
0
100
AcDbTrace
10
71.1
20
-24.343428
30
0
11
67.600002
21
-24.804212
31
0
12
67.599998
22
-23.882645
32
0
13
71.1
23
-24.343428
33
0
39
0
210
0
220
0
230
1
0
ENDBLK
5
113
100
AcDbEntity
8
0
100
AcDbBlockEnd
0
BLOCK
5
11D
100
AcDbEntity
8
0
100
AcDbBlockBegin
2
DimnDraft3D6
70
0
10
0
20
0
30
0
3
DimnDraft3D6
0
MTEXT
5
116
100
AcDbEntity
8
SK2
62
256
6
ByLayer
370
13
48
1
60
0
100
AcDbMText
10
-55.375163
20
25.34918
30
0
210
0
220
0
230
1
1
\W0.6930;12,000
40
3.5
41
0
44
1.084337
50
90
71
7
72
5
7
iso_b_vert
0
MTEXT
5
117
100
AcDbEntity
8
SK2
62
256
6
ByLayer
370
13
48
1
60
0
100
AcDbMText
10
-55.375163
20
20.126524
30
0
210
0
220
0
230
1
1
%%c
40
3.5
41
0
44
1.084337
50
90
71
7
72
5
7
iso_b_vert
0
LINE
5
118
100
AcDbEntity
8
SK2
62
256
6
ByLayer
370
13
48
1
60
0
100
AcDbLine
10
-46.5875
20
-6
30
0
11
-55.625163
21
-6
31
0
39
0
210
0
220
0
230
1
0
LINE
5
119
100
AcDbEntity
8
SK2
62
256
6
ByLayer
370
13
48
1
60
0
100
AcDbLine
10
-46.5875
20
6
30
0
11
-55.625163
21
6
31
0
39
0
210
0
220
0
230
1
0
LINE
5
11A
100
AcDbEntity
8
SK2
62
256
6
ByLayer
370
13
48
1
60
0
100
AcDbLine
10
-53.625163
20
-6
30
0
11
-53.625163
21
36.862338
31
0
39
0
210
0
220
0
230
1
0
SOLID
5
11B
100
AcDbEntity
8
SK2
62
256
6
ByLayer
370
13
48
1
60
0
100
AcDbTrace
10
-53.625163
20
-6
30
0
11
-54.085946
21
-2.500002
31
0
12
-53.164379
22
-2.499998
32
0
13
-53.625163
23
-6
33
0
39
0
210
0
220
0
230
1
0
SOLID
5
11C
100
AcDbEntity
8
SK2
62
256
6
ByLayer
370
13
48
1
60
0
100
AcDbTrace
10
-53.625163
20
6
30
0
11
-53.164379
21
2.500002
31
0
12
-54.085946
22
2.499998
32
0
13
-53.625163
23
6
33
0
39
0
210
0
220
0
230
1
0
ENDBLK
5
11E
100
AcDbEntity
8
0
100
AcDbBlockEnd
0
BLOCK
5
128
100
AcDbEntity
8
0
100
AcDbBlockBegin
2
DimnDraft3D7
70
0
10
0
20
0
30
0
3
DimnDraft3D7
0
MTEXT
5
121
100
AcDbEntity
8
2
62
256
6
ByLayer
370
13
48
1
60
0
100
AcDbMText
10
83.333343
20
23.492266
30
0
210
0
220
0
230
1
1
\W0.5949;11,100
40
3.5
41
0
44
1.084337
50
90
71
7
72
5
7
iso_b_vert
0
MTEXT
5
122
100
AcDbEntity
8
2
62
256
6
ByLayer
370
13
48
1
60
0
100
AcDbMText
10
83.333343
20
18.26961
30
0
210
0
220
0
230
1
1
%%c
40
3.5
41
0
44
1.084337
50
90
71
7
72
5
7
iso_b_vert
0
LINE
5
123
100
AcDbEntity
8
2
62
256
6
ByLayer
370
13
48
1
60
0
100
AcDbLine
10
72.6875
20
-5.55
30
0
11
87.083343
21
-5.55
31
0
39
0
210
0
220
0
230
1
0
LINE
5
124
100
AcDbEntity
8
2
62
256
6
ByLayer
370
13
48
1
60
0
100
AcDbLine
10
72.6875
20
5.55
30
0
11
87.083343
21
5.55
31
0
39
0
210
0
220
0
230
1
0
LINE
5
125
100
AcDbEntity
8
2
62
256
6
ByLayer
370
13
48
1
60
0
100
AcDbLine
10
85.083343
20
-5.55
30
0
11
85.083343
21
33.255424
31
0
39
0
210
0
220
0
230
1
0
SOLID
5
126
100
AcDbEntity
8
2
62
256
6
ByLayer
370
13
48
1
60
0
100
AcDbTrace
10
85.083343
20
-5.55
30
0
11
84.622559
21
-2.050002
31
0
12
85.544126
22
-2.049998
32
0
13
85.083343
23
-5.55
33
0
39
0
210
0
220
0
230
1
0
SOLID
5
127
100
AcDbEntity
8
2
62
256
6
ByLayer
370
13
48
1
60
0
100
AcDbTrace
10
85.083343
20
5.55
30
0
11
85.544126
21
2.050002
31
0
12
84.622559
22
2.049998
32
0
13
85.083343
23
5.55
33
0
39
0
210
0
220
0
230
1
0
ENDBLK
5
129
100
AcDbEntity
8
0
100
AcDbBlockEnd
0
ENDSEC
0
SECTION
2
ENTITIES
0
ARC
5
99
100
AcDbEntity
8
1
62
256
6
ByLayer
370
18
48
1
60
0
100
AcDbCircle
39
0
10
0
20
5.2
30
0
40
0.800000000000004
210
0
220
0
230
1
100
AcDbArc
50
43.82874
51
90
0
ARC
5
9A
100
AcDbEntity
8
1
62
256
6
ByLayer
370
18
48
1
60
0
100
AcDbCircle
39
0
10
0
20
-5.2
30
0
40
0.800000000000004
210
0
220
0
230
1
100
AcDbArc
50
270
51
316.17126
0
ARC
5
9B
100
AcDbEntity
8
1
62
256
6
ByLayer
370
18
48
1
60
0
100
AcDbCircle
39
0
10
-1.154261
20
6.308008
30
0
40
0.799999999999998
210
0
220
0
230
-1
100
AcDbArc
50
269.965623
51
316.17126
0
ARC
5
9C
100
AcDbEntity
8
1
62
256
6
ByLayer
370
18
48
1
60
0
100
AcDbCircle
39
0
10
-1.154261
20
-6.308008
30
0
40
0.799999999999998
210
0
220
0
230
-1
100
AcDbArc
50
43.82874
51
90.034377
0
ELLIPSE
5
9D
100
AcDbEntity
8
1
62
256
6
ByLayer
370
18
48
1
60
0
100
AcDbEllipse
10
71.964552
20
2.665317
30
0
11
0.854565046558952
21
-2.32994291722463
31
0
210
0
220
0
230
-1
40
0.082138
41
-1.56675834090284
42
-0.755280950348179
0
ELLIPSE
5
9E
100
AcDbEntity
8
1
62
256
6
ByLayer
370
18
48
1
60
0
100
AcDbEllipse
10
72.860305
20
0.117896
30
0
11
0.0868803724525591
21
0.290676908858984
31
0
210
0
220
0
230
-1
40
0.467765
41
1.65677716310722
42
2.36053717392196
0
ELLIPSE
5
9F
100
AcDbEntity
8
1
62
256
6
ByLayer
370
18
48
1
60
0
100
AcDbEllipse
10
73.00047
20
-0.001212
30
0
11
2.03508770892902
21
-5.54859831382948
31
0
210
0
220
0
230
-1
40
0.082138
41
-2.98692833607332
42
-2.89239998819405
0
ELLIPSE
5
A0
100
AcDbEntity
8
1
62
256
6
ByLayer
370
13
48
1
60
0
100
AcDbEllipse
10
72.112074
20
2.531025
30
0
11
3.73030426122972
21
-1.91770959803568
31
0
210
0
220
0
230
-1
40
0.482873
41
1.53949524917636
42
1.8394192528054
0
ELLIPSE
5
A1
100
AcDbEntity
8
1
62
256
6
ByLayer
370
13
48
1
60
0
100
AcDbEllipse
10
4.176231
20
-4.351611
30
0
11
-0.0128664044401698
21
0.0991688239154926
31
0
210
0
220
0
230
1
40
0.612671
41
0.705176235870509
42
2.01905167959548
0
ELLIPSE
5
A2
100
AcDbEntity
8
1
62
256
6
ByLayer
370
18
48
1
60
0
100
AcDbEllipse
10
73.022772
20
-0.037455
30
0
11
0.135658546038424
21
0.401200806242647
31
0
210
0
220
0
230
-1
40
0.065863
41
-2.32292776272506
42
-1.63042437195222
0
ELLIPSE
5
A3
100
AcDbEntity
8
1
62
256
6
ByLayer
370
13
48
1
60
0
100
AcDbEllipse
10
4.250196
20
-4.360106
30
0
11
0.0312210891789565
21
0.0950012820465053
31
0
210
0
220
0
230
1
40
0.398117
41
0.687415831723379
42
2.24461676252423
0
ELLIPSE
5
A4
100
AcDbEntity
8
1
62
256
6
ByLayer
370
13
48
1
60
0
100
AcDbEllipse
10
72.281533
20
2.665317
30
0
11
3.77572690252263
21
-1.60837298923922
31
0
210
0
220
0
230
-1
40
0.446859
41
1.59471551970977
42
1.89590183681367
0
ELLIPSE
5
A5
100
AcDbEntity
8
1
62
256
6
ByLayer
370
18
48
1
60
0
100
AcDbEllipse
10
73.022772
20
0.037455
30
0
11
0.135658546034692
21
-0.401200806232675
31
0
210
0
220
0
230
-1
40
0.065863
41
1.6304243719438
42
2.32292776273447
0
ELLIPSE
5
A6
100
AcDbEntity
8
1
62
256
6
ByLayer
370
18
48
1
60
0
100
AcDbEllipse
10
73.00047
20
0.001212
30
0
11
2.0350877184853
21
5.5485983412132
31
0
210
0
220
0
230
-1
40
0.082138
41
2.89239998881195
42
2.98692833645506
0
ELLIPSE
5
A7
100
AcDbEntity
8
1
62
256
6
ByLayer
370
13
48
1
60
0
100
AcDbEllipse
10
71.47272
20
0.804919
30
0
11
0.133113781883896
21
0.268850741253519
31
0
210
0
220
0
230
1
40
0.40558
41
0.884485917130959
42
2.28074931872629
0
ELLIPSE
5
A8
100
AcDbEntity
8
1
62
256
6
ByLayer
370
18
48
1
60
0
100
AcDbEllipse
10
71.964552
20
-2.665317
30
0
11
0.854565046552674
21
2.32994291721013
31
0
210
0
220
0
230
-1
40
0.082138
41
0.755280950348083
42
1.56675834090739
0
POINT
5
6C
100
AcDbEntity
8
81
62
256
6
ByLayer
370
18
48
1
60
0
100
AcDbPoint
10
73
20
0
30
0
39
0
210
0
220
0
230
1
50
360
0
POINT
5
6E
100
AcDbEntity
8
80
62
256
6
ByLayer
370
18
48
1
60
0
100
AcDbPoint
10
0
20
0
30
0
39
0
210
0
220
0
230
1
50
360
0
POINT
5
70
100
AcDbEntity
8
SK2
62
256
6
ByLayer
370
18
48
1
60
1
100
AcDbPoint
10
-45
20
-6
30
0
39
0
210
0
220
0
230
1
50
360
0
POINT
5
72
100
AcDbEntity
8
SK2
62
256
6
ByLayer
370
18
48
1
60
1
100
AcDbPoint
10
-45
20
6
30
0
39
0
210
0
220
0
230
1
50
360
0
POINT
5
73
100
AcDbEntity
8
2
62
256
6
ByLayer
370
18
48
1
60
1
100
AcDbPoint
10
71.1
20
-5.55
30
0
39
0
210
0
220
0
230
1
50
360
0
POINT
5
75
100
AcDbEntity
8
2
62
256
6
ByLayer
370
18
48
1
60
1
100
AcDbPoint
10
71.1
20
5.55
30
0
39
0
210
0
220
0
230
1
50
360
0
SPLINE
5
A9
100
AcDbEntity
8
1
62
256
6
ByLayer
370
18
48
1
60
0
100
AcDbSpline
70
4
71
1
72
4
73
2
40
0
40
0
40
1
40
1
41
1
10
54.8963366242365
20
0.0001307322749255
30
0
41
1
10
54.8963226339648
20
0.0001404307013217
30
0
0
SPLINE
5
AA
100
AcDbEntity
8
1
62
256
6
ByLayer
370
18
48
1
60
0
100
AcDbSpline
70
4
71
3
72
28
73
24
40
0
40
0
40
0
40
0
40
0.0363025703721754
40
0.0673174765123633
40
0.109381088730602
40
0.149806682755629
40
0.192510626056695
40
0.246375494147431
40
0.293478388285777
40
0.343458116400576
40
0.395380140521054
40
0.439136400930084
40
0.489881529493356
40
0.545836564716981
40
0.597580372304678
40
0.659476479820362
40
0.712469058503684
40
0.770409418559939
40
0.832591856458775
40
0.890235678240539
40
0.91562986570743
40
0.953392234869251
40
1
40
1
40
1
40
1
41
1
10
40.0455568976636
20
-5.28444703119564
30
0
41
1
10
40.2155449036823
20
-5.28336805874193
30
0
41
1
10
40.5364560179104
20
-5.28217326805793
30
0
41
1
10
41.0960508384636
20
-5.28175625448816
30
0
41
1
10
41.6447160302275
20
-5.28626992485869
30
0
41
1
10
42.2764503288708
20
-5.2855088666476
30
0
41
1
10
42.9638546034923
20
-5.28669227665279
30
0
41
1
10
43.6859228378155
20
-5.28699255059524
30
0
41
1
10
44.444216638262
20
-5.28681596253529
30
0
41
1
10
45.1927926565957
20
-5.28811114534966
30
0
41
1
10
45.9247410402322
20
-5.287644073564
30
0
41
1
10
46.6597495478746
20
-5.28825687610106
30
0
41
1
10
47.4157723482654
20
-5.28910263067414
30
0
41
1
10
48.2113924754805
20
-5.28844363264855
30
0
41
1
10
49.0635452529807
20
-5.29065980058724
30
0
41
1
10
49.9006733215093
20
-5.28953032059835
30
0
41
1
10
50.7689722915361
20
-5.29053455040724
30
0
41
1
10
51.6387047109329
20
-5.29141716075191
30
0
41
1
10
52.531798721987
20
-5.29095058703118
30
0
41
1
10
53.2613948387759
20
-5.29376653882758
30
0
41
1
10
53.8682535085533
20
-5.29292845489903
30
0
41
1
10
54.4197165538677
20
-5.29238218792463
30
0
41
1
10
54.8435852832142
20
-5.29295000960218
30
0
41
1
10
55.0777407592508
20
-5.29349276223863
30
0
0
SPLINE
5
AB
100
AcDbEntity
8
1
62
256
6
ByLayer
370
18
48
1
60
0
100
AcDbSpline
70
4
71
3
72
12
73
8
40
0
40
0
40
0
40
0
40
0.108034100248981
40
0.348165872661712
40
0.610567783090623
40
0.784803795024623
40
1
40
1
40
1
40
1
41
1
10
26.4957679980424
20
-1.37291695122488
30
0
41
1
10
26.4957058582964
20
-1.37294705376246
30
0
41
1
10
26.5009668272668
20
-1.37561929345839
30
0
41
1
10
26.5430198543563
20
-1.3964246119759
30
0
41
1
10
26.6145691509372
20
-1.43312751140033
30
0
41
1
10
26.6066063605605
20
-1.42940716419281
30
0
41
1
10
26.6581044107647
20
-1.45796698806916
30
0
41
1
10
26.6945632272693
20
-1.47827786000647
30
0
0
SPLINE
5
AC
100
AcDbEntity
8
1
62
256
6
ByLayer
370
18
48
1
60
0
100
AcDbSpline
70
4
71
3
72
29
73
25
40
0
40
0
40
0
40
0
40
0.0242526017210983
40
0.0715587738038132
40
0.115263214382511
40
0.150335861931546
40
0.182376678339779
40
0.215208529960226
40
0.254218478138106
40
0.287480091469214
40
0.311926688077856
40
0.338484307314936
40
0.374468575849624
40
0.407934385227229
40
0.436988565907252
40
0.486207178316275
40
0.539398624637997
40
0.627817698393609
40
0.709831013533649
40
0.794198789759499
40
0.875376506866449
40
0.927063324163692
40
0.972627861271387
40
1
40
1
40
1
40
1
41
1
10
25.4936915861023
20
5.27338870778499
30
0
41
1
10
25.3904805900631
20
5.27269756091695
30
0
41
1
10
25.0869108105338
20
5.2712531681772
30
0
41
1
10
24.601050543465
20
5.27700257387937
30
0
41
1
10
24.0789850828298
20
5.2761792234723
30
0
41
1
10
23.6063020742229
20
5.27571630211418
30
0
41
1
10
23.1802007767008
20
5.27606799643914
30
0
41
1
10
22.7370834085945
20
5.27656812848196
30
0
41
1
10
22.2889935992977
20
5.27568956122113
30
0
41
1
10
21.8758913666807
20
5.27453104714894
30
0
41
1
10
21.519466318979
20
5.27412641237876
30
0
41
1
10
21.1475887122523
20
5.27413684374929
30
0
41
1
10
20.7398453137485
20
5.27534100405697
30
0
41
1
10
20.3201562364928
20
5.27508695304675
30
0
41
1
10
19.8434560736199
20
5.27322585483981
30
0
41
1
10
19.2827684307968
20
5.27295713229989
30
0
41
1
10
18.4688103097502
20
5.27404503849971
30
0
41
1
10
17.5149982954861
20
5.27093811002874
30
0
41
1
10
16.4282038066447
20
5.27261315395654
30
0
41
1
10
15.3722940289296
20
5.26992864979721
30
0
41
1
10
14.4457395371121
20
5.27060766069408
30
0
41
1
10
13.684699462667
20
5.26916101925315
30
0
41
1
10
13.1531375997411
20
5.26893498718127
30
0
41
1
10
12.8420609955664
20
5.2687253414885
30
0
41
1
10
12.725323612977
20
5.2686303008139
30
0
0
SPLINE
5
AD
100
AcDbEntity
8
1
62
256
6
ByLayer
370
18
48
1
60
0
100
AcDbSpline
70
4
71
3
72
31
73
27
40
0
40
0
40
0
40
0
40
0.0045020018907878
40
0.0608803163199737
40
0.105640291485794
40
0.141813596152332
40
0.171219636081941
40
0.217664667507461
40
0.273629272518756
40
0.318757502070457
40
0.353996103095706
40
0.399440500689517
40
0.448524169752113
40
0.487145197816842
40
0.52294880239235
40
0.569436982930483
40
0.621819980482398
40
0.661682268081884
40
0.704950590682947
40
0.759854921996445
40
0.806909628688903
40
0.845786099478717
40
0.896432746757836
40
0.946532351985409
40
0.985659789027849
40
1
40
1
40
1
40
1
41
1
10
55.298044721233
20
5.29212960642701
30
0
41
1
10
55.2792994137307
20
5.29210883374003
30
0
41
1
10
55.0257841710951
20
5.29185037877036
30
0
41
1
10
54.5731290770139
20
5.29024564130267
30
0
41
1
10
54.0120237342978
20
5.29322207658888
30
0
41
1
10
53.5484010439289
20
5.29310139924621
30
0
41
1
10
53.0768981854867
20
5.29352565623083
30
0
41
1
10
52.5222308664156
20
5.29114829048802
30
0
41
1
10
51.9007582084731
20
5.29093797969495
30
0
41
1
10
51.3269976187543
20
5.29143810978871
30
0
41
1
10
50.7979305454281
20
5.29042105634909
30
0
41
1
10
50.2512358527123
20
5.28950273991921
30
0
41
1
10
49.6912026911196
20
5.29005250038142
30
0
41
1
10
49.171082907745
20
5.2903409170236
30
0
41
1
10
48.66192817974
20
5.28950204685967
30
0
41
1
10
48.0949830658155
20
5.28862774592136
30
0
41
1
10
47.5101789110659
20
5.2889729999369
30
0
41
1
10
46.9416777945672
20
5.28864234268497
30
0
41
1
10
46.3598984620398
20
5.28743371106748
30
0
41
1
10
45.7495048717869
20
5.28777054052111
30
0
41
1
10
45.1567866871539
20
5.28794351621158
30
0
41
1
10
44.5815110568751
20
5.2871833682232
30
0
41
1
10
43.9942086560094
20
5.2867466737132
30
0
41
1
10
43.4030084684471
20
5.28707124663217
30
0
41
1
10
42.9725564943641
20
5.28607716693313
30
0
41
1
10
42.747426197289
20
5.28544481565186
30
0
41
1
10
42.6870168707667
20
5.28529390305005
30
0
0
SPLINE
5
AE
100
AcDbEntity
8
1
62
256
6
ByLayer
370
18
48
1
60
0
100
AcDbSpline
70
4
71
3
72
11
73
7
40
0
40
0
40
0
40
0
40
0.089750363742663
40
0.233871691521346
40
0.394148615642483
40
1
40
1
40
1
40
1
41
1
10
56.4545783289631
20
-1.37584433393852
30
0
41
1
10
56.4545795000476
20
-1.37589868647532
30
0
41
1
10
56.4563139259824
20
-1.37693161866329
30
0
41
1
10
56.4694968538839
20
-1.38392281826108
30
0
41
1
10
56.5571049446249
20
-1.4307887058753
30
0
41
1
10
56.6515071266671
20
-1.48316567363355
30
0
41
1
10
56.7499487457367
20
-1.53831373878492
30
0
0
SPLINE
5
AF
100
AcDbEntity
8
1
62
256
6
ByLayer
370
18
48
1
60
0
100
AcDbSpline
70
4
71
3
72
36
73
32
40
0
40
0
40
0
40
0
40
0.0544460857883345
40
0.100176537257104
40
0.137455833543354
40
0.164420886023276
40
0.183050337838032
40
0.208263170841134
40
0.243205522497043
40
0.276455549689632
40
0.302882966253886
40
0.333161957304315
40
0.37227904621811
40
0.411964916113275
40
0.442656670576224
40
0.473064787331725
40
0.512215645647648
40
0.554536165558956
40
0.587756452261789
40
0.625410747005391
40
0.66974203258626
40
0.703819265182547
40
0.74308924013992
40
0.790490485355661
40
0.826351917189533
40
0.854161882408334
40
0.8809079256166
40
0.911910524682241
40
0.949688815620592
40
0.999794442270822
40
1
40
1
40
1
40
1
41
1
10
10.0909586418694
20
-5.26644110614839
30
0
41
1
10
10.3642972545545
20
-5.26648202019379
30
0
41
1
10
10.8672532302811
20
-5.26672823551382
30
0
41
1
10
11.5644579194767
20
-5.26700516651198
30
0
41
1
10
12.1121731197613
20
-5.26822803231144
30
0
41
1
10
12.5301069248366
20
-5.26826324952046
30
0
41
1
10
12.8869549733101
20
-5.26876664287883
30
0
41
1
10
13.2845234340089
20
-5.26897280004471
30
0
41
1
10
13.7560427456696
20
-5.26929667100498
30
0
41
1
10
14.2336407056941
20
-5.27012576141732
30
0
41
1
10
14.6877181156913
20
-5.27044479807105
30
0
41
1
10
15.1714099368393
20
-5.27046485663163
30
0
41
1
10
15.7220308603426
20
-5.27046751812046
30
0
41
1
10
16.2747275676555
20
-5.27192602681549
30
0
41
1
10
16.7834696737032
20
-5.27202126492011
30
0
41
1
10
17.2895103081798
20
-5.27172475702733
30
0
41
1
10
17.8542513825169
20
-5.27178673739715
30
0
41
1
10
18.433181213976
20
-5.27374223652643
30
0
41
1
10
19.0045636702781
20
-5.27327839768631
30
0
41
1
10
19.5860946609157
20
-5.27280257986433
30
0
41
1
10
20.1719507478574
20
-5.27467488956614
30
0
41
1
10
20.7659561484468
20
-5.27545405917772
30
0
41
1
10
21.3754946872279
20
-5.27412119025701
30
0
41
1
10
21.9938778810116
20
-5.2745336555804
30
0
41
1
10
22.5549053246355
20
-5.27658973346169
30
0
41
1
10
23.010066603661
20
-5.27611683779131
30
0
41
1
10
23.4426215708648
20
-5.27570911078848
30
0
41
1
10
23.9226845958557
20
-5.27585510181603
30
0
41
1
10
24.5193837152258
20
-5.27742333737189
30
0
41
1
10
24.9654497010301
20
-5.277002345032
30
0
41
1
10
25.2190645881155
20
-5.2771603701151
30
0
41
1
10
25.2201007902391
20
-5.2771610147839
30
0
0
SPLINE
5
B0
100
AcDbEntity
8
1
62
256
6
ByLayer
370
18
48
1
60
0
100
AcDbSpline
70
4
71
1
72
4
73
2
40
0
40
0
40
1
40
1
41
1
10
54.8963226398702
20
-0.0001404265626945
30
0
41
1
10
54.8963366242014
20
-0.0001307322990272
30
0
0
SPLINE
5
B1
100
AcDbEntity
8
1
62
256
6
ByLayer
370
18
48
1
60
0
100
AcDbSpline
70
4
71
2
72
6
73
3
40
0
40
0
40
0
40
1
40
1
40
1
41
1
10
70.077713821297
20
-5.30251336804116
30
0
41
1
10
70.5733068246736
20
-5.30012099743189
30
0
41
1
10
71.068551388402
20
-5.30496368193218
30
0
0
SPLINE
5
B2
100
AcDbEntity
8
1
62
256
6
ByLayer
370
18
48
1
60
0
100
AcDbSpline
70
4
71
3
72
8
73
4
40
0
40
0
40
0
40
0
40
1
40
1
40
1
40
1
41
1
10
10.1584676785771
20
0.0006961793196751
30
0
41
1
10
10.1909480415555
20
0.0186611997436614
30
0
41
1
10
10.2234515930955
20
0.0366016577162327
30
0
41
1
10
10.2559788797055
20
0.0545164469625092
30
0
0
SPLINE
5
B3
100
AcDbEntity
8
1
62
256
6
ByLayer
370
18
48
1
60
0
100
AcDbSpline
70
4
71
3
72
10
73
6
40
0
40
0
40
0
40
0
40
0.879502290429973
40
0.879502290429973
40
1
40
1
40
1
40
1
41
1
10
71.059882632927
20
5.50690473338355
30
0
41
1
10
70.70948277248
20
5.53210307346248
30
0
41
1
10
70.3590970280342
20
5.54606118311838
30
0
41
1
10
69.9602201309752
20
5.54912746293891
30
0
41
1
10
69.9121489757095
20
5.54928478270952
30
0
41
1
10
69.8640737623538
20
5.54923030420403
30
0
0
SPLINE
5
B4
100
AcDbEntity
8
1
62
256
6
ByLayer
370
18
48
1
60
0
100
AcDbSpline
70
4
71
3
72
52
73
48
40
0
40
0
40
0
40
0
40
0.0284937965878773
40
0.0284937965878773
40
0.044465684686493
40
0.044465684686493
40
0.0604375727851086
40
0.0604375727851086
40
0.0923813489823408
40
0.0923813489823408
40
0.156268901376806
40
0.156268901376806
40
0.220156453771272
40
0.220156453771272
40
0.252100229968504
40
0.252100229968504
40
0.284044006165737
40
0.284044006165737
40
0.411819110954667
40
0.411819110954667
40
0.443762887151899
40
0.443762887151899
40
0.459734775250516
40
0.459734775250516
40
0.475706663349132
40
0.475706663349132
40
0.539594215743596
40
0.539594215743596
40
0.60348176813806
40
0.60348176813806
40
0.635425544335292
40
0.635425544335292
40
0.667369320532524
40
0.667369320532524
40
0.795144425321454
40
0.795144425321454
40
0.827088201518686
40
0.827088201518686
40
0.843060089617302
40
0.843060089617302
40
0.859031977715917
40
0.859031977715917
40
0.922919530110382
40
0.922919530110382
40
0.986807082504847
40
0.986807082504847
40
1
40
1
40
1
40
1
41
1
10
42.6911998957927
20
-5.30110460399837
30
0
41
1
10
42.3813850229731
20
-5.3524183428294
30
0
41
1
10
42.0710220100356
20
-5.39542318700026
30
0
41
1
10
41.5852707142911
20
-5.4491545844773
30
0
41
1
10
41.4105052630492
20
-5.46575859753665
30
0
41
1
10
41.0602520830333
20
-5.4934713668936
30
0
41
1
10
40.8845042708846
20
-5.5045908137773
30
0
41
1
10
40.3580466062214
20
-5.52947453361443
30
0
41
1
10
40.0086167463582
20
-5.53478349552105
30
0
41
1
10
38.9634035445769
20
-5.51753157539758
30
0
41
1
10
38.2705875609223
20
-5.46180275437644
30
0
41
1
10
36.8848384760284
20
-5.26534241826857
30
0
41
1
10
36.1918210814905
20
-5.12465454210039
30
0
41
1
10
35.1460892249404
20
-4.85245500489631
30
0
41
1
10
34.7964150120731
20
-4.75157612947342
30
0
41
1
10
34.0938951237247
20
-4.52992838527291
30
0
41
1
10
33.7435658274784
20
-4.40986575683559
30
0
41
1
10
31.9991406689418
20
-3.76946672041547
30
0
41
1
10
30.6212802596793
20
-3.12650111671499
30
0
41
1
10
28.8801082444867
20
-2.21686123011304
30
0
41
1
10
28.5309053994523
20
-2.02967794763347
30
0
41
1
10
28.0048443816748
20
-1.74216441815258
30
0
41
1
10
27.828899892788
20
-1.64506832965813
30
0
41
1
10
27.4781315409806
20
-1.44991301046136
30
0
41
1
10
27.3031242193156
20
-1.35175540832535
30
0
41
1
10
26.4296367252926
20
-0.858657605003231
30
0
41
1
10
25.735633902282
20
-0.457088828778296
30
0
41
1
10
24.3491607245898
20
0.346084342262145
30
0
41
1
10
23.6566022482367
20
0.747533313372656
30
0
41
1
10
22.6127553015767
20
1.33889903121997
30
0
41
1
10
22.2639643215398
20
1.53420706138607
30
0
41
1
10
21.5636059800234
20
1.9192745515314
30
0
41
1
10
21.2113684205848
20
2.10937483779173
30
0
41
1
10
19.4613855759031
20
3.03039209010089
30
0
41
1
10
18.0826735209025
20
3.68152965647795
30
0
41
1
10
16.3440881760412
20
4.33253949504157
30
0
41
1
10
15.9956518379167
20
4.45464973343991
30
0
41
1
10
15.4711258890936
20
4.62461334166579
30
0
41
1
10
15.295966951251
20
4.67906221177259
30
0
41
1
10
14.9448653698854
20
4.78335653911307
30
0
41
1
10
14.7689284495938
20
4.83318752798613
30
0
41
1
10
13.8923604161456
20
5.0690309102537
30
0
41
1
10
13.1970060248238
20
5.21662723576904
30
0
41
1
10
11.8090963907809
20
5.42649790379687
30
0
41
1
10
11.116679292595
20
5.48887121625876
30
0
41
1
10
10.2781583242132
20
5.51125308014807
30
0
41
1
10
10.1345346122704
20
5.51321593539689
30
0
41
1
10
9.99076957049061
20
5.51329859449504
30
0
0
SPLINE
5
B5
100
AcDbEntity
8
1
62
256
6
ByLayer
370
18
48
1
60
0
100
AcDbSpline
70
4
71
3
72
20
73
16
40
0
40
0
40
0
40
0
40
0.648337345924885
40
0.648337345924885
40
0.721477741048567
40
0.721477741048567
40
0.79461813617225
40
0.79461813617225
40
0.831188333734092
40
0.831188333734092
40
0.867758531295934
40
0.867758531295934
40
0.940898926419598
40
0.940898926419598
40
1
40
1
40
1
40
1
41
1
10
4.29746654913075
20
-5.50985202726048
30
0
41
1
10
4.06052757995659
20
-5.50963711963516
30
0
41
1
10
3.82325377992166
20
-5.50935245342163
30
0
41
1
10
3.55887076093393
20
-5.50908786917103
30
0
41
1
10
3.53206727255892
20
-5.50905387672216
30
0
41
1
10
3.478467764448
20
-5.50902117491935
30
0
41
1
10
3.4510212957745
20
-5.50904297445348
30
0
41
1
10
3.41269059930446
20
-5.50912528249978
30
0
41
1
10
3.40041331837219
20
-5.50916030466254
30
0
41
1
10
3.37729796839412
20
-5.50923481930892
30
0
41
1
10
3.36635593296086
20
-5.50927001667498
30
0
41
1
10
3.33289903508427
20
-5.50932700547392
30
0
41
1
10
3.31068062966301
20
-5.50931575454712
30
0
41
1
10
3.27067171117949
20
-5.50919922969612
30
0
41
1
10
3.25286787662247
20
-5.50911274668644
30
0
41
1
10
3.2351440297729
20
-5.5089895530835
30
0
0
SPLINE
5
B6
100
AcDbEntity
8
1
62
256
6
ByLayer
370
18
48
1
60
0
100
AcDbSpline
70
4
71
3
72
20
73
16
40
0
40
0
40
0
40
0
40
0.124999999999997
40
0.124999999999997
40
0.249999999999993
40
0.249999999999993
40
0.499999999999992
40
0.499999999999992
40
0.624999999999994
40
0.624999999999994
40
0.749999999999996
40
0.749999999999996
40
0.874999999999998
40
0.874999999999998
40
1
40
1
40
1
40
1
41
1
10
72.1593790783122
20
2.72610117719742
30
0
41
1
10
72.1172726127826
20
2.83944340257881
30
0
41
1
10
72.0751030759167
20
2.95269346887622
30
0
41
1
10
71.9906031611041
20
3.1789585824026
30
0
41
1
10
71.9482876158384
20
3.29194323395768
30
0
41
1
10
71.8213471766265
20
3.63080549651738
30
0
41
1
10
71.7366545451871
20
3.85647944282618
30
0
41
1
10
71.6092944510506
20
4.19384494431341
30
0
41
1
10
71.5667594214631
20
4.306074243648
30
0
41
1
10
71.4816260517051
20
4.52994598696827
30
0
41
1
10
71.4390549736023
20
4.64180200301885
30
0
41
1
10
71.3538859311183
20
4.86502532335669
30
0
41
1
10
71.3112882532605
20
4.97639783577884
30
0
41
1
10
71.2260233338917
20
5.19787840241017
30
0
41
1
10
71.1833377245716
20
5.30765258503584
30
0
41
1
10
71.1406410238459
20
5.41722515923161
30
0
0
SPLINE
5
B7
100
AcDbEntity
8
1
62
256
6
ByLayer
370
18
48
1
60
0
100
AcDbSpline
70
4
71
3
72
83
73
79
40
0
40
0
40
0
40
0
40
0.0387927989834733
40
0.0387927989834733
40
0.0738172433778674
40
0.0738172433778674
40
0.108841687772261
40
0.108841687772261
40
0.17889057656105
40
0.17889057656105
40
0.248939465349837
40
0.248939465349837
40
0.283963909744232
40
0.283963909744232
40
0.318988354138626
40
0.318988354138626
40
0.389037242927414
40
0.389037242927414
40
0.424061687321808
40
0.424061687321808
40
0.459086131716202
40
0.459086131716202
40
0.459222945952117
40
0.459222945952117
40
0.459359760188033
40
0.459359760188033
40
0.459633388659864
40
0.459633388659864
40
0.460180645603527
40
0.460180645603527
40
0.461275159490851
40
0.461275159490851
40
0.463464187265501
40
0.463464187265501
40
0.4678422428148
40
0.4678422428148
40
0.476598353913397
40
0.476598353913397
40
0.494110576110592
40
0.494110576110592
40
0.529135020504982
40
0.529135020504982
40
0.599183909293762
40
0.599183909293762
40
0.669232798082542
40
0.669232798082542
40
0.704257242476932
40
0.704257242476932
40
0.71301335357553
40
0.71301335357553
40
0.717391409124828
40
0.717391409124828
40
0.718485923012153
40
0.718485923012153
40
0.719033179955815
40
0.719033179955815
40
0.719306808427647
40
0.719306808427647
40
0.719580436899478
40
0.719580436899478
40
0.721769464674127
40
0.739281686871322
40
0.739281686871322
40
0.774306131265711
40
0.774306131265711
40
0.8093305756601
40
0.8093305756601
40
0.844355020054489
40
0.844355020054489
40
0.879379464448878
40
0.879379464448878
40
0.914403908843267
40
0.914403908843267
40
0.931916131040461
40
0.931916131040461
40
0.949428353237656
40
0.949428353237656
40
1
40
1
40
1
40
1
41
1
10
16.7696990689384
20
3.84009052580021
30
0
41
1
10
16.5846036270946
20
3.86185535057294
30
0
41
1
10
16.3995870390308
20
3.87696772750988
30
0
41
1
10
16.047271225751
20
3.89103522816788
30
0
41
1
10
15.8799780065415
20
3.89140920358139
30
0
41
1
10
15.5445467356214
20
3.87801591545889
30
0
41
1
10
15.3757735866626
20
3.86415642341799
30
0
41
1
10
14.8715110668168
20
3.79990580870378
30
0
41
1
10
14.5416737178082
20
3.72732605671104
30
0
41
1
10
13.8873601132967
20
3.52651780751552
30
0
41
1
10
13.5628257917132
20
3.39839160369647
30
0
41
1
10
13.0732740418077
20
3.17093346938088
30
0
41
1
10
12.909547249797
20
3.08921993964066
30
0
41
1
10
12.5803221428616
20
2.91550535542819
30
0
41
1
10
12.4168526759859
20
2.82459583212025
30
0
41
1
10
11.9280641230503
20
2.54247990077835
30
0
41
1
10
11.604315881311
20
2.34196864263905
30
0
41
1
10
11.115804965908
20
2.0318101093645
30
0
41
1
10
10.9525007657257
20
1.92683572811404
30
0
41
1
10
10.6240598993997
20
1.71505544844774
30
0
41
1
10
10.4589104858204
20
1.60824155728355
30
0
41
1
10
10.2932323285169
20
1.50168121519343
30
0
41
1
10
10.2926406405882
20
1.50106651204956
30
0
41
1
10
10.2927938424322
20
1.49958873433963
30
0
41
1
10
10.2931492501131
20
1.49891843566826
30
0
41
1
10
10.2942892858011
20
1.49702680373164
30
0
41
1
10
10.2952387682303
20
1.49591631503432
30
0
41
1
10
10.2981922825546
20
1.49266840180215
30
0
41
1
10
10.3003497046125
20
1.49066778050422
30
0
41
1
10
10.306918175517
20
1.48483069025991
30
0
41
1
10
10.3114960925493
20
1.48116240205579
30
0
41
1
10
10.3253988748205
20
1.47034767207134
30
0
41
1
10
10.3349051434635
20
1.46344621016286
30
0
41
1
10
10.3636248372899
20
1.44303117532723
30
0
41
1
10
10.383085733237
20
1.4298472222267
30
0
41
1
10
10.4417634966467
20
1.39070453713569
30
0
41
1
10
10.4812924524201
20
1.36523339598045
30
0
41
1
10
10.6002739334519
20
1.28945998152196
30
0
41
1
10
10.6801782582094
20
1.23988007359557
30
0
41
1
10
10.9204703153732
20
1.09222979414363
30
0
41
1
10
11.0814720103868
20
0.995387108078035
30
0
41
1
10
11.5653103737877
20
0.70715408640757
30
0
41
1
10
11.888848752644
20
0.517918448322774
30
0
41
1
10
12.535738857382
20
0.142779594473211
30
0
41
1
10
12.8594403756543
20
-0.0426992824407648
30
0
41
1
10
13.3422039949821
20
-0.321308492855167
30
0
41
1
10
13.502992304103
20
-0.413964906430095
30
0
41
1
10
13.7014112569535
20
-0.531370888324631
30
0
41
1
10
13.7409719476466
20
-0.55492012619672
30
0
41
1
10
13.7994788358851
20
-0.590833212270212
30
0
41
1
10
13.8189449228637
20
-0.602847053287718
30
0
41
1
10
13.8422780667418
20
-0.618478233539179
30
0
41
1
10
13.8468944476609
20
-0.6216316032245
30
0
41
1
10
13.8534947391051
20
-0.626538827074427
30
0
41
1
10
13.8556733522502
20
-0.628200219620766
30
0
41
1
10
13.858512206059
20
-0.630838000298979
30
0
41
1
10
13.859604189277
20
-0.631786488111231
30
0
41
1
10
13.8599059441995
20
-0.6336474330935
30
0
41
1
10
13.8580395275953
20
-0.633743842430903
30
0
41
1
10
13.8477983385216
20
-0.636975495428885
30
0
41
1
10
13.765876902181
20
-0.66254608471786
30
0
41
1
10
13.6840526719106
20
-0.68555273951236
30
0
41
1
10
13.4660376135658
20
-0.740619633438172
30
0
41
1
10
13.3208699363734
20
-0.768936336958234
30
0
41
1
10
13.0318419907784
20
-0.807743654164653
30
0
41
1
10
12.8876541806142
20
-0.818329968431243
30
0
41
1
10
12.5979249313057
20
-0.821253284823399
30
0
41
1
10
12.4523893038494
20
-0.813588528867683
30
0
41
1
10
12.157493006366
20
-0.779106896255314
30
0
41
1
10
12.0095636884021
20
-0.752412361029059
30
0
41
1
10
11.7119365525892
20
-0.68087816160434
30
0
41
1
10
11.561971464574
20
-0.636002950299769
30
0
41
1
10
11.3333746555567
20
-0.555578362367072
30
0
41
1
10
11.2565669653459
20
-0.526586682996907
30
0
41
1
10
11.1014174366624
20
-0.464356885677006
30
0
41
1
10
11.022818924252
20
-0.431000853356494
30
0
41
1
10
10.7167043279727
20
-0.294725919029418
30
0
41
1
10
10.4879001984045
20
-0.179560640686844
30
0
41
1
10
10.2559324489889
20
-0.0545477458400114
30
0
0
SPLINE
5
B8
100
AcDbEntity
8
1
62
256
6
ByLayer
370
18
48
1
60
0
100
AcDbSpline
70
4
71
3
72
14
73
10
40
0
40
0
40
0
40
0
40
0.25
40
0.25
40
0.5
40
0.5
40
0.75
40
0.75
40
1
40
1
40
1
40
1
41
1
10
4.25139951591643
20
3.46729918173139
30
0
41
1
10
4.22337241761048
20
3.48470947898832
30
0
41
1
10
4.193352445372
20
3.50328720137165
30
0
41
1
10
4.13170829715813
20
3.54108208089156
30
0
41
1
10
4.10036760424831
20
3.56009220878684
30
0
41
1
10
4.04831819515732
20
3.59160535993871
30
0
41
1
10
4.02943170829917
20
3.60306892030408
30
0
41
1
10
4.00570342047834
20
3.61811309877334
30
0
41
1
10
4.00054788073473
20
3.62186296885645
30
0
41
1
10
4.0000402761234
20
3.62310756107121
30
0
0
SPLINE
5
B9
100
AcDbEntity
8
1
62
256
6
ByLayer
370
18
48
1
60
0
100
AcDbSpline
70
4
71
3
72
16
73
12
40
0
40
0
40
0
40
0
40
0.0473409392103187
40
0.0473409392103187
40
0.379682979202817
40
0.379682979202817
40
0.712025019195316
40
0.712025019195316
40
0.878196039191563
40
0.878196039191563
40
1
40
1
40
1
40
1
41
1
10
40.1113574615552
20
-5.28447763854749
30
0
41
1
10
40.0113735898728
20
-5.28434167318363
30
0
41
1
10
39.9114210722752
20
-5.28333430503776
30
0
41
1
10
39.1105089580738
20
-5.26824438758081
30
0
41
1
10
38.4107724266754
20
-5.21221366394272
30
0
41
1
10
37.0061774624514
20
-5.01611411468292
30
0
41
1
10
36.3054931336771
20
-4.87668908037796
30
0
41
1
10
35.2522452055736
20
-4.60955182082699
30
0
41
1
10
34.9016954125091
20
-4.51105402200039
30
0
41
1
10
34.2968622083037
20
-4.32588745304235
30
0
41
1
10
34.0416556095264
20
-4.24298949516515
30
0
41
1
10
33.7868488485406
20
-4.15577806749289
30
0
0
SPLINE
5
BA
100
AcDbEntity
8
1
62
256
6
ByLayer
370
13
48
1
60
0
100
AcDbSpline
70
4
71
3
72
26
73
22
40
0
40
0
40
0
40
0
40
0.0211566126925316
40
0.0211566126925316
40
0.338113922493428
40
0.338113922493428
40
0.417353249943654
40
0.417353249943654
40
0.49659257739388
40
0.49659257739388
40
0.655071232294335
40
0.655071232294335
40
0.813549887194789
40
0.813549887194789
40
0.853169550919903
40
0.853169550919903
40
0.892789214645017
40
0.892789214645017
40
0.972028542095247
40
0.972028542095247
40
1
40
1
40
1
40
1
41
1
10
33.7868488469406
20
-4.15577806694523
30
0
41
1
10
33.6940355549422
20
-4.12401132860376
30
0
41
1
10
33.6012753125665
20
-4.0916722883191
30
0
41
1
10
32.1195089421958
20
-3.56590518188659
30
0
41
1
10
30.7401014248862
20
-2.94750819263143
30
0
41
1
10
28.9899059415022
20
-2.06990204091019
30
0
41
1
10
28.6379919248948
20
-1.88895123962044
30
0
41
1
10
27.9384928423212
20
-1.52250716304613
30
0
41
1
10
27.5900266228908
20
-1.33646540306845
30
0
41
1
10
26.5469548132249
20
-0.772687958769581
30
0
41
1
10
25.8545008354622
20
-0.389621049933425
30
0
41
1
10
24.4682079129712
20
0.377621314198279
30
0
41
1
10
23.7742322033252
20
0.761538073793901
30
0
41
1
10
22.9010340841759
20
1.23316307127556
30
0
41
1
10
22.7261043793617
20
1.32706777244573
30
0
41
1
10
22.3755281391491
20
1.51378279592342
30
0
41
1
10
22.1996664945111
20
1.60670561235756
30
0
41
1
10
21.6736583904721
20
1.88206422432393
30
0
41
1
10
21.3244208409387
20
2.06144287285071
30
0
41
1
10
20.8531219645739
20
2.29736671137149
30
0
41
1
10
20.7302751152435
20
2.35830245531869
30
0
41
1
10
20.6075227523162
20
2.4185897605042
30
0
0
SPLINE
5
BB
100
AcDbEntity
8
1
62
256
6
ByLayer
370
13
48
1
60
0
100
AcDbSpline
70
4
71
3
72
8
73
4
40
0
40
0
40
0
40
0
40
1
40
1
40
1
40
1
41
1
10
4.12482048806828
20
-4.50571487012388
30
0
41
1
10
4.12555784774631
20
-4.47104489935177
30
0
41
1
10
4.1263017216144
20
-4.43637135281486
30
0
41
1
10
4.12705214396323
20
-4.40169409174001
30
0
0
SPLINE
5
BC
100
AcDbEntity
8
1
62
256
6
ByLayer
370
18
48
1
60
0
100
AcDbSpline
70
4
71
3
72
20
73
16
40
0
40
0
40
0
40
0
40
0.124999999999997
40
0.124999999999997
40
0.249999999999993
40
0.249999999999993
40
0.499999999999992
40
0.499999999999992
40
0.624999999999994
40
0.624999999999994
40
0.749999999999996
40
0.749999999999996
40
0.874999999999998
40
0.874999999999998
40
1
40
1
40
1
40
1
41
1
10
72.1593790783122
20
-2.72610117719742
30
0
41
1
10
72.1172726127826
20
-2.83944340257881
30
0
41
1
10
72.0751030759167
20
-2.95269346887625
30
0
41
1
10
71.9906031611042
20
-3.17895858240263
30
0
41
1
10
71.9482876158384
20
-3.29194323395768
30
0
41
1
10
71.8213471766265
20
-3.63080549651741
30
0
41
1
10
71.7366545451872
20
-3.85647944282621
30
0
41
1
10
71.6092944510506
20
-4.19384494431344
30
0
41
1
10
71.566759421463
20
-4.30607424364803
30
0
41
1
10
71.4816260517051
20
-4.52994598696833
30
0
41
1
10
71.4390549736023
20
-4.64180200301888
30
0
41
1
10
71.3538859311183
20
-4.86502532335669
30
0
41
1
10
71.3112882532605
20
-4.97639783577887
30
0
41
1
10
71.2260233338917
20
-5.19787840241017
30
0
41
1
10
71.1833377245717
20
-5.30765258503584
30
0
41
1
10
71.140641023846
20
-5.41722515923161
30
0
0
SPLINE
5
BD
100
AcDbEntity
8
1
62
256
6
ByLayer
370
18
48
1
60
0
100
AcDbSpline
70
4
71
3
72
8
73
4
40
0
40
0
40
0
40
0
40
1
40
1
40
1
40
1
41
1
10
71.0598826329269
20
-5.50690473338355
30
0
41
1
10
71.0785705570452
20
-5.45676312799716
30
0
41
1
10
71.0972424453652
20
-5.40658783177403
30
0
41
1
10
71.11589829128
20
-5.35637883083317
30
0
0
SPLINE
5
BE
100
AcDbEntity
8
1
62
256
6
ByLayer
370
18
48
1
60
0
100
AcDbSpline
70
4
71
3
72
92
73
88
40
0
40
0
40
0
40
0
40
0.0053685995297192
40
0.0053685995297192
40
0.0282147507372552
40
0.0282147507372552
40
0.0510609019447911
40
0.0510609019447911
40
0.073907053152327
40
0.073907053152327
40
0.096753204359863
40
0.096753204359863
40
0.119599355567399
40
0.119599355567399
40
0.142445506774935
40
0.142445506774935
40
0.165291657982471
40
0.165291657982471
40
0.188137809190007
40
0.188137809190007
40
0.233830111605079
40
0.233830111605079
40
0.256676262812615
40
0.256676262812615
40
0.27952241402015
40
0.27952241402015
40
0.302368565227686
40
0.302368565227686
40
0.325214716435222
40
0.325214716435222
40
0.348060867642758
40
0.348060867642758
40
0.370907018850294
40
0.370907018850294
40
0.416599321265366
40
0.416599321265366
40
0.439445472472902
40
0.439445472472902
40
0.462291623680439
40
0.462291623680439
40
0.485137774887975
40
0.485137774887975
40
0.507983926095512
40
0.507983926095512
40
0.530830077303048
40
0.530830077303048
40
0.553676228510585
40
0.553676228510585
40
0.576522379718121
40
0.576522379718121
40
0.599368530925657
40
0.599368530925657
40
0.622214682133194
40
0.622214682133194
40
0.64506083334073
40
0.64506083334073
40
0.667906984548267
40
0.667906984548267
40
0.690753135755803
40
0.690753135755803
40
0.71359928696334
40
0.71359928696334
40
0.736445438170876
40
0.736445438170876
40
0.759291589378412
40
0.759291589378412
40
0.782137740585949
40
0.782137740585949
40
0.804983891793485
40
0.804983891793485
40
0.827830043001022
40
0.827830043001022
40
0.850676194208558
40
0.850676194208558
40
0.873522345416094
40
0.873522345416094
40
0.896368496623631
40
0.896368496623631
40
0.919214647831167
40
0.919214647831167
40
0.942060799038704
40
0.942060799038704
40
0.96490695024624
40
0.96490695024624
40
0.987753101453776
40
0.987753101453776
40
1
40
1
40
1
40
1
41
1
10
31.8686808700927
20
4.01569336735795
30
0
41
1
10
31.9351802499134
20
4.04227632473894
30
0
41
1
10
32.0016681131269
20
4.06860465535888
30
0
41
1
10
32.3510222326073
20
4.20564918164294
30
0
41
1
10
32.6349837767306
20
4.3109480967824
30
0
41
1
10
33.2025862973215
20
4.5088494171938
30
0
41
1
10
33.4861174289061
20
4.60170477616717
30
0
41
1
10
34.0521905889769
20
4.77565965702178
30
0
41
1
10
34.3342961678873
20
4.85707592324894
30
0
41
1
10
34.8999610102821
20
5.00587873880028
30
0
41
1
10
35.1834519508965
20
5.07340769033729
30
0
41
1
10
35.7511059707983
20
5.19528209513675
30
0
41
1
10
36.035353442532
20
5.24959606907839
30
0
41
1
10
36.6013152649854
20
5.34444597099557
30
0
41
1
10
36.8838176062919
20
5.38477763328294
30
0
41
1
10
37.449986740728
20
5.45065550618102
30
0
41
1
10
37.7332464089041
20
5.47640746378002
30
0
41
1
10
38.2996506698747
20
5.51362229128424
30
0
41
1
10
38.5824617423537
20
5.52508875226079
30
0
41
1
10
39.4326884047428
20
5.53718974710046
30
0
41
1
10
40.0004341585189
20
5.5159679400175
30
0
41
1
10
40.8485510534015
20
5.44054363730177
30
0
41
1
10
41.1306964569426
20
5.40793641207486
30
0
41
1
10
41.6972114126536
20
5.32900313800775
30
0
41
1
10
41.9813791657991
20
5.2825134560002
30
0
41
1
10
42.5490997053974
20
5.1755550024908
30
0
41
1
10
42.83216572066
20
5.11507292666295
30
0
41
1
10
43.3971318542144
20
4.98016830460691
30
0
41
1
10
43.6800102720557
20
4.90645740214563
30
0
41
1
10
44.2462895548259
20
4.74663065721796
30
0
41
1
10
44.5296266382106
20
4.66046468306229
30
0
41
1
10
45.0962557584423
20
4.47504040639708
30
0
41
1
10
45.3794610903911
20
4.37519895979506
30
0
41
1
10
46.2294154812215
20
4.06156811836686
30
0
41
1
10
46.7961606708373
20
3.83254723590019
30
0
41
1
10
47.643606607199
20
3.45543087357973
30
0
41
1
10
47.9264314234097
20
3.32508540096697
30
0
41
1
10
48.4939397250205
20
3.05686808349711
30
0
41
1
10
48.7781472938091
20
2.91869356886099
30
0
41
1
10
49.3446466254564
20
2.63469591088423
30
0
41
1
10
49.6268465304135
20
2.48805066489956
30
0
41
1
10
50.191965282083
20
2.18975634675132
30
0
41
1
10
50.4750749208287
20
2.03844437949709
30
0
41
1
10
51.0416786428709
20
1.73043069068183
30
0
41
1
10
51.3252589385249
20
1.57375087322876
30
0
41
1
10
51.8922112907483
20
1.25433117782924
30
0
41
1
10
52.1747963044007
20
1.09239089919259
30
0
41
1
10
52.741007736871
20
0.768880134049994
30
0
41
1
10
53.0241600387459
20
0.606507920149483
30
0
41
1
10
53.5900854566528
20
0.279724305144299
30
0
41
1
10
53.8726261999352
20
0.11490863383969
30
0
41
1
10
54.4380302140816
20
-0.215586223430108
30
0
41
1
10
54.7220833899421
20
-0.379996113266003
30
0
41
1
10
55.2895291737448
20
-0.706802469702808
30
0
41
1
10
55.5728744073102
20
-0.869147976921482
30
0
41
1
10
56.1383632420413
20
-1.1924711852289
30
0
41
1
10
56.4202434745242
20
-1.35387286008432
30
0
41
1
10
56.9858850421498
20
-1.6700902439496
30
0
41
1
10
57.2692112422957
20
-1.82565567264709
30
0
41
1
10
57.8363599061211
20
-2.1325530589175
30
0
41
1
10
58.1202891035697
20
-2.28404122912656
30
0
41
1
10
58.6857046862059
20
-2.58145500809121
30
0
41
1
10
58.9684657702925
20
-2.72607878425623
30
0
41
1
10
59.5344477151476
20
-3.00684029613672
30
0
41
1
10
59.817505585171
20
-3.14322954562664
30
0
41
1
10
60.3833074789222
20
-3.40860455943778
30
0
41
1
10
60.665618037743
20
-3.53814245267145
30
0
41
1
10
61.2324279206879
20
-3.78625190221979
30
0
41
1
10
61.5162950515708
20
-3.9047648743387
30
0
41
1
10
62.0828345466212
20
-4.13108102067113
30
0
41
1
10
62.3657634740286
20
-4.23895048947756
30
0
41
1
10
62.9304684057649
20
-4.44445099995176
30
0
41
1
10
63.2127109823335
20
-4.54152971051781
30
0
41
1
10
63.7790264585329
20
-4.72241809641503
30
0
41
1
10
64.06293426847
20
-4.80672491418912
30
0
41
1
10
64.6302543245098
20
-4.9629307214696
30
0
41
1
10
64.9128085685437
20
-5.03492281307371
30
0
41
1
10
65.4777364525089
20
-5.16503632706409
30
0
41
1
10
65.7606604165156
20
-5.22285308148611
30
0
41
1
10
66.3266285527662
20
-5.32478803691981
30
0
41
1
10
66.6097123504757
20
-5.36887669376424
30
0
41
1
10
67.1756356856154
20
-5.44323471748208
30
0
41
1
10
67.4586935385009
20
-5.473456888182
30
0
41
1
10
68.0254850849311
20
-5.51872463940472
30
0
41
1
10
68.3088855904758
20
-5.53402056559477
30
0
41
1
10
68.7438422143045
20
-5.54639174569533
30
0
41
1
10
68.895528762512
20
-5.54862438519865
30
0
41
1
10
69.047143715871
20
-5.54874412258772
30
0
0
SPLINE
5
BF
100
AcDbEntity
8
1
62
256
6
ByLayer
370
18
48
1
60
0
100
AcDbSpline
70
4
71
3
72
34
73
30
40
0
40
0
40
0
40
0
40
0.0624999999999999
40
0.0624999999999999
40
0.125
40
0.1875
40
0.1875
40
0.21875
40
0.21875
40
0.25
40
0.25
40
0.375
40
0.375
40
0.437499999999999
40
0.437499999999999
40
0.499999999999999
40
0.499999999999999
40
0.624999999999999
40
0.624999999999999
40
0.687499999999999
40
0.687499999999999
40
0.749999999999999
40
0.812499999999999
40
0.812499999999999
40
0.843749999999999
40
0.843749999999999
40
0.875
40
0.875
40
1
40
1
40
1
40
1
41
1
10
4.00002229605508
20
-4.37888241085986
30
0
41
1
10
4.00002284909266
20
-4.26392757949881
30
0
41
1
10
4.00002338211942
20
-4.14090151902349
30
0
41
1
10
4.00002439793337
20
-3.88302971780058
30
0
41
1
10
4.00002536728795
20
-3.61266473403288
30
0
41
1
10
4.00002626278302
20
-3.31778577875403
30
0
41
1
10
4.0000269142854
20
-3.08732170034205
30
0
41
1
10
4.00002712810453
20
-3.00894655666463
30
0
41
1
10
4.00002755037568
20
-2.84903245917164
30
0
41
1
10
4.00002775930648
20
-2.7672909995164
30
0
41
1
10
4.00002878303596
20
-2.35497759157917
30
0
41
1
10
4.00002954306814
20
-2.01126708906443
30
0
41
1
10
4.00003066442486
20
-1.47544239105602
30
0
41
1
10
4.00003103490116
20
-1.293431456543
30
0
41
1
10
4.00003177882138
20
-0.922366354797106
30
0
41
1
10
4.00003214731603
20
-0.735804159170669
30
0
41
1
10
4.00003324732057
20
-0.176409204872556
30
0
41
1
10
4.00003397772991
20
0.197564568395848
30
0
41
1
10
4.00003508781799
20
0.760119696496105
30
0
41
1
10
4.00003546020946
20
0.948058754769164
30
0
41
1
10
4.00003618996638
20
1.3158482233946
30
0
41
1
10
4.00003690903347
20
1.67775997325947
30
0
41
1
10
4.00003759583913
20
2.02810191511131
30
0
41
1
10
4.00003809160381
20
2.28645273900977
30
0
41
1
10
4.00003825360068
20
2.37183399710591
30
0
41
1
10
4.00003856941862
20
2.54109603091865
30
0
41
1
10
4.00003872315631
20
2.6249461973627
30
0
41
1
10
4.00003945815678
20
3.03558753806917
30
0
41
1
10
4.00003994818269
20
3.34078239552369
30
0
41
1
10
4.0000402761232
20
3.6231075610786
30
0
0
SPLINE
5
C0
100
AcDbEntity
8
1
62
256
6
ByLayer
370
18
48
1
60
0
100
AcDbSpline
70
4
71
3
72
54
73
50
40
0
40
0
40
0
40
0
40
0.0761582283770887
40
0.0761582283770887
40
0.114237342565632
40
0.114237342565632
40
0.152316456754176
40
0.152316456754176
40
0.19039557094272
40
0.19039557094272
40
0.228474685131263
40
0.228474685131263
40
0.266553799319807
40
0.266553799319807
40
0.304632913508351
40
0.304632913508351
40
0.380791141885438
40
0.380791141885438
40
0.418870256073982
40
0.418870256073982
40
0.456949370262525
40
0.456949370262525
40
0.495028484451069
40
0.495028484451069
40
0.533107598639613
40
0.533107598639613
40
0.571186712828156
40
0.571186712828156
40
0.6092658270167
40
0.6092658270167
40
0.685424055393786
40
0.685424055393786
40
0.723503169582328
40
0.723503169582328
40
0.76158228377087
40
0.76158228377087
40
0.799661397959413
40
0.799661397959413
40
0.837740512147955
40
0.837740512147955
40
0.875819626336497
40
0.875819626336497
40
0.91389874052504
40
0.91389874052504
40
0.951977854713582
40
0.951977854713582
40
0.990056968902124
40
0.990056968902124
40
1
40
1
40
1
40
1
41
1
10
16.7696883137987
20
3.84009179045773
30
0
41
1
10
17.3365271156121
20
3.60279848850212
30
0
41
1
10
17.9040896983932
20
3.34954301712946
30
0
41
1
10
18.7532103064343
20
2.94197260845587
30
0
41
1
10
19.0355070905794
20
2.80085443650643
30
0
41
1
10
19.6021500461515
20
2.51329581020914
30
0
41
1
10
19.8865861848681
20
2.36635735399077
30
0
41
1
10
20.4546080045958
20
2.06657760632623
30
0
41
1
10
20.7380748153786
20
1.91383987112312
30
0
41
1
10
21.3034691342022
20
1.60187191435847
30
0
41
1
10
21.5861058950668
20
1.44379808176012
30
0
41
1
10
22.1526406856213
20
1.1258574027338
30
0
41
1
10
22.4362246565588
20
0.965472529365883
30
0
41
1
10
23.0035703034991
20
0.641060237701652
30
0
41
1
10
23.2871358380808
20
0.476190313902634
30
0
41
1
10
24.1367995859764
20
-0.0167742060864953
30
0
41
1
10
24.7039756039811
20
-0.342398798914957
30
0
41
1
10
25.5526009365919
20
-0.831932588750647
30
0
41
1
10
25.835254957386
20
-0.995049519903233
30
0
41
1
10
26.4030565127868
20
-1.31611778851573
30
0
41
1
10
26.6873269402996
20
-1.47468046694126
30
0
41
1
10
27.2542745736785
20
-1.78766018655634
30
0
41
1
10
27.5370132336647
20
-1.94257751195082
30
0
41
1
10
28.1020449650378
20
-2.24749332068251
30
0
41
1
10
28.3852134551711
20
-2.39610234085208
30
0
41
1
10
28.9522112762896
20
-2.68675224203264
30
0
41
1
10
29.2362113097941
20
-2.82887017632973
30
0
41
1
10
29.803716459722
20
-3.10671177655215
30
0
41
1
10
30.0862451436326
20
-3.24245710359091
30
0
41
1
10
30.9356037521086
20
-3.63255395710104
30
0
41
1
10
31.5023813447663
20
-3.87274459579626
30
0
41
1
10
32.3510222326073
20
-4.20564918164294
30
0
41
1
10
32.6349837767306
20
-4.31094809678243
30
0
41
1
10
33.2025862973215
20
-4.5088494171938
30
0
41
1
10
33.4861174289062
20
-4.6017047761672
30
0
41
1
10
34.0521905889769
20
-4.77565965702178
30
0
41
1
10
34.3342961678873
20
-4.85707592324897
30
0
41
1
10
34.8999610102821
20
-5.00587873880028
30
0
41
1
10
35.1834519508965
20
-5.07340769033729
30
0
41
1
10
35.7511059707982
20
-5.19528209513675
30
0
41
1
10
36.035353442532
20
-5.24959606907839
30
0
41
1
10
36.6013152649854
20
-5.34444597099557
30
0
41
1
10
36.8838176062919
20
-5.38477763328294
30
0
41
1
10
37.4499867407281
20
-5.45065550618102
30
0
41
1
10
37.7332464089041
20
-5.47640746378002
30
0
41
1
10
38.2996506698747
20
-5.51362229128424
30
0
41
1
10
38.5824617423537
20
-5.52508875226079
30
0
41
1
10
38.9398729652573
20
-5.53017566796848
30
0
41
1
10
39.0138911183495
20
-5.53072967743006
30
0
41
1
10
39.0879178288307
20
-5.53078495314892
30
0
0
SPLINE
5
C1
100
AcDbEntity
8
1
62
256
6
ByLayer
370
18
48
1
60
0
100
AcDbSpline
70
4
71
3
72
28
73
24
40
0
40
0
40
0
40
0
40
0.087258082470449
40
0.087258082470449
40
0.178532274223404
40
0.178532274223404
40
0.269806465976359
40
0.269806465976359
40
0.361080657729314
40
0.361080657729314
40
0.452354849482269
40
0.452354849482269
40
0.543629041235224
40
0.543629041235224
40
0.63490323298818
40
0.63490323298818
40
0.726177424741135
40
0.726177424741135
40
0.81745161649409
40
0.81745161649409
40
0.908725808247045
40
0.908725808247045
40
1
40
1
40
1
40
1
41
1
10
61.8369548237016
20
4.03282927748518
30
0
41
1
10
62.1077314541991
20
4.14056372890545
30
0
41
1
10
62.3781871212539
20
4.24347155119184
30
0
41
1
10
62.9304684057649
20
4.44445099995181
30
0
41
1
10
63.2127109823335
20
4.54152971051781
30
0
41
1
10
63.7790264585329
20
4.72241809641503
30
0
41
1
10
64.06293426847
20
4.80672491418912
30
0
41
1
10
64.6302543245098
20
4.9629307214696
30
0
41
1
10
64.9128085685437
20
5.03492281307368
30
0
41
1
10
65.4777364525089
20
5.16503632706412
30
0
41
1
10
65.7606604165157
20
5.22285308148611
30
0
41
1
10
66.3266285527663
20
5.32478803691981
30
0
41
1
10
66.6097123504757
20
5.36887669376421
30
0
41
1
10
67.1756356856153
20
5.44323471748208
30
0
41
1
10
67.4586935385008
20
5.473456888182
30
0
41
1
10
68.0254850849311
20
5.51872463940472
30
0
41
1
10
68.3088855904758
20
5.53402056559477
30
0
41
1
10
68.875213388512
20
5.55012824806619
30
0
41
1
10
69.1580077975374
20
5.55092742557031
30
0
41
1
10
69.723306626773
20
5.53765028352427
30
0
41
1
10
70.0070861335992
20
5.52363658349355
30
0
41
1
10
70.5743672491271
20
5.48123839454044
30
0
41
1
10
70.8577463973916
20
5.45286756592671
30
0
41
1
10
71.140641023846
20
5.41722515923163
30
0
0
SPLINE
5
C2
100
AcDbEntity
8
1
62
256
6
ByLayer
370
13
48
1
60
0
100
AcDbSpline
70
4
71
3
72
10
73
6
40
0
40
0
40
0
40
0
40
0.5
40
0.5
40
1
40
1
40
1
40
1
41
1
10
4.25032720466504
20
-4.27879360022428
30
0
41
1
10
4.22880931308924
20
-4.27462034393034
30
0
41
1
10
4.20771553902122
20
-4.27275532631896
30
0
41
1
10
4.16637641889693
20
-4.27350678214975
30
0
41
1
10
4.14603458064087
20
-4.27619768175134
30
0
41
1
10
4.12705214396325
20
-4.28120347822144
30
0
0
SPLINE
5
C3
100
AcDbEntity
8
1
62
256
6
ByLayer
370
18
48
1
60
0
100
AcDbSpline
70
4
71
3
72
40
73
36
40
0
40
0
40
0
40
0
40
0.249999999999999
40
0.249999999999999
40
0.375000000000001
40
0.375000000000001
40
0.500000000000003
40
0.500000000000003
40
0.625000000000004
40
0.625000000000004
40
0.687500000000003
40
0.687500000000003
40
0.718750000000002
40
0.718750000000002
40
0.750000000000001
40
0.750000000000001
40
0.78125
40
0.78125
40
0.812499999999999
40
0.812499999999999
40
0.843749999999999
40
0.843749999999999
40
0.874999999999998
40
0.874999999999998
40
0.906249999999997
40
0.906249999999997
40
0.921874999999998
40
0.921874999999998
40
0.937499999999998
40
0.937499999999998
40
0.953124999999999
40
0.953124999999999
40
0.968749999999999
40
0.968749999999999
40
1
40
1
40
1
40
1
41
1
10
65.2823406915285
20
2.54310618825338
30
0
41
1
10
65.7284514695148
20
2.192737036268
30
0
41
1
10
66.1838249984146
20
1.87301692781284
30
0
41
1
10
66.8842400979473
20
1.45086119714981
30
0
41
1
10
67.1205981179322
20
1.31969301759668
30
0
41
1
10
67.5998764546898
20
1.07907030725201
30
0
41
1
10
67.8435176780835
20
0.969470074031335
30
0
41
1
10
68.327597250045
20
0.78007301265788
30
0
41
1
10
68.5691990577309
20
0.699581979528148
30
0
41
1
10
68.9308369844598
20
0.603654143665125
30
0
41
1
10
69.0514564292927
20
0.575779884980818
30
0
41
1
10
69.231435537638
20
0.541014471078825
30
0
41
1
10
69.2912149675396
20
0.53061121566742
30
0
41
1
10
69.4103305469457
20
0.512264291398708
30
0
41
1
10
69.4698082269432
20
0.503787814682283
30
0
41
1
10
69.5876346838324
20
0.491699416355289
30
0
41
1
10
69.6459632880582
20
0.488477499776167
30
0
41
1
10
69.7597290449404
20
0.489187581281186
30
0
41
1
10
69.8152519215519
20
0.493068190672886
30
0
41
1
10
69.9224424999525
20
0.510823280900695
30
0
41
1
10
69.9744770659442
20
0.525116987580873
30
0
41
1
10
70.068728196276
20
0.567579521185337
30
0
41
1
10
70.1118006292021
20
0.595033297837318
30
0
41
1
10
70.1872736008792
20
0.665194461852451
30
0
41
1
10
70.2182135784498
20
0.706654139446528
30
0
41
1
10
70.2527557672384
20
0.779982564894851
30
0
41
1
10
70.2622297780562
20
0.806341348706411
30
0
41
1
10
70.2764873485795
20
0.861030666644638
30
0
41
1
10
70.2813947753441
20
0.889565340323486
30
0
41
1
10
70.286931878109
20
0.948926342243226
30
0
41
1
10
70.287536798785
20
0.979997019350208
30
0
41
1
10
70.2846748051279
20
1.04307910494185
30
0
41
1
10
70.2812423603797
20
1.07498221285138
30
0
41
1
10
70.2660568894203
20
1.17157580829047
30
0
41
1
10
70.2497414108598
20
1.23726872043593
30
0
41
1
10
70.2292355249323
20
1.30332757266132
30
0
0
SPLINE
5
C4
100
AcDbEntity
8
1
62
256
6
ByLayer
370
18
48
1
60
0
100
AcDbSpline
70
4
71
3
72
16
73
12
40
0
40
0
40
0
40
0
40
0.249999999999974
40
0.249999999999974
40
0.499999999999948
40
0.499999999999948
40
0.624999999999961
40
0.624999999999961
40
0.749999999999974
40
0.749999999999974
40
1
40
1
40
1
40
1
41
1
10
70.2292355249323
20
1.30332757266132
30
0
41
1
10
70.2203716305178
20
1.33188223708038
30
0
41
1
10
70.2154303066067
20
1.36158804820695
30
0
41
1
10
70.2173914948576
20
1.4224841751618
30
0
41
1
10
70.2245362776305
20
1.45321721408459
30
0
41
1
10
70.2473594092883
20
1.49486210810591
30
0
41
1
10
70.2566492537956
20
1.50797966930884
30
0
41
1
10
70.2789696660594
20
1.53081468131833
30
0
41
1
10
70.2916553995228
20
1.54046712440351
30
0
41
1
10
70.332639481023
20
1.56474539865812
30
0
41
1
10
70.3632167315164
20
1.57450756612934
30
0
41
1
10
70.3944660747287
20
1.58021135353658
30
0
0
SPLINE
5
C5
100
AcDbEntity
8
1
62
256
6
ByLayer
370
18
48
1
60
0
100
AcDbSpline
70
4
71
3
72
16
73
12
40
0
40
0
40
0
40
0
40
0.153664990240412
40
0.153664990240412
40
0.309671515425427
40
0.309671515425427
40
0.387674778017934
40
0.387674778017934
40
0.465678040610441
40
0.465678040610441
40
1
40
1
40
1
40
1
41
1
10
70.0717453673981
20
-5.30250304708579
30
0
41
1
10
69.727701538933
20
-5.30224110929748
30
0
41
1
10
69.3839573108683
20
-5.29159203194578
30
0
41
1
10
68.6910175254536
20
-5.24939381521463
30
0
41
1
10
68.3418118715787
20
-5.21752694076062
30
0
41
1
10
67.8170443872151
20
-5.1539612687256
30
0
41
1
10
67.6419566823384
20
-5.13014463724113
30
0
41
1
10
67.2913518128158
20
-5.07727697409331
30
0
41
1
10
67.1157593090563
20
-5.04820656380574
30
0
41
1
10
65.7418300922077
20
-4.80084182620334
30
0
41
1
10
64.5595066197183
20
-4.46897475591811
30
0
41
1
10
63.3744232435346
20
-4.04271493756363
30
0
0
SPLINE
5
C6
100
AcDbEntity
8
1
62
256
6
ByLayer
370
13
48
1
60
0
100
AcDbSpline
70
4
71
3
72
25
73
21
40
0
40
0
40
0
40
0
40
0.0474933692227184
40
0.0474933692227184
40
0.212686979907763
40
0.212686979907763
40
0.253985382579025
40
0.253985382579025
40
0.295283785250287
40
0.377880590592811
40
0.377880590592811
40
0.708267811962904
40
0.708267811962904
40
0.749566214634168
40
0.749566214634168
40
0.790864617305431
40
0.790864617305431
40
0.873461422647957
40
0.873461422647957
40
1
40
1
40
1
40
1
41
1
10
63.3744232435525
20
-4.04271493756997
30
0
41
1
10
63.1754666316739
20
-3.97115270748225
30
0
41
1
10
62.9764322317482
20
-3.89693001226615
30
0
41
1
10
62.0843490408259
20
-3.5530864799664
30
0
41
1
10
61.3893479524378
20
-3.25511506011779
30
0
41
1
10
60.5134431462346
20
-2.84915923646599
30
0
41
1
10
60.3378016633262
20
-2.7662585745521
30
0
41
1
10
59.9877226061335
20
-2.59835497992881
30
0
41
1
10
59.4636583899879
20
-2.34298506423338
30
0
41
1
10
58.942186452698
20
-2.07810490480665
30
0
41
1
10
57.2072578968496
20
-1.17843122659801
30
0
41
1
10
55.8303377084181
20
-0.404287816211109
30
0
41
1
10
54.2594812737764
20
0.466062391071233
30
0
41
1
10
54.0846334444576
20
0.562748824594337
30
0
41
1
10
53.7341686406926
20
0.755808882444512
30
0
41
1
10
53.5584682839775
20
0.852231497767576
30
0
41
1
10
53.0331457750985
20
1.13899546233208
30
0
41
1
10
52.684299484203
20
1.32739954654588
30
0
41
1
10
51.8035238442885
20
1.79612889321442
30
0
41
1
10
51.2725114548935
20
2.0711171131704
30
0
41
1
10
50.7419402738813
20
2.33519161404146
30
0
0
SPLINE
5
C7
100
AcDbEntity
8
1
62
256
6
ByLayer
370
18
48
1
60
0
100
AcDbSpline
70
4
71
3
72
14
73
10
40
0
40
0
40
0
40
0
40
0.115199891012145
40
0.115199891012145
40
0.292159912809715
40
0.292159912809715
40
0.646079956404858
40
0.646079956404858
40
1
40
1
40
1
40
1
41
1
10
10.1773658931184
20
-5.26652903370154
30
0
41
1
10
9.95035117071873
20
-5.26640856817752
30
0
41
1
10
9.7229177357965
20
-5.26181218701063
30
0
41
1
10
9.1447435721204
20
-5.23870320928592
30
0
41
1
10
8.79275047104608
20
-5.21393482791305
30
0
41
1
10
7.74179175584354
20
-5.10828806699681
30
0
41
1
10
7.04489187937145
20
-4.99623323279101
30
0
41
1
10
5.65013010398832
20
-4.69466548805477
30
0
41
1
10
4.95228707220494
20
-4.50517129871787
30
0
41
1
10
4.25032720466507
20
-4.27879360022428
30
0
0
SPLINE
5
C8
100
AcDbEntity
8
1
62
256
6
ByLayer
370
18
48
1
60
0
100
AcDbSpline
70
4
71
3
72
22
73
18
40
0
40
0
40
0
40
0
40
0.249999999999992
40
0.249999999999992
40
0.499999999999984
40
0.499999999999984
40
0.624999999999987
40
0.624999999999987
40
0.749999999999991
40
0.749999999999991
40
0.812499999999993
40
0.812499999999993
40
0.874999999999996
40
0.874999999999996
40
0.937499999999998
40
0.937499999999998
40
1
40
1
40
1
40
1
41
1
10
70.3944660747287
20
1.58021135353658
30
0
41
1
10
70.5847611277345
20
1.61494496440409
30
0
41
1
10
70.7738806261681
20
1.6547698223595
30
0
41
1
10
71.1461746670608
20
1.75210092662274
30
0
41
1
10
71.3297202742259
20
1.80897314863549
30
0
41
1
10
71.5963166617815
20
1.92303027731907
30
0
41
1
10
71.6828010559352
20
1.9655961466832
30
0
41
1
10
71.8474957841102
20
2.06619157214618
30
0
41
1
10
71.9248262278009
20
2.1235002986993
30
0
41
1
10
72.0248721475683
20
2.22756233174093
30
0
41
1
10
72.0556346806572
20
2.26567326147895
30
0
41
1
10
72.1072167350334
20
2.3470837172377
30
0
41
1
10
72.128582196758
20
2.39137906985673
30
0
41
1
10
72.1585323731196
20
2.48375225823614
30
0
41
1
10
72.1671393299732
20
2.53130109803703
30
0
41
1
10
72.1719927005627
20
2.62908117096978
30
0
41
1
10
72.1681206713093
20
2.67810948705909
30
0
41
1
10
72.159379078312
20
2.72610117719731
30
0
0
SPLINE
5
C9
100
AcDbEntity
8
1
62
256
6
ByLayer
370
18
48
1
60
0
100
AcDbSpline
70
4
71
3
72
62
73
58
40
0
40
0
40
0
40
0
40
0.0624999999999981
40
0.0624999999999981
40
0.124999999999996
40
0.124999999999996
40
0.249999999999993
40
0.249999999999993
40
0.374999999999989
40
0.374999999999989
40
0.499999999999985
40
0.499999999999985
40
0.562499999999983
40
0.562499999999983
40
0.62499999999998
40
0.62499999999998
40
0.687499999999978
40
0.687499999999978
40
0.691406249999977
40
0.691406249999977
40
0.695312499999977
40
0.695312499999977
40
0.697265624999976
40
0.697265624999976
40
0.699218749999976
40
0.699218749999976
40
0.703124999999975
40
0.703124999999975
40
0.718749999999976
40
0.718749999999976
40
0.749999999999978
40
0.749999999999978
40
0.765624999999979
40
0.765624999999979
40
0.781249999999981
40
0.781249999999981
40
0.796874999999982
40
0.796874999999982
40
0.812499999999984
40
0.812499999999984
40
0.828124999999985
40
0.828124999999985
40
0.835937499999986
40
0.835937499999986
40
0.843749999999986
40
0.843749999999986
40
0.859374999999988
40
0.859374999999988
40
0.874999999999989
40
0.874999999999989
40
0.906249999999992
40
0.906249999999992
40
0.937499999999995
40
0.937499999999995
40
0.968749999999997
40
0.968749999999997
40
1
40
1
40
1
40
1
41
1
10
16.7696945659366
20
3.84005821919376
30
0
41
1
10
16.3995508237528
20
3.99435226633773
30
0
41
1
10
16.0272488934072
20
4.13630026440543
30
0
41
1
10
15.2773410195158
20
4.39673687996071
30
0
41
1
10
14.8994240138791
20
4.51528407375289
30
0
41
1
10
13.7575221762509
20
4.83625598415694
30
0
41
1
10
12.9918359242101
20
5.00198191140095
30
0
41
1
10
11.4404372395723
20
5.25246161405295
30
0
41
1
10
10.6546243484579
20
5.33719571179461
30
0
41
1
10
9.05346996270353
20
5.45015662110097
30
0
41
1
10
8.23813277471541
20
5.47868291218825
30
0
41
1
10
6.98859010518342
20
5.50110418369482
30
0
41
1
10
6.56705735823161
20
5.50518460956192
30
0
41
1
10
5.72109053528541
20
5.50972994943055
30
0
41
1
10
5.29567448278931
20
5.51022328409036
30
0
41
1
10
4.44233744937659
20
5.51012582489409
30
0
41
1
10
4.01450551629483
20
5.50954385072669
30
0
41
1
10
3.55887076093993
20
5.50908786917103
30
0
41
1
10
3.53206727256492
20
5.50905387672216
30
0
41
1
10
3.478467764454
20
5.50902117491935
30
0
41
1
10
3.45102129578061
20
5.50904297445345
30
0
41
1
10
3.41269059931005
20
5.50912528249975
30
0
41
1
10
3.40041331837762
20
5.50916030466252
30
0
41
1
10
3.37729796839912
20
5.50923481930892
30
0
41
1
10
3.36635593296586
20
5.50927001667498
30
0
41
1
10
3.33289903508927
20
5.50932700547392
30
0
41
1
10
3.31068062966804
20
5.50931575454712
30
0
41
1
10
3.2000395374663
20
5.50899351547471
30
0
41
1
10
3.11341020534374
20
5.50789262692624
30
0
41
1
10
2.86030902320883
20
5.50122200856316
30
0
41
1
10
2.69952887715891
20
5.49228571572053
30
0
41
1
10
2.48582822266508
20
5.46761985763985
30
0
41
1
10
2.41896039877179
20
5.45750333422185
30
0
41
1
10
2.29599429410499
20
5.43220916588618
30
0
41
1
10
2.23962981904461
20
5.4169514900791
30
0
41
1
10
2.1418643450734
20
5.3798302224688
30
0
41
1
10
2.1015105819755
20
5.35838039524126
30
0
41
1
10
2.03975171907359
20
5.30857439384218
30
0
41
1
10
2.01833572533977
20
5.27980039524087
30
0
41
1
10
1.99741162045046
20
5.21667773568086
30
0
41
1
10
1.99749886655016
20
5.18230922427125
30
0
41
1
10
2.01232315677754
20
5.12651834152643
30
0
41
1
10
2.01977796654234
20
5.10711024290273
30
0
41
1
10
2.03905017631041
20
5.06758882337644
30
0
41
1
10
2.05084924353798
20
5.04744422406924
30
0
41
1
10
2.09201458723788
20
4.98592034787069
30
0
41
1
10
2.12711797227576
20
4.94345374044991
30
0
41
1
10
2.20979528568768
20
4.85586420900722
30
0
41
1
10
2.25753793241338
20
4.81064990445304
30
0
41
1
10
2.41236720400985
20
4.67464313224147
30
0
41
1
10
2.53182861344317
20
4.58230865337936
30
0
41
1
10
2.79148892667092
20
4.39423343810205
30
0
41
1
10
2.93224830488245
20
4.29828165136101
30
0
41
1
10
3.22258499634216
20
4.10694740219006
30
0
41
1
10
3.37299850910972
20
4.01099541068567
30
0
41
1
10
3.68130536832353
20
3.81796932450956
30
0
41
1
10
3.83922820455672
20
3.72090047662644
30
0
41
1
10
4.00004027611269
20
3.62310756107814
30
0
0
SPLINE
5
CA
100
AcDbEntity
8
1
62
256
6
ByLayer
370
18
48
1
60
0
100
AcDbSpline
70
4
71
3
72
47
73
43
40
0
40
0
40
0
40
0
40
0.0335705357480002
40
0.0335705357480002
40
0.0671410714960003
40
0.0671410714960003
40
0.134282142992001
40
0.134282142992001
40
0.167852678740001
40
0.167852678740001
40
0.201423214488001
40
0.201423214488001
40
0.234993750236001
40
0.234993750236001
40
0.268564285984001
40
0.268564285984001
40
0.402846428976003
40
0.402846428976003
40
0.436416964724003
40
0.436416964724003
40
0.453202232598003
40
0.453202232598003
40
0.469987500472003
40
0.469987500472003
40
0.537128571968003
40
0.537128571968003
40
0.604269643464003
40
0.604269643464003
40
0.637840179212003
40
0.637840179212003
40
0.671410714960002
40
0.671410714960002
40
0.805692857952004
40
0.805692857952004
40
0.872833929448005
40
0.872833929448005
40
0.889619197322005
40
0.889619197322005
40
0.906404465196006
40
0.939975000944007
40
0.939975000944007
40
1
40
1
40
1
40
1
41
1
10
71.059882632927
20
-5.50690473338355
30
0
41
1
10
70.7091846109147
20
-5.53212451518485
30
0
41
1
10
70.3586423446994
20
-5.54607474997863
30
0
41
1
10
69.6569843959223
20
-5.5514484369283
30
0
41
1
10
69.3054425274399
20
-5.54282958319948
30
0
41
1
10
68.2531981369747
20
-5.48336941790828
30
0
41
1
10
67.5539878887132
20
-5.39907453897879
30
0
41
1
10
66.5024401789445
20
-5.20786173707674
30
0
41
1
10
66.1509171946831
20
-5.13320139109879
30
0
41
1
10
65.4494281035015
20
-4.9637056981496
30
0
41
1
10
65.0992428558587
20
-4.86887359103201
30
0
41
1
10
64.3989637291089
20
-4.65998654063091
30
0
41
1
10
64.0488732189126
20
-4.54592730224158
30
0
41
1
10
63.347717129509
20
-4.29954372049141
30
0
41
1
10
62.9958729793971
20
-4.16689498322228
30
0
41
1
10
61.2450882161839
20
-3.46614924475875
30
0
41
1
10
59.8668221896053
20
-2.7841916430815
30
0
41
1
10
58.129480516064
20
-1.84471350656668
30
0
41
1
10
57.7813048835988
20
-1.65244584524913
30
0
41
1
10
57.2572809343233
20
-1.35853084350677
30
0
41
1
10
57.0822981449242
20
-1.25966581639824
30
0
41
1
10
56.7316257359499
20
-1.06027373827837
30
0
41
1
10
56.5557573949501
20
-0.959647364596151
30
0
41
1
10
55.679368166194
20
-0.456106941353227
30
0
41
1
10
54.9839325981167
20
-0.0502229182464475
30
0
41
1
10
53.5967731613795
20
0.754450687487008
30
0
41
1
10
52.9046377102613
20
1.15251883156532
30
0
41
1
10
51.8632393975182
20
1.73391561876105
30
0
41
1
10
51.5154415753633
20
1.92486937650057
30
0
41
1
10
50.8175106490063
20
2.29935180535327
30
0
41
1
10
50.4669659405587
20
2.48318627809493
30
0
41
1
10
48.7110720862689
20
3.37746512836534
30
0
41
1
10
47.3308936884278
20
3.99188758183519
30
0
41
1
10
45.2487981154311
20
4.70483482853678
30
0
41
1
10
44.5525912697574
20
4.90748125710749
30
0
41
1
10
43.6746154951291
20
5.11111633455468
30
0
41
1
10
43.4988578931898
20
5.14929597169282
30
0
41
1
10
43.1485168342562
20
5.22013917008368
30
0
41
1
10
42.6240499461749
20
5.31829698181122
30
0
41
1
10
42.1021171220114
20
5.39208569084406
30
0
41
1
10
41.1337727625935
20
5.49891246073685
30
0
41
1
10
40.5147131876347
20
5.53262155507662
30
0
41
1
10
39.8946666486167
20
5.53123276079026
30
0
0
SPLINE
5
CB
100
AcDbEntity
8
1
62
256
6
ByLayer
370
18
48
1
60
0
100
AcDbSpline
70
4
71
3
72
20
73
16
40
0
40
0
40
0
40
0
40
0.0319452759239519
40
0.0319452759239519
40
0.152952116433457
40
0.152952116433457
40
0.273958956942962
40
0.273958956942962
40
0.515972637961974
40
0.515972637961974
40
0.757986318980986
40
0.757986318980986
40
0.878993159490493
40
0.878993159490493
40
1
40
1
40
1
40
1
41
1
10
12.7788700161809
20
-5.27763018653374
30
0
41
1
10
12.686887737357
20
-5.29302105305769
30
0
41
1
10
12.5948416811524
20
-5.3076843862722
30
0
41
1
10
12.1537792460487
20
-5.37437046589349
30
0
41
1
10
11.803766934362
20
-5.41657905501458
30
0
41
1
10
11.1006167582376
20
-5.47906680474787
30
0
41
1
10
10.7496744995444
20
-5.49910555049473
30
0
41
1
10
9.70159687984619
20
-5.52572481016924
30
0
41
1
10
9.0075179625471
20
-5.49897803589664
30
0
41
1
10
7.61979980045208
20
-5.35935187129559
30
0
41
1
10
6.92647906923435
20
-5.24636674736595
30
0
41
1
10
5.88061042583396
20
-5.01454476152901
30
0
41
1
10
5.53103136714455
20
-4.92687561296589
30
0
41
1
10
4.82894098833003
20
-4.73110016439585
30
0
41
1
10
4.47660782223335
20
-4.62300832576929
30
0
41
1
10
4.12482048806828
20
-4.50571487012422
30
0
0
SPLINE
5
CC
100
AcDbEntity
8
1
62
256
6
ByLayer
370
18
48
1
60
0
100
AcDbSpline
70
4
71
3
72
8
73
4
40
0
40
0
40
0
40
0
40
1
40
1
40
1
40
1
41
1
10
4.00005934495272
20
-4.3809416567338
30
0
41
1
10
4.00003464865796
20
-4.38025563520759
30
0
41
1
10
4.00002229275086
20
-4.3795691381651
30
0
41
1
10
4.00002229605479
20
-4.37888241084698
30
0
0
SPLINE
5
CD
100
AcDbEntity
8
1
62
256
6
ByLayer
370
18
48
1
60
0
100
AcDbSpline
70
4
71
3
72
88
73
84
40
0
40
0
40
0
40
0
40
0.0231408371596349
40
0.0231408371596349
40
0.0468022137787644
40
0.0468022137787644
40
0.0941249670170242
40
0.0941249670170242
40
0.117786343636154
40
0.117786343636154
40
0.141447720255284
40
0.141447720255284
40
0.165109096874414
40
0.165109096874414
40
0.188770473493544
40
0.188770473493544
40
0.212431850112674
40
0.212431850112674
40
0.236093226731804
40
0.236093226731804
40
0.259754603350933
40
0.259754603350933
40
0.283415979970063
40
0.283415979970063
40
0.307077356589193
40
0.307077356589193
40
0.330738733208323
40
0.330738733208323
40
0.354400109827453
40
0.354400109827453
40
0.378061486446583
40
0.378061486446583
40
0.401722863065713
40
0.401722863065713
40
0.425384239684843
40
0.425384239684843
40
0.449045616303973
40
0.449045616303973
40
0.472706992923103
40
0.472706992923103
40
0.520029746161362
40
0.520029746161362
40
0.543691122780492
40
0.543691122780492
40
0.567352499399622
40
0.567352499399622
40
0.591013876018752
40
0.591013876018752
40
0.614675252637882
40
0.614675252637882
40
0.638336629257012
40
0.638336629257012
40
0.661998005876142
40
0.661998005876142
40
0.685659382495272
40
0.685659382495272
40
0.709320759114402
40
0.709320759114402
40
0.732982135733531
40
0.732982135733531
40
0.756643512352661
40
0.756643512352661
40
0.780304888971791
40
0.780304888971791
40
0.803966265590921
40
0.803966265590921
40
0.827627642210051
40
0.827627642210051
40
0.851289018829181
40
0.851289018829181
40
0.874950395448311
40
0.874950395448311
40
0.898611772067441
40
0.898611772067441
40
0.922273148686571
40
0.922273148686571
40
0.945934525305701
40
0.945934525305701
40
0.96959590192483
40
0.96959590192483
40
0.99325727854396
40
0.99325727854396
40
1
40
1
40
1
40
1
41
1
10
61.8267554740473
20
-4.02604132599018
30
0
41
1
10
61.5462771603328
20
-4.1271085413486
30
0
41
1
10
61.2651388557528
20
-4.22268714165267
30
0
41
1
10
60.6981454072794
20
-4.40396872661609
30
0
41
1
10
60.412227370569
20
-4.48991464710332
30
0
41
1
10
59.5537994142215
20
-4.72996401877168
30
0
41
1
10
58.9808984642899
20
-4.86609030315643
30
0
41
1
10
58.1208355050253
20
-5.03132103965541
30
0
41
1
10
57.8339056608376
20
-5.07960645386555
30
0
41
1
10
57.2609053623146
20
-5.16045734586274
30
0
41
1
10
56.9746170702919
20
-5.19269899060481
30
0
41
1
10
56.4022327818705
20
-5.24435515228154
30
0
41
1
10
56.1164172824416
20
-5.26416121259766
30
0
41
1
10
55.5439706882909
20
-5.2896191122633
30
0
41
1
10
55.2572581165964
20
-5.2953420606388
30
0
41
1
10
54.6828441686041
20
-5.29068875349833
30
0
41
1
10
54.3960728942017
20
-5.28132421827377
30
0
41
1
10
53.823613314236
20
-5.24941365162397
30
0
41
1
10
53.5377192703202
20
-5.22654523436171
30
0
41
1
10
52.965278861996
20
-5.16560254347422
30
0
41
1
10
52.6788466459851
20
-5.12696889628882
30
0
41
1
10
52.1055459389718
20
-5.03779426718975
30
0
41
1
10
51.8185869485936
20
-4.98672835971283
30
0
41
1
10
51.2452002704024
20
-4.87090139868363
30
0
41
1
10
50.9587467887714
20
-4.8059779083961
30
0
41
1
10
50.3860272707675
20
-4.66336777855662
30
0
41
1
10
50.099733751297
20
-4.58638676824413
30
0
41
1
10
49.52753663275
20
-4.41993064868979
30
0
41
1
10
49.2415715372619
20
-4.33036718955614
30
0
41
1
10
48.6681081917477
20
-4.13895073381192
30
0
41
1
10
48.380586426285
20
-4.0372061565858
30
0
41
1
10
47.8069285381551
20
-3.82456543025967
30
0
41
1
10
47.5206888808651
20
-3.71302877164294
30
0
41
1
10
46.9485481971681
20
-3.47958068593158
30
0
41
1
10
46.662326471074
20
-3.35785751418877
30
0
41
1
10
46.0893358295576
20
-3.10628079205762
30
0
41
1
10
45.8025912605686
20
-2.97655647097847
30
0
41
1
10
45.2286944403639
20
-2.70813583331864
30
0
41
1
10
44.9419628552994
20
-2.56933629310026
30
0
41
1
10
44.0824895796661
20
-2.14485845362287
30
0
41
1
10
43.509926746398
20
-1.85171295823557
30
0
41
1
10
42.6512359225747
20
-1.39445428959846
30
0
41
1
10
42.3643576721902
20
-1.23995964408536
30
0
41
1
10
41.789893803503
20
-0.928771515934926
30
0
41
1
10
41.5030492652191
20
-0.772187365529135
30
0
41
1
10
40.930260628361
20
-0.456725746914714
30
0
41
1
10
40.6444832154874
20
-0.297539646328346
30
0
41
1
10
40.0720847461377
20
0.0199119519521105
30
0
41
1
10
39.7856261051144
20
0.178431498147631
30
0
41
1
10
39.2121571821731
20
0.49510969714629
30
0
41
1
10
38.9247945435997
20
0.653486330662247
30
0
41
1
10
38.3514647594958
20
0.968436595039947
30
0
41
1
10
38.0650162720317
20
1.12422248172493
30
0
41
1
10
37.4920708028552
20
1.43204434277871
30
0
41
1
10
37.2056682310981
20
1.58402947517985
30
0
41
1
10
36.6329352515344
20
1.8836400204294
30
0
41
1
10
36.3468063539983
20
2.03143873607601
30
0
41
1
10
35.773225466205
20
2.32126002594478
30
0
41
1
10
35.485690373832
20
2.46331417993252
30
0
41
1
10
34.9119963812634
20
2.73962274701779
30
0
41
1
10
34.62554678853
20
2.87368656043037
30
0
41
1
10
34.0534082367062
20
3.13451864581651
30
0
41
1
10
33.7673279799634
20
3.26109795910517
30
0
41
1
10
33.194384457619
20
3.50496254863481
30
0
41
1
10
32.9076411305941
20
3.62246400505202
30
0
41
1
10
32.3333040276585
20
3.84614586443175
30
0
41
1
10
32.0464324550351
20
3.95345146711026
30
0
41
1
10
31.4732788517696
20
4.15731627712361
30
0
41
1
10
31.1867598789605
20
4.25372373398477
30
0
41
1
10
30.6137344214894
20
4.43322893491526
30
0
41
1
10
30.3271630993985
20
4.51636208801673
30
0
41
1
10
29.7541658000282
20
4.6728077669803
30
0
41
1
10
29.4673076513649
20
4.7454608338783
30
0
41
1
10
28.8927915848884
20
4.87714515245409
30
0
41
1
10
28.6059744612976
20
4.93515258643941
30
0
41
1
10
28.0328841510539
20
5.0375002367465
30
0
41
1
10
27.7468243226886
20
5.08298547056376
30
0
41
1
10
27.1744305582386
20
5.16044405394845
30
0
41
1
10
26.8879746748836
20
5.19255878166376
30
0
41
1
10
26.3142188779193
20
5.24006039741133
30
0
41
1
10
26.0265799434436
20
5.25632519409086
30
0
41
1
10
25.657922845679
20
5.26928197319717
30
0
41
1
10
25.5762129343781
20
5.27161094102223
30
0
41
1
10
25.4945328930773
20
5.27337764601026
30
0
0
SPLINE
5
CE
100
AcDbEntity
8
1
62
256
6
ByLayer
370
13
48
1
60
0
100
AcDbSpline
70
4
71
3
72
12
73
8
40
0
40
0
40
0
40
0
40
0.250000000000001
40
0.250000000000001
40
0.500000000000002
40
0.500000000000002
40
1
40
1
40
1
40
1
41
1
10
4.12705214396325
20
-4.28120347822144
30
0
41
1
10
4.10666319938781
20
-4.28658018030205
30
0
41
1
10
4.08878122836114
20
-4.29300133645984
30
0
41
1
10
4.05732373163258
20
-4.30758112572309
30
0
41
1
10
4.0439203397967
20
-4.31573113790498
30
0
41
1
10
4.01192649424075
20
-4.34117737758501
30
0
41
1
10
4.00058787338989
20
-4.36017235746345
30
0
41
1
10
4.00002229605508
20
-4.37888241085849
30
0
0
SPLINE
5
CF
100
AcDbEntity
8
1
62
256
6
ByLayer
370
18
48
1
60
0
100
AcDbSpline
70
4
71
3
72
14
73
10
40
0
40
0
40
0
40
0
40
0.25
40
0.25
40
0.5
40
0.5
40
0.75
40
0.75
40
1
40
1
40
1
40
1
41
1
10
4.12482048806831
20
-4.50571487012422
30
0
41
1
10
4.10614655781455
20
-4.49948858055319
30
0
41
1
10
4.0892526846755
20
-4.49200452666582
30
0
41
1
10
4.05891520075534
20
-4.4745247765598
30
0
41
1
10
4.04556770816433
20
-4.46449837369957
30
0
41
1
10
4.023935981037
20
-4.44292688695705
30
0
41
1
10
4.0153478521338
20
-4.431061596928
30
0
41
1
10
4.00370876494972
20
-4.40659204967181
30
0
41
1
10
4.0005283909783
20
-4.3939709663573
30
0
41
1
10
4.0000593449524
20
-4.38094165673496
30
0
0
SPLINE
5
D0
100
AcDbEntity
8
1
62
256
6
ByLayer
370
18
48
1
60
0
100
AcDbSpline
70
4
71
3
72
23
73
19
40
0
40
0
40
0
40
0
40
0.125
40
0.125
40
0.1875
40
0.1875
40
0.25
40
0.25
40
0.499999999999997
40
0.499999999999997
40
0.562499999999997
40
0.562499999999997
40
0.624999999999998
40
0.624999999999998
40
0.749999999999998
40
0.874999999999999
40
0.874999999999999
40
1
40
1
40
1
40
1
41
1
10
71.0698820031635
20
-5.30295561317919
30
0
41
1
10
70.9932081318762
20
-5.30290202677858
30
0
41
1
10
70.9202038169518
20
-5.29178010313791
30
0
41
1
10
70.8164732090153
20
-5.25767570693523
30
0
41
1
10
70.782861328461
20
-5.24339691757052
30
0
41
1
10
70.7176451128603
20
-5.20878405898995
30
0
41
1
10
70.6859386831001
20
-5.18835867497572
30
0
41
1
10
70.5344753166451
20
-5.07182093601418
30
0
41
1
10
70.4348668838914
20
-4.93311636085787
30
0
41
1
10
70.338603840958
20
-4.70016222304625
30
0
41
1
10
70.3207818805608
20
-4.65055418653239
30
0
41
1
10
70.2881118690474
20
-4.54506619720274
30
0
41
1
10
70.2732254917047
20
-4.48896185622198
30
0
41
1
10
70.2338118502241
20
-4.31355054889397
30
0
41
1
10
70.1947718319105
20
-4.05982925002036
30
0
41
1
10
70.182310426628
20
-3.76708136396894
30
0
41
1
10
70.1834990463183
20
-3.45429052500072
30
0
41
1
10
70.1910509915609
20
-3.28715212838085
30
0
41
1
10
70.2053932322386
20
-3.1139169775735
30
0
0
SPLINE
5
D1
100
AcDbEntity
8
1
62
256
6
ByLayer
370
13
48
1
60
0
100
AcDbSpline
70
4
71
3
72
12
73
8
40
0
40
0
40
0
40
0
40
0.499999999999998
40
0.499999999999998
40
0.749999999999999
40
0.749999999999999
40
1
40
1
40
1
40
1
41
1
10
4.00005934495246
20
-4.38094165673547
30
0
41
1
10
4.00097179185337
20
-4.38525484903363
30
0
41
1
10
4.0124942495207
20
-4.38941091191913
30
0
41
1
10
4.04446951638016
20
-4.39475650266277
30
0
41
1
10
4.05782458952416
20
-4.396429679601
30
0
41
1
10
4.089080475542
20
-4.39937139122407
30
0
41
1
10
4.10682827110514
20
-4.4006412024786
30
0
41
1
10
4.12705214396323
20
-4.40169409174001
30
0
0
SPLINE
5
D2
100
AcDbEntity
8
1
62
256
6
ByLayer
370
18
48
1
60
0
100
AcDbSpline
70
4
71
3
72
8
73
4
40
0
40
0
40
0
40
0
40
1
40
1
40
1
40
1
41
1
10
71.136730046225
20
-5.27011735269792
30
0
41
1
10
71.1105817560718
20
-5.2919703048874
30
0
41
1
10
71.0882789358724
20
-5.30297321467066
30
0
41
1
10
71.069882003168
20
-5.30295561317922
30
0
0
SPLINE
5
D3
100
AcDbEntity
8
1
62
256
6
ByLayer
370
18
48
1
60
0
100
AcDbSpline
70
4
71
3
72
56
73
52
40
0
40
0
40
0
40
0
40
0.0795861404978398
40
0.0795861404978398
40
0.119379210746759
40
0.119379210746759
40
0.159172280995679
40
0.159172280995679
40
0.198965351244598
40
0.198965351244598
40
0.238758421493518
40
0.238758421493518
40
0.278551491742437
40
0.278551491742437
40
0.318344561991357
40
0.318344561991357
40
0.358137632240276
40
0.358137632240276
40
0.397930702489196
40
0.397930702489196
40
0.437723772738116
40
0.437723772738116
40
0.477516842987035
40
0.477516842987035
40
0.517309913235955
40
0.517309913235955
40
0.557102983484874
40
0.557102983484874
40
0.596896053733794
40
0.596896053733794
40
0.636689123982713
40
0.636689123982713
40
0.676482194231633
40
0.676482194231633
40
0.716275264480552
40
0.716275264480552
40
0.756068334729472
40
0.756068334729472
40
0.795861404978391
40
0.795861404978391
40
0.835654475227311
40
0.835654475227311
40
0.87544754547623
40
0.87544754547623
40
0.915240615725149
40
0.915240615725149
40
0.955033685974069
40
0.955033685974069
40
0.994826756222988
40
0.994826756222988
40
1
40
1
40
1
40
1
41
1
10
10.2559145831661
20
-0.054538117510333
30
0
41
1
10
10.8306192205095
20
-0.372646965950509
30
0
41
1
10
11.4039961064199
20
-0.68759249470466
30
0
41
1
10
12.2630871379664
20
-1.15462662760342
30
0
41
1
10
12.5491916641473
20
-1.30951666939072
30
0
41
1
10
13.1227759768844
20
-1.61411705130314
30
0
41
1
10
13.4103251419967
20
-1.76435145520671
30
0
41
1
10
13.9849752500653
20
-2.06023477662148
30
0
41
1
10
14.2716978656855
20
-2.20580494970736
30
0
41
1
10
14.8443286622569
20
-2.49033649306986
30
0
41
1
10
15.1307325118287
20
-2.62868829070547
30
0
41
1
10
15.7038861908785
20
-2.8980601036713
30
0
41
1
10
15.9905588570662
20
-3.02942656067157
30
0
41
1
10
16.5641990337684
20
-3.28426167707326
30
0
41
1
10
16.8514085602913
20
-3.40768152911804
30
0
41
1
10
17.4254769980033
20
-3.64354732947328
30
0
41
1
10
17.7123344825283
20
-3.75632084759715
30
0
41
1
10
18.285600031493
20
-3.97263802362107
30
0
41
1
10
18.571978077068
20
-4.07553050854742
30
0
41
1
10
19.1445773978011
20
-4.26961853511571
30
0
41
1
10
19.4312026875525
20
-4.36074806193167
30
0
41
1
10
20.0055407137874
20
-4.53180257130742
30
0
41
1
10
20.2932209162949
20
-4.61233751269103
30
0
41
1
10
20.866777337145
20
-4.75831288562276
30
0
41
1
10
21.1528489018554
20
-4.82445991796556
30
0
41
1
10
21.7254952341132
20
-4.94394331242427
30
0
41
1
10
22.0120045920411
20
-4.99743271377017
30
0
41
1
10
22.5852012373135
20
-5.09159095659771
30
0
41
1
10
22.8719481275973
20
-5.13116669501696
30
0
41
1
10
23.4459772801166
20
-5.19620540078407
30
0
41
1
10
23.7329712689647
20
-5.22159306460492
30
0
41
1
10
24.3065391573003
20
-5.25931614708944
30
0
41
1
10
24.5931150011034
20
-5.27166687720049
30
0
41
1
10
25.1659435149893
20
-5.27987109167978
30
0
41
1
10
25.4520471478046
20
-5.27650091930499
30
0
41
1
10
26.0251581085087
20
-5.25639183994423
30
0
41
1
10
26.3124513067879
20
-5.2401808427438
30
0
41
1
10
26.8869876560037
20
-5.19266626676986
30
0
41
1
10
27.1736633659061
20
-5.16053700542528
30
0
41
1
10
27.7462287359099
20
-5.08307690989892
30
0
41
1
10
28.0322352346139
20
-5.03760448579948
30
0
41
1
10
28.604974752021
20
-4.93534273041467
30
0
41
1
10
28.8914723497131
20
-4.87741846575838
30
0
41
1
10
29.4650147911647
20
-4.74601526328902
30
0
41
1
10
29.7521872638371
20
-4.67332623512942
30
0
41
1
10
30.3257146799495
20
-4.51677915346591
30
0
41
1
10
30.6124341759583
20
-4.43361588810777
30
0
41
1
10
31.1854496767608
20
-4.2541544336768
30
0
41
1
10
31.4718078355713
20
-4.15781679467338
30
0
41
1
10
31.7953115391709
20
-4.04277545353426
30
0
41
1
10
31.8325282068023
20
-4.02945193982569
30
0
41
1
10
31.8697452254452
20
-4.01604127511601
30
0
0
SPLINE
5
D4
100
AcDbEntity
8
1
62
256
6
ByLayer
370
18
48
1
60
0
100
AcDbSpline
70
4
71
3
72
28
73
24
40
0
40
0
40
0
40
0
40
0.0532793722359577
40
0.0532793722359577
40
0.139344883850871
40
0.139344883850871
40
0.225410395465784
40
0.225410395465784
40
0.311475907080697
40
0.311475907080697
40
0.397541418695611
40
0.397541418695611
40
0.483606930310524
40
0.483606930310524
40
0.569672441925438
40
0.569672441925438
40
0.65573795354035
40
0.65573795354035
40
0.827868976770174
40
0.827868976770174
40
0.913934488385088
40
0.913934488385088
40
1
40
1
40
1
40
1
41
1
10
55.2949589862876
20
5.29226164175344
30
0
41
1
10
55.472636836743
20
5.29003013777472
30
0
41
1
10
55.6503616758977
20
5.28486304932855
30
0
41
1
10
56.1143740519481
20
5.26429143481894
30
0
41
1
10
56.400411902146
20
5.24449527360915
30
0
41
1
10
56.9729885956102
20
5.19287001895967
30
0
41
1
10
57.259239793899
20
5.16065899006531
30
0
41
1
10
57.831823175186
20
5.07993344597375
30
0
41
1
10
58.1180635904921
20
5.03181016766894
30
0
41
1
10
58.6913888755056
20
4.92175232683746
30
0
41
1
10
58.9787565185206
20
4.86004241379709
30
0
41
1
10
59.552239124038
20
4.72433401869517
30
0
41
1
10
59.8387014481499
20
4.65027775326567
30
0
41
1
10
60.4110893594825
20
4.49024954194661
30
0
41
1
10
60.6969337018205
20
4.40433703203638
30
0
41
1
10
61.2698081079817
20
4.22121327972783
30
0
41
1
10
61.5566113641105
20
4.12361664162236
30
0
41
1
10
62.4183278338064
20
3.81238976043778
30
0
41
1
10
62.9901262435487
20
3.58224711338809
30
0
41
1
10
63.8492029217439
20
3.2119997217485
30
0
41
1
10
64.1356275594079
20
3.0840931288117
30
0
41
1
10
64.7086507611466
20
2.81966595255972
30
0
41
1
10
64.9954141223415
20
2.68279221624255
30
0
41
1
10
65.282340691511
20
2.54310618826187
30
0
0
SPLINE
5
D5
100
AcDbEntity
8
1
62
256
6
ByLayer
370
18
48
1
60
0
100
AcDbSpline
70
4
71
3
72
30
73
26
40
0
40
0
40
0
40
0
40
0.0625
40
0.0625
40
0.0937499999999995
40
0.0937499999999995
40
0.124999999999999
40
0.124999999999999
40
0.249999999999999
40
0.249999999999999
40
0.3125
40
0.3125
40
0.375000000000002
40
0.375000000000002
40
0.500000000000004
40
0.500000000000004
40
0.562500000000004
40
0.562500000000004
40
0.625000000000003
40
0.625000000000003
40
0.750000000000002
40
0.750000000000002
40
0.875000000000001
40
0.875000000000001
40
1
40
1
40
1
40
1
41
1
10
65.2823406915285
20
2.54310618825338
30
0
41
1
10
65.2998448156166
20
2.39886184923685
30
0
41
1
10
65.3282122905787
20
2.25282704024693
30
0
41
1
10
65.3860611650166
20
2.03125350486218
30
0
41
1
10
65.4078991461636
20
1.95697454731487
30
0
41
1
10
65.4565777468492
20
1.80759211003277
30
0
41
1
10
65.4835049257487
20
1.73231079367153
30
0
41
1
10
65.6279257524739
20
1.35996869733953
30
0
41
1
10
65.7756120388697
20
1.07037591230079
30
0
41
1
10
66.0338070519094
20
0.645430818070935
30
0
41
1
10
66.1257029041264
20
0.506084688576436
30
0
41
1
10
66.316681414675
20
0.235374580083601
30
0
41
1
10
66.4161779114262
20
0.103333140599631
30
0
41
1
10
66.7249736394116
20
-0.284268880982779
30
0
41
1
10
66.9443480395507
20
-0.531498238569213
30
0
41
1
10
67.2906275860298
20
-0.888104640089608
30
0
41
1
10
67.4087027341386
20
-1.00423046388289
30
0
41
1
10
67.6471319522509
20
-1.22947965009368
30
0
41
1
10
67.7678363828359
20
-1.33898056307169
30
0
41
1
10
68.1338468900822
20
-1.65931208528895
30
0
41
1
10
68.383053686819
20
-1.86196412981695
30
0
41
1
10
68.8901780968586
20
-2.24900441742275
30
0
41
1
10
69.1481050295974
20
-2.43337312061789
30
0
41
1
10
69.6716919977112
20
-2.78589667953858
30
0
41
1
10
69.9377388436718
20
-2.95425535830233
30
0
41
1
10
70.2053932322356
20
-3.11391697757125
30
0
0
SPLINE
5
D6
100
AcDbEntity
8
1
62
256
6
ByLayer
370
18
48
1
60
0
100
AcDbSpline
70
4
71
3
72
12
73
8
40
0
40
0
40
0
40
0
40
0.250000000000003
40
0.250000000000003
40
0.500000000000005
40
0.500000000000005
40
1
40
1
40
1
40
1
41
1
10
71.11589829128
20
-5.35637883083317
30
0
41
1
10
71.1207940137331
20
-5.34320283579268
30
0
41
1
10
71.1254885649183
20
-5.32976451242703
30
0
41
1
10
71.1332183099355
20
-5.30561914540343
30
0
41
1
10
71.1362365307404
20
-5.29493124422456
30
0
41
1
10
71.1416031132871
20
-5.27134751696733
30
0
41
1
10
71.1404364549243
20
-5.26701978985142
30
0
41
1
10
71.1367300462265
20
-5.27011735269667
30
0
0
SPLINE
5
D7
100
AcDbEntity
8
1
62
256
6
ByLayer
370
13
48
1
60
0
100
AcDbSpline
70
4
71
3
72
16
73
12
40
0
40
0
40
0
40
0
40
0.281651433413665
40
0.281651433413665
40
0.563302866827331
40
0.563302866827331
40
0.704128583534164
40
0.704128583534164
40
0.844954300240996
40
0.844954300240996
40
1
40
1
40
1
40
1
41
1
10
4.20115952464869
20
-4.40967157011553
30
0
41
1
10
4.90374922745997
20
-4.63521011619434
30
0
41
1
10
5.6020777302187
20
-4.82271162949226
30
0
41
1
10
6.99770289470894
20
-5.11826527938723
30
0
41
1
10
7.69495531704433
20
-5.22627882777158
30
0
41
1
10
8.74657368521144
20
-5.32429659882877
30
0
41
1
10
9.0988192872644
20
-5.34628191882354
30
0
41
1
10
9.79958880751627
20
-5.36828205147955
30
0
41
1
10
10.148647172368
20
-5.36840779773254
30
0
41
1
10
10.880237580896
20
-5.34618840296625
30
0
41
1
10
11.2625665991794
20
-5.32159208110127
30
0
41
1
10
11.6445077674041
20
-5.28429951687971
30
0
0
SPLINE
5
D8
100
AcDbEntity
8
1
62
256
6
ByLayer
370
18
48
1
60
0
100
AcDbSpline
70
4
71
3
72
18
73
14
40
0
40
0
40
0
40
0
40
0.407706847216636
40
0.407706847216636
40
0.523434092285703
40
0.523434092285703
40
0.581297714820238
40
0.581297714820238
40
0.639161337354773
40
0.639161337354773
40
0.870615827492918
40
0.870615827492918
40
1
40
1
40
1
40
1
41
1
10
54.9059007669596
20
-0.0053042865017972
30
0
41
1
10
56.1323408608736
20
-0.699179204468635
30
0
41
1
10
57.3463073477575
20
-1.38567857338759
30
0
41
1
10
58.9163937182914
20
-2.20899246893515
30
0
41
1
10
59.2642174386103
20
-2.38744306124156
30
0
41
1
10
59.7877428831745
20
-2.6484209067813
30
0
41
1
10
59.9625499683805
20
-2.73429649980284
30
0
41
1
10
60.3128913286149
20
-2.90358250341583
30
0
41
1
10
60.4886631432144
20
-2.98710822477835
30
0
41
1
10
61.3648823147238
20
-3.39565971570579
30
0
41
1
10
62.0600326323023
20
-3.6944152723504
30
0
41
1
10
63.1404456670746
20
-4.11029621654751
30
0
41
1
10
63.5271994668552
20
-4.24939688794504
30
0
41
1
10
63.9140013638869
20
-4.37773048344246
30
0
0
SPLINE
5
D9
100
AcDbEntity
8
1
62
256
6
ByLayer
370
13
48
1
60
0
100
AcDbSpline
70
4
71
3
72
18
73
14
40
0
40
0
40
0
40
0
40
0.418772800453996
40
0.418772800453996
40
0.491426200397245
40
0.491426200397245
40
0.564079600340493
40
0.564079600340493
40
0.709386400226996
40
0.709386400226996
40
0.854693200113498
40
0.854693200113498
40
1
40
1
40
1
40
1
41
1
10
63.9140013634734
20
-4.37773048330527
30
0
41
1
10
64.9110941752933
20
-4.70854712762662
30
0
41
1
10
65.9085065926058
20
-4.96781671820398
30
0
41
1
10
67.0932618072229
20
-5.17308526900493
30
0
41
1
10
67.2689921345685
20
-5.20091692087013
30
0
41
1
10
67.6197636145051
20
-5.25115696508871
30
0
41
1
10
67.7949292575469
20
-5.27359487904238
30
0
41
1
10
68.3199186626326
20
-5.33285000961436
30
0
41
1
10
68.6692578791365
20
-5.36160592768584
30
0
41
1
10
69.3676935983301
20
-5.39744518432704
30
0
41
1
10
69.7167864719558
20
-5.40453113200971
30
0
41
1
10
70.4156350987008
20
-5.39686802071202
30
0
41
1
10
70.7654308882741
20
-5.38163151010991
30
0
41
1
10
71.1158982912804
20
-5.35637883083311
30
0
0
SPLINE
5
DA
100
AcDbEntity
8
1
62
256
6
ByLayer
370
18
48
1
60
0
100
AcDbSpline
70
4
71
3
72
16
73
12
40
0
40
0
40
0
40
0
40
0.0249005789129077
40
0.0249005789129077
40
0.309477865574991
40
0.309477865574991
40
0.451766508906031
40
0.451766508906031
40
0.594055152237071
40
0.594055152237071
40
1
40
1
40
1
40
1
41
1
10
24.9396199794481
20
0.0040245341705827
30
0
41
1
10
25.000301649389
20
-0.0301870183863002
30
0
41
1
10
25.060974537095
20
-0.0643949239610322
30
0
41
1
10
25.8149735886732
20
-0.489444856361132
30
0
41
1
10
26.5075742277363
20
-0.879058977053177
30
0
41
1
10
27.5510844769511
20
-1.45133232540869
30
0
41
1
10
27.8997223951533
20
-1.64000658921299
30
0
41
1
10
28.5996314589884
20
-2.01132011882663
30
0
41
1
10
28.9517998790933
20
-2.1944962358948
30
0
41
1
10
30.3011567488664
20
-2.87803546229995
30
0
41
1
10
31.2894325956683
20
-3.33935429301084
30
0
41
1
10
32.2782570382442
20
-3.74069762124074
30
0
0
SPLINE
5
DB
100
AcDbEntity
8
1
62
256
6
ByLayer
370
13
48
1
60
0
100
AcDbSpline
70
4
71
3
72
20
73
16
40
0
40
0
40
0
40
0
40
0.128749318660401
40
0.128749318660401
40
0.240994958740943
40
0.240994958740943
40
0.353240598821484
40
0.353240598821484
40
0.577731878982564
40
0.577731878982564
40
0.802223159143644
40
0.802223159143644
40
0.914468799224185
40
0.914468799224185
40
1
40
1
40
1
40
1
41
1
10
32.2782579647316
20
-3.74069799728275
30
0
41
1
10
32.6758135476605
20
-3.902057546046
30
0
41
1
10
33.0734578079192
20
-4.05372246441496
30
0
41
1
10
33.8193293142968
20
-4.31762035348444
30
0
41
1
10
34.1673376967756
20
-4.43243170362587
30
0
41
1
10
34.8657278922776
20
-4.64446016827898
30
0
41
1
10
35.2165610691074
20
-4.74184855265565
30
0
41
1
10
36.2704674857159
20
-5.00478415513774
30
0
41
1
10
36.9716007589808
20
-5.14032063394734
30
0
41
1
10
38.3770615561776
20
-5.32652084308876
30
0
41
1
10
39.0771418840616
20
-5.3766078753325
30
0
41
1
10
40.1293985120988
20
-5.38616795153303
30
0
41
1
10
40.4812891837005
20
-5.37834848124814
30
0
41
1
10
41.0986044387875
20
-5.34549367373384
30
0
41
1
10
41.3647412354382
20
-5.32502844171563
30
0
41
1
10
41.630292780231
20
-5.29845176902703
30
0
0
SPLINE
5
DC
100
AcDbEntity
8
1
62
256
6
ByLayer
370
13
48
1
60
0
100
AcDbSpline
70
4
71
3
72
32
73
28
40
0
40
0
40
0
40
0
40
0.125
40
0.125
40
0.1875
40
0.1875
40
0.25
40
0.3125
40
0.3125
40
0.375
40
0.375
40
0.5
40
0.5
40
0.5625
40
0.5625
40
0.625
40
0.625
40
0.6875
40
0.6875
40
0.75
40
0.8125
40
0.8125
40
0.84375
40
0.84375
40
0.875
40
0.875
40
1
40
1
40
1
40
1
41
1
10
4.25032720466504
20
-4.27879360022428
30
0
41
1
10
4.25040494855267
20
-4.06407386112062
30
0
41
1
10
4.25047297848653
20
-3.82068316857473
30
0
41
1
10
4.2505660484685
20
-3.41281060618343
30
0
41
1
10
4.25059534550863
20
-3.27055217210486
30
0
41
1
10
4.2506508664967
20
-2.97697490110329
30
0
41
1
10
4.25070353113057
20
-2.67338975120515
30
0
41
1
10
4.25075234024456
20
-2.34996700742784
30
0
41
1
10
4.25080003764566
20
-2.01638861199075
30
0
41
1
10
4.25082336852142
20
-1.84413564379633
30
0
41
1
10
4.25089119900056
20
-1.32403742529255
30
0
41
1
10
4.25093419288714
20
-0.969104009896682
30
0
41
1
10
4.25099855122517
20
-0.424412270824092
30
0
41
1
10
4.25102005392455
20
-0.239964090384774
30
0
41
1
10
4.25106264176924
20
0.127982361896699
30
0
41
1
10
4.25108374719582
20
0.311630888468926
30
0
41
1
10
4.25112565795402
20
0.678276927755832
30
0
41
1
10
4.25114638664061
20
0.860616128111815
30
0
41
1
10
4.25118674635701
20
1.21868806248671
30
0
41
1
10
4.25122616683046
20
1.57154769320502
30
0
41
1
10
4.25126310521125
20
1.91407112119444
30
0
41
1
10
4.25128948053532
20
2.16699299539454
30
0
41
1
10
4.25129807151086
20
2.25086703112206
30
0
41
1
10
4.25131455852454
20
2.41566106633471
30
0
41
1
10
4.25132246489719
20
2.49667047889167
30
0
41
1
10
4.2513601285506
20
2.89491121859407
30
0
41
1
10
4.25138441432327
20
3.19194185884334
30
0
41
1
10
4.25139951591385
20
3.4672991799157
30
0
0
SPLINE
5
DD
100
AcDbEntity
8
1
62
256
6
ByLayer
370
18
48
1
60
0
100
AcDbSpline
70
4
71
3
72
18
73
14
40
0
40
0
40
0
40
0
40
0.25
40
0.25
40
0.5
40
0.5
40
0.625
40
0.625
40
0.75
40
0.75
40
0.875
40
0.875
40
1
40
1
40
1
40
1
41
1
10
10.2559788797055
20
-0.0545164469625377
30
0
41
1
10
9.7350119276162
20
0.232412286529637
30
0
41
1
10
9.22012984203076
20
0.525927685452956
30
0
41
1
10
8.19804406084245
20
1.11704226559741
30
0
41
1
10
7.69083995569534
20
1.41450743693738
30
0
41
1
10
6.9340202217351
20
1.86031498229187
30
0
41
1
10
6.68244803062669
20
2.00886920058565
30
0
41
1
10
6.18082030614607
20
2.30572040144682
30
0
41
1
10
5.93114370393593
20
2.45378883771011
30
0
41
1
10
5.43886600897323
20
2.74689099299701
30
0
41
1
10
5.19570105913908
20
2.89224400500089
30
0
41
1
10
4.71704708709677
20
3.18097894558525
30
0
41
1
10
4.48150951004772
20
3.32435597174009
30
0
41
1
10
4.25139951942984
20
3.46729917955466
30
0
0
SPLINE
5
DE
100
AcDbEntity
8
1
62
256
6
ByLayer
370
13
48
1
60
0
100
AcDbSpline
70
4
71
3
72
8
73
4
40
0
40
0
40
0
40
0
40
1
40
1
40
1
40
1
41
1
10
4.12705214396323
20
-4.40169409174001
30
0
41
1
10
4.15026314238906
20
-4.39854920158032
30
0
41
1
10
4.17530845017666
20
-4.40137310839933
30
0
41
1
10
4.20115952464869
20
-4.40967157011556
30
0
0
LINE
5
76
100
AcDbEntity
8
81
62
256
6
ByLayer
370
18
48
1
60
0
100
AcDbLine
10
73
20
0
30
0
11
78
21
0
31
0
39
0
210
0
220
0
230
1
0
LINE
5
77
100
AcDbEntity
8
1
62
256
6
ByLayer
370
18
48
1
60
0
100
AcDbLine
10
3.329759
20
5.509313
30
0
11
1.154741
21
5.508008
31
0
39
0
210
0
220
0
230
1
0
LINE
5
79
100
AcDbEntity
8
1
62
256
6
ByLayer
370
18
48
1
60
0
100
AcDbLine
10
9.971652
20
5.513298
30
0
11
4.396779
21
5.509954
31
0
39
0
210
0
220
0
230
1
0
LINE
5
7A
100
AcDbEntity
8
1
62
256
6
ByLayer
370
18
48
1
60
0
100
AcDbLine
10
39.921774
20
5.531269
30
0
11
39.088618
21
5.530769
31
0
39
0
210
0
220
0
230
1
0
LINE
5
7B
100
AcDbEntity
8
1
62
256
6
ByLayer
370
18
48
1
60
0
100
AcDbLine
10
69.872126
20
5.549239
30
0
11
69.049268
21
5.548745
31
0
39
0
210
0
220
0
230
1
0
LINE
5
7C
100
AcDbEntity
8
1
62
256
6
ByLayer
370
18
48
1
60
0
100
AcDbLine
10
69.049268
20
-5.548745
30
0
11
69.871762
21
-5.549239
31
0
39
0
210
0
220
0
230
1
0
LINE
5
7D
100
AcDbEntity
8
1
62
256
6
ByLayer
370
18
48
1
60
0
100
AcDbLine
10
39.088618
20
-5.530769
30
0
11
39.921412
21
-5.531268
31
0
39
0
210
0
220
0
230
1
0
LINE
5
7E
100
AcDbEntity
8
1
62
256
6
ByLayer
370
18
48
1
60
0
100
AcDbLine
10
4.396779
20
-5.509954
30
0
11
9.971064
21
-5.513298
31
0
39
0
210
0
220
0
230
1
0
LINE
5
7F
100
AcDbEntity
8
1
62
256
6
ByLayer
370
18
48
1
60
0
100
AcDbLine
10
1.154741
20
-5.508008
30
0
11
3.329759
21
-5.509313
31
0
39
0
210
0
220
0
230
1
0
LINE
5
80
100
AcDbEntity
8
SK1
62
256
6
ByLayer
370
18
48
1
60
0
100
AcDbLine
10
0
20
6
30
0
11
-43.556624
21
6
31
0
39
0
210
0
220
0
230
1
0
LINE
5
82
100
AcDbEntity
8
SK1
62
256
6
ByLayer
370
18
48
1
60
0
100
AcDbLine
10
-43.556624
20
-6
30
0
11
0
21
-6
31
0
39
0
210
0
220
0
230
1
0
LINE
5
83
100
AcDbEntity
8
SK1
62
256
6
ByLayer
370
18
48
1
60
0
100
AcDbLine
10
-43.556624
20
6
30
0
11
-45
21
3.5
31
0
39
0
210
0
220
0
230
1
0
LINE
5
84
100
AcDbEntity
8
SK1
62
256
6
ByLayer
370
18
48
1
60
0
100
AcDbLine
10
-45
20
-3.5
30
0
11
-43.556624
21
-6
31
0
39
0
210
0
220
0
230
1
0
LINE
5
85
100
AcDbEntity
8
SK4
62
256
6
ByLayer
370
18
48
0.05
60
0
100
AcDbLine
10
78
20
0
30
0
11
-50
21
0
31
0
39
0
210
0
220
0
230
1
0
LINE
5
87
100
AcDbEntity
8
4
62
256
6
ByLayer
370
18
48
0.05
60
0
100
AcDbLine
10
73
20
0
30
0
11
0
21
0
31
0
39
0
210
0
220
0
230
1
0
LINE
5
89
100
AcDbEntity
8
80
62
256
6
ByLayer
370
18
48
1
60
0
100
AcDbLine
10
0
20
0
30
0
11
-5
21
0
31
0
39
0
210
0
220
0
230
1
0
LINE
5
8A
100
AcDbEntity
8
1
62
256
6
ByLayer
370
13
48
1
60
0
100
AcDbLine
10
71.47272
20
1.017051
30
0
11
72.910794
21
0.30503
31
0
39
0
210
0
220
0
230
1
0
LINE
5
8B
100
AcDbEntity
8
1
62
256
6
ByLayer
370
18
48
1
60
0
100
AcDbLine
10
72.910794
20
0.30503
30
0
11
72.717931
21
1.017051
31
0
39
0
210
0
220
0
230
1
0
LINE
5
8C
100
AcDbEntity
8
1
62
256
6
ByLayer
370
13
48
1
60
0
100
AcDbLine
10
72.717931
20
1.017051
30
0
11
71.47272
21
1.017051
31
0
39
0
210
0
220
0
230
1
0
LINE
5
8D
100
AcDbEntity
8
1
62
256
6
ByLayer
370
18
48
1
60
0
100
AcDbLine
10
70.205393
20
-3.113917
30
0
11
72.89433
21
-0.117145
31
0
39
0
210
0
220
0
230
1
0
LINE
5
8E
100
AcDbEntity
8
1
62
256
6
ByLayer
370
18
48
1
60
0
100
AcDbLine
10
72.910794
20
-0.30503
30
0
11
72.717931
21
-1.017051
31
0
39
0
210
0
220
0
230
1
0
LINE
5
8F
100
AcDbEntity
8
1
62
256
6
ByLayer
370
18
48
1
60
0
100
AcDbLine
10
73
20
0
30
0
11
72.98831
21
-0.052445
31
0
39
0
210
0
220
0
230
1
0
LINE
5
90
100
AcDbEntity
8
1
62
256
6
ByLayer
370
13
48
1
60
0
100
AcDbLine
10
71.303261
20
0.670627
30
0
11
72.89433
21
-0.117145
31
0
39
0
210
0
220
0
230
1
0
LINE
5
91
100
AcDbEntity
8
1
62
256
6
ByLayer
370
13
48
1
60
0
100
AcDbLine
10
1.154741
20
5.508008
30
0
11
1.154741
21
-5.508008
31
0
39
0
210
0
220
0
230
1
0
LINE
5
92
100
AcDbEntity
8
1
62
256
6
ByLayer
370
13
48
1
60
0
100
AcDbLine
10
0.57713
20
5.754004
30
0
11
0.57713
21
-5.754004
31
0
39
0
210
0
220
0
230
1
0
LINE
5
93
100
AcDbEntity
8
1
62
256
6
ByLayer
370
18
48
1
60
0
100
AcDbLine
10
73
20
0
30
0
11
71.069882
21
-5.302956
31
0
39
0
210
0
220
0
230
1
0
LINE
5
94
100
AcDbEntity
8
1
62
256
6
ByLayer
370
18
48
1
60
0
100
AcDbLine
10
0
20
-6
30
0
11
0
21
6
31
0
39
0
210
0
220
0
230
1
0
LINE
5
95
100
AcDbEntity
8
1
62
256
6
ByLayer
370
18
48
1
60
0
100
AcDbLine
10
72.98831
20
0.052445
30
0
11
73
21
0
31
0
39
0
210
0
220
0
230
1
0
LINE
5
96
100
AcDbEntity
8
SK1
62
256
6
ByLayer
370
18
48
1
60
0
100
AcDbLine
10
0
20
-6
30
0
11
0
21
6
31
0
39
0
210
0
220
0
230
1
0
LINE
5
97
100
AcDbEntity
8
SK1
62
256
6
ByLayer
370
18
48
1
60
0
100
AcDbLine
10
-45
20
3.5
30
0
11
-45
21
-3.5
31
0
39
0
210
0
220
0
230
1
0
LINE
5
98
100
AcDbEntity
8
SK1
62
256
6
ByLayer
370
18
48
1
60
0
100
AcDbLine
10
-43.556624
20
6
30
0
11
-43.556624
21
-6
31
0
39
0
210
0
220
0
230
1
0
MTEXT
5
DF
100
AcDbEntity
8
SK6
62
256
6
ByLayer
370
13
48
1
60
0
100
AcDbMText
10
16.129169
20
37.932694
30
0
210
0
220
0
230
1
1
\W0.7287;R840-1110-50-A0A1220
40
3.5
41
0
44
1.084337
50
0
71
8
72
5
7
iso_b_vert
0
DIMENSION
5
EC
100
AcDbEntity
8
SK2
62
256
6
ByLayer
370
13
48
1
60
0
100
AcDbDimension
2
DimnDraft3D1
10
71.1
20
-15.763398
30
0
11
33.850059
21
-15.763398
31
0
70
32
71
5
72
1
41
1
210
0
220
0
230
1
3
Standard
100
AcDbAlignedDimension
13
0
23
-1.5875
33
0
14
71.1
24
-7.1375
34
0
50
0
100
AcDbRotatedDimension
1001
ACAD
1000
DSTYLE
1002
{
1070
   279
1070
     0
1070
   172
1070
     1
1070
   173
1070
     1
1070
   340
1005
E0
1070
   271
1070
     2
1070
   272
1070
     2
1070
    77
1070
     1
1070
    73
1070
     0
1070
   171
1070
     3
1070
   274
1070
     4
1070
   177
1070
    35
1070
   176
1070
    35
1070
   178
1070
    35
1070
    48
1040
-0.005
1070
    41
1041
3.5
1070
   147
1041
1.75
1070
    42
1041
1.5875
1070
    44
1041
2.0
1070
   140
1041
3.5
1070
   343
1005
0
1070
   344
1005
0
1002
}
0
DIMENSION
5
F6
100
AcDbEntity
8
SK2
62
256
6
ByLayer
370
13
48
1
60
0
100
AcDbDimension
2
DimnDraft3D2
10
73
20
-34.692985
30
0
11
13.4413
21
-34.692985
31
0
70
32
71
5
72
1
41
1
210
0
220
0
230
1
3
Standard
100
AcDbAlignedDimension
13
-45
23
-7.5875
33
0
14
73
24
-1.5875
34
0
50
0
100
AcDbRotatedDimension
1001
ACAD
1000
DSTYLE
1002
{
1070
   279
1070
     0
1070
   172
1070
     1
1070
   173
1070
     1
1070
   340
1005
E0
1070
   271
1070
     2
1070
   272
1070
     2
1070
    77
1070
     1
1070
    73
1070
     0
1070
   171
1070
     3
1070
   274
1070
     4
1070
   177
1070
    35
1070
   176
1070
    35
1070
   178
1070
    35
1070
    48
1040
-0.005
1070
    41
1041
3.5
1070
   147
1041
1.75
1070
    42
1041
1.5875
1070
    44
1041
2.0
1070
   140
1041
3.5
1070
   343
1005
0
1070
   344
1005
0
1002
}
0
DIMENSION
5
100
100
AcDbEntity
8
SK2
62
256
6
ByLayer
370
13
48
1
60
0
100
AcDbDimension
2
DimnDraft3D3
10
73
20
17.159119
30
0
11
44.3
21
17.159119
31
0
70
32
71
5
72
1
41
1
210
0
220
0
230
1
3
Standard
100
AcDbAlignedDimension
13
15.6
23
7.1375
33
0
14
73
24
1.5875
34
0
50
0
100
AcDbRotatedDimension
1001
ACAD
1000
DSTYLE
1002
{
1070
   279
1070
     0
1070
   172
1070
     1
1070
   173
1070
     1
1070
   340
1005
E0
1070
   271
1070
     2
1070
   272
1070
     2
1070
    77
1070
     1
1070
    73
1070
     0
1070
   171
1070
     3
1070
   274
1070
     4
1070
   177
1070
    35
1070
   176
1070
    35
1070
   178
1070
    35
1070
    48
1040
-0.005
1070
    41
1041
3.5
1070
   147
1041
1.75
1070
    42
1041
1.5875
1070
    44
1041
2.0
1070
   140
1041
3.5
1070
   343
1005
0
1070
   344
1005
0
1002
}
0
DIMENSION
5
10A
100
AcDbEntity
8
SK2
62
256
6
ByLayer
370
13
48
1
60
0
100
AcDbDimension
2
DimnDraft3D4
10
71.1
20
-18.352503
30
0
11
82.981425
21
-18.352503
31
0
70
32
71
5
72
1
41
1
210
0
220
0
230
1
3
Standard
100
AcDbAlignedDimension
13
73
23
-1.5875
33
0
14
71.1
24
-7.1375
34
0
50
0
100
AcDbRotatedDimension
1001
ACAD
1000
DSTYLE
1002
{
1070
   279
1070
     0
1070
   172
1070
     1
1070
   173
1070
     1
1070
   340
1005
E0
1070
   271
1070
     2
1070
   272
1070
     2
1070
    77
1070
     1
1070
    73
1070
     0
1070
   171
1070
     3
1070
   274
1070
     4
1070
   177
1070
    35
1070
   176
1070
    35
1070
   178
1070
    35
1070
    48
1040
-0.005
1070
    41
1041
3.5
1070
   147
1041
1.75
1070
    42
1041
1.5875
1070
    44
1041
2.0
1070
   140
1041
3.5
1070
   343
1005
0
1070
   344
1005
0
1002
}
0
DIMENSION
5
114
100
AcDbEntity
8
SK2
62
256
6
ByLayer
370
13
48
1
60
0
100
AcDbDimension
2
DimnDraft3D5
10
71.1
20
-24.343428
30
0
11
10.360676
21
-24.343428
31
0
70
32
71
5
72
1
41
1
210
0
220
0
230
1
3
Standard
100
AcDbAlignedDimension
13
-45
23
-7.5875
33
0
14
71.1
24
-7.1375
34
0
50
0
100
AcDbRotatedDimension
1001
ACAD
1000
DSTYLE
1002
{
1070
   279
1070
     0
1070
   172
1070
     1
1070
   173
1070
     1
1070
   340
1005
E0
1070
   271
1070
     2
1070
   272
1070
     2
1070
    77
1070
     1
1070
    73
1070
     0
1070
   171
1070
     3
1070
   274
1070
     4
1070
   177
1070
    35
1070
   176
1070
    35
1070
   178
1070
    35
1070
    48
1040
-0.005
1070
    41
1041
3.5
1070
   147
1041
1.75
1070
    42
1041
1.5875
1070
    44
1041
2.0
1070
   140
1041
3.5
1070
   343
1005
0
1070
   344
1005
0
1002
}
0
DIMENSION
5
11F
100
AcDbEntity
8
SK2
62
256
6
ByLayer
370
13
48
1
60
0
100
AcDbDimension
2
DimnDraft3D6
10
-55.625163
20
6
30
0
11
-56.250163
21
24.47418
31
0
70
33
71
5
72
1
41
1
210
0
220
0
230
1
3
Standard
100
AcDbAlignedDimension
13
-46.5875
23
-6
33
0
14
-46.5875
24
6
34
0
1001
ACAD
1000
DSTYLE
1002
{
1070
   279
1070
     0
1070
    74
1070
     0
1070
   173
1070
     1
1070
   340
1005
E0
1070
   271
1070
     3
1070
   272
1070
     2
1070
    77
1070
     1
1070
    73
1070
     0
1070
   171
1070
     3
1070
   274
1070
     4
1070
   177
1070
    35
1070
   176
1070
    35
1070
   178
1070
    35
1070
    48
1040
-0.005
1070
    41
1041
3.5
1070
   147
1041
1.75
1070
    42
1041
1.5875
1070
    44
1041
2.0
1070
   140
1041
3.5
1070
   343
1005
0
1070
   344
1005
0
1002
}
0
DIMENSION
5
12A
100
AcDbEntity
8
2
62
256
6
ByLayer
370
13
48
1
60
0
100
AcDbDimension
2
DimnDraft3D7
10
87.083343
20
5.55
30
0
11
82.458343
21
22.617266
31
0
70
33
71
5
72
1
41
1
210
0
220
0
230
1
3
Standard
100
AcDbAlignedDimension
13
72.6875
23
-5.55
33
0
14
72.6875
24
5.55
34
0
1001
ACAD
1000
DSTYLE
1002
{
1070
   279
1070
     0
1070
    74
1070
     0
1070
   173
1070
     1
1070
   340
1005
E0
1070
   271
1070
     3
1070
   272
1070
     2
1070
    77
1070
     1
1070
    73
1070
     0
1070
   171
1070
     3
1070
   274
1070
     4
1070
   177
1070
    35
1070
   176
1070
    35
1070
   178
1070
    35
1070
    48
1040
-0.005
1070
    41
1041
3.5
1070
   147
1041
1.75
1070
    42
1041
1.5875
1070
    44
1041
2.0
1070
   140
1041
3.5
1070
   343
1005
0
1070
   344
1005
0
1002
}
0
ENDSEC
0
SECTION
2
OBJECTS
0
DICTIONARY
5
195
330
0
100
AcDbDictionary
280
0
281
1
3
ACAD_GROUP
350
196
3
ACAD_MLINESTYLE
350
197
0
DICTIONARY
5
196
330
0
100
AcDbDictionary
280
0
281
1
0
DICTIONARY
5
197
330
0
100
AcDbDictionary
280
0
281
1
3
Standard
350
18
0
MLINESTYLE
5
18
330
197
100
AcDbMlineStyle
2
Standard
70
0
3

62
256
51
90
52
90
71
2
49
-0.5
62
256
6
ByLayer
49
0.5
62
256
6
ByLayer
0
RASTERVARIABLES
5
183
330

100
AcDbRasterVariables
90
0
70
1
71
1
72
1
0
ENDSEC
0
EOF
