0
SECTION
2
HEADER
9
$ACADVER
1
AC1015
9
$DWGCODEPAGE
3
ANSI_1252
9
$HANDSEED
5
1ae
9
$ANGBASE
50
0
9
$ANGDIR
70
0
9
$ATTMODE
70
1
9
$AUNITS
70
0
9
$AUPREC
70
0
9
$CECOLOR
62
256
9
$CELTSCALE
40
1
9
$CELTYPE
6
ByLayer
9
$CELWEIGHT
370
18
9
$CLAYER
8
0
9
$CMLJUST
70
0
9
$CMLSCALE
40
1
9
$CMLSTYLE
2
Standard
9
$DIMSTYLE
2
Standard
9
$TEXTSIZE
40
0.2
9
$TEXTSTYLE
7
Standard
9
$LUNITS
70
2
9
$LUPREC
70
4
9
$EXTNAMES
290
1
9
$INSUNITS
70
4
9
$LTSCALE
40
1
9
$LWDISPLAY
290
1
9
$PDMODE
70
0
9
$PDSIZE
40
0
9
$PLINEGEN
70
0
0
ENDSEC
0
SECTION
2
CLASSES
0
CLASS
1
RASTERVARIABLES
2
AcDbRasterVariables
3
ISM
90
0
280
0
281
0
0
ENDSEC
0
SECTION
2
TABLES
0
TABLE
2
VPORT
5
1a4
100
AcDbSymbolTable
0
VPORT
5
1
100
AcDbSymbolTableRecord
100
AcDbViewportTableRecord
2
*Active
70
0
10
0
20
0
11
1
21
1
12
-1
22
1
13
0
23
0
14
0.5
24
0.5
15
10
25
10
16
0
26
0
36
1
17
0
27
0
37
0
0
ENDTAB
0
TABLE
2
LTYPE
5
1a5
100
AcDbSymbolTable
0
LTYPE
5
14
100
AcDbSymbolTableRecord
100
AcDbLinetypeTableRecord
70
0
2
ByBlock
3

72
65
73
0
40
0
0
LTYPE
5
15
100
AcDbSymbolTableRecord
100
AcDbLinetypeTableRecord
70
0
2
ByLayer
3

72
65
73
0
40
0
0
LTYPE
5
16
100
AcDbSymbolTableRecord
100
AcDbLinetypeTableRecord
70
0
2
CONTINUOUS
3
Solid line
72
65
73
0
40
0
0
LTYPE
5
6A
100
AcDbSymbolTableRecord
100
AcDbLinetypeTableRecord
70
0
2
CENTER
3
____ _ ____ _ ____ _ ____
72
65
73
4
40
47.5
49
22
74
0
49
-8.5
74
0
49
8.5
74
0
49
-8.5
74
0
0
LTYPE
5
6B
100
AcDbSymbolTableRecord
100
AcDbLinetypeTableRecord
70
0
2
DASHED
3
__ __ __ __ __ __ __ __ __
72
65
73
2
40
25.72
49
12.86
74
0
49
-12.86
74
0
0
ENDTAB
0
TABLE
2
LAYER
5
1a6
100
AcDbSymbolTable
0
LAYER
5
10
100
AcDbSymbolTableRecord
100
AcDbLayerTableRecord
2
0
70
0
62
7
6
CONTINUOUS
290
1
370
-3
390
0
0
LAYER
5
6D
100
AcDbSymbolTableRecord
100
AcDbLayerTableRecord
2
81
70
0
62
-3
6
CONTINUOUS
290
1
370
-3
390
0
0
LAYER
5
6F
100
AcDbSymbolTableRecord
100
AcDbLayerTableRecord
2
80
70
0
62
-6
6
CONTINUOUS
290
1
370
-3
390
0
0
LAYER
5
74
100
AcDbSymbolTableRecord
100
AcDbLayerTableRecord
2
2
70
0
62
7
6
CONTINUOUS
290
1
370
-3
390
0
0
LAYER
5
78
100
AcDbSymbolTableRecord
100
AcDbLayerTableRecord
2
1
70
0
62
4
6
CONTINUOUS
290
1
370
-3
390
0
0
LAYER
5
88
100
AcDbSymbolTableRecord
100
AcDbLayerTableRecord
2
4
70
0
62
-2
6
CENTER
290
1
370
-3
390
0
0
LAYER
5
190
100
AcDbSymbolTableRecord
100
AcDbLayerTableRecord
2
SK2
70
0
62
7
6
CONTINUOUS
290
1
370
-3
390
0
0
LAYER
5
191
100
AcDbSymbolTableRecord
100
AcDbLayerTableRecord
2
SK1
70
0
62
4
6
CONTINUOUS
290
1
370
-3
390
0
0
LAYER
5
192
100
AcDbSymbolTableRecord
100
AcDbLayerTableRecord
2
SK4
70
0
62
2
6
CENTER
290
1
370
-3
390
0
0
LAYER
5
193
100
AcDbSymbolTableRecord
100
AcDbLayerTableRecord
2
SK6
70
0
62
5
6
CONTINUOUS
290
1
370
-3
390
0
0
ENDTAB
0
TABLE
2
STYLE
5
1a7
100
AcDbSymbolTable
0
STYLE
5
11
100
AcDbSymbolTableRecord
100
AcDbTextStyleTableRecord
2
Standard
3
txt
70
0
71
0
40
0
41
1
42
0
50
0
0
STYLE
5
EC
100
AcDbSymbolTableRecord
100
AcDbTextStyleTableRecord
2
iso_b_vert
3
simplex.shx
70
0
71
0
40
0
41
1
42
0
50
0
0
STYLE
5
ED
100
AcDbSymbolTableRecord
100
AcDbTextStyleTableRecord
2
DWGDirectTextStyle
3
simplex
70
0
71
0
40
0
41
1
42
0
50
0
0
ENDTAB
0
TABLE
2
DIMSTYLE
5
1a8
100
AcDbSymbolTable
100
AcDbDimStyleTable
0
DIMSTYLE
105
27
100
AcDbSymbolTableRecord
100
AcDbDimStyleTableRecord
2
Standard
70
0
3
<>
41
0.18
42
0.0625
44
0.18
140
0.18
147
0.09
73
0
74
0
77
1
271
2
275
0
278
52
280
0
340
11
0
ENDTAB
0
TABLE
2
VIEW
5
1a9
100
AcDbSymbolTable
0
ENDTAB
0
TABLE
2
UCS
5
1aa
100
AcDbSymbolTable
0
ENDTAB
0
TABLE
2
APPID
5
1ab
100
AcDbSymbolTable
0
APPID
5
12
100
AcDbSymbolTableRecord
100
AcDbRegAppTableRecord
2
ACAD
70
0
0
ENDTAB
0
TABLE
2
BLOCK_RECORD
5
1ac
100
AcDbSymbolTable
0
BLOCK_RECORD
5
1F
100
AcDbSymbolTableRecord
100
AcDbBlockTableRecord
2
*Model_Space
340
0
70
0
0
BLOCK_RECORD
5
1B
100
AcDbSymbolTableRecord
100
AcDbBlockTableRecord
2
*Paper_Space
340
0
70
0
0
BLOCK_RECORD
5
23
100
AcDbSymbolTableRecord
100
AcDbBlockTableRecord
2
*Paper_Space0
340
0
70
0
0
BLOCK_RECORD
5
EF
100
AcDbSymbolTableRecord
100
AcDbBlockTableRecord
2
DimnDraft3D1
340
0
70
0
0
BLOCK_RECORD
5
F9
100
AcDbSymbolTableRecord
100
AcDbBlockTableRecord
2
DimnDraft3D2
340
0
70
0
0
BLOCK_RECORD
5
103
100
AcDbSymbolTableRecord
100
AcDbBlockTableRecord
2
DimnDraft3D3
340
0
70
0
0
BLOCK_RECORD
5
10D
100
AcDbSymbolTableRecord
100
AcDbBlockTableRecord
2
DimnDraft3D4
340
0
70
0
0
BLOCK_RECORD
5
117
100
AcDbSymbolTableRecord
100
AcDbBlockTableRecord
2
DimnDraft3D5
340
0
70
0
0
BLOCK_RECORD
5
121
100
AcDbSymbolTableRecord
100
AcDbBlockTableRecord
2
DimnDraft3D6
340
0
70
0
0
BLOCK_RECORD
5
12C
100
AcDbSymbolTableRecord
100
AcDbBlockTableRecord
2
DimnDraft3D7
340
0
70
0
0
ENDTAB
0
ENDSEC
0
SECTION
2
BLOCKS
0
BLOCK
5
20
100
AcDbEntity
8
0
100
AcDbBlockBegin
2
*Model_Space
70
0
10
0
20
0
30
0
3
*Model_Space
0
ENDBLK
5
21
100
AcDbEntity
8
0
100
AcDbBlockEnd
0
BLOCK
5
1C
100
AcDbEntity
8
0
100
AcDbBlockBegin
2
*Paper_Space
70
0
10
0
20
0
30
0
3
*Paper_Space
0
ENDBLK
5
1D
100
AcDbEntity
8
0
100
AcDbBlockEnd
0
BLOCK
5
24
100
AcDbEntity
8
0
100
AcDbBlockBegin
2
*Paper_Space0
70
0
10
0
20
0
30
0
3
*Paper_Space0
0
ENDBLK
5
25
100
AcDbEntity
8
0
100
AcDbBlockEnd
0
BLOCK
5
F6
100
AcDbEntity
8
0
100
AcDbBlockBegin
2
DimnDraft3D1
70
0
10
0
20
0
30
0
3
DimnDraft3D1
0
MTEXT
5
F0
100
AcDbEntity
8
SK2
62
256
6
ByLayer
370
13
48
1
60
0
100
AcDbMText
10
40.898875
20
-14.693398
30
0
210
0
220
0
230
1
1
\W0.6713;93,16
40
3.5
41
0
44
1.084337
50
0
71
7
72
5
7
iso_b_vert
0
LINE
5
F1
100
AcDbEntity
8
SK2
62
256
6
ByLayer
370
13
48
1
60
0
100
AcDbLine
10
0
20
-1.5875
30
0
11
0
21
-17.568398
31
0
39
0
210
0
220
0
230
1
0
LINE
5
F2
100
AcDbEntity
8
SK2
62
256
6
ByLayer
370
13
48
1
60
0
100
AcDbLine
10
93.16
20
-6.9425
30
0
11
93.16
21
-17.568398
31
0
39
0
210
0
220
0
230
1
0
LINE
5
F3
100
AcDbEntity
8
SK2
62
256
6
ByLayer
370
13
48
1
60
0
100
AcDbLine
10
0
20
-15.568398
30
0
11
93.16
21
-15.568398
31
0
39
0
210
0
220
0
230
1
0
SOLID
5
F4
100
AcDbEntity
8
SK2
62
256
6
ByLayer
370
13
48
1
60
0
100
AcDbTrace
10
0
20
-15.568398
30
0
11
3.499998
21
-15.107615
31
0
12
3.500002
22
-16.029182
32
0
13
0
23
-15.568398
33
0
39
0
210
0
220
0
230
1
0
SOLID
5
F5
100
AcDbEntity
8
SK2
62
256
6
ByLayer
370
13
48
1
60
0
100
AcDbTrace
10
93.16
20
-15.568398
30
0
11
89.660002
21
-16.029182
31
0
12
89.659998
22
-15.107615
32
0
13
93.16
23
-15.568398
33
0
39
0
210
0
220
0
230
1
0
ENDBLK
5
F7
100
AcDbEntity
8
0
100
AcDbBlockEnd
0
BLOCK
5
100
100
AcDbEntity
8
0
100
AcDbBlockBegin
2
DimnDraft3D2
70
0
10
0
20
0
30
0
3
DimnDraft3D2
0
MTEXT
5
FA
100
AcDbEntity
8
SK2
62
256
6
ByLayer
370
13
48
1
60
0
100
AcDbMText
10
18.998011
20
-33.817985
30
0
210
0
220
0
230
1
1
\W0.7145;140,00
40
3.5
41
0
44
1.084337
50
0
71
7
72
5
7
iso_b_vert
0
LINE
5
FB
100
AcDbEntity
8
SK2
62
256
6
ByLayer
370
13
48
1
60
0
100
AcDbLine
10
-45
20
-7.5875
30
0
11
-45
21
-36.692985
31
0
39
0
210
0
220
0
230
1
0
LINE
5
FC
100
AcDbEntity
8
SK2
62
256
6
ByLayer
370
13
48
1
60
0
100
AcDbLine
10
95
20
-1.5875
30
0
11
95
21
-36.692985
31
0
39
0
210
0
220
0
230
1
0
LINE
5
FD
100
AcDbEntity
8
SK2
62
256
6
ByLayer
370
13
48
1
60
0
100
AcDbLine
10
-45
20
-34.692985
30
0
11
95
21
-34.692985
31
0
39
0
210
0
220
0
230
1
0
SOLID
5
FE
100
AcDbEntity
8
SK2
62
256
6
ByLayer
370
13
48
1
60
0
100
AcDbTrace
10
-45
20
-34.692985
30
0
11
-41.500002
21
-34.232202
31
0
12
-41.499998
22
-35.153769
32
0
13
-45
23
-34.692985
33
0
39
0
210
0
220
0
230
1
0
SOLID
5
FF
100
AcDbEntity
8
SK2
62
256
6
ByLayer
370
13
48
1
60
0
100
AcDbTrace
10
95
20
-34.692985
30
0
11
91.500002
21
-35.153769
31
0
12
91.499998
22
-34.232202
32
0
13
95
23
-34.692985
33
0
39
0
210
0
220
0
230
1
0
ENDBLK
5
101
100
AcDbEntity
8
0
100
AcDbBlockEnd
0
BLOCK
5
10A
100
AcDbEntity
8
0
100
AcDbBlockBegin
2
DimnDraft3D3
70
0
10
0
20
0
30
0
3
DimnDraft3D3
0
MTEXT
5
104
100
AcDbEntity
8
SK2
62
256
6
ByLayer
370
13
48
1
60
0
100
AcDbMText
10
46.791316
20
17.839119
30
0
210
0
220
0
230
1
1
\W0.7317;87,52
40
3.5
41
0
44
1.084337
50
0
71
7
72
5
7
iso_b_vert
0
LINE
5
105
100
AcDbEntity
8
SK2
62
256
6
ByLayer
370
13
48
1
60
0
100
AcDbLine
10
7.48
20
6.9425
30
0
11
7.48
21
18.964119
31
0
39
0
210
0
220
0
230
1
0
LINE
5
106
100
AcDbEntity
8
SK2
62
256
6
ByLayer
370
13
48
1
60
0
100
AcDbLine
10
95
20
1.5875
30
0
11
95
21
18.964119
31
0
39
0
210
0
220
0
230
1
0
LINE
5
107
100
AcDbEntity
8
SK2
62
256
6
ByLayer
370
13
48
1
60
0
100
AcDbLine
10
7.48
20
16.964119
30
0
11
95
21
16.964119
31
0
39
0
210
0
220
0
230
1
0
SOLID
5
108
100
AcDbEntity
8
SK2
62
256
6
ByLayer
370
13
48
1
60
0
100
AcDbTrace
10
7.48
20
16.964119
30
0
11
10.979998
21
17.424903
31
0
12
10.980002
22
16.503335
32
0
13
7.48
23
16.964119
33
0
39
0
210
0
220
0
230
1
0
SOLID
5
109
100
AcDbEntity
8
SK2
62
256
6
ByLayer
370
13
48
1
60
0
100
AcDbTrace
10
95
20
16.964119
30
0
11
91.500002
21
16.503335
31
0
12
91.499998
22
17.424903
32
0
13
95
23
16.964119
33
0
39
0
210
0
220
0
230
1
0
ENDBLK
5
10B
100
AcDbEntity
8
0
100
AcDbBlockEnd
0
BLOCK
5
114
100
AcDbEntity
8
0
100
AcDbBlockBegin
2
DimnDraft3D4
70
0
10
0
20
0
30
0
3
DimnDraft3D4
0
MTEXT
5
10E
100
AcDbEntity
8
SK2
62
256
6
ByLayer
370
13
48
1
60
0
100
AcDbMText
10
102.093925
20
-17.282503
30
0
210
0
220
0
230
1
1
\W0.6611;1,84
40
3.5
41
0
44
1.084337
50
0
71
7
72
5
7
iso_b_vert
0
LINE
5
10F
100
AcDbEntity
8
SK2
62
256
6
ByLayer
370
13
48
1
60
0
100
AcDbLine
10
95
20
-1.5875
30
0
11
95
21
-20.157503
31
0
39
0
210
0
220
0
230
1
0
LINE
5
110
100
AcDbEntity
8
SK2
62
256
6
ByLayer
370
13
48
1
60
0
100
AcDbLine
10
93.16
20
-6.9425
30
0
11
93.16
21
-20.157503
31
0
39
0
210
0
220
0
230
1
0
LINE
5
111
100
AcDbEntity
8
SK2
62
256
6
ByLayer
370
13
48
1
60
0
100
AcDbLine
10
84.41
20
-18.157503
30
0
11
108.743925
21
-18.157503
31
0
39
0
210
0
220
0
230
1
0
SOLID
5
112
100
AcDbEntity
8
SK2
62
256
6
ByLayer
370
13
48
1
60
0
100
AcDbTrace
10
95
20
-18.157503
30
0
11
98.499998
21
-17.696719
31
0
12
98.500002
22
-18.618287
32
0
13
95
23
-18.157503
33
0
39
0
210
0
220
0
230
1
0
SOLID
5
113
100
AcDbEntity
8
SK2
62
256
6
ByLayer
370
13
48
1
60
0
100
AcDbTrace
10
93.16
20
-18.157503
30
0
11
89.660002
21
-18.618287
31
0
12
89.659998
22
-17.696719
32
0
13
93.16
23
-18.157503
33
0
39
0
210
0
220
0
230
1
0
ENDBLK
5
115
100
AcDbEntity
8
0
100
AcDbBlockEnd
0
BLOCK
5
11E
100
AcDbEntity
8
0
100
AcDbBlockBegin
2
DimnDraft3D5
70
0
10
0
20
0
30
0
3
DimnDraft3D5
0
MTEXT
5
118
100
AcDbEntity
8
SK2
62
256
6
ByLayer
370
13
48
1
60
0
100
AcDbMText
10
16.539097
20
-23.468428
30
0
210
0
220
0
230
1
1
\W0.6440;138,16
40
3.5
41
0
44
1.084337
50
0
71
7
72
5
7
iso_b_vert
0
LINE
5
119
100
AcDbEntity
8
SK2
62
256
6
ByLayer
370
13
48
1
60
0
100
AcDbLine
10
-45
20
-7.5875
30
0
11
-45
21
-26.343428
31
0
39
0
210
0
220
0
230
1
0
LINE
5
11A
100
AcDbEntity
8
SK2
62
256
6
ByLayer
370
13
48
1
60
0
100
AcDbLine
10
93.16
20
-6.9425
30
0
11
93.16
21
-26.343428
31
0
39
0
210
0
220
0
230
1
0
LINE
5
11B
100
AcDbEntity
8
SK2
62
256
6
ByLayer
370
13
48
1
60
0
100
AcDbLine
10
-45
20
-24.343428
30
0
11
93.16
21
-24.343428
31
0
39
0
210
0
220
0
230
1
0
SOLID
5
11C
100
AcDbEntity
8
SK2
62
256
6
ByLayer
370
13
48
1
60
0
100
AcDbTrace
10
-45
20
-24.343428
30
0
11
-41.500002
21
-23.882645
31
0
12
-41.499998
22
-24.804212
32
0
13
-45
23
-24.343428
33
0
39
0
210
0
220
0
230
1
0
SOLID
5
11D
100
AcDbEntity
8
SK2
62
256
6
ByLayer
370
13
48
1
60
0
100
AcDbTrace
10
93.16
20
-24.343428
30
0
11
89.660002
21
-24.804212
31
0
12
89.659998
22
-23.882645
32
0
13
93.16
23
-24.343428
33
0
39
0
210
0
220
0
230
1
0
ENDBLK
5
11F
100
AcDbEntity
8
0
100
AcDbBlockEnd
0
BLOCK
5
129
100
AcDbEntity
8
0
100
AcDbBlockBegin
2
DimnDraft3D6
70
0
10
0
20
0
30
0
3
DimnDraft3D6
0
MTEXT
5
122
100
AcDbEntity
8
SK2
62
256
6
ByLayer
370
13
48
1
60
0
100
AcDbMText
10
-55.375163
20
25.34918
30
0
210
0
220
0
230
1
1
\W0.6930;12,000
40
3.5
41
0
44
1.084337
50
90
71
7
72
5
7
iso_b_vert
0
MTEXT
5
123
100
AcDbEntity
8
SK2
62
256
6
ByLayer
370
13
48
1
60
0
100
AcDbMText
10
-55.375163
20
20.126524
30
0
210
0
220
0
230
1
1
%%c
40
3.5
41
0
44
1.084337
50
90
71
7
72
5
7
iso_b_vert
0
LINE
5
124
100
AcDbEntity
8
SK2
62
256
6
ByLayer
370
13
48
1
60
0
100
AcDbLine
10
-46.5875
20
-6
30
0
11
-55.625163
21
-6
31
0
39
0
210
0
220
0
230
1
0
LINE
5
125
100
AcDbEntity
8
SK2
62
256
6
ByLayer
370
13
48
1
60
0
100
AcDbLine
10
-46.5875
20
6
30
0
11
-55.625163
21
6
31
0
39
0
210
0
220
0
230
1
0
LINE
5
126
100
AcDbEntity
8
SK2
62
256
6
ByLayer
370
13
48
1
60
0
100
AcDbLine
10
-53.625163
20
-6
30
0
11
-53.625163
21
36.862338
31
0
39
0
210
0
220
0
230
1
0
SOLID
5
127
100
AcDbEntity
8
SK2
62
256
6
ByLayer
370
13
48
1
60
0
100
AcDbTrace
10
-53.625163
20
-6
30
0
11
-54.085946
21
-2.500002
31
0
12
-53.164379
22
-2.499998
32
0
13
-53.625163
23
-6
33
0
39
0
210
0
220
0
230
1
0
SOLID
5
128
100
AcDbEntity
8
SK2
62
256
6
ByLayer
370
13
48
1
60
0
100
AcDbTrace
10
-53.625163
20
6
30
0
11
-53.164379
21
2.500002
31
0
12
-54.085946
22
2.499998
32
0
13
-53.625163
23
6
33
0
39
0
210
0
220
0
230
1
0
ENDBLK
5
12A
100
AcDbEntity
8
0
100
AcDbBlockEnd
0
BLOCK
5
134
100
AcDbEntity
8
0
100
AcDbBlockBegin
2
DimnDraft3D7
70
0
10
0
20
0
30
0
3
DimnDraft3D7
0
MTEXT
5
12D
100
AcDbEntity
8
2
62
256
6
ByLayer
370
13
48
1
60
0
100
AcDbMText
10
105.333343
20
23.297266
30
0
210
0
220
0
230
1
1
\W0.6440;10,710
40
3.5
41
0
44
1.084337
50
90
71
7
72
5
7
iso_b_vert
0
MTEXT
5
12E
100
AcDbEntity
8
2
62
256
6
ByLayer
370
13
48
1
60
0
100
AcDbMText
10
105.333343
20
18.07461
30
0
210
0
220
0
230
1
1
%%c
40
3.5
41
0
44
1.084337
50
90
71
7
72
5
7
iso_b_vert
0
LINE
5
12F
100
AcDbEntity
8
2
62
256
6
ByLayer
370
13
48
1
60
0
100
AcDbLine
10
94.7475
20
-5.355
30
0
11
109.083343
21
-5.355
31
0
39
0
210
0
220
0
230
1
0
LINE
5
130
100
AcDbEntity
8
2
62
256
6
ByLayer
370
13
48
1
60
0
100
AcDbLine
10
94.7475
20
5.355
30
0
11
109.083343
21
5.355
31
0
39
0
210
0
220
0
230
1
0
LINE
5
131
100
AcDbEntity
8
2
62
256
6
ByLayer
370
13
48
1
60
0
100
AcDbLine
10
107.083343
20
-5.355
30
0
11
107.083343
21
33.935424
31
0
39
0
210
0
220
0
230
1
0
SOLID
5
132
100
AcDbEntity
8
2
62
256
6
ByLayer
370
13
48
1
60
0
100
AcDbTrace
10
107.083343
20
-5.355
30
0
11
106.622559
21
-1.855002
31
0
12
107.544126
22
-1.854998
32
0
13
107.083343
23
-5.355
33
0
39
0
210
0
220
0
230
1
0
SOLID
5
133
100
AcDbEntity
8
2
62
256
6
ByLayer
370
13
48
1
60
0
100
AcDbTrace
10
107.083343
20
5.355
30
0
11
107.544126
21
1.855002
31
0
12
106.622559
22
1.854998
32
0
13
107.083343
23
5.355
33
0
39
0
210
0
220
0
230
1
0
ENDBLK
5
135
100
AcDbEntity
8
0
100
AcDbBlockEnd
0
ENDSEC
0
SECTION
2
ENTITIES
0
ARC
5
9E
100
AcDbEntity
8
1
62
256
6
ByLayer
370
18
48
1
60
0
100
AcDbCircle
39
0
10
0
20
5.2
30
0
40
0.800000000000001
210
0
220
0
230
1
100
AcDbArc
50
34.22321
51
90
0
ARC
5
9F
100
AcDbEntity
8
1
62
256
6
ByLayer
370
18
48
1
60
0
100
AcDbCircle
39
0
10
-1.322964
20
6.099869
30
0
40
0.800000000000001
210
0
220
0
230
-1
100
AcDbArc
50
269.965623
51
325.77679
0
ARC
5
A0
100
AcDbEntity
8
1
62
256
6
ByLayer
370
18
48
1
60
0
100
AcDbCircle
39
0
10
0
20
-5.2
30
0
40
0.800000000000001
210
0
220
0
230
1
100
AcDbArc
50
270
51
325.77679
0
ARC
5
A1
100
AcDbEntity
8
1
62
256
6
ByLayer
370
18
48
1
60
0
100
AcDbCircle
39
0
10
-1.322964
20
-6.099869
30
0
40
0.800000000000001
210
0
220
0
230
-1
100
AcDbArc
50
34.22321
51
90.034377
0
ELLIPSE
5
A2
100
AcDbEntity
8
1
62
256
6
ByLayer
370
18
48
1
60
0
100
AcDbEllipse
10
6.25
20
5.314114
30
0
11
0.25
21
0
31
0
210
0
220
0
230
1
40
0.999975
41
-3.13214417774223
42
-1.56314111564423
0
ELLIPSE
5
A3
100
AcDbEntity
8
1
62
256
6
ByLayer
370
18
48
1
60
0
100
AcDbEllipse
10
6.25
20
-5.314114
30
0
11
0.25
21
0
31
0
210
0
220
0
230
1
40
0.999975
41
1.57246357899863
42
3.13214417774225
0
ELLIPSE
5
A4
100
AcDbEntity
8
1
62
256
6
ByLayer
370
18
48
1
60
0
100
AcDbEllipse
10
95.000454
20
-0.00117
30
0
11
1.96358437701779
21
-5.35364688793065
31
0
210
0
220
0
230
-1
40
0.082138
41
-2.98577895581631
42
-2.8909224058557
0
ELLIPSE
5
A5
100
AcDbEntity
8
1
62
256
6
ByLayer
370
18
48
1
60
0
100
AcDbEllipse
10
95.000454
20
0.00117
30
0
11
1.9635843750978
21
5.35364688222792
31
0
210
0
220
0
230
-1
40
0.082138
41
2.89092240572357
42
2.98577895573661
0
ELLIPSE
5
A6
100
AcDbEntity
8
1
62
256
6
ByLayer
370
18
48
1
60
0
100
AcDbEllipse
10
95.023655
20
-0.034194
30
0
11
0.135658546006041
21
0.401200806159309
31
0
210
0
220
0
230
-1
40
0.065863
41
-2.32292776271652
42
-1.63394766025291
0
ELLIPSE
5
A7
100
AcDbEntity
8
1
62
256
6
ByLayer
370
13
48
1
60
0
100
AcDbEllipse
10
94.131997
20
2.447959
30
0
11
3.61418418574752
21
-1.85801350683097
31
0
210
0
220
0
230
-1
40
0.482873
41
1.53949524919251
42
1.83770733606057
0
ELLIPSE
5
A8
100
AcDbEntity
8
1
62
256
6
ByLayer
370
18
48
1
60
0
100
AcDbEllipse
10
94.860371
20
0.115039
30
0
11
0.0868803724564302
21
0.29067690882099
31
0
210
0
220
0
230
-1
40
0.467765
41
1.65325387457178
42
2.36053717389586
0
ELLIPSE
5
A9
100
AcDbEntity
8
1
62
256
6
ByLayer
370
13
48
1
60
0
100
AcDbEllipse
10
93.51782
20
0.779766
30
0
11
0.133113781883907
21
0.268850741253513
31
0
210
0
220
0
230
1
40
0.40558
41
0.884485917130962
42
2.28074931872654
0
ELLIPSE
5
AA
100
AcDbEntity
8
1
62
256
6
ByLayer
370
18
48
1
60
0
100
AcDbEllipse
10
93.997836
20
-2.582251
30
0
11
0.824539788108383
21
2.24808005783638
31
0
210
0
220
0
230
-1
40
0.082138
41
0.755280950345014
42
1.57109277378079
0
ELLIPSE
5
AB
100
AcDbEntity
8
1
62
256
6
ByLayer
370
18
48
1
60
0
100
AcDbEllipse
10
95.023655
20
0.034194
30
0
11
0.135658545993304
21
-0.401200806126701
31
0
210
0
220
0
230
-1
40
0.065863
41
1.63394766019865
42
2.32292776271378
0
ELLIPSE
5
AC
100
AcDbEntity
8
1
62
256
6
ByLayer
370
18
48
1
60
0
100
AcDbEllipse
10
93.997836
20
2.582251
30
0
11
0.824539788189066
21
-2.24808005802295
31
0
210
0
220
0
230
-1
40
0.082138
41
-1.57109277372054
42
-0.755280950347192
0
ELLIPSE
5
AD
100
AcDbEntity
8
1
62
256
6
ByLayer
370
13
48
1
60
0
100
AcDbEllipse
10
94.301456
20
2.582251
30
0
11
3.65934456364357
21
-1.54915617777832
31
0
210
0
220
0
230
-1
40
0.445575
41
1.59637668463492
42
1.89875701670274
0
POINT
5
6C
100
AcDbEntity
8
81
62
256
6
ByLayer
370
18
48
1
60
0
100
AcDbPoint
10
95
20
0
30
0
39
0
210
0
220
0
230
1
50
360
0
POINT
5
6E
100
AcDbEntity
8
80
62
256
6
ByLayer
370
18
48
1
60
0
100
AcDbPoint
10
0
20
0
30
0
39
0
210
0
220
0
230
1
50
360
0
POINT
5
70
100
AcDbEntity
8
SK2
62
256
6
ByLayer
370
18
48
1
60
1
100
AcDbPoint
10
-45
20
-6
30
0
39
0
210
0
220
0
230
1
50
360
0
POINT
5
72
100
AcDbEntity
8
SK2
62
256
6
ByLayer
370
18
48
1
60
1
100
AcDbPoint
10
-45
20
6
30
0
39
0
210
0
220
0
230
1
50
360
0
POINT
5
73
100
AcDbEntity
8
2
62
256
6
ByLayer
370
18
48
1
60
1
100
AcDbPoint
10
93.16
20
-5.355
30
0
39
0
210
0
220
0
230
1
50
360
0
POINT
5
75
100
AcDbEntity
8
2
62
256
6
ByLayer
370
18
48
1
60
1
100
AcDbPoint
10
93.16
20
5.355
30
0
39
0
210
0
220
0
230
1
50
360
0
SPLINE
5
AE
100
AcDbEntity
8
1
62
256
6
ByLayer
370
18
48
1
60
0
100
AcDbSpline
70
4
71
2
72
6
73
3
40
0
40
0
40
0
40
1
40
1
40
1
41
1
10
76.9478038216743
20
0.0040672617486166
30
0
41
1
10
76.9477817176094
20
0.0040789878934788
30
0
41
1
10
76.947759613614
20
0.0040910431613952
30
0
0
SPLINE
5
AF
100
AcDbEntity
8
1
62
256
6
ByLayer
370
18
48
1
60
0
100
AcDbSpline
70
4
71
3
72
36
73
32
40
0
40
0
40
0
40
0
40
0.0487163806981078
40
0.0914854372677064
40
0.128862486863315
40
0.159219551900114
40
0.183229660807559
40
0.207192252513979
40
0.239551426344247
40
0.273907783171997
40
0.304265891770471
40
0.330618050823289
40
0.37112826768008
40
0.408227078510481
40
0.450864582104751
40
0.50213753649397
40
0.543907243891551
40
0.577918705100061
40
0.617217951003749
40
0.658537903790211
40
0.69038668393264
40
0.712086306004967
40
0.737131219040507
40
0.772728726823218
40
0.814490241713306
40
0.852043788970442
40
0.882954230844404
40
0.91609670737294
40
0.955729945981919
40
0.999829384350658
40
1
40
1
40
1
40
1
41
1
10
62.1066465005237
20
-5.09734746597888
30
0
41
1
10
62.3517185145502
20
-5.09710671317788
30
0
41
1
10
62.8126923115634
20
-5.09700654343283
30
0
41
1
10
63.4731602523912
20
-5.09682538571175
30
0
41
1
10
64.0262643004226
20
-5.09892976627955
30
0
41
1
10
64.4919771984093
20
-5.09921741277086
30
0
41
1
10
64.8908041701753
20
-5.09959996753133
30
0
41
1
10
65.2994419269811
20
-5.09960195633818
30
0
41
1
10
65.7611456619085
20
-5.09946988766299
30
0
41
1
10
66.2552691313284
20
-5.09952818643345
30
0
41
1
10
66.7188511511173
20
-5.10045978721274
30
0
41
1
10
67.2137392698278
20
-5.10150732317618
30
0
41
1
10
67.7429471983702
20
-5.10135124712423
30
0
41
1
10
68.35506593601
20
-5.10094096105615
30
0
41
1
10
69.0219747947163
20
-5.10075907903334
30
0
41
1
10
69.7126390177497
20
-5.10418005206225
30
0
41
1
10
70.3593941233787
20
-5.10374541914979
30
0
41
1
10
70.9452113595066
20
-5.10311890067371
30
0
41
1
10
71.5287434573509
20
-5.10155460601393
30
0
41
1
10
72.1012562751416
20
-5.10410029224332
30
0
41
1
10
72.5841831653185
20
-5.1042618707549
30
0
41
1
10
72.9842625395166
20
-5.10374101804484
30
0
41
1
10
73.4034237033038
20
-5.10304024017665
30
0
41
1
10
73.9247245657062
20
-5.10210194611139
30
0
41
1
10
74.5096329848192
20
-5.10305208380538
30
0
41
1
10
75.0709087867131
20
-5.10778582718837
30
0
41
1
10
75.5875024785054
20
-5.10860784714612
30
0
41
1
10
76.1171430551686
20
-5.10952420625196
30
0
41
1
10
76.6901304191068
20
-5.10565558993792
30
0
41
1
10
77.129903564958
20
-5.10291713004159
30
0
41
1
10
77.3493704501454
20
-5.10326745519751
30
0
41
1
10
77.3502162351226
20
-5.10326881877992
30
0
0
SPLINE
5
B0
100
AcDbEntity
8
1
62
256
6
ByLayer
370
18
48
1
60
0
100
AcDbSpline
70
4
71
3
72
28
73
24
40
0
40
0
40
0
40
0
40
0.014220063938969
40
0.0877512694829012
40
0.148813590113519
40
0.200624998583267
40
0.249561914635349
40
0.310419990792781
40
0.360943819053036
40
0.402087232468541
40
0.448458921550267
40
0.501135264962932
40
0.56106951067684
40
0.618634882272143
40
0.656510921566923
40
0.69259878453552
40
0.741972524969502
40
0.798295572821556
40
0.84745018614038
40
0.89028827944803
40
0.940632996500962
40
0.99592154802645
40
1
40
1
40
1
40
1
41
1
10
47.2190379671524
20
5.0899604575516
30
0
41
1
10
47.1605777761877
20
5.08986612995594
30
0
41
1
10
46.7997857364479
20
5.08932556054572
30
0
41
1
10
46.1831827472316
20
5.09202454124198
30
0
41
1
10
45.420072100774
20
5.08894628563411
30
0
41
1
10
44.7516092233247
20
5.0881425805444
30
0
41
1
10
44.0852554229558
20
5.08918391853524
30
0
41
1
10
43.4236266300685
20
5.09077635062769
30
0
41
1
10
42.7943230833251
20
5.08753551905443
30
0
41
1
10
42.2247508970171
20
5.0869492978604
30
0
41
1
10
41.6463075993427
20
5.08707295068706
30
0
41
1
10
40.990326588957
20
5.08807499601218
30
0
41
1
10
40.2881616883055
20
5.08563294974113
30
0
41
1
10
39.6470637052153
20
5.08417163347343
30
0
41
1
10
39.104353897407
20
5.08504456876315
30
0
41
1
10
38.5954597370843
20
5.08539999098036
30
0
41
1
10
38.0104376154463
20
5.08600485520424
30
0
41
1
10
37.3715056759075
20
5.08244955296868
30
0
41
1
10
36.759541307363
20
5.08226404384084
30
0
41
1
10
36.172248826155
20
5.08285830472144
30
0
41
1
10
35.5596384505145
20
5.08320519582955
30
0
41
1
10
35.1069716255852
20
5.08213263845204
30
0
41
1
10
34.8620196002603
20
5.08167556964304
30
0
41
1
10
34.8451916308213
20
5.08164479726818
30
0
0
SPLINE
5
B1
100
AcDbEntity
8
1
62
256
6
ByLayer
370
18
48
1
60
0
100
AcDbSpline
70
4
71
3
72
12
73
8
40
0
40
0
40
0
40
0
40
0.0512312907783125
40
0.166313056446969
40
0.378227335038956
40
0.710616505195905
40
1
40
1
40
1
40
1
41
1
10
48.6297421735534
20
-1.37114033305917
30
0
41
1
10
48.6296993965126
20
-1.37114808085195
30
0
41
1
10
48.6307034741951
20
-1.37171802037182
30
0
41
1
10
48.6431450352211
20
-1.37787927507631
30
0
41
1
10
48.7240195275964
20
-1.41833050637794
30
0
41
1
10
48.8279702643122
20
-1.47240804362886
30
0
41
1
10
48.9164988881727
20
-1.51959248156027
30
0
41
1
10
48.9593636029101
20
-1.54270880552619
30
0
0
SPLINE
5
B2
100
AcDbEntity
8
1
62
256
6
ByLayer
370
18
48
1
60
0
100
AcDbSpline
70
4
71
3
72
29
73
25
40
0
40
0
40
0
40
0
40
0.0086814755364252
40
0.0346468350895174
40
0.053495967572165
40
0.0739673184564439
40
0.0960721371021529
40
0.15519564146872
40
0.226607394640093
40
0.283918829388982
40
0.3293861232758
40
0.359231744479965
40
0.391365183547316
40
0.432351523363992
40
0.510985419892362
40
0.580789542379229
40
0.641884940551747
40
0.716864757306895
40
0.756257714295765
40
0.789675871843056
40
0.82072304400719
40
0.868392405180079
40
0.935683759685053
40
1
40
1
40
1
40
1
41
1
10
17.0967106677928
20
5.07546411899779
30
0
41
1
10
17.0653235303304
20
5.07547818107241
30
0
41
1
10
16.940065527969
20
5.07550979847818
30
0
41
1
10
16.7466509349518
20
5.07540481442626
30
0
41
1
10
16.5107411454053
20
5.07504428068063
30
0
41
1
10
16.2886717627639
20
5.07450975090339
30
0
41
1
10
15.9209899897573
20
5.07373115497217
30
0
41
1
10
15.3691242875183
20
5.07352814969761
30
0
41
1
10
14.6899743266907
20
5.07414722941834
30
0
41
1
10
14.0602012627749
20
5.0729614431591
30
0
41
1
10
13.5807076380404
20
5.07208656773517
30
0
41
1
10
13.192239958985
20
5.07163183165113
30
0
41
1
10
12.8199787989496
20
5.07142237399245
30
0
41
1
10
12.271328481704
20
5.07119921068033
30
0
41
1
10
11.5865165655091
20
5.07192526469512
30
0
41
1
10
10.8289225301384
20
5.06827227318254
30
0
41
1
10
10.0846897491903
20
5.06836039769459
30
0
41
1
10
9.45030105295919
20
5.0685500490022
30
0
41
1
10
8.91596834180524
20
5.06864880302143
30
0
41
1
10
8.54047742844375
20
5.06856991919969
30
0
41
1
10
8.13505361944746
20
5.06832721324483
30
0
41
1
10
7.6072093439941
20
5.06771235051886
30
0
41
1
10
6.9590276093848
20
5.06630579245024
30
0
41
1
10
6.48324157587194
20
5.06495203068243
30
0
41
1
10
6.25072921539356
20
5.06419544703812
30
0
0
SPLINE
5
B3
100
AcDbEntity
8
1
62
256
6
ByLayer
370
18
48
1
60
0
100
AcDbSpline
70
4
71
3
72
12
73
8
40
0
40
0
40
0
40
0
40
0.111459013421269
40
0.279994962361922
40
0.472536602879193
40
0.744575590766301
40
1
40
1
40
1
40
1
41
1
10
78.5842002768052
20
-1.37317939819002
30
0
41
1
10
78.5844291667775
20
-1.37337184682804
30
0
41
1
10
78.589473618509
20
-1.37601427735217
30
0
41
1
10
78.6243571657843
20
-1.39337946767307
30
0
41
1
10
78.6980006640956
20
-1.43090965576698
30
0
41
1
10
78.809650207642
20
-1.48906955606165
30
0
41
1
10
78.8976029344819
20
-1.53619052610915
30
0
41
1
10
78.9429986509099
20
-1.56073450522251
30
0
0
SPLINE
5
B4
100
AcDbEntity
8
1
62
256
6
ByLayer
370
18
48
1
60
0
100
AcDbSpline
70
4
71
3
72
32
73
28
40
0
40
0
40
0
40
0
40
0.0552506001793352
40
0.10189875011691
40
0.134449765027075
40
0.155028071461596
40
0.177385859070906
40
0.234734210723711
40
0.282765051304085
40
0.331112961577536
40
0.388942048645799
40
0.42179090210913
40
0.447757664364013
40
0.468571072419492
40
0.497675573350886
40
0.536493024487705
40
0.588792979851213
40
0.634392979202015
40
0.674216078474612
40
0.710732643406765
40
0.758532110682276
40
0.806238108953974
40
0.843272925994468
40
0.885035511953087
40
0.933698071779032
40
0.991949573354317
40
1
40
1
40
1
40
1
41
1
10
32.2369925170213
20
-5.07921756657638
30
0
41
1
10
32.5129616804326
20
-5.07949560209261
30
0
41
1
10
33.0219739783124
20
-5.07996541425962
30
0
41
1
10
33.6937908309749
20
-5.08045899917093
30
0
41
1
10
34.192289347003
20
-5.08079238047594
30
0
41
1
10
34.5694424683101
20
-5.08116525503493
30
0
41
1
10
35.070503513757
20
-5.08202575016088
30
0
41
1
10
35.7087031289972
20
-5.0833955473932
30
0
41
1
10
36.4768018750488
20
-5.08252617220597
30
0
41
1
10
37.2472717673006
20
-5.08186819423284
30
0
41
1
10
37.9419033371961
20
-5.08584017173683
30
0
41
1
10
38.524710563416
20
-5.08543543195034
30
0
41
1
10
38.9225617216023
20
-5.08520885447632
30
0
41
1
10
39.3017120046266
20
-5.08474829978132
30
0
41
1
10
39.7450729961149
20
-5.08420259411847
30
0
41
1
10
40.3457514971805
20
-5.08592253827004
30
0
41
1
10
41.028848199095
20
-5.08804780156555
30
0
41
1
10
41.7169707100604
20
-5.08703704189426
30
0
41
1
10
42.3262308927074
20
-5.08688421051687
30
0
41
1
10
42.946483218155
20
-5.08821297677315
30
0
41
1
10
43.6061139028208
20
-5.09070771384995
30
0
41
1
10
44.2683627919183
20
-5.08878321194211
30
0
41
1
10
44.9002238993818
20
-5.08807422985612
30
0
41
1
10
45.5372907403785
20
-5.08967147711007
30
0
41
1
10
46.274186961315
20
-5.09164347763255
30
0
41
1
10
46.8513283878197
20
-5.08930948139792
30
0
41
1
10
47.1814007198836
20
-5.08980559954961
30
0
41
1
10
47.2214746465084
20
-5.08987077996204
30
0
0
SPLINE
5
B5
100
AcDbEntity
8
1
62
256
6
ByLayer
370
18
48
1
60
0
100
AcDbSpline
70
4
71
2
72
6
73
3
40
0
40
0
40
0
40
1
40
1
40
1
41
1
10
92.1433805934913
20
-5.11543860742361
30
0
41
1
10
92.6423231545695
20
-5.11117992657105
30
0
41
1
10
93.1412304618037
20
-5.11819194245226
30
0
0
SPLINE
5
B6
100
AcDbEntity
8
1
62
256
6
ByLayer
370
18
48
1
60
0
100
AcDbSpline
70
4
71
3
72
30
73
26
40
0
40
0
40
0
40
0
40
0.0481583378716057
40
0.0947076154508169
40
0.134124331706212
40
0.16909530759872
40
0.210418110414774
40
0.259520394513165
40
0.30619549343064
40
0.33725951626142
40
0.359474010391664
40
0.387915675471561
40
0.426561784267455
40
0.472422945370493
40
0.514221230615621
40
0.550860551485749
40
0.604851124730152
40
0.67052998836931
40
0.722797530476003
40
0.771278436202097
40
0.825431428159969
40
0.894849871236781
40
0.955400187983358
40
0.99605740085702
40
1
40
1
40
1
40
1
41
1
10
77.3408901964582
20
5.10342422241985
30
0
41
1
10
77.1361449295179
20
5.10380570037566
30
0
41
1
10
76.7360065050613
20
5.10468567128024
30
0
41
1
10
76.1888467122484
20
5.10948503633779
30
0
41
1
10
75.6803607412073
20
5.1087933924631
30
0
41
1
10
75.1932043540845
20
5.10798889295276
30
0
41
1
10
74.6654298477314
20
5.1047510011052
30
0
41
1
10
74.0882857521234
20
5.1017500828535
30
0
41
1
10
73.5543523489656
20
5.1027978241662
30
0
41
1
10
73.1335957905645
20
5.10351078548618
30
0
41
1
10
72.7895954662119
20
5.10397362641885
30
0
41
1
10
72.4136775002202
20
5.1045287212103
30
0
41
1
10
71.9382237105783
20
5.10289243706151
30
0
41
1
10
71.4065414260209
20
5.10198024868467
30
0
41
1
10
70.8833035375008
20
5.10316163111762
30
0
41
1
10
70.3258477747009
20
5.10379195312396
30
0
41
1
10
69.6678820147651
20
5.10414475853401
30
0
41
1
10
68.9441272323031
20
5.10054944107753
30
0
41
1
10
68.2435479830801
20
5.10101440653582
30
0
41
1
10
67.5914906809792
20
5.10153132110392
30
0
41
1
10
66.8672244520204
20
5.10103405117042
30
0
41
1
10
66.0923177417101
20
5.09914375427758
30
0
41
1
10
65.3735850681481
20
5.09968815098844
30
0
41
1
10
64.9318425483518
20
5.09953199649397
30
0
41
1
10
64.7438693957641
20
5.09944562647337
30
0
41
1
10
64.727250158805
20
5.09943767906762
30
0
0
SPLINE
5
B7
100
AcDbEntity
8
1
62
256
6
ByLayer
370
18
48
1
60
0
100
AcDbSpline
70
4
71
3
72
29
73
25
40
0
40
0
40
0
40
0
40
0.0529266210634043
40
0.114170479773519
40
0.160972798898735
40
0.193569176664214
40
0.218967268740979
40
0.281304479265249
40
0.348480878151275
40
0.397383226445183
40
0.44759210414757
40
0.505649932423947
40
0.567672726789627
40
0.610859649395394
40
0.644092474465727
40
0.677674018895452
40
0.729628492556465
40
0.789961491515209
40
0.84314593355034
40
0.90255977977607
40
0.952290171668527
40
0.969561159199774
40
0.996814662669372
40
1
40
1
40
1
40
1
41
1
10
6.25073299213477
20
-5.06420612957362
30
0
41
1
10
6.44205761644633
20
-5.06481908130371
30
0
41
1
10
6.85478109187898
20
-5.06601223580662
30
0
41
1
10
7.43676706203604
20
-5.06738922205159
30
0
41
1
10
7.94519670141145
20
-5.06813317791921
30
0
41
1
10
8.3240623153352
20
-5.0684543919667
30
0
41
1
10
8.75909454487334
20
-5.06865270850793
30
0
41
1
10
9.31914661657117
20
-5.06859800663162
30
0
41
1
10
9.96417622947149
20
-5.0683775695446
30
0
41
1
10
10.5652573623045
20
-5.06828110866678
30
0
41
1
10
11.1334655164264
20
-5.06959161390873
30
0
41
1
10
11.7491133987877
20
-5.07167020378543
30
0
41
1
10
12.339343167906
20
-5.07122968868183
30
0
41
1
10
12.839847000812
20
-5.07142481404435
30
0
41
1
10
13.2375289988102
20
-5.07167017528815
30
0
41
1
10
13.666914924402
20
-5.0722011142978
30
0
41
1
10
14.1942703567895
20
-5.07330071781251
30
0
41
1
10
14.7924956718052
20
-5.07404210431235
30
0
41
1
10
15.4177012453157
20
-5.07356211749689
30
0
41
1
10
16.0045390915986
20
-5.07371227324387
30
0
41
1
10
16.461634485402
20
-5.0750250862487
30
0
41
1
10
16.8021753807888
20
-5.07544100819365
30
0
41
1
10
16.9746975456028
20
-5.07552086018833
30
0
41
1
10
17.0847365815353
20
-5.07548550198169
30
0
41
1
10
17.0962520104733
20
-5.07548100834026
30
0
0
SPLINE
5
B8
100
AcDbEntity
8
1
62
256
6
ByLayer
370
18
48
1
60
0
100
AcDbSpline
70
4
71
3
72
8
73
4
40
0
40
0
40
0
40
0
40
1
40
1
40
1
40
1
41
1
10
93.1288975148245
20
5.31264980501123
30
0
41
1
10
92.7292973410711
20
5.34068122961057
30
0
41
1
10
92.3292749787633
20
5.35454009173006
30
0
41
1
10
91.9289137150465
20
5.35423227939802
30
0
0
SPLINE
5
B9
100
AcDbEntity
8
1
62
256
6
ByLayer
370
18
48
1
60
0
100
AcDbSpline
70
4
71
3
72
58
73
54
40
0
40
0
40
0
40
0
40
0.0459113362783451
40
0.0459113362783451
40
0.0874639278829919
40
0.0874639278829919
40
0.129016519487639
40
0.129016519487639
40
0.149792815289962
40
0.149792815289962
40
0.170569111092286
40
0.170569111092286
40
0.212121702696931
40
0.212121702696931
40
0.253674294301577
40
0.253674294301577
40
0.2744505901039
40
0.2744505901039
40
0.295226885906222
40
0.295226885906222
40
0.336779477510867
40
0.336779477510867
40
0.378332069115512
40
0.378332069115512
40
0.461437252324802
40
0.461437252324802
40
0.544542435534091
40
0.544542435534091
40
0.586095027138737
40
0.586095027138737
40
0.627647618743382
40
0.627647618743382
40
0.648423914545704
40
0.648423914545704
40
0.669200210348026
40
0.669200210348026
40
0.710752801952671
40
0.710752801952671
40
0.752305393557315
40
0.752305393557315
40
0.773081689359637
40
0.773081689359637
40
0.793857985161959
40
0.793857985161959
40
0.835410576766604
40
0.835410576766604
40
0.876963168371248
40
0.876963168371248
40
0.918515759975892
40
0.918515759975892
40
0.960068351580537
40
0.960068351580537
40
1
40
1
40
1
40
1
41
1
10
64.741801748426
20
-5.11538192585962
30
0
41
1
10
64.2416418447595
20
-5.19508689104273
30
0
41
1
10
63.7418558464933
20
-5.25362313357152
30
0
41
1
10
62.7882347371833
20
-5.32356445551054
30
0
41
1
10
62.3338196337339
20
-5.33881204487261
30
0
41
1
10
61.4278095674026
20
-5.3330246092527
30
0
41
1
10
60.97554462834
20
-5.31208591400008
30
0
41
1
10
60.2966705656784
20
-5.25380832889422
30
0
41
1
10
60.0702526345688
20
-5.22991651270411
30
0
41
1
10
59.6168840117469
20
-5.173274707074
30
0
41
1
10
59.3897190231135
20
-5.14048521164412
30
0
41
1
10
58.709091842699
20
-5.02927768940995
30
0
41
1
10
58.2565053659243
20
-4.93798505779401
30
0
41
1
10
57.3515658381523
20
-4.72258273400749
30
0
41
1
10
56.8990033583426
20
-4.59863201383573
30
0
41
1
10
56.2184399208768
20
-4.38964310484025
30
0
41
1
10
55.9911969734822
20
-4.31609545740255
30
0
41
1
10
55.5377119928185
20
-4.16199107130817
30
0
41
1
10
55.3112565954053
20
-4.08138479693895
30
0
41
1
10
54.6321905242942
20
-3.82958050252481
30
0
41
1
10
54.1798428473924
20
-3.64844736058637
30
0
41
1
10
53.2737201637406
20
-3.26245957280869
30
0
41
1
10
52.8192586467471
20
-3.05696978967313
30
0
41
1
10
51.4594857621746
20
-2.41297077757739
30
0
41
1
10
50.5559865074964
20
-1.94733907142248
30
0
41
1
10
48.7393990009323
20
-0.969938456261673
30
0
41
1
10
47.8359613440969
20
-0.464858812078319
30
0
41
1
10
46.4758614103037
20
0.295465014044623
30
0
41
1
10
46.0212829260952
20
0.549204207456995
30
0
41
1
10
45.1149955936826
20
1.04940578153756
30
0
41
1
10
44.6626309163589
20
1.29670013071507
30
0
41
1
10
43.9833047265996
20
1.66000842548982
30
0
41
1
10
43.7567335818913
20
1.77984138390593
30
0
41
1
10
43.3030492817716
20
2.01647493204365
30
0
41
1
10
43.0757438636822
20
2.13336149521046
30
0
41
1
10
42.3950069692132
20
2.47765468829468
30
0
41
1
10
41.9423485300975
20
2.69917528196368
30
0
41
1
10
41.0369604787457
20
3.12249506160853
30
0
41
1
10
40.5841082860999
20
3.32412095035946
30
0
41
1
10
39.9031569228279
20
3.60936612137465
30
0
41
1
10
39.6759158554689
20
3.70157679602784
30
0
41
1
10
39.2223397949333
20
3.87918901284044
30
0
41
1
10
38.9957847447529
20
3.96468064319771
30
0
41
1
10
38.3163558643196
20
4.21070228871906
30
0
41
1
10
37.8638101652217
20
4.36088828191018
30
0
41
1
10
36.957361468146
20
4.63119675121487
30
0
41
1
10
36.5025503817808
20
4.75133445920008
30
0
41
1
10
35.5956986067587
20
4.95799567809897
30
0
41
1
10
35.1430811348149
20
5.04465142946682
30
0
41
1
10
34.2372519991273
20
5.18338435977864
30
0
41
1
10
33.7837849616676
20
5.23549687966033
30
0
41
1
10
32.8930272119405
20
5.30255018184218
30
0
41
1
10
32.4576107515096
20
5.31873422386485
30
0
41
1
10
32.0223595750975
20
5.31829128907572
30
0
0
SPLINE
5
BA
100
AcDbEntity
8
1
62
256
6
ByLayer
370
18
48
1
60
0
100
AcDbSpline
70
4
71
3
72
87
73
83
40
0
40
0
40
0
40
0
40
0.0366397930051469
40
0.0366397930051469
40
0.0718094082226444
40
0.0718094082226444
40
0.106979023440142
40
0.106979023440142
40
0.177318253875137
40
0.177318253875137
40
0.247657484310132
40
0.247657484310132
40
0.317996714745127
40
0.317996714745127
40
0.388335945180122
40
0.388335945180122
40
0.42350556039762
40
0.42350556039762
40
0.441090368006369
40
0.449882771810743
40
0.449882771810743
40
0.45427897371293
40
0.45427897371293
40
0.454553736331817
40
0.454553736331817
40
0.454828498950703
40
0.454828498950703
40
0.45510326156959
40
0.45510326156959
40
0.455378024188477
40
0.455378024188477
40
0.456477074664024
40
0.456477074664024
40
0.458675175615118
40
0.458675175615118
40
0.467467579419493
40
0.467467579419493
40
0.476259983223867
40
0.476259983223867
40
0.493844790832618
40
0.493844790832618
40
0.529014406050117
40
0.529014406050117
40
0.599353636485117
40
0.599353636485117
40
0.669692866920117
40
0.669692866920117
40
0.704862482137617
40
0.704862482137617
40
0.713654885941992
40
0.713654885941992
40
0.715852986893086
40
0.715852986893086
40
0.716952037368633
40
0.716952037368633
40
0.717501562606406
40
0.717501562606406
40
0.717776325225293
40
0.717776325225293
40
0.717913706534736
40
0.717913706534736
40
0.71805108784418
40
0.71805108784418
40
0.722447289746367
40
0.722447289746367
40
0.740032097355116
40
0.740032097355116
40
0.775201712572615
40
0.775201712572615
40
0.810371327790113
40
0.810371327790113
40
0.845540943007611
40
0.845540943007611
40
0.88071055822511
40
0.88071055822511
40
0.951049788660106
40
0.951049788660106
40
0.968634596268856
40
0.968634596268856
40
0.986219403877605
40
0.986219403877605
40
1
40
1
40
1
40
1
41
1
10
18.6439998499333
20
-1.34520742981439
30
0
41
1
10
18.4686446727194
20
-1.25271130467664
30
0
41
1
10
18.2930938429191
20
-1.16241975123171
30
0
41
1
10
17.9482538159958
20
-0.990949149091108
30
0
41
1
10
17.7787652796208
20
-0.909482635774481
30
0
41
1
10
17.439298630156
20
-0.753630851843582
30
0
41
1
10
17.2707997046388
20
-0.679927531237439
30
0
41
1
10
16.7681949465321
20
-0.473287181144059
30
0
41
1
10
16.4370513027025
20
-0.354865547611723
30
0
41
1
10
15.7762651813746
20
-0.165632626147214
30
0
41
1
10
15.4465837934215
20
-0.094827468586999
30
0
41
1
10
14.7805719940885
20
-0.0082747563378121
30
0
41
1
10
14.451894634321
20
0.0064204451246042
30
0
41
1
10
13.7970537984698
20
-0.0191872371459567
30
0
41
1
10
13.4704681278622
20
-0.0593926623366201
30
0
41
1
10
12.9762150502755
20
-0.159044921112269
30
0
41
1
10
12.8103560296217
20
-0.198943600273083
30
0
41
1
10
12.5616754162905
20
-0.267929458831929
30
0
41
1
10
12.4373392632158
20
-0.304699000850093
30
0
41
1
10
12.3128941024593
20
-0.34478898758374
30
0
41
1
10
12.2506440478472
20
-0.365380036477831
30
0
41
1
10
12.2298889019887
20
-0.372334920152326
30
0
41
1
10
12.2078364182412
20
-0.379818623564745
30
0
41
1
10
12.206539208814
20
-0.3802591888047
30
0
41
1
10
12.2039447810096
20
-0.381141013578429
30
0
41
1
10
12.2022188080243
20
-0.381263107202955
30
0
41
1
10
12.2006786056444
20
-0.382962977709326
30
0
41
1
10
12.2019634537075
20
-0.384179948528356
30
0
41
1
10
12.2037168046838
20
-0.386023068747875
30
0
41
1
10
12.2047097797984
20
-0.386891678651494
30
0
41
1
10
12.2098369497286
20
-0.391147096306639
30
0
41
1
10
12.2143791041381
20
-0.394239943288852
30
0
41
1
10
12.2281180745765
20
-0.40344009821689
30
0
41
1
10
12.2376105371542
20
-0.409315239389258
30
0
41
1
10
12.2853678388222
20
-0.438369994132529
30
0
41
1
10
12.3247602859469
20
-0.460602900947976
30
0
41
1
10
12.4036495253388
20
-0.504939774121794
30
0
41
1
10
12.4433298177889
20
-0.526903276730962
30
0
41
1
10
12.5626829636323
20
-0.592565687836867
30
0
41
1
10
12.6426800275458
20
-0.63602930679221
30
0
41
1
10
12.8831375340876
20
-0.766207230925886
30
0
41
1
10
13.0441140790203
20
-0.852688269888631
30
0
41
1
10
13.5278133940403
20
-1.11251952465412
30
0
41
1
10
13.851136892086
20
-1.28659419730653
30
0
41
1
10
14.4975807955929
20
-1.63893358761047
30
0
41
1
10
14.8209355796024
20
-1.81666221974118
30
0
41
1
10
15.3033007106795
20
-2.09017927228325
30
0
41
1
10
15.4639842091893
20
-2.18186592653771
30
0
41
1
10
15.6619187169944
20
-2.3019532408544
30
0
41
1
10
15.7014209930049
20
-2.32613824065021
30
0
41
1
10
15.7497426707646
20
-2.3582269639418
30
0
41
1
10
15.7593579208375
20
-2.36474457054246
30
0
41
1
10
15.7734515884351
20
-2.37496608994348
30
0
41
1
10
15.7781035972128
20
-2.37843717035773
30
0
41
1
10
15.7848275642475
20
-2.38399656821778
30
0
41
1
10
15.787045896016
20
-2.38590512523322
30
0
41
1
10
15.7901070691375
20
-2.38904598918884
30
0
41
1
10
15.7911122067549
20
-2.39013236555911
30
0
41
1
10
15.7922663694014
20
-2.39201834479385
30
0
41
1
10
15.7926641242562
20
-2.39272971981896
30
0
41
1
10
15.7924446526361
20
-2.39423240704087
30
0
41
1
10
15.791650514838
20
-2.39464339437859
30
0
41
1
10
15.7727065837446
20
-2.41088314958321
30
0
41
1
10
15.7543383339832
20
-2.4266075853742
30
0
41
1
10
15.6625049824168
20
-2.50510014193429
30
0
41
1
10
15.5890810530727
20
-2.56746562446395
30
0
41
1
10
15.3688029726039
20
-2.75283702973928
30
0
41
1
10
15.2221000272822
20
-2.87399061725085
30
0
41
1
10
14.9293167436353
20
-3.10799611585929
30
0
41
1
10
14.7829633275734
20
-3.22108637106285
30
0
41
1
10
14.4884242074434
20
-3.43727460213691
30
0
41
1
10
14.3397731438619
20
-3.54067275995712
30
0
41
1
10
14.04048609116
20
-3.73348150779324
30
0
41
1
10
13.8908372591736
20
-3.82227529794684
30
0
41
1
10
13.4387240244267
20
-4.06302022832452
30
0
41
1
10
13.1329932569797
20
-4.18907696057471
30
0
41
1
10
12.7353977995057
20
-4.29622442999806
30
0
41
1
10
12.6551443735362
20
-4.31512369266576
30
0
41
1
10
12.4948865180759
20
-4.34752933693451
30
0
41
1
10
12.4146386775622
20
-4.36110645411236
30
0
41
1
10
12.2711661703499
20
-4.38086081128165
30
0
41
1
10
12.2080121468556
20
-4.38800175041172
30
0
41
1
10
12.1447174277977
20
-4.39367494498387
30
0
0
SPLINE
5
BB
100
AcDbEntity
8
1
62
256
6
ByLayer
370
18
48
1
60
0
100
AcDbSpline
70
4
71
3
72
15
73
11
40
0
40
0
40
0
40
0
40
0.26423080480889
40
0.26423080480889
40
0.52846160961778
40
0.792692414426671
40
0.792692414426671
40
0.924807816831116
40
0.924807816831116
40
1
40
1
40
1
40
1
41
1
10
6.00025290514895
20
4.91482365018109
30
0
41
1
10
6.00025466233916
20
4.98283282609557
30
0
41
1
10
6.000256301983
20
5.04233645229976
30
0
41
1
10
6.00025934150105
20
5.14269692038687
30
0
41
1
10
6.00026215261229
20
5.22489291320153
30
0
41
1
10
6.00026461424682
20
5.27149084872343
30
0
41
1
10
6.00026636744113
20
5.29294910659885
30
0
41
1
10
6.00026693631645
20
5.29784923640895
30
0
41
1
10
6.00026780947505
20
5.3019431159598
30
0
41
1
10
6.0002681226442
20
5.30268228300014
30
0
41
1
10
6.00026843167794
20
5.30267245501724
30
0
0
SPLINE
5
BC
100
AcDbEntity
8
1
62
256
6
ByLayer
370
18
48
1
60
0
100
AcDbSpline
70
2053
71
3
72
62
73
58
40
0
40
0
40
0
40
0
40
0.0312500000000015
40
0.0312500000000015
40
0.0625000000000029
40
0.0625000000000029
40
0.0937500000000044
40
0.0937500000000044
40
0.125000000000006
40
0.125000000000006
40
0.156250000000007
40
0.156250000000007
40
0.187500000000009
40
0.187500000000009
40
0.21875000000001
40
0.21875000000001
40
0.250000000000012
40
0.250000000000012
40
0.281250000000013
40
0.281250000000013
40
0.312500000000015
40
0.312500000000015
40
0.375000000000017
40
0.375000000000017
40
0.43750000000002
40
0.43750000000002
40
0.468750000000018
40
0.468750000000018
40
0.500000000000017
40
0.500000000000017
40
0.531250000000015
40
0.531250000000015
40
0.562500000000013
40
0.562500000000013
40
0.593750000000011
40
0.593750000000011
40
0.625000000000009
40
0.625000000000009
40
0.656250000000007
40
0.656250000000007
40
0.687500000000005
40
0.687500000000005
40
0.750000000000002
40
0.750000000000002
40
0.781250000000002
40
0.781250000000002
40
0.812500000000002
40
0.812500000000002
40
0.843750000000002
40
0.843750000000002
40
0.875000000000001
40
0.875000000000001
40
0.906250000000001
40
0.906250000000001
40
0.937500000000001
40
0.937500000000001
40
1
40
1
40
1
40
1
41
1
10
93.3453916363361
20
-2.07433806367768
30
0
41
1
10
93.3171329869258
20
-2.11379989300482
30
0
41
1
10
93.2894076425389
20
-2.15621196389745
30
0
41
1
10
93.2351218649665
20
-2.24748038308209
30
0
41
1
10
93.2082639421284
20
-2.29694607341583
30
0
41
1
10
93.1576114671216
20
-2.40039671015234
30
0
41
1
10
93.1338813527888
20
-2.45410396378892
30
0
41
1
10
93.0901089145987
20
-2.56609766779488
30
0
41
1
10
93.0706132771934
20
-2.62315650575795
30
0
41
1
10
93.0379941542903
20
-2.73561830949473
30
0
41
1
10
93.0245315139925
20
-2.79247484930389
30
0
41
1
10
93.0054760288523
20
-2.89906095573753
30
0
41
1
10
92.9996181613266
20
-2.94980612381679
30
0
41
1
10
92.995357997629
20
-3.04288411266324
30
0
41
1
10
92.996903342746
20
-3.08447541569126
30
0
41
1
10
93.0065908292452
20
-3.15877771684171
30
0
41
1
10
93.0146271522053
20
-3.19047510895791
30
0
41
1
10
93.0359917208928
20
-3.24386193855045
30
0
41
1
10
93.0494465239631
20
-3.26563983870366
30
0
41
1
10
93.0802443989826
20
-3.29898501085964
30
0
41
1
10
93.0976733581552
20
-3.31081983826948
30
0
41
1
10
93.1555942031333
20
-3.33289797367047
30
0
41
1
10
93.1999901825577
20
-3.32942513567991
30
0
41
1
10
93.2981026121448
20
-3.29041286594375
30
0
41
1
10
93.3500695200651
20
-3.25562322182626
30
0
41
1
10
93.432419957748
20
-3.18033477446565
30
0
41
1
10
93.4603219681118
20
-3.1515271693286
30
0
41
1
10
93.5159249221599
20
-3.08749844627329
30
0
41
1
10
93.5437926128159
20
-3.05213440070602
30
0
41
1
10
93.5996738974615
20
-2.97402519990067
30
0
41
1
10
93.6279462159076
20
-2.93080888753812
30
0
41
1
10
93.6824812547327
20
-2.83915872656934
30
0
41
1
10
93.7089297696302
20
-2.7905475514801
30
0
41
1
10
93.7599213382011
20
-2.68684319157433
30
0
41
1
10
93.7841179847874
20
-2.63233255575111
30
0
41
1
10
93.8278868984208
20
-2.52121525007598
30
0
41
1
10
93.8479293418117
20
-2.46324320871852
30
0
41
1
10
93.8811302103326
20
-2.35017628236489
30
0
41
1
10
93.8946105593982
20
-2.29432018073098
30
0
41
1
10
93.9144114634623
20
-2.18598918355232
30
0
41
1
10
93.920377906648
20
-2.13564320272835
30
0
41
1
10
93.9272402106764
20
-1.99532107629264
30
0
41
1
10
93.9163970077443
20
-1.92030322427783
30
0
41
1
10
93.884056751706
20
-1.84070200376402
30
0
41
1
10
93.8705303861988
20
-1.81918981760785
30
0
41
1
10
93.8393089827261
20
-1.7861406946337
30
0
41
1
10
93.8217447457026
20
-1.77461587672943
30
0
41
1
10
93.7831538485201
20
-1.76042772807617
30
0
41
1
10
93.7620281961102
20
-1.75784221012091
30
0
41
1
10
93.7176966566474
20
-1.76109845971391
30
0
41
1
10
93.6943627369747
20
-1.7668659459936
30
0
41
1
10
93.6454503236465
20
-1.78635460905201
30
0
41
1
10
93.6197638177799
20
-1.80019468878902
30
0
41
1
10
93.5675714498771
20
-1.83506135726526
30
0
41
1
10
93.5409060508327
20
-1.85612510284776
30
0
41
1
10
93.4591652124299
20
-1.93044353129773
30
0
41
1
10
93.4019089351567
20
-1.99541440502338
30
0
41
1
10
93.3453916363361
20
-2.07433806367768
30
0
0
SPLINE
5
BD
100
AcDbEntity
8
1
62
256
6
ByLayer
370
18
48
1
60
0
100
AcDbSpline
70
4
71
3
72
20
73
16
40
0
40
0
40
0
40
0
40
0.005137213392401
40
0.005137213392401
40
0.326216099622478
40
0.326216099622478
40
0.486755542737517
40
0.486755542737517
40
0.647294985852555
40
0.647294985852555
40
0.807834428967594
40
0.807834428967594
40
0.968373872082633
40
0.968373872082633
40
1
40
1
40
1
40
1
41
1
10
17.0342700224523
20
0.0110250709786612
30
0
41
1
10
17.0486948204461
20
0.003206438361218
30
0
41
1
10
17.063119610317
20
-0.0046121674645008
30
0
41
1
10
17.9791040021616
20
-0.501092453959245
30
0
41
1
10
18.8803921102332
20
-0.990100462148405
30
0
41
1
10
20.2447232491466
20
-1.70001540194974
30
0
41
1
10
20.7024783658795
20
-1.93324905738544
30
0
41
1
10
21.6144314604484
20
-2.38312648275274
30
0
41
1
10
22.0696782356346
20
-2.60023529318414
30
0
41
1
10
22.9807011699347
20
-3.01566635224461
30
0
41
1
10
23.4368392766643
20
-3.21408589065851
30
0
41
1
10
24.3503296562628
20
-3.58800510890683
30
0
41
1
10
24.8045803591385
20
-3.76217612562857
30
0
41
1
10
25.3464838555379
20
-3.95428650555502
30
0
41
1
10
25.4356132254279
20
-3.98536649831269
30
0
41
1
10
25.5246944101296
20
-4.01590255216806
30
0
0
SPLINE
5
BE
100
AcDbEntity
8
1
62
256
6
ByLayer
370
13
48
1
60
0
100
AcDbSpline
70
4
71
3
72
16
73
12
40
0
40
0
40
0
40
0
40
0.293651212511264
40
0.293651212511264
40
0.456519185049662
40
0.456519185049662
40
0.61938715758806
40
0.61938715758806
40
0.94512310266486
40
0.94512310266486
40
1
40
1
40
1
40
1
41
1
10
25.5246934640641
20
-4.0159022278672
30
0
41
1
10
26.3399941788795
20
-4.29537841202256
30
0
41
1
10
27.1512586490999
20
-4.52929144257934
30
0
41
1
10
28.4152153503918
20
-4.81389769971102
30
0
41
1
10
28.8667123779539
20
-4.8997497728945
30
0
41
1
10
29.7729094880809
20
-5.0382099982769
30
0
41
1
10
30.2281124330196
20
-5.09087341610726
30
0
41
1
10
31.5982838074583
20
-5.19635966012694
30
0
41
1
10
32.5069116397876
20
-5.19558156607053
30
0
41
1
10
33.572636965636
20
-5.11215463666909
30
0
41
1
10
33.7265331783127
20
-5.09810272807903
30
0
41
1
10
33.8803806427772
20
-5.08207033006963
30
0
0
SPLINE
5
BF
100
AcDbEntity
8
1
62
256
6
ByLayer
370
18
48
1
60
0
100
AcDbSpline
70
4
71
3
72
16
73
12
40
0
40
0
40
0
40
0
40
0.165283482840847
40
0.165283482840847
40
0.251728842144974
40
0.251728842144974
40
0.338174201449103
40
0.338174201449103
40
0.683955638665602
40
0.683955638665602
40
1
40
1
40
1
40
1
41
1
10
76.9892162068077
20
-0.0185342193208271
30
0
41
1
10
77.4202971762953
20
-0.253805083992887
30
0
41
1
10
77.8522759788221
20
-0.489597176671907
30
0
41
1
10
78.5128963260269
20
-0.847022151161525
30
0
41
1
10
78.7402480797122
20
-0.969454585448602
30
0
41
1
10
79.1962100183413
20
-1.21318868473793
30
0
41
1
10
79.4239664241382
20
-1.33404190173397
30
0
41
1
10
80.558486408775
20
-1.92977310001294
30
0
41
1
10
81.4567183178633
20
-2.38059485921343
30
0
41
1
10
83.1724578888755
20
-3.17209289031103
30
0
41
1
10
83.990341249133
20
-3.51881657637048
30
0
41
1
10
84.8131266539743
20
-3.82457613044895
30
0
0
SPLINE
5
C0
100
AcDbEntity
8
1
62
256
6
ByLayer
370
13
48
1
60
0
100
AcDbSpline
70
4
71
3
72
20
73
16
40
0
40
0
40
0
40
0
40
0.0278676736555703
40
0.0278676736555703
40
0.189889728046302
40
0.189889728046302
40
0.270900755241668
40
0.270900755241668
40
0.351911782437034
40
0.351911782437034
40
0.67595589121852
40
0.67595589121852
40
0.837977945609261
40
0.837977945609261
40
1
40
1
40
1
40
1
41
1
10
84.8131266540581
20
-3.8245761304801
30
0
41
1
10
84.8905437353384
20
-3.85334549380479
30
0
41
1
10
84.9680042154153
20
-3.88175219334775
30
0
41
1
10
85.4961499790064
20
-4.07278847400286
30
0
41
1
10
85.9484366746603
20
-4.22327653253285
30
0
41
1
10
86.6308229025827
20
-4.42799710770123
30
0
41
1
10
86.8592149537219
20
-4.4927820358842
30
0
41
1
10
87.3140297283264
20
-4.61398962217274
30
0
41
1
10
87.5408603511208
20
-4.67053681900501
30
0
41
1
10
88.6727970075516
20
-4.93279072138279
30
0
41
1
10
89.5713284620446
20
-5.07709233374527
30
0
41
1
10
90.9212006965516
20
-5.19051228205802
30
0
41
1
10
91.3714728662035
20
-5.21115063202535
30
0
41
1
10
92.2744164231235
20
-5.21723036540374
30
0
41
1
10
92.7271677102145
20
-5.20210950972691
30
0
41
1
10
93.1818092388056
20
-5.17015980819289
30
0
0
SPLINE
5
C1
100
AcDbEntity
8
1
62
256
6
ByLayer
370
18
48
1
60
0
100
AcDbSpline
70
4
71
3
72
8
73
4
40
0
40
0
40
0
40
0
40
1
40
1
40
1
40
1
41
1
10
93.1288975148245
20
-5.31264980501123
30
0
41
1
10
93.1465498374711
20
-5.26518093393429
30
0
41
1
10
93.164187584404
20
-5.21768289925083
30
0
41
1
10
93.1818092388047
20
-5.17015980819292
30
0
0
SPLINE
5
C2
100
AcDbEntity
8
1
62
256
6
ByLayer
370
18
48
1
60
0
100
AcDbSpline
70
4
71
3
72
14
73
10
40
0
40
0
40
0
40
0
40
0.25
40
0.25
40
0.5
40
0.5
40
0.75
40
0.75
40
1
40
1
40
1
40
1
41
1
10
6.1282865409662
20
4.83160182256916
30
0
41
1
10
6.11010525845236
20
4.83576775741821
30
0
41
1
10
6.09355087745905
20
4.84074288450833
30
0
41
1
10
6.06358845997758
20
4.85218190954262
30
0
41
1
10
6.05021221011521
20
4.85868587420993
30
0
41
1
10
6.02815508617766
20
4.87243425898131
30
0
41
1
10
6.01916258088829
20
4.87986231974551
30
0
41
1
10
6.00619743836126
20
4.89504481111032
30
0
41
1
10
6.00218002442108
20
4.90275046233387
30
0
41
1
10
6.00066726845179
20
4.91055643426347
30
0
0
SPLINE
5
C3
100
AcDbEntity
8
1
62
256
6
ByLayer
370
18
48
1
60
0
100
AcDbSpline
70
4
71
3
72
36
73
32
40
0
40
0
40
0
40
0
40
0.249999999999983
40
0.249999999999983
40
0.374999999999975
40
0.374999999999975
40
0.437499999999971
40
0.437499999999971
40
0.499999999999967
40
0.499999999999967
40
0.624999999999968
40
0.624999999999968
40
0.687499999999969
40
0.687499999999969
40
0.71874999999997
40
0.71874999999997
40
0.74999999999997
40
0.74999999999997
40
0.812499999999971
40
0.812499999999971
40
0.843749999999976
40
0.843749999999976
40
0.874999999999981
40
0.874999999999981
40
0.906249999999986
40
0.906249999999986
40
0.93749999999999
40
0.93749999999999
40
0.968749999999995
40
0.968749999999995
40
1
40
1
40
1
40
1
41
1
10
87.5706727574049
20
2.29293399102767
30
0
41
1
10
88.0070930587334
20
1.96956543642639
30
0
41
1
10
88.4505813972289
20
1.67485995806302
30
0
41
1
10
89.1294681174512
20
1.28817379417379
30
0
41
1
10
89.3580262471348
20
1.16845377152086
30
0
41
1
10
89.704727097314
20
1.0045420559087
30
0
41
1
10
89.8209429310413
20
0.952536241285969
30
0
41
1
10
90.0547731399651
20
0.854196130145567
30
0
41
1
10
90.1723904551252
20
0.807892664860816
30
0
41
1
10
90.5233747789661
20
0.67981561176407
30
0
41
1
10
90.7562015821638
20
0.608185597741453
30
0
41
1
10
91.1034392815821
20
0.52442918632579
30
0
41
1
10
91.2188509863573
20
0.500463738007056
30
0
41
1
10
91.3914157020704
20
0.471055395794679
30
0
41
1
10
91.448895492658
20
0.462335885222501
30
0
41
1
10
91.5633853558325
20
0.447228794255579
30
0
41
1
10
91.6205523007887
20
0.440202265268908
30
0
41
1
10
91.7897398898047
20
0.428318514091643
30
0
41
1
10
91.8997160131277
20
0.431346635284712
30
0
41
1
10
92.0515060036652
20
0.463561632105041
30
0
41
1
10
92.1006263452386
20
0.479016126726378
30
0
41
1
10
92.1895389799978
20
0.524048807209368
30
0
41
1
10
92.2283904924187
20
0.553930250901743
30
0
41
1
10
92.2955786823576
20
0.627510362507991
30
0
41
1
10
92.3225823020858
20
0.670603301305107
30
0
41
1
10
92.3607313470277
20
0.76863375150711
30
0
41
1
10
92.3718271216633
20
0.824413756766546
30
0
41
1
10
92.3777454438358
20
0.940984664233042
30
0
41
1
10
92.3728576211595
20
1.00326153363204
30
0
41
1
10
92.3511276176548
20
1.12824453820255
30
0
41
1
10
92.3344058812099
20
1.19124376600661
30
0
41
1
10
92.3133288619019
20
1.2546205571403
30
0
0
SPLINE
5
C4
100
AcDbEntity
8
1
62
256
6
ByLayer
370
18
48
1
60
0
100
AcDbSpline
70
4
71
3
72
22
73
18
40
0
40
0
40
0
40
0
40
0.0747928357656394
40
0.0747928357656394
40
0.156265855473004
40
0.156265855473004
40
0.319211894887732
40
0.319211894887732
40
0.482157934302461
40
0.482157934302461
40
0.563630954009826
40
0.563630954009826
40
0.64510397371719
40
0.64510397371719
40
0.970996052546652
40
0.970996052546652
40
1
40
1
40
1
40
1
41
1
10
47.0523452119961
20
-0.0260081247099322
30
0
41
1
10
47.2613362237387
20
-0.139787902872996
30
0
41
1
10
47.4709634493581
20
-0.253914196399791
30
0
41
1
10
47.9086937449805
20
-0.491601505992065
30
0
41
1
10
48.1367741286005
20
-0.615064907966882
30
0
41
1
10
48.8209522873146
20
-0.983402225187405
30
0
41
1
10
49.277006132925
20
-1.22657867019316
30
0
41
1
10
50.1900957878952
20
-1.70379445213825
30
0
41
1
10
50.6458028630067
20
-1.93686389663085
30
0
41
1
10
51.3297496804483
20
-2.27526983259264
30
0
41
1
10
51.5577611902328
20
-2.38626468431738
30
0
41
1
10
52.0140860060835
20
-2.60424034926069
30
0
41
1
10
52.2425280808492
20
-2.71126839879375
30
0
41
1
10
53.3804710257372
20
-3.23249421056647
30
0
41
1
10
54.2821552130846
20
-3.6062513445963
30
0
41
1
10
55.262780667906
20
-3.95625808199864
30
0
41
1
10
55.3429197606838
20
-3.98444112015494
30
0
41
1
10
55.423061208941
20
-4.01219657786498
30
0
0
SPLINE
5
C5
100
AcDbEntity
8
1
62
256
6
ByLayer
370
13
48
1
60
0
100
AcDbSpline
70
4
71
3
72
22
73
18
40
0
40
0
40
0
40
0
40
0.293209289148855
40
0.293209289148855
40
0.373672748863757
40
0.373672748863757
40
0.454136208578658
40
0.454136208578658
40
0.615063128008458
40
0.615063128008458
40
0.775990047438257
40
0.775990047438257
40
0.856453507153155
40
0.856453507153155
40
0.936916966868053
40
0.936916966868053
40
1
40
1
40
1
40
1
41
1
10
55.4230612095187
20
-4.01219657806502
30
0
41
1
10
56.2433993669894
20
-4.29630500798575
30
0
41
1
10
57.0639843276405
20
-4.53561227478053
30
0
41
1
10
58.1170022029706
20
-4.77495360593267
30
0
41
1
10
58.3442158597407
20
-4.82260809864661
30
0
41
1
10
58.7999579587781
20
-4.90977043360584
30
0
41
1
10
59.0285177302318
20
-4.94926038375655
30
0
41
1
10
59.7123862786912
20
-5.05458078796141
30
0
41
1
10
60.1672273567524
20
-5.10754943227928
30
0
41
1
10
61.0769491070429
20
-5.17845480135077
30
0
41
1
10
61.5320710744295
20
-5.19647355300671
30
0
41
1
10
62.2164966586199
20
-5.19655916286257
30
0
41
1
10
62.4447409528538
20
-5.19209535578526
30
0
41
1
10
62.899470690255
20
-5.17434666223824
30
0
41
1
10
63.1262592138401
20
-5.16105780183108
30
0
41
1
10
63.5301050744469
20
-5.12965821494225
30
0
41
1
10
63.7073401027945
20
-5.1132077066589
30
0
41
1
10
63.884392568098
20
-5.09414522390512
30
0
0
SPLINE
5
C6
100
AcDbEntity
8
1
62
256
6
ByLayer
370
18
48
1
60
0
100
AcDbSpline
70
4
71
3
72
22
73
18
40
0
40
0
40
0
40
0
40
0.24999999999997
40
0.24999999999997
40
0.499999999999941
40
0.499999999999941
40
0.624999999999943
40
0.624999999999943
40
0.749999999999945
40
0.749999999999945
40
0.812499999999959
40
0.812499999999959
40
0.874999999999973
40
0.874999999999973
40
0.937499999999986
40
0.937499999999986
40
1
40
1
40
1
40
1
41
1
10
92.4692584458242
20
1.5376482358819
30
0
41
1
10
92.6534420638451
20
1.57204222511149
30
0
41
1
10
92.8364762832219
20
1.61127071836106
30
0
41
1
10
93.198392683788
20
1.70701886259525
30
0
41
1
10
93.3762646790623
20
1.76268307183142
30
0
41
1
10
93.6329470264121
20
1.87272314566232
30
0
41
1
10
93.7172609052426
20
1.91421779586631
30
0
41
1
10
93.8764509815281
20
2.01137732948891
30
0
41
1
10
93.9524526477248
20
2.06775129037928
30
0
41
1
10
94.0488081024534
20
2.16783359003816
30
0
41
1
10
94.0780469954328
20
2.2038241634917
30
0
41
1
10
94.1286415187283
20
2.28307722363763
30
0
41
1
10
94.1493787904641
20
2.32570454712814
30
0
41
1
10
94.1788996999729
20
2.41482394455753
30
0
41
1
10
94.187805155195
20
2.46217711656459
30
0
41
1
10
94.1933213283828
20
2.55619183939709
30
0
41
1
10
94.1902219643271
20
2.60393247699426
30
0
41
1
10
94.1822448329795
20
2.65064425220513
30
0
0
SPLINE
5
C7
100
AcDbEntity
8
1
62
256
6
ByLayer
370
18
48
1
60
0
100
AcDbSpline
70
4
71
3
72
18
73
14
40
0
40
0
40
0
40
0
40
0.250000000000001
40
0.250000000000001
40
0.500000000000001
40
0.500000000000001
40
0.625000000000001
40
0.625000000000001
40
0.750000000000001
40
0.750000000000001
40
0.875
40
0.875
40
1
40
1
40
1
40
1
41
1
10
94.1822448329801
20
-2.6506442522051
30
0
41
1
10
94.1015778042919
20
-2.86739891197561
30
0
41
1
10
94.0208511145163
20
-3.08396563850408
30
0
41
1
10
93.8591452933413
20
-3.5163038969923
30
0
41
1
10
93.7781783564456
20
-3.73211384180507
30
0
41
1
10
93.6562515848626
20
-4.05432819885237
30
0
41
1
10
93.6155339839975
20
-4.16149565094094
30
0
41
1
10
93.5340985526152
20
-4.37582983171106
30
0
41
1
10
93.493356769599
20
-4.48292110969223
30
0
41
1
10
93.4117531395103
20
-4.69672546223546
30
0
41
1
10
93.3708541445898
20
-4.80355310697595
30
0
41
1
10
93.2890813041273
20
-5.01556076052972
30
0
41
1
10
93.2481991184945
20
-5.12041379673383
30
0
41
1
10
93.2073173121268
20
-5.22516376417252
30
0
0
SPLINE
5
C8
100
AcDbEntity
8
1
62
256
6
ByLayer
370
18
48
1
60
0
100
AcDbSpline
70
4
71
3
72
8
73
4
40
0
40
0
40
0
40
0
40
1
40
1
40
1
40
1
41
1
10
6.00066726845176
20
4.91055643426535
30
0
41
1
10
6.00039145553794
20
4.91197965645515
30
0
41
1
10
6.00025286846687
20
4.91340396451358
30
0
41
1
10
6.00025290514807
20
4.91482365018104
30
0
0
SPLINE
5
C9
100
AcDbEntity
8
1
62
256
6
ByLayer
370
18
48
1
60
0
100
AcDbSpline
70
4
71
3
72
20
73
16
40
0
40
0
40
0
40
0
40
0.125000000000001
40
0.125000000000001
40
0.250000000000001
40
0.250000000000001
40
0.375000000000002
40
0.375000000000002
40
0.500000000000003
40
0.500000000000003
40
0.750000000000001
40
0.750000000000001
40
0.875000000000001
40
0.875000000000001
40
1
40
1
40
1
40
1
41
1
10
6.25148754348734
20
-1.62928744000396
30
0
41
1
10
6.47783511140642
20
-1.80265924540134
30
0
41
1
10
6.7092432471695
20
-1.96505865482104
30
0
41
1
10
7.17920907635121
20
-2.27346761565744
30
0
41
1
10
7.41780588650283
20
-2.41940075120354
30
0
41
1
10
7.90074858658113
20
-2.69752077970281
30
0
41
1
10
8.14558267301447
20
-2.82994404437244
30
0
41
1
10
8.63789697467166
20
-3.08151960560048
30
0
41
1
10
8.88481110368053
20
-3.20040271342745
30
0
41
1
10
9.62767853609975
20
-3.53856512536925
30
0
41
1
10
10.1256949234334
20
-3.7394013351182
30
0
41
1
10
10.8780250112214
20
-4.00907904558431
30
0
41
1
10
11.1296670892702
20
-4.09411427786455
30
0
41
1
10
11.6352340188255
20
-4.25289772517178
30
0
41
1
10
11.8892288883078
20
-4.32594837476563
30
0
41
1
10
12.1446295091178
20
-4.39362336990206
30
0
0
SPLINE
5
CA
100
AcDbEntity
8
1
62
256
6
ByLayer
370
18
48
1
60
0
100
AcDbSpline
70
4
71
3
72
54
73
50
40
0
40
0
40
0
40
0
40
0.0436071871383245
40
0.0436071871383245
40
0.087214374276649
40
0.087214374276649
40
0.130821561414974
40
0.130821561414974
40
0.174428748553298
40
0.174428748553298
40
0.218035935691622
40
0.218035935691622
40
0.261643122829947
40
0.261643122829947
40
0.348857497106596
40
0.348857497106596
40
0.370661090675757
40
0.370661090675757
40
0.392464684244917
40
0.392464684244917
40
0.436071871383239
40
0.436071871383239
40
0.457875464952399
40
0.457875464952399
40
0.47967905852156
40
0.47967905852156
40
0.523286245659882
40
0.523286245659882
40
0.566893432798205
40
0.566893432798205
40
0.610500619936527
40
0.610500619936527
40
0.65410780707485
40
0.65410780707485
40
0.697714994213172
40
0.697714994213172
40
0.741322181351495
40
0.741322181351495
40
0.784929368489817
40
0.784929368489817
40
0.872143742766462
40
0.872143742766462
40
0.893947336335623
40
0.893947336335623
40
0.915750929904784
40
0.915750929904784
40
0.959358117043105
40
0.959358117043105
40
1
40
1
40
1
40
1
41
1
10
93.1288975148245
20
-5.31264980501126
30
0
41
1
10
92.6762371587193
20
-5.34440333134754
30
0
41
1
10
92.2235961345618
20
-5.35795819600307
30
0
41
1
10
91.3165883173838
20
-5.34877628327396
30
0
41
1
10
90.8633485681989
20
-5.32600459225222
30
0
41
1
10
89.9585980523415
20
-5.24491989616334
30
0
41
1
10
89.5066082207377
20
-5.18659626799916
30
0
41
1
10
88.6012885298726
20
-5.03510521225527
30
0
41
1
10
88.1472191624702
20
-4.94171098194977
30
0
41
1
10
87.2417572282852
20
-4.72272238020858
30
0
41
1
10
86.7898157343316
20
-4.59707945151555
30
0
41
1
10
85.8852992110462
20
-4.31556501415727
30
0
41
1
10
85.4323319834516
20
-4.15959049157954
30
0
41
1
10
84.0716274254183
20
-3.65021074638591
30
0
41
1
10
83.1694214688122
20
-3.2582631664117
30
0
41
1
10
82.0366516466659
20
-2.71844666699246
30
0
41
1
10
81.8096341503391
20
-2.60787907854703
30
0
41
1
10
81.3562440040187
20
-2.38285981849762
30
0
41
1
10
81.1298180923965
20
-2.26838724588185
30
0
41
1
10
80.4509352534316
20
-1.91977781771627
30
0
41
1
10
79.998895026219
20
-1.68041688197098
30
0
41
1
10
79.3202208026516
20
-1.31334340284846
30
0
41
1
10
79.0938603751845
20
-1.18970343840311
30
0
41
1
10
78.640551853621
20
-0.940399487411838
30
0
41
1
10
78.4135277192712
20
-0.814678256653366
30
0
41
1
10
77.7337775363632
20
-0.436607710572986
30
0
41
1
10
77.2815258921414
20
-0.182911295477766
30
0
41
1
10
76.3767583060547
20
0.324025138202046
30
0
41
1
10
75.9242565272864
20
0.577290549341143
30
0
41
1
10
75.016867856244
20
1.07956281375544
30
0
41
1
10
74.5637120179582
20
1.32760840086712
30
0
41
1
10
73.6590183527738
20
1.81253039385342
30
0
41
1
10
73.206895518786
20
2.04934286819494
30
0
41
1
10
72.3010004066376
20
2.50815926291651
30
0
41
1
10
71.8466865218364
20
2.73052277388365
30
0
41
1
10
70.9410363456101
20
3.15397431747107
30
0
41
1
10
70.4888211498831
20
3.35518377416892
30
0
41
1
10
69.5837377844267
20
3.73401091803291
30
0
41
1
10
69.1303774971279
20
3.91187922685353
30
0
41
1
10
67.7694472089517
20
4.40386430502036
30
0
41
1
10
66.8667769328284
20
4.67464281832193
30
0
41
1
10
65.7332910829551
20
4.9314051942585
30
0
41
1
10
65.5061583586649
20
4.97870075928691
30
0
41
1
10
65.0526975982473
20
5.06457972219866
30
0
41
1
10
64.8262186989315
20
5.10320188780207
30
0
41
1
10
64.1471151398206
20
5.20596540917344
30
0
41
1
10
63.6948932014531
20
5.25704394679516
30
0
41
1
10
62.8202415458721
20
5.32123889941712
30
0
41
1
10
62.3969575313342
20
5.3366303220551
30
0
41
1
10
61.9743374986065
20
5.33625815269079
30
0
0
SPLINE
5
CB
100
AcDbEntity
8
1
62
256
6
ByLayer
370
18
48
1
60
0
100
AcDbSpline
70
4
71
3
72
48
73
44
40
0
40
0
40
0
40
0
40
0.0531202006725978
40
0.0531202006725978
40
0.0767921956557823
40
0.0767921956557823
40
0.100464190638967
40
0.100464190638967
40
0.147808180605336
40
0.147808180605336
40
0.195152170571705
40
0.195152170571705
40
0.242496160538074
40
0.242496160538074
40
0.289840150504443
40
0.289840150504443
40
0.337184140470812
40
0.337184140470812
40
0.384528130437181
40
0.384528130437181
40
0.43187212040355
40
0.43187212040355
40
0.479216110369919
40
0.479216110369919
40
0.502888105353104
40
0.502888105353104
40
0.52656010033629
40
0.52656010033629
40
0.621248080269032
40
0.621248080269032
40
0.668592070235403
40
0.668592070235403
40
0.715936060201774
40
0.715936060201774
40
0.763280050168145
40
0.763280050168145
40
0.810624040134516
40
0.810624040134516
40
0.857968030100887
40
0.857968030100887
40
0.905312020067258
40
0.905312020067258
40
1
40
1
40
1
40
1
41
1
10
34.8576294348345
20
-5.08757506884433
30
0
41
1
10
34.3495549421345
20
-5.17017259898242
30
0
41
1
10
33.8415947359707
20
-5.23106573787638
30
0
41
1
10
33.105236092752
20
-5.28661088558161
30
0
41
1
10
32.8779798993381
20
-5.29925714053581
30
0
41
1
10
32.4243393470395
20
-5.31547519382605
30
0
41
1
10
32.197739579927
20
-5.31906740631771
30
0
41
1
10
31.5182196245246
20
-5.31634135499803
30
0
41
1
10
31.0655838102003
20
-5.29652069514708
30
0
41
1
10
30.158965848764
20
-5.22107389118042
30
0
41
1
10
29.7041749592262
20
-5.16529032583514
30
0
41
1
10
28.7971527497677
20
-5.01942570256759
30
0
41
1
10
28.3444417516226
20
-4.9293549945086
30
0
41
1
10
27.4384903755073
20
-4.71641394730233
30
0
41
1
10
26.9849090931048
20
-4.593500098623
30
0
41
1
10
26.0762222879645
20
-4.31681754056245
30
0
41
1
10
25.6231262209469
20
-4.16368319269071
30
0
41
1
10
24.7172660268534
20
-3.83041884617762
30
0
41
1
10
24.264427861509
20
-3.65038029035509
30
0
41
1
10
23.3568905724919
20
-3.26599797855067
30
0
41
1
10
22.9021783462802
20
-3.06164655362034
30
0
41
1
10
21.9956280682269
20
-2.6349228060067
30
0
41
1
10
21.5429131836286
20
-2.41220349728161
30
0
41
1
10
20.8630716614327
20
-2.06664900573008
30
0
41
1
10
20.6363226889645
20
-1.94956303570754
30
0
41
1
10
20.1822829413406
20
-1.71202421475292
30
0
41
1
10
19.9548757500929
20
-1.59150654157057
30
0
41
1
10
18.8200538176308
20
-0.983884351137135
30
0
41
1
10
17.91624139819
20
-0.479893208398181
30
0
41
1
10
16.5531706824373
20
0.278972303084998
30
0
41
1
10
16.0992333181365
20
0.53168581990181
30
0
41
1
10
15.1929369723561
20
1.03081006063982
30
0
41
1
10
14.7400790665807
20
1.27745123048632
30
0
41
1
10
13.832892593568
20
1.76126048473333
30
0
41
1
10
13.3779315689992
20
1.99876910009959
30
0
41
1
10
12.4707122254207
20
2.4569159165587
30
0
41
1
10
12.0177799240526
20
2.67789861245589
30
0
41
1
10
11.1112713493969
20
3.10059965916796
30
0
41
1
10
10.6573315787772
20
3.3028372908029
30
0
41
1
10
9.74884661373335
20
3.68321913481671
30
0
41
1
10
9.29612110831837
20
3.86067151385001
30
0
41
1
10
7.93943780950457
20
4.3516079106605
30
0
41
1
10
7.0366733573066
20
4.62346027415316
30
0
41
1
10
6.12828654096629
20
4.83160182256916
30
0
0
SPLINE
5
CC
100
AcDbEntity
8
1
62
256
6
ByLayer
370
18
48
1
60
0
100
AcDbSpline
70
4
71
3
72
24
73
20
40
0
40
0
40
0
40
0
40
0.0624999999999988
40
0.0624999999999988
40
0.124999999999998
40
0.124999999999998
40
0.249999999999999
40
0.249999999999999
40
0.312500000000003
40
0.312500000000003
40
0.375000000000007
40
0.375000000000007
40
0.500000000000007
40
0.500000000000007
40
0.625000000000007
40
0.625000000000007
40
0.750000000000008
40
0.750000000000008
40
1
40
1
40
1
40
1
41
1
10
87.570672757405
20
2.2929339910277
30
0
41
1
10
87.594991008668
20
2.15515296801027
30
0
41
1
10
87.6289760480361
20
2.01653255180574
30
0
41
1
10
87.7147253639888
20
1.737747900454
30
0
41
1
10
87.7667226218243
20
1.59705739018793
30
0
41
1
10
87.9464828523795
20
1.17621064061089
30
0
41
1
10
88.0938439213716
20
0.90540351492038
30
0
41
1
10
88.3459113148991
20
0.510192832552377
30
0
41
1
10
88.4355703786478
20
0.379835354550579
30
0
41
1
10
88.6211642985538
20
0.12665343365677
30
0
41
1
10
88.717336822013
20
0.0033846506187274
30
0
41
1
10
89.0145240729514
20
-0.357889132940443
30
0
41
1
10
89.2241377031808
20
-0.587431226333592
30
0
41
1
10
89.6615519696952
20
-1.0286160429722
30
0
41
1
10
89.890336344075
20
-1.24091081259164
30
0
41
1
10
90.3540663927604
20
-1.64256613159947
30
0
41
1
10
90.5899934667837
20
-1.83300512064565
30
0
41
1
10
91.3079957631713
20
-2.37818174456726
30
0
41
1
10
91.8000990015343
20
-2.70727278185117
30
0
41
1
10
92.3034720410294
20
-3.00754136266732
30
0
0
SPLINE
5
CD
100
AcDbEntity
8
1
62
256
6
ByLayer
370
18
48
1
60
0
100
AcDbSpline
70
4
71
3
72
12
73
8
40
0
40
0
40
0
40
0
40
0.25
40
0.25
40
0.500000000000001
40
0.500000000000001
40
1
40
1
40
1
40
1
41
1
10
93.1818092388046
20
-5.17015980819298
30
0
41
1
10
93.1866767247425
20
-5.15703289217333
30
0
41
1
10
93.1913370065695
20
-5.14367292511344
30
0
41
1
10
93.1990294206612
20
-5.11964088567552
30
0
41
1
10
93.2020443204759
20
-5.10899532767004
30
0
41
1
10
93.207479171764
20
-5.08528421392211
30
0
41
1
10
93.2063693189796
20
-5.08084322546466
30
0
41
1
10
93.2026765564561
20
-5.0839344862419
30
0
0
SPLINE
5
CE
100
AcDbEntity
8
1
62
256
6
ByLayer
370
18
48
1
60
0
100
AcDbSpline
70
4
71
3
72
94
73
90
40
0
40
0
40
0
40
0
40
0.0262348705966483
40
0.0262348705966483
40
0.04232909634349
40
0.04232909634349
40
0.0584233220903319
40
0.0584233220903319
40
0.0906117735840154
40
0.0906117735840154
40
0.122800225077699
40
0.122800225077699
40
0.154988676571383
40
0.154988676571383
40
0.187177128065067
40
0.187177128065067
40
0.219365579558752
40
0.219365579558752
40
0.251554031052436
40
0.251554031052436
40
0.283742482546121
40
0.283742482546121
40
0.315930934039805
40
0.315930934039805
40
0.332025159786647
40
0.332025159786647
40
0.348119385533489
40
0.348119385533489
40
0.380307837027175
40
0.380307837027175
40
0.41249628852086
40
0.41249628852086
40
0.444684740014546
40
0.444684740014546
40
0.460778965761388
40
0.460778965761388
40
0.476873191508231
40
0.476873191508231
40
0.509061643001917
40
0.509061643001917
40
0.525155868748761
40
0.525155868748761
40
0.541250094495604
40
0.541250094495604
40
0.573438545989291
40
0.573438545989291
40
0.589532771736134
40
0.589532771736134
40
0.605626997482978
40
0.605626997482978
40
0.621721223229822
40
0.621721223229822
40
0.637815448976665
40
0.637815448976665
40
0.653909674723509
40
0.653909674723509
40
0.670003900470352
40
0.670003900470352
40
0.686098126217196
40
0.686098126217196
40
0.70219235196404
40
0.70219235196404
40
0.734380803457727
40
0.734380803457727
40
0.75047502920457
40
0.75047502920457
40
0.766569254951413
40
0.766569254951413
40
0.798757706445099
40
0.798757706445099
40
0.814851932191943
40
0.814851932191943
40
0.830946157938786
40
0.830946157938786
40
0.863134609432471
40
0.863134609432471
40
0.895323060926157
40
0.895323060926157
40
0.911417286672999
40
0.911417286672999
40
0.927511512419841
40
0.927511512419841
40
0.959699963913526
40
0.959699963913526
40
0.975794189660368
40
0.975794189660368
40
0.99188841540721
40
0.99188841540721
40
1
40
1
40
1
40
1
41
1
10
83.8190666369266
20
-3.86779604745311
30
0
41
1
10
83.4987582770727
20
-3.98002204955716
30
0
41
1
10
83.1776986950621
20
-4.08569229245501
30
0
41
1
10
82.6605921028607
20
-4.24450023688902
30
0
41
1
10
82.4641716308798
20
-4.30218134707749
30
0
41
1
10
82.0717734848805
20
-4.41223644181838
30
0
41
1
10
81.8759013692485
20
-4.46470308046216
30
0
41
1
10
81.2878952531185
20
-4.61310357072017
30
0
41
1
10
80.8954118057466
20
-4.70006529221703
30
0
41
1
10
80.1091362563969
20
-4.84869999708587
30
0
41
1
10
79.7151304966874
20
-4.90835090503035
30
0
41
1
10
78.9297618558013
20
-5.00687081304699
30
0
41
1
10
78.5369337387707
20
-5.04421808897607
30
0
41
1
10
77.750978416964
20
-5.0944494388034
30
0
41
1
10
77.35785900698
20
-5.10748732851295
30
0
41
1
10
76.5714681257875
20
-5.10687188941665
30
0
41
1
10
76.1779725088434
20
-5.09312378098212
30
0
41
1
10
75.3922713849236
20
-5.03768008666839
30
0
41
1
10
74.9996694217108
20
-4.99603788828466
30
0
41
1
10
74.2149007052761
20
-4.88475596530913
30
0
41
1
10
73.8217850898885
20
-4.81966580050255
30
0
41
1
10
73.0345506216114
20
-4.66577026856535
30
0
41
1
10
72.6425052363998
20
-4.57771547038064
30
0
41
1
10
72.0571321306469
20
-4.4259843827121
30
0
41
1
10
71.862570528583
20
-4.37174984147347
30
0
41
1
10
71.4733186926668
20
-4.25999905032145
30
0
41
1
10
71.2787302668359
20
-4.20203328671772
30
0
41
1
10
70.6951518833096
20
-4.02072554236295
30
0
41
1
10
70.306366211116
20
-3.89009126240438
30
0
41
1
10
69.5291774403721
20
-3.60732230694884
30
0
41
1
10
69.1409800997373
20
-3.45366046652114
30
0
41
1
10
68.3616175954717
20
-3.13522617271801
30
0
41
1
10
67.970892354205
20
-2.96872820485541
30
0
41
1
10
67.3829699619962
20
-2.70610059954851
30
0
41
1
10
67.1867003169868
20
-2.61633035987939
30
0
41
1
10
66.7934303711334
20
-2.43203617676514
30
0
41
1
10
66.5968293376238
20
-2.33817598247015
30
0
41
1
10
66.0071931601082
20
-2.0541721199582
30
0
41
1
10
65.6142153432824
20
-1.86094024547265
30
0
41
1
10
65.0251229302521
20
-1.56392643864479
30
0
41
1
10
64.8288065980367
20
-1.46375898193787
30
0
41
1
10
64.4363440756295
20
-1.26070987874388
30
0
41
1
10
64.2401449644384
20
-1.157859055557
30
0
41
1
10
63.6503610894445
20
-0.848170691747242
30
0
41
1
10
63.2558265425574
20
-0.639916423031764
30
0
41
1
10
62.6659100283322
20
-0.326358301466371
30
0
41
1
10
62.4694306765509
20
-0.22158616836569
30
0
41
1
10
62.0768768730197
20
-0.0113813556602338
30
0
41
1
10
61.8808924228616
20
0.0942199995176907
30
0
41
1
10
61.488503522326
20
0.304520855820528
30
0
41
1
10
61.2921308122031
20
0.40928136489029
30
0
41
1
10
60.8990130271359
20
0.6180281490239
30
0
41
1
10
60.7022766532361
20
0.72202300132102
30
0
41
1
10
60.308462554591
20
0.929280391342786
30
0
41
1
10
60.1112921498643
20
1.03257923622263
30
0
41
1
10
59.7178334837853
20
1.23778772337505
30
0
41
1
10
59.5215214256359
20
1.33995930021439
30
0
41
1
10
59.1290694043677
20
1.54200065233911
30
0
41
1
10
58.9328468084332
20
1.64163364754165
30
0
41
1
10
58.5402220139762
20
1.8383683294316
30
0
41
1
10
58.343829717134
20
1.93561928799355
30
0
41
1
10
57.7544890691545
20
2.22364111480354
30
0
41
1
10
57.3613802860176
20
2.41100857121316
30
0
41
1
10
56.7713306768791
20
2.68402893805458
30
0
41
1
10
56.5746138612914
20
2.77312230076788
30
0
41
1
10
56.181496308636
20
2.9465076788214
30
0
41
1
10
55.9849968123783
20
3.03094828924816
30
0
41
1
10
55.3955634581054
20
3.27934466833256
30
0
41
1
10
55.0027588135091
20
3.43726510414638
30
0
41
1
10
54.4140702790895
20
3.66193929285967
30
0
41
1
10
54.2178372402938
20
3.73464560155691
30
0
41
1
10
53.8246337136687
20
3.87440075461691
30
0
41
1
10
53.6275724842269
20
3.94141223330604
30
0
41
1
10
53.0366778258631
20
4.13442775609056
30
0
41
1
10
52.6432186897142
20
4.25393497218542
30
0
41
1
10
51.8578758640643
20
4.47157863831475
30
0
41
1
10
51.465729432959
20
4.56959089215451
30
0
41
1
10
50.8757426793494
20
4.69594808101976
30
0
41
1
10
50.6788718985078
20
4.7346948214041
30
0
41
1
10
50.2848102755134
20
4.80766077396805
30
0
41
1
10
50.0876271466776
20
4.84141152592309
30
0
41
1
10
49.497371159916
20
4.93360614378972
30
0
41
1
10
49.1051545148607
20
4.98340517195365
30
0
41
1
10
48.5158743307262
20
5.03626278698005
30
0
41
1
10
48.3193831911443
20
5.05007682381455
30
0
41
1
10
47.9262158455671
20
5.07129982156636
30
0
41
1
10
47.72954517326
20
5.07931592751879
30
0
41
1
10
47.4336591673892
20
5.08686077800763
30
0
41
1
10
47.3344909339153
20
5.08862184360981
30
0
41
1
10
47.235319993586
20
5.08958743298004
30
0
0
SPLINE
5
CF
100
AcDbEntity
8
1
62
256
6
ByLayer
370
18
48
1
60
0
100
AcDbSpline
70
4
71
3
72
32
73
28
40
0
40
0
40
0
40
0
40
0.0990089044831065
40
0.0990089044831065
40
0.149063965345155
40
0.149063965345155
40
0.199119026207204
40
0.199119026207204
40
0.299229147931301
40
0.299229147931301
40
0.349284208793351
40
0.349284208793351
40
0.399339269655401
40
0.399339269655401
40
0.499449391379504
40
0.499449391379504
40
0.549504452241555
40
0.549504452241555
40
0.599559513103605
40
0.599559513103605
40
0.699669634827704
40
0.699669634827704
40
0.799779756551802
40
0.799779756551802
40
0.899889878275901
40
0.899889878275901
40
1
40
1
40
1
40
1
41
1
10
23.9186891235826
20
-3.84524556347691
30
0
41
1
10
23.5288392673717
20
-3.98056556993123
30
0
41
1
10
23.1393771567573
20
-4.1062793775202
30
0
41
1
10
22.5536734479889
20
-4.28004599651527
30
0
41
1
10
22.357113450544
20
-4.33579535868262
30
0
41
1
10
21.9642747837908
20
-4.44106662137247
30
0
41
1
10
21.767847076925
20
-4.49023241839387
30
0
41
1
10
21.1776312763349
20
-4.63022777394349
30
0
41
1
10
20.7826318071441
20
-4.71283595199529
30
0
41
1
10
20.1915553941555
20
-4.8184991388207
30
0
41
1
10
19.9947294168477
20
-4.85073732822062
30
0
41
1
10
19.6015989197705
20
-4.90884585296277
30
0
41
1
10
19.4053259009134
20
-4.9345474246368
30
0
41
1
10
18.8159099716841
20
-5.00034277031764
30
0
41
1
10
18.422412197974
20
-5.03269128218389
30
0
41
1
10
17.8314107347295
20
-5.0625046860047
30
0
41
1
10
17.6341047002382
20
-5.06929262414687
30
0
41
1
10
17.2400343090647
20
-5.0762646879289
30
0
41
1
10
17.043600451267
20
-5.07645728828359
30
0
41
1
10
16.4548323961066
20
-5.06665408698734
30
0
41
1
10
16.0629881460188
20
-5.04604644181623
30
0
41
1
10
15.2800073998015
20
-4.98244586598295
30
0
41
1
10
14.8890859628713
20
-4.93874796054035
30
0
41
1
10
14.1078832486206
20
-4.8241657765299
30
0
41
1
10
13.7166431954035
20
-4.75413066229672
30
0
41
1
10
12.932192787694
20
-4.59145255994781
30
0
41
1
10
12.5389770263846
20
-4.49875123425224
30
0
41
1
10
12.1447899226926
20
-4.39366844651727
30
0
0
SPLINE
5
D0
100
AcDbEntity
8
1
62
256
6
ByLayer
370
18
48
1
60
0
100
AcDbSpline
70
4
71
3
72
14
73
10
40
0
40
0
40
0
40
0
40
0.25
40
0.25
40
0.5
40
0.5
40
0.75
40
0.75
40
1
40
1
40
1
40
1
41
1
10
6.00030399953394
20
-1.71512660091406
30
0
41
1
10
6.00166119807318
20
-1.68533868421542
30
0
41
1
10
6.00757242766886
20
-1.65684669952844
30
0
41
1
10
6.03210680286142
20
-1.60827528972439
30
0
41
1
10
6.05111303448012
20
-1.58840657580797
30
0
41
1
10
6.10250391027881
20
-1.56903453017833
30
0
41
1
10
6.13320878783435
20
-1.57050292967725
30
0
41
1
10
6.19443639747561
20
-1.59062442688582
30
0
41
1
10
6.22381938522068
20
-1.60809490589259
30
0
41
1
10
6.25148754080823
20
-1.62928743795186
30
0
0
SPLINE
5
D1
100
AcDbEntity
8
1
62
256
6
ByLayer
370
18
48
1
60
0
100
AcDbSpline
70
4
71
3
72
18
73
14
40
0
40
0
40
0
40
0
40
0.250000000000005
40
0.250000000000005
40
0.50000000000001
40
0.50000000000001
40
0.625000000000008
40
0.625000000000008
40
0.750000000000005
40
0.750000000000005
40
0.875000000000003
40
0.875000000000003
40
1
40
1
40
1
40
1
41
1
10
94.18224483298
20
2.65064425220535
30
0
41
1
10
94.1015778042919
20
2.86739891197587
30
0
41
1
10
94.0208511145163
20
3.08396563850431
30
0
41
1
10
93.8591452933413
20
3.51630389699247
30
0
41
1
10
93.7781783564455
20
3.73211384180522
30
0
41
1
10
93.6562515848626
20
4.05432819885249
30
0
41
1
10
93.6155339839974
20
4.16149565094102
30
0
41
1
10
93.5340985526152
20
4.37582983171114
30
0
41
1
10
93.4933567695988
20
4.48292110969228
30
0
41
1
10
93.4117531395101
20
4.69672546223549
30
0
41
1
10
93.3708541445898
20
4.80355310697598
30
0
41
1
10
93.2890813041274
20
5.01556076052975
30
0
41
1
10
93.2481991184944
20
5.1204137967338
30
0
41
1
10
93.2073173121267
20
5.22516376417246
30
0
0
SPLINE
5
D2
100
AcDbEntity
8
1
62
256
6
ByLayer
370
18
48
1
60
0
100
AcDbSpline
70
4
71
3
72
40
73
36
40
0
40
0
40
0
40
0
40
0.0929973721294479
40
0.0929973721294479
40
0.185994744258896
40
0.185994744258896
40
0.232493430323621
40
0.232493430323621
40
0.278992116388346
40
0.278992116388346
40
0.371989488517799
40
0.371989488517799
40
0.418488174582525
40
0.418488174582525
40
0.46498686064725
40
0.46498686064725
40
0.511485546711975
40
0.511485546711975
40
0.5579842327767
40
0.5579842327767
40
0.604482918841426
40
0.604482918841426
40
0.650981604906151
40
0.650981604906151
40
0.743978977035604
40
0.743978977035604
40
0.790477663100332
40
0.790477663100332
40
0.836976349165059
40
0.836976349165059
40
0.929973721294515
40
0.929973721294515
40
0.976472407359243
40
0.976472407359243
40
1
40
1
40
1
40
1
41
1
10
18.6439902884533
20
-1.34520238633939
30
0
41
1
10
19.0353504689461
20
-1.55853533780126
30
0
41
1
10
19.4262294024766
20
-1.76458217059815
30
0
41
1
10
20.2055445045406
20
-2.16579356408289
30
0
41
1
10
20.593986851549
20
-2.3609291850959
30
0
41
1
10
21.1740307442819
20
-2.64658342559275
30
0
41
1
10
21.3670696896014
20
-2.74039484962336
30
0
41
1
10
21.7539370241603
20
-2.92304230330367
30
0
41
1
10
21.9475505863631
20
-3.0122286619291
30
0
41
1
10
22.5286073889777
20
-3.27394950605367
30
0
41
1
10
22.9162756564287
20
-3.4406671795131
30
0
41
1
10
23.4974194358022
20
-3.67993271358481
30
0
41
1
10
23.6908932729577
20
-3.75810177641094
30
0
41
1
10
24.079154592275
20
-3.90884256715148
30
0
41
1
10
24.2738846585818
20
-3.98151145215897
30
0
41
1
10
24.6642550838774
20
-4.12185384523519
30
0
41
1
10
24.859905385941
20
-4.18951380384129
30
0
41
1
10
25.2519894137935
20
-4.31994565927053
30
0
41
1
10
25.4484672375081
20
-4.38271804873867
30
0
41
1
10
25.8395050063352
20
-4.50261725487223
30
0
41
1
10
26.0342569731065
20
-4.55997179757847
30
0
41
1
10
26.4230332315099
20
-4.66864606494812
30
0
41
1
10
26.61741796708
20
-4.71964837987429
30
0
41
1
10
27.2003061608609
20
-4.86322410597217
30
0
41
1
10
27.5884567564366
20
-4.94650139158824
30
0
41
1
10
28.1691380283749
20
-5.05353142774464
30
0
41
1
10
28.3624315515208
20
-5.08621443942661
30
0
41
1
10
28.7484285678962
20
-5.14548058496848
30
0
41
1
10
28.9414423190364
20
-5.17189240206861
30
0
41
1
10
29.5218782726013
20
-5.24104915323085
30
0
41
1
10
29.909966452876
20
-5.27414510484428
30
0
41
1
10
30.4928236622667
20
-5.30450084634526
30
0
41
1
10
30.6872375868833
20
-5.31138546101249
30
0
41
1
10
30.9801250513535
20
-5.31675008169074
30
0
41
1
10
31.0785215170683
20
-5.31769370406434
30
0
41
1
10
31.1770280617924
20
-5.31777518327218
30
0
0
SPLINE
5
D3
100
AcDbEntity
8
1
62
256
6
ByLayer
370
18
48
1
60
0
100
AcDbSpline
70
4
71
3
72
98
73
94
40
0
40
0
40
0
40
0
40
0.0242471094270517
40
0.0242471094270517
40
0.055532251871387
40
0.055532251871387
40
0.071174823093554
40
0.071174823093554
40
0.086817394315721
40
0.086817394315721
40
0.118102536760055
40
0.118102536760055
40
0.133745107982223
40
0.133745107982223
40
0.14938767920439
40
0.14938767920439
40
0.180672821648724
40
0.180672821648724
40
0.211957964093058
40
0.211957964093058
40
0.243243106537393
40
0.243243106537393
40
0.25888567775956
40
0.25888567775956
40
0.274528248981727
40
0.274528248981727
40
0.305813391426061
40
0.305813391426061
40
0.321455962648228
40
0.321455962648228
40
0.337098533870394
40
0.337098533870394
40
0.368383676314728
40
0.368383676314728
40
0.384026247536895
40
0.384026247536895
40
0.399668818759062
40
0.399668818759062
40
0.430953961203396
40
0.430953961203396
40
0.462239103647731
40
0.462239103647731
40
0.477881674869898
40
0.477881674869898
40
0.493524246092065
40
0.493524246092065
40
0.5248093885364
40
0.5248093885364
40
0.540451959758568
40
0.540451959758568
40
0.556094530980736
40
0.556094530980736
40
0.587379673425071
40
0.587379673425071
40
0.603022244647239
40
0.603022244647239
40
0.618664815869406
40
0.618664815869406
40
0.649949958313741
40
0.649949958313741
40
0.665592529535909
40
0.665592529535909
40
0.681235100758076
40
0.681235100758076
40
0.712520243202411
40
0.712520243202411
40
0.728162814424578
40
0.728162814424578
40
0.743805385646745
40
0.743805385646745
40
0.775090528091079
40
0.775090528091079
40
0.790733099313245
40
0.790733099313245
40
0.806375670535411
40
0.806375670535411
40
0.837660812979742
40
0.837660812979742
40
0.853303384201907
40
0.853303384201907
40
0.868945955424073
40
0.868945955424073
40
0.900231097868402
40
0.900231097868402
40
0.931516240312731
40
0.931516240312731
40
0.947158811534897
40
0.947158811534897
40
0.962801382757062
40
0.962801382757062
40
0.994086525201393
40
0.994086525201393
40
1
40
1
40
1
40
1
41
1
10
53.8766774023342
20
3.85863825581109
30
0
41
1
10
54.1765637908227
20
3.97500930694676
30
0
41
1
10
54.4764913477791
20
4.08477190071144
30
0
41
1
10
55.1634918332164
20
4.32152521773119
30
0
41
1
10
55.5503451452275
20
4.44457520310681
30
0
41
1
10
56.1295521263605
20
4.61404522098772
30
0
41
1
10
56.3224040373323
20
4.66801161825072
30
0
41
1
10
56.7094333741706
20
4.76932314967434
30
0
41
1
10
56.9034018532107
20
4.81687836587713
30
0
41
1
10
57.4863025274977
20
4.95061876219387
30
0
41
1
10
57.8762442397367
20
5.02792039063274
30
0
41
1
10
58.4624198272571
20
5.12591870133852
30
0
41
1
10
58.6580836937152
20
5.1556794895165
30
0
41
1
10
59.0485197779244
20
5.20809715371291
30
0
41
1
10
59.243630432921
20
5.23080007035637
30
0
41
1
10
59.8282157434296
20
5.28893260614092
30
0
41
1
10
60.2169730671775
20
5.31443242809121
30
0
41
1
10
60.991432297021
20
5.33938554336828
30
0
41
1
10
61.3765359203754
20
5.33859082533499
30
0
41
1
10
62.1496346581321
20
5.3107797150945
30
0
41
1
10
62.5367736859312
20
5.28396831411462
30
0
41
1
10
63.1174593452511
20
5.22412731425013
30
0
41
1
10
63.3110219828903
20
5.20089366522987
30
0
41
1
10
63.6980251129279
20
5.147612518339
30
0
41
1
10
63.8915833101868
20
5.11758796167922
30
0
41
1
10
64.4745934549924
20
5.01852708908271
30
0
41
1
10
64.865725628557
20
4.94011628668753
30
0
41
1
10
65.4538777257237
20
4.8032821921386
30
0
41
1
10
65.6493436078734
20
4.7546538026854
30
0
41
1
10
66.0389743652262
20
4.65122504434265
30
0
41
1
10
66.2329630552831
20
4.59623873185205
30
0
41
1
10
66.8151735439932
20
4.42409502184276
30
0
41
1
10
67.2032494582663
20
4.29954372776947
30
0
41
1
10
67.7840906028671
20
4.09729315519294
30
0
41
1
10
67.9775060255599
20
4.0273056459082
30
0
41
1
10
68.3638058948623
20
3.88197883284036
30
0
41
1
10
68.5565657635764
20
3.80647494484464
30
0
41
1
10
69.1348363581936
20
3.57278096608431
30
0
41
1
10
69.521859815595
20
3.40950287517106
30
0
41
1
10
70.2973341491622
20
3.06626938115878
30
0
41
1
10
70.6857834072006
20
2.88629805533512
30
0
41
1
10
71.2688867280948
20
2.60208603524208
30
0
41
1
10
71.4636278038865
20
2.50543677308826
30
0
41
1
10
71.8548026384564
20
2.30993341914529
30
0
41
1
10
72.0510763077884
20
2.21077103359886
30
0
41
1
10
72.6377066096199
20
1.91062144957272
30
0
41
1
10
73.0271926760806
20
1.70634470606993
30
0
41
1
10
73.6082244367482
20
1.39224843323223
30
0
41
1
10
73.8012658674585
20
1.2860808765316
30
0
41
1
10
74.1879270956455
20
1.07411879529991
30
0
41
1
10
74.381367362858
20
0.968006629134294
30
0
41
1
10
74.9616381247905
20
0.648617360249148
30
0
41
1
10
75.3484430835263
20
0.434337283401902
30
0
41
1
10
75.927754509214
20
0.109348308880527
30
0
41
1
10
76.1205434988406
20
0.0001179678374399
30
0
41
1
10
76.5066885878305
20
-0.217966461953154
30
0
41
1
10
76.7002903214365
20
-0.3263671070888
30
0
41
1
10
77.2822146539417
20
-0.650488069606894
30
0
41
1
10
77.6716585992588
20
-0.865117407191832
30
0
41
1
10
78.2572458766116
20
-1.18646079308294
30
0
41
1
10
78.4529316833002
20
-1.2937067487974
30
0
41
1
10
78.8434364474374
20
-1.50705371855983
30
0
41
1
10
79.0383704185766
20
-1.61227139263778
30
0
41
1
10
79.6229346293385
20
-1.92247248364419
30
0
41
1
10
80.0118331910667
20
-2.1229567516373
30
0
41
1
10
80.5930761998735
20
-2.41599029154605
30
0
41
1
10
80.7864765427881
20
-2.51236963054148
30
0
41
1
10
81.1724480190156
20
-2.7026887908568
30
0
41
1
10
81.3650352931141
20
-2.79658404939877
30
0
41
1
10
81.9441006137787
20
-3.07064266374528
30
0
41
1
10
82.330953690302
20
-3.24472065246314
30
0
41
1
10
82.9113737040997
20
-3.49460245563125
30
0
41
1
10
83.104880707547
20
-3.57599835825337
30
0
41
1
10
83.4918359868411
20
-3.73508459444619
30
0
41
1
10
83.6850904846796
20
-3.81301670368157
30
0
41
1
10
84.2665991960876
20
-4.03872200977978
30
0
41
1
10
84.6567445609969
20
-4.17834670942051
30
0
41
1
10
85.2443956331086
20
-4.37309473748218
30
0
41
1
10
85.4403927008869
20
-4.4354159158222
30
0
41
1
10
85.8306061087916
20
-4.55439001776085
30
0
41
1
10
86.0250068916582
20
-4.61121497204493
30
0
41
1
10
86.6068177902897
20
-4.77290079243775
30
0
41
1
10
86.9946515319215
20
-4.86743408839112
30
0
41
1
10
87.7691155155201
20
-5.03216053294162
30
0
41
1
10
88.1556940289295
20
-5.10238081410461
30
0
41
1
10
88.7337798463013
20
-5.18946706313659
30
0
41
1
10
88.9263515708594
20
-5.21532985328204
30
0
41
1
10
89.3125697177863
20
-5.26024798096765
30
0
41
1
10
89.5060035921654
20
-5.27941018676597
30
0
41
1
10
90.0869614353183
20
-5.32720153512702
30
0
41
1
10
90.4751484900083
20
-5.34619510601294
30
0
41
1
10
90.9371539674715
20
-5.352994970721
30
0
41
1
10
91.0105884725264
20
-5.35359497923872
30
0
41
1
10
91.0840615632671
20
-5.35371206543172
30
0
0
SPLINE
5
D4
100
AcDbEntity
8
1
62
256
6
ByLayer
370
18
48
1
60
0
100
AcDbSpline
70
4
71
3
72
8
73
4
40
0
40
0
40
0
40
0
40
1
40
1
40
1
40
1
41
1
10
93.2026765564563
20
-5.0839344862419
30
0
41
1
10
93.177376983433
20
-5.10511309637675
30
0
41
1
10
93.1558009719155
20
-5.1157845584568
30
0
41
1
10
93.1380088334394
20
-5.11577868534991
30
0
0
SPLINE
5
D5
100
AcDbEntity
8
1
62
256
6
ByLayer
370
18
48
1
60
0
100
AcDbSpline
70
4
71
3
72
100
73
96
40
0
40
0
40
0
40
0
40
0.0145962576743613
40
0.0145962576743613
40
0.0302574763898219
40
0.0302574763898219
40
0.0459186951052824
40
0.0459186951052824
40
0.061579913820743
40
0.061579913820743
40
0.0772411325362035
40
0.0772411325362035
40
0.108563569967125
40
0.108563569967125
40
0.124224788682586
40
0.124224788682586
40
0.139886007398046
40
0.139886007398046
40
0.171208444828968
40
0.171208444828968
40
0.186869663544429
40
0.186869663544429
40
0.202530882259889
40
0.202530882259889
40
0.21819210097535
40
0.21819210097535
40
0.233853319690811
40
0.233853319690811
40
0.249514538406271
40
0.249514538406271
40
0.265175757121732
40
0.265175757121732
40
0.296498194552653
40
0.296498194552653
40
0.327820631983574
40
0.327820631983574
40
0.359143069414495
40
0.359143069414495
40
0.390465506845416
40
0.390465506845416
40
0.406126725560877
40
0.406126725560877
40
0.421787944276337
40
0.421787944276337
40
0.453110381707258
40
0.453110381707258
40
0.468771600422718
40
0.468771600422718
40
0.484432819138178
40
0.484432819138178
40
0.515755256569099
40
0.515755256569099
40
0.547077694000019
40
0.547077694000019
40
0.562738912715479
40
0.562738912715479
40
0.57840013143094
40
0.57840013143094
40
0.5940613501464
40
0.5940613501464
40
0.60972256886186
40
0.60972256886186
40
0.641045006292781
40
0.641045006292781
40
0.656706225008242
40
0.656706225008242
40
0.672367443723702
40
0.672367443723702
40
0.703689881154623
40
0.703689881154623
40
0.719351099870084
40
0.719351099870084
40
0.735012318585544
40
0.735012318585544
40
0.766334756016465
40
0.766334756016465
40
0.797657193447386
40
0.797657193447386
40
0.828979630878307
40
0.828979630878307
40
0.860302068309228
40
0.860302068309228
40
0.875963287024689
40
0.875963287024689
40
0.89162450574015
40
0.89162450574015
40
0.92294694317107
40
0.92294694317107
40
0.938608161886531
40
0.938608161886531
40
0.954269380601992
40
0.954269380601992
40
0.985591818032913
40
0.985591818032913
40
1
40
1
40
1
40
1
41
1
10
23.9246347886567
20
3.84881029485808
30
0
41
1
10
24.1056399403346
20
3.91871396924344
30
0
41
1
10
24.2871572302144
20
3.98628308531681
30
0
41
1
10
24.6642550838764
20
4.12185384523485
30
0
41
1
10
24.85990538594
20
4.18951380384092
30
0
41
1
10
25.2519894137923
20
4.31994565927019
30
0
41
1
10
25.448467237507
20
4.38271804873833
30
0
41
1
10
25.839505006334
20
4.50261725487192
30
0
41
1
10
26.0342569731053
20
4.55997179757813
30
0
41
1
10
26.4230332315087
20
4.66864606494778
30
0
41
1
10
26.6174179670787
20
4.71964837987397
30
0
41
1
10
27.2003061608595
20
4.86322410597185
30
0
41
1
10
27.5884567564352
20
4.94650139158793
30
0
41
1
10
28.1691380283733
20
5.05353142774439
30
0
41
1
10
28.3624315515192
20
5.08621443942636
30
0
41
1
10
28.7484285678946
20
5.14548058496823
30
0
41
1
10
28.9414423190347
20
5.17189240206838
30
0
41
1
10
29.5218782725996
20
5.24104915323068
30
0
41
1
10
29.9099664528742
20
5.27414510484414
30
0
41
1
10
30.4928236622647
20
5.30450084634521
30
0
41
1
10
30.6872375868813
20
5.31138546101243
30
0
41
1
10
31.0762024873289
20
5.31850986680371
30
0
41
1
10
31.2706515474387
20
5.31871766010323
30
0
41
1
10
31.6613143796996
20
5.31237274144601
30
0
41
1
10
31.8576688263111
20
5.30583163866979
30
0
41
1
10
32.2497544891389
20
5.28614783715156
30
0
41
1
10
32.4454111748124
20
5.27302230070202
30
0
41
1
10
32.8358131806165
20
5.24025114006454
30
0
41
1
10
33.0305599761531
20
5.2206054351858
30
0
41
1
10
33.4190118418103
20
5.17471153340946
30
0
41
1
10
33.6125348100861
20
5.14836470348743
30
0
41
1
10
34.1930129213078
20
5.05999516728045
30
0
41
1
10
34.5805300447614
20
4.98916366702241
30
0
41
1
10
35.3548551023223
20
4.82346938977716
30
0
41
1
10
35.7416195272056
20
4.72852686613081
30
0
41
1
10
36.5139994611503
20
4.51327358280264
30
0
41
1
10
36.9018284265143
20
4.39498349911838
30
0
41
1
10
37.6803016825814
20
4.13711229144721
30
0
41
1
10
38.0707644834089
20
3.99735556453714
30
0
41
1
10
38.6576019270194
20
3.7696269223099
30
0
41
1
10
38.8530644957532
20
3.69087686605602
30
0
41
1
10
39.2435706713011
20
3.53063204234255
30
0
41
1
10
39.4386516838609
20
3.44874891442251
30
0
41
1
10
40.0230676412774
20
3.19749314678319
30
0
41
1
10
40.4115934084853
20
3.02256646428012
30
0
41
1
10
40.9919368388982
20
2.74776693059908
30
0
41
1
10
41.1847859011598
20
2.6537785663063
30
0
41
1
10
41.5710155462583
20
2.46375553332328
30
0
41
1
10
41.7643830046781
20
2.36771620681276
30
0
41
1
10
42.3448040092878
20
2.07589512730593
30
0
41
1
10
42.7322009735205
20
1.87647569239746
30
0
41
1
10
43.5067653313971
20
1.46578888701018
30
0
41
1
10
43.8934395053278
20
1.25352332948836
30
0
41
1
10
44.4778297439505
20
0.934174002020313
30
0
41
1
10
44.6731326018523
20
0.827178567474249
30
0
41
1
10
45.064589402518
20
0.611781750238038
30
0
41
1
10
45.2610621916229
20
0.503202528223852
30
0
41
1
10
45.6525947646039
20
0.285545724913732
30
0
41
1
10
45.847744903338
20
0.176409548587117
30
0
41
1
10
46.2367040234254
20
-0.0426661153359476
30
0
41
1
10
46.4307655962136
20
-0.152122414709254
30
0
41
1
10
47.0133242771466
20
-0.477266948663868
30
0
41
1
10
47.4014074625958
20
-0.691239353501572
30
0
41
1
10
47.982129895221
20
-1.00988903337313
30
0
41
1
10
48.1754766331982
20
-1.11570463518538
30
0
41
1
10
48.5615813519833
20
-1.32674570441017
30
0
41
1
10
48.7541963902704
20
-1.43221599448995
30
0
41
1
10
49.3335325869136
20
-1.74353613678863
30
0
41
1
10
49.7211067155196
20
-1.94546950789049
30
0
41
1
10
50.303310950993
20
-2.24204130461521
30
0
41
1
10
50.4975337859752
20
-2.33981448979321
30
0
41
1
10
50.8861659693756
20
-2.53336103573255
30
0
41
1
10
51.0804249284143
20
-2.62937922165503
30
0
41
1
10
51.6645849768396
20
-2.91253281900992
30
0
41
1
10
52.0580593248313
20
-3.09339426391168
30
0
41
1
10
52.8396496880359
20
-3.43713870065963
30
0
41
1
10
53.2286492376335
20
-3.60050494003303
30
0
41
1
10
54.0024514085045
20
-3.91075105302178
30
0
41
1
10
54.3894224475134
20
-4.05476631645908
30
0
41
1
10
55.1634918332106
20
-4.32152521772926
30
0
41
1
10
55.5503451452217
20
-4.44457520310499
30
0
41
1
10
56.1295521263545
20
-4.61404522098601
30
0
41
1
10
56.3224040373262
20
-4.6680116182491
30
0
41
1
10
56.7094333741644
20
-4.7693231496728
30
0
41
1
10
56.9034018532045
20
-4.81687836587565
30
0
41
1
10
57.4863025274915
20
-4.95061876219259
30
0
41
1
10
57.8762442397303
20
-5.02792039063155
30
0
41
1
10
58.4624198272505
20
-5.1259187013375
30
0
41
1
10
58.6580836937087
20
-5.15567948951553
30
0
41
1
10
59.0485197779179
20
-5.20809715371212
30
0
41
1
10
59.2436304329144
20
-5.23080007035566
30
0
41
1
10
59.8282157434229
20
-5.28893260614041
30
0
41
1
10
60.2169730671709
20
-5.31443242809084
30
0
41
1
10
60.7823265834378
20
-5.33264814677591
30
0
41
1
10
60.9600006336628
20
-5.33557916017031
30
0
41
1
10
61.1375724812892
20
-5.33571764191012
30
0
0
SPLINE
5
D6
100
AcDbEntity
8
1
62
256
6
ByLayer
370
18
48
1
60
0
100
AcDbSpline
70
4
71
3
72
30
73
26
40
0
40
0
40
0
40
0
40
0.006704620165934
40
0.006704620165934
40
0.130866542645203
40
0.130866542645203
40
0.192947503884835
40
0.192947503884835
40
0.255028465124466
40
0.255028465124466
40
0.379190387603722
40
0.379190387603722
40
0.503352310082977
40
0.503352310082977
40
0.565433271322606
40
0.565433271322606
40
0.627514232562233
40
0.627514232562233
40
0.751676155041489
40
0.751676155041489
40
0.813757116281116
40
0.813757116281116
40
0.875838077520744
40
0.875838077520744
40
1
40
1
40
1
40
1
41
1
10
83.8161442807846
20
3.86378307996782
30
0
41
1
10
83.8370656518761
20
3.87196986663406
30
0
41
1
10
83.8579927942622
20
3.88012656453802
30
0
41
1
10
84.266599196077
20
4.03872200977591
30
0
41
1
10
84.6567445609861
20
4.17834670941679
30
0
41
1
10
85.2443956330977
20
4.37309473747865
30
0
41
1
10
85.440392700876
20
4.43541591581882
30
0
41
1
10
85.8306061087808
20
4.55439001775764
30
0
41
1
10
86.0250068916474
20
4.61121497204184
30
0
41
1
10
86.6068177902789
20
4.77290079243488
30
0
41
1
10
86.9946515319103
20
4.86743408838856
30
0
41
1
10
87.7691155155089
20
5.03216053293949
30
0
41
1
10
88.1556940289184
20
5.1023808141027
30
0
41
1
10
88.73377984629
20
5.18946706313503
30
0
41
1
10
88.9263515708481
20
5.21532985328062
30
0
41
1
10
89.312569717775
20
5.26024798096645
30
0
41
1
10
89.506003592154
20
5.27941018676489
30
0
41
1
10
90.0869614353068
20
5.32720153512631
30
0
41
1
10
90.4751484899966
20
5.34619510601252
30
0
41
1
10
91.0579889922967
20
5.35477343842527
30
0
41
1
10
91.2521947256114
20
5.35426740354188
30
0
41
1
10
91.6422795248926
20
5.34645202520627
30
0
41
1
10
91.8382996508534
20
5.33916098654433
30
0
41
1
10
92.4257975036356
20
5.3073422252541
30
0
41
1
10
92.817054866463
20
5.27296141658857
30
0
41
1
10
93.2073173121147
20
5.22516376417394
30
0
0
SPLINE
5
D7
100
AcDbEntity
8
1
62
256
6
ByLayer
370
13
48
1
60
0
100
AcDbSpline
70
4
71
3
72
25
73
21
40
0
40
0
40
0
40
0
40
0.083127340754942
40
0.083127340754942
40
0.166479400686311
40
0.166479400686311
40
0.333183520549049
40
0.333183520549049
40
0.416535580480418
40
0.416535580480418
40
0.499887640411787
40
0.499887640411787
40
0.583239700343156
40
0.583239700343156
40
0.666591760274524
40
0.749943820205893
40
0.749943820205893
40
0.833295880137262
40
0.833295880137262
40
1
40
1
40
1
40
1
41
1
10
6.25075875246179
20
-5.06424792590599
30
0
41
1
10
6.25078155785758
20
-5.06426351259029
30
0
41
1
10
6.25080335090021
20
-5.05538270865472
30
0
41
1
10
6.25084605279574
20
-5.01937248891582
30
0
41
1
10
6.25086701201076
20
-4.99198904326667
30
0
41
1
10
6.25092852582966
20
-4.88403010286342
30
0
41
1
10
6.25096830931136
20
-4.77773571987385
30
0
41
1
10
6.2510303426514
20
-4.56697992395524
30
0
41
1
10
6.25105148317692
20
-4.48769934020996
30
0
41
1
10
6.25109433497181
20
-4.31342786828884
30
0
41
1
10
6.25111603574879
20
-4.21856069061474
30
0
41
1
10
6.25116007734488
20
-4.01335146191369
30
0
41
1
10
6.25118238151734
20
-3.9031135024471
30
0
41
1
10
6.25122669017904
20
-3.67106263406478
30
0
41
1
10
6.25127088346576
20
-3.42659143602202
30
0
41
1
10
6.25131399907235
20
-3.15756933985057
30
0
41
1
10
6.25135589054085
20
-2.87601865872062
30
0
41
1
10
6.25137628175256
20
-2.72838493268347
30
0
41
1
10
6.25143290660171
20
-2.27634130311603
30
0
41
1
10
6.25146516460592
20
-1.96017588002087
30
0
41
1
10
6.25148754080311
20
-1.6292874399972
30
0
0
SPLINE
5
D8
100
AcDbEntity
8
1
62
256
6
ByLayer
370
18
48
1
60
0
100
AcDbSpline
70
4
71
3
72
23
73
19
40
0
40
0
40
0
40
0
40
0.124999999999995
40
0.124999999999995
40
0.187499999999992
40
0.187499999999992
40
0.24999999999999
40
0.24999999999999
40
0.499999999999994
40
0.499999999999994
40
0.562499999999994
40
0.562499999999994
40
0.624999999999994
40
0.624999999999994
40
0.749999999999996
40
0.874999999999998
40
0.874999999999998
40
1
40
1
40
1
40
1
41
1
10
93.1380088334349
20
-5.11577868534988
30
0
41
1
10
93.064085821903
20
-5.11575474039182
30
0
41
1
10
92.9936931856979
20
-5.10507999790124
30
0
41
1
10
92.8936651681774
20
-5.07229108104056
30
0
41
1
10
92.8612515568026
20
-5.05855855539747
30
0
41
1
10
92.7983575890468
20
-5.02526106262522
30
0
41
1
10
92.7677783803009
20
-5.00560812296249
30
0
41
1
10
92.6216849488878
20
-4.89345122271124
30
0
41
1
10
92.5255874134326
20
-4.75990207707264
30
0
41
1
10
92.4326814513992
20
-4.53556130937753
30
0
41
1
10
92.4154785388853
20
-4.48778606568001
30
0
41
1
10
92.3839371889409
20
-4.3861937812828
30
0
41
1
10
92.3695604576733
20
-4.33215692028057
30
0
41
1
10
92.3314799679808
20
-4.16318481553535
30
0
41
1
10
92.2937252482546
20
-3.91876949127615
30
0
41
1
10
92.2815685429287
20
-3.63676271272496
30
0
41
1
10
92.2825521021922
20
-3.33545906028476
30
0
41
1
10
92.2897412863542
20
-3.17444650212687
30
0
41
1
10
92.3034720410293
20
-3.0075413626673
30
0
0
SPLINE
5
D9
100
AcDbEntity
8
1
62
256
6
ByLayer
370
18
48
1
60
0
100
AcDbSpline
70
4
71
3
72
96
73
92
40
0
40
0
40
0
40
0
40
0.0256723643459289
40
0.0256723643459289
40
0.057720511831554
40
0.057720511831554
40
0.0737445855743666
40
0.0737445855743666
40
0.0897686593171791
40
0.0897686593171791
40
0.121816806802804
40
0.121816806802804
40
0.137840880545616
40
0.137840880545616
40
0.153864954288428
40
0.153864954288428
40
0.185913101774053
40
0.185913101774053
40
0.217961249259677
40
0.217961249259677
40
0.250009396745301
40
0.250009396745301
40
0.266033470488114
40
0.266033470488114
40
0.282057544230926
40
0.282057544230926
40
0.314105691716551
40
0.314105691716551
40
0.330129765459364
40
0.330129765459364
40
0.346153839202177
40
0.346153839202177
40
0.378201986687802
40
0.378201986687802
40
0.410250134173427
40
0.410250134173427
40
0.42627420791624
40
0.42627420791624
40
0.442298281659053
40
0.442298281659053
40
0.47434642914468
40
0.47434642914468
40
0.490370502887493
40
0.490370502887493
40
0.506394576630307
40
0.506394576630307
40
0.538442724115934
40
0.538442724115934
40
0.554466797858748
40
0.554466797858748
40
0.570490871601562
40
0.570490871601562
40
0.602539019087189
40
0.602539019087189
40
0.618563092830003
40
0.618563092830003
40
0.634587166572817
40
0.634587166572817
40
0.666635314058445
40
0.666635314058445
40
0.682659387801259
40
0.682659387801259
40
0.698683461544073
40
0.698683461544073
40
0.714707535286886
40
0.714707535286886
40
0.7307316090297
40
0.7307316090297
40
0.762779756515329
40
0.762779756515329
40
0.794827904000958
40
0.794827904000958
40
0.826876051486586
40
0.826876051486586
40
0.8429001252294
40
0.8429001252294
40
0.858924198972214
40
0.858924198972214
40
0.874948272715028
40
0.874948272715028
40
0.890972346457842
40
0.890972346457842
40
0.906996420200656
40
0.906996420200656
40
0.92302049394347
40
0.92302049394347
40
0.955068641429097
40
0.955068641429097
40
0.987116788914726
40
0.987116788914726
40
1
40
1
40
1
40
1
41
1
10
17.1039670436537
20
5.0755124181936
30
0
41
1
10
17.4187580410348
20
5.0759868024858
30
0
41
1
10
17.7336180096332
20
5.06777875470351
30
0
41
1
10
18.4427405974795
20
5.0312144087811
30
0
41
1
10
18.83753182056
20
4.99844209817596
30
0
41
1
10
19.428410639006
20
4.93169142308517
30
0
41
1
10
19.6249431981632
20
4.90563451497761
30
0
41
1
10
20.0181915697237
20
4.84699991304026
30
0
41
1
10
20.2148620834408
20
4.81455024916241
30
0
41
1
10
20.8048795979854
20
4.70838338538098
30
0
41
1
10
21.1982972457014
20
4.62569152096273
30
0
41
1
10
21.7884250323292
20
4.48515390962322
30
0
41
1
10
21.9850262052369
20
4.4357189938512
30
0
41
1
10
22.3789240682535
20
4.32971298584704
30
0
41
1
10
22.5761347434825
20
4.27357168745132
30
0
41
1
10
23.1670183444643
20
4.09766491953619
30
0
41
1
10
23.5605386950267
20
3.97010949893556
30
0
41
1
10
24.3467935913579
20
3.69604912864264
30
0
41
1
10
24.73915032291
20
3.54960217312996
30
0
41
1
10
25.5268617944883
20
3.23746539163815
30
0
41
1
10
25.9219773677952
20
3.07236619780463
30
0
41
1
10
26.51251671183
20
2.81421356313587
30
0
41
1
10
26.7091491541605
20
2.72635419510516
30
0
41
1
10
27.1020343953373
20
2.54717610206373
30
0
41
1
10
27.2983654273957
20
2.45594089935335
30
0
41
1
10
27.88810354958
20
2.1779471632407
30
0
41
1
10
28.2818198033308
20
1.98655971533657
30
0
41
1
10
28.8731988780316
20
1.69193317574278
30
0
41
1
10
29.0705344753103
20
1.59237762254108
30
0
41
1
10
29.4643462949084
20
1.39136349700144
30
0
41
1
10
29.6609029721816
20
1.28977262467129
30
0
41
1
10
30.2508885022934
20
0.983961582432357
30
0
41
1
10
30.6442395434085
20
0.777779837660262
30
0
41
1
10
31.4311473196919
20
0.361762959285585
30
0
41
1
10
31.8243896171256
20
0.151330482736114
30
0
41
1
10
32.4154728977211
20
-0.164789110736507
30
0
41
1
10
32.6125672994567
20
-0.269786759661002
30
0
41
1
10
33.0063409441773
20
-0.478834406698553
30
0
41
1
10
33.2031003372904
20
-0.582898964275728
30
0
41
1
10
33.7931294080824
20
-0.893735792324861
30
0
41
1
10
34.1859940519447
20
-1.0994524445311
30
0
41
1
10
34.7752028859954
20
-1.40491946959662
30
0
41
1
10
34.9718226407832
20
-1.50584945944024
30
0
41
1
10
35.3655882659033
20
-1.70540053061001
30
0
41
1
10
35.5629947862085
20
-1.80411405370398
30
0
41
1
10
36.1539274248457
20
-2.09536638307461
30
0
41
1
10
36.5459886510428
20
-2.28320835632943
30
0
41
1
10
37.1319097985024
20
-2.55749863582219
30
0
41
1
10
37.3270053904786
20
-2.6474105503508
30
0
41
1
10
37.7171863844604
20
-2.8241292956902
30
0
41
1
10
37.9121380275855
20
-2.91066022375753
30
0
41
1
10
38.4965423019303
20
-3.16227530697805
30
0
41
1
10
38.885700727981
20
-3.32164491396219
30
0
41
1
10
39.4690456159535
20
-3.54877530484538
30
0
41
1
10
39.6634066115844
20
-3.62256380534183
30
0
41
1
10
40.0527791414926
20
-3.76565721793099
30
0
41
1
10
40.247671317336
20
-3.83531835498411
30
0
41
1
10
40.8328911793232
20
-4.03753172158056
30
0
41
1
10
41.2241504981947
20
-4.16055251148791
30
0
41
1
10
41.8125779545978
20
-4.33072017634828
30
0
41
1
10
42.0089091791648
20
-4.38501161927675
30
0
41
1
10
42.4027077713955
20
-4.48813458877092
30
0
41
1
10
42.5999408596828
20
-4.53689923844962
30
0
41
1
10
42.9938058799495
20
-4.62905192786218
30
0
41
1
10
43.1906056771059
20
-4.67260679349366
30
0
41
1
10
43.5839326096143
20
-4.75224015925457
30
0
41
1
10
43.7804746769805
20
-4.78859640892196
30
0
41
1
10
44.3698154009234
20
-4.88846170138643
30
0
41
1
10
44.7621990490282
20
-4.94277361869607
30
0
41
1
10
45.5495693372002
20
-5.02795259966527
30
0
41
1
10
45.9444073639043
20
-5.05957834757555
30
0
41
1
10
46.7311236008038
20
-5.09206674600242
30
0
41
1
10
47.1232293665423
20
-5.09442962998477
30
0
41
1
10
47.7126172977557
20
-5.07991020490309
30
0
41
1
10
47.909191794637
20
-5.07204650228394
30
0
41
1
10
48.3024602517005
20
-5.05114828343161
30
0
41
1
10
48.4991798444757
20
-5.03755209925794
30
0
41
1
10
48.8929250865419
20
-5.00263352401481
30
0
41
1
10
49.0900747901212
20
-4.98150994017416
30
0
41
1
10
49.4835342805023
20
-4.93266520890697
30
0
41
1
10
49.6799629841499
20
-4.90493977351849
30
0
41
1
10
50.0730844697703
20
-4.8438192547728
30
0
41
1
10
50.2696648155371
20
-4.81031921677095
30
0
41
1
10
50.6627871948103
20
-4.73780793750865
30
0
41
1
10
50.8593248414336
20
-4.69926549239958
30
0
41
1
10
51.4489153870383
20
-4.57356543800142
30
0
41
1
10
51.8416141995539
20
-4.47581867869366
30
0
41
1
10
52.629406085747
20
-4.25801949192188
30
0
41
1
10
53.023382744422
20
-4.13854437881821
30
0
41
1
10
53.5747513482749
20
-3.95875163242792
30
0
41
1
10
53.7327592802538
20
-3.90555792592949
30
0
41
1
10
53.8906968271025
20
-3.85048266938586
30
0
0
SPLINE
5
DA
100
AcDbEntity
8
1
62
256
6
ByLayer
370
18
48
1
60
0
100
AcDbSpline
70
4
71
3
72
28
73
24
40
0
40
0
40
0
40
0
40
0.0790846466351259
40
0.0790846466351259
40
0.194199065805729
40
0.194199065805729
40
0.309313484976332
40
0.309313484976332
40
0.424427904146935
40
0.424427904146935
40
0.48198511373224
40
0.48198511373224
40
0.539542323317544
40
0.539542323317544
40
0.654656742488153
40
0.654656742488153
40
0.712213952073461
40
0.712213952073461
40
0.76977116165877
40
0.76977116165877
40
0.884885580829385
40
0.884885580829385
40
1
40
1
40
1
40
1
41
1
10
77.331745830099
20
5.10362684784207
30
0
41
1
10
77.6013692153489
20
5.0982247095113
30
0
41
1
10
77.8712378839808
20
5.08672561092342
30
0
41
1
10
78.5344301667528
20
5.04443280979601
30
0
41
1
10
78.9285529381471
20
5.00700298402708
30
0
41
1
10
79.714405153052
20
4.90846132794036
30
0
41
1
10
80.1069713087336
20
4.84905095347855
30
0
41
1
10
80.8922069274525
20
4.7007290311299
30
0
41
1
10
81.284785203263
20
4.61383849481203
30
0
41
1
10
81.8738149382305
20
4.46525441496041
30
0
41
1
10
82.0701731232626
20
4.41267673192073
30
0
41
1
10
82.4638350515999
20
4.30228426476012
30
0
41
1
10
82.6606525654091
20
4.24448240827459
30
0
41
1
10
83.2505574253853
20
4.06331526054075
30
0
41
1
10
83.6433261407278
20
3.93209043160584
30
0
41
1
10
84.2318290652798
20
3.72025985227984
30
0
41
1
10
84.4278074322258
20
3.64704800943218
30
0
41
1
10
84.820250819481
20
3.49667002241944
30
0
41
1
10
85.0167211052653
20
3.41950189610094
30
0
41
1
10
85.606738282228
20
3.18144451174814
30
0
41
1
10
86.0010307163838
20
3.0138689589632
30
0
41
1
10
86.7864631062411
20
2.66349495993075
30
0
41
1
10
87.178136166492
20
2.48049513634041
30
0
41
1
10
87.570672757405
20
2.29293399102764
30
0
0
SPLINE
5
DB
100
AcDbEntity
8
1
62
256
6
ByLayer
370
13
48
1
60
0
100
AcDbSpline
70
4
71
3
72
12
73
8
40
0
40
0
40
0
40
0
40
0.322968963222176
40
0.322968963222176
40
0.661884373924568
40
0.661884373924568
40
1
40
1
40
1
40
1
41
1
10
6.25051447780493
20
4.82806631077295
30
0
41
1
10
6.25054643666027
20
4.87851041646235
30
0
41
1
10
6.25057613907563
20
4.92101610622208
30
0
41
1
10
6.25063348889222
20
4.99189953631429
30
0
41
1
10
6.25066075342457
20
5.01910201689608
30
0
41
1
10
6.25071174287305
20
5.05513332499288
30
0
41
1
10
6.25073558218037
20
5.06414118325731
30
0
41
1
10
6.25075840554592
20
5.06424700296287
30
0
0
SPLINE
5
DC
100
AcDbEntity
8
1
62
256
6
ByLayer
370
18
48
1
60
0
100
AcDbSpline
70
4
71
3
72
29
73
25
40
0
40
0
40
0
40
0
40
0.0178912317525785
40
0.0178912317525785
40
0.181576026460482
40
0.181576026460482
40
0.263418423814434
40
0.263418423814434
40
0.30433962249141
40
0.30433962249141
40
0.345260821168386
40
0.345260821168386
40
0.508945615876289
40
0.508945615876289
40
0.59078801323024
40
0.59078801323024
40
0.672630410584192
40
0.754472807938143
40
0.754472807938143
40
0.795394006615119
40
0.795394006615119
40
0.836315205292095
40
0.836315205292095
40
1
40
1
40
1
40
1
41
1
10
6.00026842132934
20
-5.30267250419641
30
0
41
1
10
6.000268658799
20
-5.30267779723147
30
0
41
1
10
6.00026889383221
20
-5.30224110985432
30
0
41
1
10
6.0002712516565
20
-5.2933085315596
30
0
41
1
10
6.00027316167325
20
-5.24877702759753
30
0
41
1
10
6.00027599569788
20
-5.12886727425163
30
0
41
1
10
6.00027693413961
20
-5.07997682753825
30
0
41
1
10
6.00027836116953
20
-4.99282863765131
30
0
41
1
10
6.00027883955607
20
-4.96148758524404
30
0
41
1
10
6.0002797957124
20
-4.89491709853309
30
0
41
1
10
6.00028027482864
20
-4.85960803857853
30
0
41
1
10
6.00028268365756
20
-4.67310715237969
30
0
41
1
10
6.00028465956819
20
-4.4923537488331
30
0
41
1
10
6.00028777103483
20
-4.17330001904969
30
0
41
1
10
6.00028883549913
20
-4.05839367617196
30
0
41
1
10
6.00029095853071
20
-3.81737905566055
30
0
41
1
10
6.00029308591732
20
-3.56418974677743
30
0
41
1
10
6.00029518534052
20
-3.28711160866209
30
0
41
1
10
6.00029672654412
20
-3.07023829521611
30
0
41
1
10
6.00029723461319
20
-2.99643357215578
30
0
41
1
10
6.00029823427491
20
-2.84574311224654
30
0
41
1
10
6.00029872706565
20
-2.76865040403155
30
0
41
1
10
6.00030111013405
20
-2.37937015492739
30
0
41
1
10
6.00030277816575
20
-2.05402293693169
30
0
41
1
10
6.00030399953411
20
-1.71512660091258
30
0
0
SPLINE
5
DD
100
AcDbEntity
8
1
62
256
6
ByLayer
370
18
48
1
60
0
100
AcDbSpline
70
4
71
3
72
14
73
10
40
0
40
0
40
0
40
0
40
0.25
40
0.25
40
0.5
40
0.5
40
0.75
40
0.75
40
1
40
1
40
1
40
1
41
1
10
92.3133288619019
20
1.2546205571403
30
0
41
1
10
92.3037639728991
20
1.28338135883132
30
0
41
1
10
92.2978900971156
20
1.31312628816036
30
0
41
1
10
92.296849433175
20
1.37510826479604
30
0
41
1
10
92.3017766733544
20
1.40663107685293
30
0
41
1
10
92.3291921976867
20
1.46437092522373
30
0
41
1
10
92.3524512065959
20
1.4883303992444
30
0
41
1
10
92.4068872621815
20
1.52163489157866
30
0
41
1
10
92.4377753086204
20
1.53176915340151
30
0
41
1
10
92.4692584458242
20
1.53764823588199
30
0
0
SPLINE
5
DE
100
AcDbEntity
8
1
62
256
6
ByLayer
370
18
48
1
60
0
100
AcDbSpline
70
4
71
3
72
16
73
12
40
0
40
0
40
0
40
0
40
0.283486824977989
40
0.283486824977989
40
0.748604118722025
40
0.748604118722025
40
0.86488344215804
40
0.86488344215804
40
0.981162765594055
40
0.981162765594055
40
1
40
1
40
1
40
1
41
1
10
92.1407852409451
20
-5.11542449018017
30
0
41
1
10
91.5898042727864
20
-5.1152054098105
30
0
41
1
10
91.040813802607
20
-5.08924260924059
30
0
41
1
10
89.5923658016324
20
-4.95478770039875
30
0
41
1
10
88.6938025070202
20
-4.80407017176415
30
0
41
1
10
87.5619923352369
20
-4.53605129639203
30
0
41
1
10
87.3351989966795
20
-4.47846532987512
30
0
41
1
10
86.8804971312868
20
-4.35542563164259
30
0
41
1
10
86.652235004566
20
-4.28986191742848
30
0
41
1
10
86.3881068843688
20
-4.20982020256076
30
0
41
1
10
86.3513001479349
20
-4.19857239099443
30
0
41
1
10
86.3145095125302
20
-4.18723655228419
30
0
0
SPLINE
5
DF
100
AcDbEntity
8
1
62
256
6
ByLayer
370
13
48
1
60
0
100
AcDbSpline
70
4
71
3
72
24
73
20
40
0
40
0
40
0
40
0
40
0.0922043084878466
40
0.0922043084878466
40
0.29286655351153
40
0.29286655351153
40
0.493528798535213
40
0.493528798535213
40
0.543694359791134
40
0.543694359791134
40
0.593859921047055
40
0.593859921047055
40
0.694191043558898
40
0.694191043558898
40
0.894853288582589
40
0.894853288582589
40
0.995184411094434
40
0.995184411094434
40
1
40
1
40
1
40
1
41
1
10
86.31450951254
20
-4.18723655228715
30
0
41
1
10
85.8970943870057
20
-4.05862364614373
30
0
41
1
10
85.4817518611372
20
-3.91867947494669
30
0
41
1
10
84.1667478145247
20
-3.44186398056232
30
0
41
1
10
83.2720842722595
20
-3.06686674984635
30
0
41
1
10
81.4792570739262
20
-2.24563949611237
30
0
41
1
10
80.5810129436851
20
-1.79946920500453
30
0
41
1
10
79.4466696658032
20
-1.21208628054683
30
0
41
1
10
79.2189132500177
20
-1.09298719705973
30
0
41
1
10
78.7632861956333
20
-0.853129720877945
30
0
41
1
10
78.5360799049856
20
-0.73271465475375
30
0
41
1
10
77.8558772580163
20
-0.370772671972532
30
0
41
1
10
77.4042838455099
20
-0.128574448356005
30
0
41
1
10
76.0521817773222
20
0.595180417011505
30
0
41
1
10
75.1542890279778
20
1.07374201946101
30
0
41
1
10
73.8016474454157
20
1.76470683075397
30
0
41
1
10
73.3497029160898
20
1.99038752291381
30
0
41
1
10
72.8738121557733
20
2.21989752644083
30
0
41
1
10
72.8520103628725
20
2.23039396256527
30
0
41
1
10
72.8302025133328
20
2.24087513177264
30
0
0
SPLINE
5
E0
100
AcDbEntity
8
1
62
256
6
ByLayer
370
18
48
1
60
0
100
AcDbSpline
70
4
71
3
72
14
73
10
40
0
40
0
40
0
40
0
40
0.271426643012198
40
0.271426643012198
40
0.509520781578357
40
0.509520781578357
40
0.747614920144513
40
0.747614920144513
40
1
40
1
40
1
40
1
41
1
10
32.2826364317164
20
-5.07916982783379
30
0
41
1
10
31.7638079782925
20
-5.0801255453438
30
0
41
1
10
31.2449336391007
20
-5.05852505465469
30
0
41
1
10
30.2680694989298
20
-4.97556488267963
30
0
41
1
10
29.8131127852332
20
-4.91970865533111
30
0
41
1
10
28.9072188111405
20
-4.77573913731902
30
0
41
1
10
28.4558354386673
20
-4.68756172176381
30
0
41
1
10
27.5270954286693
20
-4.47444868634164
30
0
41
1
10
27.0497679761641
20
-4.34771204668917
30
0
41
1
10
26.5718823076115
20
-4.20498362790048
30
0
0
SPLINE
5
E1
100
AcDbEntity
8
1
62
256
6
ByLayer
370
13
48
1
60
0
100
AcDbSpline
70
4
71
3
72
24
73
20
40
0
40
0
40
0
40
0
40
0.0936795408680981
40
0.0936795408680981
40
0.193340908866192
40
0.193340908866192
40
0.293002276864287
40
0.293002276864287
40
0.392663644862381
40
0.392663644862381
40
0.492325012860475
40
0.492325012860475
40
0.691647748856662
40
0.691647748856662
40
0.890970484852847
40
0.890970484852847
40
0.990631852850939
40
0.990631852850939
40
1
40
1
40
1
40
1
41
1
10
26.5718832641016
20
-4.20498391357202
30
0
41
1
10
26.1481164514304
20
-4.07841900037297
30
0
41
1
10
25.7239106962901
20
-3.93927924118282
30
0
41
1
10
24.8458784038474
20
-3.62772187700503
30
0
41
1
10
24.3917561915883
20
-3.45393707470609
30
0
41
1
10
23.4787210674384
20
-3.08179700455088
30
0
41
1
10
23.0228630078
20
-2.88474511290678
30
0
41
1
10
22.1122913468868
20
-2.47286968631784
30
0
41
1
10
21.6572233417306
20
-2.25802798268822
30
0
41
1
10
20.7457169940616
20
-1.81351897149898
30
0
41
1
10
20.2882581132336
20
-1.5834257381585
30
0
41
1
10
18.924567078855
20
-0.883917129054083
30
0
41
1
10
18.0234045933785
20
-0.403274125290181
30
0
41
1
10
16.2205915561024
20
0.555070245744218
30
0
41
1
10
15.3192659510065
20
1.03340132159332
30
0
41
1
10
13.9551663417804
20
1.72615629239246
30
0
41
1
10
13.4973531451858
20
1.953553275774
30
0
41
1
10
13.0001267329794
20
2.19230627265486
30
0
41
1
10
12.9574205638803
20
2.21274572994241
30
0
41
1
10
12.9147306059932
20
2.23310897157066
30
0
0
SPLINE
5
E2
100
AcDbEntity
8
1
62
256
6
ByLayer
370
18
48
1
60
0
100
AcDbSpline
70
4
71
3
72
18
73
14
40
0
40
0
40
0
40
0
40
0.0415063615144871
40
0.0415063615144871
40
0.285586391530128
40
0.285586391530128
40
0.529666421545771
40
0.529666421545771
40
0.651706436553592
40
0.651706436553592
40
0.773746451561412
40
0.773746451561412
40
1
40
1
40
1
40
1
41
1
10
62.2494721014857
20
-5.09734686681287
30
0
41
1
10
62.171932037851
20
-5.09756657303535
30
0
41
1
10
62.09436989369
20
-5.09727917915288
30
0
41
1
10
61.560825429509
20
-5.09179516032219
30
0
41
1
10
61.1059166871734
20
-5.06951122320339
30
0
41
1
10
60.1966083733481
20
-4.99095208012804
30
0
41
1
10
59.7419748926689
20
-4.93454773411747
30
0
41
1
10
59.0584245723303
20
-4.82468880995157
30
0
41
1
10
58.8299845361216
20
-4.78378788546453
30
0
41
1
10
58.3745252977974
20
-4.69406623683736
30
0
41
1
10
58.1474282424513
20
-4.64525716454034
30
0
41
1
10
57.5005913222309
20
-4.49519834432169
30
0
41
1
10
57.0818202543774
20
-4.38475514017085
30
0
41
1
10
56.6637722931801
20
-4.26224998749206
30
0
0
SPLINE
5
E3
100
AcDbEntity
8
1
62
256
6
ByLayer
370
13
48
1
60
0
100
AcDbSpline
70
4
71
3
72
26
73
22
40
0
40
0
40
0
40
0
40
0.107163861841623
40
0.107163861841623
40
0.306903388450839
40
0.306903388450839
40
0.356838270103143
40
0.356838270103143
40
0.406773151755446
40
0.406773151755446
40
0.506642915060056
40
0.506642915060056
40
0.606512678364664
40
0.606512678364664
40
0.656447560016969
40
0.656447560016969
40
0.706382441669274
40
0.706382441669274
40
0.906121968278492
40
0.906121968278492
40
1
40
1
40
1
40
1
41
1
10
56.6637732530632
20
-4.26225026877711
30
0
41
1
10
56.1798491041009
20
-4.1204407201985
30
0
41
1
10
55.6968939133485
20
-3.96246825011073
30
0
41
1
10
54.3134609876759
20
-3.4677747637906
30
0
41
1
10
53.4118560575629
20
-3.09527394057559
30
0
41
1
10
52.2743113084581
20
-2.57813149360248
30
0
41
1
10
52.0459849435133
20
-2.47205105525154
30
0
41
1
10
51.5899235075568
20
-2.25621481832152
30
0
41
1
10
51.3620348164953
20
-2.14639936051907
30
0
41
1
10
50.6784344708729
20
-1.81187148458079
30
0
41
1
10
50.222936353184
20
-1.58183619148403
30
0
41
1
10
49.3103219396162
20
-1.11149841653031
30
0
41
1
10
48.8545572857486
20
-0.872174341461118
30
0
41
1
10
48.1707170969485
20
-0.510193707816711
30
0
41
1
10
47.942744273238
20
-0.388948245846279
30
0
41
1
10
47.4865347231821
20
-0.145690483957793
30
0
41
1
10
47.2583287315284
20
-0.0237344800540882
30
0
41
1
10
46.121331277458
20
0.583358299301239
30
0
41
1
10
45.2199391554266
20
1.06217314245907
30
0
41
1
10
43.896097121329
20
1.73633604434605
30
0
41
1
10
43.4728707153848
20
1.94715338852939
30
0
41
1
10
43.0489384740148
20
2.15189071695701
30
0
0
SPLINE
5
E4
100
AcDbEntity
8
1
62
256
6
ByLayer
370
18
48
1
60
0
100
AcDbSpline
70
4
71
3
72
69
73
65
40
0
40
0
40
0
40
0
40
0.062500000000006
40
0.062500000000006
40
0.125000000000012
40
0.125000000000012
40
0.250000000000023
40
0.250000000000023
40
0.375000000000034
40
0.375000000000034
40
0.500000000000045
40
0.500000000000045
40
0.562500000000052
40
0.562500000000052
40
0.625000000000058
40
0.625000000000058
40
0.687500000000064
40
0.687500000000064
40
0.695312500000065
40
0.695312500000065
40
0.699218750000065
40
0.699218750000065
40
0.701171875000065
40
0.701171875000065
40
0.703125000000064
40
0.703125000000064
40
0.707031250000062
40
0.707031250000062
40
0.708984375000062
40
0.708984375000062
40
0.710937500000062
40
0.71875000000006
40
0.71875000000006
40
0.734375000000056
40
0.734375000000056
40
0.750000000000052
40
0.750000000000052
40
0.781250000000046
40
0.781250000000046
40
0.796875000000043
40
0.796875000000043
40
0.804687500000041
40
0.804687500000041
40
0.81250000000004
40
0.81250000000004
40
0.828125000000036
40
0.828125000000036
40
0.835937500000035
40
0.835937500000035
40
0.843750000000033
40
0.843750000000033
40
0.85937500000003
40
0.85937500000003
40
0.875000000000027
40
0.875000000000027
40
0.890625000000023
40
0.890625000000023
40
0.90625000000002
40
0.90625000000002
40
0.937500000000013
40
0.937500000000013
40
0.968750000000007
40
0.968750000000007
40
1
40
1
40
1
40
1
41
1
10
18.6439948749831
20
-1.34524604896916
30
0
41
1
10
18.2809610541674
20
-1.14872863891833
30
0
41
1
10
17.9158180449604
20
-0.954051411471255
30
0
41
1
10
17.1804832013307
20
-0.570440646025105
30
0
41
1
10
16.8100234911277
20
-0.381386411659463
30
0
41
1
10
15.6909452147943
20
0.172262021435898
30
0
41
1
10
14.9407759962147
20
0.520187111303471
30
0
41
1
10
13.4228982227725
20
1.15289477804995
30
0
41
1
10
12.6551101338934
20
1.43746478507487
30
0
41
1
10
11.0941058490016
20
1.92804833239936
30
0
41
1
10
10.3008908113503
20
2.13412272562704
30
0
41
1
10
9.08832635843979
20
2.37931103654608
30
0
41
1
10
8.67977177435614
20
2.45053153641689
30
0
41
1
10
7.85745207940812
20
2.57090486117775
30
0
41
1
10
7.44480464740337
20
2.61994384094081
30
0
41
1
10
6.616384178761
20
2.69582757021803
30
0
41
1
10
6.20034790038332
20
2.7226882254499
30
0
41
1
10
5.73170866832777
20
2.74011368674448
30
0
41
1
10
5.67962649161518
20
2.7418720567853
30
0
41
1
10
5.60148638817759
20
2.74424171950977
30
0
41
1
10
5.57543809234897
20
2.74498691266427
30
0
41
1
10
5.53637194710032
20
2.74603730372482
30
0
41
1
10
5.52335054013881
20
2.74637621345818
30
0
41
1
10
5.49730901059425
20
2.74703157506346
30
0
41
1
10
5.48428099914574
20
2.7474856893075
30
0
41
1
10
5.44532747601062
20
2.74657052605508
30
0
41
1
10
5.41948490179135
20
2.74375627556961
30
0
41
1
10
5.38107359212012
20
2.73336510509529
30
0
41
1
10
5.36856915781451
20
2.72874052340728
30
0
41
1
10
5.34578204146365
20
2.71710752498015
30
0
41
1
10
5.28894678879774
20
2.68781443712541
30
0
41
1
10
5.23278661091277
20
2.65744634229529
30
0
41
1
10
5.09941739859218
20
2.58228740953956
30
0
41
1
10
5.01212536227578
20
2.52898435213723
30
0
41
1
10
4.84368733718037
20
2.41592945667114
30
0
41
1
10
4.76253062131894
20
2.35621251127409
30
0
41
1
10
4.53011915200295
20
2.16534724314258
30
0
41
1
10
4.38932396219946
20
2.02316778517073
30
0
41
1
10
4.21381671967043
20
1.7709641721575
30
0
41
1
10
4.16318702202642
20
1.6826472754608
30
0
41
1
10
4.10120935408207
20
1.54296879749526
30
0
41
1
10
4.08287308667622
20
1.4951884895174
30
0
41
1
10
4.0512733999571
20
1.39694025361897
30
0
41
1
10
4.03807863816996
20
1.3465281301429
30
0
41
1
10
4.00736621130665
20
1.19493663987748
30
0
41
1
10
3.99827408532136
20
1.0921739880942
30
0
41
1
10
4.00126833732344
20
0.935456374979537
30
0
41
1
10
4.00509208707481
20
0.882500499493233
30
0
41
1
10
4.01792975040098
20
0.777797035500356
30
0
41
1
10
4.02691227941511
20
0.725915972247691
30
0
41
1
10
4.06079625211655
20
0.571535459649084
30
0
41
1
10
4.09286309751991
20
0.469667114328956
30
0
41
1
10
4.17115823486918
20
0.271658395537941
30
0
41
1
10
4.21692460035666
20
0.176299136282779
30
0
41
1
10
4.31850140544157
20
-0.0088916614281231
30
0
41
1
10
4.37433538644746
20
-0.0987102035143437
30
0
41
1
10
4.4940444498306
20
-0.273924948976259
30
0
41
1
10
4.55807631635605
20
-0.359447428803577
30
0
41
1
10
4.75682045178797
20
-0.606668416494301
30
0
41
1
10
4.89903750300874
20
-0.760739057022079
30
0
41
1
10
5.19615096626882
20
-1.05465736073037
30
0
41
1
10
5.3511433436436
20
-1.19440205695781
30
0
41
1
10
5.67048456646833
20
-1.46323506376231
30
0
41
1
10
5.83459592147329
20
-1.5920127385786
30
0
41
1
10
6.00030399952877
20
-1.71512660090588
30
0
0
SPLINE
5
E5
100
AcDbEntity
8
SK1
62
256
6
ByLayer
370
18
48
1
60
0
100
AcDbSpline
70
4
71
3
72
14
73
10
40
0
40
0
40
0
40
0
40
0.125
40
0.125
40
0.25
40
0.25
40
0.500000000000002
40
0.500000000000002
40
1
40
1
40
1
40
1
41
1
10
-43.6
20
4.96418813609091
30
0
41
1
10
-43.6
20
4.97010890008474
30
0
41
1
10
-43.6017220508865
20
4.97340359026998
30
0
41
1
10
-43.6068954324577
20
4.97627719241709
30
0
41
1
10
-43.610237321167
20
4.97596985544234
30
0
41
1
10
-43.6215324998379
20
4.97211837267807
30
0
41
1
10
-43.6303471072619
20
4.96584844806117
30
0
41
1
10
-43.658490206513
20
4.94172392708739
30
0
41
1
10
-43.678793979422
20
4.9191810231853
30
0
41
1
10
-43.7
20
4.89223972816191
30
0
0
SPLINE
5
E6
100
AcDbEntity
8
SK1
62
256
6
ByLayer
370
18
48
1
60
0
100
AcDbSpline
70
4
71
3
72
14
73
10
40
0
40
0
40
0
40
0
40
0.5
40
0.5
40
0.749999999999998
40
0.749999999999998
40
0.874999999999999
40
0.874999999999999
40
1
40
1
40
1
40
1
41
1
10
-43.7
20
3.14690157654886
30
0
41
1
10
-43.6789021434844
20
3.17370545399771
30
0
41
1
10
-43.6585587767127
20
3.20469083337088
30
0
41
1
10
-43.6303722414292
20
3.25856085552698
30
0
41
1
10
-43.6214260646625
20
3.27772198736679
30
0
41
1
10
-43.6102968606991
20
3.30769968908615
30
0
41
1
10
-43.6069058574072
20
3.31808599554171
30
0
41
1
10
-43.6017309986994
20
3.3390055097166
30
0
41
1
10
-43.6
20
3.34949216246247
30
0
41
1
10
-43.6
20
3.35847703660696
30
0
0
SPLINE
5
E7
100
AcDbEntity
8
SK1
62
256
6
ByLayer
370
18
48
1
60
0
100
AcDbSpline
70
4
71
3
72
10
73
6
40
0
40
0
40
0
40
0
40
0.5
40
0.5
40
1
40
1
40
1
40
1
41
1
10
-45
20
1.46794815036617
30
0
41
1
10
-44.7879272347742
20
1.74950612997256
30
0
41
1
10
-44.5722135635742
20
2.02980423905137
30
0
41
1
10
-44.1380211281578
20
2.58913114641803
30
0
41
1
10
-43.9193934819041
20
2.86817202894451
30
0
41
1
10
-43.7
20
3.14690157654891
30
0
0
SPLINE
5
E8
100
AcDbEntity
8
SK1
62
256
6
ByLayer
370
18
48
1
60
0
100
AcDbSpline
70
4
71
3
72
14
73
10
40
0
40
0
40
0
40
0
40
0.25
40
0.25
40
0.5
40
0.5
40
0.75
40
0.75
40
1
40
1
40
1
40
1
41
1
10
-44.9999999999889
20
2.85526468637838
30
0
41
1
10
-44.9782314858012
20
2.87579556961001
30
0
41
1
10
-44.9593695072028
20
2.89785221624709
30
0
41
1
10
-44.9317178691467
20
2.94606463452541
30
0
41
1
10
-44.923545420959
20
2.97172283692757
30
0
41
1
10
-44.9226628396576
20
3.02351838933393
30
0
41
1
10
-44.930088379347
20
3.0493890716329
30
0
41
1
10
-44.9574454474918
20
3.09734690111455
30
0
41
1
10
-44.9772442314719
20
3.11962326484635
30
0
41
1
10
-44.9999999999994
20
3.13958199537606
30
0
0
SPLINE
5
E9
100
AcDbEntity
8
SK1
62
256
6
ByLayer
370
18
48
1
60
0
100
AcDbSpline
70
4
71
3
72
10
73
6
40
0
40
0
40
0
40
0
40
0.5
40
0.5
40
1
40
1
40
1
40
1
41
1
10
-45
20
3.13958199537629
30
0
41
1
10
-45
20
3.10448085637822
30
0
41
1
10
-45
20
3.06226620001121
30
0
41
1
10
-45
20
2.96643713785136
30
0
41
1
10
-45
20
2.91254642463582
30
0
41
1
10
-45
20
2.85526468639043
30
0
0
SPLINE
5
EA
100
AcDbEntity
8
SK1
62
256
6
ByLayer
370
18
48
1
60
0
100
AcDbSpline
70
4
71
3
72
10
73
6
40
0
40
0
40
0
40
0
40
0.5
40
0.5
40
1
40
1
40
1
40
1
41
1
10
-43.7
20
4.89223972816191
30
0
41
1
10
-43.9194028252284
20
4.61349831028429
30
0
41
1
10
-44.1380349803589
20
4.33445152837251
30
0
41
1
10
-44.5722177279898
20
3.77513695130517
30
0
41
1
10
-44.7878762790972
20
3.49491193278752
30
0
41
1
10
-45
20
3.21328630197917
30
0
0
LINE
5
76
100
AcDbEntity
8
81
62
256
6
ByLayer
370
18
48
1
60
0
100
AcDbLine
10
95
20
0
30
0
11
100
21
0
31
0
39
0
210
0
220
0
230
1
0
LINE
5
77
100
AcDbEntity
8
1
62
256
6
ByLayer
370
18
48
1
60
0
100
AcDbLine
10
6.000267
20
5.302676
30
0
11
1.323444
21
5.29987
31
0
39
0
210
0
220
0
230
1
0
LINE
5
79
100
AcDbEntity
8
1
62
256
6
ByLayer
370
18
48
1
60
0
100
AcDbLine
10
91.931679
20
5.354234
30
0
11
91.099528
21
5.353735
31
0
39
0
210
0
220
0
230
1
0
LINE
5
7A
100
AcDbEntity
8
1
62
256
6
ByLayer
370
18
48
1
60
0
100
AcDbLine
10
91.099528
20
-5.353735
30
0
11
91.930913
21
-5.354234
31
0
39
0
210
0
220
0
230
1
0
LINE
5
7B
100
AcDbEntity
8
1
62
256
6
ByLayer
370
18
48
1
60
0
100
AcDbLine
10
1.323444
20
-5.29987
30
0
11
6.000267
21
-5.302676
31
0
39
0
210
0
220
0
230
1
0
LINE
5
7C
100
AcDbEntity
8
1
62
256
6
ByLayer
370
18
48
1
60
0
100
AcDbLine
10
32.029118
20
5.318293
30
0
11
31.180789
21
5.317784
31
0
39
0
210
0
220
0
230
1
0
LINE
5
7D
100
AcDbEntity
8
1
62
256
6
ByLayer
370
18
48
1
60
0
100
AcDbLine
10
61.979906
20
5.336263
30
0
11
61.140258
21
5.33576
31
0
39
0
210
0
220
0
230
1
0
LINE
5
7E
100
AcDbEntity
8
1
62
256
6
ByLayer
370
18
48
1
60
0
100
AcDbLine
10
61.140258
20
-5.33576
30
0
11
61.979544
21
-5.336263
31
0
39
0
210
0
220
0
230
1
0
LINE
5
7F
100
AcDbEntity
8
1
62
256
6
ByLayer
370
18
48
1
60
0
100
AcDbLine
10
31.180789
20
-5.317784
30
0
11
32.02912
21
-5.318293
31
0
39
0
210
0
220
0
230
1
0
LINE
5
80
100
AcDbEntity
8
SK1
62
256
6
ByLayer
370
18
48
1
60
0
100
AcDbLine
10
0
20
6
30
0
11
-43.556624
21
6
31
0
39
0
210
0
220
0
230
1
0
LINE
5
82
100
AcDbEntity
8
SK1
62
256
6
ByLayer
370
18
48
1
60
0
100
AcDbLine
10
-43.556624
20
-6
30
0
11
0
21
-6
31
0
39
0
210
0
220
0
230
1
0
LINE
5
83
100
AcDbEntity
8
SK1
62
256
6
ByLayer
370
18
48
1
60
0
100
AcDbLine
10
-43.556624
20
6
30
0
11
-45
21
3.5
31
0
39
0
210
0
220
0
230
1
0
LINE
5
84
100
AcDbEntity
8
SK1
62
256
6
ByLayer
370
18
48
1
60
0
100
AcDbLine
10
-45
20
-3.5
30
0
11
-43.556624
21
-6
31
0
39
0
210
0
220
0
230
1
0
LINE
5
85
100
AcDbEntity
8
SK4
62
256
6
ByLayer
370
18
48
0.05
60
0
100
AcDbLine
10
100
20
0
30
0
11
-50
21
0
31
0
39
0
210
0
220
0
230
1
0
LINE
5
87
100
AcDbEntity
8
4
62
256
6
ByLayer
370
18
48
0.05
60
0
100
AcDbLine
10
95
20
0
30
0
11
0
21
0
31
0
39
0
210
0
220
0
230
1
0
LINE
5
89
100
AcDbEntity
8
80
62
256
6
ByLayer
370
18
48
1
60
0
100
AcDbLine
10
0
20
0
30
0
11
-5
21
0
31
0
39
0
210
0
220
0
230
1
0
LINE
5
8A
100
AcDbEntity
8
1
62
256
6
ByLayer
370
18
48
1
60
0
100
AcDbLine
10
94.911678
20
0.301769
30
0
11
94.724745
21
0.991898
31
0
39
0
210
0
220
0
230
1
0
LINE
5
8B
100
AcDbEntity
8
1
62
256
6
ByLayer
370
18
48
1
60
0
100
AcDbLine
10
94.988722
20
0.050596
30
0
11
95
21
0
31
0
39
0
210
0
220
0
230
1
0
LINE
5
8C
100
AcDbEntity
8
1
62
256
6
ByLayer
370
18
48
1
60
0
100
AcDbLine
10
95
20
0
30
0
11
94.988722
21
-0.050596
31
0
39
0
210
0
220
0
230
1
0
LINE
5
8D
100
AcDbEntity
8
1
62
256
6
ByLayer
370
13
48
1
60
0
100
AcDbLine
10
0.661482
20
5.649935
30
0
11
0.661482
21
-5.649935
31
0
39
0
210
0
220
0
230
1
0
LINE
5
8E
100
AcDbEntity
8
1
62
256
6
ByLayer
370
18
48
1
60
0
100
AcDbLine
10
95
20
0
30
0
11
93.138009
21
-5.115779
31
0
39
0
210
0
220
0
230
1
0
LINE
5
8F
100
AcDbEntity
8
1
62
256
6
ByLayer
370
13
48
1
60
0
100
AcDbLine
10
93.348361
20
0.645473
30
0
11
94.894397
21
-0.120002
31
0
39
0
210
0
220
0
230
1
0
LINE
5
90
100
AcDbEntity
8
1
62
256
6
ByLayer
370
18
48
1
60
0
100
AcDbLine
10
92.303472
20
-3.007541
30
0
11
94.894397
21
-0.120002
31
0
39
0
210
0
220
0
230
1
0
LINE
5
91
100
AcDbEntity
8
1
62
256
6
ByLayer
370
18
48
1
60
0
100
AcDbLine
10
0
20
-6
30
0
11
0
21
6
31
0
39
0
210
0
220
0
230
1
0
LINE
5
92
100
AcDbEntity
8
1
62
256
6
ByLayer
370
18
48
1
60
0
100
AcDbLine
10
94.911678
20
-0.301769
30
0
11
94.724745
21
-0.991898
31
0
39
0
210
0
220
0
230
1
0
LINE
5
93
100
AcDbEntity
8
1
62
256
6
ByLayer
370
13
48
1
60
0
100
AcDbLine
10
93.51782
20
0.991898
30
0
11
94.911678
21
0.301769
31
0
39
0
210
0
220
0
230
1
0
LINE
5
94
100
AcDbEntity
8
1
62
256
6
ByLayer
370
13
48
1
60
0
100
AcDbLine
10
1.323444
20
5.29987
30
0
11
1.323444
21
-5.29987
31
0
39
0
210
0
220
0
230
1
0
LINE
5
95
100
AcDbEntity
8
1
62
256
6
ByLayer
370
13
48
1
60
0
100
AcDbLine
10
94.724745
20
0.991898
30
0
11
93.51782
21
0.991898
31
0
39
0
210
0
220
0
230
1
0
LINE
5
96
100
AcDbEntity
8
SK1
62
256
6
ByLayer
370
18
48
1
60
0
100
AcDbLine
10
-45
20
3.5
30
0
11
-45
21
3.213286
31
0
39
0
210
0
220
0
230
1
0
LINE
5
97
100
AcDbEntity
8
SK1
62
256
6
ByLayer
370
18
48
1
60
0
100
AcDbLine
10
-43.6
20
3.358477
30
0
11
-43.6
21
4.964188
31
0
39
0
210
0
220
0
230
1
0
LINE
5
98
100
AcDbEntity
8
SK1
62
256
6
ByLayer
370
18
48
1
60
0
100
AcDbLine
10
-45
20
3.213286
30
0
11
-45
21
3.139582
31
0
39
0
210
0
220
0
230
1
0
LINE
5
99
100
AcDbEntity
8
SK1
62
256
6
ByLayer
370
18
48
1
60
0
100
AcDbLine
10
-45
20
1.467948
30
0
11
-45
21
-3.5
31
0
39
0
210
0
220
0
230
1
0
LINE
5
9A
100
AcDbEntity
8
SK1
62
256
6
ByLayer
370
18
48
1
60
0
100
AcDbLine
10
-43.556624
20
6
30
0
11
-43.556624
21
-6
31
0
39
0
210
0
220
0
230
1
0
LINE
5
9B
100
AcDbEntity
8
SK1
62
256
6
ByLayer
370
18
48
1
60
0
100
AcDbLine
10
-45
20
2.855265
30
0
11
-45
21
1.467919
31
0
39
0
210
0
220
0
230
1
0
LINE
5
9C
100
AcDbEntity
8
SK1
62
256
6
ByLayer
370
18
48
1
60
0
100
AcDbLine
10
0
20
-6
30
0
11
0
21
6
31
0
39
0
210
0
220
0
230
1
0
LINE
5
9D
100
AcDbEntity
8
SK1
62
256
6
ByLayer
370
13
48
1
60
0
100
AcDbLine
10
-43.7
20
4.89224
30
0
11
-43.7
21
3.146867
31
0
39
0
210
0
220
0
230
1
0
MTEXT
5
EB
100
AcDbEntity
8
SK6
62
256
6
ByLayer
370
13
48
1
60
0
100
AcDbMText
10
27.129169
20
37.737694
30
0
210
0
220
0
230
1
1
\W0.7287;R840-1071-70-A1A1220
40
3.5
41
0
44
1.084337
50
0
71
8
72
5
7
iso_b_vert
0
DIMENSION
5
F8
100
AcDbEntity
8
SK2
62
256
6
ByLayer
370
13
48
1
60
0
100
AcDbDimension
2
DimnDraft3D1
10
93.16
20
-15.568398
30
0
11
44.910059
21
-15.568398
31
0
70
32
71
5
72
1
41
1
210
0
220
0
230
1
3
Standard
100
AcDbAlignedDimension
13
0
23
-1.5875
33
0
14
93.16
24
-6.9425
34
0
50
0
100
AcDbRotatedDimension
1001
ACAD
1000
DSTYLE
1002
{
1070
   279
1070
     0
1070
   172
1070
     1
1070
   173
1070
     1
1070
   340
1005
EC
1070
   271
1070
     2
1070
   272
1070
     2
1070
    77
1070
     1
1070
    73
1070
     0
1070
   171
1070
     3
1070
   274
1070
     4
1070
   177
1070
    35
1070
   176
1070
    35
1070
   178
1070
    35
1070
    48
1040
-0.005
1070
    41
1041
3.5
1070
   147
1041
1.75
1070
    42
1041
1.5875
1070
    44
1041
2.0
1070
   140
1041
3.5
1070
   343
1005
0
1070
   344
1005
0
1002
}
0
DIMENSION
5
102
100
AcDbEntity
8
SK2
62
256
6
ByLayer
370
13
48
1
60
0
100
AcDbDimension
2
DimnDraft3D2
10
95
20
-34.692985
30
0
11
24.5013
21
-34.692985
31
0
70
32
71
5
72
1
41
1
210
0
220
0
230
1
3
Standard
100
AcDbAlignedDimension
13
-45
23
-7.5875
33
0
14
95
24
-1.5875
34
0
50
0
100
AcDbRotatedDimension
1001
ACAD
1000
DSTYLE
1002
{
1070
   279
1070
     0
1070
   172
1070
     1
1070
   173
1070
     1
1070
   340
1005
EC
1070
   271
1070
     2
1070
   272
1070
     2
1070
    77
1070
     1
1070
    73
1070
     0
1070
   171
1070
     3
1070
   274
1070
     4
1070
   177
1070
    35
1070
   176
1070
    35
1070
   178
1070
    35
1070
    48
1040
-0.005
1070
    41
1041
3.5
1070
   147
1041
1.75
1070
    42
1041
1.5875
1070
    44
1041
2.0
1070
   140
1041
3.5
1070
   343
1005
0
1070
   344
1005
0
1002
}
0
DIMENSION
5
10C
100
AcDbEntity
8
SK2
62
256
6
ByLayer
370
13
48
1
60
0
100
AcDbDimension
2
DimnDraft3D3
10
95
20
16.964119
30
0
11
51.24
21
16.964119
31
0
70
32
71
5
72
1
41
1
210
0
220
0
230
1
3
Standard
100
AcDbAlignedDimension
13
7.48
23
6.9425
33
0
14
95
24
1.5875
34
0
50
0
100
AcDbRotatedDimension
1001
ACAD
1000
DSTYLE
1002
{
1070
   279
1070
     0
1070
   172
1070
     1
1070
   173
1070
     1
1070
   340
1005
EC
1070
   271
1070
     2
1070
   272
1070
     2
1070
    77
1070
     1
1070
    73
1070
     0
1070
   171
1070
     3
1070
   274
1070
     4
1070
   177
1070
    35
1070
   176
1070
    35
1070
   178
1070
    35
1070
    48
1040
-0.005
1070
    41
1041
3.5
1070
   147
1041
1.75
1070
    42
1041
1.5875
1070
    44
1041
2.0
1070
   140
1041
3.5
1070
   343
1005
0
1070
   344
1005
0
1002
}
0
DIMENSION
5
116
100
AcDbEntity
8
SK2
62
256
6
ByLayer
370
13
48
1
60
0
100
AcDbDimension
2
DimnDraft3D4
10
93.16
20
-18.157503
30
0
11
104.981425
21
-18.157503
31
0
70
32
71
5
72
1
41
1
210
0
220
0
230
1
3
Standard
100
AcDbAlignedDimension
13
95
23
-1.5875
33
0
14
93.16
24
-6.9425
34
0
50
0
100
AcDbRotatedDimension
1001
ACAD
1000
DSTYLE
1002
{
1070
   279
1070
     0
1070
   172
1070
     1
1070
   173
1070
     1
1070
   340
1005
EC
1070
   271
1070
     2
1070
   272
1070
     2
1070
    77
1070
     1
1070
    73
1070
     0
1070
   171
1070
     3
1070
   274
1070
     4
1070
   177
1070
    35
1070
   176
1070
    35
1070
   178
1070
    35
1070
    48
1040
-0.005
1070
    41
1041
3.5
1070
   147
1041
1.75
1070
    42
1041
1.5875
1070
    44
1041
2.0
1070
   140
1041
3.5
1070
   343
1005
0
1070
   344
1005
0
1002
}
0
DIMENSION
5
120
100
AcDbEntity
8
SK2
62
256
6
ByLayer
370
13
48
1
60
0
100
AcDbDimension
2
DimnDraft3D5
10
93.16
20
-24.343428
30
0
11
21.420676
21
-24.343428
31
0
70
32
71
5
72
1
41
1
210
0
220
0
230
1
3
Standard
100
AcDbAlignedDimension
13
-45
23
-7.5875
33
0
14
93.16
24
-6.9425
34
0
50
0
100
AcDbRotatedDimension
1001
ACAD
1000
DSTYLE
1002
{
1070
   279
1070
     0
1070
   172
1070
     1
1070
   173
1070
     1
1070
   340
1005
EC
1070
   271
1070
     2
1070
   272
1070
     2
1070
    77
1070
     1
1070
    73
1070
     0
1070
   171
1070
     3
1070
   274
1070
     4
1070
   177
1070
    35
1070
   176
1070
    35
1070
   178
1070
    35
1070
    48
1040
-0.005
1070
    41
1041
3.5
1070
   147
1041
1.75
1070
    42
1041
1.5875
1070
    44
1041
2.0
1070
   140
1041
3.5
1070
   343
1005
0
1070
   344
1005
0
1002
}
0
DIMENSION
5
12B
100
AcDbEntity
8
SK2
62
256
6
ByLayer
370
13
48
1
60
0
100
AcDbDimension
2
DimnDraft3D6
10
-55.625163
20
6
30
0
11
-56.250163
21
24.47418
31
0
70
33
71
5
72
1
41
1
210
0
220
0
230
1
3
Standard
100
AcDbAlignedDimension
13
-46.5875
23
-6
33
0
14
-46.5875
24
6
34
0
1001
ACAD
1000
DSTYLE
1002
{
1070
   279
1070
     0
1070
    74
1070
     0
1070
   173
1070
     1
1070
   340
1005
EC
1070
   271
1070
     3
1070
   272
1070
     2
1070
    77
1070
     1
1070
    73
1070
     0
1070
   171
1070
     3
1070
   274
1070
     4
1070
   177
1070
    35
1070
   176
1070
    35
1070
   178
1070
    35
1070
    48
1040
-0.005
1070
    41
1041
3.5
1070
   147
1041
1.75
1070
    42
1041
1.5875
1070
    44
1041
2.0
1070
   140
1041
3.5
1070
   343
1005
0
1070
   344
1005
0
1002
}
0
DIMENSION
5
136
100
AcDbEntity
8
2
62
256
6
ByLayer
370
13
48
1
60
0
100
AcDbDimension
2
DimnDraft3D7
10
109.083343
20
5.355
30
0
11
104.458343
21
22.422266
31
0
70
33
71
5
72
1
41
1
210
0
220
0
230
1
3
Standard
100
AcDbAlignedDimension
13
94.7475
23
-5.355
33
0
14
94.7475
24
5.355
34
0
1001
ACAD
1000
DSTYLE
1002
{
1070
   279
1070
     0
1070
    74
1070
     0
1070
   173
1070
     1
1070
   340
1005
EC
1070
   271
1070
     3
1070
   272
1070
     2
1070
    77
1070
     1
1070
    73
1070
     0
1070
   171
1070
     3
1070
   274
1070
     4
1070
   177
1070
    35
1070
   176
1070
    35
1070
   178
1070
    35
1070
    48
1040
-0.005
1070
    41
1041
3.5
1070
   147
1041
1.75
1070
    42
1041
1.5875
1070
    44
1041
2.0
1070
   140
1041
3.5
1070
   343
1005
0
1070
   344
1005
0
1002
}
0
ENDSEC
0
SECTION
2
OBJECTS
0
DICTIONARY
5
1a1
330
0
100
AcDbDictionary
280
0
281
1
3
ACAD_GROUP
350
1a2
3
ACAD_MLINESTYLE
350
1a3
0
DICTIONARY
5
1a2
330
0
100
AcDbDictionary
280
0
281
1
0
DICTIONARY
5
1a3
330
0
100
AcDbDictionary
280
0
281
1
3
Standard
350
18
0
MLINESTYLE
5
18
330
1a3
100
AcDbMlineStyle
2
Standard
70
0
3

62
256
51
90
52
90
71
2
49
-0.5
62
256
6
ByLayer
49
0.5
62
256
6
ByLayer
0
RASTERVARIABLES
5
18f
330

100
AcDbRasterVariables
90
0
70
1
71
1
72
1
0
ENDSEC
0
EOF
