0
SECTION
2
HEADER
9
$ACADVER
1
AC1015
9
$DWGCODEPAGE
3
ANSI_1252
9
$HANDSEED
5
1a5
9
$ANGBASE
50
0
9
$ANGDIR
70
0
9
$ATTMODE
70
1
9
$AUNITS
70
0
9
$AUPREC
70
0
9
$CECOLOR
62
256
9
$CELTSCALE
40
1
9
$CELTYPE
6
ByLayer
9
$CELWEIGHT
370
18
9
$CLAYER
8
0
9
$CMLJUST
70
0
9
$CMLSCALE
40
1
9
$CMLSTYLE
2
Standard
9
$DIMSTYLE
2
Standard
9
$TEXTSIZE
40
0.2
9
$TEXTSTYLE
7
Standard
9
$LUNITS
70
2
9
$LUPREC
70
4
9
$EXTNAMES
290
1
9
$INSUNITS
70
4
9
$LTSCALE
40
1
9
$LWDISPLAY
290
1
9
$PDMODE
70
0
9
$PDSIZE
40
0
9
$PLINEGEN
70
0
0
ENDSEC
0
SECTION
2
CLASSES
0
CLASS
1
RASTERVARIABLES
2
AcDbRasterVariables
3
ISM
90
0
280
0
281
0
0
ENDSEC
0
SECTION
2
TABLES
0
TABLE
2
VPORT
5
19b
100
AcDbSymbolTable
0
VPORT
5
1
100
AcDbSymbolTableRecord
100
AcDbViewportTableRecord
2
*Active
70
0
10
0
20
0
11
1
21
1
12
-1
22
1
13
0
23
0
14
0.5
24
0.5
15
10
25
10
16
0
26
0
36
1
17
0
27
0
37
0
0
ENDTAB
0
TABLE
2
LTYPE
5
19c
100
AcDbSymbolTable
0
LTYPE
5
14
100
AcDbSymbolTableRecord
100
AcDbLinetypeTableRecord
70
0
2
ByBlock
3

72
65
73
0
40
0
0
LTYPE
5
15
100
AcDbSymbolTableRecord
100
AcDbLinetypeTableRecord
70
0
2
ByLayer
3

72
65
73
0
40
0
0
LTYPE
5
16
100
AcDbSymbolTableRecord
100
AcDbLinetypeTableRecord
70
0
2
CONTINUOUS
3
Solid line
72
65
73
0
40
0
0
LTYPE
5
6A
100
AcDbSymbolTableRecord
100
AcDbLinetypeTableRecord
70
0
2
CENTER
3
____ _ ____ _ ____ _ ____
72
65
73
4
40
47.5
49
22
74
0
49
-8.5
74
0
49
8.5
74
0
49
-8.5
74
0
0
LTYPE
5
6B
100
AcDbSymbolTableRecord
100
AcDbLinetypeTableRecord
70
0
2
DASHED
3
__ __ __ __ __ __ __ __ __
72
65
73
2
40
25.72
49
12.86
74
0
49
-12.86
74
0
0
ENDTAB
0
TABLE
2
LAYER
5
19d
100
AcDbSymbolTable
0
LAYER
5
10
100
AcDbSymbolTableRecord
100
AcDbLayerTableRecord
2
0
70
0
62
7
6
CONTINUOUS
290
1
370
-3
390
0
0
LAYER
5
6D
100
AcDbSymbolTableRecord
100
AcDbLayerTableRecord
2
81
70
0
62
-3
6
CONTINUOUS
290
1
370
-3
390
0
0
LAYER
5
6F
100
AcDbSymbolTableRecord
100
AcDbLayerTableRecord
2
80
70
0
62
-6
6
CONTINUOUS
290
1
370
-3
390
0
0
LAYER
5
74
100
AcDbSymbolTableRecord
100
AcDbLayerTableRecord
2
2
70
0
62
7
6
CONTINUOUS
290
1
370
-3
390
0
0
LAYER
5
78
100
AcDbSymbolTableRecord
100
AcDbLayerTableRecord
2
1
70
0
62
4
6
CONTINUOUS
290
1
370
-3
390
0
0
LAYER
5
86
100
AcDbSymbolTableRecord
100
AcDbLayerTableRecord
2
4
70
0
62
-2
6
CENTER
290
1
370
-3
390
0
0
LAYER
5
187
100
AcDbSymbolTableRecord
100
AcDbLayerTableRecord
2
SK2
70
0
62
7
6
CONTINUOUS
290
1
370
-3
390
0
0
LAYER
5
188
100
AcDbSymbolTableRecord
100
AcDbLayerTableRecord
2
SK1
70
0
62
4
6
CONTINUOUS
290
1
370
-3
390
0
0
LAYER
5
189
100
AcDbSymbolTableRecord
100
AcDbLayerTableRecord
2
SK4
70
0
62
2
6
CENTER
290
1
370
-3
390
0
0
LAYER
5
18a
100
AcDbSymbolTableRecord
100
AcDbLayerTableRecord
2
SK6
70
0
62
5
6
CONTINUOUS
290
1
370
-3
390
0
0
ENDTAB
0
TABLE
2
STYLE
5
19e
100
AcDbSymbolTable
0
STYLE
5
11
100
AcDbSymbolTableRecord
100
AcDbTextStyleTableRecord
2
Standard
3
txt
70
0
71
0
40
0
41
1
42
0
50
0
0
STYLE
5
E3
100
AcDbSymbolTableRecord
100
AcDbTextStyleTableRecord
2
iso_b_vert
3
simplex.shx
70
0
71
0
40
0
41
1
42
0
50
0
0
STYLE
5
E4
100
AcDbSymbolTableRecord
100
AcDbTextStyleTableRecord
2
DWGDirectTextStyle
3
simplex
70
0
71
0
40
0
41
1
42
0
50
0
0
ENDTAB
0
TABLE
2
DIMSTYLE
5
19f
100
AcDbSymbolTable
100
AcDbDimStyleTable
0
DIMSTYLE
105
27
100
AcDbSymbolTableRecord
100
AcDbDimStyleTableRecord
2
Standard
70
0
3
<>
41
0.18
42
0.0625
44
0.18
140
0.18
147
0.09
73
0
74
0
77
1
271
2
275
0
278
52
280
0
340
11
0
ENDTAB
0
TABLE
2
VIEW
5
1a0
100
AcDbSymbolTable
0
ENDTAB
0
TABLE
2
UCS
5
1a1
100
AcDbSymbolTable
0
ENDTAB
0
TABLE
2
APPID
5
1a2
100
AcDbSymbolTable
0
APPID
5
12
100
AcDbSymbolTableRecord
100
AcDbRegAppTableRecord
2
ACAD
70
0
0
ENDTAB
0
TABLE
2
BLOCK_RECORD
5
1a3
100
AcDbSymbolTable
0
BLOCK_RECORD
5
1F
100
AcDbSymbolTableRecord
100
AcDbBlockTableRecord
2
*Model_Space
340
0
70
0
0
BLOCK_RECORD
5
1B
100
AcDbSymbolTableRecord
100
AcDbBlockTableRecord
2
*Paper_Space
340
0
70
0
0
BLOCK_RECORD
5
23
100
AcDbSymbolTableRecord
100
AcDbBlockTableRecord
2
*Paper_Space0
340
0
70
0
0
BLOCK_RECORD
5
E6
100
AcDbSymbolTableRecord
100
AcDbBlockTableRecord
2
DimnDraft3D1
340
0
70
0
0
BLOCK_RECORD
5
F0
100
AcDbSymbolTableRecord
100
AcDbBlockTableRecord
2
DimnDraft3D2
340
0
70
0
0
BLOCK_RECORD
5
FA
100
AcDbSymbolTableRecord
100
AcDbBlockTableRecord
2
DimnDraft3D3
340
0
70
0
0
BLOCK_RECORD
5
104
100
AcDbSymbolTableRecord
100
AcDbBlockTableRecord
2
DimnDraft3D4
340
0
70
0
0
BLOCK_RECORD
5
10E
100
AcDbSymbolTableRecord
100
AcDbBlockTableRecord
2
DimnDraft3D5
340
0
70
0
0
BLOCK_RECORD
5
118
100
AcDbSymbolTableRecord
100
AcDbBlockTableRecord
2
DimnDraft3D6
340
0
70
0
0
BLOCK_RECORD
5
123
100
AcDbSymbolTableRecord
100
AcDbBlockTableRecord
2
DimnDraft3D7
340
0
70
0
0
ENDTAB
0
ENDSEC
0
SECTION
2
BLOCKS
0
BLOCK
5
20
100
AcDbEntity
8
0
100
AcDbBlockBegin
2
*Model_Space
70
0
10
0
20
0
30
0
3
*Model_Space
0
ENDBLK
5
21
100
AcDbEntity
8
0
100
AcDbBlockEnd
0
BLOCK
5
1C
100
AcDbEntity
8
0
100
AcDbBlockBegin
2
*Paper_Space
70
0
10
0
20
0
30
0
3
*Paper_Space
0
ENDBLK
5
1D
100
AcDbEntity
8
0
100
AcDbBlockEnd
0
BLOCK
5
24
100
AcDbEntity
8
0
100
AcDbBlockBegin
2
*Paper_Space0
70
0
10
0
20
0
30
0
3
*Paper_Space0
0
ENDBLK
5
25
100
AcDbEntity
8
0
100
AcDbBlockEnd
0
BLOCK
5
ED
100
AcDbEntity
8
0
100
AcDbBlockBegin
2
DimnDraft3D1
70
0
10
0
20
0
30
0
3
DimnDraft3D1
0
MTEXT
5
E7
100
AcDbEntity
8
SK2
62
256
6
ByLayer
370
13
48
1
60
0
100
AcDbMText
10
21.898875
20
-14.688398
30
0
210
0
220
0
230
1
1
\W0.6713;55,16
40
3.5
41
0
44
1.084337
50
0
71
7
72
5
7
iso_b_vert
0
LINE
5
E8
100
AcDbEntity
8
SK2
62
256
6
ByLayer
370
13
48
1
60
0
100
AcDbLine
10
0
20
-1.5875
30
0
11
0
21
-17.563398
31
0
39
0
210
0
220
0
230
1
0
LINE
5
E9
100
AcDbEntity
8
SK2
62
256
6
ByLayer
370
13
48
1
60
0
100
AcDbLine
10
55.16
20
-6.9375
30
0
11
55.16
21
-17.563398
31
0
39
0
210
0
220
0
230
1
0
LINE
5
EA
100
AcDbEntity
8
SK2
62
256
6
ByLayer
370
13
48
1
60
0
100
AcDbLine
10
0
20
-15.563398
30
0
11
55.16
21
-15.563398
31
0
39
0
210
0
220
0
230
1
0
SOLID
5
EB
100
AcDbEntity
8
SK2
62
256
6
ByLayer
370
13
48
1
60
0
100
AcDbTrace
10
0
20
-15.563398
30
0
11
3.499998
21
-15.102615
31
0
12
3.500002
22
-16.024182
32
0
13
0
23
-15.563398
33
0
39
0
210
0
220
0
230
1
0
SOLID
5
EC
100
AcDbEntity
8
SK2
62
256
6
ByLayer
370
13
48
1
60
0
100
AcDbTrace
10
55.16
20
-15.563398
30
0
11
51.660002
21
-16.024182
31
0
12
51.659998
22
-15.102615
32
0
13
55.16
23
-15.563398
33
0
39
0
210
0
220
0
230
1
0
ENDBLK
5
EE
100
AcDbEntity
8
0
100
AcDbBlockEnd
0
BLOCK
5
F7
100
AcDbEntity
8
0
100
AcDbBlockBegin
2
DimnDraft3D2
70
0
10
0
20
0
30
0
3
DimnDraft3D2
0
MTEXT
5
F1
100
AcDbEntity
8
SK2
62
256
6
ByLayer
370
13
48
1
60
0
100
AcDbMText
10
0.182221
20
-33.817985
30
0
210
0
220
0
230
1
1
\W0.6930;102,00
40
3.5
41
0
44
1.084337
50
0
71
7
72
5
7
iso_b_vert
0
LINE
5
F2
100
AcDbEntity
8
SK2
62
256
6
ByLayer
370
13
48
1
60
0
100
AcDbLine
10
-45
20
-7.5875
30
0
11
-45
21
-36.692985
31
0
39
0
210
0
220
0
230
1
0
LINE
5
F3
100
AcDbEntity
8
SK2
62
256
6
ByLayer
370
13
48
1
60
0
100
AcDbLine
10
57
20
-1.5875
30
0
11
57
21
-36.692985
31
0
39
0
210
0
220
0
230
1
0
LINE
5
F4
100
AcDbEntity
8
SK2
62
256
6
ByLayer
370
13
48
1
60
0
100
AcDbLine
10
-45
20
-34.692985
30
0
11
57
21
-34.692985
31
0
39
0
210
0
220
0
230
1
0
SOLID
5
F5
100
AcDbEntity
8
SK2
62
256
6
ByLayer
370
13
48
1
60
0
100
AcDbTrace
10
-45
20
-34.692985
30
0
11
-41.500002
21
-34.232202
31
0
12
-41.499998
22
-35.153769
32
0
13
-45
23
-34.692985
33
0
39
0
210
0
220
0
230
1
0
SOLID
5
F6
100
AcDbEntity
8
SK2
62
256
6
ByLayer
370
13
48
1
60
0
100
AcDbTrace
10
57
20
-34.692985
30
0
11
53.500002
21
-35.153769
31
0
12
53.499998
22
-34.232202
32
0
13
57
23
-34.692985
33
0
39
0
210
0
220
0
230
1
0
ENDBLK
5
F8
100
AcDbEntity
8
0
100
AcDbBlockEnd
0
BLOCK
5
101
100
AcDbEntity
8
0
100
AcDbBlockBegin
2
DimnDraft3D3
70
0
10
0
20
0
30
0
3
DimnDraft3D3
0
MTEXT
5
FB
100
AcDbEntity
8
SK2
62
256
6
ByLayer
370
13
48
1
60
0
100
AcDbMText
10
35.397105
20
17.834119
30
0
210
0
220
0
230
1
1
\W0.7495;33,94
40
3.5
41
0
44
1.084337
50
0
71
7
72
5
7
iso_b_vert
0
LINE
5
FC
100
AcDbEntity
8
SK2
62
256
6
ByLayer
370
13
48
1
60
0
100
AcDbLine
10
23.06
20
6.9375
30
0
11
23.06
21
18.959119
31
0
39
0
210
0
220
0
230
1
0
LINE
5
FD
100
AcDbEntity
8
SK2
62
256
6
ByLayer
370
13
48
1
60
0
100
AcDbLine
10
57
20
1.5875
30
0
11
57
21
18.959119
31
0
39
0
210
0
220
0
230
1
0
LINE
5
FE
100
AcDbEntity
8
SK2
62
256
6
ByLayer
370
13
48
1
60
0
100
AcDbLine
10
23.06
20
16.959119
30
0
11
57
21
16.959119
31
0
39
0
210
0
220
0
230
1
0
SOLID
5
FF
100
AcDbEntity
8
SK2
62
256
6
ByLayer
370
13
48
1
60
0
100
AcDbTrace
10
23.06
20
16.959119
30
0
11
26.559998
21
17.419903
31
0
12
26.560002
22
16.498335
32
0
13
23.06
23
16.959119
33
0
39
0
210
0
220
0
230
1
0
SOLID
5
100
100
AcDbEntity
8
SK2
62
256
6
ByLayer
370
13
48
1
60
0
100
AcDbTrace
10
57
20
16.959119
30
0
11
53.500002
21
16.498335
31
0
12
53.499998
22
17.419903
32
0
13
57
23
16.959119
33
0
39
0
210
0
220
0
230
1
0
ENDBLK
5
102
100
AcDbEntity
8
0
100
AcDbBlockEnd
0
BLOCK
5
10B
100
AcDbEntity
8
0
100
AcDbBlockBegin
2
DimnDraft3D4
70
0
10
0
20
0
30
0
3
DimnDraft3D4
0
MTEXT
5
105
100
AcDbEntity
8
SK2
62
256
6
ByLayer
370
13
48
1
60
0
100
AcDbMText
10
64.093925
20
-17.277503
30
0
210
0
220
0
230
1
1
\W0.6611;1,84
40
3.5
41
0
44
1.084337
50
0
71
7
72
5
7
iso_b_vert
0
LINE
5
106
100
AcDbEntity
8
SK2
62
256
6
ByLayer
370
13
48
1
60
0
100
AcDbLine
10
57
20
-1.5875
30
0
11
57
21
-20.152503
31
0
39
0
210
0
220
0
230
1
0
LINE
5
107
100
AcDbEntity
8
SK2
62
256
6
ByLayer
370
13
48
1
60
0
100
AcDbLine
10
55.16
20
-6.9375
30
0
11
55.16
21
-20.152503
31
0
39
0
210
0
220
0
230
1
0
LINE
5
108
100
AcDbEntity
8
SK2
62
256
6
ByLayer
370
13
48
1
60
0
100
AcDbLine
10
46.41
20
-18.152503
30
0
11
70.743925
21
-18.152503
31
0
39
0
210
0
220
0
230
1
0
SOLID
5
109
100
AcDbEntity
8
SK2
62
256
6
ByLayer
370
13
48
1
60
0
100
AcDbTrace
10
57
20
-18.152503
30
0
11
60.499998
21
-17.691719
31
0
12
60.500002
22
-18.613287
32
0
13
57
23
-18.152503
33
0
39
0
210
0
220
0
230
1
0
SOLID
5
10A
100
AcDbEntity
8
SK2
62
256
6
ByLayer
370
13
48
1
60
0
100
AcDbTrace
10
55.16
20
-18.152503
30
0
11
51.660002
21
-18.613287
31
0
12
51.659998
22
-17.691719
32
0
13
55.16
23
-18.152503
33
0
39
0
210
0
220
0
230
1
0
ENDBLK
5
10C
100
AcDbEntity
8
0
100
AcDbBlockEnd
0
BLOCK
5
115
100
AcDbEntity
8
0
100
AcDbBlockBegin
2
DimnDraft3D5
70
0
10
0
20
0
30
0
3
DimnDraft3D5
0
MTEXT
5
10F
100
AcDbEntity
8
SK2
62
256
6
ByLayer
370
13
48
1
60
0
100
AcDbMText
10
-2.460903
20
-23.468428
30
0
210
0
220
0
230
1
1
\W0.6440;100,16
40
3.5
41
0
44
1.084337
50
0
71
7
72
5
7
iso_b_vert
0
LINE
5
110
100
AcDbEntity
8
SK2
62
256
6
ByLayer
370
13
48
1
60
0
100
AcDbLine
10
-45
20
-7.5875
30
0
11
-45
21
-26.343428
31
0
39
0
210
0
220
0
230
1
0
LINE
5
111
100
AcDbEntity
8
SK2
62
256
6
ByLayer
370
13
48
1
60
0
100
AcDbLine
10
55.16
20
-6.9375
30
0
11
55.16
21
-26.343428
31
0
39
0
210
0
220
0
230
1
0
LINE
5
112
100
AcDbEntity
8
SK2
62
256
6
ByLayer
370
13
48
1
60
0
100
AcDbLine
10
-45
20
-24.343428
30
0
11
55.16
21
-24.343428
31
0
39
0
210
0
220
0
230
1
0
SOLID
5
113
100
AcDbEntity
8
SK2
62
256
6
ByLayer
370
13
48
1
60
0
100
AcDbTrace
10
-45
20
-24.343428
30
0
11
-41.500002
21
-23.882645
31
0
12
-41.499998
22
-24.804212
32
0
13
-45
23
-24.343428
33
0
39
0
210
0
220
0
230
1
0
SOLID
5
114
100
AcDbEntity
8
SK2
62
256
6
ByLayer
370
13
48
1
60
0
100
AcDbTrace
10
55.16
20
-24.343428
30
0
11
51.660002
21
-24.804212
31
0
12
51.659998
22
-23.882645
32
0
13
55.16
23
-24.343428
33
0
39
0
210
0
220
0
230
1
0
ENDBLK
5
116
100
AcDbEntity
8
0
100
AcDbBlockEnd
0
BLOCK
5
120
100
AcDbEntity
8
0
100
AcDbBlockBegin
2
DimnDraft3D6
70
0
10
0
20
0
30
0
3
DimnDraft3D6
0
MTEXT
5
119
100
AcDbEntity
8
SK2
62
256
6
ByLayer
370
13
48
1
60
0
100
AcDbMText
10
-55.375163
20
25.34918
30
0
210
0
220
0
230
1
1
\W0.6930;12,000
40
3.5
41
0
44
1.084337
50
90
71
7
72
5
7
iso_b_vert
0
MTEXT
5
11A
100
AcDbEntity
8
SK2
62
256
6
ByLayer
370
13
48
1
60
0
100
AcDbMText
10
-55.375163
20
20.126524
30
0
210
0
220
0
230
1
1
%%c
40
3.5
41
0
44
1.084337
50
90
71
7
72
5
7
iso_b_vert
0
LINE
5
11B
100
AcDbEntity
8
SK2
62
256
6
ByLayer
370
13
48
1
60
0
100
AcDbLine
10
-46.5875
20
-6
30
0
11
-55.625163
21
-6
31
0
39
0
210
0
220
0
230
1
0
LINE
5
11C
100
AcDbEntity
8
SK2
62
256
6
ByLayer
370
13
48
1
60
0
100
AcDbLine
10
-46.5875
20
6
30
0
11
-55.625163
21
6
31
0
39
0
210
0
220
0
230
1
0
LINE
5
11D
100
AcDbEntity
8
SK2
62
256
6
ByLayer
370
13
48
1
60
0
100
AcDbLine
10
-53.625163
20
-6
30
0
11
-53.625163
21
36.862338
31
0
39
0
210
0
220
0
230
1
0
SOLID
5
11E
100
AcDbEntity
8
SK2
62
256
6
ByLayer
370
13
48
1
60
0
100
AcDbTrace
10
-53.625163
20
-6
30
0
11
-54.085946
21
-2.500002
31
0
12
-53.164379
22
-2.499998
32
0
13
-53.625163
23
-6
33
0
39
0
210
0
220
0
230
1
0
SOLID
5
11F
100
AcDbEntity
8
SK2
62
256
6
ByLayer
370
13
48
1
60
0
100
AcDbTrace
10
-53.625163
20
6
30
0
11
-53.164379
21
2.500002
31
0
12
-54.085946
22
2.499998
32
0
13
-53.625163
23
6
33
0
39
0
210
0
220
0
230
1
0
ENDBLK
5
121
100
AcDbEntity
8
0
100
AcDbBlockEnd
0
BLOCK
5
12B
100
AcDbEntity
8
0
100
AcDbBlockBegin
2
DimnDraft3D7
70
0
10
0
20
0
30
0
3
DimnDraft3D7
0
MTEXT
5
124
100
AcDbEntity
8
2
62
256
6
ByLayer
370
13
48
1
60
0
100
AcDbMText
10
67.333343
20
23.292266
30
0
210
0
220
0
230
1
1
\W0.6930;10,700
40
3.5
41
0
44
1.084337
50
90
71
7
72
5
7
iso_b_vert
0
MTEXT
5
125
100
AcDbEntity
8
2
62
256
6
ByLayer
370
13
48
1
60
0
100
AcDbMText
10
67.333343
20
18.06961
30
0
210
0
220
0
230
1
1
%%c
40
3.5
41
0
44
1.084337
50
90
71
7
72
5
7
iso_b_vert
0
LINE
5
126
100
AcDbEntity
8
2
62
256
6
ByLayer
370
13
48
1
60
0
100
AcDbLine
10
56.7475
20
-5.35
30
0
11
71.083343
21
-5.35
31
0
39
0
210
0
220
0
230
1
0
LINE
5
127
100
AcDbEntity
8
2
62
256
6
ByLayer
370
13
48
1
60
0
100
AcDbLine
10
56.7475
20
5.35
30
0
11
71.083343
21
5.35
31
0
39
0
210
0
220
0
230
1
0
LINE
5
128
100
AcDbEntity
8
2
62
256
6
ByLayer
370
13
48
1
60
0
100
AcDbLine
10
69.083343
20
-5.35
30
0
11
69.083343
21
34.805424
31
0
39
0
210
0
220
0
230
1
0
SOLID
5
129
100
AcDbEntity
8
2
62
256
6
ByLayer
370
13
48
1
60
0
100
AcDbTrace
10
69.083343
20
-5.35
30
0
11
68.622559
21
-1.850002
31
0
12
69.544126
22
-1.849998
32
0
13
69.083343
23
-5.35
33
0
39
0
210
0
220
0
230
1
0
SOLID
5
12A
100
AcDbEntity
8
2
62
256
6
ByLayer
370
13
48
1
60
0
100
AcDbTrace
10
69.083343
20
5.35
30
0
11
69.544126
21
1.850002
31
0
12
68.622559
22
1.849998
32
0
13
69.083343
23
5.35
33
0
39
0
210
0
220
0
230
1
0
ENDBLK
5
12C
100
AcDbEntity
8
0
100
AcDbBlockEnd
0
ENDSEC
0
SECTION
2
ENTITIES
0
ARC
5
9C
100
AcDbEntity
8
1
62
256
6
ByLayer
370
18
48
1
60
0
100
AcDbCircle
39
0
10
0
20
5.2
30
0
40
0.799999999999999
210
0
220
0
230
1
100
AcDbArc
50
34.997321
51
90
0
ARC
5
9D
100
AcDbEntity
8
1
62
256
6
ByLayer
370
18
48
1
60
0
100
AcDbCircle
39
0
10
0
20
-5.2
30
0
40
0.799999999999999
210
0
220
0
230
1
100
AcDbArc
50
270
51
325.002679
0
ARC
5
9E
100
AcDbEntity
8
1
62
256
6
ByLayer
370
18
48
1
60
0
100
AcDbCircle
39
0
10
-1.310686
20
6.117661
30
0
40
0.800000000000005
210
0
220
0
230
-1
100
AcDbArc
50
269.965623
51
325.002679
0
ARC
5
9F
100
AcDbEntity
8
1
62
256
6
ByLayer
370
18
48
1
60
0
100
AcDbCircle
39
0
10
-1.310686
20
-6.117661
30
0
40
0.800000000000005
210
0
220
0
230
-1
100
AcDbArc
50
34.997321
51
90.034377
0
ELLIPSE
5
A0
100
AcDbEntity
8
1
62
256
6
ByLayer
370
18
48
1
60
0
100
AcDbEllipse
10
4.25
20
-5.330669
30
0
11
-0.25
21
3.06151588455594E-17
31
0
210
0
220
0
230
1
40
0.999965
41
-1.57086269776525
42
-0.0530799436166136
0
ELLIPSE
5
A1
100
AcDbEntity
8
1
62
256
6
ByLayer
370
18
48
1
60
0
100
AcDbEllipse
10
4.25
20
5.330669
30
0
11
-0.25
21
3.06151588455594E-17
31
0
210
0
220
0
230
1
40
0.999965
41
0.0530799433970622
42
1.57471081174155
0
ELLIPSE
5
A2
100
AcDbEntity
8
1
62
256
6
ByLayer
370
18
48
1
60
0
100
AcDbEllipse
10
56.860373
20
0.114966
30
0
11
0.0868803724516041
21
0.290676908868598
31
0
210
0
220
0
230
-1
40
0.467765
41
1.65316334545715
42
2.36053717392906
0
ELLIPSE
5
A3
100
AcDbEntity
8
1
62
256
6
ByLayer
370
18
48
1
60
0
100
AcDbEllipse
10
57.023678
20
-0.03411
30
0
11
0.13565854605865
21
0.401200806295394
31
0
210
0
220
0
230
-1
40
0.065863
41
-2.32292776271647
42
-1.63403818970368
0
ELLIPSE
5
A4
100
AcDbEntity
8
1
62
256
6
ByLayer
370
18
48
1
60
0
100
AcDbEllipse
10
57.000453
20
0.001169
30
0
11
1.96175093367885
21
5.34864806259267
31
0
210
0
220
0
230
-1
40
0.082138
41
2.89074890298818
42
2.98572598851403
0
ELLIPSE
5
A5
100
AcDbEntity
8
1
62
256
6
ByLayer
370
13
48
1
60
0
100
AcDbEllipse
10
56.131676
20
2.446241
30
0
11
3.61120674834777
21
-1.85648283797775
31
0
210
0
220
0
230
-1
40
0.482873
41
1.53949524922856
42
1.83768850492752
0
ELLIPSE
5
A6
100
AcDbEntity
8
1
62
256
6
ByLayer
370
18
48
1
60
0
100
AcDbEllipse
10
55.998577
20
2.580533
30
0
11
0.823769909729082
21
-2.2459810102582
31
0
210
0
220
0
230
-1
40
0.082138
41
-1.56135098911939
42
-0.755280950346957
0
ELLIPSE
5
A7
100
AcDbEntity
8
1
62
256
6
ByLayer
370
18
48
1
60
0
100
AcDbEllipse
10
57.000453
20
-0.001169
30
0
11
1.96175092896912
21
-5.34864804909192
31
0
210
0
220
0
230
-1
40
0.082138
41
-2.98572598831731
42
-2.89074890267009
0
ELLIPSE
5
A8
100
AcDbEntity
8
1
62
256
6
ByLayer
370
13
48
1
60
0
100
AcDbEllipse
10
56.301135
20
2.580533
30
0
11
3.65636019415897
21
-1.54763820981238
31
0
210
0
220
0
230
-1
40
0.44554
41
1.59642058227033
42
1.89795973688344
0
ELLIPSE
5
A9
100
AcDbEntity
8
1
62
256
6
ByLayer
370
13
48
1
60
0
100
AcDbEllipse
10
55.518145
20
0.779532
30
0
11
0.133113781883896
21
0.268850741253519
31
0
210
0
220
0
230
1
40
0.40558
41
0.884485917130896
42
2.28074931872645
0
ELLIPSE
5
AA
100
AcDbEntity
8
1
62
256
6
ByLayer
370
18
48
1
60
0
100
AcDbEllipse
10
57.023678
20
0.03411
30
0
11
0.135658545978222
21
-0.401200806087364
31
0
210
0
220
0
230
-1
40
0.065863
41
1.63403818937743
42
2.32292776271705
0
ELLIPSE
5
AB
100
AcDbEntity
8
1
62
256
6
ByLayer
370
18
48
1
60
0
100
AcDbEllipse
10
55.998577
20
-2.580533
30
0
11
0.823769909724022
21
2.24598101024651
31
0
210
0
220
0
230
-1
40
0.082138
41
0.755280950346961
42
1.56135098912317
0
POINT
5
6C
100
AcDbEntity
8
81
62
256
6
ByLayer
370
18
48
1
60
0
100
AcDbPoint
10
57
20
0
30
0
39
0
210
0
220
0
230
1
50
360
0
POINT
5
6E
100
AcDbEntity
8
80
62
256
6
ByLayer
370
18
48
1
60
0
100
AcDbPoint
10
0
20
0
30
0
39
0
210
0
220
0
230
1
50
360
0
POINT
5
70
100
AcDbEntity
8
SK2
62
256
6
ByLayer
370
18
48
1
60
1
100
AcDbPoint
10
-45
20
-6
30
0
39
0
210
0
220
0
230
1
50
360
0
POINT
5
72
100
AcDbEntity
8
SK2
62
256
6
ByLayer
370
18
48
1
60
1
100
AcDbPoint
10
-45
20
6
30
0
39
0
210
0
220
0
230
1
50
360
0
POINT
5
73
100
AcDbEntity
8
2
62
256
6
ByLayer
370
18
48
1
60
1
100
AcDbPoint
10
55.16
20
-5.35
30
0
39
0
210
0
220
0
230
1
50
360
0
POINT
5
75
100
AcDbEntity
8
2
62
256
6
ByLayer
370
18
48
1
60
1
100
AcDbPoint
10
55.16
20
5.35
30
0
39
0
210
0
220
0
230
1
50
360
0
SPLINE
5
AC
100
AcDbEntity
8
1
62
256
6
ByLayer
370
18
48
1
60
0
100
AcDbSpline
70
4
71
3
72
17
73
13
40
0
40
0
40
0
40
0
40
0.142324819336291
40
0.296341813289675
40
0.411815839149347
40
0.489224498297949
40
0.554359332321556
40
0.633054383479668
40
0.725314920785825
40
0.843684263630872
40
0.999545684735632
40
1
40
1
40
1
40
1
41
1
10
4.25048423964694
20
-5.08065531005468
30
0
41
1
10
4.4843355931508
20
-5.08112089792584
30
0
41
1
10
4.97124925626377
20
-5.08192837961354
30
0
41
1
10
5.64789556314958
20
-5.08199930719749
30
0
41
1
10
6.21787866316748
20
-5.08255884482409
30
0
41
1
10
6.6418161372282
20
-5.08263700240838
30
0
41
1
10
7.00533805727946
20
-5.08304169486846
30
0
41
1
10
7.39305219805556
20
-5.08420033862998
30
0
41
1
10
7.86750258378046
20
-5.08395422249899
30
0
41
1
10
8.4698209395583
20
-5.08375562857998
30
0
41
1
10
8.92111794814571
20
-5.08396604107219
30
0
41
1
10
9.17779245460042
20
-5.08424944557456
30
0
41
1
10
9.17853845127524
20
-5.0842502704437
30
0
0
SPLINE
5
AD
100
AcDbEntity
8
1
62
256
6
ByLayer
370
18
48
1
60
0
100
AcDbSpline
70
4
71
3
72
33
73
29
40
0
40
0
40
0
40
0
40
0.0554094975682116
40
0.103928530174414
40
0.141614471583146
40
0.174555685292951
40
0.204060718726135
40
0.238330297765344
40
0.268617060447139
40
0.302661450466863
40
0.352666567877609
40
0.409419170187609
40
0.457488624514095
40
0.49789163897244
40
0.536639475496368
40
0.572932750052192
40
0.615613662223266
40
0.659488012687155
40
0.690934365050587
40
0.717685030311665
40
0.75305594554208
40
0.797098499080423
40
0.831717121389899
40
0.862375160887381
40
0.889074630204326
40
0.913743576266643
40
0.950841073457625
40
1
40
1
40
1
40
1
41
1
10
24.1835786485576
20
-5.09232916179877
30
0
41
1
10
24.4573062225891
20
-5.09246543723739
30
0
41
1
10
24.9708187202836
20
-5.09277584052666
30
0
41
1
10
25.6718917937626
20
-5.09291521323092
30
0
41
1
10
26.2602529285566
20
-5.09376348494746
30
0
41
1
10
26.7550135591997
20
-5.09384298409688
30
0
41
1
10
27.2335763802076
20
-5.09424633606224
30
0
41
1
10
27.6988711890708
20
-5.09490755830043
30
0
41
1
10
28.1866955425323
20
-5.09495223140743
30
0
41
1
10
28.7522817340175
20
-5.09503169830921
30
0
41
1
10
29.4488200852487
20
-5.09523995859382
30
0
41
1
10
30.2147948717268
20
-5.09549217969712
30
0
41
1
10
30.9332536024254
20
-5.09799552112881
30
0
41
1
10
31.5625185937421
20
-5.09695031021189
30
0
41
1
10
32.1336520535906
20
-5.09635887137711
30
0
41
1
10
32.7160506515112
20
-5.09595045090575
30
0
41
1
10
33.3238126406582
20
-5.09642844113733
30
0
41
1
10
33.9075889198274
20
-5.09879715929861
30
0
41
1
10
34.4125605074145
20
-5.09840477085055
30
0
41
1
10
34.8754640057847
20
-5.09859152610292
30
0
41
1
10
35.4006842379045
20
-5.09867370447714
30
0
41
1
10
35.9648257288214
20
-5.09817180478885
30
0
41
1
10
36.5056442914445
20
-5.09859002600308
30
0
41
1
10
36.9606626110384
20
-5.09992730386654
30
0
41
1
10
37.3664653105584
20
-5.0999001217686
30
0
41
1
10
37.8041328842785
20
-5.09970795956252
30
0
41
1
10
38.3528670243426
20
-5.10078139100202
30
0
41
1
10
38.7795891349896
20
-5.10067936973536
30
0
41
1
10
39.0227849882945
20
-5.10054789638872
30
0
0
SPLINE
5
AE
100
AcDbEntity
8
1
62
256
6
ByLayer
370
18
48
1
60
0
100
AcDbSpline
70
4
71
3
72
17
73
13
40
0
40
0
40
0
40
0
40
0.0008465995400705
40
0.156646850874068
40
0.274969738174748
40
0.367194066662978
40
0.445858232956036
40
0.510967503999638
40
0.588345783153249
40
0.70377448978293
40
0.857731037830627
40
1
40
1
40
1
40
1
41
1
10
9.18047251207361
20
5.08425240574479
30
0
41
1
10
9.17908183084526
20
5.08425086602554
30
0
41
1
10
8.92176267901249
20
5.08396673081339
30
0
41
1
10
8.46982105312085
20
5.083755492026
30
0
41
1
10
7.86750256346926
20
5.08395424704273
30
0
41
1
10
7.39305220227195
20
5.08420033368648
30
0
41
1
10
7.00533805656787
20
5.08304169586023
30
0
41
1
10
6.64181613756182
20
5.08263700211549
30
0
41
1
10
6.21787866311644
20
5.08255884495395
30
0
41
1
10
5.64789556322333
20
5.08199930714167
30
0
41
1
10
4.97124925625994
20
5.08192837963
30
0
41
1
10
4.48433559315271
20
5.08112089792587
30
0
41
1
10
4.25048423964699
20
5.08065531005468
30
0
0
SPLINE
5
AF
100
AcDbEntity
8
1
62
256
6
ByLayer
370
18
48
1
60
0
100
AcDbSpline
70
4
71
2
72
6
73
3
40
0
40
0
40
0
40
1
40
1
40
1
41
1
10
54.1420048619627
20
-5.11051132313142
30
0
41
1
10
54.6395680704405
20
-5.10926061779165
30
0
41
1
10
55.136440637472
20
-5.1122266765322
30
0
0
SPLINE
5
B0
100
AcDbEntity
8
1
62
256
6
ByLayer
370
18
48
1
60
0
100
AcDbSpline
70
4
71
3
72
29
73
25
40
0
40
0
40
0
40
0
40
0.0178475682245957
40
0.0920677797368627
40
0.154453434610003
40
0.205792912056007
40
0.247181070584618
40
0.283591858476212
40
0.311384914854385
40
0.34269919689485
40
0.389314923114191
40
0.444831096269905
40
0.488106629466195
40
0.522854387105956
40
0.569627515590843
40
0.648726580335863
40
0.714439580958945
40
0.765681330224654
40
0.807397570014273
40
0.845038008916161
40
0.889634436813164
40
0.944856159352681
40
0.989797708505887
40
1
40
1
40
1
40
1
41
1
10
39.2066565103538
20
5.09965494593678
30
0
41
1
10
39.1329647829679
20
5.09947552086041
30
0
41
1
10
38.7526168962085
20
5.09867672332209
30
0
41
1
10
38.1073758519306
20
5.09905064609364
30
0
41
1
10
37.3311105063752
20
5.10010499289439
30
0
41
1
10
36.6863741026207
20
5.09930464339388
30
0
41
1
10
36.1494181280195
20
5.09803940831242
30
0
41
1
10
35.7104075808187
20
5.09851078338681
30
0
41
1
10
35.3132668382984
20
5.09861015968727
30
0
41
1
10
34.8736996081441
20
5.09859915830944
30
0
41
1
10
34.3188674539669
20
5.09839700434136
30
0
41
1
10
33.714303168422
20
5.09868562096869
30
0
41
1
10
33.1590875973003
20
5.09584762432161
30
0
41
1
10
32.6402152917953
20
5.09614513203448
30
0
41
1
10
31.9724137167693
20
5.09628444415856
30
0
41
1
10
31.1758556194116
20
5.09815091535248
30
0
41
1
10
30.3607168523646
20
5.09621783939127
30
0
41
1
10
29.7010129518411
20
5.09506331115182
30
0
41
1
10
29.1580091540736
20
5.09534776280526
30
0
41
1
10
28.6426851552801
20
5.09494826255619
30
0
41
1
10
28.0711724840645
20
5.09499153767655
30
0
41
1
10
27.4693149172335
20
5.09463263164196
30
0
41
1
10
27.0104073554188
20
5.09400252917141
30
0
41
1
10
26.7812025179267
20
5.09386657917153
30
0
41
1
10
26.7388042739451
20
5.09384303020792
30
0
0
SPLINE
5
B1
100
AcDbEntity
8
1
62
256
6
ByLayer
370
18
48
1
60
0
100
AcDbSpline
70
4
71
3
72
12
73
8
40
0
40
0
40
0
40
0
40
0.431927699378315
40
0.621274157832977
40
0.672217490054656
40
0.752718483232197
40
1
40
1
40
1
40
1
41
1
10
40.6093896951546
20
-1.3841561724719
30
0
41
1
10
40.6110826653347
20
-1.38559033592733
30
0
41
1
10
40.6543989672345
20
-1.40574137860617
30
0
41
1
10
40.6970444810875
20
-1.42665912462607
30
0
41
1
10
40.7250393273081
20
-1.44112690324462
30
0
41
1
10
40.7871795594971
20
-1.47343889976193
30
0
41
1
10
40.844891092017
20
-1.50432766000671
30
0
41
1
10
40.8972699205815
20
-1.5326548609307
30
0
0
SPLINE
5
B2
100
AcDbEntity
8
1
62
256
6
ByLayer
370
18
48
1
60
0
100
AcDbSpline
70
4
71
3
72
16
73
12
40
0
40
0
40
0
40
0
40
0.187546507402796
40
0.187546507402796
40
0.485495066444447
40
0.485495066444447
40
0.634469345965272
40
0.634469345965272
40
0.783443625486097
40
0.783443625486097
40
1
40
1
40
1
40
1
41
1
10
13.176121045841
20
-2.86413174838631
30
0
41
1
10
12.9936738080113
20
-3.01782237326978
30
0
41
1
10
12.810993934986
20
-3.17417137200738
30
0
41
1
10
12.3333115366082
20
-3.58050401986819
30
0
41
1
10
12.0418378735135
20
-3.82578945840413
30
0
41
1
10
11.5950359094432
20
-4.17212088453147
30
0
41
1
10
11.444483422462
20
-4.28393968220064
30
0
41
1
10
11.1380065889567
20
-4.49763648546761
30
0
41
1
10
10.9812660190498
20
-4.59991316977172
30
0
41
1
10
10.5968787644549
20
-4.83042345910295
30
0
41
1
10
10.3677408984096
20
-4.9503192236723
30
0
41
1
10
10.1358407642045
20
-5.05413288731313
30
0
0
SPLINE
5
B3
100
AcDbEntity
8
1
62
256
6
ByLayer
370
18
48
1
60
0
100
AcDbSpline
70
4
71
3
72
12
73
8
40
0
40
0
40
0
40
0
40
0.249999999999989
40
0.249999999999989
40
0.499999999999977
40
0.499999999999977
40
1
40
1
40
1
40
1
41
1
10
4.12819827204467
20
2.60444742127987
30
0
41
1
10
4.11003604690441
20
2.61327718376918
30
0
41
1
10
4.09349889544342
20
2.62385474725349
30
0
41
1
10
4.06356724938374
20
2.64834885437895
30
0
41
1
10
4.05020326661551
20
2.66235626423571
30
0
41
1
10
4.01714447892743
20
2.70716897882193
30
0
41
1
10
4.00371430288635
20
2.7416803259695
30
0
41
1
10
4.00067444840133
20
2.77693185085025
30
0
0
SPLINE
5
B4
100
AcDbEntity
8
1
62
256
6
ByLayer
370
18
48
1
60
0
100
AcDbSpline
70
4
71
3
72
18
73
14
40
0
40
0
40
0
40
0
40
0.193430756047003
40
0.193430756047003
40
0.567752345784722
40
0.567752345784722
40
0.661332743219153
40
0.661332743219153
40
0.754913140653583
40
0.754913140653583
40
0.942073935522444
40
0.942073935522444
40
1
40
1
40
1
40
1
41
1
10
8.95278592629626
20
0.0289417668964234
30
0
41
1
10
9.5002642993455
20
-0.268755134083079
30
0
41
1
10
10.0460113415895
20
-0.565700702988238
30
0
41
1
10
11.6485413040539
20
-1.42436371680563
30
0
41
1
10
12.704787456151
20
-1.97611255241827
30
0
41
1
10
14.0426220181168
20
-2.61480352674553
30
0
41
1
10
14.310302730421
20
-2.73966399957271
30
0
41
1
10
14.8433121511185
20
-2.98165349543788
30
0
41
1
10
15.1090927831364
20
-3.09899858325403
30
0
41
1
10
15.904919016217
20
-3.43924917160885
30
0
41
1
10
16.4335378908635
20
-3.65029999057464
30
0
41
1
10
17.1252571024212
20
-3.90336391599416
30
0
41
1
10
17.2887090856121
20
-3.96147112389872
30
0
41
1
10
17.4521755503781
20
-4.01781515957197
30
0
0
SPLINE
5
B5
100
AcDbEntity
8
1
62
256
6
ByLayer
370
13
48
1
60
0
100
AcDbSpline
70
4
71
3
72
16
73
12
40
0
40
0
40
0
40
0
40
0.322307193976628
40
0.322307193976628
40
0.417636087399692
40
0.417636087399692
40
0.512964980822755
40
0.512964980822755
40
0.703622767668881
40
0.703622767668881
40
1
40
1
40
1
40
1
41
1
10
17.4521755502672
20
-4.01781515953377
30
0
41
1
10
18.3450388657828
20
-4.32556955168681
30
0
41
1
10
19.23833422574
20
-4.58072132621729
30
0
41
1
10
20.4068998553531
20
-4.83073250724033
30
0
41
1
10
20.6749482679833
20
-4.88246118850932
30
0
41
1
10
21.2093351547912
20
-4.97393988314388
30
0
41
1
10
21.4757534386714
20
-5.01374557944229
30
0
41
1
10
22.2731182466833
20
-5.11524243185244
30
0
41
1
10
22.8022403527651
20
-5.15908457321893
30
0
41
1
10
24.1520985460111
20
-5.21001670908132
30
0
41
1
10
24.9716685825032
20
-5.18324581240805
30
0
41
1
10
25.7956417071356
20
-5.09884920283582
30
0
0
SPLINE
5
B6
100
AcDbEntity
8
1
62
256
6
ByLayer
370
18
48
1
60
0
100
AcDbSpline
70
4
71
3
72
8
73
4
40
0
40
0
40
0
40
0
40
1
40
1
40
1
40
1
41
1
10
55.1306836985551
20
5.30765378683134
30
0
41
1
10
54.7303628284419
20
5.33565151535237
30
0
41
1
10
54.3301416766269
20
5.34952635191308
30
0
41
1
10
53.9295196623168
20
5.34923209591511
30
0
0
SPLINE
5
B7
100
AcDbEntity
8
1
62
256
6
ByLayer
370
18
48
1
60
0
100
AcDbSpline
70
4
71
3
72
40
73
36
40
0
40
0
40
0
40
0
40
0.0125198707495673
40
0.0125198707495673
40
0.0830541656960282
40
0.0830541656960282
40
0.118321313169259
40
0.118321313169259
40
0.153588460642489
40
0.153588460642489
40
0.22412275558895
40
0.22412275558895
40
0.259389903062181
40
0.259389903062181
40
0.294657050535411
40
0.294657050535411
40
0.365191345481871
40
0.365191345481871
40
0.43572564042833
40
0.43572564042833
40
0.506259935374789
40
0.506259935374789
40
0.576794230321248
40
0.576794230321248
40
0.647328525267707
40
0.647328525267707
40
0.717862820214165
40
0.717862820214165
40
0.788397115160624
40
0.788397115160624
40
0.823664262633854
40
0.823664262633854
40
0.858931410107083
40
0.858931410107083
40
1
40
1
40
1
40
1
41
1
10
26.729238954443
20
-5.11284971508121
30
0
41
1
10
26.6349601016518
20
-5.12779072010062
30
0
41
1
10
26.5407075423924
20
-5.14197660185749
30
0
41
1
10
25.9155601484902
20
-5.23104652369642
30
0
41
1
10
25.385183779611
20
-5.28261092611882
30
0
41
1
10
24.587772633284
20
-5.32289521759637
30
0
41
1
10
24.321363154494
20
-5.33014420327285
30
0
41
1
10
23.7893265517016
20
-5.33214658704344
30
0
41
1
10
23.5236898331505
20
-5.3269164037284
30
0
41
1
10
22.7271483723808
20
-5.29270671034962
30
0
41
1
10
22.1967971672156
20
-5.2451740505158
30
0
41
1
10
21.3994334917303
20
-5.13750399168961
30
0
41
1
10
21.1330641386002
20
-5.09549949404348
30
0
41
1
10
20.6008674172221
20
-4.99972167644205
30
0
41
1
10
20.3351657048876
20
-4.94600093297157
30
0
41
1
10
19.538479052167
20
-4.76796815186978
30
0
41
1
10
19.0080972187047
20
-4.62664816054487
30
0
41
1
10
17.9450956361679
20
-4.30181136806297
30
0
41
1
10
17.4120056883299
20
-4.11801073399945
30
0
41
1
10
16.34959881477
20
-3.71516207472069
30
0
41
1
10
15.8191289750634
20
-3.49582845997549
30
0
41
1
10
14.7562293043334
20
-3.0258331372703
30
0
41
1
10
14.2230362892702
20
-2.77488224254466
30
0
41
1
10
13.1603379470494
20
-2.25141267067167
30
0
41
1
10
12.6299184855768
20
-1.97822723283662
30
0
41
1
10
11.5671518342725
20
-1.41516754787764
30
0
41
1
10
11.0337967407779
20
-1.12497110433466
30
0
41
1
10
9.97110990461846
20
-0.539316851196361
30
0
41
1
10
9.44100150852586
20
-0.242960429331958
30
0
41
1
10
8.64480854271574
20
0.201686636535101
30
0
41
1
10
8.37921542875048
20
0.349877904941678
30
0
41
1
10
7.84724026312972
20
0.645494707597948
30
0
41
1
10
7.5806168000945
20
0.793050374898002
30
0
41
1
10
6.25072501715937
20
1.52330302727634
30
0
41
1
10
5.19337687365282
20
2.0865993058485
30
0
41
1
10
4.1281982720447
20
2.60444742127984
30
0
0
SPLINE
5
B8
100
AcDbEntity
8
1
62
256
6
ByLayer
370
18
48
1
60
0
100
AcDbSpline
70
4
71
3
72
22
73
18
40
0
40
0
40
0
40
0
40
0.250000000000001
40
0.250000000000001
40
0.375000000000001
40
0.375000000000001
40
0.500000000000001
40
0.500000000000001
40
0.625000000000001
40
0.625000000000001
40
0.750000000000001
40
0.750000000000001
40
0.875000000000001
40
0.875000000000001
40
0.9375
40
0.9375
40
1
40
1
40
1
40
1
41
1
10
56.1908312264268
20
2.62697956077219
30
0
41
1
10
56.1097075148285
20
2.84552998804787
30
0
41
1
10
56.0284351079565
20
3.06380665903356
30
0
41
1
10
55.9061020588454
20
3.39044025000837
30
0
41
1
10
55.8652493892379
20
3.49915240207267
30
0
41
1
10
55.783540197726
20
3.71643667061545
30
0
41
1
10
55.7426686561257
20
3.8250031209775
30
0
41
1
10
55.6608492405605
20
4.04179510438146
30
0
41
1
10
55.619903560121
20
4.15003043419603
30
0
41
1
10
55.5378795933145
20
4.36590884625912
30
0
41
1
10
55.4967972906929
20
4.4734921868756
30
0
41
1
10
55.4146632419578
20
4.68835816546942
30
0
41
1
10
55.3735890128974
20
4.7955717297487
30
0
41
1
10
55.3119504577735
20
4.95556332590741
30
0
41
1
10
55.2913997059602
20
5.00875477305593
30
0
41
1
10
55.2502825903666
20
5.11466219169449
30
0
41
1
10
55.2297168808509
20
5.16739808936529
30
0
41
1
10
55.2091494572821
20
5.22008178409621
30
0
0
SPLINE
5
B9
100
AcDbEntity
8
1
62
256
6
ByLayer
370
18
48
1
60
0
100
AcDbSpline
70
2053
71
3
72
62
73
58
40
0
40
0
40
0
40
0
40
0.0312500000000001
40
0.0312500000000001
40
0.0625000000000002
40
0.0625000000000002
40
0.0937500000000003
40
0.0937500000000003
40
0.125
40
0.125
40
0.156250000000001
40
0.156250000000001
40
0.187500000000001
40
0.187500000000001
40
0.218750000000001
40
0.218750000000001
40
0.250000000000001
40
0.250000000000001
40
0.281250000000001
40
0.281250000000001
40
0.312500000000001
40
0.312500000000001
40
0.374999999999999
40
0.374999999999999
40
0.437499999999996
40
0.437499999999996
40
0.468749999999997
40
0.468749999999997
40
0.499999999999997
40
0.499999999999997
40
0.531249999999998
40
0.531249999999998
40
0.562499999999998
40
0.562499999999998
40
0.593749999999999
40
0.593749999999999
40
0.624999999999999
40
0.624999999999999
40
0.656249999999999
40
0.656249999999999
40
0.6875
40
0.6875
40
0.750000000000001
40
0.750000000000001
40
0.781250000000001
40
0.781250000000001
40
0.812500000000001
40
0.812500000000001
40
0.84375
40
0.84375
40
0.875
40
0.875
40
0.90625
40
0.90625
40
0.9375
40
0.9375
40
1
40
1
40
1
40
1
41
1
10
55.3454370599956
20
-2.07427529240797
30
0
41
1
10
55.3171771698913
20
-2.11373458298169
30
0
41
1
10
55.2894502781298
20
-2.15614407582731
30
0
41
1
10
55.2351607431941
20
-2.24740730071147
30
0
41
1
10
55.208300675645
20
-2.29687009145209
30
0
41
1
10
55.1576420207069
20
-2.40031782126246
30
0
41
1
10
55.13390842663
20
-2.45402407957741
30
0
41
1
10
55.0901282426065
20
-2.56601699336201
30
0
41
1
10
55.0706275309923
20
-2.62307862373274
30
0
41
1
10
55.0379991782181
20
-2.73554548061733
30
0
41
1
10
55.0245316524282
20
-2.79240607635563
30
0
41
1
10
55.0054674154817
20
-2.89900259528784
30
0
41
1
10
54.9996058528538
20
-2.94975230538651
30
0
41
1
10
54.9953397922519
20
-3.04284146406391
30
0
41
1
10
54.9968831539118
20
-3.08443722753088
30
0
41
1
10
55.0065680445071
20
-3.15874691724852
30
0
41
1
10
55.0146038694514
20
-3.19044734762875
30
0
41
1
10
55.0359683101975
20
-3.24383839614825
30
0
41
1
10
55.0494234525407
20
-3.26561755253914
30
0
41
1
10
55.0802224160732
20
-3.29896441952096
30
0
41
1
10
55.0976521658698
20
-3.31079972650417
30
0
41
1
10
55.1555758417306
20
-3.33287881530148
30
0
41
1
10
55.1999738216859
20
-3.32940573558926
30
0
41
1
10
55.2980881028536
20
-3.29039635607387
30
0
41
1
10
55.3500564170739
20
-3.25560915694001
30
0
41
1
10
55.4324097125185
20
-3.18032577344272
30
0
41
1
10
55.4603119381144
20
-3.15152097540323
30
0
41
1
10
55.5159165747928
20
-3.08749746028474
30
0
41
1
10
55.5437853767398
20
-3.05213613405073
30
0
41
1
10
55.5996694819535
20
-2.97403247071921
30
0
41
1
10
55.6279434118735
20
-2.93081919083147
30
0
41
1
10
55.6824824443359
20
-2.83917456712021
30
0
41
1
10
55.7089334106403
20
-2.79056578623593
30
0
41
1
10
55.7599308536193
20
-2.68686505075499
30
0
41
1
10
55.7841310762765
20
-2.63235523453179
30
0
41
1
10
55.8279078436124
20
-2.52123739334971
30
0
41
1
10
55.8479547405997
20
-2.46326377475719
30
0
41
1
10
55.8811644650904
20
-2.35019130209355
30
0
41
1
10
55.8946491895474
20
-2.29433161379109
30
0
41
1
10
55.9144583417383
20
-2.18599062877433
30
0
41
1
10
55.9204282666294
20
-2.13563955500416
30
0
41
1
10
55.9272990198816
20
-1.9953020599616
30
0
41
1
10
55.9164582909616
20
-1.92027588369686
30
0
41
1
10
55.8841191269208
20
-1.84066672694388
30
0
41
1
10
55.8705924944599
20
-1.81915225199154
30
0
41
1
10
55.8393708008714
20
-1.78610033774842
30
0
41
1
10
55.8218061058218
20
-1.77457436993825
30
0
41
1
10
55.7832137120746
20
-1.76038442305051
30
0
41
1
10
55.7620874754382
20
-1.75779836867969
30
0
41
1
10
55.7177547265885
20
-1.76105350023525
30
0
41
1
10
55.6944199842429
20
-1.76682046517527
30
0
41
1
10
55.6455054871141
20
-1.78630822743892
30
0
41
1
10
55.6198184371548
20
-1.80014757926503
30
0
41
1
10
55.5676250085547
20
-1.83501215989713
30
0
41
1
10
55.5409588174975
20
-1.85607477613232
30
0
41
1
10
55.4592147613113
20
-1.93038980808316
30
0
41
1
10
55.4019568402042
20
-1.99535671126051
30
0
41
1
10
55.3454370599956
20
-2.07427529240797
30
0
0
SPLINE
5
BA
100
AcDbEntity
8
1
62
256
6
ByLayer
370
18
48
1
60
0
100
AcDbSpline
70
4
71
3
72
10
73
6
40
0
40
0
40
0
40
0
40
0.837174896597499
40
0.837174896597499
40
1
40
1
40
1
40
1
41
1
10
16.7502258781445
20
4.17434724044705
30
0
41
1
10
16.5508310430403
20
4.0658446468081
30
0
41
1
10
16.3514139158469
20
3.95560539404823
30
0
41
1
10
16.1128666238676
20
3.82207395131152
30
0
41
1
10
16.0740132968327
20
3.80027462456917
30
0
41
1
10
16.0351446588853
20
3.77842239405851
30
0
0
SPLINE
5
BB
100
AcDbEntity
8
1
62
256
6
ByLayer
370
13
48
1
60
0
100
AcDbSpline
70
4
71
3
72
23
73
19
40
0
40
0
40
0
40
0
40
0.197276685005554
40
0.197276685005554
40
0.295915027508331
40
0.295915027508331
40
0.394553370011108
40
0.493191712513885
40
0.493191712513885
40
0.591830055016662
40
0.591830055016662
40
0.789106740022216
40
0.789106740022216
40
0.887745082524993
40
0.887745082524993
40
0.986383425027769
40
0.986383425027769
40
1
40
1
40
1
40
1
41
1
10
4.25026853329129
20
2.52811979012645
30
0
41
1
10
4.25030208950039
20
2.83490230593225
30
0
41
1
10
4.25032431301563
20
3.11992474491439
30
0
41
1
10
4.25034794314752
20
3.51499650318829
30
0
41
1
10
4.25035413768461
20
3.64035090937475
30
0
41
1
10
4.25036434388937
20
3.87576803926226
30
0
41
1
10
4.25037242409778
20
4.09686309989641
30
0
41
1
10
4.25037868008593
20
4.28958645320722
30
0
41
1
10
4.25038514964811
20
4.46780088587059
30
0
41
1
10
4.25038850778247
20
4.54977039726239
30
0
41
1
10
4.25040021395677
20
4.7681086875391
30
0
41
1
10
4.25041032853258
20
4.87934880885541
30
0
41
1
10
4.25043336422056
20
4.99492412318571
30
0
41
1
10
4.25044238485751
20
5.02490455117814
30
0
41
1
10
4.25046327355059
20
5.06637678239568
30
0
41
1
10
4.25047512046854
20
5.07795714234373
30
0
41
1
10
4.25049028656358
20
5.08071202282068
30
0
41
1
10
4.25049215433802
20
5.08086975797738
30
0
41
1
10
4.25049404940182
20
5.08085187109364
30
0
0
SPLINE
5
BC
100
AcDbEntity
8
1
62
256
6
ByLayer
370
18
48
1
60
0
100
AcDbSpline
70
4
71
3
72
8
73
4
40
0
40
0
40
0
40
0
40
1
40
1
40
1
40
1
41
1
10
16.7502185027714
20
4.17436756679439
30
0
41
1
10
16.4532247290265
20
4.07069564750637
30
0
41
1
10
16.1548326270448
20
3.96290682381058
30
0
41
1
10
15.8548231247563
20
3.85197560709108
30
0
0
SPLINE
5
BD
100
AcDbEntity
8
1
62
256
6
ByLayer
370
18
48
1
60
0
100
AcDbSpline
70
4
71
3
72
23
73
19
40
0
40
0
40
0
40
0
40
0.125000000000003
40
0.125000000000003
40
0.187500000000004
40
0.187500000000004
40
0.250000000000004
40
0.250000000000004
40
0.500000000000005
40
0.500000000000005
40
0.562500000000005
40
0.562500000000005
40
0.625000000000004
40
0.625000000000004
40
0.750000000000003
40
0.875000000000001
40
0.875000000000001
40
1
40
1
40
1
40
1
41
1
10
55.1397709997341
20
-5.11093717323359
30
0
41
1
10
55.0659514939896
20
-5.11085907133199
30
0
41
1
10
54.9956666307673
20
-5.10011715413356
30
0
41
1
10
54.8957972932141
20
-5.06723623758154
30
0
41
1
10
54.86343612165
20
-5.05347437573013
30
0
41
1
10
54.8006450094172
20
-5.02012423834205
30
0
41
1
10
54.770117980371
20
-5.00044856377804
30
0
41
1
10
54.6242941178945
20
-4.88822109774804
30
0
41
1
10
54.5283591746484
20
-4.75470145290367
30
0
41
1
10
54.4356008069989
20
-4.53048089794112
30
0
41
1
10
54.418424782096
20
-4.48273352298145
30
0
41
1
10
54.3869327628606
20
-4.38120276682048
30
0
41
1
10
54.3725819424399
20
-4.32721030249365
30
0
41
1
10
54.3345794588045
20
-4.15842991780536
30
0
41
1
10
54.2968994794725
20
-3.91429289701281
30
0
41
1
10
54.2847854703118
20
-3.63257151948596
30
0
41
1
10
54.2858063232538
20
-3.33154067161209
30
0
41
1
10
54.2930116713114
20
-3.17068416426696
30
0
41
1
10
54.3067513151071
20
-3.00396189743139
30
0
0
SPLINE
5
BE
100
AcDbEntity
8
1
62
256
6
ByLayer
370
18
48
1
60
0
100
AcDbSpline
70
4
71
3
72
16
73
12
40
0
40
0
40
0
40
0
40
0.084618033918241
40
0.084618033918241
40
0.212055391319136
40
0.212055391319136
40
0.33949274872003
40
0.33949274872003
40
0.849242178323615
40
0.849242178323615
40
1
40
1
40
1
40
1
41
1
10
54.1341690563685
20
-5.11050505618451
30
0
41
1
10
53.9568732853101
20
-5.11034337405562
30
0
41
1
10
53.7795412099539
20
-5.10752216540467
30
0
41
1
10
53.3349088055179
20
-5.09379638093506
30
0
41
1
10
53.0674780266213
20
-5.07949416500631
30
0
41
1
10
52.5349566513604
20
-5.03921390730193
30
0
41
1
10
52.2694651443896
20
-5.01323176079998
30
0
41
1
10
50.9449132940206
20
-4.85479767124141
30
0
41
1
10
49.8942780376246
20
-4.63685367739808
30
0
41
1
10
48.5283179579877
20
-4.24989860320676
30
0
41
1
10
48.2162294719706
20
-4.15452361391604
30
0
41
1
10
47.9034757642451
20
-4.0524186607166
30
0
0
SPLINE
5
BF
100
AcDbEntity
8
1
62
256
6
ByLayer
370
13
48
1
60
0
100
AcDbSpline
70
4
71
3
72
24
73
20
40
0
40
0
40
0
40
0
40
0.0498021046449764
40
0.0498021046449764
40
0.110759058104235
40
0.110759058104235
40
0.171716011563493
40
0.171716011563493
40
0.415543825400525
40
0.415543825400525
40
0.659371639237557
40
0.659371639237557
40
0.720328592696817
40
0.720328592696817
40
0.781285546156076
40
0.781285546156076
40
0.903199453074595
40
0.903199453074595
40
1
40
1
40
1
40
1
41
1
10
47.903475764285
20
-4.05241866072956
30
0
41
1
10
47.68748070677
20
-3.98190258148256
30
0
41
1
10
47.4711683645724
20
-3.90817657322131
30
0
41
1
10
46.9891305125826
20
-3.73730986833564
30
0
41
1
10
46.7232043606782
20
-3.63859005354664
30
0
41
1
10
46.1896758019578
20
-3.43219480935039
30
0
41
1
10
45.9219431354296
20
-3.32444609720142
30
0
41
1
10
44.5902327353868
20
-2.769668873688
30
0
41
1
10
43.5372072085672
20
-2.27127010676406
30
0
41
1
10
41.4303271864425
20
-1.21065976104978
30
0
41
1
10
40.3765468332342
20
-0.648320495814488
30
0
41
1
10
39.0427613946197
20
0.06538815764074
30
0
41
1
10
38.7749642489504
20
0.208811732051174
30
0
41
1
10
38.2419558716678
20
0.493326115436645
30
0
41
1
10
37.9761684953891
20
0.634708697458365
30
0
41
1
10
37.1805065530084
20
1.05545717285202
30
0
41
1
10
36.6521905581752
20
1.33112293462599
30
0
41
1
10
35.7053090027919
20
1.81189097899136
30
0
41
1
10
35.2865718368658
20
2.01984523518163
30
0
41
1
10
34.867370224453
20
2.22155134132242
30
0
0
SPLINE
5
C0
100
AcDbEntity
8
1
62
256
6
ByLayer
370
18
48
1
60
0
100
AcDbSpline
70
4
71
3
72
16
73
12
40
0
40
0
40
0
40
0
40
0.129013158359843
40
0.129013158359843
40
0.38001817006086
40
0.38001817006086
40
0.505520675911369
40
0.505520675911369
40
0.631023181761877
40
0.631023181761877
40
1
40
1
40
1
40
1
41
1
10
24.1821889184139
20
-5.09235101080469
30
0
41
1
10
23.9108645687639
20
-5.09206510443437
30
0
41
1
10
23.6395607641549
20
-5.08559256825839
30
0
41
1
10
22.8398323796961
20
-5.0483042691076
30
0
41
1
10
22.310894884414
20
-5.0002875566899
30
0
41
1
10
21.5139381032018
20
-4.89334773873483
30
0
41
1
10
21.2476693044118
20
-4.85186636775614
30
0
41
1
10
20.71361507039
20
-4.75736512662573
30
0
41
1
10
20.4458022223004
20
-4.70428460330379
30
0
41
1
10
19.3956394563482
20
-4.47470184223747
30
0
41
1
10
18.618231456982
20
-4.2577135126767
30
0
41
1
10
17.8419038614133
20
-4.0013454709387
30
0
0
SPLINE
5
C1
100
AcDbEntity
8
1
62
256
6
ByLayer
370
13
48
1
60
0
100
AcDbSpline
70
4
71
3
72
24
73
20
40
0
40
0
40
0
40
0
40
0.0644653720946949
40
0.0644653720946949
40
0.186097647713582
40
0.186097647713582
40
0.246913785523027
40
0.246913785523027
40
0.30772992333247
40
0.30772992333247
40
0.550994474570247
40
0.550994474570247
40
0.794259025808025
40
0.794259025808025
40
0.855075163617469
40
0.855075163617469
40
0.915891301426914
40
0.915891301426914
40
1
40
1
40
1
40
1
41
1
10
17.8419038614121
20
-4.00134547093836
30
0
41
1
10
17.562001864347
20
-3.90891293694659
30
0
41
1
10
17.282240312853
20
-3.81136129269541
30
0
41
1
10
16.4743395872417
20
-3.51582473430716
30
0
41
1
10
15.9459040315474
20
-3.30550829861747
30
0
41
1
10
15.150454707671
20
-2.96733163813897
30
0
41
1
10
14.8848136714429
20
-2.85084238190876
30
0
41
1
10
14.3521238752604
20
-2.61089652727864
30
0
41
1
10
14.0846259500578
20
-2.48722470754498
30
0
41
1
10
12.7478482074432
20
-1.85533685783193
30
0
41
1
10
11.6919825563083
20
-1.31122122327091
30
0
41
1
10
9.57965703762449
20
-0.197931502862133
30
0
41
1
10
8.52428351441796
20
0.373237350782034
30
0
41
1
10
7.18889690086164
20
1.07269101183638
30
0
41
1
10
6.92090178612122
20
1.21187639569641
30
0
41
1
10
6.3864017111251
20
1.4865101142795
30
0
41
1
10
6.11947594404973
20
1.6221858991853
30
0
41
1
10
5.48351918217205
20
1.94040666685581
30
0
41
1
10
5.11450955210813
20
2.12094101583142
30
0
41
1
10
4.74505558629463
20
2.29639967710958
30
0
0
SPLINE
5
C2
100
AcDbEntity
8
1
62
256
6
ByLayer
370
18
48
1
60
0
100
AcDbSpline
70
4
71
3
72
12
73
8
40
0
40
0
40
0
40
0
40
0.250000000000002
40
0.250000000000002
40
0.500000000000004
40
0.500000000000004
40
1
40
1
40
1
40
1
41
1
10
55.1835047172733
20
-5.16538036802922
30
0
41
1
10
55.1883693602719
20
-5.15225841219268
30
0
41
1
10
55.1930262153617
20
-5.13890638574645
30
0
41
1
10
55.200715335981
20
-5.11488491678696
30
0
41
1
10
55.2037302067711
20
-5.10424325943904
30
0
41
1
10
55.2091737305661
20
-5.08051479759041
30
0
41
1
10
55.2080703160709
20
-5.0760605335453
30
0
41
1
10
55.2043789761543
20
-5.07915098983955
30
0
0
SPLINE
5
C3
100
AcDbEntity
8
1
62
256
6
ByLayer
370
18
48
1
60
0
100
AcDbSpline
70
4
71
3
72
16
73
12
40
0
40
0
40
0
40
0
40
0.04012490136871
40
0.04012490136871
40
0.462465704688921
40
0.462465704688921
40
0.884806508009133
40
0.884806508009133
40
0.990391708839184
40
0.990391708839184
40
1
40
1
40
1
40
1
41
1
10
38.9765782323151
20
-0.0111249784537222
30
0
41
1
10
39.0781996893392
20
-0.0665693759063402
30
0
41
1
10
39.1797917283495
20
-0.121996154420373
30
0
41
1
10
40.3488111187535
20
-0.759396829550496
30
0
41
1
10
41.4028022221273
20
-1.33068836604869
30
0
41
1
10
43.5102973329614
20
-2.40454158091779
30
0
41
1
10
44.5636715796511
20
-2.90730255079606
30
0
41
1
10
45.8964790971124
20
-3.46438417201026
30
0
41
1
10
46.1644644167573
20
-3.57244127501915
30
0
41
1
10
46.4556509579265
20
-3.6851338276021
30
0
41
1
10
46.4799316950641
20
-3.69449498962302
30
0
41
1
10
46.5042054521477
20
-3.70381747671411
30
0
0
SPLINE
5
C4
100
AcDbEntity
8
1
62
256
6
ByLayer
370
13
48
1
60
0
100
AcDbSpline
70
4
71
3
72
20
73
16
40
0
40
0
40
0
40
0
40
0.0833256642905677
40
0.0833256642905677
40
0.266660531432452
40
0.266660531432452
40
0.633330265716225
40
0.633330265716225
40
0.724997699287169
40
0.724997699287169
40
0.816665132858113
40
0.816665132858113
40
0.908332566429056
40
0.908332566429056
40
1
40
1
40
1
40
1
41
1
10
46.5042054515716
20
-3.70381747649287
30
0
41
1
10
46.7466752262493
20
-3.79693949863236
30
0
41
1
10
46.9884485348065
20
-3.88620255657239
30
0
41
1
10
47.7604492447235
20
-4.15903866112018
30
0
41
1
10
48.2885694522623
20
-4.32733495176393
30
0
41
1
10
49.8702615770812
20
-4.76982834995891
30
0
41
1
10
50.9211489307621
20
-4.98161327045702
30
0
41
1
10
52.2465042524963
20
-5.12944729618178
30
0
41
1
10
52.5121801433362
20
-5.15316365090933
30
0
41
1
10
53.0451409627057
20
-5.1886224311796
30
0
41
1
10
53.3128362203061
20
-5.2003633329594
30
0
41
1
10
53.8476112484256
20
-5.21147461192513
30
0
41
1
10
54.1147766035753
20
-5.21087549852447
30
0
41
1
10
54.649071187341
20
-5.19736432070769
30
0
41
1
10
54.9162125251361
20
-5.18412832391849
30
0
41
1
10
55.183504717263
20
-5.16538036802996
30
0
0
SPLINE
5
C5
100
AcDbEntity
8
1
62
256
6
ByLayer
370
18
48
1
60
0
100
AcDbSpline
70
4
71
3
72
14
73
10
40
0
40
0
40
0
40
0
40
0.25
40
0.25
40
0.5
40
0.5
40
0.75
40
0.75
40
1
40
1
40
1
40
1
41
1
10
54.3145676069613
20
1.25384300182208
30
0
41
1
10
54.3051656590405
20
1.28255464199896
30
0
41
1
10
54.299576565089
20
1.31233550092443
30
0
41
1
10
54.2996766707022
20
1.37396615884322
30
0
41
1
10
54.3059898299425
20
1.40495169805425
30
0
41
1
10
54.3332535426997
20
1.46265763305138
30
0
41
1
10
54.3563437124357
20
1.48644560851335
30
0
41
1
10
54.4110471635897
20
1.51964582163546
30
0
41
1
10
54.4417433918965
20
1.52950179770448
30
0
41
1
10
54.4731726601013
20
1.53523179865448
30
0
0
SPLINE
5
C6
100
AcDbEntity
8
1
62
256
6
ByLayer
370
18
48
1
60
0
100
AcDbSpline
70
4
71
3
72
40
73
36
40
0
40
0
40
0
40
0
40
0.25
40
0.25
40
0.374999999999997
40
0.374999999999997
40
0.437499999999996
40
0.437499999999996
40
0.499999999999995
40
0.499999999999995
40
0.624999999999992
40
0.624999999999992
40
0.687499999999993
40
0.687499999999993
40
0.718749999999994
40
0.718749999999994
40
0.749999999999995
40
0.749999999999995
40
0.781249999999995
40
0.781249999999995
40
0.812499999999996
40
0.812499999999996
40
0.843749999999997
40
0.843749999999997
40
0.874999999999997
40
0.874999999999997
40
0.890624999999998
40
0.890624999999998
40
0.906249999999998
40
0.906249999999998
40
0.937499999999999
40
0.937499999999999
40
0.968749999999999
40
0.968749999999999
40
1
40
1
40
1
40
1
41
1
10
49.5810124173279
20
2.28481275918392
30
0
41
1
10
50.0169974605789
20
1.96215711876752
30
0
41
1
10
50.4599839222103
20
1.66846520354531
30
0
41
1
10
51.1378000888201
20
1.2830981477826
30
0
41
1
10
51.3659544993586
20
1.16380840356624
30
0
41
1
10
51.7119542980538
20
1.00046214487236
30
0
41
1
10
51.8279174420674
20
0.948619093560353
30
0
41
1
10
52.0612153148638
20
0.850607013281632
30
0
41
1
10
52.1787771503072
20
0.804374451726858
30
0
41
1
10
52.5296542757962
20
0.676466985073546
30
0
41
1
10
52.7623003888522
20
0.604959604316349
30
0
41
1
10
53.1090857738248
20
0.521329729630281
30
0
41
1
10
53.2243148144613
20
0.497414617247785
30
0
41
1
10
53.3965560414642
20
0.468059932120269
30
0
41
1
10
53.4538758007869
20
0.459360318708633
30
0
41
1
10
53.5682774440154
20
0.444257584227017
30
0
41
1
10
53.625367616137
20
0.437333875185544
30
0
41
1
10
53.7381926647732
20
0.428878963151249
30
0
41
1
10
53.7938472594948
20
0.42735098995567
30
0
41
1
10
53.9022465859851
20
0.432384875376925
30
0
41
1
10
53.9553523616551
20
0.439117502549351
30
0
41
1
10
54.0557459946752
20
0.462298953672445
30
0
41
1
10
54.1030761239634
20
0.478886494198008
30
0
41
1
10
54.1908624833548
20
0.524043211070051
30
0
41
1
10
54.2317776967856
20
0.553046473884734
30
0
41
1
10
54.2831749413701
20
0.606311461227136
30
0
41
1
10
54.2987322977526
20
0.625721440610818
30
0
41
1
10
54.3261396319848
20
0.668436905966331
30
0
41
1
10
54.3379610134177
20
0.691920803876002
30
0
41
1
10
54.3660467468713
20
0.766154075233487
30
0
41
1
10
54.3759633166234
20
0.821580337025978
30
0
41
1
10
54.3801319339492
20
0.939854571859627
30
0
41
1
10
54.3745871364012
20
1.00098292733824
30
0
41
1
10
54.3522854343652
20
1.12616605896309
30
0
41
1
10
54.3353920616108
20
1.19024934508076
30
0
41
1
10
54.3145676069613
20
1.25384300182208
30
0
0
SPLINE
5
C7
100
AcDbEntity
8
1
62
256
6
ByLayer
370
18
48
1
60
0
100
AcDbSpline
70
4
71
3
72
94
73
90
40
0
40
0
40
0
40
0
40
0.0330627684924692
40
0.0330627684924692
40
0.0495941527387039
40
0.0495941527387039
40
0.0661255369849385
40
0.0661255369849385
40
0.0991883054774069
40
0.0991883054774069
40
0.115719689723641
40
0.115719689723641
40
0.132251073969875
40
0.132251073969875
40
0.148782458216109
40
0.148782458216109
40
0.165313842462344
40
0.165313842462344
40
0.198376610954812
40
0.198376610954812
40
0.23143937944728
40
0.23143937944728
40
0.264502147939749
40
0.264502147939749
40
0.281033532185982
40
0.281033532185982
40
0.297564916432216
40
0.297564916432216
40
0.31409630067845
40
0.31409630067845
40
0.330627684924684
40
0.330627684924684
40
0.36369045341715
40
0.36369045341715
40
0.380221837663384
40
0.380221837663384
40
0.396753221909618
40
0.396753221909618
40
0.413284606155852
40
0.413284606155852
40
0.429815990402085
40
0.429815990402085
40
0.462878758894554
40
0.462878758894554
40
0.495941527387022
40
0.495941527387022
40
0.52900429587949
40
0.52900429587949
40
0.545535680125724
40
0.545535680125724
40
0.562067064371958
40
0.562067064371958
40
0.578598448618191
40
0.578598448618191
40
0.595129832864425
40
0.595129832864425
40
0.628192601356892
40
0.628192601356892
40
0.644723985603126
40
0.644723985603126
40
0.661255369849359
40
0.661255369849359
40
0.694318138341826
40
0.694318138341826
40
0.727380906834292
40
0.727380906834292
40
0.760443675326759
40
0.760443675326759
40
0.793506443819226
40
0.793506443819226
40
0.81003782806546
40
0.81003782806546
40
0.826569212311693
40
0.826569212311693
40
0.843100596557927
40
0.843100596557927
40
0.85963198080416
40
0.85963198080416
40
0.892694749296627
40
0.892694749296627
40
0.90922613354286
40
0.90922613354286
40
0.925757517789094
40
0.925757517789094
40
0.95882028628156
40
0.95882028628156
40
0.991883054774027
40
0.991883054774027
40
1
40
1
40
1
40
1
41
1
10
16.750219664065
20
4.17434385899608
30
0
41
1
10
17.1512731616456
20
4.31466150092612
30
0
41
1
10
17.5525192451017
20
4.44211454129888
30
0
41
1
10
18.1534763873217
20
4.61581495583934
30
0
41
1
10
18.353640687279
20
4.67078345411068
30
0
41
1
10
18.7535396246365
20
4.77486842976447
30
0
41
1
10
18.9534698284436
20
4.8238053935217
30
0
41
1
10
19.5545278056561
20
4.96035608688817
30
0
41
1
10
19.9569441277648
20
5.03842982976775
30
0
41
1
10
20.5582942678367
20
5.13578637001214
30
0
41
1
10
20.7582706759663
20
5.16492616281613
30
0
41
1
10
21.1587060722885
20
5.21597527132786
30
0
41
1
10
21.3590169873432
20
5.237976218461
30
0
41
1
10
21.7595917607516
20
5.27508864099539
30
0
41
1
10
21.9598682331161
20
5.29019516131677
30
0
41
1
10
22.3602302032929
20
5.31348364434939
30
0
41
1
10
22.5601677907741
20
5.32166716185483
30
0
41
1
10
23.1610657623044
20
5.33549023605391
30
0
41
1
10
23.563693090929
20
5.33051917608427
30
0
41
1
10
24.3652880338079
20
5.29251808951253
30
0
41
1
10
24.7645691021088
20
5.25920747903788
30
0
41
1
10
25.5655748010094
20
5.16560068275527
30
0
41
1
10
25.9664868069079
20
5.10523311141591
30
0
41
1
10
26.5678176173458
20
4.9934862631099
30
0
41
1
10
26.7684647533994
20
4.95286314297877
30
0
41
1
10
27.1695527759346
20
4.86559585783471
30
0
41
1
10
27.370027518573
20
4.81884263549108
30
0
41
1
10
27.770680549635
20
4.71901979800083
30
0
41
1
10
27.9708669594651
20
4.66595784675198
30
0
41
1
10
28.3707301292086
20
4.55325425822974
30
0
41
1
10
28.5704892618298
20
4.49366325310419
30
0
41
1
10
29.1710959251936
20
4.30699558625116
30
0
41
1
10
29.5730464870774
20
4.17126469093651
30
0
41
1
10
30.1747415768409
20
3.95026759542389
30
0
41
1
10
30.3747533707293
20
3.87360057908194
30
0
41
1
10
30.7750837997498
20
3.71601697122603
30
0
41
1
10
30.975365995816
20
3.63507547805247
30
0
41
1
10
31.3758590009237
20
3.46856087673055
30
0
41
1
10
31.5760902236863
20
3.38301329935837
30
0
41
1
10
31.9763621453965
20
3.20708674006201
30
0
41
1
10
32.1762641158469
20
3.11649882756009
30
0
41
1
10
32.7766100028342
20
2.83870829419385
30
0
41
1
10
33.1791003022716
20
2.64649050352907
30
0
41
1
10
33.9809254987339
20
2.24864111695598
30
0
41
1
10
34.3801396253273
20
2.04187923580227
30
0
41
1
10
35.1807923135974
20
1.62198395642483
30
0
41
1
10
35.5815896634869
20
1.4078623323536
30
0
41
1
10
36.1825193631401
20
1.07857551471281
30
0
41
1
10
36.3830968917299
20
0.967698249567633
30
0
41
1
10
36.7842057105385
20
0.746287404564725
30
0
41
1
10
36.9846914076304
20
0.635376264697612
30
0
41
1
10
37.3853644195257
20
0.412855919609001
30
0
41
1
10
37.5855594402793
20
0.301260543757877
30
0
41
1
10
37.9854554835781
20
0.0770192296679966
30
0
41
1
10
38.1850959037389
20
-0.0357362028714761
30
0
41
1
10
38.7852626002231
20
-0.372012005760268
30
0
41
1
10
39.1866090381304
20
-0.594680607504984
30
0
41
1
10
39.7886381871307
20
-0.927987027559993
30
0
41
1
10
39.9887437974072
20
-1.03898449200551
30
0
41
1
10
40.3889684263168
20
-1.2587127783319
30
0
41
1
10
40.5892117171696
20
-1.36723379211909
30
0
41
1
10
41.1898384318179
20
-1.68969140119648
30
0
41
1
10
41.5899518719523
20
-1.90081241691499
30
0
41
1
10
42.3898308462162
20
-2.31473156696987
30
0
41
1
10
42.7919678820165
20
-2.51507540139636
30
0
41
1
10
43.594032922451
20
-2.90177716520668
30
0
41
1
10
43.9932296052176
20
-3.08918543578309
30
0
41
1
10
44.793539688178
20
-3.44386408241218
30
0
41
1
10
45.1941946846637
20
-3.61194692359032
30
0
41
1
10
45.7948472767134
20
-3.85143308235808
30
0
41
1
10
45.9952090607608
20
-3.92913810060801
30
0
41
1
10
46.3963344696846
20
-4.07825109964247
30
0
41
1
10
46.5968399430768
20
-4.14986395692213
30
0
41
1
10
46.9975398913495
20
-4.28750657340595
30
0
41
1
10
47.1977438957991
20
-4.35352539363981
30
0
41
1
10
47.5976787866251
20
-4.48010723310063
30
0
41
1
10
47.7972724729929
20
-4.54078441238354
30
0
41
1
10
48.3969769044662
20
-4.71297247388736
30
0
41
1
10
48.7979307409615
20
-4.81488831590317
30
0
41
1
10
49.3998359095166
20
-4.949443031507
30
0
41
1
10
49.6001984587412
20
-4.99123022322968
30
0
41
1
10
50.0003849059224
20
-5.06792580355119
30
0
41
1
10
50.2005645923362
20
-5.10273600003134
30
0
41
1
10
50.8010925940182
20
-5.19691286494708
30
0
41
1
10
51.2012652003345
20
-5.2461558048264
30
0
41
1
10
52.0006858814522
20
-5.31726271590648
30
0
41
1
10
52.4021543753247
20
-5.33863693280995
30
0
41
1
10
52.9020052342223
20
-5.3477106102635
30
0
41
1
10
53.0004854949975
20
-5.34864996309554
30
0
41
1
10
53.0989090224409
20
-5.34873455020997
30
0
0
SPLINE
5
C8
100
AcDbEntity
8
1
62
256
6
ByLayer
370
18
48
1
60
0
100
AcDbSpline
70
4
71
3
72
16
73
12
40
0
40
0
40
0
40
0
40
0.216028114551354
40
0.216028114551354
40
0.432056229102707
40
0.432056229102707
40
0.648084343654061
40
0.648084343654061
40
0.864112458205414
40
0.864112458205414
40
1
40
1
40
1
40
1
41
1
10
10.1358263107724
20
-5.05413935759199
30
0
41
1
10
10.5480420905808
20
-5.03069462434476
30
0
41
1
10
10.9595461837488
20
-4.99255084311528
30
0
41
1
10
11.7814354446231
20
-4.88739422449325
30
0
41
1
10
12.1918110497482
20
-4.8205790707099
30
0
41
1
10
13.0144201640974
20
-4.66269686485191
30
0
41
1
10
13.4269070811385
20
-4.57192715575155
30
0
41
1
10
14.2496711618887
20
-4.36219870671729
30
0
41
1
10
14.6604991281429
20
-4.24455643492266
30
0
41
1
10
15.3297257674719
20
-4.03488487119674
30
0
41
1
10
15.587940632488
20
-3.94908779723397
30
0
41
1
10
15.8463418022562
20
-3.8591319574972
30
0
0
SPLINE
5
C9
100
AcDbEntity
8
1
62
256
6
ByLayer
370
18
48
1
60
0
100
AcDbSpline
70
4
71
3
72
30
73
26
40
0
40
0
40
0
40
0
40
0.0498279217685176
40
0.0498279217685176
40
0.168599431547452
40
0.168599431547452
40
0.227985186436918
40
0.227985186436918
40
0.287370941326384
40
0.287370941326384
40
0.406142451105313
40
0.406142451105313
40
0.465528205994779
40
0.465528205994779
40
0.524913960884245
40
0.524913960884245
40
0.64368547066318
40
0.64368547066318
40
0.703071225552648
40
0.703071225552648
40
0.762456980442118
40
0.762456980442118
40
0.881228490221059
40
0.881228490221059
40
1
40
1
40
1
40
1
41
1
10
39.2115560059745
20
5.0996291827505
30
0
41
1
10
39.3836509637025
20
5.09784660480716
30
0
41
1
10
39.555837476315
20
5.09365146638609
30
0
41
1
10
40.1391502786679
20
5.07185335037741
30
0
41
1
10
40.5510061636761
20
5.04107402649979
30
0
41
1
10
41.166412139788
20
4.97517264634601
30
0
41
1
10
41.3714412617521
20
4.95018770342455
30
0
41
1
10
41.7816537278711
20
4.89259893804154
30
0
41
1
10
41.9867714258663
20
4.85999283842301
30
0
41
1
10
42.6021401076336
20
4.75236218674593
30
0
41
1
10
43.0120752018341
20
4.66765857555862
30
0
41
1
10
43.62920729166
20
4.5207091508646
30
0
41
1
10
43.8349555044506
20
4.46866083556478
30
0
41
1
10
44.2458213092357
20
4.35916978098496
30
0
41
1
10
44.4510339527666
20
4.30159382161082
30
0
41
1
10
45.0661149855645
20
4.11890105255537
30
0
41
1
10
45.475958867244
20
3.98416485877232
30
0
41
1
10
46.0917280575909
20
3.76672878786405
30
0
41
1
10
46.2970707150981
20
3.69155292909321
30
0
41
1
10
46.7079859091601
20
3.5360393002299
30
0
41
1
10
46.9136347549326
20
3.45557791863132
30
0
41
1
10
47.5300752257547
20
3.20869729494399
30
0
41
1
10
47.940555344589
20
3.03593676863844
30
0
41
1
10
48.7605055574324
20
2.67163870576556
30
0
41
1
10
49.1702088665437
20
2.48125936220933
30
0
41
1
10
49.5810124173278
20
2.28481275918395
30
0
0
SPLINE
5
CA
100
AcDbEntity
8
1
62
256
6
ByLayer
370
18
48
1
60
0
100
AcDbSpline
70
4
71
3
72
8
73
4
40
0
40
0
40
0
40
0
40
1
40
1
40
1
40
1
41
1
10
55.1306836985551
20
-5.30765378683134
30
0
41
1
10
55.1483059461436
20
-5.2602570994575
30
0
41
1
10
55.1659134693954
20
-5.21283124527389
30
0
41
1
10
55.1835047172717
20
-5.16538036803365
30
0
0
SPLINE
5
CB
100
AcDbEntity
8
1
62
256
6
ByLayer
370
18
48
1
60
0
100
AcDbSpline
70
4
71
3
72
8
73
4
40
0
40
0
40
0
40
0
40
1
40
1
40
1
40
1
41
1
10
4.00067444839993
20
2.77693185086704
30
0
41
1
10
4.00039545303048
20
2.78016720712091
30
0
41
1
10
4.00025525159711
20
2.7834113931176
30
0
41
1
10
4.00025527034319
20
2.78665131133329
30
0
0
SPLINE
5
CC
100
AcDbEntity
8
1
62
256
6
ByLayer
370
18
48
1
60
0
100
AcDbSpline
70
4
71
3
72
22
73
18
40
0
40
0
40
0
40
0
40
0.25
40
0.25
40
0.375
40
0.375
40
0.5
40
0.5
40
0.625
40
0.625
40
0.75
40
0.75
40
0.875
40
0.875
40
0.9375
40
0.9375
40
1
40
1
40
1
40
1
41
1
10
56.1908312264268
20
-2.62697956077204
30
0
41
1
10
56.1097075148285
20
-2.84552998804776
30
0
41
1
10
56.0284351079566
20
-3.06380665903345
30
0
41
1
10
55.9061020588455
20
-3.39044025000828
30
0
41
1
10
55.8652493892379
20
-3.49915240207255
30
0
41
1
10
55.7835401977259
20
-3.71643667061537
30
0
41
1
10
55.7426686561258
20
-3.82500312097741
30
0
41
1
10
55.6608492405605
20
-4.04179510438138
30
0
41
1
10
55.6199035601209
20
-4.15003043419594
30
0
41
1
10
55.5378795933144
20
-4.36590884625903
30
0
41
1
10
55.4967972906929
20
-4.47349218687557
30
0
41
1
10
55.4146632419579
20
-4.68835816546937
30
0
41
1
10
55.3735890128974
20
-4.79557172974867
30
0
41
1
10
55.3119504577735
20
-4.95556332590735
30
0
41
1
10
55.2913997059602
20
-5.00875477305593
30
0
41
1
10
55.2502825903666
20
-5.11466219169449
30
0
41
1
10
55.229716880851
20
-5.16739808936529
30
0
41
1
10
55.209149457282
20
-5.22008178409621
30
0
0
SPLINE
5
CD
100
AcDbEntity
8
1
62
256
6
ByLayer
370
18
48
1
60
0
100
AcDbSpline
70
4
71
3
72
20
73
16
40
0
40
0
40
0
40
0
40
0.249999999999992
40
0.249999999999992
40
0.499999999999983
40
0.499999999999983
40
0.624999999999987
40
0.624999999999987
40
0.749999999999991
40
0.749999999999991
40
0.874999999999996
40
0.874999999999996
40
0.937499999999998
40
0.937499999999998
40
1
40
1
40
1
40
1
41
1
10
54.4731726601013
20
1.53523179865445
30
0
41
1
10
54.6562481381451
20
1.56860905250161
30
0
41
1
10
54.8385023953347
20
1.60711918406292
30
0
41
1
10
55.1969565071853
20
1.70114329740324
30
0
41
1
10
55.3735711241674
20
1.75600775019152
30
0
41
1
10
55.6300613740023
20
1.86476070921449
30
0
41
1
10
55.7136014071612
20
1.90534538576517
30
0
41
1
10
55.8727765817574
20
2.00054108973461
30
0
41
1
10
55.9481237347023
20
2.05485149962851
30
0
41
1
10
56.0791448637044
20
2.18512013264288
30
0
41
1
10
56.1349746312029
20
2.26250636655163
30
0
41
1
10
56.1836139867299
20
2.39448836949154
30
0
41
1
10
56.1936332957218
20
2.43981880179521
30
0
41
1
10
56.20119836427
20
2.53320090870972
30
0
41
1
10
56.1985615188555
20
2.58075998592884
30
0
41
1
10
56.1908312264274
20
2.6269795607721
30
0
0
SPLINE
5
CE
100
AcDbEntity
8
1
62
256
6
ByLayer
370
18
48
1
60
0
100
AcDbSpline
70
4
71
3
72
60
73
56
40
0
40
0
40
0
40
0
40
0.0511532933543911
40
0.0511532933543911
40
0.102306586708782
40
0.102306586708782
40
0.153459880063173
40
0.153459880063173
40
0.179036526740368
40
0.179036526740368
40
0.204613173417563
40
0.204613173417563
40
0.255766466771954
40
0.255766466771954
40
0.281343113449149
40
0.281343113449149
40
0.306919760126345
40
0.306919760126345
40
0.358073053480735
40
0.358073053480735
40
0.38364970015793
40
0.38364970015793
40
0.409226346835126
40
0.409226346835126
40
0.460379640189517
40
0.460379640189517
40
0.485956286866712
40
0.485956286866712
40
0.511532933543908
40
0.511532933543908
40
0.562686226898299
40
0.562686226898299
40
0.588262873575495
40
0.588262873575495
40
0.61383952025269
40
0.61383952025269
40
0.664992813607081
40
0.664992813607081
40
0.690569460284277
40
0.690569460284277
40
0.716146106961473
40
0.716146106961473
40
0.767299400315864
40
0.767299400315864
40
0.792876046993058
40
0.792876046993058
40
0.818452693670253
40
0.818452693670253
40
0.869605987024644
40
0.869605987024644
40
0.920759280379034
40
0.920759280379034
40
0.971912573733424
40
0.971912573733424
40
1
40
1
40
1
40
1
41
1
10
55.1306836985551
20
-5.30765378683134
30
0
41
1
10
54.5992204333716
20
-5.3448233808455
30
0
41
1
10
54.0683159519989
20
-5.35708819293345
30
0
41
1
10
53.0044086470719
20
-5.33170486520359
30
0
41
1
10
52.4731986267478
20
-5.29403734031956
30
0
41
1
10
51.4124171719459
20
-5.17019383049166
30
0
41
1
10
50.8822812054107
20
-5.08399646256589
30
0
41
1
10
50.0846906114565
20
-4.91947182102709
30
0
41
1
10
49.818486827455
20
-4.85875214569495
30
0
41
1
10
49.2872869782543
20
-4.72641413624558
30
0
41
1
10
49.021991827695
20
-4.65473671787362
30
0
41
1
10
48.2263615431668
20
-4.42380411942554
30
0
41
1
10
47.6962636251083
20
-4.24865499502081
30
0
41
1
10
46.898803178986
20
-3.9569117914142
30
0
41
1
10
46.6325218586844
20
-3.85477312032637
30
0
41
1
10
46.1011730330948
20
-3.64223563112586
30
0
41
1
10
45.8358111755828
20
-3.53173389745726
30
0
41
1
10
45.0400170531418
20
-3.18844259889141
30
0
41
1
10
44.5098309116722
20
-2.94392858262398
30
0
41
1
10
43.7124484371492
20
-2.55741419341905
30
0
41
1
10
43.4461381400019
20
-2.42514736566602
30
0
41
1
10
42.9146594746012
20
-2.15591362058433
30
0
41
1
10
42.6492297721508
20
-2.01883742809815
30
0
41
1
10
41.8532982850988
20
-1.60120904299774
30
0
41
1
10
41.3230955926149
20
-1.31435408451
30
0
41
1
10
40.5258371547578
20
-0.875819504164781
30
0
41
1
10
40.2595122332797
20
-0.728098492813729
30
0
41
1
10
39.7278772238045
20
-0.431996022359243
30
0
41
1
10
39.4623843941291
20
-0.283513038772213
30
0
41
1
10
38.6663513099991
20
0.162283524108062
30
0
41
1
10
38.1361389400325
20
0.45973357890557
30
0
41
1
10
37.3389830737067
20
0.901710886134225
30
0
41
1
10
37.0726686692184
20
1.04850653062775
30
0
41
1
10
36.5408835270223
20
1.33872175235555
30
0
41
1
10
36.2753347076612
20
1.48219064470143
30
0
41
1
10
35.4791481303381
20
1.90672927620909
30
0
41
1
10
34.9489319415987
20
2.18186283836451
30
0
41
1
10
34.1518479074894
20
2.57832942341668
30
0
41
1
10
33.8855663464427
20
2.70792566221593
30
0
41
1
10
33.3536137014046
20
2.96010364014813
30
0
41
1
10
33.0880090407481
20
3.08267829228953
30
0
41
1
10
32.2917045579653
20
3.43903445782698
30
0
41
1
10
31.7614294853866
20
3.66132548675753
30
0
41
1
10
30.9643452179722
20
3.96836341992895
30
0
41
1
10
30.6981163827127
20
4.066416755978
30
0
41
1
10
30.1660046030621
20
4.25265876125644
30
0
41
1
10
29.9003622190871
20
4.34078780085036
30
0
41
1
10
29.1039333969884
20
4.58951000718315
30
0
41
1
10
28.5736489976607
20
4.73444767524509
30
0
41
1
10
27.5109678502242
20
4.97951641968908
30
0
41
1
10
26.9780328278067
20
5.07965253535906
30
0
41
1
10
25.91588375487
20
5.23101511785762
30
0
41
1
10
25.3855808330568
20
5.28256883653225
30
0
41
1
10
24.5625601627862
20
5.32418099657008
30
0
41
1
10
24.2703222101059
20
5.33144723979856
30
0
41
1
10
23.9781486304538
20
5.33122752193802
30
0
0
SPLINE
5
CF
100
AcDbEntity
8
1
62
256
6
ByLayer
370
13
48
1
60
0
100
AcDbSpline
70
4
71
3
72
15
73
11
40
0
40
0
40
0
40
0
40
0.16049446124935
40
0.16049446124935
40
0.32839556899948
40
0.49629667674961
40
0.49629667674961
40
0.66419778449974
40
0.66419778449974
40
1
40
1
40
1
40
1
41
1
10
4.25049021911005
20
-5.08064418697217
30
0
41
1
10
4.25050308153604
20
-5.08217788616028
30
0
41
1
10
4.25051727952408
20
-5.07526443035783
30
0
41
1
10
4.25054849926079
20
-5.04438536155672
30
0
41
1
10
4.25058284962958
20
-4.99496349742066
30
0
41
1
10
4.25062128661764
20
-4.91026498483379
30
0
41
1
10
4.2506612065385
20
-4.80756547994923
30
0
41
1
10
4.25068198067362
20
-4.74689653660659
30
0
41
1
10
4.25074393325446
20
-4.54168069348168
30
0
41
1
10
4.25078522555947
20
-4.37333697058403
30
0
41
1
10
4.25082231429354
20
-4.17361256647828
30
0
0
SPLINE
5
D0
100
AcDbEntity
8
1
62
256
6
ByLayer
370
18
48
1
60
0
100
AcDbSpline
70
4
71
3
72
27
73
23
40
0
40
0
40
0
40
0
40
0.0995668382998347
40
0.0995668382998347
40
0.199133676599669
40
0.298700514899504
40
0.298700514899504
40
0.348483934049421
40
0.348483934049421
40
0.398267353199339
40
0.398267353199339
40
0.597401029799008
40
0.597401029799008
40
0.696967868098843
40
0.696967868098843
40
0.746751287248761
40
0.746751287248761
40
0.796534706398678
40
0.796534706398678
40
0.995668382998349
40
0.995668382998349
40
1
40
1
40
1
40
1
41
1
10
4.00025527034401
20
2.78665131133329
30
0
41
1
10
4.00025616491499
20
2.94126144686433
30
0
41
1
10
4.00025693366541
20
3.0913500917022
30
0
41
1
10
4.00025824990948
20
3.37774143717735
30
0
41
1
10
4.00025935136301
20
3.65128952422151
30
0
41
1
10
4.00026014116469
20
3.8996671845118
30
0
41
1
10
4.00026065858151
20
4.07641231357124
30
0
41
1
10
4.00026081854702
20
4.13373466759421
30
0
41
1
10
4.00026112034456
20
4.24513970571837
30
0
41
1
10
4.00026126255281
20
4.29936968500388
30
0
41
1
10
4.00026193945524
20
4.55987680401748
30
0
41
1
10
4.00026237849045
20
4.73511080709815
30
0
41
1
10
4.00026319011317
20
4.94967519790498
30
0
41
1
10
4.00026348522965
20
5.0130867778482
30
0
41
1
10
4.0002639970555
20
5.09564961733565
30
0
41
1
10
4.0002641791223
20
5.12103643743643
30
0
41
1
10
4.00026456636479
20
5.16703975230177
30
0
41
1
10
4.00026477201166
20
5.18773840427846
30
0
41
1
10
4.00026586838536
20
5.27990377953083
30
0
41
1
10
4.00026696803999
20
5.31773317426524
30
0
41
1
10
4.00026838430171
20
5.31926146263575
30
0
41
1
10
4.00026841459388
20
5.31927637970804
30
0
41
1
10
4.00026844502534
20
5.31927369748846
30
0
0
SPLINE
5
D1
100
AcDbEntity
8
1
62
256
6
ByLayer
370
18
48
1
60
0
100
AcDbSpline
70
4
71
3
72
8
73
4
40
0
40
0
40
0
40
0
40
1
40
1
40
1
40
1
41
1
10
55.2043789761549
20
-5.07915098983909
30
0
41
1
10
55.1790959380078
20
-5.10031840497442
30
0
41
1
10
55.1575409913486
20
-5.11096727825657
30
0
41
1
10
55.1397709997384
20
-5.11093717323359
30
0
0
SPLINE
5
D2
100
AcDbEntity
8
1
62
256
6
ByLayer
370
18
48
1
60
0
100
AcDbSpline
70
4
71
3
72
82
73
78
40
0
40
0
40
0
40
0
40
0.0327149361020081
40
0.0327149361020081
40
0.0499878836716159
40
0.0499878836716159
40
0.0672608312412236
40
0.0672608312412236
40
0.10180672638044
40
0.10180672638044
40
0.119079673950048
40
0.119079673950048
40
0.136352621519656
40
0.136352621519656
40
0.170898516658872
40
0.170898516658872
40
0.205444411798088
40
0.205444411798088
40
0.222717359367695
40
0.222717359367695
40
0.239990306937303
40
0.239990306937303
40
0.274536202076518
40
0.274536202076518
40
0.309082097215732
40
0.309082097215732
40
0.343627992354947
40
0.343627992354947
40
0.360900939924554
40
0.360900939924554
40
0.378173887494161
40
0.378173887494161
40
0.412719782633377
40
0.412719782633377
40
0.429992730202985
40
0.429992730202985
40
0.447265677772593
40
0.447265677772593
40
0.481811572911807
40
0.481811572911807
40
0.516357468051022
40
0.516357468051022
40
0.533630415620629
40
0.533630415620629
40
0.550903363190236
40
0.550903363190236
40
0.585449258329451
40
0.585449258329451
40
0.602722205899058
40
0.602722205899058
40
0.619995153468665
40
0.619995153468665
40
0.637268101038272
40
0.637268101038272
40
0.654541048607878
40
0.654541048607878
40
0.689086943747092
40
0.689086943747092
40
0.706359891316699
40
0.706359891316699
40
0.723632838886305
40
0.723632838886305
40
0.758178734025517
40
0.758178734025517
40
0.792724629164729
40
0.792724629164729
40
0.827270524303941
40
0.827270524303941
40
0.861816419443152
40
0.861816419443152
40
0.896362314582364
40
0.896362314582364
40
0.930908209721576
40
0.930908209721576
40
0.965454104860788
40
0.965454104860788
40
1
40
1
40
1
40
1
41
1
10
45.8190631545195
20
-3.86291975825955
30
0
41
1
10
45.4305718341885
20
-3.99905673948319
30
0
41
1
10
45.0421500166508
20
-4.12608341392925
30
0
41
1
10
44.4474851149208
20
-4.30261360051381
30
0
41
1
10
44.2415721320052
20
-4.36034326763993
30
0
41
1
10
43.8303444383291
20
-4.46984760678808
30
0
41
1
10
43.6248563980751
20
-4.52178402945776
30
0
41
1
10
43.008957804735
20
-4.66832203363128
30
0
41
1
10
42.5993027134334
20
-4.7529227369682
30
0
41
1
10
41.9836318707582
20
-4.86050946320131
30
0
41
1
10
41.7782897975178
20
-4.89311705876511
30
0
41
1
10
41.3673392665855
20
-4.95071686566544
30
0
41
1
10
41.1617635422528
20
-4.97572536407642
30
0
41
1
10
40.5445736364474
20
-5.04165089828678
30
0
41
1
10
40.1337215129883
20
-5.07216859925316
30
0
41
1
10
39.3127134099286
20
-5.10262313486763
30
0
41
1
10
38.902952348399
20
-5.10513928324514
30
0
41
1
10
38.2869787116102
20
-5.08629736442941
30
0
41
1
10
38.0814480043066
20
-5.0760736581046
30
0
41
1
10
37.6699914446748
20
-5.0492709759499
30
0
41
1
10
37.4639824711356
20
-5.03256965407002
30
0
41
1
10
36.8474518881598
20
-4.9714711022356
30
0
41
1
10
36.4371374673504
20
-4.91535346390251
30
0
41
1
10
35.6161507658662
20
-4.77977827177716
30
0
41
1
10
35.2061745415125
20
-4.6984192969727
30
0
41
1
10
34.3843752992969
20
-4.50943635386156
30
0
41
1
10
33.9719335491193
20
-4.40264130333159
30
0
41
1
10
33.3559174720452
20
-4.22168415493306
30
0
41
1
10
33.1508473104292
20
-4.15816445498706
30
0
41
1
10
32.7404810030725
20
-4.0271711871344
30
0
41
1
10
32.5352697027622
20
-3.9591460876743
30
0
41
1
10
31.9194691647296
20
-3.74720601854389
30
0
41
1
10
31.5090730561331
20
-3.59528933897846
30
0
41
1
10
30.8922240936083
20
-3.35147420673025
30
0
41
1
10
30.686239874811
20
-3.26750787339233
30
0
41
1
10
30.2750180607119
20
-3.09488798070848
30
0
41
1
10
30.0695492027384
20
-3.00642314811088
30
0
41
1
10
29.4535442185805
20
-2.73621998084269
30
0
41
1
10
29.0436992506131
20
-2.54791061806461
30
0
41
1
10
28.2223945801536
20
-2.15908753996209
30
0
41
1
10
27.8110641214457
20
-1.95826161085697
30
0
41
1
10
27.1939336108835
20
-1.64737730214554
30
0
41
1
10
26.9883837503657
20
-1.54276789795506
30
0
41
1
10
26.5773873188292
20
-1.33221957530418
30
0
41
1
10
26.371961838391
20
-1.22620907498756
30
0
41
1
10
25.755989994738
20
-0.905516202166893
30
0
41
1
10
25.3460548736106
20
-0.687668353473924
30
0
41
1
10
24.7296729545266
20
-0.359989080346566
30
0
41
1
10
24.5240167396962
20
-0.250473054243201
30
0
41
1
10
24.1122062561165
20
-0.0308475713246139
30
0
41
1
10
23.9061945215032
20
0.0792159214676076
30
0
41
1
10
23.4950506750645
20
0.299164321417294
30
0
41
1
10
23.2896346261475
20
0.408893122763885
30
0
41
1
10
22.8788218179527
20
0.627178069117264
30
0
41
1
10
22.6734669012379
20
0.735704770717177
30
0
41
1
10
22.0573354554887
20
1.05948778862191
30
0
41
1
10
21.6470273815776
20
1.27422686007864
30
0
41
1
10
21.0299479017025
20
1.58933297085216
30
0
41
1
10
20.8237990917739
20
1.69323471069265
30
0
41
1
10
20.4118516337697
20
1.89862600852714
30
0
41
1
10
20.2060669268458
20
2.00003464032506
30
0
41
1
10
19.5896015891714
20
2.30042270617835
30
0
41
1
10
19.1792817102737
20
2.49392215928791
30
0
41
1
10
18.357424616579
20
2.86632318718355
30
0
41
1
10
17.9465341171584
20
3.04517330954147
30
0
41
1
10
17.1227408742499
20
3.3863293888254
30
0
41
1
10
16.711146197063
20
3.54685894842899
30
0
41
1
10
15.8897293361177
20
3.84714743313447
30
0
41
1
10
15.4797628946661
20
3.98792195573284
30
0
41
1
10
14.6581921313707
20
4.24523461682202
30
0
41
1
10
14.2470055376909
20
4.3629498021013
30
0
41
1
10
13.4231912890871
20
4.57280217225633
30
0
41
1
10
13.0120700628524
20
4.66318365341223
30
0
41
1
10
12.1905207332951
20
4.82079082367403
30
0
41
1
10
11.7805663107712
20
4.88751835863042
30
0
41
1
10
10.9592880010009
20
4.99257092573276
30
0
41
1
10
10.5479724833595
20
5.03069858324884
30
0
41
1
10
10.1358263107725
20
5.05413935759194
30
0
0
SPLINE
5
D3
100
AcDbEntity
8
1
62
256
6
ByLayer
370
18
48
1
60
0
100
AcDbSpline
70
4
71
3
72
24
73
20
40
0
40
0
40
0
40
0
40
0.188092980750795
40
0.188092980750795
40
0.282139471126193
40
0.282139471126193
40
0.37618596150159
40
0.37618596150159
40
0.564278942252385
40
0.564278942252385
40
0.658325432627783
40
0.658325432627783
40
0.75237192300318
40
0.75237192300318
40
0.846418413378578
40
0.846418413378578
40
0.940464903753975
40
0.940464903753975
40
1
40
1
40
1
40
1
41
1
10
16.750219664065
20
-4.17434385899611
30
0
41
1
10
17.1512731616456
20
-4.31466150092612
30
0
41
1
10
17.5525192451018
20
-4.44211454129891
30
0
41
1
10
18.1534763873218
20
-4.61581495583937
30
0
41
1
10
18.3536406872791
20
-4.6707834541107
30
0
41
1
10
18.7535396246366
20
-4.7748684297645
30
0
41
1
10
18.9534698284437
20
-4.82380539352172
30
0
41
1
10
19.5545278056563
20
-4.96035608688822
30
0
41
1
10
19.956944127765
20
-5.03842982976781
30
0
41
1
10
20.558294267837
20
-5.13578637001217
30
0
41
1
10
20.7582706759666
20
-5.16492616281616
30
0
41
1
10
21.1587060722889
20
-5.21597527132789
30
0
41
1
10
21.3590169873435
20
-5.23797621846103
30
0
41
1
10
21.759591760752
20
-5.27508864099542
30
0
41
1
10
21.9598682331165
20
-5.2901951613168
30
0
41
1
10
22.3602302032933
20
-5.31348364434939
30
0
41
1
10
22.5601677907745
20
-5.32166716185483
30
0
41
1
10
22.8872643983383
20
-5.32919170161173
30
0
41
1
10
23.0142649246347
20
-5.33068728696034
30
0
41
1
10
23.1413463378063
20
-5.33076658654383
30
0
0
SPLINE
5
D4
100
AcDbEntity
8
1
62
256
6
ByLayer
370
18
48
1
60
0
100
AcDbSpline
70
4
71
3
72
30
73
26
40
0
40
0
40
0
40
0
40
0.0411085344485685
40
0.0411085344485685
40
0.105034632151996
40
0.105034632151996
40
0.168960729855424
40
0.168960729855424
40
0.232886827558852
40
0.232886827558852
40
0.36073902296571
40
0.36073902296571
40
0.424665120669139
40
0.424665120669139
40
0.488591218372569
40
0.488591218372569
40
0.616443413779427
40
0.616443413779427
40
0.744295609186286
40
0.744295609186286
40
0.808221706889715
40
0.808221706889715
40
0.872147804593145
40
0.872147804593145
40
1
40
1
40
1
40
1
41
1
10
45.8090823455286
20
3.8562274293339
30
0
41
1
10
45.9379057782062
20
3.90650347763955
30
0
41
1
10
46.0667972283507
20
3.95575004322555
30
0
41
1
10
46.3963344696867
20
4.07825109964327
30
0
41
1
10
46.596839943079
20
4.1498639569229
30
0
41
1
10
46.9975398913517
20
4.28750657340669
30
0
41
1
10
47.1977438958012
20
4.35352539364055
30
0
41
1
10
47.5976787866274
20
4.48010723310131
30
0
41
1
10
47.7972724729952
20
4.54078441238423
30
0
41
1
10
48.3969769044685
20
4.71297247388799
30
0
41
1
10
48.7979307409638
20
4.81488831590374
30
0
41
1
10
49.399835909519
20
4.94944303150751
30
0
41
1
10
49.6001984587436
20
4.99123022323019
30
0
41
1
10
50.0003849059248
20
5.06792580355164
30
0
41
1
10
50.2005645923385
20
5.10273600003174
30
0
41
1
10
50.8010925940206
20
5.19691286494739
30
0
41
1
10
51.2012652003369
20
5.24615580482669
30
0
41
1
10
52.0006858814548
20
5.31726271590662
30
0
41
1
10
52.4021543753273
20
5.33863693281006
30
0
41
1
10
53.00414204363
20
5.34956467622774
30
0
41
1
10
53.204615926538
20
5.34968497687831
30
0
41
1
10
53.6049963114983
20
5.34278634347572
30
0
41
1
10
53.8050524337607
20
5.33575240780851
30
0
41
1
10
54.4064160541111
20
5.30418318073785
30
0
41
1
10
54.8085164825412
20
5.26917057836138
30
0
41
1
10
55.2091494572707
20
5.22008178409777
30
0
0
SPLINE
5
D5
100
AcDbEntity
8
1
62
256
6
ByLayer
370
18
48
1
60
0
100
AcDbSpline
70
4
71
3
72
28
73
24
40
0
40
0
40
0
40
0
40
0.0624999999999992
40
0.0624999999999992
40
0.124999999999998
40
0.124999999999998
40
0.249999999999997
40
0.249999999999997
40
0.312499999999995
40
0.312499999999995
40
0.374999999999992
40
0.374999999999992
40
0.499999999999991
40
0.499999999999991
40
0.562499999999991
40
0.562499999999991
40
0.62499999999999
40
0.62499999999999
40
0.749999999999994
40
0.749999999999994
40
0.874999999999997
40
0.874999999999997
40
1
40
1
40
1
40
1
41
1
10
49.5810124173271
20
2.28481275918355
30
0
41
1
10
49.60569506832
20
2.14669502891704
30
0
41
1
10
49.6401688280385
20
2.00742780711025
30
0
41
1
10
49.7273428326948
20
1.72675354550745
30
0
41
1
10
49.7804593277911
20
1.58462643026664
30
0
41
1
10
49.9600454546288
20
1.16741487918196
30
0
41
1
10
50.1073092641047
20
0.897586877022178
30
0
41
1
10
50.3596987303478
20
0.502351452586453
30
0
41
1
10
50.4491287331048
20
0.372352271340048
30
0
41
1
10
50.6339205916448
20
0.120033945218353
30
0
41
1
10
50.7297162165954
20
-0.0029779544953215
30
0
41
1
10
51.0259526655743
20
-0.363821173218668
30
0
41
1
10
51.2352009022441
20
-0.593499042745123
30
0
41
1
10
51.5632703890586
20
-0.92487287284581
30
0
41
1
10
51.675348786826
20
-1.03343255950713
30
0
41
1
10
51.901761751132
20
-1.24456301095753
30
0
41
1
10
52.0161342971526
20
-1.34721509833264
30
0
41
1
10
52.3623971474943
20
-1.64731378183976
30
0
41
1
10
52.5974250669786
20
-1.83692177897703
30
0
41
1
10
53.0746954007373
20
-2.19811404227445
30
0
41
1
10
53.3169149060572
20
-2.36975554110879
30
0
41
1
10
53.8074010660553
20
-2.69793114784025
30
0
41
1
10
54.0556776475198
20
-2.85444045597848
30
0
41
1
10
54.3067513151071
20
-3.00396189743139
30
0
0
SPLINE
5
D6
100
AcDbEntity
8
1
62
256
6
ByLayer
370
18
48
1
60
0
100
AcDbSpline
70
4
71
3
72
67
73
63
40
0
40
0
40
0
40
0
40
0.124999999999996
40
0.124999999999996
40
0.249999999999993
40
0.249999999999993
40
0.374999999999989
40
0.374999999999989
40
0.499999999999985
40
0.499999999999985
40
0.562499999999984
40
0.562499999999984
40
0.624999999999982
40
0.624999999999982
40
0.687499999999981
40
0.687499999999981
40
0.69531249999998
40
0.69531249999998
40
0.69921874999998
40
0.69921874999998
40
0.703124999999979
40
0.703124999999979
40
0.705078124999979
40
0.705078124999979
40
0.707031249999979
40
0.707031249999979
40
0.708984374999979
40
0.708984374999979
40
0.71093749999998
40
0.71874999999998
40
0.71874999999998
40
0.749999999999983
40
0.749999999999983
40
0.765624999999984
40
0.765624999999984
40
0.781249999999986
40
0.781249999999986
40
0.796874999999987
40
0.796874999999987
40
0.812499999999988
40
0.812499999999988
40
0.820312499999989
40
0.820312499999989
40
0.82812499999999
40
0.82812499999999
40
0.843749999999991
40
0.843749999999991
40
0.851562499999992
40
0.851562499999992
40
0.859374999999992
40
0.859374999999992
40
0.874999999999993
40
0.874999999999993
40
0.890624999999994
40
0.890624999999994
40
0.906249999999995
40
0.906249999999995
40
0.937499999999997
40
0.937499999999997
40
0.968749999999998
40
0.968749999999998
40
1
40
1
40
1
40
1
41
1
10
16.7502185027714
20
-4.17436756679439
30
0
41
1
10
16.0177570953215
20
-3.91868651679371
30
0
41
1
10
15.2767904995848
20
-3.63796481737953
30
0
41
1
10
13.7712744524322
20
-3.05567687144165
30
0
41
1
10
13.0144567606561
20
-2.75740092586994
30
0
41
1
10
11.483109282397
20
-2.18197569763018
30
0
41
1
10
10.7084953118333
20
-1.90506917465768
30
0
41
1
10
9.13338813362051
20
-1.40667323826014
30
0
41
1
10
8.33289518536117
20
-1.18529297449402
30
0
41
1
10
7.10895368281675
20
-0.914806440517793
30
0
41
1
10
6.69648635899773
20
-0.834735344821382
30
0
41
1
10
5.86642721516779
20
-0.698078153878157
30
0
41
1
10
5.4498755444701
20
-0.641616103678132
30
0
41
1
10
4.6135730983419
20
-0.553941458708067
30
0
41
1
10
4.19357262991272
20
-0.522715860451456
30
0
41
1
10
3.72048983270162
20
-0.502703155779159
30
0
41
1
10
3.6679115992961
20
-0.500689045156321
30
0
41
1
10
3.58903348192183
20
-0.497984719916701
30
0
41
1
10
3.56274270801197
20
-0.497136209698368
30
0
41
1
10
3.51016503323899
20
-0.495545323839849
30
0
41
1
10
3.48384893126789
20
-0.494002449172143
30
0
41
1
10
3.44457437835905
20
-0.497159928816757
30
0
41
1
10
3.43151091401251
20
-0.49898146661917
30
0
41
1
10
3.40545912320133
20
-0.504683668250664
30
0
41
1
10
3.39226303999149
20
-0.50864729465178
30
0
41
1
10
3.3676976649341
20
-0.519205676443363
30
0
41
1
10
3.35650745440813
20
-0.526289895106544
30
0
41
1
10
3.33376117156485
20
-0.539850258971654
30
0
41
1
10
3.27702328535008
20
-0.573955150638255
30
0
41
1
10
3.22093683373458
20
-0.609099099698312
30
0
41
1
10
2.99887443521669
20
-0.753308790750964
30
0
41
1
10
2.83007040679138
20
-0.878965891399446
30
0
41
1
10
2.59772477557453
20
-1.08868272261938
30
0
41
1
10
2.52373026974493
20
-1.16220426151168
30
0
41
1
10
2.38465536341204
20
-1.3185054381207
30
0
41
1
10
2.32007989318618
20
-1.40088943296578
30
0
41
1
10
2.20623300331829
20
-1.5719170558113
30
0
41
1
10
2.15644817749868
20
-1.66114768514476
30
0
41
1
10
2.07503858096334
20
-1.84791741048804
30
0
41
1
10
2.0448015051108
20
-1.94236095831815
30
0
41
1
10
2.01575966135627
20
-2.08552240433659
30
0
41
1
10
2.00880083574629
20
-2.13349245259619
30
0
41
1
10
2.00046561759314
20
-2.2299185952827
30
0
41
1
10
1.99911933930761
20
-2.27866092295713
30
0
41
1
10
2.00347210095231
20
-2.4222270765224
30
0
41
1
10
2.01732246164943
20
-2.51510890806645
30
0
41
1
10
2.05211126778173
20
-2.65065213703383
30
0
41
1
10
2.06613231366274
20
-2.69540087602854
30
0
41
1
10
2.09807928454117
20
-2.78249431657244
30
0
41
1
10
2.11597914304309
20
-2.82485898518792
30
0
41
1
10
2.17470114839364
20
-2.94883228504492
30
0
41
1
10
2.22051094663669
20
-3.02733977864943
30
0
41
1
10
2.32258889682109
20
-3.17768551401966
30
0
41
1
10
2.37919043201671
20
-3.24984680094474
30
0
41
1
10
2.49906194631262
20
-3.38649897095613
30
0
41
1
10
2.56232182175728
20
-3.45109245808496
30
0
41
1
10
2.75986251408943
20
-3.63594029620316
30
0
41
1
10
2.90179112682193
20
-3.74737886553305
30
0
41
1
10
3.1994267628842
20
-3.95352357006456
30
0
41
1
10
3.35562155297762
20
-4.04829463687338
30
0
41
1
10
3.67340937449404
20
-4.22214089344985
30
0
41
1
10
3.83562413936556
20
-4.3016337309661
30
0
41
1
10
4.0002854134728
20
-4.37525472355446
30
0
0
SPLINE
5
D7
100
AcDbEntity
8
1
62
256
6
ByLayer
370
18
48
1
60
0
100
AcDbSpline
70
4
71
3
72
8
73
4
40
0
40
0
40
0
40
0
40
1
40
1
40
1
40
1
41
1
10
9.17823542411384
20
5.08412802901722
30
0
41
1
10
9.49559521841275
20
5.08270759824444
30
0
41
1
10
9.81466151728213
20
5.07232021725133
30
0
41
1
10
10.1358767853357
20
5.05414145537421
30
0
0
SPLINE
5
D8
100
AcDbEntity
8
1
62
256
6
ByLayer
370
18
48
1
60
0
100
AcDbSpline
70
4
71
3
72
16
73
12
40
0
40
0
40
0
40
0
40
0.25
40
0.25
40
0.5
40
0.5
40
0.75
40
0.75
40
0.875
40
0.875
40
1
40
1
40
1
40
1
41
1
10
10.1358767860041
20
-5.05414145533643
30
0
41
1
10
9.62637536341725
20
-5.08297602817342
30
0
41
1
10
9.12211276323285
20
-5.09222013419404
30
0
41
1
10
8.12049655603488
20
-5.06204072849627
30
0
41
1
10
7.62303656181587
20
-5.02394141899362
30
0
41
1
10
6.63334816960401
20
-4.88883863157068
30
0
41
1
10
6.13913500332859
20
-4.79485261531616
30
0
41
1
10
5.41621988374592
20
-4.60448138962573
30
0
41
1
10
5.17794500863459
20
-4.53283058971854
30
0
41
1
10
4.70840661355834
20
-4.36961319299638
30
0
41
1
10
4.4771061935333
20
-4.27811879039157
30
0
41
1
10
4.25082231626971
20
-4.17361256657452
30
0
0
SPLINE
5
D9
100
AcDbEntity
8
1
62
256
6
ByLayer
370
18
48
1
60
0
100
AcDbSpline
70
4
71
3
72
17
73
13
40
0
40
0
40
0
40
0
40
0.148943609764854
40
0.148943609764854
40
0.319154887811884
40
0.489366165858913
40
0.489366165858913
40
0.574471804882428
40
0.574471804882428
40
0.659577443905943
40
0.659577443905943
40
1
40
1
40
1
40
1
41
1
10
4.0002686173892
20
-5.31907372334399
30
0
41
1
10
4.00026923985848
20
-5.31769576088016
30
0
41
1
10
4.00026991738727
20
-5.3092125286519
30
0
41
1
10
4.00027145706716
20
-5.27615315504187
30
0
41
1
10
4.00027321225807
20
-5.22289531234006
30
0
41
1
10
4.00027516035146
20
-5.13433929057746
30
0
41
1
10
4.00027667493191
20
-5.05453369906127
30
0
41
1
10
4.00027718863322
20
-5.02569623557039
30
0
41
1
10
4.00027822959413
20
-4.96347177719622
30
0
41
1
10
4.00027875831131
20
-4.92998102993189
30
0
41
1
10
4.00028139709161
20
-4.7527006511703
30
0
41
1
10
4.00028350774735
20
-4.57931829909944
30
0
41
1
10
4.00028541349246
20
-4.37525472356327
30
0
0
SPLINE
5
DA
100
AcDbEntity
8
1
62
256
6
ByLayer
370
18
48
1
60
0
100
AcDbSpline
70
4
71
3
72
14
73
10
40
0
40
0
40
0
40
0
40
0.25
40
0.25
40
0.5
40
0.5
40
0.75
40
0.75
40
1
40
1
40
1
40
1
41
1
10
4.25082231429514
20
-4.17361256566724
30
0
41
1
10
4.22314327658648
20
-4.16082936720281
30
0
41
1
10
4.19348939747817
20
-4.15297995509363
30
0
41
1
10
4.13281722492894
20
-4.15501047800259
30
0
41
1
10
4.10210658902952
20
-4.16567333586428
30
0
41
1
10
4.05076010796307
20
-4.20859998241184
30
0
41
1
10
4.03186576131188
20
-4.23894254516313
30
0
41
1
10
4.00744472849982
20
-4.30479357582752
30
0
41
1
10
4.00160054027643
20
-4.34006972876475
30
0
41
1
10
4.00028541349246
20
-4.37525472356327
30
0
0
SPLINE
5
DB
100
AcDbEntity
8
SK1
62
256
6
ByLayer
370
18
48
1
60
0
100
AcDbSpline
70
4
71
3
72
14
73
10
40
0
40
0
40
0
40
0
40
0.25
40
0.25
40
0.5
40
0.5
40
0.75
40
0.75
40
1
40
1
40
1
40
1
41
1
10
-44.9999999999889
20
-1.12022108112865
30
0
41
1
10
-44.9782299506433
20
-1.11889096856891
30
0
41
1
10
-44.9593670260412
20
-1.11746204211187
30
0
41
1
10
-44.9317144953623
20
-1.11433851817546
30
0
41
1
10
-44.9235431322123
20
-1.11267625416514
30
0
41
1
10
-44.9226635023047
20
-1.10932062964707
30
0
41
1
10
-44.9300906428424
20
-1.10764462709577
30
0
41
1
10
-44.9574482272267
20
-1.10453760829481
30
0
41
1
10
-44.9772458850207
20
-1.10309435431944
30
0
41
1
10
-44.9999999999994
20
-1.10180116605971
30
0
0
SPLINE
5
DC
100
AcDbEntity
8
SK1
62
256
6
ByLayer
370
18
48
1
60
0
100
AcDbSpline
70
4
71
3
72
14
73
10
40
0
40
0
40
0
40
0
40
0.125
40
0.125
40
0.250000000000001
40
0.250000000000001
40
0.500000000000001
40
0.500000000000001
40
1
40
1
40
1
40
1
41
1
10
-43.6
20
0.879197176431717
30
0
41
1
10
-43.6
20
0.889966427565213
30
0
41
1
10
-43.6017275532238
20
0.90002767890067
30
0
41
1
10
-43.6068706044715
20
0.917559899173312
30
0
41
1
10
-43.6102509413285
20
0.925116164898924
30
0
41
1
10
-43.6214648736172
20
0.945106446258535
30
0
41
1
10
-43.630377655121
20
0.955029250617798
30
0
41
1
10
-43.6583358931614
20
0.978648994743082
30
0
41
1
10
-43.6789017002764
20
0.986536352529896
30
0
41
1
10
-43.7
20
0.98827270674164
30
0
0
SPLINE
5
DD
100
AcDbEntity
8
SK1
62
256
6
ByLayer
370
18
48
1
60
0
100
AcDbSpline
70
4
71
3
72
14
73
10
40
0
40
0
40
0
40
0
40
0.124999999999999
40
0.124999999999999
40
0.249999999999998
40
0.249999999999998
40
0.499999999999996
40
0.499999999999996
40
1
40
1
40
1
40
1
41
1
10
-43.6
20
-0.879197176431745
30
0
41
1
10
-43.6
20
-0.889966427565241
30
0
41
1
10
-43.6017275532238
20
-0.900027678900699
30
0
41
1
10
-43.6068706044715
20
-0.917559899173341
30
0
41
1
10
-43.6102509413285
20
-0.925116164898952
30
0
41
1
10
-43.6214648736172
20
-0.945106446258563
30
0
41
1
10
-43.630377655121
20
-0.955029250617827
30
0
41
1
10
-43.6583358931614
20
-0.978648994743111
30
0
41
1
10
-43.6789017002764
20
-0.986536352529924
30
0
41
1
10
-43.7
20
-0.988272706741668
30
0
0
SPLINE
5
DE
100
AcDbEntity
8
SK1
62
256
6
ByLayer
370
18
48
1
60
0
100
AcDbSpline
70
4
71
3
72
10
73
6
40
0
40
0
40
0
40
0
40
0.5
40
0.5
40
1
40
1
40
1
40
1
41
1
10
-45
20
-1.40027679241641
30
0
41
1
10
-44.7879264547628
20
-1.41851579208608
30
0
41
1
10
-44.5722802000083
20
-1.43666744826456
30
0
41
1
10
-44.1380884226912
20
-1.47289988103529
30
0
41
1
10
-43.9194336565534
20
-1.49097803287157
30
0
41
1
10
-43.7
20
-1.50903704988937
30
0
0
SPLINE
5
DF
100
AcDbEntity
8
SK1
62
256
6
ByLayer
370
18
48
1
60
0
100
AcDbSpline
70
4
71
3
72
14
73
10
40
0
40
0
40
0
40
0
40
0.500000000000004
40
0.500000000000004
40
0.750000000000007
40
0.750000000000007
40
0.875000000000003
40
0.875000000000003
40
1
40
1
40
1
40
1
41
1
10
-43.7
20
-1.50903704988946
30
0
41
1
10
-43.6789021434844
20
-1.51077336762597
30
0
41
1
10
-43.6585587767127
20
-1.50651992000684
30
0
41
1
10
-43.6303722414292
20
-1.48780241733107
30
0
41
1
10
-43.6214260646625
20
-1.47944270017953
30
0
41
1
10
-43.6102968606991
20
-1.46180625439257
30
0
41
1
10
-43.6069058574072
20
-1.45495664912517
30
0
41
1
10
-43.6017309986994
20
-1.43852689925856
30
0
41
1
10
-43.6
20
-1.42891698202985
30
0
41
1
10
-43.6
20
-1.41832779966876
30
0
0
SPLINE
5
E0
100
AcDbEntity
8
SK1
62
256
6
ByLayer
370
18
48
1
60
0
100
AcDbSpline
70
4
71
3
72
10
73
6
40
0
40
0
40
0
40
0
40
0.5
40
0.5
40
1
40
1
40
1
40
1
41
1
10
-43.7
20
0.988272706741554
30
0
41
1
10
-43.9194039300083
20
1.00632927731519
30
0
41
1
10
-44.1380474569928
20
1.02440647799892
30
0
41
1
10
-44.5722433888257
20
1.06063921564211
30
0
41
1
10
-44.7878994165179
20
1.07879163916974
30
0
41
1
10
-45
20
1.09703296421452
30
0
0
SPLINE
5
E1
100
AcDbEntity
8
SK1
62
256
6
ByLayer
370
18
48
1
60
0
100
AcDbSpline
70
4
71
3
72
10
73
6
40
0
40
0
40
0
40
0
40
0.5
40
0.5
40
1
40
1
40
1
40
1
41
1
10
-43.7
20
-0.988272706741583
30
0
41
1
10
-43.9194039300083
20
-1.00632927731522
30
0
41
1
10
-44.1380474569928
20
-1.02440647799895
30
0
41
1
10
-44.5722433888257
20
-1.06063921564214
30
0
41
1
10
-44.7878994165179
20
-1.07879163916974
30
0
41
1
10
-45
20
-1.09703296421452
30
0
0
LINE
5
76
100
AcDbEntity
8
81
62
256
6
ByLayer
370
18
48
1
60
0
100
AcDbLine
10
57
20
0
30
0
11
62
21
0
31
0
39
0
210
0
220
0
230
1
0
LINE
5
77
100
AcDbEntity
8
1
62
256
6
ByLayer
370
18
48
1
60
0
100
AcDbLine
10
4.00026
20
5.319275
30
0
11
1.311166
21
5.317661
31
0
39
0
210
0
220
0
230
1
0
LINE
5
79
100
AcDbEntity
8
1
62
256
6
ByLayer
370
18
48
1
60
0
100
AcDbLine
10
23.981172
20
5.331263
30
0
11
23.142088
21
5.33076
31
0
39
0
210
0
220
0
230
1
0
LINE
5
7A
100
AcDbEntity
8
1
62
256
6
ByLayer
370
18
48
1
60
0
100
AcDbLine
10
53.931216
20
5.349233
30
0
11
53.101274
21
5.348735
31
0
39
0
210
0
220
0
230
1
0
LINE
5
7B
100
AcDbEntity
8
1
62
256
6
ByLayer
370
18
48
1
60
0
100
AcDbLine
10
53.101274
20
-5.348735
30
0
11
53.931023
21
-5.349233
31
0
39
0
210
0
220
0
230
1
0
LINE
5
7C
100
AcDbEntity
8
1
62
256
6
ByLayer
370
18
48
1
60
0
100
AcDbLine
10
23.142088
20
-5.33076
30
0
11
23.981257
21
-5.331263
31
0
39
0
210
0
220
0
230
1
0
LINE
5
7D
100
AcDbEntity
8
1
62
256
6
ByLayer
370
18
48
1
60
0
100
AcDbLine
10
1.311166
20
-5.317661
30
0
11
4.00026
21
-5.319275
31
0
39
0
210
0
220
0
230
1
0
LINE
5
7E
100
AcDbEntity
8
SK1
62
256
6
ByLayer
370
18
48
1
60
0
100
AcDbLine
10
0
20
6
30
0
11
-43.556624
21
6
31
0
39
0
210
0
220
0
230
1
0
LINE
5
80
100
AcDbEntity
8
SK1
62
256
6
ByLayer
370
18
48
1
60
0
100
AcDbLine
10
-43.556624
20
-6
30
0
11
0
21
-6
31
0
39
0
210
0
220
0
230
1
0
LINE
5
81
100
AcDbEntity
8
SK1
62
256
6
ByLayer
370
18
48
1
60
0
100
AcDbLine
10
-43.556624
20
6
30
0
11
-45
21
3.5
31
0
39
0
210
0
220
0
230
1
0
LINE
5
82
100
AcDbEntity
8
SK1
62
256
6
ByLayer
370
18
48
1
60
0
100
AcDbLine
10
-45
20
-3.5
30
0
11
-43.556624
21
-6
31
0
39
0
210
0
220
0
230
1
0
LINE
5
83
100
AcDbEntity
8
SK4
62
256
6
ByLayer
370
18
48
0.05
60
0
100
AcDbLine
10
62
20
0
30
0
11
-50
21
0
31
0
39
0
210
0
220
0
230
1
0
LINE
5
85
100
AcDbEntity
8
4
62
256
6
ByLayer
370
18
48
0.05
60
0
100
AcDbLine
10
57
20
0
30
0
11
0
21
0
31
0
39
0
210
0
220
0
230
1
0
LINE
5
87
100
AcDbEntity
8
80
62
256
6
ByLayer
370
18
48
1
60
0
100
AcDbLine
10
0
20
0
30
0
11
-5
21
0
31
0
39
0
210
0
220
0
230
1
0
LINE
5
88
100
AcDbEntity
8
1
62
256
6
ByLayer
370
18
48
1
60
0
100
AcDbLine
10
54.306751
20
-3.003962
30
0
11
56.894399
21
-0.120076
31
0
39
0
210
0
220
0
230
1
0
LINE
5
89
100
AcDbEntity
8
1
62
256
6
ByLayer
370
18
48
1
60
0
100
AcDbLine
10
56.9117
20
-0.301685
30
0
11
56.724808
21
-0.991664
31
0
39
0
210
0
220
0
230
1
0
LINE
5
8A
100
AcDbEntity
8
1
62
256
6
ByLayer
370
18
48
1
60
0
100
AcDbLine
10
56.9117
20
0.301685
30
0
11
56.724808
21
0.991664
31
0
39
0
210
0
220
0
230
1
0
LINE
5
8B
100
AcDbEntity
8
1
62
256
6
ByLayer
370
13
48
1
60
0
100
AcDbLine
10
56.724808
20
0.991664
30
0
11
55.518145
21
0.991664
31
0
39
0
210
0
220
0
230
1
0
LINE
5
8C
100
AcDbEntity
8
1
62
256
6
ByLayer
370
13
48
1
60
0
100
AcDbLine
10
55.518145
20
0.991664
30
0
11
56.9117
21
0.301685
31
0
39
0
210
0
220
0
230
1
0
LINE
5
8D
100
AcDbEntity
8
1
62
256
6
ByLayer
370
13
48
1
60
0
100
AcDbLine
10
1.311166
20
5.317661
30
0
11
1.311166
21
-5.317661
31
0
39
0
210
0
220
0
230
1
0
LINE
5
8E
100
AcDbEntity
8
1
62
256
6
ByLayer
370
18
48
1
60
0
100
AcDbLine
10
4.250494
20
5.080852
30
0
11
4.250497
21
5.080638
31
0
39
0
210
0
220
0
230
1
0
LINE
5
8F
100
AcDbEntity
8
1
62
256
6
ByLayer
370
18
48
1
60
0
100
AcDbLine
10
0
20
-6
30
0
11
0
21
6
31
0
39
0
210
0
220
0
230
1
0
LINE
5
90
100
AcDbEntity
8
1
62
256
6
ByLayer
370
18
48
1
60
0
100
AcDbLine
10
57
20
0
30
0
11
55.139771
21
-5.110937
31
0
39
0
210
0
220
0
230
1
0
LINE
5
91
100
AcDbEntity
8
1
62
256
6
ByLayer
370
13
48
1
60
0
100
AcDbLine
10
0.655343
20
5.658831
30
0
11
0.655343
21
-5.658831
31
0
39
0
210
0
220
0
230
1
0
LINE
5
92
100
AcDbEntity
8
1
62
256
6
ByLayer
370
13
48
1
60
0
100
AcDbLine
10
55.348686
20
0.64524
30
0
11
56.894399
21
-0.120076
31
0
39
0
210
0
220
0
230
1
0
LINE
5
93
100
AcDbEntity
8
1
62
256
6
ByLayer
370
18
48
1
60
0
100
AcDbLine
10
57
20
0
30
0
11
56.988733
21
-0.050549
31
0
39
0
210
0
220
0
230
1
0
LINE
5
94
100
AcDbEntity
8
1
62
256
6
ByLayer
370
18
48
1
60
0
100
AcDbLine
10
56.988733
20
0.050549
30
0
11
57
21
0
31
0
39
0
210
0
220
0
230
1
0
LINE
5
95
100
AcDbEntity
8
SK1
62
256
6
ByLayer
370
18
48
1
60
0
100
AcDbLine
10
-45
20
3.5
30
0
11
-45
21
1.097033
31
0
39
0
210
0
220
0
230
1
0
LINE
5
96
100
AcDbEntity
8
SK1
62
256
6
ByLayer
370
18
48
1
60
0
100
AcDbLine
10
-43.556624
20
6
30
0
11
-43.556624
21
-6
31
0
39
0
210
0
220
0
230
1
0
LINE
5
97
100
AcDbEntity
8
SK1
62
256
6
ByLayer
370
18
48
1
60
0
100
AcDbLine
10
-45
20
-1.120221
30
0
11
-45
21
-1.400277
31
0
39
0
210
0
220
0
230
1
0
LINE
5
98
100
AcDbEntity
8
SK1
62
256
6
ByLayer
370
18
48
1
60
0
100
AcDbLine
10
0
20
-6
30
0
11
0
21
6
31
0
39
0
210
0
220
0
230
1
0
LINE
5
99
100
AcDbEntity
8
SK1
62
256
6
ByLayer
370
13
48
1
60
0
100
AcDbLine
10
-43.7
20
-0.988273
30
0
11
-43.7
21
-1.509037
31
0
39
0
210
0
220
0
230
1
0
LINE
5
9A
100
AcDbEntity
8
SK1
62
256
6
ByLayer
370
18
48
1
60
0
100
AcDbLine
10
-45
20
-3.5
30
0
11
-45
21
-1.400277
31
0
39
0
210
0
220
0
230
1
0
LINE
5
9B
100
AcDbEntity
8
SK1
62
256
6
ByLayer
370
18
48
1
60
0
100
AcDbLine
10
-43.6
20
-1.418328
30
0
11
-43.6
21
0.879197
31
0
39
0
210
0
220
0
230
1
0
MTEXT
5
E2
100
AcDbEntity
8
SK6
62
256
6
ByLayer
370
13
48
1
60
0
100
AcDbMText
10
8.129169
20
37.732694
30
0
210
0
220
0
230
1
1
\W0.7415;R840-1070-30-A1A1220
40
3.5
41
0
44
1.084337
50
0
71
8
72
5
7
iso_b_vert
0
DIMENSION
5
EF
100
AcDbEntity
8
SK2
62
256
6
ByLayer
370
13
48
1
60
0
100
AcDbDimension
2
DimnDraft3D1
10
55.16
20
-15.563398
30
0
11
25.910059
21
-15.563398
31
0
70
32
71
5
72
1
41
1
210
0
220
0
230
1
3
Standard
100
AcDbAlignedDimension
13
0
23
-1.5875
33
0
14
55.16
24
-6.9375
34
0
50
0
100
AcDbRotatedDimension
1001
ACAD
1000
DSTYLE
1002
{
1070
   279
1070
     0
1070
   172
1070
     1
1070
   173
1070
     1
1070
   340
1005
E3
1070
   271
1070
     2
1070
   272
1070
     2
1070
    77
1070
     1
1070
    73
1070
     0
1070
   171
1070
     3
1070
   274
1070
     4
1070
   177
1070
    35
1070
   176
1070
    35
1070
   178
1070
    35
1070
    48
1040
-0.005
1070
    41
1041
3.5
1070
   147
1041
1.75
1070
    42
1041
1.5875
1070
    44
1041
2.0
1070
   140
1041
3.5
1070
   343
1005
0
1070
   344
1005
0
1002
}
0
DIMENSION
5
F9
100
AcDbEntity
8
SK2
62
256
6
ByLayer
370
13
48
1
60
0
100
AcDbDimension
2
DimnDraft3D2
10
57
20
-34.692985
30
0
11
5.5013
21
-34.692985
31
0
70
32
71
5
72
1
41
1
210
0
220
0
230
1
3
Standard
100
AcDbAlignedDimension
13
-45
23
-7.5875
33
0
14
57
24
-1.5875
34
0
50
0
100
AcDbRotatedDimension
1001
ACAD
1000
DSTYLE
1002
{
1070
   279
1070
     0
1070
   172
1070
     1
1070
   173
1070
     1
1070
   340
1005
E3
1070
   271
1070
     2
1070
   272
1070
     2
1070
    77
1070
     1
1070
    73
1070
     0
1070
   171
1070
     3
1070
   274
1070
     4
1070
   177
1070
    35
1070
   176
1070
    35
1070
   178
1070
    35
1070
    48
1040
-0.005
1070
    41
1041
3.5
1070
   147
1041
1.75
1070
    42
1041
1.5875
1070
    44
1041
2.0
1070
   140
1041
3.5
1070
   343
1005
0
1070
   344
1005
0
1002
}
0
DIMENSION
5
103
100
AcDbEntity
8
SK2
62
256
6
ByLayer
370
13
48
1
60
0
100
AcDbDimension
2
DimnDraft3D3
10
57
20
16.959119
30
0
11
40.03
21
16.959119
31
0
70
32
71
5
72
1
41
1
210
0
220
0
230
1
3
Standard
100
AcDbAlignedDimension
13
23.06
23
6.9375
33
0
14
57
24
1.5875
34
0
50
0
100
AcDbRotatedDimension
1001
ACAD
1000
DSTYLE
1002
{
1070
   279
1070
     0
1070
   172
1070
     1
1070
   173
1070
     1
1070
   340
1005
E3
1070
   271
1070
     2
1070
   272
1070
     2
1070
    77
1070
     1
1070
    73
1070
     0
1070
   171
1070
     3
1070
   274
1070
     4
1070
   177
1070
    35
1070
   176
1070
    35
1070
   178
1070
    35
1070
    48
1040
-0.005
1070
    41
1041
3.5
1070
   147
1041
1.75
1070
    42
1041
1.5875
1070
    44
1041
2.0
1070
   140
1041
3.5
1070
   343
1005
0
1070
   344
1005
0
1002
}
0
DIMENSION
5
10D
100
AcDbEntity
8
SK2
62
256
6
ByLayer
370
13
48
1
60
0
100
AcDbDimension
2
DimnDraft3D4
10
55.16
20
-18.152503
30
0
11
66.981425
21
-18.152503
31
0
70
32
71
5
72
1
41
1
210
0
220
0
230
1
3
Standard
100
AcDbAlignedDimension
13
57
23
-1.5875
33
0
14
55.16
24
-6.9375
34
0
50
0
100
AcDbRotatedDimension
1001
ACAD
1000
DSTYLE
1002
{
1070
   279
1070
     0
1070
   172
1070
     1
1070
   173
1070
     1
1070
   340
1005
E3
1070
   271
1070
     2
1070
   272
1070
     2
1070
    77
1070
     1
1070
    73
1070
     0
1070
   171
1070
     3
1070
   274
1070
     4
1070
   177
1070
    35
1070
   176
1070
    35
1070
   178
1070
    35
1070
    48
1040
-0.005
1070
    41
1041
3.5
1070
   147
1041
1.75
1070
    42
1041
1.5875
1070
    44
1041
2.0
1070
   140
1041
3.5
1070
   343
1005
0
1070
   344
1005
0
1002
}
0
DIMENSION
5
117
100
AcDbEntity
8
SK2
62
256
6
ByLayer
370
13
48
1
60
0
100
AcDbDimension
2
DimnDraft3D5
10
55.16
20
-24.343428
30
0
11
2.420676
21
-24.343428
31
0
70
32
71
5
72
1
41
1
210
0
220
0
230
1
3
Standard
100
AcDbAlignedDimension
13
-45
23
-7.5875
33
0
14
55.16
24
-6.9375
34
0
50
0
100
AcDbRotatedDimension
1001
ACAD
1000
DSTYLE
1002
{
1070
   279
1070
     0
1070
   172
1070
     1
1070
   173
1070
     1
1070
   340
1005
E3
1070
   271
1070
     2
1070
   272
1070
     2
1070
    77
1070
     1
1070
    73
1070
     0
1070
   171
1070
     3
1070
   274
1070
     4
1070
   177
1070
    35
1070
   176
1070
    35
1070
   178
1070
    35
1070
    48
1040
-0.005
1070
    41
1041
3.5
1070
   147
1041
1.75
1070
    42
1041
1.5875
1070
    44
1041
2.0
1070
   140
1041
3.5
1070
   343
1005
0
1070
   344
1005
0
1002
}
0
DIMENSION
5
122
100
AcDbEntity
8
SK2
62
256
6
ByLayer
370
13
48
1
60
0
100
AcDbDimension
2
DimnDraft3D6
10
-55.625163
20
6
30
0
11
-56.250163
21
24.47418
31
0
70
33
71
5
72
1
41
1
210
0
220
0
230
1
3
Standard
100
AcDbAlignedDimension
13
-46.5875
23
-6
33
0
14
-46.5875
24
6
34
0
1001
ACAD
1000
DSTYLE
1002
{
1070
   279
1070
     0
1070
    74
1070
     0
1070
   173
1070
     1
1070
   340
1005
E3
1070
   271
1070
     3
1070
   272
1070
     2
1070
    77
1070
     1
1070
    73
1070
     0
1070
   171
1070
     3
1070
   274
1070
     4
1070
   177
1070
    35
1070
   176
1070
    35
1070
   178
1070
    35
1070
    48
1040
-0.005
1070
    41
1041
3.5
1070
   147
1041
1.75
1070
    42
1041
1.5875
1070
    44
1041
2.0
1070
   140
1041
3.5
1070
   343
1005
0
1070
   344
1005
0
1002
}
0
DIMENSION
5
12D
100
AcDbEntity
8
2
62
256
6
ByLayer
370
13
48
1
60
0
100
AcDbDimension
2
DimnDraft3D7
10
71.083343
20
5.35
30
0
11
66.458343
21
22.417266
31
0
70
33
71
5
72
1
41
1
210
0
220
0
230
1
3
Standard
100
AcDbAlignedDimension
13
56.7475
23
-5.35
33
0
14
56.7475
24
5.35
34
0
1001
ACAD
1000
DSTYLE
1002
{
1070
   279
1070
     0
1070
    74
1070
     0
1070
   173
1070
     1
1070
   340
1005
E3
1070
   271
1070
     3
1070
   272
1070
     2
1070
    77
1070
     1
1070
    73
1070
     0
1070
   171
1070
     3
1070
   274
1070
     4
1070
   177
1070
    35
1070
   176
1070
    35
1070
   178
1070
    35
1070
    48
1040
-0.005
1070
    41
1041
3.5
1070
   147
1041
1.75
1070
    42
1041
1.5875
1070
    44
1041
2.0
1070
   140
1041
3.5
1070
   343
1005
0
1070
   344
1005
0
1002
}
0
ENDSEC
0
SECTION
2
OBJECTS
0
DICTIONARY
5
198
330
0
100
AcDbDictionary
280
0
281
1
3
ACAD_GROUP
350
199
3
ACAD_MLINESTYLE
350
19a
0
DICTIONARY
5
199
330
0
100
AcDbDictionary
280
0
281
1
0
DICTIONARY
5
19a
330
0
100
AcDbDictionary
280
0
281
1
3
Standard
350
18
0
MLINESTYLE
5
18
330
19a
100
AcDbMlineStyle
2
Standard
70
0
3

62
256
51
90
52
90
71
2
49
-0.5
62
256
6
ByLayer
49
0.5
62
256
6
ByLayer
0
RASTERVARIABLES
5
186
330

100
AcDbRasterVariables
90
0
70
1
71
1
72
1
0
ENDSEC
0
EOF
