0
SECTION
2
HEADER
9
$ACADVER
1
AC1015
9
$DWGCODEPAGE
3
ANSI_1252
9
$HANDSEED
5
1a5
9
$ANGBASE
50
0
9
$ANGDIR
70
0
9
$ATTMODE
70
1
9
$AUNITS
70
0
9
$AUPREC
70
0
9
$CECOLOR
62
256
9
$CELTSCALE
40
1
9
$CELTYPE
6
ByLayer
9
$CELWEIGHT
370
18
9
$CLAYER
8
0
9
$CMLJUST
70
0
9
$CMLSCALE
40
1
9
$CMLSTYLE
2
Standard
9
$DIMSTYLE
2
Standard
9
$TEXTSIZE
40
0.2
9
$TEXTSTYLE
7
Standard
9
$LUNITS
70
2
9
$LUPREC
70
4
9
$EXTNAMES
290
1
9
$INSUNITS
70
4
9
$LTSCALE
40
1
9
$LWDISPLAY
290
1
9
$PDMODE
70
0
9
$PDSIZE
40
0
9
$PLINEGEN
70
0
0
ENDSEC
0
SECTION
2
CLASSES
0
CLASS
1
RASTERVARIABLES
2
AcDbRasterVariables
3
ISM
90
0
280
0
281
0
0
ENDSEC
0
SECTION
2
TABLES
0
TABLE
2
VPORT
5
19b
100
AcDbSymbolTable
0
VPORT
5
1
100
AcDbSymbolTableRecord
100
AcDbViewportTableRecord
2
*Active
70
0
10
0
20
0
11
1
21
1
12
-1
22
1
13
0
23
0
14
0.5
24
0.5
15
10
25
10
16
0
26
0
36
1
17
0
27
0
37
0
0
ENDTAB
0
TABLE
2
LTYPE
5
19c
100
AcDbSymbolTable
0
LTYPE
5
14
100
AcDbSymbolTableRecord
100
AcDbLinetypeTableRecord
70
0
2
ByBlock
3

72
65
73
0
40
0
0
LTYPE
5
15
100
AcDbSymbolTableRecord
100
AcDbLinetypeTableRecord
70
0
2
ByLayer
3

72
65
73
0
40
0
0
LTYPE
5
16
100
AcDbSymbolTableRecord
100
AcDbLinetypeTableRecord
70
0
2
CONTINUOUS
3
Solid line
72
65
73
0
40
0
0
LTYPE
5
6A
100
AcDbSymbolTableRecord
100
AcDbLinetypeTableRecord
70
0
2
CENTER
3
____ _ ____ _ ____ _ ____
72
65
73
4
40
47.5
49
22
74
0
49
-8.5
74
0
49
8.5
74
0
49
-8.5
74
0
0
LTYPE
5
6B
100
AcDbSymbolTableRecord
100
AcDbLinetypeTableRecord
70
0
2
DASHED
3
__ __ __ __ __ __ __ __ __
72
65
73
2
40
25.72
49
12.86
74
0
49
-12.86
74
0
0
ENDTAB
0
TABLE
2
LAYER
5
19d
100
AcDbSymbolTable
0
LAYER
5
10
100
AcDbSymbolTableRecord
100
AcDbLayerTableRecord
2
0
70
0
62
7
6
CONTINUOUS
290
1
370
-3
390
0
0
LAYER
5
6D
100
AcDbSymbolTableRecord
100
AcDbLayerTableRecord
2
81
70
0
62
-3
6
CONTINUOUS
290
1
370
-3
390
0
0
LAYER
5
6F
100
AcDbSymbolTableRecord
100
AcDbLayerTableRecord
2
80
70
0
62
-6
6
CONTINUOUS
290
1
370
-3
390
0
0
LAYER
5
74
100
AcDbSymbolTableRecord
100
AcDbLayerTableRecord
2
2
70
0
62
7
6
CONTINUOUS
290
1
370
-3
390
0
0
LAYER
5
78
100
AcDbSymbolTableRecord
100
AcDbLayerTableRecord
2
1
70
0
62
4
6
CONTINUOUS
290
1
370
-3
390
0
0
LAYER
5
86
100
AcDbSymbolTableRecord
100
AcDbLayerTableRecord
2
4
70
0
62
-2
6
CENTER
290
1
370
-3
390
0
0
LAYER
5
187
100
AcDbSymbolTableRecord
100
AcDbLayerTableRecord
2
SK2
70
0
62
7
6
CONTINUOUS
290
1
370
-3
390
0
0
LAYER
5
188
100
AcDbSymbolTableRecord
100
AcDbLayerTableRecord
2
SK1
70
0
62
4
6
CONTINUOUS
290
1
370
-3
390
0
0
LAYER
5
189
100
AcDbSymbolTableRecord
100
AcDbLayerTableRecord
2
SK4
70
0
62
2
6
CENTER
290
1
370
-3
390
0
0
LAYER
5
18a
100
AcDbSymbolTableRecord
100
AcDbLayerTableRecord
2
SK6
70
0
62
5
6
CONTINUOUS
290
1
370
-3
390
0
0
ENDTAB
0
TABLE
2
STYLE
5
19e
100
AcDbSymbolTable
0
STYLE
5
11
100
AcDbSymbolTableRecord
100
AcDbTextStyleTableRecord
2
Standard
3
txt
70
0
71
0
40
0
41
1
42
0
50
0
0
STYLE
5
E3
100
AcDbSymbolTableRecord
100
AcDbTextStyleTableRecord
2
iso_b_vert
3
simplex.shx
70
0
71
0
40
0
41
1
42
0
50
0
0
STYLE
5
E4
100
AcDbSymbolTableRecord
100
AcDbTextStyleTableRecord
2
DWGDirectTextStyle
3
simplex
70
0
71
0
40
0
41
1
42
0
50
0
0
ENDTAB
0
TABLE
2
DIMSTYLE
5
19f
100
AcDbSymbolTable
100
AcDbDimStyleTable
0
DIMSTYLE
105
27
100
AcDbSymbolTableRecord
100
AcDbDimStyleTableRecord
2
Standard
70
0
3
<>
41
0.18
42
0.0625
44
0.18
140
0.18
147
0.09
73
0
74
0
77
1
271
2
275
0
278
52
280
0
340
11
0
ENDTAB
0
TABLE
2
VIEW
5
1a0
100
AcDbSymbolTable
0
ENDTAB
0
TABLE
2
UCS
5
1a1
100
AcDbSymbolTable
0
ENDTAB
0
TABLE
2
APPID
5
1a2
100
AcDbSymbolTable
0
APPID
5
12
100
AcDbSymbolTableRecord
100
AcDbRegAppTableRecord
2
ACAD
70
0
0
ENDTAB
0
TABLE
2
BLOCK_RECORD
5
1a3
100
AcDbSymbolTable
0
BLOCK_RECORD
5
1F
100
AcDbSymbolTableRecord
100
AcDbBlockTableRecord
2
*Model_Space
340
0
70
0
0
BLOCK_RECORD
5
1B
100
AcDbSymbolTableRecord
100
AcDbBlockTableRecord
2
*Paper_Space
340
0
70
0
0
BLOCK_RECORD
5
23
100
AcDbSymbolTableRecord
100
AcDbBlockTableRecord
2
*Paper_Space0
340
0
70
0
0
BLOCK_RECORD
5
E6
100
AcDbSymbolTableRecord
100
AcDbBlockTableRecord
2
DimnDraft3D1
340
0
70
0
0
BLOCK_RECORD
5
F0
100
AcDbSymbolTableRecord
100
AcDbBlockTableRecord
2
DimnDraft3D2
340
0
70
0
0
BLOCK_RECORD
5
FA
100
AcDbSymbolTableRecord
100
AcDbBlockTableRecord
2
DimnDraft3D3
340
0
70
0
0
BLOCK_RECORD
5
104
100
AcDbSymbolTableRecord
100
AcDbBlockTableRecord
2
DimnDraft3D4
340
0
70
0
0
BLOCK_RECORD
5
10E
100
AcDbSymbolTableRecord
100
AcDbBlockTableRecord
2
DimnDraft3D5
340
0
70
0
0
BLOCK_RECORD
5
118
100
AcDbSymbolTableRecord
100
AcDbBlockTableRecord
2
DimnDraft3D6
340
0
70
0
0
BLOCK_RECORD
5
123
100
AcDbSymbolTableRecord
100
AcDbBlockTableRecord
2
DimnDraft3D7
340
0
70
0
0
ENDTAB
0
ENDSEC
0
SECTION
2
BLOCKS
0
BLOCK
5
20
100
AcDbEntity
8
0
100
AcDbBlockBegin
2
*Model_Space
70
0
10
0
20
0
30
0
3
*Model_Space
0
ENDBLK
5
21
100
AcDbEntity
8
0
100
AcDbBlockEnd
0
BLOCK
5
1C
100
AcDbEntity
8
0
100
AcDbBlockBegin
2
*Paper_Space
70
0
10
0
20
0
30
0
3
*Paper_Space
0
ENDBLK
5
1D
100
AcDbEntity
8
0
100
AcDbBlockEnd
0
BLOCK
5
24
100
AcDbEntity
8
0
100
AcDbBlockBegin
2
*Paper_Space0
70
0
10
0
20
0
30
0
3
*Paper_Space0
0
ENDBLK
5
25
100
AcDbEntity
8
0
100
AcDbBlockEnd
0
BLOCK
5
ED
100
AcDbEntity
8
0
100
AcDbBlockBegin
2
DimnDraft3D1
70
0
10
0
20
0
30
0
3
DimnDraft3D1
0
MTEXT
5
E7
100
AcDbEntity
8
SK2
62
256
6
ByLayer
370
13
48
1
60
0
100
AcDbMText
10
21.918875
20
-14.638398
30
0
210
0
220
0
230
1
1
\W0.6713;55,18
40
3.5
41
0
44
1.084337
50
0
71
7
72
5
7
iso_b_vert
0
LINE
5
E8
100
AcDbEntity
8
SK2
62
256
6
ByLayer
370
13
48
1
60
0
100
AcDbLine
10
0
20
-1.5875
30
0
11
0
21
-17.513398
31
0
39
0
210
0
220
0
230
1
0
LINE
5
E9
100
AcDbEntity
8
SK2
62
256
6
ByLayer
370
13
48
1
60
0
100
AcDbLine
10
55.18
20
-6.8875
30
0
11
55.18
21
-17.513398
31
0
39
0
210
0
220
0
230
1
0
LINE
5
EA
100
AcDbEntity
8
SK2
62
256
6
ByLayer
370
13
48
1
60
0
100
AcDbLine
10
0
20
-15.513398
30
0
11
55.18
21
-15.513398
31
0
39
0
210
0
220
0
230
1
0
SOLID
5
EB
100
AcDbEntity
8
SK2
62
256
6
ByLayer
370
13
48
1
60
0
100
AcDbTrace
10
0
20
-15.513398
30
0
11
3.499998
21
-15.052615
31
0
12
3.500002
22
-15.974182
32
0
13
0
23
-15.513398
33
0
39
0
210
0
220
0
230
1
0
SOLID
5
EC
100
AcDbEntity
8
SK2
62
256
6
ByLayer
370
13
48
1
60
0
100
AcDbTrace
10
55.18
20
-15.513398
30
0
11
51.680002
21
-15.974182
31
0
12
51.679998
22
-15.052615
32
0
13
55.18
23
-15.513398
33
0
39
0
210
0
220
0
230
1
0
ENDBLK
5
EE
100
AcDbEntity
8
0
100
AcDbBlockEnd
0
BLOCK
5
F7
100
AcDbEntity
8
0
100
AcDbBlockBegin
2
DimnDraft3D2
70
0
10
0
20
0
30
0
3
DimnDraft3D2
0
MTEXT
5
F1
100
AcDbEntity
8
SK2
62
256
6
ByLayer
370
13
48
1
60
0
100
AcDbMText
10
0.202221
20
-33.817985
30
0
210
0
220
0
230
1
1
\W0.6930;102,00
40
3.5
41
0
44
1.084337
50
0
71
7
72
5
7
iso_b_vert
0
LINE
5
F2
100
AcDbEntity
8
SK2
62
256
6
ByLayer
370
13
48
1
60
0
100
AcDbLine
10
-45
20
-7.5875
30
0
11
-45
21
-36.692985
31
0
39
0
210
0
220
0
230
1
0
LINE
5
F3
100
AcDbEntity
8
SK2
62
256
6
ByLayer
370
13
48
1
60
0
100
AcDbLine
10
57
20
-1.5875
30
0
11
57
21
-36.692985
31
0
39
0
210
0
220
0
230
1
0
LINE
5
F4
100
AcDbEntity
8
SK2
62
256
6
ByLayer
370
13
48
1
60
0
100
AcDbLine
10
-45
20
-34.692985
30
0
11
57
21
-34.692985
31
0
39
0
210
0
220
0
230
1
0
SOLID
5
F5
100
AcDbEntity
8
SK2
62
256
6
ByLayer
370
13
48
1
60
0
100
AcDbTrace
10
-45
20
-34.692985
30
0
11
-41.500002
21
-34.232202
31
0
12
-41.499998
22
-35.153769
32
0
13
-45
23
-34.692985
33
0
39
0
210
0
220
0
230
1
0
SOLID
5
F6
100
AcDbEntity
8
SK2
62
256
6
ByLayer
370
13
48
1
60
0
100
AcDbTrace
10
57
20
-34.692985
30
0
11
53.500002
21
-35.153769
31
0
12
53.499998
22
-34.232202
32
0
13
57
23
-34.692985
33
0
39
0
210
0
220
0
230
1
0
ENDBLK
5
F8
100
AcDbEntity
8
0
100
AcDbBlockEnd
0
BLOCK
5
101
100
AcDbEntity
8
0
100
AcDbBlockBegin
2
DimnDraft3D3
70
0
10
0
20
0
30
0
3
DimnDraft3D3
0
MTEXT
5
FB
100
AcDbEntity
8
SK2
62
256
6
ByLayer
370
13
48
1
60
0
100
AcDbMText
10
35.741316
20
17.784119
30
0
210
0
220
0
230
1
1
\W0.7317;33,62
40
3.5
41
0
44
1.084337
50
0
71
7
72
5
7
iso_b_vert
0
LINE
5
FC
100
AcDbEntity
8
SK2
62
256
6
ByLayer
370
13
48
1
60
0
100
AcDbLine
10
23.38
20
6.8875
30
0
11
23.38
21
18.909119
31
0
39
0
210
0
220
0
230
1
0
LINE
5
FD
100
AcDbEntity
8
SK2
62
256
6
ByLayer
370
13
48
1
60
0
100
AcDbLine
10
57
20
1.5875
30
0
11
57
21
18.909119
31
0
39
0
210
0
220
0
230
1
0
LINE
5
FE
100
AcDbEntity
8
SK2
62
256
6
ByLayer
370
13
48
1
60
0
100
AcDbLine
10
23.38
20
16.909119
30
0
11
57
21
16.909119
31
0
39
0
210
0
220
0
230
1
0
SOLID
5
FF
100
AcDbEntity
8
SK2
62
256
6
ByLayer
370
13
48
1
60
0
100
AcDbTrace
10
23.38
20
16.909119
30
0
11
26.879998
21
17.369903
31
0
12
26.880002
22
16.448335
32
0
13
23.38
23
16.909119
33
0
39
0
210
0
220
0
230
1
0
SOLID
5
100
100
AcDbEntity
8
SK2
62
256
6
ByLayer
370
13
48
1
60
0
100
AcDbTrace
10
57
20
16.909119
30
0
11
53.500002
21
16.448335
31
0
12
53.499998
22
17.369903
32
0
13
57
23
16.909119
33
0
39
0
210
0
220
0
230
1
0
ENDBLK
5
102
100
AcDbEntity
8
0
100
AcDbBlockEnd
0
BLOCK
5
10B
100
AcDbEntity
8
0
100
AcDbBlockBegin
2
DimnDraft3D4
70
0
10
0
20
0
30
0
3
DimnDraft3D4
0
MTEXT
5
105
100
AcDbEntity
8
SK2
62
256
6
ByLayer
370
13
48
1
60
0
100
AcDbMText
10
64.278136
20
-17.227503
30
0
210
0
220
0
230
1
1
\W0.6367;1,82
40
3.5
41
0
44
1.084337
50
0
71
7
72
5
7
iso_b_vert
0
LINE
5
106
100
AcDbEntity
8
SK2
62
256
6
ByLayer
370
13
48
1
60
0
100
AcDbLine
10
57
20
-1.5875
30
0
11
57
21
-20.102503
31
0
39
0
210
0
220
0
230
1
0
LINE
5
107
100
AcDbEntity
8
SK2
62
256
6
ByLayer
370
13
48
1
60
0
100
AcDbLine
10
55.18
20
-6.8875
30
0
11
55.18
21
-20.102503
31
0
39
0
210
0
220
0
230
1
0
LINE
5
108
100
AcDbEntity
8
SK2
62
256
6
ByLayer
370
13
48
1
60
0
100
AcDbLine
10
46.43
20
-18.102503
30
0
11
70.559715
21
-18.102503
31
0
39
0
210
0
220
0
230
1
0
SOLID
5
109
100
AcDbEntity
8
SK2
62
256
6
ByLayer
370
13
48
1
60
0
100
AcDbTrace
10
57
20
-18.102503
30
0
11
60.499998
21
-17.641719
31
0
12
60.500002
22
-18.563287
32
0
13
57
23
-18.102503
33
0
39
0
210
0
220
0
230
1
0
SOLID
5
10A
100
AcDbEntity
8
SK2
62
256
6
ByLayer
370
13
48
1
60
0
100
AcDbTrace
10
55.18
20
-18.102503
30
0
11
51.680002
21
-18.563287
31
0
12
51.679998
22
-17.641719
32
0
13
55.18
23
-18.102503
33
0
39
0
210
0
220
0
230
1
0
ENDBLK
5
10C
100
AcDbEntity
8
0
100
AcDbBlockEnd
0
BLOCK
5
115
100
AcDbEntity
8
0
100
AcDbBlockBegin
2
DimnDraft3D5
70
0
10
0
20
0
30
0
3
DimnDraft3D5
0
MTEXT
5
10F
100
AcDbEntity
8
SK2
62
256
6
ByLayer
370
13
48
1
60
0
100
AcDbMText
10
-2.440903
20
-23.468428
30
0
210
0
220
0
230
1
1
\W0.6440;100,18
40
3.5
41
0
44
1.084337
50
0
71
7
72
5
7
iso_b_vert
0
LINE
5
110
100
AcDbEntity
8
SK2
62
256
6
ByLayer
370
13
48
1
60
0
100
AcDbLine
10
-45
20
-7.5875
30
0
11
-45
21
-26.343428
31
0
39
0
210
0
220
0
230
1
0
LINE
5
111
100
AcDbEntity
8
SK2
62
256
6
ByLayer
370
13
48
1
60
0
100
AcDbLine
10
55.18
20
-6.8875
30
0
11
55.18
21
-26.343428
31
0
39
0
210
0
220
0
230
1
0
LINE
5
112
100
AcDbEntity
8
SK2
62
256
6
ByLayer
370
13
48
1
60
0
100
AcDbLine
10
-45
20
-24.343428
30
0
11
55.18
21
-24.343428
31
0
39
0
210
0
220
0
230
1
0
SOLID
5
113
100
AcDbEntity
8
SK2
62
256
6
ByLayer
370
13
48
1
60
0
100
AcDbTrace
10
-45
20
-24.343428
30
0
11
-41.500002
21
-23.882645
31
0
12
-41.499998
22
-24.804212
32
0
13
-45
23
-24.343428
33
0
39
0
210
0
220
0
230
1
0
SOLID
5
114
100
AcDbEntity
8
SK2
62
256
6
ByLayer
370
13
48
1
60
0
100
AcDbTrace
10
55.18
20
-24.343428
30
0
11
51.680002
21
-24.804212
31
0
12
51.679998
22
-23.882645
32
0
13
55.18
23
-24.343428
33
0
39
0
210
0
220
0
230
1
0
ENDBLK
5
116
100
AcDbEntity
8
0
100
AcDbBlockEnd
0
BLOCK
5
120
100
AcDbEntity
8
0
100
AcDbBlockBegin
2
DimnDraft3D6
70
0
10
0
20
0
30
0
3
DimnDraft3D6
0
MTEXT
5
119
100
AcDbEntity
8
SK2
62
256
6
ByLayer
370
13
48
1
60
0
100
AcDbMText
10
-55.375163
20
25.34918
30
0
210
0
220
0
230
1
1
\W0.6930;12,000
40
3.5
41
0
44
1.084337
50
90
71
7
72
5
7
iso_b_vert
0
MTEXT
5
11A
100
AcDbEntity
8
SK2
62
256
6
ByLayer
370
13
48
1
60
0
100
AcDbMText
10
-55.375163
20
20.126524
30
0
210
0
220
0
230
1
1
%%c
40
3.5
41
0
44
1.084337
50
90
71
7
72
5
7
iso_b_vert
0
LINE
5
11B
100
AcDbEntity
8
SK2
62
256
6
ByLayer
370
13
48
1
60
0
100
AcDbLine
10
-46.5875
20
-6
30
0
11
-55.625163
21
-6
31
0
39
0
210
0
220
0
230
1
0
LINE
5
11C
100
AcDbEntity
8
SK2
62
256
6
ByLayer
370
13
48
1
60
0
100
AcDbLine
10
-46.5875
20
6
30
0
11
-55.625163
21
6
31
0
39
0
210
0
220
0
230
1
0
LINE
5
11D
100
AcDbEntity
8
SK2
62
256
6
ByLayer
370
13
48
1
60
0
100
AcDbLine
10
-53.625163
20
-6
30
0
11
-53.625163
21
36.862338
31
0
39
0
210
0
220
0
230
1
0
SOLID
5
11E
100
AcDbEntity
8
SK2
62
256
6
ByLayer
370
13
48
1
60
0
100
AcDbTrace
10
-53.625163
20
-6
30
0
11
-54.085946
21
-2.500002
31
0
12
-53.164379
22
-2.499998
32
0
13
-53.625163
23
-6
33
0
39
0
210
0
220
0
230
1
0
SOLID
5
11F
100
AcDbEntity
8
SK2
62
256
6
ByLayer
370
13
48
1
60
0
100
AcDbTrace
10
-53.625163
20
6
30
0
11
-53.164379
21
2.500002
31
0
12
-54.085946
22
2.499998
32
0
13
-53.625163
23
6
33
0
39
0
210
0
220
0
230
1
0
ENDBLK
5
121
100
AcDbEntity
8
0
100
AcDbBlockEnd
0
BLOCK
5
12B
100
AcDbEntity
8
0
100
AcDbBlockBegin
2
DimnDraft3D7
70
0
10
0
20
0
30
0
3
DimnDraft3D7
0
MTEXT
5
124
100
AcDbEntity
8
2
62
256
6
ByLayer
370
13
48
1
60
0
100
AcDbMText
10
67.333343
20
23.242266
30
0
210
0
220
0
230
1
1
\W0.6930;10,600
40
3.5
41
0
44
1.084337
50
90
71
7
72
5
7
iso_b_vert
0
MTEXT
5
125
100
AcDbEntity
8
2
62
256
6
ByLayer
370
13
48
1
60
0
100
AcDbMText
10
67.333343
20
18.01961
30
0
210
0
220
0
230
1
1
%%c
40
3.5
41
0
44
1.084337
50
90
71
7
72
5
7
iso_b_vert
0
LINE
5
126
100
AcDbEntity
8
2
62
256
6
ByLayer
370
13
48
1
60
0
100
AcDbLine
10
56.7675
20
-5.3
30
0
11
71.083343
21
-5.3
31
0
39
0
210
0
220
0
230
1
0
LINE
5
127
100
AcDbEntity
8
2
62
256
6
ByLayer
370
13
48
1
60
0
100
AcDbLine
10
56.7675
20
5.3
30
0
11
71.083343
21
5.3
31
0
39
0
210
0
220
0
230
1
0
LINE
5
128
100
AcDbEntity
8
2
62
256
6
ByLayer
370
13
48
1
60
0
100
AcDbLine
10
69.083343
20
-5.3
30
0
11
69.083343
21
34.755424
31
0
39
0
210
0
220
0
230
1
0
SOLID
5
129
100
AcDbEntity
8
2
62
256
6
ByLayer
370
13
48
1
60
0
100
AcDbTrace
10
69.083343
20
-5.3
30
0
11
68.622559
21
-1.800002
31
0
12
69.544126
22
-1.799998
32
0
13
69.083343
23
-5.3
33
0
39
0
210
0
220
0
230
1
0
SOLID
5
12A
100
AcDbEntity
8
2
62
256
6
ByLayer
370
13
48
1
60
0
100
AcDbTrace
10
69.083343
20
5.3
30
0
11
69.544126
21
1.800002
31
0
12
68.622559
22
1.799998
32
0
13
69.083343
23
5.3
33
0
39
0
210
0
220
0
230
1
0
ENDBLK
5
12C
100
AcDbEntity
8
0
100
AcDbBlockEnd
0
ENDSEC
0
SECTION
2
ENTITIES
0
ARC
5
9C
100
AcDbEntity
8
1
62
256
6
ByLayer
370
18
48
1
60
0
100
AcDbCircle
39
0
10
0
20
5.2
30
0
40
0.799999999999998
210
0
220
0
230
1
100
AcDbArc
50
32.839961
51
90
0
ARC
5
9D
100
AcDbEntity
8
1
62
256
6
ByLayer
370
18
48
1
60
0
100
AcDbCircle
39
0
10
0
20
-5.2
30
0
40
0.799999999999998
210
0
220
0
230
1
100
AcDbArc
50
270
51
327.160039
0
ARC
5
9E
100
AcDbEntity
8
1
62
256
6
ByLayer
370
18
48
1
60
0
100
AcDbCircle
39
0
10
-1.344302
20
6.067671
30
0
40
0.799999999999997
210
0
220
0
230
-1
100
AcDbArc
50
269.965623
51
327.160039
0
ARC
5
9F
100
AcDbEntity
8
1
62
256
6
ByLayer
370
18
48
1
60
0
100
AcDbCircle
39
0
10
-1.344302
20
-6.067671
30
0
40
0.799999999999997
210
0
220
0
230
-1
100
AcDbArc
50
32.839961
51
90.034377
0
ELLIPSE
5
A0
100
AcDbEntity
8
1
62
256
6
ByLayer
370
18
48
1
60
0
100
AcDbEllipse
10
4.25
20
-5.282681
30
0
11
-0.25
21
3.06151588455594E-17
31
0
210
0
220
0
230
1
40
0.999966
41
-1.57064159468059
42
-0.0534024863736137
0
ELLIPSE
5
A1
100
AcDbEntity
8
1
62
256
6
ByLayer
370
18
48
1
60
0
100
AcDbEllipse
10
4.25
20
5.282681
30
0
11
-0.25
21
3.06151588455594E-17
31
0
210
0
220
0
230
1
40
0.999966
41
0.0534024865913112
42
1.57505404090193
0
ELLIPSE
5
A2
100
AcDbEntity
8
1
62
256
6
ByLayer
370
18
48
1
60
0
100
AcDbEllipse
10
57.023904
20
0.033273
30
0
11
0.1356585460959
21
-0.401200806391405
31
0
210
0
220
0
230
-1
40
0.065863
41
1.63494400391838
42
2.32292776272337
0
ELLIPSE
5
A3
100
AcDbEntity
8
1
62
256
6
ByLayer
370
13
48
1
60
0
100
AcDbEllipse
10
55.520735
20
0.777525
30
0
11
0.133113781883896
21
0.268850741253519
31
0
210
0
220
0
230
1
40
0.40558
41
0.884485917130988
42
2.28074931872641
0
ELLIPSE
5
A4
100
AcDbEntity
8
1
62
256
6
ByLayer
370
18
48
1
60
0
100
AcDbEllipse
10
56.005908
20
-2.563676
30
0
11
0.816071125541359
21
2.22499053356236
31
0
210
0
220
0
230
-1
40
0.082138
41
0.755280950347556
42
1.56055926150151
0
ELLIPSE
5
A5
100
AcDbEntity
8
1
62
256
6
ByLayer
370
18
48
1
60
0
100
AcDbEllipse
10
57.023904
20
-0.033273
30
0
11
0.135658546006532
21
0.401200806160959
31
0
210
0
220
0
230
-1
40
0.065863
41
-2.32292776270638
42
-1.63494400354351
0
ELLIPSE
5
A6
100
AcDbEntity
8
1
62
256
6
ByLayer
370
18
48
1
60
0
100
AcDbEllipse
10
57.000449
20
0.001158
30
0
11
1.9434167541261
21
5.29866054049248
31
0
210
0
220
0
230
-1
40
0.082138
41
2.89043886684997
42
2.98542632334635
0
ELLIPSE
5
A7
100
AcDbEntity
8
1
62
256
6
ByLayer
370
13
48
1
60
0
100
AcDbEllipse
10
56.29727
20
2.563676
30
0
11
3.62651591079712
21
-1.53245971049952
31
0
210
0
220
0
230
-1
40
0.445196
41
1.59686328080543
42
1.89684350653724
0
ELLIPSE
5
A8
100
AcDbEntity
8
1
62
256
6
ByLayer
370
18
48
1
60
0
100
AcDbEllipse
10
56.005908
20
2.563676
30
0
11
0.816071125548844
21
-2.22499053357951
31
0
210
0
220
0
230
-1
40
0.082138
41
-1.5605592614952
42
-0.755280950346646
0
ELLIPSE
5
A9
100
AcDbEntity
8
1
62
256
6
ByLayer
370
18
48
1
60
0
100
AcDbEllipse
10
56.86039
20
0.114233
30
0
11
0.0868803724527985
21
0.290676908858878
31
0
210
0
220
0
230
-1
40
0.467765
41
1.65225753137172
42
2.36053717391934
0
ELLIPSE
5
AA
100
AcDbEntity
8
1
62
256
6
ByLayer
370
13
48
1
60
0
100
AcDbEllipse
10
56.127811
20
2.429384
30
0
11
3.581432370034
21
-1.84117614794505
31
0
210
0
220
0
230
-1
40
0.482873
41
1.53949524922778
42
1.83511077056576
0
ELLIPSE
5
AB
100
AcDbEntity
8
1
62
256
6
ByLayer
370
18
48
1
60
0
100
AcDbEllipse
10
57.000449
20
-0.001158
30
0
11
1.94341671982246
21
-5.29866044189893
31
0
210
0
220
0
230
-1
40
0.082138
41
-2.98542632189795
42
-2.89043886450488
0
POINT
5
6C
100
AcDbEntity
8
81
62
256
6
ByLayer
370
18
48
1
60
0
100
AcDbPoint
10
57
20
0
30
0
39
0
210
0
220
0
230
1
50
360
0
POINT
5
6E
100
AcDbEntity
8
80
62
256
6
ByLayer
370
18
48
1
60
0
100
AcDbPoint
10
0
20
0
30
0
39
0
210
0
220
0
230
1
50
360
0
POINT
5
70
100
AcDbEntity
8
SK2
62
256
6
ByLayer
370
18
48
1
60
1
100
AcDbPoint
10
-45
20
-6
30
0
39
0
210
0
220
0
230
1
50
360
0
POINT
5
72
100
AcDbEntity
8
SK2
62
256
6
ByLayer
370
18
48
1
60
1
100
AcDbPoint
10
-45
20
6
30
0
39
0
210
0
220
0
230
1
50
360
0
POINT
5
73
100
AcDbEntity
8
2
62
256
6
ByLayer
370
18
48
1
60
1
100
AcDbPoint
10
55.18
20
-5.3
30
0
39
0
210
0
220
0
230
1
50
360
0
POINT
5
75
100
AcDbEntity
8
2
62
256
6
ByLayer
370
18
48
1
60
1
100
AcDbPoint
10
55.18
20
5.3
30
0
39
0
210
0
220
0
230
1
50
360
0
SPLINE
5
AC
100
AcDbEntity
8
1
62
256
6
ByLayer
370
18
48
1
60
0
100
AcDbSpline
70
4
71
3
72
16
73
12
40
0
40
0
40
0
40
0
40
0.143041014851961
40
0.297334693781586
40
0.412270948681332
40
0.488327344820547
40
0.552535588329943
40
0.654289463841891
40
0.782572486491125
40
0.960202965539032
40
1
40
1
40
1
40
1
41
1
10
4.25049854993483
20
-5.03265686515368
30
0
41
1
10
4.48379762675717
20
-5.03313853869398
30
0
41
1
10
4.96874875740212
20
-5.03396641944084
30
0
41
1
10
5.64115898938397
20
-5.03402958435615
30
0
41
1
10
6.20431939301361
20
-5.03455862233989
30
0
41
1
10
6.6205409777574
20
-5.03464119952605
30
0
41
1
10
7.01529357180326
20
-5.03503051869802
30
0
41
1
10
7.49475009929586
20
-5.03646157301822
30
0
41
1
10
8.15841736221731
20
-5.03549573967612
30
0
41
1
10
8.72287409690003
20
-5.03588081830159
30
0
41
1
10
9.07717422421777
20
-5.0362144983263
30
0
41
1
10
9.14202201901057
20
-5.03628536882266
30
0
0
SPLINE
5
AD
100
AcDbEntity
8
1
62
256
6
ByLayer
370
18
48
1
60
0
100
AcDbSpline
70
4
71
3
72
33
73
29
40
0
40
0
40
0
40
0
40
0.0551019237027325
40
0.103472482838278
40
0.141166526201182
40
0.174161699358057
40
0.203751142319118
40
0.238059348463812
40
0.268169692756948
40
0.30197142086439
40
0.352069912700717
40
0.409283440846439
40
0.457702866349681
40
0.498157619397333
40
0.536320800102085
40
0.571889638370021
40
0.614887367008127
40
0.659912471502451
40
0.691994516428436
40
0.718841561145885
40
0.754334856494781
40
0.798557816525294
40
0.833333424072555
40
0.864119754403953
40
0.890918646424687
40
0.915605623100916
40
0.95218328499287
40
1
40
1
40
1
40
1
41
1
10
24.1997176407167
20
-5.04432753298394
30
0
41
1
10
24.4712633353939
20
-5.04446219191374
30
0
41
1
10
24.9812834776486
20
-5.04477039476504
30
0
41
1
10
25.6784624896216
20
-5.04490922370059
30
0
41
1
10
26.2649886788369
20
-5.04576115231993
30
0
41
1
10
26.7592814727849
20
-5.04584821690213
30
0
41
1
10
27.2375668558659
20
-5.04624451190074
30
0
41
1
10
27.7014819129648
20
-5.04690142068077
30
0
41
1
10
28.1862565502846
20
-5.04696340296368
30
0
41
1
10
28.748880218093
20
-5.04704213091702
30
0
41
1
10
29.445293663273
20
-5.04728741745885
30
0
41
1
10
30.2138940430822
20
-5.04745488489019
30
0
41
1
10
30.9348802952304
20
-5.05000620935706
30
0
41
1
10
31.5617575587671
20
-5.04898962163813
30
0
41
1
10
32.125312471507
20
-5.04840780775183
30
0
41
1
10
32.7014155862983
20
-5.04803577186323
30
0
41
1
10
33.3113860107868
20
-5.04832700335942
30
0
41
1
10
33.9041405559397
20
-5.05083627855984
30
0
41
1
10
34.417192433122
20
-5.05043469227769
30
0
41
1
10
34.8832013564703
20
-5.05063121853468
30
0
41
1
10
35.4091290652954
20
-5.05072027451271
30
0
41
1
10
35.9741892929041
20
-5.05021510862102
30
0
41
1
10
36.5160154267246
20
-5.05062748706087
30
0
41
1
10
36.9718347435958
20
-5.05197079738889
30
0
41
1
10
37.3778528034671
20
-5.05194110697102
30
0
41
1
10
37.812457396225
20
-5.05173383877846
30
0
41
1
10
38.3508121617039
20
-5.05278024655212
30
0
41
1
10
38.7673081510509
20
-5.05270379380309
30
0
41
1
10
39.0032872474402
20
-5.05259685350242
30
0
0
SPLINE
5
AE
100
AcDbEntity
8
1
62
256
6
ByLayer
370
18
48
1
60
0
100
AcDbSpline
70
4
71
2
72
6
73
3
40
0
40
0
40
0
40
1
40
1
40
1
41
1
10
54.1588106239071
20
-5.06250904318998
30
0
41
1
10
54.6567617257796
20
-5.06127878282075
30
0
41
1
10
55.1540583580274
20
-5.06422234005188
30
0
0
SPLINE
5
AF
100
AcDbEntity
8
1
62
256
6
ByLayer
370
18
48
1
60
0
100
AcDbSpline
70
4
71
3
72
29
73
25
40
0
40
0
40
0
40
0
40
0.0172835117517061
40
0.0920640456085822
40
0.155729580603432
40
0.206982189756489
40
0.247276453708244
40
0.283512489807849
40
0.312118706182315
40
0.344215793829389
40
0.390352057914302
40
0.444842799269079
40
0.487831275992031
40
0.522752932067803
40
0.569990892471415
40
0.650168319365136
40
0.716226965540106
40
0.767093853777592
40
0.808692687390844
40
0.846464035325441
40
0.891249411481582
40
0.946811986950762
40
0.992060528374558
40
1
40
1
40
1
40
1
41
1
10
39.1925242336365
20
5.05151897655634
30
0
41
1
10
39.1215599947085
20
5.05132681487484
30
0
41
1
10
38.7432996293978
20
5.05044293243236
30
0
41
1
10
38.094764118686
20
5.05085772757198
30
0
41
1
10
37.3149711767893
20
5.05220043474552
30
0
41
1
10
36.6725081697066
20
5.05122152862117
30
0
41
1
10
36.1433078502201
20
5.05010584870286
30
0
41
1
10
35.7079492954772
20
5.05055962173725
30
0
41
1
10
35.3065178568821
20
5.05066080295748
30
0
41
1
10
34.8640929101956
20
5.05062935214522
30
0
41
1
10
34.3144794438622
20
5.05043792536495
30
0
41
1
10
33.7197639961196
20
5.0506837539622
30
0
41
1
10
33.1714934790916
20
5.04790282699665
30
0
41
1
10
32.6532491905459
20
5.0481880604417
30
0
41
1
10
31.9810199689092
20
5.04832056370998
30
0
41
1
10
31.1798389468208
20
5.05018079015926
30
0
41
1
10
30.3636304364573
20
5.04818011236958
30
0
41
1
10
29.7071835951818
20
5.04709185911784
30
0
41
1
10
29.167857860385
20
5.04737060173201
30
0
41
1
10
28.6537627394452
20
5.04697077226936
30
0
41
1
10
28.0818109287515
20
5.04699610314543
30
0
41
1
10
27.4789045216897
20
5.04663613836706
30
0
41
1
10
27.0285302474883
20
5.04602198854329
30
0
41
1
10
26.808337067304
20
5.04588403810476
30
0
41
1
10
26.775472203515
20
5.04586499536879
30
0
0
SPLINE
5
B0
100
AcDbEntity
8
1
62
256
6
ByLayer
370
18
48
1
60
0
100
AcDbSpline
70
4
71
3
72
18
73
14
40
0
40
0
40
0
40
0
40
0.000939122206587
40
0.15563025237518
40
0.275521550773399
40
0.369990424608217
40
0.449229263653426
40
0.503625616081936
40
0.559489330596688
40
0.641459734079087
40
0.750496637100858
40
0.886902977179177
40
1
40
1
40
1
40
1
41
1
10
9.15773794196429
20
5.03621525707808
30
0
41
1
10
9.15620266253148
20
5.03621361133412
30
0
41
1
10
8.90177715424579
20
5.03594170692298
30
0
41
1
10
8.45096227224161
20
5.03566581607649
30
0
41
1
10
7.84697437135048
20
5.03595713581652
30
0
41
1
10
7.36766718608598
20
5.03617688054197
30
0
41
1
10
6.99468008151757
20
5.03502524659916
30
0
41
1
10
6.68463391179938
20
5.03467814754828
30
0
41
1
10
6.37009915390291
20
5.03462244183785
30
0
41
1
10
5.96616630082821
20
5.03433359872904
30
0
41
1
10
5.43044578460052
20
5.03396159592847
30
0
41
1
10
4.84379243858263
20
5.03384641800477
30
0
41
1
10
4.4355495680577
20
5.03310249920062
30
0
41
1
10
4.2504977700755
20
5.03269212369887
30
0
0
SPLINE
5
B1
100
AcDbEntity
8
1
62
256
6
ByLayer
370
18
48
1
60
0
100
AcDbSpline
70
4
71
3
72
12
73
8
40
0
40
0
40
0
40
0
40
0.0242389703134884
40
0.457439230074245
40
0.638220102031276
40
0.761909679184983
40
1
40
1
40
1
40
1
41
1
10
40.6595364495484
20
-1.39352664373143
30
0
41
1
10
40.6596175471565
20
-1.39360272678402
30
0
41
1
10
40.6634410157938
20
-1.39605342074128
30
0
41
1
10
40.7330730691396
20
-1.42798740532038
30
0
41
1
10
40.786623724218
20
-1.45403966077814
30
0
41
1
10
40.8755837076257
20
-1.49960608630161
30
0
41
1
10
40.9503678728319
20
-1.53905475725557
30
0
41
1
10
41.008909779174
20
-1.5702506158531
30
0
0
SPLINE
5
B2
100
AcDbEntity
8
1
62
256
6
ByLayer
370
18
48
1
60
0
100
AcDbSpline
70
4
71
3
72
26
73
22
40
0
40
0
40
0
40
0
40
0.0625
40
0.0625
40
0.125
40
0.125
40
0.25
40
0.25
40
0.3125
40
0.3125
40
0.375
40
0.375
40
0.5
40
0.5
40
0.625
40
0.625
40
0.75
40
0.75
40
0.875
40
0.875
40
1
40
1
40
1
40
1
41
1
10
49.6585666315783
20
2.21303578133225
30
0
41
1
10
49.6851969755567
20
2.07692222180626
30
0
41
1
10
49.7212431154068
20
1.93993749351085
30
0
41
1
10
49.8107502600823
20
1.66435677784958
30
0
41
1
10
49.8646714414297
20
1.52490230249154
30
0
41
1
10
50.045846350284
20
1.11537189253082
30
0
41
1
10
50.192764663121
20
0.851115014352786
30
0
41
1
10
50.4428084580645
20
0.464677174930387
30
0
41
1
10
50.5314737861644
20
0.337208721397957
30
0
41
1
10
50.7145290486464
20
0.0897303070777582
30
0
41
1
10
50.809260564173
20
-0.030853221832075
30
0
41
1
10
51.1017836908859
20
-0.384400541264739
30
0
41
1
10
51.3078665580628
20
-0.609197827049854
30
0
41
1
10
51.7377361068169
20
-1.04135495797865
30
0
41
1
10
51.9624179887525
20
-1.24937401712771
30
0
41
1
10
52.4177217739258
20
-1.64279232654786
30
0
41
1
10
52.6493729183342
20
-1.82918886915152
30
0
41
1
10
53.1195371024541
20
-2.18428762858696
30
0
41
1
10
53.3580252537598
20
-2.35305402354137
30
0
41
1
10
53.8407595269088
20
-2.67573910709888
30
0
41
1
10
54.0850182238727
20
-2.82962536905151
30
0
41
1
10
54.331941724497
20
-2.97664007409384
30
0
0
SPLINE
5
B3
100
AcDbEntity
8
1
62
256
6
ByLayer
370
18
48
1
60
0
100
AcDbSpline
70
4
71
3
72
12
73
8
40
0
40
0
40
0
40
0
40
0.250000000000008
40
0.250000000000008
40
0.500000000000016
40
0.500000000000016
40
1
40
1
40
1
40
1
41
1
10
55.2003992816017
20
-5.11763696925351
30
0
41
1
10
55.205256371775
20
-5.10452809051083
30
0
41
1
10
55.2099040356034
20
-5.0911970285369
30
0
41
1
10
55.217583182119
20
-5.06720555936934
30
0
41
1
10
55.2205967606038
20
-5.05657646661967
30
0
41
1
10
55.2260589095249
20
-5.03281243386195
30
0
41
1
10
55.224970959389
20
-5.02832737542823
30
0
41
1
10
55.221283327427
20
-5.03141588057429
30
0
0
SPLINE
5
B4
100
AcDbEntity
8
1
62
256
6
ByLayer
370
18
48
1
60
0
100
AcDbSpline
70
4
71
3
72
15
73
11
40
0
40
0
40
0
40
0
40
0.145283464666175
40
0.145283464666175
40
0.31622677173294
40
0.487170078799705
40
0.487170078799705
40
0.65811338586647
40
0.65811338586647
40
1
40
1
40
1
40
1
41
1
10
4.00037048252977
20
-5.26906922289297
30
0
41
1
10
4.00037119143673
20
-5.26776612053663
30
0
41
1
10
4.0003719575393
20
-5.25989108155724
30
0
41
1
10
4.0003737176981
20
-5.22869609901238
30
0
41
1
10
4.00037574356185
20
-5.17726959080682
30
0
41
1
10
4.00037797859355
20
-5.09118095911856
30
0
41
1
10
4.00038028994149
20
-4.98759736306616
30
0
41
1
10
4.00038148851894
20
-4.9267880870714
30
0
41
1
10
4.00038510691718
20
-4.71888469750428
30
0
41
1
10
4.00038751058401
20
-4.54923555190612
30
0
41
1
10
4.00038967795467
20
-4.34953422316622
30
0
0
SPLINE
5
B5
100
AcDbEntity
8
1
62
256
6
ByLayer
370
18
48
1
60
0
100
AcDbSpline
70
4
71
3
72
22
73
18
40
0
40
0
40
0
40
0
40
0.250000000000015
40
0.250000000000015
40
0.50000000000003
40
0.50000000000003
40
0.625000000000029
40
0.625000000000029
40
0.750000000000028
40
0.750000000000028
40
0.812500000000021
40
0.812500000000021
40
0.875000000000014
40
0.875000000000014
40
0.937500000000007
40
0.937500000000007
40
1
40
1
40
1
40
1
41
1
10
54.4893917296146
20
1.52507368998735
30
0
41
1
10
54.6713034361676
20
1.55824612686649
30
0
41
1
10
54.8524210140964
20
1.5965018397778
30
0
41
1
10
55.2091004987781
20
1.68998041119312
30
0
41
1
10
55.3848556552637
20
1.74454545830986
30
0
41
1
10
55.6396809473848
20
1.85244547622091
30
0
41
1
10
55.7223199510572
20
1.89253739896378
30
0
41
1
10
55.8800123550274
20
1.98656219173912
30
0
41
1
10
55.9555212428525
20
2.0407941193462
30
0
41
1
10
56.0532288158258
20
2.13761310957184
30
0
41
1
10
56.0835995579846
20
2.17302425054012
30
0
41
1
10
56.1356579176337
20
2.24920186717134
30
0
41
1
10
56.1573654737874
20
2.28980742524683
30
0
41
1
10
56.1898452960268
20
2.3774454326956
30
0
41
1
10
56.1998199682541
20
2.42265644741397
30
0
41
1
10
56.2072962328661
20
2.51493836622052
30
0
41
1
10
56.2046491868685
20
2.56235897360753
30
0
41
1
10
56.1970100703645
20
2.60792674040684
30
0
0
SPLINE
5
B6
100
AcDbEntity
8
1
62
256
6
ByLayer
370
18
48
1
60
0
100
AcDbSpline
70
4
71
3
72
8
73
4
40
0
40
0
40
0
40
0
40
1
40
1
40
1
40
1
41
1
10
55.1483733491262
20
5.25784986347705
30
0
41
1
10
54.7471266382832
20
5.28571389744855
30
0
41
1
10
54.3459825035039
20
5.29952293540208
30
0
41
1
10
53.9444379067987
20
5.2992307942927
30
0
0
SPLINE
5
B7
100
AcDbEntity
8
1
62
256
6
ByLayer
370
18
48
1
60
0
100
AcDbSpline
70
4
71
3
72
40
73
36
40
0
40
0
40
0
40
0
40
0.012968635614742
40
0.012968635614742
40
0.0834708759279742
40
0.0834708759279742
40
0.153973116241206
40
0.153973116241206
40
0.224475356554438
40
0.224475356554438
40
0.294977596867671
40
0.294977596867671
40
0.365479837180903
40
0.365479837180903
40
0.435982077494135
40
0.435982077494135
40
0.506484317807367
40
0.506484317807367
40
0.541735437963984
40
0.541735437963984
40
0.5769865581206
40
0.5769865581206
40
0.647488798433834
40
0.647488798433834
40
0.68273991859045
40
0.68273991859045
40
0.717991038747067
40
0.717991038747067
40
0.7884932790603
40
0.7884932790603
40
0.823744399216917
40
0.823744399216917
40
0.858995519373534
40
0.858995519373534
40
1
40
1
40
1
40
1
41
1
10
26.748974034882
20
-5.06413132346742
30
0
41
1
10
26.6511536182186
20
-5.07951944364851
30
0
41
1
10
26.5533750289789
20
-5.09409990908279
30
0
41
1
10
25.9244405165582
20
-5.1826662223971
30
0
41
1
10
25.3939593449621
20
-5.23355831084999
30
0
41
1
10
24.3309900725472
20
-5.28638363366869
30
0
41
1
10
23.7978284537158
20
-5.28818732665135
30
0
41
1
10
22.7350793989511
20
-5.24256333311939
30
0
41
1
10
22.2046065682589
20
-5.19523579212728
30
0
41
1
10
21.1417175948333
20
-5.05263892135315
30
0
41
1
10
20.6084955918483
20
-4.95702823199227
30
0
41
1
10
19.5454657684054
20
-4.72127791997389
30
0
41
1
10
19.0149416277231
20
-4.58101529371294
30
0
41
1
10
17.9522089017997
20
-4.25889705899195
30
0
41
1
10
17.4189312812685
20
-4.076578057159
30
0
41
1
10
16.355645874952
20
-3.67679815821285
30
0
41
1
10
15.8250102548505
20
-3.45925812743991
30
0
41
1
10
15.028035687291
20
-3.10990515944715
30
0
41
1
10
14.7621910433908
20
-2.98963666689807
30
0
41
1
10
14.2296858318019
20
-2.74207917870407
30
0
41
1
10
13.9632164184073
20
-2.61487233005795
30
0
41
1
10
13.1654542048589
20
-2.22539594729423
30
0
41
1
10
12.6348381578304
20
-1.954549650839
30
0
41
1
10
11.8379547988882
20
-1.53617349856802
30
0
41
1
10
11.5721409383795
20
-1.39474380117923
30
0
41
1
10
11.0397201069653
20
-1.1086633226345
30
0
41
1
10
10.7730897682492
20
-0.963997585142522
30
0
41
1
10
9.97506143356844
20
-0.528256119101826
30
0
41
1
10
9.44450648991219
20
-0.234412440465832
30
0
41
1
10
8.648025945005
20
0.206211768287943
30
0
41
1
10
8.38240013526959
20
0.353018616390642
30
0
41
1
10
7.85049299689499
20
0.645785598342343
30
0
41
1
10
7.58389315204982
20
0.791918350671125
30
0
41
1
10
6.25270899853928
20
1.51584839489743
30
0
41
1
10
5.19458647731295
20
2.07396751785055
30
0
41
1
10
4.12907383494195
20
2.58668581399795
30
0
0
SPLINE
5
B8
100
AcDbEntity
8
1
62
256
6
ByLayer
370
13
48
1
60
0
100
AcDbSpline
70
4
71
3
72
15
73
11
40
0
40
0
40
0
40
0
40
0.131800644915442
40
0.131800644915442
40
0.305440515932354
40
0.479080386949266
40
0.479080386949266
40
0.652720257966177
40
0.652720257966177
40
1
40
1
40
1
40
1
41
1
10
4.25051264450721
20
-5.03265587999644
30
0
41
1
10
4.25052318552153
20
-5.03146732978249
30
0
41
1
10
4.25053449163534
20
-5.02507633712452
30
0
41
1
10
4.25056214263015
20
-4.99850225946471
30
0
41
1
10
4.25059585980523
20
-4.95073621094156
30
0
41
1
10
4.25063341158818
20
-4.86833169059534
30
0
41
1
10
4.25067234776225
20
-4.76828555153025
30
0
41
1
10
4.25069260531467
20
-4.70906133923336
30
0
41
1
10
4.25075302271475
20
-4.50833634943749
30
0
41
1
10
4.25079320949934
20
-4.34350666515508
30
0
41
1
10
4.25082929551539
20
-4.14796097542569
30
0
0
SPLINE
5
B9
100
AcDbEntity
8
1
62
256
6
ByLayer
370
18
48
1
60
0
100
AcDbSpline
70
4
71
3
72
16
73
12
40
0
40
0
40
0
40
0
40
0.144323130386613
40
0.144323130386613
40
0.422141853549128
40
0.422141853549128
40
0.561051215130386
40
0.561051215130386
40
0.699960576711643
40
0.699960576711643
40
1
40
1
40
1
40
1
41
1
10
24.1956244879442
20
-5.04434536618985
30
0
41
1
10
23.9213216766075
20
-5.04401379827127
30
0
41
1
10
23.647047778642
20
-5.0374188105134
30
0
41
1
10
22.8442378474762
20
-4.99981043817252
30
0
41
1
10
22.3152168535863
20
-4.95188572964565
30
0
41
1
10
21.5182189933624
20
-4.84542885656282
30
0
41
1
10
21.2519509900125
20
-4.80416651685846
30
0
41
1
10
20.7179326267788
20
-4.71022316685219
30
0
41
1
10
20.4499760567586
20
-4.65744868400137
30
0
41
1
10
19.607220471737
20
-4.47441613419508
30
0
41
1
10
19.0345516092958
20
-4.32487740942332
30
0
41
1
10
18.4632627060519
20
-4.15341303723176
30
0
0
SPLINE
5
BA
100
AcDbEntity
8
1
62
256
6
ByLayer
370
13
48
1
60
0
100
AcDbSpline
70
4
71
3
72
22
73
18
40
0
40
0
40
0
40
0
40
0.106817072596867
40
0.106817072596867
40
0.222920406881686
40
0.222920406881686
40
0.339023741166505
40
0.339023741166505
40
0.571230409736144
40
0.571230409736144
40
0.803437078305784
40
0.803437078305784
40
0.861488745448194
40
0.861488745448194
40
0.919540412590605
40
0.919540412590605
40
1
40
1
40
1
40
1
41
1
10
18.4632627065269
20
-4.15341303737429
30
0
41
1
10
17.9765922793568
20
-4.00734571700613
30
0
41
1
10
17.4909232913758
20
-3.84536690983026
30
0
41
1
10
16.4768610729437
20
-3.47735033474569
30
0
41
1
10
15.9483852503638
20
-3.26872596721969
30
0
41
1
10
14.8878997088261
20
-2.82163113105256
30
0
41
1
10
14.355402717539
20
-2.5830654016998
30
0
41
1
10
12.7496675512773
20
-1.83065354531854
30
0
41
1
10
11.6930224964136
20
-1.29097742144134
30
0
41
1
10
9.58006077967971
20
-0.187599049422545
30
0
41
1
10
8.52481016847105
20
0.378087722701025
30
0
41
1
10
7.19041573243766
20
1.07021340501757
30
0
41
1
10
6.92239211535124
20
1.2080485496322
30
0
41
1
10
6.38749904946604
20
1.48016383290781
30
0
41
1
10
6.12039114563444
20
1.61457850627346
30
0
41
1
10
5.48324192193363
20
1.93019258429729
30
0
41
1
10
5.11323880440287
20
2.10936317288972
30
0
41
1
10
4.74282921939809
20
2.28344056414275
30
0
0
SPLINE
5
BB
100
AcDbEntity
8
1
62
256
6
ByLayer
370
18
48
1
60
0
100
AcDbSpline
70
4
71
3
72
18
73
14
40
0
40
0
40
0
40
0
40
0.213880233532079
40
0.213880233532079
40
0.427760467064158
40
0.427760467064158
40
0.534700583830198
40
0.534700583830198
40
0.641640700596238
40
0.641640700596238
40
0.855520934128317
40
0.855520934128317
40
1
40
1
40
1
40
1
41
1
10
10.0412300016041
20
-5.00999945322218
30
0
41
1
10
10.4552340737301
20
-4.98819021767025
30
0
41
1
10
10.8685487187026
20
-4.95193580103526
30
0
41
1
10
11.6940556005046
20
-4.85013435867347
30
0
41
1
10
12.1062286281096
20
-4.78487730102984
30
0
41
1
10
12.7258844434484
20
-4.66867487024174
30
0
41
1
10
12.9325880011372
20
-4.62689769519531
30
0
41
1
10
13.3462417021729
20
-4.53715334949047
30
0
41
1
10
13.5533060410206
20
-4.48906148745942
30
0
41
1
10
14.173100581505
20
-4.3342991381416
30
0
41
1
10
14.5857508773989
20
-4.21812981182578
30
0
41
1
10
15.2770722750122
20
-4.00497290258505
30
0
41
1
10
15.5555562209258
20
-3.9134200888939
30
0
41
1
10
15.8342910209592
20
-3.81712015462409
30
0
0
SPLINE
5
BC
100
AcDbEntity
8
1
62
256
6
ByLayer
370
18
48
1
60
0
100
AcDbSpline
70
4
71
3
72
28
73
24
40
0
40
0
40
0
40
0
40
0.0540461203917301
40
0.0540461203917301
40
0.172290355342765
40
0.172290355342765
40
0.231412472818283
40
0.231412472818283
40
0.290534590293802
40
0.290534590293802
40
0.40877882524484
40
0.40877882524484
40
0.467900942720357
40
0.467900942720357
40
0.527023060195875
40
0.527023060195875
40
0.645267295146906
40
0.645267295146906
40
0.763511530097938
40
0.763511530097938
40
0.881755765048969
40
0.881755765048969
40
1
40
1
40
1
40
1
41
1
10
39.1970673551285
20
5.05155368737829
30
0
41
1
10
39.3853648874864
20
5.04947217802865
30
0
41
1
10
39.5737523197111
20
5.04451500258767
30
0
41
1
10
40.1749926375699
20
5.0202062975157
30
0
41
1
10
40.5886134518216
20
4.98798417161635
30
0
41
1
10
41.2069261541261
20
4.92014656601043
30
0
41
1
10
41.4130096350186
20
4.89455436906343
30
0
41
1
10
41.8251212956341
20
4.8356330100855
30
0
41
1
10
42.0311390802192
20
4.80238997405851
30
0
41
1
10
42.6491202857316
20
4.69293842034068
30
0
41
1
10
43.0608013091042
20
4.60703263868712
30
0
41
1
10
43.6805082535618
20
4.45852376190419
30
0
41
1
10
43.8873078503719
20
4.40592531937929
30
0
41
1
10
44.3000791055712
20
4.29533195878051
30
0
41
1
10
44.5061937415688
20
4.23715980464519
30
0
41
1
10
45.1239931696728
20
4.05269643484743
30
0
41
1
10
45.5358832080569
20
3.91730764799408
30
0
41
1
10
46.360281997658
20
3.62575893969498
30
0
41
1
10
46.7728129127202
20
3.46865845868399
30
0
41
1
10
47.5989171871757
20
3.13859575826524
30
0
41
1
10
48.0111847213217
20
2.96506274948223
30
0
41
1
10
48.834507526126
20
2.59966917443847
30
0
41
1
10
49.2461626300995
20
2.40952723429953
30
0
41
1
10
49.658566631579
20
2.21303578133257
30
0
0
SPLINE
5
BD
100
AcDbEntity
8
1
62
256
6
ByLayer
370
18
48
1
60
0
100
AcDbSpline
70
4
71
3
72
40
73
36
40
0
40
0
40
0
40
0
40
0.249999999999998
40
0.249999999999998
40
0.375
40
0.375
40
0.437500000000001
40
0.437500000000001
40
0.500000000000002
40
0.500000000000002
40
0.625000000000003
40
0.625000000000003
40
0.687500000000007
40
0.687500000000007
40
0.718750000000006
40
0.718750000000006
40
0.750000000000005
40
0.750000000000005
40
0.781250000000005
40
0.781250000000005
40
0.812500000000004
40
0.812500000000004
40
0.843750000000003
40
0.843750000000003
40
0.875000000000002
40
0.875000000000002
40
0.906250000000002
40
0.906250000000002
40
0.921875000000001
40
0.921875000000001
40
0.937500000000001
40
0.937500000000001
40
0.96875
40
0.96875
40
1
40
1
40
1
40
1
41
1
10
49.658566631579
20
2.21303578133257
30
0
41
1
10
50.0922744987458
20
1.89883898412569
30
0
41
1
10
50.5321550651155
20
1.61231003143263
30
0
41
1
10
51.2041887092824
20
1.23725792240802
30
0
41
1
10
51.4302140887314
20
1.12126862856425
30
0
41
1
10
51.7726926338881
20
0.962705908146972
30
0
41
1
10
51.8874281135213
20
0.912433309839003
30
0
41
1
10
52.1181481831251
20
0.817486991357384
30
0
41
1
10
52.2344886338656
20
0.772691108034223
30
0
41
1
10
52.5823598621443
20
0.648686400592311
30
0
41
1
10
52.8127336835113
20
0.57968015793108
30
0
41
1
10
53.1556544144065
20
0.49958902320401
30
0
41
1
10
53.269521432224
20
0.476794061045496
30
0
41
1
10
53.4395991045628
20
0.449013724762153
30
0
41
1
10
53.4961705481618
20
0.440827957592347
30
0
41
1
10
53.6090599026111
20
0.426705395009975
30
0
41
1
10
53.6655617482057
20
0.420233337278574
30
0
41
1
10
53.7771382554654
20
0.412604874752276
30
0
41
1
10
53.832116876323
20
0.411516076765736
30
0
41
1
10
53.9393361578189
20
0.417546873899482
30
0
41
1
10
53.9914408664311
20
0.424676209731814
30
0
41
1
10
54.0898064646665
20
0.448664049102547
30
0
41
1
10
54.1363112683401
20
0.465596547780507
30
0
41
1
10
54.2227812428034
20
0.511521496041269
30
0
41
1
10
54.2629364482765
20
0.540823289351465
30
0
41
1
10
54.329606825556
20
0.612558511764206
30
0
41
1
10
54.3567976056995
20
0.656330650631702
30
0
41
1
10
54.3831047149066
20
0.730686829983938
30
0
41
1
10
54.3897183772286
20
0.756853211057489
30
0
41
1
10
54.3988652543997
20
0.811800391214831
30
0
41
1
10
54.4013528266154
20
0.840801563612416
30
0
41
1
10
54.4029885217354
20
0.928943796101009
30
0
41
1
10
54.3966559603198
20
0.989778072097295
30
0
41
1
10
54.3728437953984
20
1.11455929741928
30
0
41
1
10
54.355364899376
20
1.17796896107151
30
0
41
1
10
54.3339911075307
20
1.24106780633471
30
0
0
SPLINE
5
BE
100
AcDbEntity
8
1
62
256
6
ByLayer
370
18
48
1
60
0
100
AcDbSpline
70
4
71
3
72
8
73
4
40
0
40
0
40
0
40
0
40
1
40
1
40
1
40
1
41
1
10
55.1483733491262
20
-5.25784986347705
30
0
41
1
10
55.1657303232261
20
-5.21113865657242
30
0
41
1
10
55.1830727946181
20
-5.16439970348304
30
0
41
1
10
55.2003992816017
20
-5.11763696925351
30
0
0
SPLINE
5
BF
100
AcDbEntity
8
1
62
256
6
ByLayer
370
18
48
1
60
0
100
AcDbSpline
70
4
71
3
72
12
73
8
40
0
40
0
40
0
40
0
40
0.250000000000012
40
0.250000000000012
40
0.500000000000023
40
0.500000000000023
40
1
40
1
40
1
40
1
41
1
10
4.12907383494192
20
2.58668581399795
30
0
41
1
10
4.11103674730856
20
2.59536515244133
30
0
41
1
10
4.09458777854292
20
2.60576527415611
30
0
41
1
10
4.06475943816804
20
2.62985128920332
30
0
41
1
10
4.05139599031531
20
2.64363786830179
30
0
41
1
10
4.01820111444869
20
2.68776858746045
30
0
41
1
10
4.00447629787098
20
2.7218253103851
30
0
41
1
10
4.00093509606171
20
2.75664714042583
30
0
0
SPLINE
5
C0
100
AcDbEntity
8
1
62
256
6
ByLayer
370
18
48
1
60
0
100
AcDbSpline
70
4
71
3
72
18
73
14
40
0
40
0
40
0
40
0
40
0.108635190138802
40
0.108635190138802
40
0.217270380277604
40
0.217270380277604
40
0.434540760555204
40
0.434540760555204
40
0.869081521110409
40
0.869081521110409
40
0.977716711249209
40
0.977716711249209
40
1
40
1
40
1
40
1
41
1
10
55.221283327427
20
-5.03141588057429
30
0
41
1
10
54.9539463068094
20
-5.04718078178752
30
0
41
1
10
54.6863995357646
20
-5.05694406833456
30
0
41
1
10
54.1533332575862
20
-5.06448750936499
30
0
41
1
10
53.8875419798705
20
-5.0622926847831
30
0
41
1
10
53.091808643362
20
-5.03812694037345
30
0
41
1
10
52.5634903100083
20
-4.99860617314096
30
0
41
1
10
50.980459745017
20
-4.81230685283325
30
0
41
1
10
49.9275351220655
20
-4.59761430389244
30
0
41
1
10
48.5988119891176
20
-4.22525735411108
30
0
41
1
10
48.3324398412452
20
-4.14557452044872
30
0
41
1
10
48.0103928367684
20
-4.04349013459449
30
0
41
1
10
47.9555811673811
20
-4.02591568551662
30
0
41
1
10
47.9007809639312
20
-4.00814794721427
30
0
0
SPLINE
5
C1
100
AcDbEntity
8
1
62
256
6
ByLayer
370
13
48
1
60
0
100
AcDbSpline
70
4
71
3
72
22
73
18
40
0
40
0
40
0
40
0
40
0.048277305071147
40
0.048277305071147
40
0.169747978356694
40
0.169747978356694
40
0.412689324927786
40
0.412689324927786
40
0.473424661570558
40
0.473424661570558
40
0.53415999821333
40
0.53415999821333
40
0.655630671498875
40
0.655630671498875
40
0.898572018069964
40
0.898572018069964
40
1
40
1
40
1
40
1
41
1
10
47.9007812573206
20
-4.00814804233926
30
0
41
1
10
47.6884201467129
20
-3.93929471238772
30
0
41
1
10
47.4762312208365
20
-3.86753874160743
30
0
41
1
10
46.7324700675069
20
-3.60618662949062
30
0
41
1
10
46.2029955062684
20
-3.40238804819424
30
0
41
1
10
44.6180229462171
20
-2.7484556951301
30
0
41
1
10
43.5658428787543
20
-2.25592814592181
30
0
41
1
10
42.2405947928818
20
-1.59521357033816
30
0
41
1
10
41.9750614083123
20
-1.46078476738347
30
0
41
1
10
41.4425409930829
20
-1.18820742574769
30
0
41
1
10
41.1750473552895
20
-1.04982304022721
30
0
41
1
10
40.3735502259856
20
-0.631730511545214
30
0
41
1
10
39.8424892438783
20
-0.350482270985651
30
0
41
1
10
38.2542044055668
20
0.491427905612028
30
0
41
1
10
37.2019107814502
20
1.05027895849872
30
0
41
1
10
35.7016484680867
20
1.80491344955996
30
0
41
1
10
35.2587459135318
20
2.02263805633967
30
0
41
1
10
34.8138441719503
20
2.23397231557161
30
0
0
SPLINE
5
C2
100
AcDbEntity
8
1
62
256
6
ByLayer
370
18
48
1
60
0
100
AcDbSpline
70
4
71
3
72
23
73
19
40
0
40
0
40
0
40
0
40
0.124999999999999
40
0.124999999999999
40
0.187499999999999
40
0.187499999999999
40
0.249999999999999
40
0.249999999999999
40
0.5
40
0.5
40
0.5625
40
0.5625
40
0.625000000000001
40
0.625000000000001
40
0.750000000000001
40
0.875
40
0.875
40
1
40
1
40
1
40
1
41
1
10
55.1572411983871
20
-5.06293819694423
30
0
41
1
10
55.0841299353126
20
-5.06286181573302
30
0
41
1
10
55.0145182027819
20
-5.05222703902851
30
0
41
1
10
54.9156035154618
20
-5.01967209968436
30
0
41
1
10
54.8835513623675
20
-5.00604651331159
30
0
41
1
10
54.8213591657957
20
-4.97302633546386
30
0
41
1
10
54.7911229968955
20
-4.95354524376106
30
0
41
1
10
54.646686006396
20
-4.84242660231698
30
0
41
1
10
54.5516555582459
20
-4.71022282728089
30
0
41
1
10
54.4597596732878
20
-4.48820796836881
30
0
41
1
10
54.4427425530807
20
-4.44093016280007
30
0
41
1
10
54.4115400528206
20
-4.34039772135634
30
0
41
1
10
54.3973201021255
20
-4.28693592591532
30
0
41
1
10
54.3596604247037
20
-4.11981251681192
30
0
41
1
10
54.3223093758273
20
-3.87807070035785
30
0
41
1
10
54.3102738673873
20
-3.59910779935976
30
0
41
1
10
54.3112433633734
20
-3.30102382249692
30
0
41
1
10
54.3183570322988
20
-3.14173817628682
30
0
41
1
10
54.331941724497
20
-2.97664007409384
30
0
0
SPLINE
5
C3
100
AcDbEntity
8
1
62
256
6
ByLayer
370
13
48
1
60
0
100
AcDbSpline
70
4
71
3
72
23
73
19
40
0
40
0
40
0
40
0
40
0.197023223811207
40
0.197023223811207
40
0.29553483571681
40
0.29553483571681
40
0.394046447622413
40
0.492558059528017
40
0.492558059528017
40
0.59106967143362
40
0.59106967143362
40
0.788092895244827
40
0.788092895244827
40
0.88660450715043
40
0.88660450715043
40
0.985116119056033
40
0.985116119056033
40
1
40
1
40
1
40
1
41
1
10
4.25026864722133
20
2.51171114714029
30
0
41
1
10
4.25030314887863
20
2.81410335285361
30
0
41
1
10
4.25032660830351
20
3.09505940479758
30
0
41
1
10
4.25035228153135
20
3.48452172735159
30
0
41
1
10
4.25035918728204
20
3.60814914065725
30
0
41
1
10
4.25037080912142
20
3.84032221120916
30
0
41
1
10
4.25038030527298
20
4.05839751698062
30
0
41
1
10
4.25038790061092
20
4.24855597537729
30
0
41
1
10
4.25039563374344
20
4.42444727384395
30
0
41
1
10
4.25039958842956
20
4.5054184208137
30
0
41
1
10
4.25041288715875
20
4.72124605256352
30
0
41
1
10
4.25042381078742
20
4.83135522146259
30
0
41
1
10
4.2504475630048
20
4.94613165890871
30
0
41
1
10
4.25045673798508
20
4.97599978733837
30
0
41
1
10
4.25047777777391
20
5.017608628517
30
0
41
1
10
4.25048961303236
20
5.02940856920608
30
0
41
1
10
4.2505048404411
20
5.03263438116522
30
0
41
1
10
4.25050687120415
20
5.03285007504573
30
0
41
1
10
4.25050893293547
20
5.03285905170921
30
0
0
SPLINE
5
C4
100
AcDbEntity
8
1
62
256
6
ByLayer
370
18
48
1
60
0
100
AcDbSpline
70
4
71
3
72
16
73
12
40
0
40
0
40
0
40
0
40
0.25
40
0.25
40
0.5
40
0.5
40
0.75
40
0.75
40
0.875
40
0.875
40
1
40
1
40
1
40
1
41
1
10
10.041089657004
20
-5.01000747899184
30
0
41
1
10
9.54061923998847
20
-5.03623315998922
30
0
41
1
10
9.04543868462935
20
-5.0438082003979
30
0
41
1
10
8.06268802286203
20
-5.01240817902544
30
0
41
1
10
7.57498562860582
20
-4.97470273288351
30
0
41
1
10
6.60593850439116
20
-4.84356948355497
30
0
41
1
10
6.12428647942019
20
-4.75376144983224
30
0
41
1
10
5.40796015878126
20
-4.56847116232842
30
0
41
1
10
5.17035782204371
20
-4.49827615080309
30
0
41
1
10
4.70411579401383
20
-4.33892245140231
30
0
41
1
10
4.47478809665108
20
-4.24967158543805
30
0
41
1
10
4.2508292990324
20
-4.14796097644128
30
0
0
SPLINE
5
C5
100
AcDbEntity
8
1
62
256
6
ByLayer
370
18
48
1
60
0
100
AcDbSpline
70
4
71
3
72
8
73
4
40
0
40
0
40
0
40
0
40
1
40
1
40
1
40
1
41
1
10
55.2212833274271
20
-5.03141588057431
30
0
41
1
10
55.1962200669885
20
-5.05240713178443
30
0
41
1
10
55.1748539213469
20
-5.06296752533297
30
0
41
1
10
55.157241198383
20
-5.06293819694423
30
0
0
SPLINE
5
C6
100
AcDbEntity
8
1
62
256
6
ByLayer
370
18
48
1
60
0
100
AcDbSpline
70
4
71
3
72
96
73
92
40
0
40
0
40
0
40
0
40
0.033068772773902
40
0.033068772773902
40
0.049603159160853
40
0.049603159160853
40
0.0661375455478041
40
0.0661375455478041
40
0.0992063183217061
40
0.0992063183217061
40
0.115740704708657
40
0.115740704708657
40
0.132275091095607
40
0.132275091095607
40
0.148809477482558
40
0.148809477482558
40
0.165343863869509
40
0.165343863869509
40
0.198412636643411
40
0.198412636643411
40
0.231481409417313
40
0.231481409417313
40
0.264550182191215
40
0.264550182191215
40
0.281084568578166
40
0.281084568578166
40
0.297618954965117
40
0.297618954965117
40
0.314153341352068
40
0.314153341352068
40
0.330687727739019
40
0.330687727739019
40
0.363756500512922
40
0.363756500512922
40
0.380290886899874
40
0.380290886899874
40
0.396825273286825
40
0.396825273286825
40
0.413359659673777
40
0.413359659673777
40
0.429894046060729
40
0.429894046060729
40
0.462962818834633
40
0.462962818834633
40
0.496031591608537
40
0.496031591608537
40
0.529100364382441
40
0.529100364382441
40
0.545634750769393
40
0.545634750769393
40
0.562169137156345
40
0.562169137156345
40
0.578703523543297
40
0.578703523543297
40
0.59523790993025
40
0.59523790993025
40
0.628306682704154
40
0.628306682704154
40
0.644841069091107
40
0.644841069091107
40
0.661375455478059
40
0.661375455478059
40
0.694444228251963
40
0.694444228251963
40
0.727513001025867
40
0.727513001025867
40
0.744047387412818
40
0.744047387412818
40
0.76058177379977
40
0.76058177379977
40
0.793650546573673
40
0.793650546573673
40
0.810184932960624
40
0.810184932960624
40
0.826719319347576
40
0.826719319347576
40
0.843253705734527
40
0.843253705734527
40
0.859788092121479
40
0.859788092121479
40
0.892856864895381
40
0.892856864895381
40
0.909391251282331
40
0.909391251282331
40
0.925925637669282
40
0.925925637669282
40
0.958994410443182
40
0.958994410443182
40
0.992063183217082
40
0.992063183217082
40
1
40
1
40
1
40
1
41
1
10
16.8588734178478
20
4.1677433035523
30
0
41
1
10
17.2590372061666
20
4.30469516282201
30
0
41
1
10
17.6593920679171
20
4.42888057202717
30
0
41
1
10
18.2590211638625
20
4.59781051033704
30
0
41
1
10
18.4587444937985
20
4.65121060697865
30
0
41
1
10
18.8577589910448
20
4.75220688614471
30
0
41
1
10
19.0572393645299
20
4.7996299185138
30
0
41
1
10
19.6569280730903
20
4.93173820441734
30
0
41
1
10
20.0583848921625
20
5.00696789853751
30
0
41
1
10
20.6584804819189
20
5.10028678828877
30
0
41
1
10
20.8580324286535
20
5.12811800368297
30
0
41
1
10
21.2575949889262
20
5.17664279916355
30
0
41
1
10
21.457465932619
20
5.19742305846995
30
0
41
1
10
21.8571519871113
20
5.23217730073719
30
0
41
1
10
22.0569801430512
20
5.24614628147197
30
0
41
1
10
22.4564393786142
20
5.26724376406892
30
0
41
1
10
22.6559238824734
20
5.27437234128439
30
0
41
1
10
23.2553772677073
20
5.28518475885355
30
0
41
1
10
23.6571221688299
20
5.27840871259008
30
0
41
1
10
24.4570808067893
20
5.23719363443982
30
0
41
1
10
24.8555027167548
20
5.20246497413342
30
0
41
1
10
25.6546677737668
20
5.10648535181528
30
0
41
1
10
26.0546417622816
20
5.04516912067052
30
0
41
1
10
26.654456954836
20
4.93233403362709
30
0
41
1
10
26.8547093230311
20
4.8913621961992
30
0
41
1
10
27.2550092824785
20
4.80352927276152
30
0
41
1
10
27.4550806313533
20
4.75655340578001
30
0
41
1
10
27.8549108720974
20
4.65640906072596
30
0
41
1
10
28.0546789396159
20
4.60324937105486
30
0
41
1
10
28.4536873725227
20
4.49047506634784
30
0
41
1
10
28.6529747730583
20
4.43087925754642
30
0
41
1
10
29.2521098579564
20
4.2443925500518
30
0
41
1
10
29.6527502880547
20
4.1091574080906
30
0
41
1
10
30.2534382588857
20
3.88894998028141
30
0
41
1
10
30.4530995111004
20
3.81259886720824
30
0
41
1
10
30.85261860141
20
3.6556780058454
30
0
41
1
10
31.0524881899395
20
3.57514362309755
30
0
41
1
10
31.4521243334689
20
3.40956915403973
30
0
41
1
10
31.6519137431455
20
3.3245581466004
30
0
41
1
10
32.0512755845261
20
3.14984153576987
30
0
41
1
10
32.2507204104116
20
3.0599419094122
30
0
41
1
10
32.8494997412247
20
2.78421503166626
30
0
41
1
10
33.2509076522451
20
2.59355397406316
30
0
41
1
10
34.0513609835059
20
2.19897695347734
30
0
41
1
10
34.4497911257552
20
1.99401955004333
30
0
41
1
10
35.2486020959683
20
1.57806061792283
30
0
41
1
10
35.6484192769721
20
1.36618586573499
30
0
41
1
10
36.2477211056571
20
1.0405842189723
30
0
41
1
10
36.447680942379
20
0.930885322644798
30
0
41
1
10
36.8481388828225
20
0.711639055923882
30
0
41
1
10
37.0482826251714
20
0.601871072621947
30
0
41
1
10
37.4482321822456
20
0.381741447524888
30
0
41
1
10
37.6480454486821
20
0.271393318133789
30
0
41
1
10
38.0471519836954
20
0.0497734119963127
30
0
41
1
10
38.2463430784524
20
-0.0616835366441819
30
0
41
1
10
38.8449718977952
20
-0.394111831870191
30
0
41
1
10
39.2450580039597
20
-0.613879305931476
30
0
41
1
10
39.8455405429366
20
-0.94283208824038
30
0
41
1
10
40.0455649957847
20
-1.05256769486309
30
0
41
1
10
40.4451043637824
20
-1.2697688900318
30
0
41
1
10
40.6449646416767
20
-1.3770103226546
30
0
41
1
10
41.2444051896677
20
-1.69545410494504
30
0
41
1
10
41.6437024578606
20
-1.90363355345724
30
0
41
1
10
42.4414413999073
20
-2.31191950480766
30
0
41
1
10
42.8420099737616
20
-2.50939709006693
30
0
41
1
10
43.4427799728604
20
-2.79562512092829
30
0
41
1
10
43.6427178947146
20
-2.88929662410641
30
0
41
1
10
44.0418371867394
20
-3.07329867155821
30
0
41
1
10
44.2412152562245
20
-3.16332199134251
30
0
41
1
10
44.8401138409839
20
-3.42564271927094
30
0
41
1
10
45.2397570083987
20
-3.59120904639164
30
0
41
1
10
45.8387452323997
20
-3.82685555576742
30
0
41
1
10
46.0382786839967
20
-3.90331896610374
30
0
41
1
10
46.4384962162251
20
-4.05030789106308
30
0
41
1
10
46.638884234579
20
-4.12096590195563
30
0
41
1
10
47.0389926306634
20
-4.25660134915515
30
0
41
1
10
47.2388706457743
20
-4.32161695388115
30
0
41
1
10
47.6381062615553
20
-4.44619641453482
30
0
41
1
10
47.837316653736
20
-4.50588813611972
30
0
41
1
10
48.4354800269102
20
-4.67541666476345
30
0
41
1
10
48.8352884113954
20
-4.77557736027441
30
0
41
1
10
49.4352635512361
20
-4.90766791502992
30
0
41
1
10
49.6353866858319
20
-4.94873543527422
30
0
41
1
10
50.0350517921595
20
-5.02418815618469
30
0
41
1
10
50.2348623559061
20
-5.0584242567104
30
0
41
1
10
50.8342300173465
20
-5.1508934080675
30
0
41
1
10
51.2335060082616
20
-5.19907316623716
30
0
41
1
10
52.030453860832
20
-5.2685116644241
30
0
41
1
10
52.4297445933247
20
-5.28926846846718
30
0
41
1
10
52.9260640544645
20
-5.297826586334
30
0
41
1
10
53.0221962639828
20
-5.29868323896778
30
0
41
1
10
53.118293551777
20
-5.29873485344851
30
0
0
SPLINE
5
C7
100
AcDbEntity
8
1
62
256
6
ByLayer
370
18
48
1
60
0
100
AcDbSpline
70
4
71
3
72
20
73
16
40
0
40
0
40
0
40
0
40
0.25
40
0.25
40
0.375000000000001
40
0.375000000000001
40
0.500000000000001
40
0.500000000000001
40
0.625000000000001
40
0.625000000000001
40
0.75
40
0.75
40
0.875
40
0.875
40
1
40
1
40
1
40
1
41
1
10
56.1970100703567
20
2.60792674040386
30
0
41
1
10
56.1167428180538
20
2.82424351452786
30
0
41
1
10
56.0362763941781
20
3.04037974832627
30
0
41
1
10
55.9152803288476
20
3.3634046688162
30
0
41
1
10
55.8748884793931
20
3.47088044929672
30
0
41
1
10
55.7940818350447
20
3.68575561465863
30
0
41
1
10
55.753655406307
20
3.79311626528656
30
0
41
1
10
55.6727041972664
20
4.00751011032787
30
0
41
1
10
55.6321628136333
20
4.11460657502866
30
0
41
1
10
55.5510500734494
20
4.32786909597488
30
0
41
1
10
55.5104746099262
20
4.43405941790687
30
0
41
1
10
55.4293125738769
20
4.64618351345584
30
0
41
1
10
55.3887213929842
20
4.75201086269979
30
0
41
1
10
55.3074896060072
20
4.96252414916785
30
0
41
1
10
55.2668359015962
20
5.06690759717299
30
0
41
1
10
55.2261668093628
20
5.17093568296448
30
0
0
SPLINE
5
C8
100
AcDbEntity
8
1
62
256
6
ByLayer
370
18
48
1
60
0
100
AcDbSpline
70
2053
71
3
72
62
73
58
40
0
40
0
40
0
40
0
40
0.0312500000000001
40
0.0312500000000001
40
0.0625000000000001
40
0.0625000000000001
40
0.0937500000000002
40
0.0937500000000002
40
0.125
40
0.125
40
0.15625
40
0.15625
40
0.1875
40
0.1875
40
0.21875
40
0.21875
40
0.25
40
0.25
40
0.281250000000001
40
0.281250000000001
40
0.312500000000001
40
0.312500000000001
40
0.374999999999998
40
0.374999999999998
40
0.437499999999996
40
0.437499999999996
40
0.468749999999997
40
0.468749999999997
40
0.499999999999997
40
0.499999999999997
40
0.531249999999998
40
0.531249999999998
40
0.562499999999998
40
0.562499999999998
40
0.593749999999999
40
0.593749999999999
40
0.624999999999999
40
0.624999999999999
40
0.65625
40
0.65625
40
0.6875
40
0.6875
40
0.750000000000001
40
0.750000000000001
40
0.781250000000001
40
0.781250000000001
40
0.812500000000001
40
0.812500000000001
40
0.843750000000001
40
0.843750000000001
40
0.875000000000001
40
0.875000000000001
40
0.90625
40
0.90625
40
0.9375
40
0.9375
40
1
40
1
40
1
40
1
41
1
10
55.3454370599956
20
-2.07427529240787
30
0
41
1
10
55.3171771698913
20
-2.11373458298161
30
0
41
1
10
55.2894502781298
20
-2.1561440758272
30
0
41
1
10
55.2351607431942
20
-2.24740730071136
30
0
41
1
10
55.2083006756451
20
-2.29687009145198
30
0
41
1
10
55.1576420207069
20
-2.40031782126235
30
0
41
1
10
55.13390842663
20
-2.4540240795773
30
0
41
1
10
55.0901282426065
20
-2.5660169933619
30
0
41
1
10
55.0706275309923
20
-2.62307862373262
30
0
41
1
10
55.0379991782181
20
-2.73554548061722
30
0
41
1
10
55.0245316524283
20
-2.79240607635555
30
0
41
1
10
55.0054674154818
20
-2.89900259528773
30
0
41
1
10
54.9996058528537
20
-2.9497523053864
30
0
41
1
10
54.9953397922519
20
-3.04284146406377
30
0
41
1
10
54.9968831539118
20
-3.08443722753077
30
0
41
1
10
55.0065680445072
20
-3.15874691724838
30
0
41
1
10
55.0146038694514
20
-3.19044734762861
30
0
41
1
10
55.0359683101975
20
-3.24383839614811
30
0
41
1
10
55.0494234525407
20
-3.265617552539
30
0
41
1
10
55.0802224160731
20
-3.29896441952081
30
0
41
1
10
55.0976521658698
20
-3.31079972650403
30
0
41
1
10
55.1555758417306
20
-3.33287881530134
30
0
41
1
10
55.1999738216859
20
-3.32940573558912
30
0
41
1
10
55.2980881028536
20
-3.29039635607373
30
0
41
1
10
55.3500564170739
20
-3.25560915693984
30
0
41
1
10
55.4324097125184
20
-3.18032577344258
30
0
41
1
10
55.4603119381144
20
-3.15152097540309
30
0
41
1
10
55.5159165747927
20
-3.08749746028459
30
0
41
1
10
55.5437853767398
20
-3.05213613405061
30
0
41
1
10
55.5996694819536
20
-2.9740324707191
30
0
41
1
10
55.6279434118734
20
-2.93081919083136
30
0
41
1
10
55.6824824443358
20
-2.8391745671201
30
0
41
1
10
55.7089334106402
20
-2.79056578623582
30
0
41
1
10
55.7599308536193
20
-2.68686505075488
30
0
41
1
10
55.7841310762764
20
-2.63235523453167
30
0
41
1
10
55.8279078436124
20
-2.52123739334959
30
0
41
1
10
55.8479547405996
20
-2.46326377475708
30
0
41
1
10
55.8811644650904
20
-2.35019130209343
30
0
41
1
10
55.8946491895474
20
-2.294331613791
30
0
41
1
10
55.9144583417383
20
-2.18599062877425
30
0
41
1
10
55.9204282666293
20
-2.13563955500408
30
0
41
1
10
55.9272990198815
20
-1.99530205996152
30
0
41
1
10
55.9164582909615
20
-1.92027588369678
30
0
41
1
10
55.8841191269207
20
-1.84066672694377
30
0
41
1
10
55.87059249446
20
-1.81915225199143
30
0
41
1
10
55.8393708008715
20
-1.78610033774831
30
0
41
1
10
55.8218061058217
20
-1.77457436993814
30
0
41
1
10
55.7832137120745
20
-1.7603844230504
30
0
41
1
10
55.7620874754382
20
-1.75779836867955
30
0
41
1
10
55.7177547265886
20
-1.76105350023511
30
0
41
1
10
55.6944199842429
20
-1.76682046517513
30
0
41
1
10
55.6455054871141
20
-1.78630822743881
30
0
41
1
10
55.6198184371549
20
-1.80014757926489
30
0
41
1
10
55.5676250085547
20
-1.83501215989696
30
0
41
1
10
55.5409588174975
20
-1.85607477613217
30
0
41
1
10
55.4592147613112
20
-1.93038980808299
30
0
41
1
10
55.4019568402042
20
-1.9953567112604
30
0
41
1
10
55.3454370599956
20
-2.07427529240787
30
0
0
SPLINE
5
C9
100
AcDbEntity
8
1
62
256
6
ByLayer
370
18
48
1
60
0
100
AcDbSpline
70
4
71
3
72
8
73
4
40
0
40
0
40
0
40
0
40
1
40
1
40
1
40
1
41
1
10
4.00093509606157
20
2.75664714042677
30
0
41
1
10
4.00054844426836
20
2.76044921773121
30
0
41
1
10
4.00035382126271
20
2.76426616610794
30
0
41
1
10
4.00035384832836
20
2.76807663712293
30
0
0
SPLINE
5
CA
100
AcDbEntity
8
1
62
256
6
ByLayer
370
18
48
1
60
0
100
AcDbSpline
70
4
71
3
72
24
73
20
40
0
40
0
40
0
40
0
40
0.19047673305673
40
0.19047673305673
40
0.285715099585098
40
0.285715099585098
40
0.380953466113466
40
0.380953466113466
40
0.571430199170206
40
0.571430199170206
40
0.666668565698574
40
0.666668565698574
40
0.761906932226942
40
0.761906932226942
40
0.85714529875531
40
0.85714529875531
40
0.952383665283677
40
0.952383665283677
40
1
40
1
40
1
40
1
41
1
10
16.8588734178477
20
-4.16774330355233
30
0
41
1
10
17.2590372061666
20
-4.30469516282201
30
0
41
1
10
17.659392067917
20
-4.42888057202717
30
0
41
1
10
18.2590211638624
20
-4.59781051033704
30
0
41
1
10
18.4587444937983
20
-4.65121060697865
30
0
41
1
10
18.8577589910447
20
-4.75220688614468
30
0
41
1
10
19.0572393645298
20
-4.79962991851377
30
0
41
1
10
19.6569280730903
20
-4.93173820441734
30
0
41
1
10
20.0583848921623
20
-5.00696789853748
30
0
41
1
10
20.6584804819187
20
-5.10028678828874
30
0
41
1
10
20.8580324286533
20
-5.12811800368294
30
0
41
1
10
21.257594988926
20
-5.17664279916352
30
0
41
1
10
21.4574659326187
20
-5.19742305846992
30
0
41
1
10
21.857151987111
20
-5.23217730073716
30
0
41
1
10
22.056980143051
20
-5.24614628147197
30
0
41
1
10
22.4564393786139
20
-5.26724376406892
30
0
41
1
10
22.6559238824731
20
-5.27437234128439
30
0
41
1
10
22.9556445986063
20
-5.27977844227036
30
0
41
1
10
23.0556793358252
20
-5.28070648833992
30
0
41
1
10
23.1557853548677
20
-5.28076300625165
30
0
0
SPLINE
5
CB
100
AcDbEntity
8
1
62
256
6
ByLayer
370
18
48
1
60
0
100
AcDbSpline
70
4
71
3
72
30
73
26
40
0
40
0
40
0
40
0
40
0.0446469055771771
40
0.0446469055771771
40
0.108337111872032
40
0.108337111872032
40
0.172027318166886
40
0.172027318166886
40
0.23571752446174
40
0.23571752446174
40
0.363097937051446
40
0.363097937051446
40
0.426788143346301
40
0.426788143346301
40
0.490478349641155
40
0.490478349641155
40
0.617858762230868
40
0.617858762230868
40
0.74523917482058
40
0.74523917482058
40
0.808929381115435
40
0.808929381115435
40
0.872619587410292
40
0.872619587410292
40
1
40
1
40
1
40
1
41
1
10
45.8181634614982
20
3.81818183261129
30
0
41
1
10
45.9581172251176
20
3.87231507982585
30
0
41
1
10
46.0981109820998
20
3.9252937284962
30
0
41
1
10
46.4384962162239
20
4.05030789106269
30
0
41
1
10
46.6388842345778
20
4.1209659019552
30
0
41
1
10
47.0389926306622
20
4.25660134915472
30
0
41
1
10
47.238870645773
20
4.32161695388078
30
0
41
1
10
47.6381062615541
20
4.44619641453446
30
0
41
1
10
47.8373166537348
20
4.50588813611935
30
0
41
1
10
48.435480026909
20
4.67541666476311
30
0
41
1
10
48.8352884113941
20
4.7755773602741
30
0
41
1
10
49.4352635512347
20
4.90766791502963
30
0
41
1
10
49.6353866858305
20
4.94873543527393
30
0
41
1
10
50.0350517921581
20
5.02418815618447
30
0
41
1
10
50.2348623559046
20
5.05842425671017
30
0
41
1
10
50.8342300173451
20
5.1508934080673
30
0
41
1
10
51.2335060082602
20
5.19907316623701
30
0
41
1
10
52.0304538608306
20
5.26851166442401
30
0
41
1
10
52.4297445933233
20
5.28926846846713
30
0
41
1
10
53.0301264800763
20
5.29962095180551
30
0
41
1
10
53.2305460250731
20
5.29960065575159
30
0
41
1
10
53.6301204884865
20
5.29252327272462
30
0
41
1
10
53.8294740233547
20
5.28544646390111
30
0
41
1
10
54.4281678552744
20
5.25395596635198
30
0
41
1
10
54.8274417663525
20
5.21934886489575
30
0
41
1
10
55.2261668093579
20
5.17093568294879
30
0
0
SPLINE
5
CC
100
AcDbEntity
8
1
62
256
6
ByLayer
370
18
48
1
60
0
100
AcDbSpline
70
4
71
3
72
8
73
4
40
0
40
0
40
0
40
0
40
1
40
1
40
1
40
1
41
1
10
16.8588711046378
20
4.16776342175214
30
0
41
1
10
16.5228291197385
20
4.05301932205853
30
0
41
1
10
16.1849613264003
20
3.93300134446702
30
0
41
1
10
15.8450138756428
20
3.80910309825771
30
0
0
SPLINE
5
CD
100
AcDbEntity
8
1
62
256
6
ByLayer
370
18
48
1
60
0
100
AcDbSpline
70
4
71
3
72
22
73
18
40
0
40
0
40
0
40
0
40
0.0439525263150128
40
0.0439525263150128
40
0.191309855609996
40
0.191309855609996
40
0.338667184904978
40
0.338667184904978
40
0.486024514199961
40
0.486024514199961
40
0.780739172789927
40
0.780739172789927
40
0.854417837437419
40
0.854417837437419
40
0.92809650208491
40
0.92809650208491
40
1
40
1
40
1
40
1
41
1
10
13.3156719859111
20
-2.72459434013265
30
0
41
1
10
13.2695974470768
20
-2.76208842526398
30
0
41
1
10
13.2235468936667
20
-2.79974887049079
30
0
41
1
10
13.0232759265868
20
-2.96414094277253
30
0
41
1
10
12.8691393417597
20
-3.09222975439997
30
0
41
1
10
12.5590481410119
20
-3.34892920002406
30
0
41
1
10
12.4030968666435
20
-3.47754434763323
30
0
41
1
10
12.0869369925848
20
-3.73246144805773
30
0
41
1
10
11.9288648468711
20
-3.85699995467169
30
0
41
1
10
11.4518170664778
20
-4.21705874086777
30
0
41
1
10
11.1296506144425
20
-4.43892049922187
30
0
41
1
10
10.7116893004166
20
-4.68099754588116
30
0
41
1
10
10.6271946513782
20
-4.72773965920535
30
0
41
1
10
10.4584632351155
20
-4.81655833849351
30
0
41
1
10
10.3740093948368
20
-4.85876910847077
30
0
41
1
10
10.2068221105069
20
-4.93792202512611
30
0
41
1
10
10.1240925344675
20
-4.97496145866728
30
0
41
1
10
10.0411652129993
20
-5.01002684916844
30
0
0
SPLINE
5
CE
100
AcDbEntity
8
1
62
256
6
ByLayer
370
18
48
1
60
0
100
AcDbSpline
70
4
71
3
72
18
73
14
40
0
40
0
40
0
40
0
40
0.0411796965632595
40
0.0411796965632595
40
0.25963956813928
40
0.25963956813928
40
0.36886950392729
40
0.36886950392729
40
0.478099439715301
40
0.478099439715301
40
0.915019182867354
40
0.915019182867354
40
1
40
1
40
1
40
1
41
1
10
38.964238307347
20
0.0036527564340361
30
0
41
1
10
39.0639098119033
20
-0.0502191272569235
30
0
41
1
10
39.1636305038396
20
-0.104119738095591
30
0
41
1
10
39.7927523880888
20
-0.444017341515149
30
0
41
1
10
40.3237701649285
20
-0.730260735888976
30
0
41
1
10
41.1253558913364
20
-1.15523258959689
30
0
41
1
10
41.3928948691465
20
-1.29581250844717
30
0
41
1
10
41.9254387796086
20
-1.57243286450526
30
0
41
1
10
42.1909655676261
20
-1.70873205379428
30
0
41
1
10
43.5160795521319
20
-2.37811341273826
30
0
41
1
10
44.5678764281059
20
-2.87528404832679
30
0
41
1
10
45.8297837622231
20
-3.39881333733282
30
0
41
1
10
46.0354379993273
20
-3.48182966247262
30
0
41
1
10
46.2413673160915
20
-3.56246246398146
30
0
0
SPLINE
5
CF
100
AcDbEntity
8
1
62
256
6
ByLayer
370
13
48
1
60
0
100
AcDbSpline
70
4
71
3
72
20
73
16
40
0
40
0
40
0
40
0
40
0.108893298441031
40
0.108893298441031
40
0.198003968596927
40
0.198003968596927
40
0.287114638752825
40
0.287114638752825
40
0.643557319376414
40
0.643557319376414
40
0.821778659688208
40
0.821778659688208
40
0.910889329844104
40
0.910889329844104
40
1
40
1
40
1
40
1
41
1
10
46.2413673158277
20
-3.56246246387815
30
0
41
1
10
46.5648197303696
20
-3.68911210633709
30
0
41
1
10
46.8889507903221
20
-3.80988138899897
30
0
41
1
10
47.4802427742667
20
-4.01770350374551
30
0
41
1
10
47.7473821014113
20
-4.10700342604073
30
0
41
1
10
48.2820117797099
20
-4.2758847059637
30
0
41
1
10
48.5486061977359
20
-4.35518359791377
30
0
41
1
10
49.8791502459709
20
-4.72501976881887
30
0
41
1
10
50.9357881287423
20
-4.93574750879577
30
0
41
1
10
52.5286439421753
20
-5.11166657712371
30
0
41
1
10
53.0613367156203
20
-5.14698525341464
30
0
41
1
10
53.8636815489473
20
-5.16345161051424
30
0
41
1
10
54.1309677472643
20
-5.16284074337392
30
0
41
1
10
54.6656191277502
20
-5.14940116697807
30
0
41
1
10
54.9330502577742
20
-5.13625244710107
30
0
41
1
10
55.2003992816018
20
-5.11763696925348
30
0
0
SPLINE
5
D0
100
AcDbEntity
8
1
62
256
6
ByLayer
370
18
48
1
60
0
100
AcDbSpline
70
4
71
3
72
20
73
16
40
0
40
0
40
0
40
0
40
0.25
40
0.25
40
0.375
40
0.375
40
0.5
40
0.5
40
0.625
40
0.625
40
0.75
40
0.75
40
0.875
40
0.875
40
1
40
1
40
1
40
1
41
1
10
56.1970100703567
20
-2.60792674040391
30
0
41
1
10
56.1167428180538
20
-2.82424351452789
30
0
41
1
10
56.036276394178
20
-3.0403797483263
30
0
41
1
10
55.9152803288476
20
-3.36340466881623
30
0
41
1
10
55.8748884793931
20
-3.47088044929674
30
0
41
1
10
55.7940818350447
20
-3.68575561465866
30
0
41
1
10
55.753655406307
20
-3.79311626528656
30
0
41
1
10
55.6727041972664
20
-4.00751011032787
30
0
41
1
10
55.6321628136333
20
-4.11460657502869
30
0
41
1
10
55.5510500734494
20
-4.32786909597488
30
0
41
1
10
55.5104746099262
20
-4.43405941790689
30
0
41
1
10
55.4293125738769
20
-4.64618351345587
30
0
41
1
10
55.3887213929842
20
-4.75201086269979
30
0
41
1
10
55.3074896060072
20
-4.96252414916788
30
0
41
1
10
55.2668359015963
20
-5.06690759717299
30
0
41
1
10
55.2261668093628
20
-5.17093568296448
30
0
0
SPLINE
5
D1
100
AcDbEntity
8
1
62
256
6
ByLayer
370
18
48
1
60
0
100
AcDbSpline
70
4
71
3
72
8
73
4
40
0
40
0
40
0
40
0
40
1
40
1
40
1
40
1
41
1
10
9.15572267737952
20
5.03602462121179
30
0
41
1
10
9.44930896884298
20
5.03455856874805
30
0
41
1
10
9.74432460066507
20
5.02555857938484
30
0
41
1
10
10.041089657004
20
5.01000747899187
30
0
0
SPLINE
5
D2
100
AcDbEntity
8
1
62
256
6
ByLayer
370
18
48
1
60
0
100
AcDbSpline
70
4
71
3
72
88
73
84
40
0
40
0
40
0
40
0
40
0.0309909909770763
40
0.0309909909770763
40
0.0482947232810569
40
0.0482947232810569
40
0.0655984555850374
40
0.0655984555850374
40
0.100205920192999
40
0.100205920192999
40
0.11750965249698
40
0.11750965249698
40
0.134813384800961
40
0.134813384800961
40
0.169420849408923
40
0.169420849408923
40
0.204028314016885
40
0.204028314016885
40
0.221332046320865
40
0.221332046320865
40
0.238635778624846
40
0.238635778624846
40
0.273243243232807
40
0.273243243232807
40
0.307850707840768
40
0.307850707840768
40
0.342458172448729
40
0.342458172448729
40
0.359761904752709
40
0.359761904752709
40
0.377065637056689
40
0.377065637056689
40
0.411673101664649
40
0.411673101664649
40
0.42897683396863
40
0.42897683396863
40
0.44628056627261
40
0.44628056627261
40
0.480888030880572
40
0.480888030880572
40
0.498191763184552
40
0.498191763184552
40
0.515495495488533
40
0.515495495488533
40
0.532799227792513
40
0.532799227792513
40
0.550102960096494
40
0.550102960096494
40
0.584710424704455
40
0.584710424704455
40
0.602014157008436
40
0.602014157008436
40
0.619317889312417
40
0.619317889312417
40
0.636621621616398
40
0.636621621616398
40
0.653925353920379
40
0.653925353920379
40
0.67122908622436
40
0.67122908622436
40
0.688532818528341
40
0.688532818528341
40
0.705836550832322
40
0.705836550832322
40
0.723140283136303
40
0.723140283136303
40
0.740444015440284
40
0.740444015440284
40
0.757747747744265
40
0.757747747744265
40
0.792355212352227
40
0.792355212352227
40
0.826962676960189
40
0.826962676960189
40
0.861570141568151
40
0.861570141568151
40
0.896177606176114
40
0.896177606176114
40
0.930785070784076
40
0.930785070784076
40
0.965392535392038
40
0.965392535392038
40
1
40
1
40
1
40
1
41
1
10
45.8187017819015
20
-3.81694902358021
30
0
41
1
10
45.4496303601576
20
-3.94552538934809
30
0
41
1
10
45.08035805062
20
-4.06575405928768
30
0
41
1
10
44.5041703147336
20
-4.23774768143801
30
0
41
1
10
44.2974737824306
20
-4.29605487821283
30
0
41
1
10
43.8846181583557
20
-4.4066207665233
30
0
41
1
10
43.6782814425315
20
-4.4590758357046
30
0
41
1
10
43.0596567310324
20
-4.60726981325752
30
0
41
1
10
42.6481522926526
20
-4.69313676142829
30
0
41
1
10
42.0296976706336
20
-4.8026317521047
30
0
41
1
10
41.8233974137417
20
-4.83590573858507
30
0
41
1
10
41.4104289481935
20
-4.89489680797342
30
0
41
1
10
41.2036170770716
20
-4.92054824643006
30
0
41
1
10
40.5839642448926
20
-4.98841593578257
30
0
41
1
10
40.1715336144855
20
-5.02041784284589
30
0
41
1
10
39.3468438403573
20
-5.05361687649491
30
0
41
1
10
38.9350845699002
20
-5.05749350089036
30
0
41
1
10
38.3161985395036
20
-5.04077921609991
30
0
41
1
10
38.1096670075772
20
-5.03124845182157
30
0
41
1
10
37.6961138514997
20
-5.0057965559225
30
0
41
1
10
37.4892368410549
20
-4.98981444716904
30
0
41
1
10
36.8700555108584
20
-4.93090185316484
30
0
41
1
10
36.4581418926778
20
-4.87610020778067
30
0
41
1
10
35.6334281027885
20
-4.74323526489863
30
0
41
1
10
35.2213506192668
20
-4.66331815497966
30
0
41
1
10
34.3955473138735
20
-4.47678733983804
30
0
41
1
10
33.9814288302331
20
-4.37126517916457
30
0
41
1
10
33.3626679790018
20
-4.19242830150748
30
0
41
1
10
33.1567066887635
20
-4.12956964140113
30
0
41
1
10
32.7445838476701
20
-3.99978824752188
30
0
41
1
10
32.5384603543358
20
-3.93236117847931
30
0
41
1
10
31.9198293979725
20
-3.72220307355329
30
0
41
1
10
31.5072828859849
20
-3.57165090862711
30
0
41
1
10
30.8873671838382
20
-3.32932801627217
30
0
41
1
10
30.6806806057255
20
-3.24597029584137
30
0
41
1
10
30.2678533862334
20
-3.0745241061712
30
0
41
1
10
30.0615437432154
20
-2.98669336631255
30
0
41
1
10
29.4428852372027
20
-2.71844074493373
30
0
41
1
10
29.0312455948629
20
-2.53123299942246
30
0
41
1
10
28.4124522644186
20
-2.24118257523554
30
0
41
1
10
28.2060285294537
20
-2.14303433975016
30
0
41
1
10
27.7928591047685
20
-1.94341686831993
30
0
41
1
10
27.585994454195
20
-1.84168018659466
30
0
41
1
10
27.1730307448064
20
-1.63562027680174
30
0
41
1
10
26.9667082969581
20
-1.53156395170487
30
0
41
1
10
26.5540876851999
20
-1.32217287939659
30
0
41
1
10
26.3478270806319
20
-1.21672451832808
30
0
41
1
10
25.7292301434858
20
-0.897763087769874
30
0
41
1
10
25.3174368970551
20
-0.681061410673209
30
0
41
1
10
24.6982265921151
20
-0.354883904369274
30
0
41
1
10
24.4915988998217
20
-0.245854050957632
30
0
41
1
10
24.0777755890498
20
-0.0272406795999416
30
0
41
1
10
23.8710762655943
20
0.0820521888169594
30
0
41
1
10
23.4582911464066
20
0.300738756671478
30
0
41
1
10
23.2520754878286
20
0.409925816706476
30
0
41
1
10
22.8395915757501
20
0.627060728926807
30
0
41
1
10
22.6333750557289
20
0.73500748102316
30
0
41
1
10
22.2208293502852
20
0.949728923563526
30
0
41
1
10
22.014511701161
20
1.05654017082466
30
0
41
1
10
21.6019664577193
20
1.26928393761611
30
0
41
1
10
21.3956739535053
20
1.37510722444358
30
0
41
1
10
20.9823427395793
20
1.58406330032955
30
0
41
1
10
20.7752607072952
20
1.68742434904027
30
0
41
1
10
20.3616978733729
20
1.8915437467605
30
0
41
1
10
20.1550810290923
20
1.99230388631904
30
0
41
1
10
19.742364493926
20
2.19116940281802
30
0
41
1
10
19.5362846885942
20
2.2890971090695
30
0
41
1
10
19.1238623363232
20
2.4810740941202
30
0
41
1
10
18.9175686574839
20
2.57542883234177
30
0
41
1
10
18.2983899997893
20
2.85283265843043
30
0
41
1
10
17.8853070777511
20
3.03041241150268
30
0
41
1
10
17.0579170019856
20
3.36893658468745
30
0
41
1
10
16.6449421394653
20
3.52778493796026
30
0
41
1
10
15.8200926249314
20
3.82517789799712
30
0
41
1
10
15.4083784819388
20
3.96453564654087
30
0
41
1
10
14.5831745444185
20
4.21887514860134
30
0
41
1
10
14.1698400082051
20
4.33519539550352
30
0
41
1
10
13.3427012662019
20
4.54156656332168
30
0
41
1
10
12.9298607796802
20
4.63046277594989
30
0
41
1
10
12.1048376386651
20
4.78509890805114
30
0
41
1
10
11.6931314142044
20
4.85026193586046
30
0
41
1
10
10.8682902122019
20
4.95195405390606
30
0
41
1
10
10.4551720715407
20
4.98819348387082
30
0
41
1
10
10.0412300016041
20
5.00999945322218
30
0
0
SPLINE
5
D3
100
AcDbEntity
8
1
62
256
6
ByLayer
370
18
48
1
60
0
100
AcDbSpline
70
4
71
3
72
27
73
23
40
0
40
0
40
0
40
0
40
0.099375624688796
40
0.099375624688796
40
0.198751249377592
40
0.298126874066388
40
0.298126874066388
40
0.347814686410786
40
0.347814686410786
40
0.397502498755184
40
0.397502498755184
40
0.596253748132774
40
0.596253748132774
40
0.695629372821569
40
0.695629372821569
40
0.745317185165967
40
0.745317185165967
40
0.795004997510365
40
0.795004997510365
40
0.993756246887955
40
0.993756246887955
40
1
40
1
40
1
40
1
41
1
10
4.00035384832836
20
2.76807663712287
30
0
41
1
10
4.00035493041855
20
2.92042027219219
30
0
41
1
10
4.00035586858905
20
3.06832508044647
30
0
41
1
10
4.00035748983365
20
3.35058846086002
30
0
41
1
10
4.00035886350187
20
3.62019705335322
30
0
41
1
10
4.00035987655821
20
3.86501402619919
30
0
41
1
10
4.00036054880303
20
4.03923821695514
30
0
41
1
10
4.0003607582718
20
4.09574525998102
30
0
41
1
10
4.00036115578971
20
4.20557190577327
30
0
41
1
10
4.00036134434336
20
4.25903689917075
30
0
41
1
10
4.00036224582138
20
4.51611603315823
30
0
41
1
10
4.00036284028775
20
4.68911377656821
30
0
41
1
10
4.00036389164595
20
4.90114327309436
30
0
41
1
10
4.00036426762378
20
4.96384779827636
30
0
41
1
10
4.00036490649325
20
5.04557940459097
30
0
41
1
10
4.0003651321413
20
5.07076385111222
30
0
41
1
10
4.00036560816477
20
5.11643292735764
30
0
41
1
10
4.00036585912196
20
5.13700088496995
30
0
41
1
10
4.00036718785339
20
5.22869854575814
30
0
41
1
10
4.00036849273431
20
5.26673913711045
30
0
41
1
10
4.00037016322315
20
5.26921957510109
30
0
41
1
10
4.00037021442972
20
5.26925909660437
30
0
41
1
10
4.00037026595712
20
5.26926263675782
30
0
0
SPLINE
5
D4
100
AcDbEntity
8
1
62
256
6
ByLayer
370
18
48
1
60
0
100
AcDbSpline
70
4
71
3
72
10
73
6
40
0
40
0
40
0
40
0
40
0.737038066736547
40
0.737038066736547
40
1
40
1
40
1
40
1
41
1
10
16.8588782046616
20
4.16774586148105
30
0
41
1
10
16.6637506827972
20
4.06347561960843
30
0
41
1
10
16.4686904232128
20
3.95768552978606
30
0
41
1
10
16.2038400015534
20
3.81231667542275
30
0
41
1
10
16.1341585610523
20
3.77390490050453
30
0
41
1
10
16.0644325740819
20
3.73534237653206
30
0
0
SPLINE
5
D5
100
AcDbEntity
8
1
62
256
6
ByLayer
370
18
48
1
60
0
100
AcDbSpline
70
4
71
3
72
61
73
57
40
0
40
0
40
0
40
0
40
0.125000000000011
40
0.125000000000011
40
0.250000000000022
40
0.250000000000022
40
0.375000000000034
40
0.375000000000034
40
0.500000000000045
40
0.500000000000045
40
0.56250000000005
40
0.56250000000005
40
0.625000000000056
40
0.625000000000056
40
0.687500000000062
40
0.687500000000062
40
0.703125000000063
40
0.703125000000063
40
0.707031250000063
40
0.707031250000063
40
0.710937500000062
40
0.710937500000062
40
0.714843750000062
40
0.714843750000062
40
0.718750000000062
40
0.718750000000062
40
0.750000000000056
40
0.750000000000056
40
0.765625000000052
40
0.765625000000052
40
0.781250000000049
40
0.781250000000049
40
0.796875000000045
40
0.796875000000045
40
0.804687500000044
40
0.804687500000044
40
0.812500000000042
40
0.82031250000004
40
0.82031250000004
40
0.828125000000038
40
0.828125000000038
40
0.843750000000035
40
0.843750000000035
40
0.859375000000031
40
0.859375000000031
40
0.875000000000028
40
0.875000000000028
40
0.890625000000024
40
0.890625000000024
40
0.906250000000021
40
0.906250000000021
40
0.937500000000014
40
0.937500000000014
40
0.968750000000007
40
0.968750000000007
40
1
40
1
40
1
40
1
41
1
10
16.8588711046378
20
-4.16776342175211
30
0
41
1
10
16.1224629840602
20
-3.91631125029778
30
0
41
1
10
15.3772867681036
20
-3.63953229020754
30
0
41
1
10
13.8640552029186
20
-3.06465309208761
30
0
41
1
10
13.1034621975839
20
-2.76967175323929
30
0
41
1
10
11.5649615382986
20
-2.19974504446773
30
0
41
1
10
10.7869695944216
20
-1.92504034928354
30
0
41
1
10
9.20563878155662
20
-1.4299007382769
30
0
41
1
10
8.40229774753882
20
-1.20958208311475
30
0
41
1
10
7.17453803539451
20
-0.939896830190207
30
0
41
1
10
6.76100201779278
20
-0.859980761194379
30
0
41
1
10
5.92825368577491
20
-0.723261016069216
30
0
41
1
10
5.51040696950233
20
-0.666644590311535
30
0
41
1
10
4.67161772788677
20
-0.578421944421393
30
0
41
1
10
4.25038776663956
20
-0.546797531749263
30
0
41
1
10
3.72316119295939
20
-0.523906554261544
30
0
41
1
10
3.61764640606032
20
-0.520158445607052
30
0
41
1
10
3.48579448400196
20
-0.516528952488443
30
0
41
1
10
3.45942554573199
20
-0.515837477704338
30
0
41
1
10
3.40704060322935
20
-0.52282796267977
30
0
41
1
10
3.37988290564618
20
-0.529754383513932
30
0
41
1
10
3.33356545722563
20
-0.556019391829267
30
0
41
1
10
3.310969168236
20
-0.570045261016787
30
0
41
1
10
3.26554711315689
20
-0.597716267030535
30
0
41
1
10
3.2429452389417
20
-0.611719553429964
30
0
41
1
10
3.04055597002352
20
-0.73932672210114
30
0
41
1
10
2.86786561367927
20
-0.863832744900293
30
0
41
1
10
2.63045062829482
20
-1.0706199066671
30
0
41
1
10
2.55475505472833
20
-1.14303734658429
30
0
41
1
10
2.41216538551316
20
-1.29671411083504
30
0
41
1
10
2.34516217160419
20
-1.37829629279625
30
0
41
1
10
2.22647452181803
20
-1.5475945687146
30
0
41
1
10
2.17426419257816
20
-1.63578417465604
30
0
41
1
10
2.1092614789136
20
-1.77455616583123
30
0
41
1
10
2.08995259566532
20
-1.82171120840678
30
0
41
1
10
2.05699343237791
20
-1.91606387929025
30
0
41
1
10
2.02945135132964
20
-2.01095269946745
30
0
41
1
10
2.01298621067713
20
-2.10688540567045
30
0
41
1
10
2.00220741838754
20
-2.20332743985338
30
0
41
1
10
1.99967299870414
20
-2.25212164419921
30
0
41
1
10
2.00078893507273
20
-2.39663445036786
30
0
41
1
10
2.01291999350576
20
-2.49009197522926
30
0
41
1
10
2.05658034908347
20
-2.67187358931801
30
0
41
1
10
2.08836403544262
20
-2.76028939117509
30
0
41
1
10
2.16546210037205
20
-2.92668665798212
30
0
41
1
10
2.21095745568346
20
-3.00561045217972
30
0
41
1
10
2.31279611791709
20
-3.15660939877978
30
0
41
1
10
2.36948497627654
20
-3.22901481553706
30
0
41
1
10
2.48971970095334
20
-3.3659245919898
30
0
41
1
10
2.55327210515446
20
-3.43055820622217
30
0
41
1
10
2.75191553160144
20
-3.61535425682118
30
0
41
1
10
2.8948742570972
20
-3.72653327925281
30
0
41
1
10
3.19489621473377
20
-3.93193158083613
30
0
41
1
10
3.35228544162268
20
-4.02608968435703
30
0
41
1
10
3.67193670080491
20
-4.19831330167585
30
0
41
1
10
3.83498544563338
20
-4.27688345211578
30
0
41
1
10
4.00038967793995
20
-4.34953422315974
30
0
0
SPLINE
5
D6
100
AcDbEntity
8
1
62
256
6
ByLayer
370
18
48
1
60
0
100
AcDbSpline
70
4
71
3
72
56
73
52
40
0
40
0
40
0
40
0
40
0.0511655597453019
40
0.0511655597453019
40
0.102331119490604
40
0.102331119490604
40
0.153496679235906
40
0.153496679235906
40
0.179079459108557
40
0.179079459108557
40
0.204662238981209
40
0.204662238981209
40
0.255827798726511
40
0.255827798726511
40
0.281410578599162
40
0.281410578599162
40
0.306993358471814
40
0.306993358471814
40
0.358158918217117
40
0.358158918217117
40
0.383741698089768
40
0.383741698089768
40
0.40932447796242
40
0.40932447796242
40
0.460490037707724
40
0.460490037707724
40
0.486072817580375
40
0.486072817580375
40
0.511655597453027
40
0.511655597453027
40
0.562821157198332
40
0.562821157198332
40
0.588403937070985
40
0.588403937070985
40
0.613986716943637
40
0.613986716943637
40
0.665152276688942
40
0.665152276688942
40
0.716317836434247
40
0.716317836434247
40
0.767483396179552
40
0.767483396179552
40
0.818648955924857
40
0.818648955924857
40
0.869814515670162
40
0.869814515670162
40
0.920980075415467
40
0.920980075415467
40
0.972145635160772
40
0.972145635160772
40
1
40
1
40
1
40
1
41
1
10
55.1483733491262
20
-5.25784986347705
30
0
41
1
10
54.6167410109234
20
-5.29476835061158
30
0
41
1
10
54.0856620672645
20
-5.30700033528819
30
0
41
1
10
53.0214377179866
20
-5.28198764408123
30
0
41
1
10
52.4900599243861
20
-5.24472278379591
30
0
41
1
10
51.4289617873654
20
-5.12210634621121
30
0
41
1
10
50.8986763583987
20
-5.03673454969217
30
0
41
1
10
50.1009131060542
20
-4.87377253531207
30
0
41
1
10
49.8346041727759
20
-4.81361543108971
30
0
41
1
10
49.3032055976802
20
-4.68249654766456
30
0
41
1
10
49.0378168177439
20
-4.6114769709167
30
0
41
1
10
48.2419304743276
20
-4.38266342156416
30
0
41
1
10
47.7116954180384
20
-4.2091204941801
30
0
41
1
10
46.9141196074926
20
-3.92007991081198
30
0
41
1
10
46.6477355269341
20
-3.81886251129529
30
0
41
1
10
46.1161503109956
20
-3.60822336368247
30
0
41
1
10
45.8506820179656
20
-3.49871102307429
30
0
41
1
10
45.0546127281972
20
-3.15850762618675
30
0
41
1
10
44.5243009946297
20
-2.91621348162551
30
0
41
1
10
43.7268528584493
20
-2.53327339450078
30
0
41
1
10
43.4604677884183
20
-2.40220354082314
30
0
41
1
10
42.9287097696479
20
-2.13533945427096
30
0
41
1
10
42.6631579109541
20
-1.99947862263554
30
0
41
1
10
41.8669208980817
20
-1.58558511401205
30
0
41
1
10
41.3365973889275
20
-1.30133652920415
30
0
41
1
10
40.5393166878586
20
-0.866880680404364
30
0
41
1
10
40.2729705313033
20
-0.720527008511681
30
0
41
1
10
39.7410093683949
20
-0.427010438242832
30
0
41
1
10
39.4753770354922
20
-0.279838858207768
30
0
41
1
10
38.6790034317595
20
0.16197274521204
30
0
41
1
10
38.1486711442911
20
0.456701906281751
30
0
41
1
10
37.3515275091249
20
0.894516399315904
30
0
41
1
10
37.0852710748712
20
1.03990003141266
30
0
41
1
10
36.5531081313882
20
1.3275852385689
30
0
41
1
10
36.2874001469023
20
1.46978403373066
30
0
41
1
10
35.490831530757
20
1.8905034482832
30
0
41
1
10
34.9604903753566
20
2.16308221986861
30
0
41
1
10
33.8977679459733
20
2.68662999173554
30
0
41
1
10
33.3647353399166
20
2.93776469749264
30
0
41
1
10
32.3024221981168
20
3.40856126653779
30
0
41
1
10
31.7720145746676
20
3.62873095864447
30
0
41
1
10
30.7093222131186
20
4.03405177381671
30
0
41
1
10
30.176242410057
20
4.21946414195037
30
0
41
1
10
29.1136910992647
20
4.5479375528887
30
0
41
1
10
28.5832607897868
20
4.69140487522014
30
0
41
1
10
27.5206865914467
20
4.9338544398652
30
0
41
1
10
26.9875640613604
20
5.03294364229171
30
0
41
1
10
25.9246860434188
20
5.18264557138869
30
0
41
1
10
25.3942191784115
20
5.23352974304271
30
0
41
1
10
24.5737806526626
20
5.27432642359923
30
0
41
1
10
24.2840310653414
20
5.28142468567412
30
0
41
1
10
23.99426800549
20
5.2812283161571
30
0
0
SPLINE
5
D7
100
AcDbEntity
8
1
62
256
6
ByLayer
370
18
48
1
60
0
100
AcDbSpline
70
4
71
3
72
16
73
12
40
0
40
0
40
0
40
0
40
0.198284266232405
40
0.198284266232405
40
0.583863599482837
40
0.583863599482837
40
0.776653266108053
40
0.776653266108053
40
0.969442932733269
40
0.969442932733269
40
1
40
1
40
1
40
1
41
1
10
8.95874649563382
20
0.0334447624759093
30
0
41
1
10
9.50312164172817
20
-0.259820836236003
30
0
41
1
10
10.0459422401404
20
-0.552455093467216
30
0
41
1
10
11.6453268539393
20
-1.40175475650875
30
0
41
1
10
12.7016983344344
20
-1.94882810455536
30
0
41
1
10
14.3076814293637
20
-2.70919381925637
30
0
41
1
10
14.8401911324479
20
-2.94976847605298
30
0
41
1
10
15.9005508365979
20
-3.3996227675915
30
0
41
1
10
16.428892057841
20
-3.6090100239436
30
0
41
1
10
17.0406074994127
20
-3.83123761432142
30
0
41
1
10
17.1242914386897
20
-3.8612005231825
30
0
41
1
10
17.2079743725066
20
-3.89071446088781
30
0
0
SPLINE
5
D8
100
AcDbEntity
8
1
62
256
6
ByLayer
370
13
48
1
60
0
100
AcDbSpline
70
4
71
3
72
16
73
12
40
0
40
0
40
0
40
0
40
0.340987205140222
40
0.340987205140222
40
0.433571240907297
40
0.433571240907297
40
0.526155276674372
40
0.526155276674372
40
0.711323348208525
40
0.711323348208525
40
1
40
1
40
1
40
1
41
1
10
17.2079734292838
20
-3.89071412822477
30
0
41
1
10
18.1802301625158
20
-4.23361711485327
30
0
41
1
10
19.1523511695711
20
-4.51591536942797
30
0
41
1
10
20.4013796338868
20
-4.7819935101688
30
0
41
1
10
20.6693909223111
20
-4.83352490801514
30
0
41
1
10
21.2034519029122
20
-4.92469417577871
30
0
41
1
10
21.4697219016417
20
-4.96441274472235
30
0
41
1
10
22.266685279556
20
-5.06584445988085
30
0
41
1
10
22.7955836346914
20
-5.10990097400222
30
0
41
1
10
24.1473147027753
20
-5.16209611452172
30
0
41
1
10
24.9689935348058
20
-5.13637453975511
30
0
41
1
10
25.7950750479636
20
-5.05325867181648
30
0
0
SPLINE
5
D9
100
AcDbEntity
8
1
62
256
6
ByLayer
370
18
48
1
60
0
100
AcDbSpline
70
4
71
3
72
16
73
12
40
0
40
0
40
0
40
0
40
0.249999999999999
40
0.249999999999999
40
0.374999999999999
40
0.374999999999999
40
0.499999999999999
40
0.499999999999999
40
0.75
40
0.75
40
1
40
1
40
1
40
1
41
1
10
54.3339911075303
20
1.24106780633449
30
0
41
1
10
54.3242211899718
20
1.26991016246484
30
0
41
1
10
54.3181736504213
20
1.29978136671736
30
0
41
1
10
54.3174352118019
20
1.34638613338089
30
0
41
1
10
54.3186184954465
20
1.36183783824191
30
0
41
1
10
54.3244673935127
20
1.3925248628554
30
0
41
1
10
54.3290750863792
20
1.40800112953966
30
0
41
1
10
54.3491244730405
20
1.45164105615586
30
0
41
1
10
54.3719443389962
20
1.47564925552857
30
0
41
1
10
54.4270944227844
20
1.50946199931946
30
0
41
1
10
54.4577947878681
20
1.51931184224526
30
0
41
1
10
54.4893917296146
20
1.52507368998735
30
0
0
SPLINE
5
DA
100
AcDbEntity
8
1
62
256
6
ByLayer
370
18
48
1
60
0
100
AcDbSpline
70
4
71
3
72
14
73
10
40
0
40
0
40
0
40
0
40
0.25
40
0.25
40
0.5
40
0.5
40
0.75
40
0.75
40
1
40
1
40
1
40
1
41
1
10
4.25082929551553
20
-4.1479609748441
30
0
41
1
10
4.22321060326743
20
-4.13541798013932
30
0
41
1
10
4.19360587053069
20
-4.12781717508784
30
0
41
1
10
4.13310624911816
20
-4.13029644104935
30
0
41
1
10
4.10250284155819
20
-4.14115618162202
30
0
41
1
10
4.0513737164498
20
-4.18405734966459
30
0
41
1
10
4.03249977462337
20
-4.21421796855225
30
0
41
1
10
4.00792852980516
20
-4.27958839788195
30
0
41
1
10
4.00191564267902
20
-4.31461980402628
30
0
41
1
10
4.00038967795473
20
-4.34953422316616
30
0
0
SPLINE
5
DB
100
AcDbEntity
8
SK1
62
256
6
ByLayer
370
18
48
1
60
0
100
AcDbSpline
70
4
71
3
72
14
73
10
40
0
40
0
40
0
40
0
40
0.25
40
0.25
40
0.5
40
0.5
40
0.75
40
0.75
40
1
40
1
40
1
40
1
41
1
10
-44.9999999999889
20
-1.12022108112868
30
0
41
1
10
-44.9782299506431
20
-1.11889096856893
30
0
41
1
10
-44.9593670260409
20
-1.1174620421119
30
0
41
1
10
-44.9317144953618
20
-1.11433851817546
30
0
41
1
10
-44.9235431322116
20
-1.11267625416514
30
0
41
1
10
-44.9226635023041
20
-1.10932062964707
30
0
41
1
10
-44.9300906428419
20
-1.10764462709574
30
0
41
1
10
-44.9574482272264
20
-1.10453760829478
30
0
41
1
10
-44.9772458850205
20
-1.10309435431941
30
0
41
1
10
-44.9999999999994
20
-1.10180116605969
30
0
0
SPLINE
5
DC
100
AcDbEntity
8
SK1
62
256
6
ByLayer
370
18
48
1
60
0
100
AcDbSpline
70
4
71
3
72
14
73
10
40
0
40
0
40
0
40
0
40
0.499999999999995
40
0.499999999999995
40
0.749999999999993
40
0.749999999999993
40
0.874999999999997
40
0.874999999999997
40
1
40
1
40
1
40
1
41
1
10
-43.7
20
-1.50903704988949
30
0
41
1
10
-43.6789021434844
20
-1.51077336762597
30
0
41
1
10
-43.6585587767126
20
-1.50651992000684
30
0
41
1
10
-43.6303722414292
20
-1.48780241733107
30
0
41
1
10
-43.6214260646625
20
-1.47944270017953
30
0
41
1
10
-43.6102968606991
20
-1.46180625439257
30
0
41
1
10
-43.6069058574072
20
-1.45495664912517
30
0
41
1
10
-43.6017309986994
20
-1.43852689925856
30
0
41
1
10
-43.6
20
-1.42891698202985
30
0
41
1
10
-43.6
20
-1.41832779966876
30
0
0
SPLINE
5
DD
100
AcDbEntity
8
SK1
62
256
6
ByLayer
370
18
48
1
60
0
100
AcDbSpline
70
4
71
3
72
14
73
10
40
0
40
0
40
0
40
0
40
0.125000000000001
40
0.125000000000001
40
0.250000000000001
40
0.250000000000001
40
0.5
40
0.5
40
1
40
1
40
1
40
1
41
1
10
-43.6
20
0.879197176431717
30
0
41
1
10
-43.6
20
0.889966427565213
30
0
41
1
10
-43.6017275532238
20
0.90002767890067
30
0
41
1
10
-43.6068706044715
20
0.917559899173312
30
0
41
1
10
-43.6102509413285
20
0.925116164898895
30
0
41
1
10
-43.6214648736172
20
0.945106446258535
30
0
41
1
10
-43.630377655121
20
0.955029250617798
30
0
41
1
10
-43.6583358931613
20
0.978648994743082
30
0
41
1
10
-43.6789017002764
20
0.986536352529896
30
0
41
1
10
-43.7
20
0.98827270674164
30
0
0
SPLINE
5
DE
100
AcDbEntity
8
SK1
62
256
6
ByLayer
370
18
48
1
60
0
100
AcDbSpline
70
4
71
3
72
10
73
6
40
0
40
0
40
0
40
0
40
0.5
40
0.5
40
1
40
1
40
1
40
1
41
1
10
-43.7
20
0.988272706741554
30
0
41
1
10
-43.9194039300083
20
1.00632927731519
30
0
41
1
10
-44.1380474569928
20
1.02440647799892
30
0
41
1
10
-44.5722433888257
20
1.06063921564211
30
0
41
1
10
-44.7878994165179
20
1.07879163916974
30
0
41
1
10
-45
20
1.09703296421452
30
0
0
SPLINE
5
DF
100
AcDbEntity
8
SK1
62
256
6
ByLayer
370
18
48
1
60
0
100
AcDbSpline
70
4
71
3
72
10
73
6
40
0
40
0
40
0
40
0
40
0.5
40
0.5
40
1
40
1
40
1
40
1
41
1
10
-45
20
-1.40027679241641
30
0
41
1
10
-44.7879264547628
20
-1.41851579208608
30
0
41
1
10
-44.5722802000083
20
-1.43666744826456
30
0
41
1
10
-44.1380884226912
20
-1.47289988103529
30
0
41
1
10
-43.9194336565534
20
-1.49097803287157
30
0
41
1
10
-43.7
20
-1.50903704988937
30
0
0
SPLINE
5
E0
100
AcDbEntity
8
SK1
62
256
6
ByLayer
370
18
48
1
60
0
100
AcDbSpline
70
4
71
3
72
10
73
6
40
0
40
0
40
0
40
0
40
0.5
40
0.5
40
1
40
1
40
1
40
1
41
1
10
-43.7
20
-0.988272706741554
30
0
41
1
10
-43.9194039300083
20
-1.00632927731522
30
0
41
1
10
-44.1380474569928
20
-1.02440647799895
30
0
41
1
10
-44.5722433888257
20
-1.06063921564211
30
0
41
1
10
-44.7878994165179
20
-1.07879163916974
30
0
41
1
10
-45
20
-1.09703296421452
30
0
0
SPLINE
5
E1
100
AcDbEntity
8
SK1
62
256
6
ByLayer
370
18
48
1
60
0
100
AcDbSpline
70
4
71
3
72
14
73
10
40
0
40
0
40
0
40
0
40
0.124999999999999
40
0.124999999999999
40
0.249999999999999
40
0.249999999999999
40
0.499999999999997
40
0.499999999999997
40
1
40
1
40
1
40
1
41
1
10
-43.6
20
-0.879197176431717
30
0
41
1
10
-43.6
20
-0.889966427565241
30
0
41
1
10
-43.6017275532238
20
-0.90002767890067
30
0
41
1
10
-43.6068706044715
20
-0.917559899173341
30
0
41
1
10
-43.6102509413285
20
-0.925116164898924
30
0
41
1
10
-43.6214648736172
20
-0.945106446258535
30
0
41
1
10
-43.630377655121
20
-0.955029250617827
30
0
41
1
10
-43.6583358931613
20
-0.978648994743082
30
0
41
1
10
-43.6789017002764
20
-0.986536352529896
30
0
41
1
10
-43.7
20
-0.98827270674164
30
0
0
LINE
5
76
100
AcDbEntity
8
81
62
256
6
ByLayer
370
18
48
1
60
0
100
AcDbLine
10
57
20
0
30
0
11
62
21
0
31
0
39
0
210
0
220
0
230
1
0
LINE
5
77
100
AcDbEntity
8
1
62
256
6
ByLayer
370
18
48
1
60
0
100
AcDbLine
10
4.000361
20
5.269264
30
0
11
1.344782
21
5.267671
31
0
39
0
210
0
220
0
230
1
0
LINE
5
79
100
AcDbEntity
8
1
62
256
6
ByLayer
370
18
48
1
60
0
100
AcDbLine
10
23.995626
20
5.281262
30
0
11
23.15589
21
5.280758
31
0
39
0
210
0
220
0
230
1
0
LINE
5
7A
100
AcDbEntity
8
1
62
256
6
ByLayer
370
18
48
1
60
0
100
AcDbLine
10
53.946037
20
5.299232
30
0
11
53.117119
21
5.298734
31
0
39
0
210
0
220
0
230
1
0
LINE
5
7B
100
AcDbEntity
8
1
62
256
6
ByLayer
370
18
48
1
60
0
100
AcDbLine
10
53.117119
20
-5.298734
30
0
11
53.945844
21
-5.299232
31
0
39
0
210
0
220
0
230
1
0
LINE
5
7C
100
AcDbEntity
8
1
62
256
6
ByLayer
370
18
48
1
60
0
100
AcDbLine
10
23.15589
20
-5.280758
30
0
11
23.99601
21
-5.281262
31
0
39
0
210
0
220
0
230
1
0
LINE
5
7D
100
AcDbEntity
8
1
62
256
6
ByLayer
370
18
48
1
60
0
100
AcDbLine
10
1.344782
20
-5.267671
30
0
11
4.000361
21
-5.269264
31
0
39
0
210
0
220
0
230
1
0
LINE
5
7E
100
AcDbEntity
8
SK1
62
256
6
ByLayer
370
18
48
1
60
0
100
AcDbLine
10
0
20
6
30
0
11
-43.556624
21
6
31
0
39
0
210
0
220
0
230
1
0
LINE
5
80
100
AcDbEntity
8
SK1
62
256
6
ByLayer
370
18
48
1
60
0
100
AcDbLine
10
-43.556624
20
-6
30
0
11
0
21
-6
31
0
39
0
210
0
220
0
230
1
0
LINE
5
81
100
AcDbEntity
8
SK1
62
256
6
ByLayer
370
18
48
1
60
0
100
AcDbLine
10
-43.556624
20
6
30
0
11
-45
21
3.5
31
0
39
0
210
0
220
0
230
1
0
LINE
5
82
100
AcDbEntity
8
SK1
62
256
6
ByLayer
370
18
48
1
60
0
100
AcDbLine
10
-45
20
-3.5
30
0
11
-43.556624
21
-6
31
0
39
0
210
0
220
0
230
1
0
LINE
5
83
100
AcDbEntity
8
SK4
62
256
6
ByLayer
370
18
48
0.05
60
0
100
AcDbLine
10
62
20
0
30
0
11
-50
21
0
31
0
39
0
210
0
220
0
230
1
0
LINE
5
85
100
AcDbEntity
8
4
62
256
6
ByLayer
370
18
48
0.05
60
0
100
AcDbLine
10
57
20
0
30
0
11
0
21
0
31
0
39
0
210
0
220
0
230
1
0
LINE
5
87
100
AcDbEntity
8
80
62
256
6
ByLayer
370
18
48
1
60
0
100
AcDbLine
10
0
20
0
30
0
11
-5
21
0
31
0
39
0
210
0
220
0
230
1
0
LINE
5
88
100
AcDbEntity
8
1
62
256
6
ByLayer
370
18
48
1
60
0
100
AcDbLine
10
56.988838
20
0.050075
30
0
11
57
21
0
31
0
39
0
210
0
220
0
230
1
0
LINE
5
89
100
AcDbEntity
8
1
62
256
6
ByLayer
370
13
48
1
60
0
100
AcDbLine
10
55.351276
20
0.643233
30
0
11
56.894416
21
-0.120809
31
0
39
0
210
0
220
0
230
1
0
LINE
5
8A
100
AcDbEntity
8
1
62
256
6
ByLayer
370
18
48
1
60
0
100
AcDbLine
10
57
20
0
30
0
11
56.988838
21
-0.050075
31
0
39
0
210
0
220
0
230
1
0
LINE
5
8B
100
AcDbEntity
8
1
62
256
6
ByLayer
370
18
48
1
60
0
100
AcDbLine
10
56.911927
20
0.300848
30
0
11
56.725351
21
0.989657
31
0
39
0
210
0
220
0
230
1
0
LINE
5
8C
100
AcDbEntity
8
1
62
256
6
ByLayer
370
13
48
1
60
0
100
AcDbLine
10
56.725351
20
0.989657
30
0
11
55.520735
21
0.989657
31
0
39
0
210
0
220
0
230
1
0
LINE
5
8D
100
AcDbEntity
8
1
62
256
6
ByLayer
370
13
48
1
60
0
100
AcDbLine
10
1.344782
20
5.267671
30
0
11
1.344782
21
-5.267671
31
0
39
0
210
0
220
0
230
1
0
LINE
5
8E
100
AcDbEntity
8
1
62
256
6
ByLayer
370
18
48
1
60
0
100
AcDbLine
10
4.250509
20
5.032859
30
0
11
4.250513
21
5.032657
31
0
39
0
210
0
220
0
230
1
0
LINE
5
8F
100
AcDbEntity
8
1
62
256
6
ByLayer
370
13
48
1
60
0
100
AcDbLine
10
55.520735
20
0.989657
30
0
11
56.911927
21
0.300848
31
0
39
0
210
0
220
0
230
1
0
LINE
5
90
100
AcDbEntity
8
1
62
256
6
ByLayer
370
18
48
1
60
0
100
AcDbLine
10
56.911927
20
-0.300848
30
0
11
56.725351
21
-0.989657
31
0
39
0
210
0
220
0
230
1
0
LINE
5
91
100
AcDbEntity
8
1
62
256
6
ByLayer
370
18
48
1
60
0
100
AcDbLine
10
54.331942
20
-2.97664
30
0
11
56.894416
21
-0.120809
31
0
39
0
210
0
220
0
230
1
0
LINE
5
92
100
AcDbEntity
8
1
62
256
6
ByLayer
370
13
48
1
60
0
100
AcDbLine
10
0.672151
20
5.633835
30
0
11
0.672151
21
-5.633835
31
0
39
0
210
0
220
0
230
1
0
LINE
5
93
100
AcDbEntity
8
1
62
256
6
ByLayer
370
18
48
1
60
0
100
AcDbLine
10
57
20
0
30
0
11
55.157241
21
-5.062938
31
0
39
0
210
0
220
0
230
1
0
LINE
5
94
100
AcDbEntity
8
1
62
256
6
ByLayer
370
18
48
1
60
0
100
AcDbLine
10
0
20
-6
30
0
11
0
21
6
31
0
39
0
210
0
220
0
230
1
0
LINE
5
95
100
AcDbEntity
8
SK1
62
256
6
ByLayer
370
13
48
1
60
0
100
AcDbLine
10
-43.7
20
-0.988273
30
0
11
-43.7
21
-1.509037
31
0
39
0
210
0
220
0
230
1
0
LINE
5
96
100
AcDbEntity
8
SK1
62
256
6
ByLayer
370
18
48
1
60
0
100
AcDbLine
10
-43.6
20
-1.418328
30
0
11
-43.6
21
0.879197
31
0
39
0
210
0
220
0
230
1
0
LINE
5
97
100
AcDbEntity
8
SK1
62
256
6
ByLayer
370
18
48
1
60
0
100
AcDbLine
10
-43.556624
20
6
30
0
11
-43.556624
21
-6
31
0
39
0
210
0
220
0
230
1
0
LINE
5
98
100
AcDbEntity
8
SK1
62
256
6
ByLayer
370
18
48
1
60
0
100
AcDbLine
10
-45
20
-1.120221
30
0
11
-45
21
-1.400277
31
0
39
0
210
0
220
0
230
1
0
LINE
5
99
100
AcDbEntity
8
SK1
62
256
6
ByLayer
370
18
48
1
60
0
100
AcDbLine
10
-45
20
3.5
30
0
11
-45
21
1.097033
31
0
39
0
210
0
220
0
230
1
0
LINE
5
9A
100
AcDbEntity
8
SK1
62
256
6
ByLayer
370
18
48
1
60
0
100
AcDbLine
10
-45
20
-3.5
30
0
11
-45
21
-1.400277
31
0
39
0
210
0
220
0
230
1
0
LINE
5
9B
100
AcDbEntity
8
SK1
62
256
6
ByLayer
370
18
48
1
60
0
100
AcDbLine
10
0
20
-6
30
0
11
0
21
6
31
0
39
0
210
0
220
0
230
1
0
MTEXT
5
E2
100
AcDbEntity
8
SK6
62
256
6
ByLayer
370
13
48
1
60
0
100
AcDbMText
10
8.129169
20
37.682694
30
0
210
0
220
0
230
1
1
\W0.7415;R840-1060-30-A1A1220
40
3.5
41
0
44
1.084337
50
0
71
8
72
5
7
iso_b_vert
0
DIMENSION
5
EF
100
AcDbEntity
8
SK2
62
256
6
ByLayer
370
13
48
1
60
0
100
AcDbDimension
2
DimnDraft3D1
10
55.18
20
-15.513398
30
0
11
25.930059
21
-15.513398
31
0
70
32
71
5
72
1
41
1
210
0
220
0
230
1
3
Standard
100
AcDbAlignedDimension
13
0
23
-1.5875
33
0
14
55.18
24
-6.8875
34
0
50
0
100
AcDbRotatedDimension
1001
ACAD
1000
DSTYLE
1002
{
1070
   279
1070
     0
1070
   172
1070
     1
1070
   173
1070
     1
1070
   340
1005
E3
1070
   271
1070
     2
1070
   272
1070
     2
1070
    77
1070
     1
1070
    73
1070
     0
1070
   171
1070
     3
1070
   274
1070
     4
1070
   177
1070
    35
1070
   176
1070
    35
1070
   178
1070
    35
1070
    48
1040
-0.005
1070
    41
1041
3.5
1070
   147
1041
1.75
1070
    42
1041
1.5875
1070
    44
1041
2.0
1070
   140
1041
3.5
1070
   343
1005
0
1070
   344
1005
0
1002
}
0
DIMENSION
5
F9
100
AcDbEntity
8
SK2
62
256
6
ByLayer
370
13
48
1
60
0
100
AcDbDimension
2
DimnDraft3D2
10
57
20
-34.692985
30
0
11
5.5213
21
-34.692985
31
0
70
32
71
5
72
1
41
1
210
0
220
0
230
1
3
Standard
100
AcDbAlignedDimension
13
-45
23
-7.5875
33
0
14
57
24
-1.5875
34
0
50
0
100
AcDbRotatedDimension
1001
ACAD
1000
DSTYLE
1002
{
1070
   279
1070
     0
1070
   172
1070
     1
1070
   173
1070
     1
1070
   340
1005
E3
1070
   271
1070
     2
1070
   272
1070
     2
1070
    77
1070
     1
1070
    73
1070
     0
1070
   171
1070
     3
1070
   274
1070
     4
1070
   177
1070
    35
1070
   176
1070
    35
1070
   178
1070
    35
1070
    48
1040
-0.005
1070
    41
1041
3.5
1070
   147
1041
1.75
1070
    42
1041
1.5875
1070
    44
1041
2.0
1070
   140
1041
3.5
1070
   343
1005
0
1070
   344
1005
0
1002
}
0
DIMENSION
5
103
100
AcDbEntity
8
SK2
62
256
6
ByLayer
370
13
48
1
60
0
100
AcDbDimension
2
DimnDraft3D3
10
57
20
16.909119
30
0
11
40.19
21
16.909119
31
0
70
32
71
5
72
1
41
1
210
0
220
0
230
1
3
Standard
100
AcDbAlignedDimension
13
23.38
23
6.8875
33
0
14
57
24
1.5875
34
0
50
0
100
AcDbRotatedDimension
1001
ACAD
1000
DSTYLE
1002
{
1070
   279
1070
     0
1070
   172
1070
     1
1070
   173
1070
     1
1070
   340
1005
E3
1070
   271
1070
     2
1070
   272
1070
     2
1070
    77
1070
     1
1070
    73
1070
     0
1070
   171
1070
     3
1070
   274
1070
     4
1070
   177
1070
    35
1070
   176
1070
    35
1070
   178
1070
    35
1070
    48
1040
-0.005
1070
    41
1041
3.5
1070
   147
1041
1.75
1070
    42
1041
1.5875
1070
    44
1041
2.0
1070
   140
1041
3.5
1070
   343
1005
0
1070
   344
1005
0
1002
}
0
DIMENSION
5
10D
100
AcDbEntity
8
SK2
62
256
6
ByLayer
370
13
48
1
60
0
100
AcDbDimension
2
DimnDraft3D4
10
55.18
20
-18.102503
30
0
11
66.981425
21
-18.102503
31
0
70
32
71
5
72
1
41
1
210
0
220
0
230
1
3
Standard
100
AcDbAlignedDimension
13
57
23
-1.5875
33
0
14
55.18
24
-6.8875
34
0
50
0
100
AcDbRotatedDimension
1001
ACAD
1000
DSTYLE
1002
{
1070
   279
1070
     0
1070
   172
1070
     1
1070
   173
1070
     1
1070
   340
1005
E3
1070
   271
1070
     2
1070
   272
1070
     2
1070
    77
1070
     1
1070
    73
1070
     0
1070
   171
1070
     3
1070
   274
1070
     4
1070
   177
1070
    35
1070
   176
1070
    35
1070
   178
1070
    35
1070
    48
1040
-0.005
1070
    41
1041
3.5
1070
   147
1041
1.75
1070
    42
1041
1.5875
1070
    44
1041
2.0
1070
   140
1041
3.5
1070
   343
1005
0
1070
   344
1005
0
1002
}
0
DIMENSION
5
117
100
AcDbEntity
8
SK2
62
256
6
ByLayer
370
13
48
1
60
0
100
AcDbDimension
2
DimnDraft3D5
10
55.18
20
-24.343428
30
0
11
2.440676
21
-24.343428
31
0
70
32
71
5
72
1
41
1
210
0
220
0
230
1
3
Standard
100
AcDbAlignedDimension
13
-45
23
-7.5875
33
0
14
55.18
24
-6.8875
34
0
50
0
100
AcDbRotatedDimension
1001
ACAD
1000
DSTYLE
1002
{
1070
   279
1070
     0
1070
   172
1070
     1
1070
   173
1070
     1
1070
   340
1005
E3
1070
   271
1070
     2
1070
   272
1070
     2
1070
    77
1070
     1
1070
    73
1070
     0
1070
   171
1070
     3
1070
   274
1070
     4
1070
   177
1070
    35
1070
   176
1070
    35
1070
   178
1070
    35
1070
    48
1040
-0.005
1070
    41
1041
3.5
1070
   147
1041
1.75
1070
    42
1041
1.5875
1070
    44
1041
2.0
1070
   140
1041
3.5
1070
   343
1005
0
1070
   344
1005
0
1002
}
0
DIMENSION
5
122
100
AcDbEntity
8
SK2
62
256
6
ByLayer
370
13
48
1
60
0
100
AcDbDimension
2
DimnDraft3D6
10
-55.625163
20
6
30
0
11
-56.250163
21
24.47418
31
0
70
33
71
5
72
1
41
1
210
0
220
0
230
1
3
Standard
100
AcDbAlignedDimension
13
-46.5875
23
-6
33
0
14
-46.5875
24
6
34
0
1001
ACAD
1000
DSTYLE
1002
{
1070
   279
1070
     0
1070
    74
1070
     0
1070
   173
1070
     1
1070
   340
1005
E3
1070
   271
1070
     3
1070
   272
1070
     2
1070
    77
1070
     1
1070
    73
1070
     0
1070
   171
1070
     3
1070
   274
1070
     4
1070
   177
1070
    35
1070
   176
1070
    35
1070
   178
1070
    35
1070
    48
1040
-0.005
1070
    41
1041
3.5
1070
   147
1041
1.75
1070
    42
1041
1.5875
1070
    44
1041
2.0
1070
   140
1041
3.5
1070
   343
1005
0
1070
   344
1005
0
1002
}
0
DIMENSION
5
12D
100
AcDbEntity
8
2
62
256
6
ByLayer
370
13
48
1
60
0
100
AcDbDimension
2
DimnDraft3D7
10
71.083343
20
5.3
30
0
11
66.458343
21
22.367266
31
0
70
33
71
5
72
1
41
1
210
0
220
0
230
1
3
Standard
100
AcDbAlignedDimension
13
56.7675
23
-5.3
33
0
14
56.7675
24
5.3
34
0
1001
ACAD
1000
DSTYLE
1002
{
1070
   279
1070
     0
1070
    74
1070
     0
1070
   173
1070
     1
1070
   340
1005
E3
1070
   271
1070
     3
1070
   272
1070
     2
1070
    77
1070
     1
1070
    73
1070
     0
1070
   171
1070
     3
1070
   274
1070
     4
1070
   177
1070
    35
1070
   176
1070
    35
1070
   178
1070
    35
1070
    48
1040
-0.005
1070
    41
1041
3.5
1070
   147
1041
1.75
1070
    42
1041
1.5875
1070
    44
1041
2.0
1070
   140
1041
3.5
1070
   343
1005
0
1070
   344
1005
0
1002
}
0
ENDSEC
0
SECTION
2
OBJECTS
0
DICTIONARY
5
198
330
0
100
AcDbDictionary
280
0
281
1
3
ACAD_GROUP
350
199
3
ACAD_MLINESTYLE
350
19a
0
DICTIONARY
5
199
330
0
100
AcDbDictionary
280
0
281
1
0
DICTIONARY
5
19a
330
0
100
AcDbDictionary
280
0
281
1
3
Standard
350
18
0
MLINESTYLE
5
18
330
19a
100
AcDbMlineStyle
2
Standard
70
0
3

62
256
51
90
52
90
71
2
49
-0.5
62
256
6
ByLayer
49
0.5
62
256
6
ByLayer
0
RASTERVARIABLES
5
186
330

100
AcDbRasterVariables
90
0
70
1
71
1
72
1
0
ENDSEC
0
EOF
