0
SECTION
2
HEADER
9
$ACADVER
1
AC1015
9
$DWGCODEPAGE
3
ANSI_1252
9
$HANDSEED
5
1aa
9
$ANGBASE
50
0
9
$ANGDIR
70
0
9
$ATTMODE
70
1
9
$AUNITS
70
0
9
$AUPREC
70
0
9
$CECOLOR
62
256
9
$CELTSCALE
40
1
9
$CELTYPE
6
ByLayer
9
$CELWEIGHT
370
18
9
$CLAYER
8
0
9
$CMLJUST
70
0
9
$CMLSCALE
40
1
9
$CMLSTYLE
2
Standard
9
$DIMSTYLE
2
Standard
9
$TEXTSIZE
40
0.2
9
$TEXTSTYLE
7
Standard
9
$LUNITS
70
2
9
$LUPREC
70
4
9
$EXTNAMES
290
1
9
$INSUNITS
70
4
9
$LTSCALE
40
1
9
$LWDISPLAY
290
1
9
$PDMODE
70
0
9
$PDSIZE
40
0
9
$PLINEGEN
70
0
0
ENDSEC
0
SECTION
2
CLASSES
0
CLASS
1
RASTERVARIABLES
2
AcDbRasterVariables
3
ISM
90
0
280
0
281
0
0
ENDSEC
0
SECTION
2
TABLES
0
TABLE
2
VPORT
5
1a0
100
AcDbSymbolTable
0
VPORT
5
1
100
AcDbSymbolTableRecord
100
AcDbViewportTableRecord
2
*Active
70
0
10
0
20
0
11
1
21
1
12
-1
22
1
13
0
23
0
14
0.5
24
0.5
15
10
25
10
16
0
26
0
36
1
17
0
27
0
37
0
0
ENDTAB
0
TABLE
2
LTYPE
5
1a1
100
AcDbSymbolTable
0
LTYPE
5
14
100
AcDbSymbolTableRecord
100
AcDbLinetypeTableRecord
70
0
2
ByBlock
3

72
65
73
0
40
0
0
LTYPE
5
15
100
AcDbSymbolTableRecord
100
AcDbLinetypeTableRecord
70
0
2
ByLayer
3

72
65
73
0
40
0
0
LTYPE
5
16
100
AcDbSymbolTableRecord
100
AcDbLinetypeTableRecord
70
0
2
CONTINUOUS
3
Solid line
72
65
73
0
40
0
0
LTYPE
5
6A
100
AcDbSymbolTableRecord
100
AcDbLinetypeTableRecord
70
0
2
CENTER
3
____ _ ____ _ ____ _ ____
72
65
73
4
40
47.5
49
22
74
0
49
-8.5
74
0
49
8.5
74
0
49
-8.5
74
0
0
LTYPE
5
6B
100
AcDbSymbolTableRecord
100
AcDbLinetypeTableRecord
70
0
2
DASHED
3
__ __ __ __ __ __ __ __ __
72
65
73
2
40
25.72
49
12.86
74
0
49
-12.86
74
0
0
ENDTAB
0
TABLE
2
LAYER
5
1a2
100
AcDbSymbolTable
0
LAYER
5
10
100
AcDbSymbolTableRecord
100
AcDbLayerTableRecord
2
0
70
0
62
7
6
CONTINUOUS
290
1
370
-3
390
0
0
LAYER
5
6D
100
AcDbSymbolTableRecord
100
AcDbLayerTableRecord
2
81
70
0
62
-3
6
CONTINUOUS
290
1
370
-3
390
0
0
LAYER
5
6F
100
AcDbSymbolTableRecord
100
AcDbLayerTableRecord
2
80
70
0
62
-6
6
CONTINUOUS
290
1
370
-3
390
0
0
LAYER
5
74
100
AcDbSymbolTableRecord
100
AcDbLayerTableRecord
2
2
70
0
62
7
6
CONTINUOUS
290
1
370
-3
390
0
0
LAYER
5
78
100
AcDbSymbolTableRecord
100
AcDbLayerTableRecord
2
1
70
0
62
4
6
CONTINUOUS
290
1
370
-3
390
0
0
LAYER
5
88
100
AcDbSymbolTableRecord
100
AcDbLayerTableRecord
2
4
70
0
62
-2
6
CENTER
290
1
370
-3
390
0
0
LAYER
5
18c
100
AcDbSymbolTableRecord
100
AcDbLayerTableRecord
2
SK2
70
0
62
7
6
CONTINUOUS
290
1
370
-3
390
0
0
LAYER
5
18d
100
AcDbSymbolTableRecord
100
AcDbLayerTableRecord
2
SK1
70
0
62
4
6
CONTINUOUS
290
1
370
-3
390
0
0
LAYER
5
18e
100
AcDbSymbolTableRecord
100
AcDbLayerTableRecord
2
SK4
70
0
62
2
6
CENTER
290
1
370
-3
390
0
0
LAYER
5
18f
100
AcDbSymbolTableRecord
100
AcDbLayerTableRecord
2
SK6
70
0
62
5
6
CONTINUOUS
290
1
370
-3
390
0
0
ENDTAB
0
TABLE
2
STYLE
5
1a3
100
AcDbSymbolTable
0
STYLE
5
11
100
AcDbSymbolTableRecord
100
AcDbTextStyleTableRecord
2
Standard
3
txt
70
0
71
0
40
0
41
1
42
0
50
0
0
STYLE
5
E8
100
AcDbSymbolTableRecord
100
AcDbTextStyleTableRecord
2
iso_b_vert
3
simplex.shx
70
0
71
0
40
0
41
1
42
0
50
0
0
STYLE
5
E9
100
AcDbSymbolTableRecord
100
AcDbTextStyleTableRecord
2
DWGDirectTextStyle
3
simplex
70
0
71
0
40
0
41
1
42
0
50
0
0
ENDTAB
0
TABLE
2
DIMSTYLE
5
1a4
100
AcDbSymbolTable
100
AcDbDimStyleTable
0
DIMSTYLE
105
27
100
AcDbSymbolTableRecord
100
AcDbDimStyleTableRecord
2
Standard
70
0
3
<>
41
0.18
42
0.0625
44
0.18
140
0.18
147
0.09
73
0
74
0
77
1
271
2
275
0
278
52
280
0
340
11
0
ENDTAB
0
TABLE
2
VIEW
5
1a5
100
AcDbSymbolTable
0
ENDTAB
0
TABLE
2
UCS
5
1a6
100
AcDbSymbolTable
0
ENDTAB
0
TABLE
2
APPID
5
1a7
100
AcDbSymbolTable
0
APPID
5
12
100
AcDbSymbolTableRecord
100
AcDbRegAppTableRecord
2
ACAD
70
0
0
ENDTAB
0
TABLE
2
BLOCK_RECORD
5
1a8
100
AcDbSymbolTable
0
BLOCK_RECORD
5
1F
100
AcDbSymbolTableRecord
100
AcDbBlockTableRecord
2
*Model_Space
340
0
70
0
0
BLOCK_RECORD
5
1B
100
AcDbSymbolTableRecord
100
AcDbBlockTableRecord
2
*Paper_Space
340
0
70
0
0
BLOCK_RECORD
5
23
100
AcDbSymbolTableRecord
100
AcDbBlockTableRecord
2
*Paper_Space0
340
0
70
0
0
BLOCK_RECORD
5
EB
100
AcDbSymbolTableRecord
100
AcDbBlockTableRecord
2
DimnDraft3D1
340
0
70
0
0
BLOCK_RECORD
5
F5
100
AcDbSymbolTableRecord
100
AcDbBlockTableRecord
2
DimnDraft3D2
340
0
70
0
0
BLOCK_RECORD
5
FF
100
AcDbSymbolTableRecord
100
AcDbBlockTableRecord
2
DimnDraft3D3
340
0
70
0
0
BLOCK_RECORD
5
109
100
AcDbSymbolTableRecord
100
AcDbBlockTableRecord
2
DimnDraft3D4
340
0
70
0
0
BLOCK_RECORD
5
113
100
AcDbSymbolTableRecord
100
AcDbBlockTableRecord
2
DimnDraft3D5
340
0
70
0
0
BLOCK_RECORD
5
11D
100
AcDbSymbolTableRecord
100
AcDbBlockTableRecord
2
DimnDraft3D6
340
0
70
0
0
BLOCK_RECORD
5
128
100
AcDbSymbolTableRecord
100
AcDbBlockTableRecord
2
DimnDraft3D7
340
0
70
0
0
ENDTAB
0
ENDSEC
0
SECTION
2
BLOCKS
0
BLOCK
5
20
100
AcDbEntity
8
0
100
AcDbBlockBegin
2
*Model_Space
70
0
10
0
20
0
30
0
3
*Model_Space
0
ENDBLK
5
21
100
AcDbEntity
8
0
100
AcDbBlockEnd
0
BLOCK
5
1C
100
AcDbEntity
8
0
100
AcDbBlockBegin
2
*Paper_Space
70
0
10
0
20
0
30
0
3
*Paper_Space
0
ENDBLK
5
1D
100
AcDbEntity
8
0
100
AcDbBlockEnd
0
BLOCK
5
24
100
AcDbEntity
8
0
100
AcDbBlockBegin
2
*Paper_Space0
70
0
10
0
20
0
30
0
3
*Paper_Space0
0
ENDBLK
5
25
100
AcDbEntity
8
0
100
AcDbBlockEnd
0
BLOCK
5
F2
100
AcDbEntity
8
0
100
AcDbBlockBegin
2
DimnDraft3D1
70
0
10
0
20
0
30
0
3
DimnDraft3D1
0
MTEXT
5
EC
100
AcDbEntity
8
SK2
62
256
6
ByLayer
370
13
48
1
60
0
100
AcDbMText
10
30.386375
20
-14.563398
30
0
210
0
220
0
230
1
1
\W0.6563;71,21
40
3.5
41
0
44
1.084337
50
0
71
7
72
5
7
iso_b_vert
0
LINE
5
ED
100
AcDbEntity
8
SK2
62
256
6
ByLayer
370
13
48
1
60
0
100
AcDbLine
10
0
20
-1.5875
30
0
11
0
21
-17.438398
31
0
39
0
210
0
220
0
230
1
0
LINE
5
EE
100
AcDbEntity
8
SK2
62
256
6
ByLayer
370
13
48
1
60
0
100
AcDbLine
10
71.21
20
-6.8125
30
0
11
71.21
21
-17.438398
31
0
39
0
210
0
220
0
230
1
0
LINE
5
EF
100
AcDbEntity
8
SK2
62
256
6
ByLayer
370
13
48
1
60
0
100
AcDbLine
10
0
20
-15.438398
30
0
11
71.21
21
-15.438398
31
0
39
0
210
0
220
0
230
1
0
SOLID
5
F0
100
AcDbEntity
8
SK2
62
256
6
ByLayer
370
13
48
1
60
0
100
AcDbTrace
10
0
20
-15.438398
30
0
11
3.499998
21
-14.977615
31
0
12
3.500002
22
-15.899182
32
0
13
0
23
-15.438398
33
0
39
0
210
0
220
0
230
1
0
SOLID
5
F1
100
AcDbEntity
8
SK2
62
256
6
ByLayer
370
13
48
1
60
0
100
AcDbTrace
10
71.21
20
-15.438398
30
0
11
67.710002
21
-15.899182
31
0
12
67.709998
22
-14.977615
32
0
13
71.21
23
-15.438398
33
0
39
0
210
0
220
0
230
1
0
ENDBLK
5
F3
100
AcDbEntity
8
0
100
AcDbBlockEnd
0
BLOCK
5
FC
100
AcDbEntity
8
0
100
AcDbBlockBegin
2
DimnDraft3D2
70
0
10
0
20
0
30
0
3
DimnDraft3D2
0
MTEXT
5
F6
100
AcDbEntity
8
SK2
62
256
6
ByLayer
370
13
48
1
60
0
100
AcDbMText
10
8.669721
20
-33.817985
30
0
210
0
220
0
230
1
1
\W0.6440;118,00
40
3.5
41
0
44
1.084337
50
0
71
7
72
5
7
iso_b_vert
0
LINE
5
F7
100
AcDbEntity
8
SK2
62
256
6
ByLayer
370
13
48
1
60
0
100
AcDbLine
10
-45
20
-7.5875
30
0
11
-45
21
-36.692985
31
0
39
0
210
0
220
0
230
1
0
LINE
5
F8
100
AcDbEntity
8
SK2
62
256
6
ByLayer
370
13
48
1
60
0
100
AcDbLine
10
73
20
-1.5875
30
0
11
73
21
-36.692985
31
0
39
0
210
0
220
0
230
1
0
LINE
5
F9
100
AcDbEntity
8
SK2
62
256
6
ByLayer
370
13
48
1
60
0
100
AcDbLine
10
-45
20
-34.692985
30
0
11
73
21
-34.692985
31
0
39
0
210
0
220
0
230
1
0
SOLID
5
FA
100
AcDbEntity
8
SK2
62
256
6
ByLayer
370
13
48
1
60
0
100
AcDbTrace
10
-45
20
-34.692985
30
0
11
-41.500002
21
-34.232202
31
0
12
-41.499998
22
-35.153769
32
0
13
-45
23
-34.692985
33
0
39
0
210
0
220
0
230
1
0
SOLID
5
FB
100
AcDbEntity
8
SK2
62
256
6
ByLayer
370
13
48
1
60
0
100
AcDbTrace
10
73
20
-34.692985
30
0
11
69.500002
21
-35.153769
31
0
12
69.499998
22
-34.232202
32
0
13
73
23
-34.692985
33
0
39
0
210
0
220
0
230
1
0
ENDBLK
5
FD
100
AcDbEntity
8
0
100
AcDbBlockEnd
0
BLOCK
5
106
100
AcDbEntity
8
0
100
AcDbBlockBegin
2
DimnDraft3D3
70
0
10
0
20
0
30
0
3
DimnDraft3D3
0
MTEXT
5
100
100
AcDbEntity
8
SK2
62
256
6
ByLayer
370
13
48
1
60
0
100
AcDbMText
10
41.162895
20
17.709119
30
0
210
0
220
0
230
1
1
\W0.7756;54,04
40
3.5
41
0
44
1.084337
50
0
71
7
72
5
7
iso_b_vert
0
LINE
5
101
100
AcDbEntity
8
SK2
62
256
6
ByLayer
370
13
48
1
60
0
100
AcDbLine
10
18.96
20
6.8125
30
0
11
18.96
21
18.834119
31
0
39
0
210
0
220
0
230
1
0
LINE
5
102
100
AcDbEntity
8
SK2
62
256
6
ByLayer
370
13
48
1
60
0
100
AcDbLine
10
73
20
1.5875
30
0
11
73
21
18.834119
31
0
39
0
210
0
220
0
230
1
0
LINE
5
103
100
AcDbEntity
8
SK2
62
256
6
ByLayer
370
13
48
1
60
0
100
AcDbLine
10
18.96
20
16.834119
30
0
11
73
21
16.834119
31
0
39
0
210
0
220
0
230
1
0
SOLID
5
104
100
AcDbEntity
8
SK2
62
256
6
ByLayer
370
13
48
1
60
0
100
AcDbTrace
10
18.96
20
16.834119
30
0
11
22.459998
21
17.294903
31
0
12
22.460002
22
16.373335
32
0
13
18.96
23
16.834119
33
0
39
0
210
0
220
0
230
1
0
SOLID
5
105
100
AcDbEntity
8
SK2
62
256
6
ByLayer
370
13
48
1
60
0
100
AcDbTrace
10
73
20
16.834119
30
0
11
69.500002
21
16.373335
31
0
12
69.499998
22
17.294903
32
0
13
73
23
16.834119
33
0
39
0
210
0
220
0
230
1
0
ENDBLK
5
107
100
AcDbEntity
8
0
100
AcDbBlockEnd
0
BLOCK
5
110
100
AcDbEntity
8
0
100
AcDbBlockBegin
2
DimnDraft3D4
70
0
10
0
20
0
30
0
3
DimnDraft3D4
0
MTEXT
5
10A
100
AcDbEntity
8
SK2
62
256
6
ByLayer
370
13
48
1
60
0
100
AcDbMText
10
80.278136
20
-17.152503
30
0
210
0
220
0
230
1
1
\W0.6463;1,79
40
3.5
41
0
44
1.084337
50
0
71
7
72
5
7
iso_b_vert
0
LINE
5
10B
100
AcDbEntity
8
SK2
62
256
6
ByLayer
370
13
48
1
60
0
100
AcDbLine
10
73
20
-1.5875
30
0
11
73
21
-20.027503
31
0
39
0
210
0
220
0
230
1
0
LINE
5
10C
100
AcDbEntity
8
SK2
62
256
6
ByLayer
370
13
48
1
60
0
100
AcDbLine
10
71.21
20
-6.8125
30
0
11
71.21
21
-20.027503
31
0
39
0
210
0
220
0
230
1
0
LINE
5
10D
100
AcDbEntity
8
SK2
62
256
6
ByLayer
370
13
48
1
60
0
100
AcDbLine
10
62.46
20
-18.027503
30
0
11
86.559715
21
-18.027503
31
0
39
0
210
0
220
0
230
1
0
SOLID
5
10E
100
AcDbEntity
8
SK2
62
256
6
ByLayer
370
13
48
1
60
0
100
AcDbTrace
10
73
20
-18.027503
30
0
11
76.499998
21
-17.566719
31
0
12
76.500002
22
-18.488287
32
0
13
73
23
-18.027503
33
0
39
0
210
0
220
0
230
1
0
SOLID
5
10F
100
AcDbEntity
8
SK2
62
256
6
ByLayer
370
13
48
1
60
0
100
AcDbTrace
10
71.21
20
-18.027503
30
0
11
67.710002
21
-18.488287
31
0
12
67.709998
22
-17.566719
32
0
13
71.21
23
-18.027503
33
0
39
0
210
0
220
0
230
1
0
ENDBLK
5
111
100
AcDbEntity
8
0
100
AcDbBlockEnd
0
BLOCK
5
11A
100
AcDbEntity
8
0
100
AcDbBlockBegin
2
DimnDraft3D5
70
0
10
0
20
0
30
0
3
DimnDraft3D5
0
MTEXT
5
114
100
AcDbEntity
8
SK2
62
256
6
ByLayer
370
13
48
1
60
0
100
AcDbMText
10
6.026597
20
-23.468428
30
0
210
0
220
0
230
1
1
\W0.6303;116,21
40
3.5
41
0
44
1.084337
50
0
71
7
72
5
7
iso_b_vert
0
LINE
5
115
100
AcDbEntity
8
SK2
62
256
6
ByLayer
370
13
48
1
60
0
100
AcDbLine
10
-45
20
-7.5875
30
0
11
-45
21
-26.343428
31
0
39
0
210
0
220
0
230
1
0
LINE
5
116
100
AcDbEntity
8
SK2
62
256
6
ByLayer
370
13
48
1
60
0
100
AcDbLine
10
71.21
20
-6.8125
30
0
11
71.21
21
-26.343428
31
0
39
0
210
0
220
0
230
1
0
LINE
5
117
100
AcDbEntity
8
SK2
62
256
6
ByLayer
370
13
48
1
60
0
100
AcDbLine
10
-45
20
-24.343428
30
0
11
71.21
21
-24.343428
31
0
39
0
210
0
220
0
230
1
0
SOLID
5
118
100
AcDbEntity
8
SK2
62
256
6
ByLayer
370
13
48
1
60
0
100
AcDbTrace
10
-45
20
-24.343428
30
0
11
-41.500002
21
-23.882645
31
0
12
-41.499998
22
-24.804212
32
0
13
-45
23
-24.343428
33
0
39
0
210
0
220
0
230
1
0
SOLID
5
119
100
AcDbEntity
8
SK2
62
256
6
ByLayer
370
13
48
1
60
0
100
AcDbTrace
10
71.21
20
-24.343428
30
0
11
67.710002
21
-24.804212
31
0
12
67.709998
22
-23.882645
32
0
13
71.21
23
-24.343428
33
0
39
0
210
0
220
0
230
1
0
ENDBLK
5
11B
100
AcDbEntity
8
0
100
AcDbBlockEnd
0
BLOCK
5
125
100
AcDbEntity
8
0
100
AcDbBlockBegin
2
DimnDraft3D6
70
0
10
0
20
0
30
0
3
DimnDraft3D6
0
MTEXT
5
11E
100
AcDbEntity
8
SK2
62
256
6
ByLayer
370
13
48
1
60
0
100
AcDbMText
10
-55.375163
20
25.34918
30
0
210
0
220
0
230
1
1
\W0.6930;12,000
40
3.5
41
0
44
1.084337
50
90
71
7
72
5
7
iso_b_vert
0
MTEXT
5
11F
100
AcDbEntity
8
SK2
62
256
6
ByLayer
370
13
48
1
60
0
100
AcDbMText
10
-55.375163
20
20.126524
30
0
210
0
220
0
230
1
1
%%c
40
3.5
41
0
44
1.084337
50
90
71
7
72
5
7
iso_b_vert
0
LINE
5
120
100
AcDbEntity
8
SK2
62
256
6
ByLayer
370
13
48
1
60
0
100
AcDbLine
10
-46.5875
20
-6
30
0
11
-55.625163
21
-6
31
0
39
0
210
0
220
0
230
1
0
LINE
5
121
100
AcDbEntity
8
SK2
62
256
6
ByLayer
370
13
48
1
60
0
100
AcDbLine
10
-46.5875
20
6
30
0
11
-55.625163
21
6
31
0
39
0
210
0
220
0
230
1
0
LINE
5
122
100
AcDbEntity
8
SK2
62
256
6
ByLayer
370
13
48
1
60
0
100
AcDbLine
10
-53.625163
20
-6
30
0
11
-53.625163
21
36.862338
31
0
39
0
210
0
220
0
230
1
0
SOLID
5
123
100
AcDbEntity
8
SK2
62
256
6
ByLayer
370
13
48
1
60
0
100
AcDbTrace
10
-53.625163
20
-6
30
0
11
-54.085946
21
-2.500002
31
0
12
-53.164379
22
-2.499998
32
0
13
-53.625163
23
-6
33
0
39
0
210
0
220
0
230
1
0
SOLID
5
124
100
AcDbEntity
8
SK2
62
256
6
ByLayer
370
13
48
1
60
0
100
AcDbTrace
10
-53.625163
20
6
30
0
11
-53.164379
21
2.500002
31
0
12
-54.085946
22
2.499998
32
0
13
-53.625163
23
6
33
0
39
0
210
0
220
0
230
1
0
ENDBLK
5
126
100
AcDbEntity
8
0
100
AcDbBlockEnd
0
BLOCK
5
130
100
AcDbEntity
8
0
100
AcDbBlockBegin
2
DimnDraft3D7
70
0
10
0
20
0
30
0
3
DimnDraft3D7
0
MTEXT
5
129
100
AcDbEntity
8
2
62
256
6
ByLayer
370
13
48
1
60
0
100
AcDbMText
10
83.333343
20
23.167266
30
0
210
0
220
0
230
1
1
\W0.7145;10,450
40
3.5
41
0
44
1.084337
50
90
71
7
72
5
7
iso_b_vert
0
MTEXT
5
12A
100
AcDbEntity
8
2
62
256
6
ByLayer
370
13
48
1
60
0
100
AcDbMText
10
83.333343
20
17.94461
30
0
210
0
220
0
230
1
1
%%c
40
3.5
41
0
44
1.084337
50
90
71
7
72
5
7
iso_b_vert
0
LINE
5
12B
100
AcDbEntity
8
2
62
256
6
ByLayer
370
13
48
1
60
0
100
AcDbLine
10
72.7975
20
-5.225
30
0
11
87.083343
21
-5.225
31
0
39
0
210
0
220
0
230
1
0
LINE
5
12C
100
AcDbEntity
8
2
62
256
6
ByLayer
370
13
48
1
60
0
100
AcDbLine
10
72.7975
20
5.225
30
0
11
87.083343
21
5.225
31
0
39
0
210
0
220
0
230
1
0
LINE
5
12D
100
AcDbEntity
8
2
62
256
6
ByLayer
370
13
48
1
60
0
100
AcDbLine
10
85.083343
20
-5.225
30
0
11
85.083343
21
35.048845
31
0
39
0
210
0
220
0
230
1
0
SOLID
5
12E
100
AcDbEntity
8
2
62
256
6
ByLayer
370
13
48
1
60
0
100
AcDbTrace
10
85.083343
20
-5.225
30
0
11
84.622559
21
-1.725002
31
0
12
85.544126
22
-1.724998
32
0
13
85.083343
23
-5.225
33
0
39
0
210
0
220
0
230
1
0
SOLID
5
12F
100
AcDbEntity
8
2
62
256
6
ByLayer
370
13
48
1
60
0
100
AcDbTrace
10
85.083343
20
5.225
30
0
11
85.544126
21
1.725002
31
0
12
84.622559
22
1.724998
32
0
13
85.083343
23
5.225
33
0
39
0
210
0
220
0
230
1
0
ENDBLK
5
131
100
AcDbEntity
8
0
100
AcDbBlockEnd
0
ENDSEC
0
SECTION
2
ENTITIES
0
ARC
5
9D
100
AcDbEntity
8
1
62
256
6
ByLayer
370
18
48
1
60
0
100
AcDbCircle
39
0
10
0
20
5.2
30
0
40
0.799999999999998
210
0
220
0
230
1
100
AcDbArc
50
29.303047
51
90
0
ARC
5
9E
100
AcDbEntity
8
1
62
256
6
ByLayer
370
18
48
1
60
0
100
AcDbCircle
39
0
10
0
20
-5.2
30
0
40
0.799999999999998
210
0
220
0
230
1
100
AcDbArc
50
270
51
330.696953
0
ARC
5
9F
100
AcDbEntity
8
1
62
256
6
ByLayer
370
18
48
1
60
0
100
AcDbCircle
39
0
10
-1.395269
20
-5.983086
30
0
40
0.800000000000004
210
0
220
0
230
-1
100
AcDbArc
50
29.303047
51
90.034377
0
ARC
5
A0
100
AcDbEntity
8
1
62
256
6
ByLayer
370
18
48
1
60
0
100
AcDbCircle
39
0
10
-1.395269
20
5.983086
30
0
40
0.800000000000004
210
0
220
0
230
-1
100
AcDbArc
50
269.965623
51
330.696953
0
ELLIPSE
5
A1
100
AcDbEntity
8
1
62
256
6
ByLayer
370
13
48
1
60
0
100
AcDbEllipse
10
4.250199
20
-4.073417
30
0
11
0.0299884702459031
21
0.0953975453159597
31
0
210
0
220
0
230
1
40
0.37706
41
0.692122866462037
42
2.24802012883312
0
ELLIPSE
5
A2
100
AcDbEntity
8
1
62
256
6
ByLayer
370
18
48
1
60
0
100
AcDbEllipse
10
73.024245
20
0.032017
30
0
11
0.135658546021127
21
-0.401200806198942
31
0
210
0
220
0
230
-1
40
0.065863
41
1.63630450949091
42
2.32292776270278
0
ELLIPSE
5
A3
100
AcDbEntity
8
1
62
256
6
ByLayer
370
13
48
1
60
0
100
AcDbEllipse
10
72.298476
20
2.534923
30
0
11
3.58174743025391
21
-1.50969607192698
31
0
210
0
220
0
230
-1
40
0.444667
41
1.5975402717185
42
1.8967052287264
0
ELLIPSE
5
A4
100
AcDbEntity
8
1
62
256
6
ByLayer
370
18
48
1
60
0
100
AcDbEllipse
10
72.860416
20
0.113132
30
0
11
0.0868803724537808
21
0.290676908851553
31
0
210
0
220
0
230
-1
40
0.467765
41
1.65089702546028
42
2.36053717391113
0
ELLIPSE
5
A5
100
AcDbEntity
8
1
62
256
6
ByLayer
370
13
48
1
60
0
100
AcDbEllipse
10
71.531625
20
0.771045
30
0
11
0.133113781883896
21
0.268850741253519
31
0
210
0
220
0
230
1
40
0.40558
41
0.884485917130899
42
2.28074931872629
0
ELLIPSE
5
A6
100
AcDbEntity
8
1
62
256
6
ByLayer
370
18
48
1
60
0
100
AcDbEllipse
10
72.017844
20
2.534923
30
0
11
0.804522949211858
21
-2.19350481840758
31
0
210
0
220
0
230
-1
40
0.082138
41
-1.55919068108312
42
-0.755280950346194
0
ELLIPSE
5
A7
100
AcDbEntity
8
1
62
256
6
ByLayer
370
18
48
1
60
0
100
AcDbEllipse
10
72.017844
20
-2.534923
30
0
11
0.804522949231729
21
2.19350481845352
31
0
210
0
220
0
230
-1
40
0.082138
41
0.755280950346773
42
1.55919068106814
0
ELLIPSE
5
A8
100
AcDbEntity
8
1
62
256
6
ByLayer
370
18
48
1
60
0
100
AcDbEllipse
10
73.000443
20
-0.001141
30
0
11
1.91591540842601
21
-5.22367903764834
31
0
210
0
220
0
230
-1
40
0.082138
41
-2.984981866763
42
-2.88952189793885
0
ELLIPSE
5
A9
100
AcDbEntity
8
1
62
256
6
ByLayer
370
13
48
1
60
0
100
AcDbEllipse
10
72.129018
20
2.400631
30
0
11
3.53677080309211
21
-1.81821611305104
31
0
210
0
220
0
230
-1
40
0.482873
41
1.53949524928503
42
1.83320327521209
0
ELLIPSE
5
AA
100
AcDbEntity
8
1
62
256
6
ByLayer
370
13
48
1
60
0
100
AcDbEllipse
10
4.179562
20
-4.06545
30
0
11
-0.0113901098535235
21
0.0993492093452417
31
0
210
0
220
0
230
1
40
0.590701
41
0.711818582320763
42
2.04636779086775
0
ELLIPSE
5
AB
100
AcDbEntity
8
1
62
256
6
ByLayer
370
18
48
1
60
0
100
AcDbEllipse
10
73.000443
20
0.001141
30
0
11
1.91591545395518
21
5.22367916851541
31
0
210
0
220
0
230
-1
40
0.082138
41
2.88952190110747
42
2.98498186871746
0
ELLIPSE
5
AC
100
AcDbEntity
8
1
62
256
6
ByLayer
370
18
48
1
60
0
100
AcDbEllipse
10
73.024245
20
-0.032017
30
0
11
0.135658545992334
21
0.401200806123995
31
0
210
0
220
0
230
-1
40
0.065863
41
-2.3229277627153
42
-1.63630450938235
0
POINT
5
6C
100
AcDbEntity
8
81
62
256
6
ByLayer
370
18
48
1
60
0
100
AcDbPoint
10
73
20
0
30
0
39
0
210
0
220
0
230
1
50
360
0
POINT
5
6E
100
AcDbEntity
8
80
62
256
6
ByLayer
370
18
48
1
60
0
100
AcDbPoint
10
0
20
0
30
0
39
0
210
0
220
0
230
1
50
360
0
POINT
5
70
100
AcDbEntity
8
SK2
62
256
6
ByLayer
370
18
48
1
60
1
100
AcDbPoint
10
-45
20
-6
30
0
39
0
210
0
220
0
230
1
50
360
0
POINT
5
72
100
AcDbEntity
8
SK2
62
256
6
ByLayer
370
18
48
1
60
1
100
AcDbPoint
10
-45
20
6
30
0
39
0
210
0
220
0
230
1
50
360
0
POINT
5
73
100
AcDbEntity
8
2
62
256
6
ByLayer
370
18
48
1
60
1
100
AcDbPoint
10
71.21
20
-5.225
30
0
39
0
210
0
220
0
230
1
50
360
0
POINT
5
75
100
AcDbEntity
8
2
62
256
6
ByLayer
370
18
48
1
60
1
100
AcDbPoint
10
71.21
20
5.225
30
0
39
0
210
0
220
0
230
1
50
360
0
SPLINE
5
AD
100
AcDbEntity
8
1
62
256
6
ByLayer
370
18
48
1
60
0
100
AcDbSpline
70
4
71
3
72
29
73
25
40
0
40
0
40
0
40
0
40
0.0010662519687376
40
0.0545461858075879
40
0.100886233509861
40
0.138222381233513
40
0.169229966794289
40
0.206156520430846
40
0.249893460028137
40
0.290078089806958
40
0.325115642339074
40
0.364012279748698
40
0.418633750706861
40
0.469451283381138
40
0.510058054673869
40
0.559164066775741
40
0.627550940920506
40
0.680785766060535
40
0.750035734594401
40
0.814851167040707
40
0.865251753831425
40
0.926995980677316
40
0.970385829725678
40
1
40
1
40
1
40
1
41
1
10
55.2629169976251
20
4.97836665107346
30
0
41
1
10
55.2585937777479
20
4.97835384841054
30
0
41
1
10
55.0374014484756
20
4.97771184613168
30
0
41
1
10
54.6086997199768
20
4.9770870327084
30
0
41
1
10
54.0615018232132
20
4.98096418653893
30
0
41
1
10
53.5877902236974
20
4.98089141230025
30
0
41
1
10
53.1518456315546
20
4.9810512973236
30
0
41
1
10
52.6897235372551
20
4.97926540012489
30
0
41
1
10
52.1894136066715
20
4.97866595223965
30
0
41
1
10
51.6969793459108
20
4.97898315996505
30
0
41
1
10
51.2245614112887
20
4.97909633858936
30
0
41
1
10
50.6923864570202
20
4.97788493104432
30
0
41
1
10
50.0948838402691
20
4.97752160454169
30
0
41
1
10
49.4903059693412
20
4.97817898129529
30
0
41
1
10
48.9085576824916
20
4.97776677145561
30
0
41
1
10
48.2540792016468
20
4.97638058994568
30
0
41
1
10
47.5473193254025
20
4.97696904496092
30
0
41
1
10
46.7571852332131
20
4.97641776973629
30
0
41
1
10
45.9818102783439
20
4.97548393332738
30
0
41
1
10
45.2182229187993
20
4.97600697982608
30
0
41
1
10
44.485541814319
20
4.9747457651309
30
0
41
1
10
43.8423142907297
20
4.9748100661532
30
0
41
1
10
43.282847581792
20
4.97487682146229
30
0
41
1
10
42.9854118960107
20
4.9737505481551
30
0
41
1
10
42.8637397737138
20
4.97342490505923
30
0
0
SPLINE
5
AE
100
AcDbEntity
8
1
62
256
6
ByLayer
370
18
48
1
60
0
100
AcDbSpline
70
4
71
3
72
35
73
31
40
0
40
0
40
0
40
0
40
0.0377117048201509
40
0.068827950056422
40
0.0987339680924208
40
0.127721509184019
40
0.15614346439028
40
0.186324225613889
40
0.228911801947344
40
0.267245666963041
40
0.303761780847467
40
0.356263967090816
40
0.40357690041808
40
0.43931200347167
40
0.481985329217664
40
0.525047027087204
40
0.558285723751616
40
0.592572224280464
40
0.636731532657914
40
0.677037980569895
40
0.708298638135815
40
0.744638620828127
40
0.787779416435303
40
0.825169455379163
40
0.857193459145162
40
0.876862794437902
40
0.899985722332547
40
0.928532146684189
40
0.965996345624891
40
1
40
1
40
1
40
1
41
1
10
40.1529000218502
20
-4.97246073713956
30
0
41
1
10
40.3274345563425
20
-4.97113228034411
30
0
41
1
10
40.6515318624779
20
-4.96976718277492
30
0
41
1
10
41.1513719984824
20
-4.97012097276115
30
0
41
1
10
41.5823550207481
20
-4.97351113139018
30
0
41
1
10
42.0143391576687
20
-4.97357143213029
30
0
41
1
10
42.4488004684199
20
-4.97381160302331
30
0
41
1
10
42.9510408931755
20
-4.97441842186606
30
0
41
1
10
43.5024127019183
20
-4.97487307499566
30
0
41
1
10
44.0852585080763
20
-4.97472919972478
30
0
41
1
10
44.7172789927042
20
-4.97513842003929
30
0
41
1
10
45.3938917359013
20
-4.97597396660777
30
0
41
1
10
46.0666106143289
20
-4.97559118791642
30
0
41
1
10
46.6905531464306
20
-4.97620773792829
30
0
41
1
10
47.2934072095749
20
-4.97695216757381
30
0
41
1
10
47.8838591936
20
-4.9766586122025
30
0
41
1
10
48.4326987406443
20
-4.97670660373751
30
0
41
1
10
48.9869816969616
20
-4.97792260821822
30
0
41
1
10
49.5763436564384
20
-4.97810781447487
30
0
41
1
10
50.1506850810123
20
-4.97755531185814
30
0
41
1
10
50.6862230866947
20
-4.97786305340318
30
0
41
1
10
51.2358254609974
20
-4.9792188152376
30
0
41
1
10
51.815854063868
20
-4.97888944801997
30
0
41
1
10
52.3744455983561
20
-4.97865410395755
30
0
41
1
10
52.8165937308011
20
-4.97986806504832
30
0
41
1
10
53.1878206079869
20
-4.98098327364514
30
0
41
1
10
53.5415918961829
20
-4.98103561010487
30
0
41
1
10
53.9838524108668
20
-4.98053128420227
30
0
41
1
10
54.4802671866262
20
-4.98005861387168
30
0
41
1
10
54.8349067429636
20
-4.98032843739023
30
0
41
1
10
55.003637664695
20
-4.98055266964877
30
0
0
SPLINE
5
AF
100
AcDbEntity
8
1
62
256
6
ByLayer
370
18
48
1
60
0
100
AcDbSpline
70
4
71
3
72
33
73
29
40
0
40
0
40
0
40
0
40
0.0560301344411598
40
0.104622920361901
40
0.143892199137076
40
0.169397689120245
40
0.194890864486269
40
0.234291101118651
40
0.273832990642533
40
0.304034055196473
40
0.337186968112633
40
0.379489523236858
40
0.41850223384516
40
0.448589159401291
40
0.482839767296012
40
0.525344553867292
40
0.571092238547999
40
0.610027961139252
40
0.66225185635036
40
0.708542067208605
40
0.747200576879167
40
0.799165826753908
40
0.837516722150132
40
0.867310628389718
40
0.900047547302406
40
0.940589076928051
40
0.99373008072601
40
1
40
1
40
1
40
1
41
1
10
10.1975158907533
20
-4.95444399409621
30
0
41
1
10
10.474843667219
20
-4.95428633376039
30
0
41
1
10
10.9927649753582
20
-4.95428707152729
30
0
41
1
10
11.7138284133075
20
-4.9553757743769
30
0
41
1
10
12.2698876937419
20
-4.95626524986147
30
0
41
1
10
12.7214189572922
20
-4.95646237205375
30
0
41
1
10
13.1710496305172
20
-4.95685499146987
30
0
41
1
10
13.6922051179373
20
-4.95690421015027
30
0
41
1
10
14.2362883167736
20
-4.95749794665591
30
0
41
1
10
14.7493761542145
20
-4.95813987337303
30
0
41
1
10
15.276196944896
20
-4.95840546792942
30
0
41
1
10
15.8469678682522
20
-4.95877976563924
30
0
41
1
10
16.4024393154827
20
-4.95995511807388
30
0
41
1
10
16.9177705250602
20
-4.95990791994942
30
0
41
1
10
17.4505125693737
20
-4.95972478231047
30
0
41
1
10
18.0613412435591
20
-4.96061400375845
30
0
41
1
10
18.695531519028
20
-4.96173670102019
30
0
41
1
10
19.3781855485202
20
-4.96079717257973
30
0
41
1
10
20.0635423403591
20
-4.96199483807655
30
0
41
1
10
20.7475110755785
20
-4.96348179646
30
0
41
1
10
21.4302236728669
20
-4.96209945374756
30
0
41
1
10
22.0732083447368
20
-4.96278789944068
30
0
41
1
10
22.6724106147182
20
-4.96459327358781
30
0
41
1
10
23.1739868792986
20
-4.96380361157037
30
0
41
1
10
23.6891966945385
20
-4.96375267210641
30
0
41
1
10
24.311209961276
20
-4.96433317125067
30
0
41
1
10
24.8126273629144
20
-4.96492135066137
30
0
41
1
10
25.1081063655248
20
-4.96503080515097
30
0
41
1
10
25.139293717699
20
-4.96504120066118
30
0
0
SPLINE
5
B0
100
AcDbEntity
8
1
62
256
6
ByLayer
370
18
48
1
60
0
100
AcDbSpline
70
4
71
3
72
26
73
22
40
0
40
0
40
0
40
0
40
0.0198886150702168
40
0.0674421329336585
40
0.112898177420195
40
0.150924686593972
40
0.185814408362568
40
0.229198574235744
40
0.276028996474458
40
0.31786728745507
40
0.393728257601629
40
0.474541853661368
40
0.549981016887085
40
0.620243176380825
40
0.685480059139732
40
0.754998498652899
40
0.818837689503251
40
0.885023353555765
40
0.938289679822317
40
0.981704099332764
40
1
40
1
40
1
40
1
41
1
10
25.4329640222193
20
4.96055726886533
30
0
41
1
10
25.3498878116879
20
4.9599123734728
30
0
41
1
10
25.0688099861452
20
4.95829577877805
30
0
41
1
10
24.601142818277
20
4.96464472862306
30
0
41
1
10
24.0657623440408
20
4.96398710808623
30
0
41
1
10
23.5693106761243
20
4.96377961262763
30
0
41
1
10
23.0812843541488
20
4.9641442016605
30
0
41
1
10
22.5563807143122
20
4.96452133661066
30
0
41
1
10
22.0022861988021
20
4.96255353064677
30
0
41
1
10
21.3119231766523
20
4.96220772344151
30
0
41
1
10
20.4789632705428
20
4.96408603476306
30
0
41
1
10
19.5050229911918
20
4.96015157509515
30
0
41
1
10
18.5545677855369
20
4.96223557800607
30
0
41
1
10
17.6694731284653
20
4.95944967808211
30
0
41
1
10
16.8092292160545
20
4.96021882085395
30
0
41
1
10
15.9759277943189
20
4.95904150081046
30
0
41
1
10
15.1386500937801
20
4.95834253466049
30
0
41
1
10
14.369566317157
20
4.95769388490965
30
0
41
1
10
13.686189613995
20
4.95690753514194
30
0
41
1
10
13.2037452981081
20
4.95682020392576
30
0
41
1
10
12.9448149636333
20
4.95671066760841
30
0
41
1
10
12.8680471593624
20
4.95667114832585
30
0
0
SPLINE
5
B1
100
AcDbEntity
8
1
62
256
6
ByLayer
370
18
48
1
60
0
100
AcDbSpline
70
4
71
2
72
6
73
3
40
0
40
0
40
0
40
1
40
1
40
1
41
1
10
70.1860691607111
20
-4.9905129848413
30
0
41
1
10
70.6844385022755
20
-4.98824435673967
30
0
41
1
10
71.1825319215737
20
-4.99287191673039
30
0
0
SPLINE
5
B2
100
AcDbEntity
8
1
62
256
6
ByLayer
370
18
48
1
60
0
100
AcDbSpline
70
4
71
3
72
13
73
9
40
0
40
0
40
0
40
0
40
0.043724151303104
40
0.206102656810722
40
0.357512555652181
40
0.596400629397756
40
0.782546016721274
40
1
40
1
40
1
40
1
41
1
10
26.7438026217538
20
-1.38637268452103
30
0
41
1
10
26.7436814336864
20
-1.38635016784014
30
0
41
1
10
26.7449199009344
20
-1.38702493132183
30
0
41
1
10
26.763655392186
20
-1.39539968107155
30
0
41
1
10
26.8228004575668
20
-1.42264163344896
30
0
41
1
10
26.9375945074503
20
-1.47783729964036
30
0
41
1
10
27.0232017238326
20
-1.51993243911781
30
0
41
1
10
27.078085789879
20
-1.54818482534065
30
0
41
1
10
27.1055624746174
20
-1.56270455856114
30
0
0
SPLINE
5
B3
100
AcDbEntity
8
1
62
256
6
ByLayer
370
18
48
1
60
0
100
AcDbSpline
70
4
71
3
72
13
73
9
40
0
40
0
40
0
40
0
40
0.0410210973240672
40
0.326935181641157
40
0.585952619092959
40
0.649288937562888
40
0.739563776930536
40
1
40
1
40
1
40
1
41
1
10
56.7055254802376
20
-1.39221020634005
30
0
41
1
10
56.7056941175114
20
-1.3923195254157
30
0
41
1
10
56.7106521322759
20
-1.39473650227825
30
0
41
1
10
56.7769383295324
20
-1.42402145602779
30
0
41
1
10
56.8208191584234
20
-1.44384873745852
30
0
41
1
10
56.8585822549138
20
-1.46262564821146
30
0
41
1
10
56.937021831303
20
-1.50193903232679
30
0
41
1
10
57.012024792544
20
-1.54081182446396
30
0
41
1
10
57.080328337194
20
-1.57659191374378
30
0
0
SPLINE
5
B4
100
AcDbEntity
8
1
62
256
6
ByLayer
370
18
48
1
60
0
100
AcDbSpline
70
4
71
3
72
12
73
8
40
0
40
0
40
0
40
0
40
0.25
40
0.25
40
0.500000000000001
40
0.500000000000001
40
1
40
1
40
1
40
1
41
1
10
71.2257343773268
20
-5.0460283316167
30
0
41
1
10
71.2305806928186
20
-5.03293802481917
30
0
41
1
10
71.2352151974303
20
-5.01963686572148
30
0
41
1
10
71.2428799374168
20
-4.995688275536
30
0
41
1
10
71.2458912662677
20
-4.98507816303237
30
0
41
1
10
71.2513797575335
20
-4.96126351509389
30
0
41
1
10
71.2503139772494
20
-4.95673437751071
30
0
41
1
10
71.2466316953243
20
-4.95981984712316
30
0
0
SPLINE
5
B5
100
AcDbEntity
8
1
62
256
6
ByLayer
370
18
48
1
60
0
100
AcDbSpline
70
4
71
3
72
85
73
81
40
0
40
0
40
0
40
0
40
0.0392891824690466
40
0.0392891824690466
40
0.109530686087647
40
0.109530686087647
40
0.144651437896947
40
0.144651437896947
40
0.179772189706247
40
0.179772189706247
40
0.250013693324848
40
0.250013693324848
40
0.285134445134147
40
0.285134445134147
40
0.320255196943448
40
0.320255196943448
40
0.355375948752748
40
0.355375948752748
40
0.390496700562048
40
0.390496700562048
40
0.425617452371348
40
0.425617452371348
40
0.443177828275998
40
0.443177828275998
40
0.451958016228323
40
0.451958016228323
40
0.453055539722364
40
0.453604301469384
40
0.453604301469384
40
0.453741491906139
40
0.453741491906139
40
0.453878682342894
40
0.453878682342894
40
0.454153063216404
40
0.454153063216404
40
0.456348110204485
40
0.456348110204485
40
0.460738204180646
40
0.460738204180646
40
0.47829858008529
40
0.47829858008529
40
0.495858955989935
40
0.495858955989935
40
0.530979707799224
40
0.530979707799224
40
0.601221211417801
40
0.601221211417801
40
0.671462715036379
40
0.671462715036379
40
0.689023090941024
40
0.689023090941024
40
0.706583466845668
40
0.706583466845668
40
0.71097356082183
40
0.71097356082183
40
0.71207108431587
40
0.71207108431587
40
0.71234546518938
40
0.71234546518938
40
0.712482655626135
40
0.712482655626135
40
0.71261984606289
40
0.71261984606289
40
0.71316860780991
40
0.715363654797991
40
0.724143842750314
40
0.724143842750314
40
0.741704218654961
40
0.741704218654961
40
0.811945722273547
40
0.811945722273547
40
0.84706647408284
40
0.84706647408284
40
0.882187225892133
40
0.882187225892133
40
0.917307977701426
40
0.917307977701426
40
0.952428729510719
40
0.952428729510719
40
1
40
1
40
1
40
1
41
1
10
16.8206398674324
20
3.62579606861678
30
0
41
1
10
16.6285058217915
20
3.64300730527515
30
0
41
1
10
16.4365604705483
20
3.65388328697222
30
0
41
1
10
15.9014932621702
20
3.66402699904185
30
0
41
1
10
15.5584269829654
20
3.64731246307554
30
0
41
1
10
15.0406274661784
20
3.58070232442702
30
0
41
1
10
14.8673579780992
20
3.55150248996051
30
0
41
1
10
14.524458378588
20
3.4799596223753
30
0
41
1
10
14.3541499100543
20
3.4375525397148
30
0
41
1
10
13.845424033711
20
3.2913124009458
30
0
41
1
10
13.5092293826991
20
3.16836827463342
30
0
41
1
10
13.0037201193673
20
2.95160008281735
30
0
41
1
10
12.8350068005983
20
2.87397828295445
30
0
41
1
10
12.4961622024998
20
2.70920264360385
30
0
41
1
10
12.3259333378505
20
2.6219729229816
30
0
41
1
10
11.9871687983722
20
2.44156785790278
30
0
41
1
10
11.8181157764871
20
2.34815153412907
30
0
41
1
10
11.4796812992951
20
2.15645941629379
30
0
41
1
10
11.3100637839985
20
2.05804212240648
30
0
41
1
10
10.9709876766184
20
1.8586587409844
30
0
41
1
10
10.8014374149461
20
1.7576440808256
30
0
41
1
10
10.5469207805011
20
1.60550494818671
30
0
41
1
10
10.4620689740235
20
1.5546994644821
30
0
41
1
10
10.3347638600225
20
1.47852354466235
30
0
41
1
10
10.2923253709996
20
1.4531375656336
30
0
41
1
10
10.2445779548096
20
1.42460102785799
30
0
41
1
10
10.2366199979438
20
1.4198454293419
30
0
41
1
10
10.228661943592
20
1.41509062002814
30
0
41
1
10
10.2253460760119
20
1.4131095645665
30
0
41
1
10
10.2245594019779
20
1.41284265966971
30
0
41
1
10
10.2235699903881
20
1.41167773892116
30
0
41
1
10
10.2238189605248
20
1.41080842959795
30
0
41
1
10
10.2247759917016
20
1.40882102994334
30
0
41
1
10
10.2257742004197
20
1.40771123032496
30
0
41
1
10
10.2347569802645
20
1.39807412841586
30
0
41
1
10
10.2447083286362
20
1.39154327314614
30
0
41
1
10
10.2734737983594
20
1.37117625388899
30
0
41
1
10
10.2932409826932
20
1.35838012517291
30
0
41
1
10
10.3924067438356
20
1.29509384735044
30
0
41
1
10
10.473471620259
20
1.24711441365866
30
0
41
1
10
10.6357190092031
20
1.15160792200535
30
0
41
1
10
10.7171746891195
20
1.10446651600614
30
0
41
1
10
10.9619834542085
20
0.963987783471879
30
0
41
1
10
11.1257991774331
20
0.871614410647055
30
0
41
1
10
11.6179392652259
20
0.596677665460135
30
0
41
1
10
11.9466372140583
20
0.415935337840835
30
0
41
1
10
12.6040732741826
20
0.0580962448111109
30
0
41
1
10
12.9327822151597
20
-0.119275599667588
30
0
41
1
10
13.3411397526715
20
-0.34148447564786
30
0
41
1
10
13.422677508596
20
-0.385946258432995
30
0
41
1
10
13.5851283019555
20
-0.475212381234115
30
0
41
1
10
13.6663692115341
20
-0.519776105664988
30
0
41
1
10
13.7656039595897
20
-0.57715630983688
30
0
41
1
10
13.7854806267238
20
-0.5886459831178
30
0
41
1
10
13.8090764301994
20
-0.603831519591267
30
0
41
1
10
13.8138114335055
20
-0.606890449024888
30
0
41
1
10
13.8190154559016
20
-0.611028494398312
30
0
41
1
10
13.8200445202022
20
-0.611874799357878
30
0
41
1
10
13.8212177714246
20
-0.613236773202118
30
0
41
1
10
13.8216334359998
20
-0.613758860070817
30
0
41
1
10
13.8212321513824
20
-0.614541126385916
30
0
41
1
10
13.8204144332717
20
-0.614583345377923
30
0
41
1
10
13.817463961443
20
-0.615382530131313
30
0
41
1
10
13.8056620477324
20
-0.618569605212656
30
0
41
1
10
13.7560939638912
20
-0.631752046458985
30
0
41
1
10
13.7088794044482
20
-0.64353044987709
30
0
41
1
10
13.5955763374264
20
-0.67027716845007
30
0
41
1
10
13.5200421961513
20
-0.686084411106236
30
0
41
1
10
13.1419187391005
20
-0.754771138505987
30
0
41
1
10
12.8416082164645
20
-0.776072867596923
30
0
41
1
10
12.3835864454053
20
-0.755221083236222
30
0
41
1
10
12.2290590287802
20
-0.739304216388263
30
0
41
1
10
11.9202936627763
20
-0.690317885007289
30
0
41
1
10
11.7655995883551
20
-0.65728555470983
30
0
41
1
10
11.4536818956775
20
-0.57514380702878
30
0
41
1
10
11.2964537485191
20
-0.526031768143611
30
0
41
1
10
10.9776688863774
20
-0.412945737085209
30
0
41
1
10
10.8157860116208
20
-0.348833045328576
30
0
41
1
10
10.4293291647745
20
-0.182818019816892
30
0
41
1
10
10.2066145111854
20
-0.0774149940404243
30
0
41
1
10
9.98254066590397
20
0.0349985681123428
30
0
0
SPLINE
5
B6
100
AcDbEntity
8
1
62
256
6
ByLayer
370
18
48
1
60
0
100
AcDbSpline
70
4
71
3
72
16
73
12
40
0
40
0
40
0
40
0
40
0.250000000000004
40
0.250000000000004
40
0.375000000000004
40
0.375000000000004
40
0.500000000000004
40
0.500000000000004
40
0.750000000000002
40
0.750000000000002
40
1
40
1
40
1
40
1
41
1
10
70.3636451811124
20
1.2229359831471
30
0
41
1
10
70.3534542509015
20
1.25192612578996
30
0
41
1
10
70.3469193377571
20
1.28191575072214
30
0
41
1
10
70.3453395516349
20
1.32891450031246
30
0
41
1
10
70.3462415788008
20
1.34451433896265
30
0
41
1
10
70.351570907041
20
1.37553469682075
30
0
41
1
10
70.3557148930898
20
1.3912208628108
30
0
41
1
10
70.3752960625228
20
1.4352879601376
30
0
41
1
10
70.3982140897231
20
1.45976001026475
30
0
41
1
10
70.4531809767515
20
1.49373551526045
30
0
41
1
10
70.4840393432108
20
1.50367753035471
30
0
41
1
10
70.515733877085
20
1.50943501943735
30
0
0
SPLINE
5
B7
100
AcDbEntity
8
1
62
256
6
ByLayer
370
18
48
1
60
0
100
AcDbSpline
70
4
71
3
72
90
73
86
40
0
40
0
40
0
40
0
40
0.0104983605001474
40
0.0104983605001474
40
0.0344665065617417
40
0.0344665065617417
40
0.0584346526233361
40
0.0584346526233361
40
0.0824027986849304
40
0.0824027986849304
40
0.106370944746525
40
0.106370944746525
40
0.130339090808119
40
0.130339090808119
40
0.154307236869713
40
0.154307236869713
40
0.178275382931308
40
0.178275382931308
40
0.202243528992902
40
0.202243528992902
40
0.226211675054496
40
0.226211675054496
40
0.250179821116091
40
0.250179821116091
40
0.274147967177685
40
0.274147967177685
40
0.29811611323928
40
0.29811611323928
40
0.322084259300874
40
0.322084259300874
40
0.346052405362468
40
0.346052405362468
40
0.370020551424063
40
0.370020551424063
40
0.393988697485657
40
0.393988697485657
40
0.417956843547251
40
0.417956843547251
40
0.46589313567044
40
0.46589313567044
40
0.489861281732034
40
0.489861281732034
40
0.513829427793629
40
0.513829427793629
40
0.537797573855223
40
0.537797573855223
40
0.561765719916817
40
0.561765719916817
40
0.585733865978411
40
0.585733865978411
40
0.609702012040006
40
0.609702012040006
40
0.6336701581016
40
0.6336701581016
40
0.657638304163194
40
0.657638304163194
40
0.681606450224789
40
0.681606450224789
40
0.705574596286383
40
0.705574596286383
40
0.729542742347977
40
0.729542742347977
40
0.753510888409571
40
0.753510888409571
40
0.777479034471166
40
0.777479034471166
40
0.80144718053276
40
0.80144718053276
40
0.825415326594354
40
0.825415326594354
40
0.849383472655948
40
0.849383472655948
40
0.873351618717543
40
0.873351618717543
40
0.897319764779137
40
0.897319764779137
40
0.921287910840731
40
0.921287910840731
40
0.945256056902326
40
0.945256056902326
40
0.96922420296392
40
0.96922420296392
40
0.993192349025514
40
0.993192349025514
40
1
40
1
40
1
40
1
41
1
10
61.8019052885539
20
-3.7597649176183
30
0
41
1
10
61.6747989730403
20
-3.80338577611792
30
0
41
1
10
61.5476124318319
20
-3.84592353300317
30
0
41
1
10
61.1296687528097
20
-3.98177766740966
30
0
41
1
10
60.8382596282116
20
-4.07045224396205
30
0
41
1
10
60.2568312472753
20
-4.23688639231867
30
0
41
1
10
59.966795909435
20
-4.31509304995095
30
0
41
1
10
59.3864362640203
20
-4.45925471163372
30
0
41
1
10
59.0961563061002
20
-4.5252866063849
30
0
41
1
10
58.5153814728837
20
-4.64480680215698
30
0
41
1
10
58.2248862652368
20
-4.69837711465277
30
0
41
1
10
57.6437045058294
20
-4.7918845764861
30
0
41
1
10
57.3525401751634
20
-4.83145423069436
30
0
41
1
10
56.771230108149
20
-4.89502433297835
30
0
41
1
10
56.480726663096
20
-4.92040132455423
30
0
41
1
10
55.9001130072494
20
-4.95909664562407
30
0
41
1
10
55.6102656278223
20
-4.9720639130696
30
0
41
1
10
55.0297305243997
20
-4.98288344424623
30
0
41
1
10
54.7390558689379
20
-4.98099765267486
30
0
41
1
10
54.156900598418
20
-4.96455254895272
30
0
41
1
10
53.8656226129971
20
-4.94970424331791
30
0
41
1
10
53.2849606481516
20
-4.90558182619384
30
0
41
1
10
52.9949228922598
20
-4.87567696865861
30
0
41
1
10
52.414435960588
20
-4.80280391911629
30
0
41
1
10
52.1240888857807
20
-4.76057853505822
30
0
41
1
10
51.5432891952686
20
-4.6629232294336
30
0
41
1
10
51.2530665503066
20
-4.60712425602682
30
0
41
1
10
50.6710822698675
20
-4.48171633998734
30
0
41
1
10
50.3799706230528
20
-4.41306240020827
30
0
41
1
10
49.7986059335667
20
-4.26486625586142
30
0
41
1
10
49.5082042283624
20
-4.18503809265695
30
0
41
1
10
48.9280915290329
20
-4.01224208173838
30
0
41
1
10
48.6379625113353
20
-3.91951610111616
30
0
41
1
10
48.0567633958256
20
-3.7251406135216
30
0
41
1
10
47.7657541051082
20
-3.62308606876593
30
0
41
1
10
47.1832767268283
20
-3.40815065490867
30
0
41
1
10
46.8929592444949
20
-3.29504093493935
30
0
41
1
10
46.0218956382647
20
-2.94367337803107
30
0
41
1
10
45.4411018165695
20
-2.6953231208727
30
0
41
1
10
44.5700098232392
20
-2.2963510285276
30
0
41
1
10
44.2790083339911
20
-2.15990369938882
30
0
41
1
10
43.6967365999661
20
-1.88288771655471
30
0
41
1
10
43.4059682041099
20
-1.74194404353079
30
0
41
1
10
42.8251575186949
20
-1.45496706523045
30
0
41
1
10
42.535346783721
20
-1.30838092078102
30
0
41
1
10
41.9550004609136
20
-1.0135596793537
30
0
41
1
10
41.6645554241201
20
-0.865087073586096
30
0
41
1
10
41.08306985334
20
-0.565480140703443
30
0
41
1
10
40.7916744771844
20
-0.41420780834116
30
0
41
1
10
40.2101812668343
20
-0.110168939904952
30
0
41
1
10
39.9196832121505
20
0.041740010496369
30
0
41
1
10
39.3386665025719
20
0.34416664479582
30
0
41
1
10
39.0482428190124
20
0.494841002139367
30
0
41
1
10
38.4674647136813
20
0.794894043994276
30
0
41
1
10
38.1773276318316
20
0.944717142077025
30
0
41
1
10
37.5958763049997
20
1.24096074978493
30
0
41
1
10
37.3042886171339
20
1.38754722518635
30
0
41
1
10
36.7223483791482
20
1.67566330914855
30
0
41
1
10
36.4318454329449
20
1.81702497736686
30
0
41
1
10
35.8515644963262
20
2.0959517587022
30
0
41
1
10
35.5614463942036
20
2.23263631755575
30
0
41
1
10
34.9805950383878
20
2.49878529555147
30
0
41
1
10
34.6899370956819
20
2.62812102846308
30
0
41
1
10
34.1080729785815
20
2.87979708349212
30
0
41
1
10
33.8169885731479
20
3.00292363814728
30
0
41
1
10
33.2355594543196
20
3.23939426494192
30
0
41
1
10
32.9449997580479
20
3.35300640844585
30
0
41
1
10
32.3641733398338
20
3.56877795371912
30
0
41
1
10
32.0738282215226
20
3.67197245090196
30
0
41
1
10
31.4934302135641
20
3.8697878382882
30
0
41
1
10
31.2029990107941
20
3.96366376074789
30
0
41
1
10
30.6208277474406
20
4.13840011080785
30
0
41
1
10
30.3292555107805
20
4.21949015112844
30
0
41
1
10
29.7475631323682
20
4.37145121214223
30
0
41
1
10
29.4573779362408
20
4.44220130270011
30
0
41
1
10
28.8766604781279
20
4.57032172248901
30
0
41
1
10
28.5861845824102
20
4.62673326481615
30
0
41
1
10
28.0047765794746
20
4.72705815665736
30
0
41
1
10
27.7138852100628
20
4.77165644596641
30
0
41
1
10
27.1318560685821
20
4.84808078293597
30
0
41
1
10
26.8407661690231
20
4.87967006513585
30
0
41
1
10
26.2593826822643
20
4.92646014017893
30
0
41
1
10
25.9688353646141
20
4.942951145796
30
0
41
1
10
25.5959484774063
20
4.95631376902648
30
0
41
1
10
25.5134978892987
20
4.95875048009668
30
0
41
1
10
25.431059341987
20
4.96064471030985
30
0
0
SPLINE
5
B8
100
AcDbEntity
8
1
62
256
6
ByLayer
370
18
48
1
60
0
100
AcDbSpline
70
4
71
3
72
12
73
8
40
0
40
0
40
0
40
0
40
0.250000000000012
40
0.250000000000012
40
0.500000000000024
40
0.500000000000024
40
1
40
1
40
1
40
1
41
1
10
4.13047526477419
20
-4.21127730069335
30
0
41
1
10
4.1126264289658
20
-4.20560118104206
30
0
41
1
10
4.09631008596125
20
-4.19876942165126
30
0
41
1
10
4.06663723908162
20
-4.18281030488808
30
0
41
1
10
4.05327567623061
20
-4.17360252565723
30
0
41
1
10
4.01987669678064
20
-4.14380192164069
30
0
41
1
10
4.0057097139979
20
-4.12034035864073
30
0
41
1
10
4.001418487942
20
-4.09572492125082
30
0
0
SPLINE
5
B9
100
AcDbEntity
8
1
62
256
6
ByLayer
370
13
48
1
60
0
100
AcDbSpline
70
4
71
3
72
12
73
8
40
0
40
0
40
0
40
0
40
0.5
40
0.5
40
0.75
40
0.75
40
1
40
1
40
1
40
1
41
1
10
4.00053650849273
20
-4.08557439993626
30
0
41
1
10
4.00321420041382
20
-4.06786236917927
30
0
41
1
10
4.016032101615
20
-4.05010030024206
30
0
41
1
10
4.04924492897266
20
-4.02643681226951
30
0
41
1
10
4.06293290473064
20
-4.01886802721484
30
0
41
1
10
4.09460912141247
20
-4.00540747101877
30
0
41
1
10
4.11244698101453
20
-3.99951320593894
30
0
41
1
10
4.13260392635888
20
-3.99462052059741
30
0
0
SPLINE
5
BA
100
AcDbEntity
8
1
62
256
6
ByLayer
370
13
48
1
60
0
100
AcDbSpline
70
4
71
3
72
12
73
8
40
0
40
0
40
0
40
0
40
0.500000000000021
40
0.500000000000021
40
0.75000000000001
40
0.75000000000001
40
1
40
1
40
1
40
1
41
1
10
4.00141848794198
20
-4.09572492124624
30
0
41
1
10
4.00559271986543
20
-4.10019131831652
30
0
41
1
10
4.01903317212378
20
-4.1044245583584
30
0
41
1
10
4.05200974087973
20
-4.1098718252521
30
0
41
1
10
4.06543514594412
20
-4.11157864120997
30
0
41
1
10
4.09610377368554
20
-4.11456394628399
30
0
41
1
10
4.11328236086723
20
-4.1158522261934
30
0
41
1
10
4.13260392635888
20
-4.116918603144
30
0
0
SPLINE
5
BB
100
AcDbEntity
8
1
62
256
6
ByLayer
370
18
48
1
60
0
100
AcDbSpline
70
4
71
3
72
64
73
60
40
0
40
0
40
0
40
0
40
0.0624999999999956
40
0.0624999999999956
40
0.124999999999991
40
0.124999999999991
40
0.249999999999984
40
0.249999999999984
40
0.374999999999976
40
0.374999999999976
40
0.499999999999968
40
0.499999999999968
40
0.562499999999965
40
0.562499999999965
40
0.624999999999961
40
0.624999999999961
40
0.687499999999958
40
0.687499999999958
40
0.703124999999957
40
0.703124999999957
40
0.707031249999956
40
0.707031249999956
40
0.710937499999955
40
0.710937499999955
40
0.712890624999955
40
0.712890624999955
40
0.714843749999955
40
0.718749999999955
40
0.718749999999955
40
0.749999999999959
40
0.749999999999959
40
0.765624999999961
40
0.765624999999961
40
0.781249999999963
40
0.781249999999963
40
0.796874999999965
40
0.796874999999965
40
0.804687499999967
40
0.804687499999967
40
0.812499999999968
40
0.820312499999969
40
0.820312499999969
40
0.828124999999971
40
0.828124999999971
40
0.843749999999973
40
0.843749999999973
40
0.859374999999976
40
0.859374999999976
40
0.874999999999979
40
0.874999999999979
40
0.890624999999982
40
0.890624999999982
40
0.906249999999984
40
0.906249999999984
40
0.937499999999989
40
0.937499999999989
40
0.968749999999995
40
0.968749999999995
40
1
40
1
40
1
40
1
41
1
10
16.8206309755642
20
3.62577500908051
30
0
41
1
10
16.4526096572094
20
3.76973463179476
30
0
41
1
10
16.0824282981308
20
3.90182198105742
30
0
41
1
10
15.3370203690979
20
4.1438002172975
30
0
41
1
10
14.9615099167126
20
4.25373814633528
30
0
41
1
10
13.8275291958087
20
4.55125084255909
30
0
41
1
10
13.0675800153219
20
4.70480618154079
30
0
41
1
10
11.5309149956427
20
4.93779467344504
30
0
41
1
10
10.7541204530926
20
5.01719281100199
30
0
41
1
10
9.17621221985235
20
5.1241932660152
30
0
41
1
10
8.37509735812336
20
5.15204148908992
30
0
41
1
10
7.15168437538983
20
5.1746283248807
30
0
41
1
10
6.74004633902561
20
5.17896281412879
30
0
41
1
10
5.91012229524282
20
5.18408503269737
30
0
41
1
10
5.49381508074211
20
5.18487755299407
30
0
41
1
10
4.65837473211943
20
5.18521767834579
30
0
41
1
10
4.23895546985796
20
5.18477007715225
30
0
41
1
10
3.71387570240563
20
5.18428062068983
30
0
41
1
10
3.60881185486093
20
5.18418369553245
30
0
41
1
10
3.47747261479091
20
5.18407033616776
30
0
41
1
10
3.4511143323721
20
5.18404623699738
30
0
41
1
10
3.39868078402299
20
5.18407706609059
30
0
41
1
10
3.37286509521474
20
5.18412746190722
30
0
41
1
10
3.33770671672349
20
5.18420771589498
30
0
41
1
10
3.32659222526104
20
5.1842274542193
30
0
41
1
10
3.30392173536058
20
5.18423541981682
30
0
41
1
10
3.26999511640628
20
5.18420755147258
30
0
41
1
10
3.23631097565538
20
5.18405576906883
30
0
41
1
10
3.03522079340223
20
5.18261060594753
30
0
41
1
10
2.86405047682206
20
5.17765707390984
30
0
41
1
10
2.6280802163609
20
5.1603177222016
30
0
41
1
10
2.55276927289575
20
5.1528618820289
30
0
41
1
10
2.41074919287902
20
5.13325784299994
30
0
41
1
10
2.34394800035125
20
5.12102972089463
30
0
41
1
10
2.22558434738127
20
5.09089541269586
30
0
41
1
10
2.17348037344544
20
5.07294918220708
30
0
41
1
10
2.10860014090548
20
5.04023058451301
30
0
41
1
10
2.08931758900965
20
5.02837859805481
30
0
41
1
10
2.05644057072001
20
5.00311678729221
30
0
41
1
10
2.02899679535463
20
4.97617764733039
30
0
41
1
10
2.01266434987105
20
4.94567770325844
30
0
41
1
10
2.00203718709892
20
4.91328315132574
30
0
41
1
10
1.99958586319556
20
4.89602264137605
30
0
41
1
10
2.0009957754927
20
4.84209225257484
30
0
41
1
10
2.01339042067571
20
4.8036550140192
30
0
41
1
10
2.05760315853365
20
4.72213813287908
30
0
41
1
10
2.08968467527146
20
4.67892646003469
30
0
41
1
10
2.16731844236986
20
4.59139553706194
30
0
41
1
10
2.21305411860143
20
4.54667194685433
30
0
41
1
10
2.31529583535806
20
4.45546635364391
30
0
41
1
10
2.372147965728
20
4.40874072986287
30
0
41
1
10
2.49258471096246
20
4.31518321839968
30
0
41
1
10
2.55619515629275
20
4.26829196636055
30
0
41
1
10
2.75490237484988
20
4.12710540885553
30
0
41
1
10
2.89775754075185
20
4.03228921346383
30
0
41
1
10
3.19735910769131
20
3.84075389206296
30
0
41
1
10
3.35438990487296
20
3.74394673048332
30
0
41
1
10
3.67318873144092
20
3.55149501774545
30
0
41
1
10
3.83574824441084
20
3.45536636662223
30
0
41
1
10
4.00062036558512
20
3.35904643804605
30
0
0
SPLINE
5
BC
100
AcDbEntity
8
1
62
256
6
ByLayer
370
18
48
1
60
0
100
AcDbSpline
70
4
71
3
72
38
73
34
40
0
40
0
40
0
40
0
40
0.249999999999994
40
0.249999999999994
40
0.499999999999988
40
0.499999999999988
40
0.562499999999986
40
0.562499999999986
40
0.624999999999985
40
0.624999999999985
40
0.687499999999983
40
0.687499999999983
40
0.718749999999985
40
0.718749999999985
40
0.749999999999986
40
0.749999999999986
40
0.81249999999999
40
0.81249999999999
40
0.843749999999991
40
0.843749999999991
40
0.874999999999993
40
0.874999999999993
40
0.890624999999994
40
0.890624999999994
40
0.906249999999995
40
0.906249999999995
40
0.921874999999996
40
0.921874999999996
40
0.937499999999996
40
0.937499999999996
40
0.968749999999998
40
0.968749999999998
40
1
40
1
40
1
40
1
41
1
10
65.7750574031124
20
2.11325004575841
30
0
41
1
10
66.2043096862878
20
1.81008670500259
30
0
41
1
10
66.6387814744213
20
1.5341507275584
30
0
41
1
10
67.5214288534265
20
1.05376417577116
30
0
41
1
10
67.9694134150006
20
0.84831710384185
30
0
41
1
10
68.5407268300939
20
0.650624961791124
30
0
41
1
10
68.6553550435419
20
0.614197079267313
30
0
41
1
10
68.883414763719
20
0.548670694607864
30
0
41
1
10
68.9971146733965
20
0.519475678767634
30
0
41
1
10
69.2237998138511
20
0.468814385599501
30
0
41
1
10
69.3367129085427
20
0.447376057987128
30
0
41
1
10
69.5047674209297
20
0.421650773520611
30
0
41
1
10
69.5606065493748
20
0.414141396388544
30
0
41
1
10
69.6717521612453
20
0.401362210270037
30
0
41
1
10
69.7272297486429
20
0.395546539014276
30
0
41
1
10
69.8913921814712
20
0.386663613050757
30
0
41
1
10
69.9984746513828
20
0.391574565288209
30
0
41
1
10
70.1417368173293
20
0.430888167814743
30
0
41
1
10
70.1869993809785
20
0.448780684760862
30
0
41
1
10
70.2710601993592
20
0.496988397059169
30
0
41
1
10
70.3088461977027
20
0.52695420278144
30
0
41
1
10
70.3562253984144
20
0.58191012341905
30
0
41
1
10
70.3706296125974
20
0.602135278996315
30
0
41
1
10
70.3953455467015
20
0.645575824711756
30
0
41
1
10
70.4056774028792
20
0.668678546887691
30
0
41
1
10
70.4221741594386
20
0.717727174833982
30
0
41
1
10
70.4283346475858
20
0.743676091145716
30
0
41
1
10
70.4363059013306
20
0.798541812174904
30
0
41
1
10
70.4379855249354
20
0.827352553390085
30
0
41
1
10
70.4372386121946
20
0.914681702545209
30
0
41
1
10
70.4295860174378
20
0.975056929821392
30
0
41
1
10
70.4036103274058
20
1.09872352567498
30
0
41
1
10
70.3855031621906
20
1.16075657692724
30
0
41
1
10
70.3636451811124
20
1.2229359831471
30
0
0
SPLINE
5
BD
100
AcDbEntity
8
1
62
256
6
ByLayer
370
13
48
1
60
0
100
AcDbSpline
70
4
71
3
72
16
73
12
40
0
40
0
40
0
40
0
40
0.276701862954118
40
0.276701862954118
40
0.415052794431176
40
0.415052794431176
40
0.553403725908235
40
0.553403725908235
40
0.830105588862353
40
0.830105588862353
40
1
40
1
40
1
40
1
41
1
10
4.20337467581942
20
-4.12438371538425
30
0
41
1
10
4.90740022132226
20
-4.34028428822867
30
0
41
1
10
5.60855957645788
20
-4.5208337546901
30
0
41
1
10
6.66117950449473
20
-4.73545570027866
30
0
41
1
10
7.01220715782188
20
-4.79760736924024
30
0
41
1
10
7.71548961369805
20
-4.90237011660588
30
0
41
1
10
8.06817089120898
20
-4.94498399842905
30
0
41
1
10
9.12027742882509
20
-5.04160249587753
30
0
41
1
10
9.81656588882254
20
-5.06507197149227
30
0
41
1
10
10.9385312157913
20
-5.03813671397904
30
0
41
1
10
11.3648298257814
20
-5.01272835157008
30
0
41
1
10
11.7914345654007
20
-4.97233124391724
30
0
0
SPLINE
5
BE
100
AcDbEntity
8
1
62
256
6
ByLayer
370
18
48
1
60
0
100
AcDbSpline
70
4
71
3
72
14
73
10
40
0
40
0
40
0
40
0
40
0.548063833385264
40
0.548063833385264
40
0.704118511861835
40
0.704118511861835
40
0.860173190338407
40
0.860173190338407
40
1
40
1
40
1
40
1
41
1
10
54.9967556714047
20
-0.0019528149363168
30
0
41
1
10
56.2163230645655
20
-0.652006679852178
30
0
41
1
10
57.4298229024365
20
-1.2988971845387
30
0
41
1
10
59.0062129438667
20
-2.07800077487809
30
0
41
1
10
59.3569430819255
20
-2.24758617379098
30
0
41
1
10
60.0602962702481
20
-2.57795517532588
30
0
41
1
10
60.4104038757849
20
-2.73757471179081
30
0
41
1
10
61.072192090759
20
-3.02833319621587
30
0
41
1
10
61.3841344702383
20
-3.16063241969445
30
0
41
1
10
61.6955724609702
20
-3.28744676971539
30
0
0
SPLINE
5
BF
100
AcDbEntity
8
1
62
256
6
ByLayer
370
13
48
1
60
0
100
AcDbSpline
70
4
71
3
72
22
73
18
40
0
40
0
40
0
40
0
40
0.121264253477869
40
0.121264253477869
40
0.3409481901084
40
0.3409481901084
40
0.450790158423664
40
0.450790158423664
40
0.505711142581296
40
0.505711142581296
40
0.560632126738928
40
0.560632126738928
40
0.780316063369462
40
0.780316063369462
40
0.890158031684732
40
0.890158031684732
40
1
40
1
40
1
40
1
41
1
10
61.6955724618025
20
-3.28744677005432
30
0
41
1
10
62.0792995199938
20
-3.44369648561405
30
0
41
1
10
62.462260863353
20
-3.59161959003586
30
0
41
1
10
63.5384205561987
20
-3.98212144005191
30
0
41
1
10
64.2312005248126
20
-4.20407119615862
30
0
41
1
10
65.2749439820867
20
-4.48554869245808
30
0
41
1
10
65.6236136040542
20
-4.57081110218456
30
0
41
1
10
66.1484073496608
20
-4.68506283138962
30
0
41
1
10
66.3236395710368
20
-4.72087092194403
30
0
41
1
10
66.6748323731964
20
-4.78778390018164
30
0
41
1
10
66.8508363569015
20
-4.81888642692917
30
0
41
1
10
67.728640268728
20
-4.9616488862786
30
0
41
1
10
68.4273340144743
20
-5.03581677327657
30
0
41
1
10
69.4754000153306
20
-5.08591522904052
30
0
41
1
10
69.8247809407005
20
-5.09241027501082
30
0
41
1
10
70.5244056675929
20
-5.08474520969782
30
0
41
1
10
70.8746874666666
20
-5.07019350481463
30
0
41
1
10
71.2257343773271
20
-5.04602833161667
30
0
0
SPLINE
5
C0
100
AcDbEntity
8
1
62
256
6
ByLayer
370
18
48
1
60
0
100
AcDbSpline
70
4
71
3
72
10
73
6
40
0
40
0
40
0
40
0
40
0.86729833922313
40
0.86729833922313
40
1
40
1
40
1
40
1
41
1
10
71.1748967262031
20
5.18315349234953
30
0
41
1
10
70.8240023665635
20
5.20727047962609
30
0
41
1
10
70.4731337366827
20
5.22077645901041
30
0
41
1
10
70.0681251667876
20
5.22409066781557
30
0
41
1
10
70.0143705659922
20
5.22428074629843
30
0
41
1
10
69.9606112734745
20
5.22422155802971
30
0
0
SPLINE
5
C1
100
AcDbEntity
8
1
62
256
6
ByLayer
370
18
48
1
60
0
100
AcDbSpline
70
4
71
3
72
52
73
48
40
0
40
0
40
0
40
0
40
0.0312629070817639
40
0.0312629070817639
40
0.095130059044334
40
0.095130059044334
40
0.127063635025619
40
0.127063635025619
40
0.158997211006904
40
0.158997211006904
40
0.190930786988189
40
0.190930786988189
40
0.222864362969474
40
0.222864362969474
40
0.286731514932044
40
0.286731514932044
40
0.350598666894614
40
0.350598666894614
40
0.382532242875899
40
0.382532242875899
40
0.398499030866542
40
0.398499030866542
40
0.414465818857185
40
0.414465818857185
40
0.542200122782331
40
0.542200122782331
40
0.606067274744904
40
0.606067274744904
40
0.622034062735547
40
0.622034062735547
40
0.63800085072619
40
0.63800085072619
40
0.669934426707475
40
0.669934426707475
40
0.797668730632617
40
0.797668730632617
40
0.81363551862326
40
0.81363551862326
40
0.829602306613903
40
0.829602306613903
40
0.861535882595188
40
0.861535882595188
40
0.92540303455776
40
0.92540303455776
40
0.989270186520332
40
0.989270186520332
40
1
40
1
40
1
40
1
41
1
10
42.8766440602878
20
-4.97561672154711
30
0
41
1
10
42.5322892908976
20
-5.03097950774651
30
0
41
1
10
42.1885743414533
20
-5.07648634161174
30
0
41
1
10
41.1437060089094
20
-5.18458838404109
30
0
41
1
10
40.443344734448
20
-5.21549229320397
30
0
41
1
10
39.3886840080467
20
-5.19807755232893
30
0
41
1
10
39.037007646386
20
-5.18162590092732
30
0
41
1
10
38.3351933659914
20
-5.12784508337037
30
0
41
1
10
37.9846445895156
20
-5.09051405969461
30
0
41
1
10
37.2833382193444
20
-4.99534412414022
30
0
41
1
10
36.9325474906251
20
-4.93751897134808
30
0
41
1
10
36.229722695919
20
-4.80181731320226
30
0
41
1
10
35.8777325753816
20
-4.72385183985551
30
0
41
1
10
34.8276758234475
20
-4.4631624238159
30
0
41
1
10
34.1323870618986
20
-4.25316130596656
30
0
41
1
10
32.7438610917752
20
-3.77010788050561
30
0
41
1
10
32.05058049516
20
-3.49711077544828
30
0
41
1
10
31.0066916915792
20
-3.04736907353322
30
0
41
1
10
30.6580163231417
20
-2.89082313655337
30
0
41
1
10
30.1332262338716
20
-2.64700433324899
30
0
41
1
10
29.9580068423846
20
-2.56422026211806
30
0
41
1
10
29.606871577156
20
-2.39578376728787
30
0
41
1
10
29.4307388088421
20
-2.31002146507302
30
0
41
1
10
27.8503055024822
20
-1.53018734897935
30
0
41
1
10
26.4679843338673
20
-0.776917068025284
30
0
41
1
10
24.3833838582272
20
0.35965006048076
30
0
41
1
10
23.6866220314123
20
0.739532080575884
30
0
41
1
10
22.8086011611587
20
1.20688936744807
30
0
41
1
10
22.6324377343607
20
1.30009053402435
30
0
41
1
10
22.2811830151036
20
1.48447965289017
30
0
41
1
10
22.105909872284
20
1.57576761513977
30
0
41
1
10
21.580973215598
20
1.84662801558079
30
0
41
1
10
21.2321903391588
20
2.02319239028176
30
0
41
1
10
19.4917235712202
20
2.88215118410298
30
0
41
1
10
18.1107405329677
20
3.49337173669306
30
0
41
1
10
16.5357479220045
20
4.04304936171613
30
0
41
1
10
16.360456554365
20
4.10221779573507
30
0
41
1
10
16.0091810037803
20
4.21657153150235
30
0
41
1
10
15.8329956291261
20
4.27180502741493
30
0
41
1
10
15.3060696872834
20
4.43034664814149
30
0
41
1
10
14.9561944387544
20
4.52676901251371
30
0
41
1
10
13.9092999954451
20
4.78742923309699
30
0
41
1
10
13.2151735027079
20
4.92318308918976
30
0
41
1
10
11.8268387593235
20
5.11471579388473
30
0
41
1
10
11.1325906247504
20
5.17049151350051
30
0
41
1
10
10.3172684173526
20
5.18705562355217
30
0
41
1
10
10.1998913020185
20
5.18826464448804
30
0
41
1
10
10.0823922227126
20
5.18829207805666
30
0
0
SPLINE
5
C2
100
AcDbEntity
8
1
62
256
6
ByLayer
370
18
48
1
60
0
100
AcDbSpline
70
4
71
3
72
23
73
19
40
0
40
0
40
0
40
0
40
0.125000000000001
40
0.125000000000001
40
0.187500000000001
40
0.187500000000001
40
0.250000000000002
40
0.250000000000002
40
0.500000000000003
40
0.500000000000003
40
0.562500000000003
40
0.562500000000003
40
0.625000000000003
40
0.625000000000003
40
0.750000000000002
40
0.875000000000001
40
0.875000000000001
40
1
40
1
40
1
40
1
41
1
10
71.1834422915921
20
-4.99095128497575
30
0
41
1
10
71.1113856724244
20
-4.9908929597303
30
0
41
1
10
71.0427732674732
20
-4.98044243108234
30
0
41
1
10
70.9452751404695
20
-4.94841146054182
30
0
41
1
10
70.9136813794535
20
-4.93500196562357
30
0
41
1
10
70.852377746849
20
-4.90249872942758
30
0
41
1
10
70.8225726942325
20
-4.88331964782563
30
0
41
1
10
70.6801881097585
20
-4.77390382225448
30
0
41
1
10
70.5865073352545
20
-4.6436826441182
30
0
41
1
10
70.4959066714772
20
-4.42497772476742
30
0
41
1
10
70.4791286568875
20
-4.37840422307886
30
0
41
1
10
70.4483623834828
20
-4.27936948705457
30
0
41
1
10
70.4343389716452
20
-4.22670095632046
30
0
41
1
10
70.3971923333492
20
-4.06204177850822
30
0
41
1
10
70.3603374920574
20
-3.82386394234115
30
0
41
1
10
70.3484173489788
20
-3.54902920500817
30
0
41
1
10
70.349303093509
20
-3.25536832619048
30
0
41
1
10
70.3562729206378
20
-3.09844252411941
30
0
41
1
10
70.3696166326667
20
-2.93578129634474
30
0
0
SPLINE
5
C3
100
AcDbEntity
8
1
62
256
6
ByLayer
370
18
48
1
60
0
100
AcDbSpline
70
4
71
3
72
8
73
4
40
0
40
0
40
0
40
0
40
1
40
1
40
1
40
1
41
1
10
4.00141848794217
20
-4.09572492124667
30
0
41
1
10
4.00083232324852
20
-4.09236254878527
30
0
41
1
10
4.00053641597523
20
-4.08896951376781
30
0
41
1
10
4.00053650849279
20
-4.08557439993677
30
0
0
SPLINE
5
C4
100
AcDbEntity
8
1
62
256
6
ByLayer
370
18
48
1
60
0
100
AcDbSpline
70
4
71
3
72
16
73
12
40
0
40
0
40
0
40
0
40
0.540560472345687
40
0.540560472345687
40
0.631108265456105
40
0.631108265456105
40
0.721656058566524
40
0.721656058566524
40
0.902751644787367
40
0.902751644787367
40
1
40
1
40
1
40
1
41
1
10
70.180132189176
20
-4.99048618534277
30
0
41
1
10
69.1364067099557
20
-4.98981741075897
30
0
41
1
10
68.0963567947666
20
-4.8991522583411
30
0
41
1
10
66.8732291317867
20
-4.69200584821405
30
0
41
1
10
66.6973238021459
20
-4.65980320706609
30
0
41
1
10
66.3463962282641
20
-4.59084535271873
30
0
41
1
10
66.1712829137446
20
-4.55408297970996
30
0
41
1
10
65.6468091637552
20
-4.43717088314847
30
0
41
1
10
65.2983027963033
20
-4.35040426526859
30
0
41
1
10
64.7637608205025
20
-4.20430132967581
30
0
41
1
10
64.577212451049
20
-4.15086185728254
30
0
41
1
10
64.3908058355617
20
-4.09511853983358
30
0
0
SPLINE
5
C5
100
AcDbEntity
8
1
62
256
6
ByLayer
370
13
48
1
60
0
100
AcDbSpline
70
4
71
3
72
24
73
20
40
0
40
0
40
0
40
0
40
0.111704935642049
40
0.111704935642049
40
0.264411629221222
40
0.264411629221222
40
0.340764976010808
40
0.340764976010808
40
0.417118322800394
40
0.417118322800394
40
0.722531709958742
40
0.722531709958742
40
0.798885056748329
40
0.798885056748329
40
0.837061730143122
40
0.837061730143122
40
0.875238403537916
40
0.875238403537916
40
1
40
1
40
1
40
1
41
1
10
64.3908058356037
20
-4.09511853984611
30
0
41
1
10
63.8829608057239
20
-3.94325179068983
30
0
41
1
10
63.3761679193758
20
-3.774285162506
30
0
41
1
10
62.1757396467671
20
-3.33815851671875
30
0
41
1
10
61.4817565970335
20
-3.05770511227337
30
0
41
1
10
60.4348737777779
20
-2.60072433993463
30
0
41
1
10
60.0848768719993
20
-2.44242338978401
30
0
41
1
10
59.381838052555
20
-2.11527543549704
30
0
41
1
10
59.0314684140391
20
-1.94766038077469
30
0
41
1
10
57.2855791330973
20
-1.09498705333007
30
0
41
1
10
55.9056424469608
20
-0.364199725549156
30
0
41
1
10
54.1667898491901
20
0.542133448934493
30
0
41
1
10
53.8183166120539
20
0.723024571875783
30
0
41
1
10
53.2938087924761
20
0.992352940513968
30
0
41
1
10
53.1186688508365
20
1.08178644670707
30
0
41
1
10
52.76772926385
20
1.25986468071281
30
0
41
1
10
52.591737381695
20
1.34863644358691
30
0
41
1
10
51.8427741087616
20
1.72339780759225
30
0
41
1
10
51.2727462783826
20
2.00025365690135
30
0
41
1
10
50.7044892092379
20
2.26442577062753
30
0
0
SPLINE
5
C6
100
AcDbEntity
8
1
62
256
6
ByLayer
370
18
48
1
60
0
100
AcDbSpline
70
4
71
3
72
14
73
10
40
0
40
0
40
0
40
0
40
0.303013343116649
40
0.303013343116649
40
0.477260007337488
40
0.477260007337488
40
0.651506671558325
40
0.651506671558325
40
1
40
1
40
1
40
1
41
1
10
10.2830183291913
20
-4.95453625121294
30
0
41
1
10
9.67843131230239
20
-4.95419898617018
30
0
41
1
10
9.07261952522305
20
-4.92403171454561
30
0
41
1
10
8.11253556191448
20
-4.82882943748291
30
0
41
1
10
7.76008379299654
20
-4.7839020507181
30
0
41
1
10
7.05725070512031
20
-4.67507902814006
30
0
41
1
10
6.70644214240389
20
-4.61116315258539
30
0
41
1
10
5.65449148786743
20
-4.39202600981719
30
0
41
1
10
4.95379419485033
20
-4.20949398065923
30
0
41
1
10
4.25033130078884
20
-3.99275462960799
30
0
0
SPLINE
5
C7
100
AcDbEntity
8
1
62
256
6
ByLayer
370
18
48
1
60
0
100
AcDbSpline
70
4
71
3
72
16
73
12
40
0
40
0
40
0
40
0
40
0.053881735276117
40
0.053881735276117
40
0.381428163117025
40
0.381428163117025
40
0.708974590957934
40
0.708974590957934
40
0.872747804878387
40
0.872747804878387
40
1
40
1
40
1
40
1
41
1
10
40.221993426236
20
-4.97250413576705
30
0
41
1
10
40.1072786134049
20
-4.97237788015892
30
0
41
1
10
39.9924701278023
20
-4.97117098378422
30
0
41
1
10
39.1789704344757
20
-4.95493666112822
30
0
41
1
10
38.4745425504121
20
-4.90044709872078
30
0
41
1
10
37.0674595765842
20
-4.71231259220497
30
0
41
1
10
36.3654982532911
20
-4.57921166808728
30
0
41
1
10
35.3104984011811
20
-4.32498418814663
30
0
41
1
10
34.959266956726
20
-4.23131812829891
30
0
41
1
10
34.3378291159648
20
-4.05089580883151
30
0
41
1
10
34.0667758856484
20
-3.96715798198645
30
0
41
1
10
33.7961614864652
20
-3.87888018402657
30
0
0
SPLINE
5
C8
100
AcDbEntity
8
1
62
256
6
ByLayer
370
13
48
1
60
0
100
AcDbSpline
70
4
71
3
72
26
73
22
40
0
40
0
40
0
40
0
40
0.0183718533781704
40
0.0183718533781704
40
0.347915506207791
40
0.347915506207791
40
0.389108462811494
40
0.389108462811494
40
0.430301419415198
40
0.430301419415198
40
0.512687332622609
40
0.512687332622609
40
0.677459159037427
40
0.677459159037427
40
0.842230985452245
40
0.842230985452245
40
0.924616898659653
40
0.924616898659653
40
0.965809855263358
40
0.965809855263358
40
1
40
1
40
1
40
1
41
1
10
33.7961614855678
20
-3.87888018373383
30
0
41
1
10
33.7184959214315
20
-3.85354470638759
30
0
41
1
10
33.6408665026615
20
-3.82783528356035
30
0
41
1
10
32.1713451131274
20
-3.33402117763686
30
0
41
1
10
30.7892815348777
20
-2.74824949232493
30
0
41
1
10
29.2144577058223
20
-2.00319242774597
30
0
41
1
10
29.0392011194369
20
-1.91921270449544
30
0
41
1
10
28.6879771542568
20
-1.74913430556228
30
0
41
1
10
28.5118491319817
20
-1.66295995089933
30
0
41
1
10
27.9850951882038
20
-1.40279677782149
30
0
41
1
10
27.6352890949454
20
-1.2267741071858
30
0
41
1
10
26.5885611737016
20
-0.693712054042692
30
0
41
1
10
25.8941604378709
20
-0.332011604366414
30
0
41
1
10
24.5055694947602
20
0.391030632498826
30
0
41
1
10
23.8112432648003
20
0.752106560022668
30
0
41
1
10
22.7646291964018
20
1.28308345835697
30
0
41
1
10
22.4148791258838
20
1.45825492889102
30
0
41
1
10
21.8882722359576
20
1.71697894571048
30
0
41
1
10
21.7121678886072
20
1.80266970060941
30
0
41
1
10
21.3906212656906
20
1.95735579855804
30
0
41
1
10
21.2450207281096
20
2.02673218026467
30
0
41
1
10
21.0996229054573
20
2.09527011624979
30
0
0
SPLINE
5
C9
100
AcDbEntity
8
1
62
256
6
ByLayer
370
18
48
1
60
0
100
AcDbSpline
70
4
71
3
72
8
73
4
40
0
40
0
40
0
40
0
40
1
40
1
40
1
40
1
41
1
10
71.1748967262091
20
-5.18315349233328
30
0
41
1
10
71.1918572000291
20
-5.13746956456188
30
0
41
1
10
71.2088035423422
20
-5.09175994456311
30
0
41
1
10
71.2257343773268
20
-5.0460283316167
30
0
0
SPLINE
5
CA
100
AcDbEntity
8
1
62
256
6
ByLayer
370
18
48
1
60
0
100
AcDbSpline
70
4
71
3
72
22
73
18
40
0
40
0
40
0
40
0
40
0.124999999999998
40
0.124999999999998
40
0.249999999999995
40
0.249999999999995
40
0.499999999999996
40
0.499999999999996
40
0.624999999999997
40
0.624999999999997
40
0.749999999999998
40
0.749999999999998
40
0.874999999999999
40
0.874999999999999
40
0.9375
40
0.9375
40
1
40
1
40
1
40
1
41
1
10
72.2073400921502
20
-2.57554397063569
30
0
41
1
10
72.1678675046533
20
-2.68199102184187
30
0
41
1
10
72.1283250521871
20
-2.78838908044884
30
0
41
1
10
72.0491368564459
20
-3.0008431984991
30
0
41
1
10
72.0094782662254
20
-3.10686240374872
30
0
41
1
10
71.8904035533392
20
-3.42460113648335
30
0
41
1
10
71.810964208881
20
-3.63624582195578
30
0
41
1
10
71.6914786848648
20
-3.95266054270363
30
0
41
1
10
71.6515763781138
20
-4.05800523913103
30
0
41
1
10
71.5717533583268
20
-4.26760756719446
30
0
41
1
10
71.531828292759
20
-4.37207182480651
30
0
41
1
10
71.4519665878723
20
-4.58071269138611
30
0
41
1
10
71.4120265237601
20
-4.68480418214062
30
0
41
1
10
71.3520828436937
20
-4.84010673968103
30
0
41
1
10
71.3320957286585
20
-4.89172791263758
30
0
41
1
10
71.2921036035439
20
-4.99452550343773
30
0
41
1
10
71.272096436432
20
-5.04564831140121
30
0
41
1
10
71.2520867691483
20
-5.09670898125745
30
0
0
SPLINE
5
CB
100
AcDbEntity
8
1
62
256
6
ByLayer
370
18
48
1
60
0
100
AcDbSpline
70
4
71
3
72
54
73
50
40
0
40
0
40
0
40
0
40
0.0761266566987386
40
0.0761266566987386
40
0.114189985048108
40
0.114189985048108
40
0.152253313397477
40
0.152253313397477
40
0.190316641746846
40
0.190316641746846
40
0.228379970096216
40
0.228379970096216
40
0.266443298445585
40
0.266443298445585
40
0.304506626794954
40
0.304506626794954
40
0.380633283493694
40
0.380633283493694
40
0.418696611843064
40
0.418696611843064
40
0.456759940192434
40
0.456759940192434
40
0.494823268541804
40
0.494823268541804
40
0.532886596891174
40
0.532886596891174
40
0.570949925240544
40
0.570949925240544
40
0.609013253589914
40
0.609013253589914
40
0.685139910288653
40
0.685139910288653
40
0.723203238638021
40
0.723203238638021
40
0.76126656698739
40
0.76126656698739
40
0.799329895336758
40
0.799329895336758
40
0.837393223686127
40
0.837393223686127
40
0.875456552035496
40
0.875456552035496
40
0.913519880384864
40
0.913519880384864
40
0.951583208734233
40
0.951583208734233
40
0.989646537083601
40
0.989646537083601
40
1
40
1
40
1
40
1
41
1
10
16.8206398673677
20
3.62579606862258
30
0
41
1
10
17.3881840241302
20
3.40285289704218
30
0
41
1
10
17.9563916177648
20
3.16496753742683
30
0
41
1
10
18.8064479339493
20
2.7817748519453
30
0
41
1
10
19.0890786084026
20
2.64901221459792
30
0
41
1
10
19.6562350195288
20
2.37864430376936
30
0
41
1
10
19.9406742206916
20
2.24059736443172
30
0
41
1
10
20.5096311926412
20
1.95840514028367
30
0
41
1
10
20.7935281583253
20
1.81458175740937
30
0
41
1
10
21.3597492032476
20
1.5207124510809
30
0
41
1
10
21.6428129058242
20
1.37195228596258
30
0
41
1
10
22.2098956303756
20
1.07272203709778
30
0
41
1
10
22.4936533280981
20
0.92179359812414
30
0
41
1
10
23.0611504875615
20
0.616464887029053
30
0
41
1
10
23.3447720248148
20
0.461150086611326
30
0
41
1
10
24.1964839550689
20
-0.0035477515963862
30
0
41
1
10
24.7644717752059
20
-0.310361782485984
30
0
41
1
10
25.6136219509845
20
-0.771858039724805
30
0
41
1
10
25.8964768484812
20
-0.925379907710465
30
0
41
1
10
26.4641717397676
20
-1.22748362435985
30
0
41
1
10
26.7489174811569
20
-1.37701799140299
30
0
41
1
10
27.3172149474763
20
-1.67254923194125
30
0
41
1
10
27.6004192144016
20
-1.81899451435393
30
0
41
1
10
28.1664650213553
20
-2.10650561084711
30
0
41
1
10
28.4499573102717
20
-2.24648673001573
30
0
41
1
10
29.0171205143743
20
-2.52031111364974
30
0
41
1
10
29.3008238541408
20
-2.65409765226247
30
0
41
1
10
29.8680303024092
20
-2.91601497702987
30
0
41
1
10
30.1517328492231
20
-3.04442595793071
30
0
41
1
10
31.0035765399952
20
-3.41279949075636
30
0
41
1
10
31.570864010715
20
-3.63968807429188
30
0
41
1
10
32.4194235904972
20
-3.95357471200339
30
0
41
1
10
32.7029353270085
20
-4.05244470239134
30
0
41
1
10
33.2710215139457
20
-4.23916379302815
30
0
41
1
10
33.5557823630855
20
-4.32715021171032
30
0
41
1
10
34.1232893721262
20
-4.49180217655672
30
0
41
1
10
34.4059356564318
20
-4.56881295735568
30
0
41
1
10
34.9724165641666
20
-4.70916627212986
30
0
41
1
10
35.2559511169823
20
-4.77285731399647
30
0
41
1
10
35.8230636163848
20
-4.8878065866368
30
0
41
1
10
36.1066377006536
20
-4.93906317783674
30
0
41
1
10
36.6734826424683
20
-5.02896857625629
30
0
41
1
10
36.9576508263847
20
-5.06716042243849
30
0
41
1
10
37.5254392793806
20
-5.12957311409667
30
0
41
1
10
37.8091545591797
20
-5.15397528180853
30
0
41
1
10
38.3757771833968
20
-5.18929057854163
30
0
41
1
10
38.6582726812757
20
-5.20019809876118
30
0
41
1
10
39.0184161053323
20
-5.20516432307923
30
0
41
1
10
39.0954799381001
20
-5.20571517139515
30
0
41
1
10
39.1725878345525
20
-5.20575599877122
30
0
0
SPLINE
5
CC
100
AcDbEntity
8
1
62
256
6
ByLayer
370
18
48
1
60
0
100
AcDbSpline
70
4
71
3
72
28
73
24
40
0
40
0
40
0
40
0
40
0.0107023814032747
40
0.0107023814032747
40
0.100638528548432
40
0.100638528548432
40
0.190574675693589
40
0.190574675693589
40
0.280510822838746
40
0.280510822838746
40
0.370446969983904
40
0.370446969983904
40
0.460383117129061
40
0.460383117129061
40
0.550319264274218
40
0.550319264274218
40
0.640255411419375
40
0.640255411419375
40
0.730191558564532
40
0.730191558564532
40
0.82012770570969
40
0.82012770570969
40
1
40
1
40
1
40
1
41
1
10
61.7998532122471
20
3.75043924503368
30
0
41
1
10
61.8335644182053
20
3.76323654889339
30
0
41
1
10
61.8672747444763
20
3.77596695208905
30
0
41
1
10
62.184253631029
20
3.89505195928538
30
0
41
1
10
62.4672903329257
20
3.99695031229177
30
0
41
1
10
63.0334190517449
20
4.19079682239808
30
0
41
1
10
63.3177217634789
20
4.28180487529377
30
0
41
1
10
63.8854482347601
20
4.45171993673947
30
0
41
1
10
64.1690101988785
20
4.53074274503541
30
0
41
1
10
64.7350869730784
20
4.67727026233888
30
0
41
1
10
65.0172721010442
20
4.74496557850637
30
0
41
1
10
65.5833566361993
20
4.86651249498425
30
0
41
1
10
65.8669186773807
20
4.92070387734319
30
0
41
1
10
66.4345516262297
20
5.01631594688436
30
0
41
1
10
66.7188079280003
20
5.05775201497036
30
0
41
1
10
67.2850114540669
20
5.12727656580279
30
0
41
1
10
67.5680670283179
20
5.15505688834472
30
0
41
1
10
68.1347676689255
20
5.19680766932296
30
0
41
1
10
68.4182049168581
20
5.21085893316092
30
0
41
1
10
68.9848044399074
20
5.22528822592645
30
0
41
1
10
69.2675534341694
20
5.22560644339302
30
0
41
1
10
70.1186768446009
20
5.20555613940252
30
0
41
1
10
70.6866060891265
20
5.16493219177977
30
0
41
1
10
71.2520867691339
20
5.09670898126004
30
0
0
SPLINE
5
CD
100
AcDbEntity
8
1
62
256
6
ByLayer
370
18
48
1
60
0
100
AcDbSpline
70
2053
71
3
72
62
73
58
40
0
40
0
40
0
40
0
40
0.0312499999999999
40
0.0312499999999999
40
0.0624999999999998
40
0.0624999999999998
40
0.0937499999999996
40
0.0937499999999996
40
0.125
40
0.125
40
0.156249999999999
40
0.156249999999999
40
0.187499999999999
40
0.187499999999999
40
0.218749999999999
40
0.218749999999999
40
0.249999999999999
40
0.249999999999999
40
0.281249999999999
40
0.281249999999999
40
0.312499999999999
40
0.312499999999999
40
0.374999999999996
40
0.374999999999996
40
0.437499999999994
40
0.437499999999994
40
0.468749999999994
40
0.468749999999994
40
0.499999999999995
40
0.499999999999995
40
0.531249999999995
40
0.531249999999995
40
0.562499999999996
40
0.562499999999996
40
0.593749999999996
40
0.593749999999996
40
0.624999999999996
40
0.624999999999996
40
0.656249999999997
40
0.656249999999997
40
0.687499999999997
40
0.687499999999997
40
0.749999999999998
40
0.749999999999998
40
0.781249999999998
40
0.781249999999998
40
0.812499999999999
40
0.812499999999999
40
0.843749999999999
40
0.843749999999999
40
0.874999999999999
40
0.874999999999999
40
0.906249999999999
40
0.906249999999999
40
0.9375
40
0.9375
40
1
40
1
40
1
40
1
41
1
10
71.3454281593557
20
-2.07427495307081
30
0
41
1
10
71.3171712571042
20
-2.11373177506238
30
0
41
1
10
71.2894476456152
20
-2.15613968659457
30
0
41
1
10
71.2351653356005
20
-2.24740182877551
30
0
41
1
10
71.2083089925926
20
-2.2968658488966
30
0
41
1
10
71.1576618093654
20
-2.40031098850162
30
0
41
1
10
71.1339344864188
20
-2.45401607240024
30
0
41
1
10
71.0901678154564
20
-2.5660065858736
30
0
41
1
10
71.0706768011461
20
-2.62305951278026
30
0
41
1
10
71.0380645464115
20
-2.73551412469789
30
0
41
1
10
71.0246054027689
20
-2.79236607788573
30
0
41
1
10
71.0055553238817
20
-2.8989409497382
30
0
41
1
10
70.9996988775112
20
-2.94968350367319
30
0
41
1
10
70.9954394850706
20
-3.04275268660817
30
0
41
1
10
70.9969837670922
20
-3.08434244282367
30
0
41
1
10
71.0066673974562
20
-3.1586456053459
30
0
41
1
10
71.0147005866835
20
-3.190343950634
30
0
41
1
10
71.0360582643016
20
-3.24373748291433
30
0
41
1
10
71.0495090980259
20
-3.26552015461351
30
0
41
1
10
71.0802988981061
20
-3.29887637112662
30
0
41
1
10
71.097723739683
20
-3.3107175126581
30
0
41
1
10
71.1556325163521
20
-3.33281558058434
30
0
41
1
10
71.200021013731
20
-3.32935673995968
30
0
41
1
10
71.2981215173077
20
-3.29036885809492
30
0
41
1
10
71.3500831888897
20
-3.25558959224955
30
0
41
1
10
71.4324269458352
20
-3.18031357238436
30
0
41
1
10
71.460326876282
20
-3.15150958988667
30
0
41
1
10
71.515925854689
20
-3.08748724536622
30
0
41
1
10
71.543791666307
20
-3.05212595468694
30
0
41
1
10
71.5996694297893
20
-2.9740214476974
30
0
41
1
10
71.6279398040345
20
-2.93080746135146
30
0
41
1
10
71.6824703269023
20
-2.83916308610156
30
0
41
1
10
71.7089167379236
20
-2.79055461714978
30
0
41
1
10
71.7599044631788
20
-2.68685525520038
30
0
41
1
10
71.7840984479721
20
-2.63234898432717
30
0
41
1
10
71.8278633428479
20
-2.52123877940778
30
0
41
1
10
71.8479038587534
20
-2.4632706493351
30
0
41
1
10
71.8811012687423
20
-2.35021254366745
30
0
41
1
10
71.8945805328061
20
-2.29435944088999
30
0
41
1
10
71.914379219808
20
-2.18603759266969
30
0
41
1
10
71.9203450778073
20
-2.13569541239437
30
0
41
1
10
71.9272066840158
20
-1.99538291486149
30
0
41
1
10
71.9163646091924
20
-1.920370622018
30
0
41
1
10
71.884028733206
20
-1.84077102121051
30
0
41
1
10
71.8705042484382
20
-1.81925835221182
30
0
41
1
10
71.8392874813877
20
-1.78620611186253
30
0
41
1
10
71.8217258836989
20
-1.77467857938183
30
0
41
1
10
71.7831408847917
20
-1.76048282378295
30
0
41
1
10
71.7620184750722
20
-1.75789235000218
30
0
41
1
10
71.7176935343545
20
-1.76113700948372
30
0
41
1
10
71.6943630371013
20
-1.76689784680403
30
0
41
1
10
71.6454576209388
20
-1.78637186918505
30
0
41
1
10
71.6197743950591
20
-1.80020406324249
30
0
41
1
10
71.5675882076882
20
-1.83505490804833
30
0
41
1
10
71.5409258589748
20
-1.85611056348915
30
0
41
1
10
71.4591939304487
20
-1.93040493207349
30
0
41
1
10
71.4019419638589
20
-1.99536130908768
30
0
41
1
10
71.3454281593557
20
-2.07427495307081
30
0
0
SPLINE
5
CE
100
AcDbEntity
8
1
62
256
6
ByLayer
370
18
48
1
60
0
100
AcDbSpline
70
4
71
3
72
26
73
22
40
0
40
0
40
0
40
0
40
0.0624999999999965
40
0.0624999999999965
40
0.124999999999993
40
0.124999999999993
40
0.249999999999986
40
0.249999999999986
40
0.312499999999984
40
0.312499999999984
40
0.374999999999983
40
0.374999999999983
40
0.499999999999983
40
0.499999999999983
40
0.562499999999983
40
0.562499999999983
40
0.624999999999982
40
0.624999999999982
40
0.749999999999987
40
0.749999999999987
40
1
40
1
40
1
40
1
41
1
10
65.7750574031119
20
2.11325004575835
30
0
41
1
10
65.8041343085225
20
1.98010953729323
30
0
41
1
10
65.8420903021647
20
1.84644671449556
30
0
41
1
10
65.934301442485
20
1.57816226761008
30
0
41
1
10
65.9890360601544
20
1.44260702173102
30
0
41
1
10
66.1716921388745
20
1.04395825611786
30
0
41
1
10
66.3177411174506
20
0.78745468798877
30
0
41
1
10
66.5641716946121
20
0.413136207804797
30
0
41
1
10
66.6513522681837
20
0.289602042839846
30
0
41
1
10
66.8316970042112
20
0.0487852540335894
30
0
41
1
10
66.9247843929522
20
-0.0685097523445677
30
0
41
1
10
67.2117099839175
20
-0.412209850321489
30
0
41
1
10
67.4132628089016
20
-0.630375338718267
30
0
41
1
10
67.7281327185032
20
-0.944229505858686
30
0
41
1
10
67.8351654795165
20
-1.04663015672406
30
0
41
1
10
68.0529548083264
20
-1.24745424644445
30
0
41
1
10
68.1638598025897
20
-1.34597614179651
30
0
41
1
10
68.4986203848143
20
-1.63332246172413
30
0
41
1
10
68.7254980055945
20
-1.81493298788868
30
0
41
1
10
69.4154157054641
20
-2.33481292479956
30
0
41
1
10
69.8875997773749
20
-2.64850919349394
30
0
41
1
10
70.3696166326667
20
-2.93578129634474
30
0
0
SPLINE
5
CF
100
AcDbEntity
8
1
62
256
6
ByLayer
370
18
48
1
60
0
100
AcDbSpline
70
4
71
3
72
8
73
4
40
0
40
0
40
0
40
0
40
1
40
1
40
1
40
1
41
1
10
71.2466316953243
20
-4.95981984712316
30
0
41
1
10
71.2219027191254
20
-4.98054083106931
30
0
41
1
10
71.2008205641135
20
-4.99097164663695
30
0
41
1
10
71.1834422915963
20
-4.99095128497578
30
0
0
SPLINE
5
D0
100
AcDbEntity
8
1
62
256
6
ByLayer
370
18
48
1
60
0
100
AcDbSpline
70
4
71
3
72
24
73
20
40
0
40
0
40
0
40
0
40
0.25
40
0.25
40
0.5
40
0.5
40
0.625
40
0.625
40
0.6875
40
0.6875
40
0.75
40
0.75
40
0.8125
40
0.8125
40
0.875
40
0.875
40
0.9375
40
0.9375
40
1
40
1
40
1
40
1
41
1
10
70.5157338770849
20
1.50943501943735
30
0
41
1
10
70.6951557900431
20
1.54202801194342
30
0
41
1
10
70.8730404790504
20
1.57922392889159
30
0
41
1
10
71.2236329474027
20
1.66961394155038
30
0
41
1
10
71.3965049573274
20
1.72225199795841
30
0
41
1
10
71.647931239962
20
1.82642537043191
30
0
41
1
10
71.7309808899448
20
1.86574341307028
30
0
41
1
10
71.8498721420667
20
1.93512897026605
30
0
41
1
10
71.8884006768858
20
1.95992338204076
30
0
41
1
10
71.9624884287445
20
2.01404312054171
30
0
41
1
10
71.9981214630219
20
2.04347431773925
30
0
41
1
10
72.0635256769554
20
2.10709887977705
30
0
41
1
10
72.0935137390514
20
2.14140266033425
30
0
41
1
10
72.145974253159
20
2.21697409881816
30
0
41
1
10
72.1681138419375
20
2.2581218584869
30
0
41
1
10
72.2002142163824
20
2.34440208751229
30
0
41
1
10
72.2104183362669
20
2.39061361901969
30
0
41
1
10
72.2177370988508
20
2.48271934620502
30
0
41
1
10
72.2150965923673
20
2.52967155701319
30
0
41
1
10
72.207340092149
20
2.57554397063532
30
0
0
SPLINE
5
D1
100
AcDbEntity
8
1
62
256
6
ByLayer
370
18
48
1
60
0
100
AcDbSpline
70
4
71
3
72
32
73
28
40
0
40
0
40
0
40
0
40
0.0625
40
0.0625
40
0.125
40
0.1875
40
0.1875
40
0.25
40
0.25
40
0.375
40
0.375
40
0.4375
40
0.4375
40
0.46875
40
0.46875
40
0.5
40
0.5
40
0.625
40
0.625
40
0.6875
40
0.6875
40
0.75
40
0.8125
40
0.8125
40
0.875
40
0.875
40
1
40
1
40
1
40
1
41
1
10
4.00053650849281
20
-4.08557439993649
30
0
41
1
10
4.00053945443423
20
-3.97746730527129
30
0
41
1
10
4.00054228913763
20
-3.86197720443468
30
0
41
1
10
4.00054768990483
20
-3.62025088610722
30
0
41
1
10
4.00055283841843
20
-3.36731004358171
30
0
41
1
10
4.00055758463563
20
-3.09241092423028
30
0
41
1
10
4.00056217658613
20
-2.80643247786853
30
0
41
1
10
4.00056440294793
20
-2.65735950951111
30
0
41
1
10
4.0005708665206
20
-2.19649825705889
30
0
41
1
10
4.00057481562169
20
-1.87708705718467
30
0
41
1
10
4.00058048118169
20
-1.38031711761099
30
0
41
1
10
4.00058232541485
20
-1.2117623911565
30
0
41
1
10
4.00058505073909
20
-0.954352166352891
30
0
41
1
10
4.00058595368694
20
-0.867640946094042
30
0
41
1
10
4.00058772946778
20
-0.694608883565422
30
0
41
1
10
4.00058860467118
20
-0.608068997901967
30
0
41
1
10
4.00059292622797
20
-0.175252372278095
30
0
41
1
10
4.00059621715411
20
0.171372438488248
30
0
41
1
10
4.00060097723212
20
0.691870423516264
30
0
41
1
10
4.00060254072881
20
0.866370966345471
30
0
41
1
10
4.00060553851947
20
1.20864756247988
30
0
41
1
10
4.00060841716987
20
1.54522891630822
30
0
41
1
10
4.00061103215418
20
1.87067412741311
30
0
41
1
10
4.00061348797175
20
2.19050811930575
30
0
41
1
10
4.00061463893115
20
2.34799585166337
30
0
41
1
10
4.00061777138342
20
2.80930478420623
30
0
41
1
10
4.00061938970598
20
3.09480293646624
30
0
41
1
10
4.00062036602236
20
3.35904643779065
30
0
0
SPLINE
5
D2
100
AcDbEntity
8
1
62
256
6
ByLayer
370
13
48
1
60
0
100
AcDbSpline
70
4
71
3
72
8
73
4
40
0
40
0
40
0
40
0
40
1
40
1
40
1
40
1
41
1
10
4.13047526477422
20
-4.21127730069296
30
0
41
1
10
4.13117930851462
20
-4.1798277735281
30
0
41
1
10
4.13188885766832
20
-4.14837491192529
30
0
41
1
10
4.13260392635885
20
-4.116918603144
30
0
0
SPLINE
5
D3
100
AcDbEntity
8
1
62
256
6
ByLayer
370
18
48
1
60
0
100
AcDbSpline
70
4
71
3
72
44
73
40
40
0
40
0
40
0
40
0
40
0.033605538899666
40
0.033605538899666
40
0.0672110777993321
40
0.0672110777993321
40
0.134422155598664
40
0.134422155598664
40
0.16802769449833
40
0.16802769449833
40
0.201633233397996
40
0.201633233397996
40
0.268844311197328
40
0.268844311197328
40
0.33605538899666
40
0.33605538899666
40
0.369660927896326
40
0.369660927896326
40
0.403266466795992
40
0.403266466795992
40
0.470477544595325
40
0.470477544595325
40
0.504083083494992
40
0.504083083494992
40
0.537688622394658
40
0.537688622394658
40
0.672110777993327
40
0.672110777993327
40
0.705716316892993
40
0.705716316892993
40
0.73932185579266
40
0.73932185579266
40
0.772927394692326
40
0.772927394692326
40
0.806532933591993
40
0.806532933591993
40
0.94095508919066
40
0.94095508919066
40
1
40
1
40
1
40
1
41
1
10
71.1748967262087
20
-5.18315349234913
30
0
41
1
10
70.8239172160149
20
-5.20727633202776
30
0
41
1
10
70.4730918228273
20
-5.22077418816633
30
0
41
1
10
69.7709081059134
20
-5.22652542526444
30
0
41
1
10
69.4191423746512
20
-5.21874377715156
30
0
41
1
10
68.3661056135011
20
-5.16370660517472
30
0
41
1
10
67.6663314187563
20
-5.08488458039886
30
0
41
1
10
66.6143944123874
20
-4.90567460723528
30
0
41
1
10
66.2626112411832
20
-4.83561175222701
30
0
41
1
10
65.5610349236727
20
-4.67655998304082
30
0
41
1
10
65.2116325215352
20
-4.58772199302376
30
0
41
1
10
64.1661833734482
20
-4.29502599684949
30
0
41
1
10
63.4729082049349
20
-4.06495571489745
30
0
41
1
10
62.0860836439054
20
-3.54454705445613
30
0
41
1
10
61.3925098447671
20
-3.2542716962713
30
0
41
1
10
60.3466314398817
20
-2.780429725977
30
0
41
1
10
59.9970086676092
20
-2.61619330658794
30
0
41
1
10
59.2947714702651
20
-2.27649799259271
30
0
41
1
10
58.9431278708178
20
-2.10148099233496
30
0
41
1
10
57.8909685943692
20
-1.56628978881849
30
0
41
1
10
57.190984634492
20
-1.19472012303407
30
0
41
1
10
56.1376134575523
20
-0.624969093057359
30
0
41
1
10
55.7858039974165
20
-0.433165459876477
30
0
41
1
10
55.0860958672109
20
-0.0508935938105424
30
0
41
1
10
54.7374471672215
20
0.140044159055208
30
0
41
1
10
52.9980458233813
20
1.08975233870143
30
0
41
1
10
51.6178371132471
20
1.83169870741958
30
0
41
1
10
49.869864691861
20
2.67001058019923
30
0
41
1
10
49.5183530802102
20
2.83340271402017
30
0
41
1
10
48.8155331967917
20
3.14768045864855
30
0
41
1
10
48.464780980987
20
3.29842099961516
30
0
41
1
10
47.7637854188056
20
3.58600464098655
30
0
41
1
10
47.4134443402974
20
3.72270612981825
30
0
41
1
10
46.7119922232897
20
3.9805231003572
30
0
41
1
10
46.3606519634586
20
4.10177738852971
30
0
41
1
10
44.6030515673765
20
4.66575496918071
30
0
41
1
10
43.2205781140767
20
4.97076302411543
30
0
41
1
10
41.2216588990163
20
5.1760557999315
30
0
41
1
10
40.6103560553485
20
5.20740349556226
30
0
41
1
10
39.9952336081386
20
5.20623088766007
30
0
0
SPLINE
5
D4
100
AcDbEntity
8
1
62
256
6
ByLayer
370
18
48
1
60
0
100
AcDbSpline
70
4
71
3
72
18
73
14
40
0
40
0
40
0
40
0
40
0.0367244952781465
40
0.0367244952781465
40
0.27754337145861
40
0.27754337145861
40
0.397952809548842
40
0.397952809548842
40
0.518362247639074
40
0.518362247639074
40
0.759181123819536
40
0.759181123819536
40
1
40
1
40
1
40
1
41
1
10
12.8386424279117
20
-4.9723465335822
30
0
41
1
10
12.7327277917864
20
-4.98881072404899
30
0
41
1
10
12.6268362330089
20
-5.00434957482071
30
0
41
1
10
11.8266374794808
20
-5.1147415614885
30
0
41
1
10
11.132684331786
20
-5.17045614437981
30
0
41
1
10
10.0867331628301
20
-5.19175588700426
30
0
41
1
10
9.73727952894143
20
-5.18848143632013
30
0
41
1
10
9.03580109598556
20
-5.16079995049455
30
0
41
1
10
8.68320432266421
20
-5.13629101275797
30
0
41
1
10
7.63014879650109
20
-5.03194008480975
30
0
41
1
10
6.93168512754889
20
-4.92115039483144
30
0
41
1
10
5.53360063761363
20
-4.62265913358601
30
0
41
1
10
4.83402866125016
20
-4.43501476471323
30
0
41
1
10
4.13047526477425
20
-4.21127730069335
30
0
0
SPLINE
5
D5
100
AcDbEntity
8
1
62
256
6
ByLayer
370
18
48
1
60
0
100
AcDbSpline
70
4
71
3
72
19
73
15
40
0
40
0
40
0
40
0
40
0.621904538140335
40
0.621904538140335
40
0.836123058022594
40
0.836123058022594
40
0.889677687993166
40
0.889677687993166
40
0.943232317963737
40
0.943232317963737
40
0.970009632949025
40
0.970009632949025
40
0.99678694793431
40
1
40
1
40
1
40
1
41
1
10
4.73209529363692
20
-5.18506207373736
30
0
41
1
10
4.42830238157364
20
-5.18497641215671
30
0
41
1
10
4.12376678101327
20
-5.18466270327949
30
0
41
1
10
3.71387570239921
20
-5.18428062068983
30
0
41
1
10
3.60881185485448
20
-5.18418369553245
30
0
41
1
10
3.4774726147844
20
-5.18407033616776
30
0
41
1
10
3.45111433236539
20
-5.18404623699738
30
0
41
1
10
3.39868078401656
20
-5.18407706609062
30
0
41
1
10
3.37286509520817
20
-5.18412746190725
30
0
41
1
10
3.33770671671798
20
-5.18420771589501
30
0
41
1
10
3.32659222525535
20
-5.1842274542193
30
0
41
1
10
3.30392173535495
20
-5.18423541981682
30
0
41
1
10
3.29125589294574
20
-5.18422501571328
30
0
41
1
10
3.27862384610094
20
-5.18419734100345
30
0
41
1
10
3.27727088638707
20
-5.18419417687602
30
0
0
SPLINE
5
D6
100
AcDbEntity
8
1
62
256
6
ByLayer
370
13
48
1
60
0
100
AcDbSpline
70
4
71
3
72
8
73
4
40
0
40
0
40
0
40
0
40
1
40
1
40
1
40
1
41
1
10
4.13260392635888
20
-3.99462052059741
30
0
41
1
10
4.16922999101232
20
-3.98573029409763
30
0
41
1
10
4.20929654467881
20
-3.98515021071017
30
0
41
1
10
4.2503313007889
20
-3.99275462960799
30
0
0
SPLINE
5
D7
100
AcDbEntity
8
1
62
256
6
ByLayer
370
13
48
1
60
0
100
AcDbSpline
70
4
71
3
72
8
73
4
40
0
40
0
40
0
40
0
40
1
40
1
40
1
40
1
41
1
10
4.13260392635888
20
-4.116918603144
30
0
41
1
10
4.15480934593805
20
-4.11424044742532
30
0
41
1
10
4.17884718987608
20
-4.11686197373805
30
0
41
1
10
4.20337467581942
20
-4.12438371538425
30
0
0
SPLINE
5
D8
100
AcDbEntity
8
1
62
256
6
ByLayer
370
13
48
1
60
0
100
AcDbSpline
70
4
71
3
72
30
73
26
40
0
40
0
40
0
40
0
40
0.125
40
0.125
40
0.1875
40
0.1875
40
0.25
40
0.3125
40
0.3125
40
0.375
40
0.375
40
0.5
40
0.5
40
0.5625
40
0.5625
40
0.625
40
0.625
40
0.6875
40
0.6875
40
0.75
40
0.8125
40
0.8125
40
0.875
40
0.875
40
1
40
1
40
1
40
1
41
1
10
4.25033130078887
20
-3.99275462960799
30
0
41
1
10
4.25041585233069
20
-3.7904474856206
30
0
41
1
10
4.25049186624932
20
-3.5621536652622
30
0
41
1
10
4.25059762769524
20
-3.18095984599339
30
0
41
1
10
4.25063128934241
20
-3.0480494357144
30
0
41
1
10
4.25069542991002
20
-2.77419115015044
30
0
41
1
10
4.25075665996724
20
-2.49132369322368
30
0
41
1
10
4.25081360470222
20
-2.19062107990038
30
0
41
1
10
4.25086906785899
20
-1.8808080453654
30
0
41
1
10
4.25089614865445
20
-1.72071055171935
30
0
41
1
10
4.25097428812205
20
-1.23727753315919
30
0
41
1
10
4.25102291219156
20
-0.90782667887666
30
0
41
1
10
4.25109339641648
20
-0.402979490181138
30
0
41
1
10
4.25111655441131
20
-0.232195815451632
30
0
41
1
10
4.25116174489719
20
0.109423358176514
30
0
41
1
10
4.25118372846407
20
0.279840128312117
30
0
41
1
10
4.25122656832855
20
0.619889346001486
30
0
41
1
10
4.2512474279383
20
0.789597730086484
30
0
41
1
10
4.25128725465237
20
1.12248894906861
30
0
41
1
10
4.25132537780553
20
1.4503382066097
30
0
41
1
10
4.25135970560424
20
1.76824950249804
30
0
41
1
10
4.25139173336126
20
2.08110666697311
30
0
41
1
10
4.25140665979012
20
2.2357853722059
30
0
41
1
10
4.25144627469703
20
2.6828088311249
30
0
41
1
10
4.25146614617915
20
2.96033018924345
30
0
41
1
10
4.25147698841201
20
3.21763473247867
30
0
0
SPLINE
5
D9
100
AcDbEntity
8
1
62
256
6
ByLayer
370
18
48
1
60
0
100
AcDbSpline
70
4
71
3
72
18
73
14
40
0
40
0
40
0
40
0
40
0.249999999999998
40
0.249999999999998
40
0.374999999999997
40
0.374999999999997
40
0.499999999999996
40
0.499999999999996
40
0.749999999999997
40
0.749999999999997
40
0.874999999999998
40
0.874999999999998
40
1
40
1
40
1
40
1
41
1
10
9.98257226907629
20
0.0350469185432019
30
0
41
1
10
9.48476833768908
20
0.292965128510502
30
0
41
1
10
8.99053433207013
20
0.557401214693357
30
0
41
1
10
8.25209276831197
20
0.958940204336272
30
0
41
1
10
8.00705408455312
20
1.09327446579718
30
0
41
1
10
7.52062699572667
20
1.36144258942991
30
0
41
1
10
7.27896298972311
20
1.49542775404399
30
0
41
1
10
6.5587160354751
20
1.89644555773671
30
0
41
1
10
6.08468956146439
20
2.16238703469151
30
0
41
1
10
5.38579521348504
20
2.55887647701178
30
0
41
1
10
5.15489440821534
20
2.69066444622212
30
0
41
1
10
4.69853264731788
20
2.95401644587173
30
0
41
1
10
4.47303436158313
20
3.08556775394231
30
0
41
1
10
4.25147699270491
20
3.21763473034969
30
0
0
SPLINE
5
DA
100
AcDbEntity
8
1
62
256
6
ByLayer
370
18
48
1
60
0
100
AcDbSpline
70
4
71
3
72
58
73
54
40
0
40
0
40
0
40
0
40
0.0398787676340468
40
0.0398787676340468
40
0.0797575352680936
40
0.0797575352680936
40
0.119636302902141
40
0.119636302902141
40
0.159515070536187
40
0.159515070536187
40
0.199393838170234
40
0.199393838170234
40
0.239272605804281
40
0.239272605804281
40
0.279151373438328
40
0.279151373438328
40
0.319030141072375
40
0.319030141072375
40
0.358908908706421
40
0.358908908706421
40
0.398787676340468
40
0.398787676340468
40
0.438666443974515
40
0.438666443974515
40
0.478545211608562
40
0.478545211608562
40
0.518423979242609
40
0.518423979242609
40
0.558302746876655
40
0.558302746876655
40
0.598181514510702
40
0.598181514510702
40
0.638060282144749
40
0.638060282144749
40
0.677939049778796
40
0.677939049778796
40
0.717817817412843
40
0.717817817412843
40
0.75769658504689
40
0.75769658504689
40
0.797575352680936
40
0.797575352680936
40
0.837454120314983
40
0.837454120314983
40
0.87733288794903
40
0.87733288794903
40
0.917211655583077
40
0.917211655583077
40
0.957090423217124
40
0.957090423217124
40
0.996969190851171
40
0.996969190851171
40
1
40
1
40
1
40
1
41
1
10
9.98253575034016
20
0.0350010341576876
30
0
41
1
10
10.2738166393494
20
-0.116769820657794
30
0
41
1
10
10.5648396644764
20
-0.267848061929783
30
0
41
1
10
11.1462978982671
20
-0.568570179936444
30
0
41
1
10
11.4367358835466
20
-0.718254566274368
30
0
41
1
10
12.0173379604357
20
-1.01594810414204
30
0
41
1
10
12.3073742518471
20
-1.16417551855977
30
0
41
1
10
12.8887134061405
20
-1.45574759113873
30
0
41
1
10
13.1799099129175
20
-1.59947854434196
30
0
41
1
10
13.7627744097963
20
-1.8828687302655
30
0
41
1
10
14.0535499096491
20
-2.02239640572722
30
0
41
1
10
14.6343651307533
20
-2.29571315340414
30
0
41
1
10
14.924827322206
20
-2.42862728163192
30
0
41
1
10
15.5058605048841
20
-2.68709052673984
30
0
41
1
10
15.7964161833175
20
-2.81286772420904
30
0
41
1
10
16.3775823172469
20
-3.05764581030957
30
0
41
1
10
16.6683774111293
20
-3.17620683513903
30
0
41
1
10
17.2510723478604
20
-3.40281386742893
30
0
41
1
10
17.5420989400595
20
-3.5110623635417
30
0
41
1
10
18.1235075729325
20
-3.71858135184107
30
0
41
1
10
18.4137751080532
20
-3.81788305931337
30
0
41
1
10
18.9942040539173
20
-4.00429456187945
30
0
41
1
10
19.284782878659
20
-4.09144689536021
30
0
41
1
10
19.8665269948294
20
-4.25505145138368
30
0
41
1
10
20.1579008874367
20
-4.33206750326255
30
0
41
1
10
20.7401125836103
20
-4.47295525393193
30
0
41
1
10
21.0304489468203
20
-4.53632239813246
30
0
41
1
10
21.6115270773959
20
-4.65037419903001
30
0
41
1
10
21.9020247855472
20
-4.70116219977422
30
0
41
1
10
22.4828420604636
20
-4.79093185776409
30
0
41
1
10
22.7730987894572
20
-4.82897570966483
30
0
41
1
10
23.3541244338888
20
-4.89058179340461
30
0
41
1
10
23.6455770855878
20
-4.91438977344359
30
0
41
1
10
24.2279897820623
20
-4.94934985608947
30
0
41
1
10
24.518782005755
20
-4.96082043359851
30
0
41
1
10
25.0995378265541
20
-4.96772649617935
30
0
41
1
10
25.3894886572783
20
-4.96373417360323
30
0
41
1
10
25.9703046738985
20
-4.94287658778222
30
0
41
1
10
26.2609064998884
20
-4.92636554692658
30
0
41
1
10
26.8425158462565
20
-4.87950104738675
30
0
41
1
10
27.1338856793964
20
-4.84784165647014
30
0
41
1
10
27.715543496114
20
-4.7714111526613
30
0
41
1
10
28.0062972989023
20
-4.72681432548035
30
0
41
1
10
28.5875090930837
20
-4.62648604599994
30
0
41
1
10
28.8779321311237
20
-4.57006113808981
30
0
41
1
10
29.4586564629229
20
-4.44189916741976
30
0
41
1
10
29.7488951426895
20
-4.37112063057589
30
0
41
1
10
30.3307807469622
20
-4.21907422126239
30
0
41
1
10
30.6224499278746
20
-4.13793540153094
30
0
41
1
10
31.204318721025
20
-3.96324536100156
30
0
41
1
10
31.4946456606614
20
-3.86938612357477
30
0
41
1
10
31.806832001955
20
-3.76297102606881
30
0
41
1
10
31.8288835527373
20
-3.7554298626379
30
0
41
1
10
31.8509361302569
20
-3.74786371332516
30
0
0
SPLINE
5
DB
100
AcDbEntity
8
1
62
256
6
ByLayer
370
18
48
1
60
0
100
AcDbSpline
70
4
71
3
72
30
73
26
40
0
40
0
40
0
40
0
40
0.0053874417285778
40
0.0053874417285778
40
0.0882718215845294
40
0.0882718215845294
40
0.17115620144048
40
0.17115620144048
40
0.254040581296432
40
0.254040581296432
40
0.336924961152384
40
0.336924961152384
40
0.419809341008335
40
0.419809341008335
40
0.502693720864286
40
0.502693720864286
40
0.585578100720238
40
0.585578100720238
40
0.668462480576189
40
0.668462480576189
40
0.834231240288094
40
0.834231240288094
40
0.917115620144047
40
0.917115620144047
40
1
40
1
40
1
40
1
41
1
10
55.2637750359605
20
4.97843048554819
30
0
41
1
10
55.2826440411478
20
4.97813984175031
30
0
41
1
10
55.3015113721016
20
4.97781863851188
30
0
41
1
10
55.6106202036653
20
4.97205077312088
30
0
41
1
10
55.9004546522785
20
4.95907881007642
30
0
41
1
10
56.4810611882668
20
4.92037409061263
30
0
41
1
10
56.7715697641995
20
4.89499309215654
30
0
41
1
10
57.3529091330976
20
4.83140797268865
30
0
41
1
10
57.6440876346985
20
4.79182845556565
30
0
41
1
10
58.225190023753
20
4.69832271439773
30
0
41
1
10
58.5156529685573
20
4.64475448146632
30
0
41
1
10
59.0963760570243
20
4.52523782828183
30
0
41
1
10
59.3866367398452
20
4.4592075273998
30
0
41
1
10
59.9669705571703
20
4.31504705159171
30
0
41
1
10
60.2569995752505
20
4.23684019432659
30
0
41
1
10
60.8384271828729
20
4.07040229424339
30
0
41
1
10
61.1298214218563
20
3.98172977509
30
0
41
1
10
61.7110484247432
20
3.79279632661974
30
0
41
1
10
62.0010553257433
20
3.69229758727875
30
0
41
1
10
62.8705839587929
20
3.37534699745538
30
0
41
1
10
63.45104466935
20
3.14600549854313
30
0
41
1
10
64.3228683503198
20
2.77454272256182
30
0
41
1
10
64.6136405850532
20
2.64612117513957
30
0
41
1
10
65.1946307204847
20
2.38432477549162
30
0
41
1
10
65.4849353889424
20
2.25038651883313
30
0
41
1
10
65.7750574031126
20
2.11325004575869
30
0
0
SPLINE
5
DC
100
AcDbEntity
8
1
62
256
6
ByLayer
370
18
48
1
60
0
100
AcDbSpline
70
4
71
3
72
18
73
14
40
0
40
0
40
0
40
0
40
0.0173325406256176
40
0.0173325406256176
40
0.311105348256154
40
0.311105348256154
40
0.457991752071423
40
0.457991752071423
40
0.531434953979057
40
0.531434953979057
40
0.604878155886691
40
0.604878155886691
40
1
40
1
40
1
40
1
41
1
10
25.038743381039
20
0.0023618127799239
30
0
41
1
10
25.0797169674936
20
-0.0193973159996972
30
0
41
1
10
25.1206898707868
20
-0.0411566783960495
30
0
41
1
10
25.8561218090555
20
-0.431698935101537
30
0
41
1
10
26.5506711874921
20
-0.799997325673104
30
0
41
1
10
27.5978662742317
20
-1.34164282377853
30
0
41
1
10
27.9478591987143
20
-1.52032811903601
30
0
41
1
10
28.4749528448861
20
-1.78418995415879
30
0
41
1
10
28.6511979362701
20
-1.87154567251096
30
0
41
1
10
29.0026019053395
20
-2.0438055142167
30
0
41
1
10
29.1779429371546
20
-2.12879814430255
30
0
41
1
10
30.2948012187829
20
-2.66297795616006
30
0
41
1
10
31.2283001374456
20
-3.07685907701315
30
0
41
1
10
32.1622214627156
20
-3.44153734203613
30
0
0
SPLINE
5
DD
100
AcDbEntity
8
1
62
256
6
ByLayer
370
13
48
1
60
0
100
AcDbSpline
70
4
71
3
72
18
73
14
40
0
40
0
40
0
40
0
40
0.143077286986028
40
0.143077286986028
40
0.252295049849003
40
0.252295049849003
40
0.361512812711979
40
0.361512812711979
40
0.579948338437929
40
0.579948338437929
40
0.798383864163881
40
0.798383864163881
40
1
40
1
40
1
40
1
41
1
10
32.1622205312721
20
-3.44153697832544
30
0
41
1
10
32.6170391869981
20
-3.61913490730674
30
0
41
1
10
33.0719580233352
20
-3.78506349799997
30
0
41
1
10
33.8760918313673
20
-4.05450354169721
30
0
41
1
10
34.2248319796875
20
-4.16351429727033
30
0
41
1
10
34.9246184435704
20
-4.36492688514352
30
0
41
1
10
35.2761248872392
20
-4.45748814490653
30
0
41
1
10
36.3317851240151
20
-4.70753894187896
30
0
41
1
10
37.0341667700769
20
-4.83675840060843
30
0
41
1
10
38.4421693488685
20
-5.0150203165762
30
0
41
1
10
39.1470209608323
20
-5.06353425777451
30
0
41
1
10
40.4908700187559
20
-5.07728182794679
30
0
41
1
10
41.1323420719327
20
-5.04899099302187
30
0
41
1
10
41.7731176180217
20
-4.98696914086315
30
0
0
SPLINE
5
DE
100
AcDbEntity
8
1
62
256
6
ByLayer
370
18
48
1
60
0
100
AcDbSpline
70
4
71
3
72
14
73
10
40
0
40
0
40
0
40
0
40
0.25
40
0.25
40
0.5
40
0.5
40
0.75
40
0.75
40
1
40
1
40
1
40
1
41
1
10
4.25147698841204
20
3.21763473290861
30
0
41
1
10
4.22401472451961
20
3.23400457055828
30
0
41
1
10
4.19457515847867
20
3.2513384025045
30
0
41
1
10
4.13442245829157
20
3.28599377201127
30
0
41
1
10
4.104028808229
20
3.30308707037614
30
0
41
1
10
4.05293751141946
20
3.33118149498645
30
0
41
1
10
4.03393946403952
20
3.341312663065
30
0
41
1
10
4.00889533574264
20
3.35461456402192
30
0
41
1
10
4.00252974411822
20
3.35795935324043
30
0
41
1
10
4.00062036602228
20
3.35904643779065
30
0
0
SPLINE
5
DF
100
AcDbEntity
8
1
62
256
6
ByLayer
370
18
48
1
60
0
100
AcDbSpline
70
4
71
3
72
94
73
90
40
0
40
0
40
0
40
0
40
0.0077761945941519
40
0.0077761945941519
40
0.0305827352610988
40
0.0305827352610988
40
0.0533892759280456
40
0.0533892759280456
40
0.0761958165949923
40
0.0761958165949923
40
0.0990023572619392
40
0.0990023572619392
40
0.121808897928886
40
0.121808897928886
40
0.144615438595833
40
0.144615438595833
40
0.167421979262779
40
0.167421979262779
40
0.190228519929726
40
0.190228519929726
40
0.213035060596673
40
0.213035060596673
40
0.23584160126362
40
0.23584160126362
40
0.258648141930567
40
0.258648141930567
40
0.281454682597514
40
0.281454682597514
40
0.30426122326446
40
0.30426122326446
40
0.327067763931407
40
0.327067763931407
40
0.349874304598354
40
0.349874304598354
40
0.372680845265301
40
0.372680845265301
40
0.395487385932248
40
0.395487385932248
40
0.418293926599194
40
0.418293926599194
40
0.463907007933088
40
0.463907007933088
40
0.486713548600035
40
0.486713548600035
40
0.509520089266982
40
0.509520089266982
40
0.532326629933929
40
0.532326629933929
40
0.555133170600875
40
0.555133170600875
40
0.577939711267822
40
0.577939711267822
40
0.600746251934769
40
0.600746251934769
40
0.646359333268662
40
0.646359333268662
40
0.657762603602136
40
0.657762603602136
40
0.669165873935609
40
0.669165873935609
40
0.691972414602555
40
0.691972414602555
40
0.714778955269501
40
0.714778955269501
40
0.737585495936447
40
0.737585495936447
40
0.760392036603393
40
0.760392036603393
40
0.783198577270339
40
0.783198577270339
40
0.806005117937285
40
0.806005117937285
40
0.828811658604231
40
0.828811658604231
40
0.851618199271176
40
0.851618199271176
40
0.874424739938122
40
0.874424739938122
40
0.897231280605068
40
0.897231280605068
40
0.920037821272014
40
0.920037821272014
40
0.94284436193896
40
0.94284436193896
40
0.965650902605906
40
0.965650902605906
40
0.988457443272852
40
0.988457443272852
40
1
40
1
40
1
40
1
41
1
10
31.8471096390342
20
3.74037945827675
30
0
41
1
10
31.9436392977935
20
3.77708418329274
30
0
41
1
10
32.0401278238324
20
3.81327121919833
30
0
41
1
10
32.4194235904976
20
3.95357471200353
30
0
41
1
10
32.7029353270088
20
4.05244470239145
30
0
41
1
10
33.271021513946
20
4.23916379302827
30
0
41
1
10
33.5557823630858
20
4.3271502117104
30
0
41
1
10
34.1232893721266
20
4.49180217655683
30
0
41
1
10
34.4059356564321
20
4.56881295735579
30
0
41
1
10
34.972416564167
20
4.70916627212995
30
0
41
1
10
35.2559511169827
20
4.77285731399655
30
0
41
1
10
35.8230636163852
20
4.88780658663688
30
0
41
1
10
36.1066377006539
20
4.93906317783683
30
0
41
1
10
36.6734826424687
20
5.02896857625635
30
0
41
1
10
36.9576508263851
20
5.06716042243855
30
0
41
1
10
37.5254392793812
20
5.1295731140967
30
0
41
1
10
37.8091545591802
20
5.15397528180858
30
0
41
1
10
38.3757771833972
20
5.18929057854166
30
0
41
1
10
38.6582726812761
20
5.20019809876121
30
0
41
1
10
39.2245331477117
20
5.20800658924281
30
0
41
1
10
39.5083478479031
20
5.20500248536288
30
0
41
1
10
40.0766924447547
20
5.18528787199307
30
0
41
1
10
40.3611684357207
20
5.16855844079308
30
0
41
1
10
40.9277614217396
20
5.12117483849107
30
0
41
1
10
41.2105326982842
20
5.09053481221051
30
0
41
1
10
41.7772380221495
20
5.01642995925582
30
0
41
1
10
42.0607645611893
20
4.97285430968546
30
0
41
1
10
42.6277037120923
20
4.87238936814143
30
0
41
1
10
42.910815959028
20
4.81526229963578
30
0
41
1
10
43.4780391933903
20
4.68804913753306
30
0
41
1
10
43.7623870694619
20
4.61854283194896
30
0
41
1
10
44.3299285423415
20
4.46787411236429
30
0
41
1
10
44.6134339249176
20
4.38667550522695
30
0
41
1
10
45.179460727427
20
4.21197469279204
30
0
41
1
10
45.4618947984811
20
4.11830120836501
30
0
41
1
10
46.02873863597
20
3.92184832225411
30
0
41
1
10
46.3126889462976
20
3.81861005728734
30
0
41
1
10
46.8811736840667
20
3.60148800054279
30
0
41
1
10
47.1649004342506
20
3.48765836720875
30
0
41
1
10
48.013767622054
20
3.13166485226643
30
0
41
1
10
48.5809740683722
20
2.88030364979713
30
0
41
1
10
49.4309613065864
20
2.47841890062025
30
0
41
1
10
49.7138487533454
20
2.33966044830851
30
0
41
1
10
50.281958773586
20
2.05817049595663
30
0
41
1
10
50.5659097390096
20
1.91541576237543
30
0
41
1
10
51.1330801664844
20
1.6250521211864
30
0
41
1
10
51.4162873663428
20
1.47742020590704
30
0
41
1
10
51.9816366783082
20
1.1766326870451
30
0
41
1
10
52.2645969623431
20
1.02492595342665
30
0
41
1
10
52.8318200407462
20
0.720275841491514
30
0
41
1
10
53.1160628995556
20
0.566837785407358
30
0
41
1
10
53.6841041897932
20
0.257566742395852
30
0
41
1
10
53.9669194221586
20
0.101282533724316
30
0
41
1
10
54.8162019019304
20
-0.364286900697834
30
0
41
1
10
55.3834353738787
20
-0.67047794578707
30
0
41
1
10
56.0912389823665
20
-1.05260986961707
30
0
41
1
10
56.2327086866818
20
-1.12905557154369
30
0
41
1
10
56.5162462406213
20
-1.28057274862789
30
0
41
1
10
56.6583489445375
20
-1.35575426410307
30
0
41
1
10
57.0843395867931
20
-1.57934617416632
30
0
41
1
10
57.3681216019228
20
-1.72588439499043
30
0
41
1
10
57.9348066123962
20
-2.01474768424839
30
0
41
1
10
58.2173960809968
20
-2.15758626537661
30
0
41
1
10
58.7828685782934
20
-2.43694974864744
30
0
41
1
10
59.0663013277727
20
-2.57259606762162
30
0
41
1
10
59.6337859702279
20
-2.83716978582373
30
0
41
1
10
59.9182122982575
20
-2.96618216070087
30
0
41
1
10
60.4853209751797
20
-3.21700519917059
30
0
41
1
10
60.7679265581912
20
-3.33885428588138
30
0
41
1
10
61.334353812321
20
-3.57110476410071
30
0
41
1
10
61.6177139529544
20
-3.68221008084279
30
0
41
1
10
62.1842536310301
20
-3.89505195928575
30
0
41
1
10
62.4672903329266
20
-3.99695031229217
30
0
41
1
10
63.0334190517459
20
-4.19079682239837
30
0
41
1
10
63.3177217634799
20
-4.28180487529409
30
0
41
1
10
63.8854482347612
20
-4.45171993673975
30
0
41
1
10
64.1690101988794
20
-4.53074274503572
30
0
41
1
10
64.7350869730795
20
-4.67727026233914
30
0
41
1
10
65.0172721010454
20
-4.74496557850662
30
0
41
1
10
65.5833566362003
20
-4.86651249498445
30
0
41
1
10
65.8669186773819
20
-4.92070387734339
30
0
41
1
10
66.4345516262308
20
-5.0163159468845
30
0
41
1
10
66.7188079280014
20
-5.05775201497053
30
0
41
1
10
67.285011454068
20
-5.12727656580287
30
0
41
1
10
67.568067028319
20
-5.1550568883448
30
0
41
1
10
68.1347676689265
20
-5.19680766932302
30
0
41
1
10
68.4182049168593
20
-5.21085893316095
30
0
41
1
10
68.8448847558774
20
-5.22172496474741
30
0
41
1
10
68.9881237573111
20
-5.22360986692865
30
0
41
1
10
69.131417379125
20
-5.22371464530232
30
0
0
SPLINE
5
E0
100
AcDbEntity
8
1
62
256
6
ByLayer
370
18
48
1
60
0
100
AcDbSpline
70
4
71
3
72
22
73
18
40
0
40
0
40
0
40
0
40
0.124999999999999
40
0.124999999999999
40
0.249999999999998
40
0.249999999999998
40
0.500000000000002
40
0.500000000000002
40
0.625000000000002
40
0.625000000000002
40
0.750000000000001
40
0.750000000000001
40
0.875000000000001
40
0.875000000000001
40
0.9375
40
0.9375
40
1
40
1
40
1
40
1
41
1
10
72.2073400921502
20
2.57554397063575
30
0
41
1
10
72.1678675046532
20
2.68199102184192
30
0
41
1
10
72.1283250521871
20
2.78838908044889
30
0
41
1
10
72.049136856446
20
3.00084319849916
30
0
41
1
10
72.0094782662254
20
3.10686240374878
30
0
41
1
10
71.8904035533392
20
3.42460113648337
30
0
41
1
10
71.810964208881
20
3.63624582195584
30
0
41
1
10
71.6914786848649
20
3.95266054270368
30
0
41
1
10
71.6515763781138
20
4.05800523913109
30
0
41
1
10
71.5717533583267
20
4.26760756719449
30
0
41
1
10
71.531828292759
20
4.37207182480654
30
0
41
1
10
71.4519665878723
20
4.58071269138611
30
0
41
1
10
71.4120265237601
20
4.68480418214062
30
0
41
1
10
71.3520828436937
20
4.840106739681
30
0
41
1
10
71.3320957286585
20
4.89172791263758
30
0
41
1
10
71.2921036035439
20
4.99452550343773
30
0
41
1
10
71.272096436432
20
5.04564831140121
30
0
41
1
10
71.2520867691484
20
5.09670898125745
30
0
0
SPLINE
5
E1
100
AcDbEntity
8
SK1
62
256
6
ByLayer
370
18
48
1
60
0
100
AcDbSpline
70
4
71
3
72
10
73
6
40
0
40
0
40
0
40
0
40
0.5
40
0.5
40
1
40
1
40
1
40
1
41
1
10
-45
20
-3.33942365381253
30
0
41
1
10
-44.7879213063755
20
-3.73195642505164
30
0
41
1
10
-44.5722737898406
20
-4.12260199136799
30
0
41
1
10
-44.1380829418105
20
-4.9023618078256
30
0
41
1
10
-43.9194308847409
20
-5.29141856353678
30
0
41
1
10
-43.7
20
-5.68006347269463
30
0
0
SPLINE
5
E2
100
AcDbEntity
8
SK1
62
256
6
ByLayer
370
18
48
1
60
0
100
AcDbSpline
70
4
71
3
72
14
73
10
40
0
40
0
40
0
40
0
40
0.125000000000002
40
0.125000000000002
40
0.250000000000004
40
0.250000000000004
40
0.500000000000002
40
0.500000000000002
40
1
40
1
40
1
40
1
41
1
10
-43.6
20
-5.73109491236465
30
0
41
1
10
-43.6
20
-5.72834374575132
30
0
41
1
10
-43.6017220508865
20
-5.72272406409519
30
0
41
1
10
-43.6068954324577
20
-5.70909593069098
30
0
41
1
10
-43.610237321167
20
-5.70129563523156
30
0
41
1
10
-43.6215324998379
20
-5.67623851986261
30
0
41
1
10
-43.6303471072619
20
-5.65820179422403
30
0
41
1
10
-43.658490206513
20
-5.60258194954332
30
0
41
1
10
-43.678793979422
20
-5.5649143932221
30
0
41
1
10
-43.7
20
-5.52735535976677
30
0
0
SPLINE
5
E3
100
AcDbEntity
8
SK1
62
256
6
ByLayer
370
18
48
1
60
0
100
AcDbSpline
70
4
71
3
72
10
73
6
40
0
40
0
40
0
40
0
40
0.5
40
0.5
40
1
40
1
40
1
40
1
41
1
10
-45
20
3.33942365381253
30
0
41
1
10
-44.7879213063755
20
3.73195642505164
30
0
41
1
10
-44.5722737898406
20
4.12260199136799
30
0
41
1
10
-44.1380829418105
20
4.90236180782557
30
0
41
1
10
-43.9194308847409
20
5.29141856353678
30
0
41
1
10
-43.7
20
5.68006347269463
30
0
0
SPLINE
5
E4
100
AcDbEntity
8
SK1
62
256
6
ByLayer
370
18
48
1
60
0
100
AcDbSpline
70
4
71
3
72
14
73
10
40
0
40
0
40
0
40
0
40
0.499999999999995
40
0.499999999999995
40
0.749999999999998
40
0.749999999999998
40
0.874999999999999
40
0.874999999999999
40
1
40
1
40
1
40
1
41
1
10
-43.7
20
5.68006347269466
30
0
41
1
10
-43.6789021434844
20
5.71743093142155
30
0
41
1
10
-43.6585587767127
20
5.75442591196716
30
0
41
1
10
-43.6303722414292
20
5.80752754604831
30
0
41
1
10
-43.6214260646625
20
5.82472927441347
30
0
41
1
10
-43.6102968606991
20
5.84712659072318
30
0
41
1
10
-43.6069058574072
20
5.85415432267047
30
0
41
1
10
-43.6017309986994
20
5.86570021812946
30
0
41
1
10
-43.6
20
5.87012697306267
30
0
41
1
10
-43.6
20
5.87158637625834
30
0
0
SPLINE
5
E5
100
AcDbEntity
8
SK1
62
256
6
ByLayer
370
18
48
1
60
0
100
AcDbSpline
70
4
71
3
72
14
73
10
40
0
40
0
40
0
40
0
40
0.499999999999996
40
0.499999999999996
40
0.749999999999998
40
0.749999999999998
40
0.874999999999999
40
0.874999999999999
40
1
40
1
40
1
40
1
41
1
10
-43.7
20
-5.68006347269468
30
0
41
1
10
-43.6789021434844
20
-5.71743093142155
30
0
41
1
10
-43.6585587767127
20
-5.75442591196716
30
0
41
1
10
-43.6303722414292
20
-5.80752754604831
30
0
41
1
10
-43.6214260646625
20
-5.82472927441347
30
0
41
1
10
-43.6102968606991
20
-5.84712659072318
30
0
41
1
10
-43.6069058574072
20
-5.8541543226705
30
0
41
1
10
-43.6017309986994
20
-5.86570021812946
30
0
41
1
10
-43.6
20
-5.87012697306267
30
0
41
1
10
-43.6
20
-5.87158637625834
30
0
0
SPLINE
5
E6
100
AcDbEntity
8
SK1
62
256
6
ByLayer
370
18
48
1
60
0
100
AcDbSpline
70
4
71
3
72
10
73
6
40
0
40
0
40
0
40
0
40
0.5
40
0.5
40
1
40
1
40
1
40
1
41
1
10
-43.7
20
-5.52735535976677
30
0
41
1
10
-43.9194045553471
20
-5.13875708390239
30
0
41
1
10
-44.1380490457335
20
-4.74971418811626
30
0
41
1
10
-44.5722419213309
20
-3.96995149125092
30
0
41
1
10
-44.7878974798874
20
-3.57929241215669
30
0
41
1
10
-45
20
-3.18671554088465
30
0
0
LINE
5
76
100
AcDbEntity
8
81
62
256
6
ByLayer
370
18
48
1
60
0
100
AcDbLine
10
73
20
0
30
0
11
78
21
0
31
0
39
0
210
0
220
0
230
1
0
LINE
5
77
100
AcDbEntity
8
1
62
256
6
ByLayer
370
18
48
1
60
0
100
AcDbLine
10
3.240311
20
5.184193
30
0
11
1.395749
21
5.183086
31
0
39
0
210
0
220
0
230
1
0
LINE
5
79
100
AcDbEntity
8
1
62
256
6
ByLayer
370
18
48
1
60
0
100
AcDbLine
10
10.067995
20
5.18829
30
0
11
4.703287
21
5.185071
31
0
39
0
210
0
220
0
230
1
0
LINE
5
7A
100
AcDbEntity
8
1
62
256
6
ByLayer
370
18
48
1
60
0
100
AcDbLine
10
40.017772
20
5.206259
30
0
11
39.174038
21
5.205753
31
0
39
0
210
0
220
0
230
1
0
LINE
5
7B
100
AcDbEntity
8
1
62
256
6
ByLayer
370
18
48
1
60
0
100
AcDbLine
10
69.968632
20
5.22423
30
0
11
69.132177
21
5.223728
31
0
39
0
210
0
220
0
230
1
0
LINE
5
7C
100
AcDbEntity
8
1
62
256
6
ByLayer
370
18
48
1
60
0
100
AcDbLine
10
69.132177
20
-5.223728
30
0
11
69.968243
21
-5.22423
31
0
39
0
210
0
220
0
230
1
0
LINE
5
7D
100
AcDbEntity
8
1
62
256
6
ByLayer
370
18
48
1
60
0
100
AcDbLine
10
39.174038
20
-5.205753
30
0
11
40.017632
21
-5.206259
31
0
39
0
210
0
220
0
230
1
0
LINE
5
7E
100
AcDbEntity
8
1
62
256
6
ByLayer
370
18
48
1
60
0
100
AcDbLine
10
4.703287
20
-5.185071
30
0
11
10.068245
21
-5.18829
31
0
39
0
210
0
220
0
230
1
0
LINE
5
7F
100
AcDbEntity
8
1
62
256
6
ByLayer
370
18
48
1
60
0
100
AcDbLine
10
1.395749
20
-5.183086
30
0
11
3.240311
21
-5.184193
31
0
39
0
210
0
220
0
230
1
0
LINE
5
80
100
AcDbEntity
8
SK1
62
256
6
ByLayer
370
18
48
1
60
0
100
AcDbLine
10
0
20
6
30
0
11
-43.556624
21
6
31
0
39
0
210
0
220
0
230
1
0
LINE
5
82
100
AcDbEntity
8
SK1
62
256
6
ByLayer
370
18
48
1
60
0
100
AcDbLine
10
-43.556624
20
-6
30
0
11
0
21
-6
31
0
39
0
210
0
220
0
230
1
0
LINE
5
83
100
AcDbEntity
8
SK1
62
256
6
ByLayer
370
18
48
1
60
0
100
AcDbLine
10
-43.556624
20
6
30
0
11
-43.6
21
5.924871
31
0
39
0
210
0
220
0
230
1
0
LINE
5
84
100
AcDbEntity
8
SK1
62
256
6
ByLayer
370
18
48
1
60
0
100
AcDbLine
10
-43.6
20
-5.924871
30
0
11
-43.556624
21
-6
31
0
39
0
210
0
220
0
230
1
0
LINE
5
85
100
AcDbEntity
8
SK4
62
256
6
ByLayer
370
18
48
0.05
60
0
100
AcDbLine
10
78
20
0
30
0
11
-50
21
0
31
0
39
0
210
0
220
0
230
1
0
LINE
5
87
100
AcDbEntity
8
4
62
256
6
ByLayer
370
18
48
0.05
60
0
100
AcDbLine
10
73
20
0
30
0
11
0
21
0
31
0
39
0
210
0
220
0
230
1
0
LINE
5
89
100
AcDbEntity
8
80
62
256
6
ByLayer
370
18
48
1
60
0
100
AcDbLine
10
0
20
0
30
0
11
-5
21
0
31
0
39
0
210
0
220
0
230
1
0
LINE
5
8A
100
AcDbEntity
8
1
62
256
6
ByLayer
370
13
48
1
60
0
100
AcDbLine
10
71.362167
20
0.636753
30
0
11
72.894442
21
-0.12191
31
0
39
0
210
0
220
0
230
1
0
LINE
5
8B
100
AcDbEntity
8
1
62
256
6
ByLayer
370
18
48
1
60
0
100
AcDbLine
10
0
20
-6
30
0
11
0
21
6
31
0
39
0
210
0
220
0
230
1
0
LINE
5
8C
100
AcDbEntity
8
1
62
256
6
ByLayer
370
13
48
1
60
0
100
AcDbLine
10
71.531625
20
0.983177
30
0
11
72.912267
21
0.299591
31
0
39
0
210
0
220
0
230
1
0
LINE
5
8D
100
AcDbEntity
8
1
62
256
6
ByLayer
370
18
48
1
60
0
100
AcDbLine
10
73
20
0
30
0
11
72.988997
21
-0.049364
31
0
39
0
210
0
220
0
230
1
0
LINE
5
8E
100
AcDbEntity
8
1
62
256
6
ByLayer
370
18
48
1
60
0
100
AcDbLine
10
70.369617
20
-2.935781
30
0
11
72.894442
21
-0.12191
31
0
39
0
210
0
220
0
230
1
0
LINE
5
8F
100
AcDbEntity
8
1
62
256
6
ByLayer
370
13
48
1
60
0
100
AcDbLine
10
1.395749
20
5.183086
30
0
11
1.395749
21
-5.183086
31
0
39
0
210
0
220
0
230
1
0
LINE
5
90
100
AcDbEntity
8
1
62
256
6
ByLayer
370
13
48
1
60
0
100
AcDbLine
10
0.697635
20
5.591543
30
0
11
0.697635
21
-5.591543
31
0
39
0
210
0
220
0
230
1
0
LINE
5
91
100
AcDbEntity
8
1
62
256
6
ByLayer
370
18
48
1
60
0
100
AcDbLine
10
73
20
0
30
0
11
71.183442
21
-4.990951
31
0
39
0
210
0
220
0
230
1
0
LINE
5
92
100
AcDbEntity
8
1
62
256
6
ByLayer
370
18
48
1
60
0
100
AcDbLine
10
72.912267
20
-0.299591
30
0
11
72.727107
21
-0.983177
31
0
39
0
210
0
220
0
230
1
0
LINE
5
93
100
AcDbEntity
8
1
62
256
6
ByLayer
370
18
48
1
60
0
100
AcDbLine
10
72.988997
20
0.049364
30
0
11
73
21
0
31
0
39
0
210
0
220
0
230
1
0
LINE
5
94
100
AcDbEntity
8
1
62
256
6
ByLayer
370
18
48
1
60
0
100
AcDbLine
10
72.912267
20
0.299591
30
0
11
72.727107
21
0.983177
31
0
39
0
210
0
220
0
230
1
0
LINE
5
95
100
AcDbEntity
8
1
62
256
6
ByLayer
370
13
48
1
60
0
100
AcDbLine
10
72.727107
20
0.983177
30
0
11
71.531625
21
0.983177
31
0
39
0
210
0
220
0
230
1
0
LINE
5
96
100
AcDbEntity
8
SK1
62
256
6
ByLayer
370
18
48
1
60
0
100
AcDbLine
10
-45
20
3.339424
30
0
11
-45
21
-3.186716
31
0
39
0
210
0
220
0
230
1
0
LINE
5
97
100
AcDbEntity
8
SK1
62
256
6
ByLayer
370
18
48
1
60
0
100
AcDbLine
10
0
20
-6
30
0
11
0
21
6
31
0
39
0
210
0
220
0
230
1
0
LINE
5
98
100
AcDbEntity
8
SK1
62
256
6
ByLayer
370
13
48
1
60
0
100
AcDbLine
10
-43.7
20
-5.527187
30
0
11
-43.7
21
-5.680063
31
0
39
0
210
0
220
0
230
1
0
LINE
5
99
100
AcDbEntity
8
SK1
62
256
6
ByLayer
370
18
48
1
60
0
100
AcDbLine
10
-43.6
20
-5.924871
30
0
11
-43.6
21
-5.731095
31
0
39
0
210
0
220
0
230
1
0
LINE
5
9A
100
AcDbEntity
8
SK1
62
256
6
ByLayer
370
18
48
1
60
0
100
AcDbLine
10
-45
20
-3.186678
30
0
11
-45
21
-3.339424
31
0
39
0
210
0
220
0
230
1
0
LINE
5
9B
100
AcDbEntity
8
SK1
62
256
6
ByLayer
370
18
48
1
60
0
100
AcDbLine
10
-43.556624
20
6
30
0
11
-43.556624
21
-6
31
0
39
0
210
0
220
0
230
1
0
LINE
5
9C
100
AcDbEntity
8
SK1
62
256
6
ByLayer
370
18
48
1
60
0
100
AcDbLine
10
-43.6
20
5.924871
30
0
11
-43.6
21
5.871586
31
0
39
0
210
0
220
0
230
1
0
MTEXT
5
E7
100
AcDbEntity
8
SK6
62
256
6
ByLayer
370
13
48
1
60
0
100
AcDbMText
10
16.129169
20
37.607694
30
0
210
0
220
0
230
1
1
\W0.7470;R840-1045-50-A1A1220
40
3.5
41
0
44
1.084337
50
0
71
8
72
5
7
iso_b_vert
0
DIMENSION
5
F4
100
AcDbEntity
8
SK2
62
256
6
ByLayer
370
13
48
1
60
0
100
AcDbDimension
2
DimnDraft3D1
10
71.21
20
-15.438398
30
0
11
33.960059
21
-15.438398
31
0
70
32
71
5
72
1
41
1
210
0
220
0
230
1
3
Standard
100
AcDbAlignedDimension
13
0
23
-1.5875
33
0
14
71.21
24
-6.8125
34
0
50
0
100
AcDbRotatedDimension
1001
ACAD
1000
DSTYLE
1002
{
1070
   279
1070
     0
1070
   172
1070
     1
1070
   173
1070
     1
1070
   340
1005
E8
1070
   271
1070
     2
1070
   272
1070
     2
1070
    77
1070
     1
1070
    73
1070
     0
1070
   171
1070
     3
1070
   274
1070
     4
1070
   177
1070
    35
1070
   176
1070
    35
1070
   178
1070
    35
1070
    48
1040
-0.005
1070
    41
1041
3.5
1070
   147
1041
1.75
1070
    42
1041
1.5875
1070
    44
1041
2.0
1070
   140
1041
3.5
1070
   343
1005
0
1070
   344
1005
0
1002
}
0
DIMENSION
5
FE
100
AcDbEntity
8
SK2
62
256
6
ByLayer
370
13
48
1
60
0
100
AcDbDimension
2
DimnDraft3D2
10
73
20
-34.692985
30
0
11
13.5513
21
-34.692985
31
0
70
32
71
5
72
1
41
1
210
0
220
0
230
1
3
Standard
100
AcDbAlignedDimension
13
-45
23
-7.5875
33
0
14
73
24
-1.5875
34
0
50
0
100
AcDbRotatedDimension
1001
ACAD
1000
DSTYLE
1002
{
1070
   279
1070
     0
1070
   172
1070
     1
1070
   173
1070
     1
1070
   340
1005
E8
1070
   271
1070
     2
1070
   272
1070
     2
1070
    77
1070
     1
1070
    73
1070
     0
1070
   171
1070
     3
1070
   274
1070
     4
1070
   177
1070
    35
1070
   176
1070
    35
1070
   178
1070
    35
1070
    48
1040
-0.005
1070
    41
1041
3.5
1070
   147
1041
1.75
1070
    42
1041
1.5875
1070
    44
1041
2.0
1070
   140
1041
3.5
1070
   343
1005
0
1070
   344
1005
0
1002
}
0
DIMENSION
5
108
100
AcDbEntity
8
SK2
62
256
6
ByLayer
370
13
48
1
60
0
100
AcDbDimension
2
DimnDraft3D3
10
73
20
16.834119
30
0
11
45.98
21
16.834119
31
0
70
32
71
5
72
1
41
1
210
0
220
0
230
1
3
Standard
100
AcDbAlignedDimension
13
18.96
23
6.8125
33
0
14
73
24
1.5875
34
0
50
0
100
AcDbRotatedDimension
1001
ACAD
1000
DSTYLE
1002
{
1070
   279
1070
     0
1070
   172
1070
     1
1070
   173
1070
     1
1070
   340
1005
E8
1070
   271
1070
     2
1070
   272
1070
     2
1070
    77
1070
     1
1070
    73
1070
     0
1070
   171
1070
     3
1070
   274
1070
     4
1070
   177
1070
    35
1070
   176
1070
    35
1070
   178
1070
    35
1070
    48
1040
-0.005
1070
    41
1041
3.5
1070
   147
1041
1.75
1070
    42
1041
1.5875
1070
    44
1041
2.0
1070
   140
1041
3.5
1070
   343
1005
0
1070
   344
1005
0
1002
}
0
DIMENSION
5
112
100
AcDbEntity
8
SK2
62
256
6
ByLayer
370
13
48
1
60
0
100
AcDbDimension
2
DimnDraft3D4
10
71.21
20
-18.027503
30
0
11
82.981425
21
-18.027503
31
0
70
32
71
5
72
1
41
1
210
0
220
0
230
1
3
Standard
100
AcDbAlignedDimension
13
73
23
-1.5875
33
0
14
71.21
24
-6.8125
34
0
50
0
100
AcDbRotatedDimension
1001
ACAD
1000
DSTYLE
1002
{
1070
   279
1070
     0
1070
   172
1070
     1
1070
   173
1070
     1
1070
   340
1005
E8
1070
   271
1070
     2
1070
   272
1070
     2
1070
    77
1070
     1
1070
    73
1070
     0
1070
   171
1070
     3
1070
   274
1070
     4
1070
   177
1070
    35
1070
   176
1070
    35
1070
   178
1070
    35
1070
    48
1040
-0.005
1070
    41
1041
3.5
1070
   147
1041
1.75
1070
    42
1041
1.5875
1070
    44
1041
2.0
1070
   140
1041
3.5
1070
   343
1005
0
1070
   344
1005
0
1002
}
0
DIMENSION
5
11C
100
AcDbEntity
8
SK2
62
256
6
ByLayer
370
13
48
1
60
0
100
AcDbDimension
2
DimnDraft3D5
10
71.21
20
-24.343428
30
0
11
10.470676
21
-24.343428
31
0
70
32
71
5
72
1
41
1
210
0
220
0
230
1
3
Standard
100
AcDbAlignedDimension
13
-45
23
-7.5875
33
0
14
71.21
24
-6.8125
34
0
50
0
100
AcDbRotatedDimension
1001
ACAD
1000
DSTYLE
1002
{
1070
   279
1070
     0
1070
   172
1070
     1
1070
   173
1070
     1
1070
   340
1005
E8
1070
   271
1070
     2
1070
   272
1070
     2
1070
    77
1070
     1
1070
    73
1070
     0
1070
   171
1070
     3
1070
   274
1070
     4
1070
   177
1070
    35
1070
   176
1070
    35
1070
   178
1070
    35
1070
    48
1040
-0.005
1070
    41
1041
3.5
1070
   147
1041
1.75
1070
    42
1041
1.5875
1070
    44
1041
2.0
1070
   140
1041
3.5
1070
   343
1005
0
1070
   344
1005
0
1002
}
0
DIMENSION
5
127
100
AcDbEntity
8
SK2
62
256
6
ByLayer
370
13
48
1
60
0
100
AcDbDimension
2
DimnDraft3D6
10
-55.625163
20
6
30
0
11
-56.250163
21
24.47418
31
0
70
33
71
5
72
1
41
1
210
0
220
0
230
1
3
Standard
100
AcDbAlignedDimension
13
-46.5875
23
-6
33
0
14
-46.5875
24
6
34
0
1001
ACAD
1000
DSTYLE
1002
{
1070
   279
1070
     0
1070
    74
1070
     0
1070
   173
1070
     1
1070
   340
1005
E8
1070
   271
1070
     3
1070
   272
1070
     2
1070
    77
1070
     1
1070
    73
1070
     0
1070
   171
1070
     3
1070
   274
1070
     4
1070
   177
1070
    35
1070
   176
1070
    35
1070
   178
1070
    35
1070
    48
1040
-0.005
1070
    41
1041
3.5
1070
   147
1041
1.75
1070
    42
1041
1.5875
1070
    44
1041
2.0
1070
   140
1041
3.5
1070
   343
1005
0
1070
   344
1005
0
1002
}
0
DIMENSION
5
132
100
AcDbEntity
8
2
62
256
6
ByLayer
370
13
48
1
60
0
100
AcDbDimension
2
DimnDraft3D7
10
87.083343
20
5.225
30
0
11
82.458343
21
22.292266
31
0
70
33
71
5
72
1
41
1
210
0
220
0
230
1
3
Standard
100
AcDbAlignedDimension
13
72.7975
23
-5.225
33
0
14
72.7975
24
5.225
34
0
1001
ACAD
1000
DSTYLE
1002
{
1070
   279
1070
     0
1070
    74
1070
     0
1070
   173
1070
     1
1070
   340
1005
E8
1070
   271
1070
     3
1070
   272
1070
     2
1070
    77
1070
     1
1070
    73
1070
     0
1070
   171
1070
     3
1070
   274
1070
     4
1070
   177
1070
    35
1070
   176
1070
    35
1070
   178
1070
    35
1070
    48
1040
-0.005
1070
    41
1041
3.5
1070
   147
1041
1.75
1070
    42
1041
1.5875
1070
    44
1041
2.0
1070
   140
1041
3.5
1070
   343
1005
0
1070
   344
1005
0
1002
}
0
ENDSEC
0
SECTION
2
OBJECTS
0
DICTIONARY
5
19d
330
0
100
AcDbDictionary
280
0
281
1
3
ACAD_GROUP
350
19e
3
ACAD_MLINESTYLE
350
19f
0
DICTIONARY
5
19e
330
0
100
AcDbDictionary
280
0
281
1
0
DICTIONARY
5
19f
330
0
100
AcDbDictionary
280
0
281
1
3
Standard
350
18
0
MLINESTYLE
5
18
330
19f
100
AcDbMlineStyle
2
Standard
70
0
3

62
256
51
90
52
90
71
2
49
-0.5
62
256
6
ByLayer
49
0.5
62
256
6
ByLayer
0
RASTERVARIABLES
5
18b
330

100
AcDbRasterVariables
90
0
70
1
71
1
72
1
0
ENDSEC
0
EOF
