0
SECTION
2
HEADER
9
$ACADVER
1
AC1015
9
$DWGCODEPAGE
3
ANSI_1252
9
$HANDSEED
5
1b0
9
$ANGBASE
50
0
9
$ANGDIR
70
0
9
$ATTMODE
70
1
9
$AUNITS
70
0
9
$AUPREC
70
0
9
$CECOLOR
62
256
9
$CELTSCALE
40
1
9
$CELTYPE
6
ByLayer
9
$CELWEIGHT
370
18
9
$CLAYER
8
0
9
$CMLJUST
70
0
9
$CMLSCALE
40
1
9
$CMLSTYLE
2
Standard
9
$DIMSTYLE
2
Standard
9
$TEXTSIZE
40
0.2
9
$TEXTSTYLE
7
Standard
9
$LUNITS
70
2
9
$LUPREC
70
4
9
$EXTNAMES
290
1
9
$INSUNITS
70
4
9
$LTSCALE
40
1
9
$LWDISPLAY
290
1
9
$PDMODE
70
0
9
$PDSIZE
40
0
9
$PLINEGEN
70
0
0
ENDSEC
0
SECTION
2
CLASSES
0
CLASS
1
RASTERVARIABLES
2
AcDbRasterVariables
3
ISM
90
0
280
0
281
0
0
ENDSEC
0
SECTION
2
TABLES
0
TABLE
2
VPORT
5
1a6
100
AcDbSymbolTable
0
VPORT
5
1
100
AcDbSymbolTableRecord
100
AcDbViewportTableRecord
2
*Active
70
0
10
0
20
0
11
1
21
1
12
-1
22
1
13
0
23
0
14
0.5
24
0.5
15
10
25
10
16
0
26
0
36
1
17
0
27
0
37
0
0
ENDTAB
0
TABLE
2
LTYPE
5
1a7
100
AcDbSymbolTable
0
LTYPE
5
14
100
AcDbSymbolTableRecord
100
AcDbLinetypeTableRecord
70
0
2
ByBlock
3

72
65
73
0
40
0
0
LTYPE
5
15
100
AcDbSymbolTableRecord
100
AcDbLinetypeTableRecord
70
0
2
ByLayer
3

72
65
73
0
40
0
0
LTYPE
5
16
100
AcDbSymbolTableRecord
100
AcDbLinetypeTableRecord
70
0
2
CONTINUOUS
3
Solid line
72
65
73
0
40
0
0
LTYPE
5
6A
100
AcDbSymbolTableRecord
100
AcDbLinetypeTableRecord
70
0
2
CENTER
3
____ _ ____ _ ____ _ ____
72
65
73
4
40
47.5
49
22
74
0
49
-8.5
74
0
49
8.5
74
0
49
-8.5
74
0
0
LTYPE
5
6B
100
AcDbSymbolTableRecord
100
AcDbLinetypeTableRecord
70
0
2
DASHED
3
__ __ __ __ __ __ __ __ __
72
65
73
2
40
25.72
49
12.86
74
0
49
-12.86
74
0
0
ENDTAB
0
TABLE
2
LAYER
5
1a8
100
AcDbSymbolTable
0
LAYER
5
10
100
AcDbSymbolTableRecord
100
AcDbLayerTableRecord
2
0
70
0
62
7
6
CONTINUOUS
290
1
370
-3
390
0
0
LAYER
5
6D
100
AcDbSymbolTableRecord
100
AcDbLayerTableRecord
2
81
70
0
62
-3
6
CONTINUOUS
290
1
370
-3
390
0
0
LAYER
5
6F
100
AcDbSymbolTableRecord
100
AcDbLayerTableRecord
2
80
70
0
62
-6
6
CONTINUOUS
290
1
370
-3
390
0
0
LAYER
5
74
100
AcDbSymbolTableRecord
100
AcDbLayerTableRecord
2
2
70
0
62
7
6
CONTINUOUS
290
1
370
-3
390
0
0
LAYER
5
78
100
AcDbSymbolTableRecord
100
AcDbLayerTableRecord
2
1
70
0
62
4
6
CONTINUOUS
290
1
370
-3
390
0
0
LAYER
5
88
100
AcDbSymbolTableRecord
100
AcDbLayerTableRecord
2
4
70
0
62
-2
6
CENTER
290
1
370
-3
390
0
0
LAYER
5
192
100
AcDbSymbolTableRecord
100
AcDbLayerTableRecord
2
SK2
70
0
62
7
6
CONTINUOUS
290
1
370
-3
390
0
0
LAYER
5
193
100
AcDbSymbolTableRecord
100
AcDbLayerTableRecord
2
SK1
70
0
62
4
6
CONTINUOUS
290
1
370
-3
390
0
0
LAYER
5
194
100
AcDbSymbolTableRecord
100
AcDbLayerTableRecord
2
SK4
70
0
62
2
6
CENTER
290
1
370
-3
390
0
0
LAYER
5
195
100
AcDbSymbolTableRecord
100
AcDbLayerTableRecord
2
SK6
70
0
62
5
6
CONTINUOUS
290
1
370
-3
390
0
0
ENDTAB
0
TABLE
2
STYLE
5
1a9
100
AcDbSymbolTable
0
STYLE
5
11
100
AcDbSymbolTableRecord
100
AcDbTextStyleTableRecord
2
Standard
3
txt
70
0
71
0
40
0
41
1
42
0
50
0
0
STYLE
5
EE
100
AcDbSymbolTableRecord
100
AcDbTextStyleTableRecord
2
iso_b_vert
3
simplex.shx
70
0
71
0
40
0
41
1
42
0
50
0
0
STYLE
5
EF
100
AcDbSymbolTableRecord
100
AcDbTextStyleTableRecord
2
DWGDirectTextStyle
3
simplex
70
0
71
0
40
0
41
1
42
0
50
0
0
ENDTAB
0
TABLE
2
DIMSTYLE
5
1aa
100
AcDbSymbolTable
100
AcDbDimStyleTable
0
DIMSTYLE
105
27
100
AcDbSymbolTableRecord
100
AcDbDimStyleTableRecord
2
Standard
70
0
3
<>
41
0.18
42
0.0625
44
0.18
140
0.18
147
0.09
73
0
74
0
77
1
271
2
275
0
278
52
280
0
340
11
0
ENDTAB
0
TABLE
2
VIEW
5
1ab
100
AcDbSymbolTable
0
ENDTAB
0
TABLE
2
UCS
5
1ac
100
AcDbSymbolTable
0
ENDTAB
0
TABLE
2
APPID
5
1ad
100
AcDbSymbolTable
0
APPID
5
12
100
AcDbSymbolTableRecord
100
AcDbRegAppTableRecord
2
ACAD
70
0
0
ENDTAB
0
TABLE
2
BLOCK_RECORD
5
1ae
100
AcDbSymbolTable
0
BLOCK_RECORD
5
1F
100
AcDbSymbolTableRecord
100
AcDbBlockTableRecord
2
*Model_Space
340
0
70
0
0
BLOCK_RECORD
5
1B
100
AcDbSymbolTableRecord
100
AcDbBlockTableRecord
2
*Paper_Space
340
0
70
0
0
BLOCK_RECORD
5
23
100
AcDbSymbolTableRecord
100
AcDbBlockTableRecord
2
*Paper_Space0
340
0
70
0
0
BLOCK_RECORD
5
F1
100
AcDbSymbolTableRecord
100
AcDbBlockTableRecord
2
DimnDraft3D1
340
0
70
0
0
BLOCK_RECORD
5
FB
100
AcDbSymbolTableRecord
100
AcDbBlockTableRecord
2
DimnDraft3D2
340
0
70
0
0
BLOCK_RECORD
5
105
100
AcDbSymbolTableRecord
100
AcDbBlockTableRecord
2
DimnDraft3D3
340
0
70
0
0
BLOCK_RECORD
5
10F
100
AcDbSymbolTableRecord
100
AcDbBlockTableRecord
2
DimnDraft3D4
340
0
70
0
0
BLOCK_RECORD
5
119
100
AcDbSymbolTableRecord
100
AcDbBlockTableRecord
2
DimnDraft3D5
340
0
70
0
0
BLOCK_RECORD
5
123
100
AcDbSymbolTableRecord
100
AcDbBlockTableRecord
2
DimnDraft3D6
340
0
70
0
0
BLOCK_RECORD
5
12E
100
AcDbSymbolTableRecord
100
AcDbBlockTableRecord
2
DimnDraft3D7
340
0
70
0
0
ENDTAB
0
ENDSEC
0
SECTION
2
BLOCKS
0
BLOCK
5
20
100
AcDbEntity
8
0
100
AcDbBlockBegin
2
*Model_Space
70
0
10
0
20
0
30
0
3
*Model_Space
0
ENDBLK
5
21
100
AcDbEntity
8
0
100
AcDbBlockEnd
0
BLOCK
5
1C
100
AcDbEntity
8
0
100
AcDbBlockBegin
2
*Paper_Space
70
0
10
0
20
0
30
0
3
*Paper_Space
0
ENDBLK
5
1D
100
AcDbEntity
8
0
100
AcDbBlockEnd
0
BLOCK
5
24
100
AcDbEntity
8
0
100
AcDbBlockBegin
2
*Paper_Space0
70
0
10
0
20
0
30
0
3
*Paper_Space0
0
ENDBLK
5
25
100
AcDbEntity
8
0
100
AcDbBlockEnd
0
BLOCK
5
F8
100
AcDbEntity
8
0
100
AcDbBlockBegin
2
DimnDraft3D1
70
0
10
0
20
0
30
0
3
DimnDraft3D1
0
MTEXT
5
F2
100
AcDbEntity
8
SK2
62
256
6
ByLayer
370
13
48
1
60
0
100
AcDbMText
10
40.531375
20
-14.498398
30
0
210
0
220
0
230
1
1
\W0.7317;93,23
40
3.5
41
0
44
1.084337
50
0
71
7
72
5
7
iso_b_vert
0
LINE
5
F3
100
AcDbEntity
8
SK2
62
256
6
ByLayer
370
13
48
1
60
0
100
AcDbLine
10
0
20
-1.5875
30
0
11
0
21
-17.373398
31
0
39
0
210
0
220
0
230
1
0
LINE
5
F4
100
AcDbEntity
8
SK2
62
256
6
ByLayer
370
13
48
1
60
0
100
AcDbLine
10
93.23
20
-6.7475
30
0
11
93.23
21
-17.373398
31
0
39
0
210
0
220
0
230
1
0
LINE
5
F5
100
AcDbEntity
8
SK2
62
256
6
ByLayer
370
13
48
1
60
0
100
AcDbLine
10
0
20
-15.373398
30
0
11
93.23
21
-15.373398
31
0
39
0
210
0
220
0
230
1
0
SOLID
5
F6
100
AcDbEntity
8
SK2
62
256
6
ByLayer
370
13
48
1
60
0
100
AcDbTrace
10
0
20
-15.373398
30
0
11
3.499998
21
-14.912615
31
0
12
3.500002
22
-15.834182
32
0
13
0
23
-15.373398
33
0
39
0
210
0
220
0
230
1
0
SOLID
5
F7
100
AcDbEntity
8
SK2
62
256
6
ByLayer
370
13
48
1
60
0
100
AcDbTrace
10
93.23
20
-15.373398
30
0
11
89.730002
21
-15.834182
31
0
12
89.729998
22
-14.912615
32
0
13
93.23
23
-15.373398
33
0
39
0
210
0
220
0
230
1
0
ENDBLK
5
F9
100
AcDbEntity
8
0
100
AcDbBlockEnd
0
BLOCK
5
102
100
AcDbEntity
8
0
100
AcDbBlockBegin
2
DimnDraft3D2
70
0
10
0
20
0
30
0
3
DimnDraft3D2
0
MTEXT
5
FC
100
AcDbEntity
8
SK2
62
256
6
ByLayer
370
13
48
1
60
0
100
AcDbMText
10
19.068011
20
-33.817985
30
0
210
0
220
0
230
1
1
\W0.7145;140,00
40
3.5
41
0
44
1.084337
50
0
71
7
72
5
7
iso_b_vert
0
LINE
5
FD
100
AcDbEntity
8
SK2
62
256
6
ByLayer
370
13
48
1
60
0
100
AcDbLine
10
-45
20
-7.5875
30
0
11
-45
21
-36.692985
31
0
39
0
210
0
220
0
230
1
0
LINE
5
FE
100
AcDbEntity
8
SK2
62
256
6
ByLayer
370
13
48
1
60
0
100
AcDbLine
10
95
20
-1.5875
30
0
11
95
21
-36.692985
31
0
39
0
210
0
220
0
230
1
0
LINE
5
FF
100
AcDbEntity
8
SK2
62
256
6
ByLayer
370
13
48
1
60
0
100
AcDbLine
10
-45
20
-34.692985
30
0
11
95
21
-34.692985
31
0
39
0
210
0
220
0
230
1
0
SOLID
5
100
100
AcDbEntity
8
SK2
62
256
6
ByLayer
370
13
48
1
60
0
100
AcDbTrace
10
-45
20
-34.692985
30
0
11
-41.500002
21
-34.232202
31
0
12
-41.499998
22
-35.153769
32
0
13
-45
23
-34.692985
33
0
39
0
210
0
220
0
230
1
0
SOLID
5
101
100
AcDbEntity
8
SK2
62
256
6
ByLayer
370
13
48
1
60
0
100
AcDbTrace
10
95
20
-34.692985
30
0
11
91.500002
21
-35.153769
31
0
12
91.499998
22
-34.232202
32
0
13
95
23
-34.692985
33
0
39
0
210
0
220
0
230
1
0
ENDBLK
5
103
100
AcDbEntity
8
0
100
AcDbBlockEnd
0
BLOCK
5
10C
100
AcDbEntity
8
0
100
AcDbBlockBegin
2
DimnDraft3D3
70
0
10
0
20
0
30
0
3
DimnDraft3D3
0
MTEXT
5
106
100
AcDbEntity
8
SK2
62
256
6
ByLayer
370
13
48
1
60
0
100
AcDbMText
10
48.202105
20
17.644119
30
0
210
0
220
0
230
1
1
\W0.7581;84,33
40
3.5
41
0
44
1.084337
50
0
71
7
72
5
7
iso_b_vert
0
LINE
5
107
100
AcDbEntity
8
SK2
62
256
6
ByLayer
370
13
48
1
60
0
100
AcDbLine
10
10.67
20
6.7475
30
0
11
10.67
21
18.769119
31
0
39
0
210
0
220
0
230
1
0
LINE
5
108
100
AcDbEntity
8
SK2
62
256
6
ByLayer
370
13
48
1
60
0
100
AcDbLine
10
95
20
1.5875
30
0
11
95
21
18.769119
31
0
39
0
210
0
220
0
230
1
0
LINE
5
109
100
AcDbEntity
8
SK2
62
256
6
ByLayer
370
13
48
1
60
0
100
AcDbLine
10
10.67
20
16.769119
30
0
11
95
21
16.769119
31
0
39
0
210
0
220
0
230
1
0
SOLID
5
10A
100
AcDbEntity
8
SK2
62
256
6
ByLayer
370
13
48
1
60
0
100
AcDbTrace
10
10.67
20
16.769119
30
0
11
14.169998
21
17.229903
31
0
12
14.170002
22
16.308335
32
0
13
10.67
23
16.769119
33
0
39
0
210
0
220
0
230
1
0
SOLID
5
10B
100
AcDbEntity
8
SK2
62
256
6
ByLayer
370
13
48
1
60
0
100
AcDbTrace
10
95
20
16.769119
30
0
11
91.500002
21
16.308335
31
0
12
91.499998
22
17.229903
32
0
13
95
23
16.769119
33
0
39
0
210
0
220
0
230
1
0
ENDBLK
5
10D
100
AcDbEntity
8
0
100
AcDbBlockEnd
0
BLOCK
5
116
100
AcDbEntity
8
0
100
AcDbBlockBegin
2
DimnDraft3D4
70
0
10
0
20
0
30
0
3
DimnDraft3D4
0
MTEXT
5
110
100
AcDbEntity
8
SK2
62
256
6
ByLayer
370
13
48
1
60
0
100
AcDbMText
10
102.278136
20
-17.087503
30
0
210
0
220
0
230
1
1
\W0.6367;1,77
40
3.5
41
0
44
1.084337
50
0
71
7
72
5
7
iso_b_vert
0
LINE
5
111
100
AcDbEntity
8
SK2
62
256
6
ByLayer
370
13
48
1
60
0
100
AcDbLine
10
95
20
-1.5875
30
0
11
95
21
-19.962503
31
0
39
0
210
0
220
0
230
1
0
LINE
5
112
100
AcDbEntity
8
SK2
62
256
6
ByLayer
370
13
48
1
60
0
100
AcDbLine
10
93.23
20
-6.7475
30
0
11
93.23
21
-19.962503
31
0
39
0
210
0
220
0
230
1
0
LINE
5
113
100
AcDbEntity
8
SK2
62
256
6
ByLayer
370
13
48
1
60
0
100
AcDbLine
10
84.48
20
-17.962503
30
0
11
108.559715
21
-17.962503
31
0
39
0
210
0
220
0
230
1
0
SOLID
5
114
100
AcDbEntity
8
SK2
62
256
6
ByLayer
370
13
48
1
60
0
100
AcDbTrace
10
95
20
-17.962503
30
0
11
98.499998
21
-17.501719
31
0
12
98.500002
22
-18.423287
32
0
13
95
23
-17.962503
33
0
39
0
210
0
220
0
230
1
0
SOLID
5
115
100
AcDbEntity
8
SK2
62
256
6
ByLayer
370
13
48
1
60
0
100
AcDbTrace
10
93.23
20
-17.962503
30
0
11
89.730002
21
-18.423287
31
0
12
89.729998
22
-17.501719
32
0
13
93.23
23
-17.962503
33
0
39
0
210
0
220
0
230
1
0
ENDBLK
5
117
100
AcDbEntity
8
0
100
AcDbBlockEnd
0
BLOCK
5
120
100
AcDbEntity
8
0
100
AcDbBlockBegin
2
DimnDraft3D5
70
0
10
0
20
0
30
0
3
DimnDraft3D5
0
MTEXT
5
11A
100
AcDbEntity
8
SK2
62
256
6
ByLayer
370
13
48
1
60
0
100
AcDbMText
10
16.171597
20
-23.468428
30
0
210
0
220
0
230
1
1
\W0.6930;138,23
40
3.5
41
0
44
1.084337
50
0
71
7
72
5
7
iso_b_vert
0
LINE
5
11B
100
AcDbEntity
8
SK2
62
256
6
ByLayer
370
13
48
1
60
0
100
AcDbLine
10
-45
20
-7.5875
30
0
11
-45
21
-26.343428
31
0
39
0
210
0
220
0
230
1
0
LINE
5
11C
100
AcDbEntity
8
SK2
62
256
6
ByLayer
370
13
48
1
60
0
100
AcDbLine
10
93.23
20
-6.7475
30
0
11
93.23
21
-26.343428
31
0
39
0
210
0
220
0
230
1
0
LINE
5
11D
100
AcDbEntity
8
SK2
62
256
6
ByLayer
370
13
48
1
60
0
100
AcDbLine
10
-45
20
-24.343428
30
0
11
93.23
21
-24.343428
31
0
39
0
210
0
220
0
230
1
0
SOLID
5
11E
100
AcDbEntity
8
SK2
62
256
6
ByLayer
370
13
48
1
60
0
100
AcDbTrace
10
-45
20
-24.343428
30
0
11
-41.500002
21
-23.882645
31
0
12
-41.499998
22
-24.804212
32
0
13
-45
23
-24.343428
33
0
39
0
210
0
220
0
230
1
0
SOLID
5
11F
100
AcDbEntity
8
SK2
62
256
6
ByLayer
370
13
48
1
60
0
100
AcDbTrace
10
93.23
20
-24.343428
30
0
11
89.730002
21
-24.804212
31
0
12
89.729998
22
-23.882645
32
0
13
93.23
23
-24.343428
33
0
39
0
210
0
220
0
230
1
0
ENDBLK
5
121
100
AcDbEntity
8
0
100
AcDbBlockEnd
0
BLOCK
5
12B
100
AcDbEntity
8
0
100
AcDbBlockBegin
2
DimnDraft3D6
70
0
10
0
20
0
30
0
3
DimnDraft3D6
0
MTEXT
5
124
100
AcDbEntity
8
SK2
62
256
6
ByLayer
370
13
48
1
60
0
100
AcDbMText
10
-55.375163
20
25.34918
30
0
210
0
220
0
230
1
1
\W0.6930;12,000
40
3.5
41
0
44
1.084337
50
90
71
7
72
5
7
iso_b_vert
0
MTEXT
5
125
100
AcDbEntity
8
SK2
62
256
6
ByLayer
370
13
48
1
60
0
100
AcDbMText
10
-55.375163
20
20.126524
30
0
210
0
220
0
230
1
1
%%c
40
3.5
41
0
44
1.084337
50
90
71
7
72
5
7
iso_b_vert
0
LINE
5
126
100
AcDbEntity
8
SK2
62
256
6
ByLayer
370
13
48
1
60
0
100
AcDbLine
10
-46.5875
20
-6
30
0
11
-55.625163
21
-6
31
0
39
0
210
0
220
0
230
1
0
LINE
5
127
100
AcDbEntity
8
SK2
62
256
6
ByLayer
370
13
48
1
60
0
100
AcDbLine
10
-46.5875
20
6
30
0
11
-55.625163
21
6
31
0
39
0
210
0
220
0
230
1
0
LINE
5
128
100
AcDbEntity
8
SK2
62
256
6
ByLayer
370
13
48
1
60
0
100
AcDbLine
10
-53.625163
20
-6
30
0
11
-53.625163
21
36.862338
31
0
39
0
210
0
220
0
230
1
0
SOLID
5
129
100
AcDbEntity
8
SK2
62
256
6
ByLayer
370
13
48
1
60
0
100
AcDbTrace
10
-53.625163
20
-6
30
0
11
-54.085946
21
-2.500002
31
0
12
-53.164379
22
-2.499998
32
0
13
-53.625163
23
-6
33
0
39
0
210
0
220
0
230
1
0
SOLID
5
12A
100
AcDbEntity
8
SK2
62
256
6
ByLayer
370
13
48
1
60
0
100
AcDbTrace
10
-53.625163
20
6
30
0
11
-53.164379
21
2.500002
31
0
12
-54.085946
22
2.499998
32
0
13
-53.625163
23
6
33
0
39
0
210
0
220
0
230
1
0
ENDBLK
5
12C
100
AcDbEntity
8
0
100
AcDbBlockEnd
0
BLOCK
5
136
100
AcDbEntity
8
0
100
AcDbBlockBegin
2
DimnDraft3D7
70
0
10
0
20
0
30
0
3
DimnDraft3D7
0
MTEXT
5
12F
100
AcDbEntity
8
2
62
256
6
ByLayer
370
13
48
1
60
0
100
AcDbMText
10
105.333343
20
23.102266
30
0
210
0
220
0
230
1
1
\W0.6930;10,320
40
3.5
41
0
44
1.084337
50
90
71
7
72
5
7
iso_b_vert
0
MTEXT
5
130
100
AcDbEntity
8
2
62
256
6
ByLayer
370
13
48
1
60
0
100
AcDbMText
10
105.333343
20
17.87961
30
0
210
0
220
0
230
1
1
%%c
40
3.5
41
0
44
1.084337
50
90
71
7
72
5
7
iso_b_vert
0
LINE
5
131
100
AcDbEntity
8
2
62
256
6
ByLayer
370
13
48
1
60
0
100
AcDbLine
10
94.8175
20
-5.16
30
0
11
109.083343
21
-5.16
31
0
39
0
210
0
220
0
230
1
0
LINE
5
132
100
AcDbEntity
8
2
62
256
6
ByLayer
370
13
48
1
60
0
100
AcDbLine
10
94.8175
20
5.16
30
0
11
109.083343
21
5.16
31
0
39
0
210
0
220
0
230
1
0
LINE
5
133
100
AcDbEntity
8
2
62
256
6
ByLayer
370
13
48
1
60
0
100
AcDbLine
10
107.083343
20
-5.16
30
0
11
107.083343
21
34.615424
31
0
39
0
210
0
220
0
230
1
0
SOLID
5
134
100
AcDbEntity
8
2
62
256
6
ByLayer
370
13
48
1
60
0
100
AcDbTrace
10
107.083343
20
-5.16
30
0
11
106.622559
21
-1.660002
31
0
12
107.544126
22
-1.659998
32
0
13
107.083343
23
-5.16
33
0
39
0
210
0
220
0
230
1
0
SOLID
5
135
100
AcDbEntity
8
2
62
256
6
ByLayer
370
13
48
1
60
0
100
AcDbTrace
10
107.083343
20
5.16
30
0
11
107.544126
21
1.660002
31
0
12
106.622559
22
1.659998
32
0
13
107.083343
23
5.16
33
0
39
0
210
0
220
0
230
1
0
ENDBLK
5
137
100
AcDbEntity
8
0
100
AcDbBlockEnd
0
ENDSEC
0
SECTION
2
ENTITIES
0
ARC
5
9F
100
AcDbEntity
8
1
62
256
6
ByLayer
370
18
48
1
60
0
100
AcDbCircle
39
0
10
0
20
5.2
30
0
40
0.799999999999996
210
0
220
0
230
1
100
AcDbArc
50
26.139675
51
90
0
ARC
5
A0
100
AcDbEntity
8
1
62
256
6
ByLayer
370
18
48
1
60
0
100
AcDbCircle
39
0
10
0
20
-5.2
30
0
40
0.799999999999996
210
0
220
0
230
1
100
AcDbArc
50
270
51
333.860325
0
ARC
5
A1
100
AcDbEntity
8
1
62
256
6
ByLayer
370
18
48
1
60
0
100
AcDbCircle
39
0
10
-1.436356
20
5.904897
30
0
40
0.800000000000002
210
0
220
0
230
-1
100
AcDbArc
50
269.965623
51
333.860325
0
ARC
5
A2
100
AcDbEntity
8
1
62
256
6
ByLayer
370
18
48
1
60
0
100
AcDbCircle
39
0
10
-1.436356
20
-5.904897
30
0
40
0.800000000000002
210
0
220
0
230
-1
100
AcDbArc
50
26.139675
51
90.034377
0
ELLIPSE
5
A3
100
AcDbEntity
8
1
62
256
6
ByLayer
370
18
48
1
60
0
100
AcDbEllipse
10
6.25
20
5.127076
30
0
11
0.25
21
0
31
0
210
0
220
0
230
1
40
0.999978
41
-3.13440014400054
42
-1.56394188754732
0
ELLIPSE
5
A4
100
AcDbEntity
8
1
62
256
6
ByLayer
370
18
48
1
60
0
100
AcDbEllipse
10
6.25
20
-5.127076
30
0
11
0.25
21
0
31
0
210
0
220
0
230
1
40
0.999978
41
1.57030926625059
42
3.13440014400055
0
ELLIPSE
5
A5
100
AcDbEntity
8
1
62
256
6
ByLayer
370
18
48
1
60
0
100
AcDbEllipse
10
94.860438
20
0.112178
30
0
11
0.0868803724529399
21
0.290676908858946
31
0
210
0
220
0
230
-1
40
0.467765
41
1.64971617925676
42
2.36053717391692
0
ELLIPSE
5
A6
100
AcDbEntity
8
1
62
256
6
ByLayer
370
13
48
1
60
0
100
AcDbEllipse
10
94.302456
20
2.50855
30
0
11
3.54294602710502
21
-1.48997170487531
31
0
210
0
220
0
230
-1
40
0.444197
41
1.5981399329082
42
1.89742365864586
0
ELLIPSE
5
A7
100
AcDbEntity
8
1
62
256
6
ByLayer
370
18
48
1
60
0
100
AcDbEllipse
10
95.000437
20
-0.001127
30
0
11
1.89208092027927
21
-5.15869510103643
31
0
210
0
220
0
230
-1
40
0.082138
41
-2.98460973102288
42
-2.88926925108187
0
ELLIPSE
5
A8
100
AcDbEntity
8
1
62
256
6
ByLayer
370
18
48
1
60
0
100
AcDbEllipse
10
95.02454
20
-0.030927
30
0
11
0.135658546063559
21
0.401200806306858
31
0
210
0
220
0
230
-1
40
0.065863
41
-2.32292776273925
42
-1.63748535591076
0
ELLIPSE
5
A9
100
AcDbEntity
8
1
62
256
6
ByLayer
370
13
48
1
60
0
100
AcDbEllipse
10
94.132997
20
2.374258
30
0
11
3.49806410956473
21
-1.79831741539508
31
0
210
0
220
0
230
-1
40
0.482873
41
1.53949524914349
42
1.83173605504775
0
ELLIPSE
5
AA
100
AcDbEntity
8
1
62
256
6
ByLayer
370
18
48
1
60
0
100
AcDbEllipse
10
95.02454
20
0.030927
30
0
11
0.13565854603729
21
-0.40120080623973
31
0
210
0
220
0
230
-1
40
0.065863
41
1.63748535579197
42
2.32292776272164
0
ELLIPSE
5
AB
100
AcDbEntity
8
1
62
256
6
ByLayer
370
18
48
1
60
0
100
AcDbEllipse
10
94.028583
20
2.50855
30
0
11
0.794514529758278
21
-2.16621719868175
31
0
210
0
220
0
230
-1
40
0.082138
41
-1.55941068801433
42
-0.755280950350457
0
ELLIPSE
5
AC
100
AcDbEntity
8
1
62
256
6
ByLayer
370
18
48
1
60
0
100
AcDbEllipse
10
94.028583
20
-2.50855
30
0
11
0.794514529811519
21
2.16621719880392
31
0
210
0
220
0
230
-1
40
0.082138
41
0.755280950346536
42
1.55941068797025
0
ELLIPSE
5
AD
100
AcDbEntity
8
1
62
256
6
ByLayer
370
13
48
1
60
0
100
AcDbEllipse
10
93.543997
20
0.763976
30
0
11
0.133113781883907
21
0.268850741253513
31
0
210
0
220
0
230
1
40
0.40558
41
0.884485917130962
42
2.28074931872635
0
ELLIPSE
5
AE
100
AcDbEntity
8
1
62
256
6
ByLayer
370
18
48
1
60
0
100
AcDbEllipse
10
95.000437
20
0.001127
30
0
11
1.89208095465303
21
5.15869519997458
31
0
210
0
220
0
230
-1
40
0.082138
41
2.88926925350843
42
2.98460973251998
0
POINT
5
6C
100
AcDbEntity
8
81
62
256
6
ByLayer
370
18
48
1
60
0
100
AcDbPoint
10
95
20
0
30
0
39
0
210
0
220
0
230
1
50
360
0
POINT
5
6E
100
AcDbEntity
8
80
62
256
6
ByLayer
370
18
48
1
60
0
100
AcDbPoint
10
0
20
0
30
0
39
0
210
0
220
0
230
1
50
360
0
POINT
5
70
100
AcDbEntity
8
SK2
62
256
6
ByLayer
370
18
48
1
60
1
100
AcDbPoint
10
-45
20
-6
30
0
39
0
210
0
220
0
230
1
50
360
0
POINT
5
72
100
AcDbEntity
8
SK2
62
256
6
ByLayer
370
18
48
1
60
1
100
AcDbPoint
10
-45
20
6
30
0
39
0
210
0
220
0
230
1
50
360
0
POINT
5
73
100
AcDbEntity
8
2
62
256
6
ByLayer
370
18
48
1
60
1
100
AcDbPoint
10
93.23
20
-5.16
30
0
39
0
210
0
220
0
230
1
50
360
0
POINT
5
75
100
AcDbEntity
8
2
62
256
6
ByLayer
370
18
48
1
60
1
100
AcDbPoint
10
93.23
20
5.16
30
0
39
0
210
0
220
0
230
1
50
360
0
SPLINE
5
AF
100
AcDbEntity
8
1
62
256
6
ByLayer
370
18
48
1
60
0
100
AcDbSpline
70
4
71
1
72
4
73
2
40
0
40
0
40
1
40
1
41
1
10
17.0972813545741
20
0.0079193786750125
30
0
41
1
10
17.0972630950308
20
0.0079250381137967
30
0
0
SPLINE
5
B0
100
AcDbEntity
8
1
62
256
6
ByLayer
370
18
48
1
60
0
100
AcDbSpline
70
4
71
3
72
14
73
10
40
0
40
0
40
0
40
0
40
0.126021952678458
40
0.317923225864143
40
0.503528988262259
40
0.59321464767824
40
0.691340236305775
40
0.846962239309106
40
1
40
1
40
1
40
1
41
1
10
78.8028986388736
20
-1.41234064155313
30
0
41
1
10
78.8041036544304
20
-1.41269772109422
30
0
41
1
10
78.8067876022154
20
-1.41345032568728
30
0
41
1
10
78.8022824303178
20
-1.41145303513198
30
0
41
1
10
78.807864252358
20
-1.41438384119127
30
0
41
1
10
78.8568088002993
20
-1.43781698045618
30
0
41
1
10
78.9279696643468
20
-1.47252748256548
30
0
41
1
10
79.0378335668535
20
-1.52711169712211
30
0
41
1
10
79.1246699270575
20
-1.57159606698048
30
0
41
1
10
79.1702375199183
20
-1.59517778526711
30
0
0
SPLINE
5
B1
100
AcDbEntity
8
1
62
256
6
ByLayer
370
18
48
1
60
0
100
AcDbSpline
70
4
71
2
72
6
73
3
40
0
40
0
40
0
40
1
40
1
40
1
41
1
10
77.0043294959333
20
0.0045846577012583
30
0
41
1
10
77.0043091661201
20
0.0045953464378101
30
0
41
1
10
77.0042888363622
20
0.0046063252944464
30
0
0
SPLINE
5
B2
100
AcDbEntity
8
1
62
256
6
ByLayer
370
18
48
1
60
0
100
AcDbSpline
70
4
71
3
72
31
73
27
40
0
40
0
40
0
40
0
40
0.0523214743769959
40
0.0975033557973391
40
0.130093941194219
40
0.151065787703855
40
0.172466556425209
40
0.229301589221191
40
0.273227729708608
40
0.321920019750741
40
0.389637751421919
40
0.445093028183451
40
0.496490973753454
40
0.555314644036419
40
0.591835635764733
40
0.626146379971926
40
0.656830868897466
40
0.683340893264057
40
0.708317201559663
40
0.741979196394901
40
0.781756969666696
40
0.815550759271783
40
0.861677196297561
40
0.916816120167989
40
0.98231775973121
40
1
40
1
40
1
40
1
41
1
10
32.298576310825
20
-4.89215202805312
30
0
41
1
10
32.5578009055669
20
-4.8924443249993
30
0
41
1
10
33.0409084242376
20
-4.89293980017419
30
0
41
1
10
33.68564875194
20
-4.89348715588127
30
0
41
1
10
34.1749688806388
20
-4.89381715520713
30
0
41
1
10
34.5464593433968
20
-4.89416745079379
30
0
41
1
10
35.0381022597528
20
-4.89491546385668
30
0
41
1
10
35.6434710231274
20
-4.89638654879428
30
0
41
1
10
36.3841294193692
20
-4.89604305197801
30
0
41
1
10
37.1786671484311
20
-4.89521665359189
30
0
41
1
10
38.0303776091458
20
-4.89965426694516
30
0
41
1
10
38.8954867660806
20
-4.89842826745144
30
0
41
1
10
39.7165323097639
20
-4.8964637418849
30
0
41
1
10
40.4437332579726
20
-4.90105818376975
30
0
41
1
10
41.0862651555702
20
-4.90113992395757
30
0
41
1
10
41.5893459290617
20
-4.90073294523725
30
0
41
1
10
42.0428156042593
20
-4.90019689126703
30
0
41
1
10
42.4500260611716
20
-4.90024518993897
30
0
41
1
10
42.8719981640005
20
-4.90110514223082
30
0
41
1
10
43.3596863629184
20
-4.90388776550452
30
0
41
1
10
43.8912114881236
20
-4.9030942326182
30
0
41
1
10
44.483983894209
20
-4.90231622319288
30
0
41
1
10
45.1543427343676
20
-4.90128032400557
30
0
41
1
10
45.9755025711294
20
-4.90598588561622
30
0
41
1
10
46.6617385162489
20
-4.90282637153607
30
0
41
1
10
47.0721264460616
20
-4.90333816940159
30
0
41
1
10
47.1593461472529
20
-4.90344963683663
30
0
0
SPLINE
5
B3
100
AcDbEntity
8
1
62
256
6
ByLayer
370
18
48
1
60
0
100
AcDbSpline
70
4
71
3
72
12
73
8
40
0
40
0
40
0
40
0
40
0.102241270640572
40
0.204778308599271
40
0.398797884932863
40
0.713176112739022
40
1
40
1
40
1
40
1
41
1
10
48.8435697362602
20
-1.40782669862958
30
0
41
1
10
48.8431297490283
20
-1.4076726674183
30
0
41
1
10
48.8445398457221
20
-1.40840777514086
30
0
41
1
10
48.864060775335
20
-1.41754111616223
30
0
41
1
10
48.9499602572077
20
-1.45855800658819
30
0
41
1
10
49.0639532890231
20
-1.5150828752634
30
0
41
1
10
49.1605227495424
20
-1.56436390731972
30
0
41
1
10
49.2082996091783
20
-1.58907268482531
30
0
0
SPLINE
5
B4
100
AcDbEntity
8
1
62
256
6
ByLayer
370
18
48
1
60
0
100
AcDbSpline
70
4
71
3
72
36
73
32
40
0
40
0
40
0
40
0
40
0.0562560842176969
40
0.105096833407954
40
0.146433287786483
40
0.178161325352134
40
0.201724264018249
40
0.235479443266624
40
0.27532998287657
40
0.311013913235319
40
0.347525472618693
40
0.379248970761866
40
0.407646063148615
40
0.435209377706416
40
0.472482022441228
40
0.514853562674983
40
0.553862410859271
40
0.590791947765956
40
0.634226755239654
40
0.6810067852677
40
0.71801089424954
40
0.745664016515647
40
0.76883289136972
40
0.800454530194129
40
0.834579578242233
40
0.863386855357358
40
0.886889779940592
40
0.906289872765434
40
0.932824127693702
40
0.969254147703797
40
1
40
1
40
1
40
1
41
1
10
62.1697617863268
20
-4.91018344342217
30
0
41
1
10
62.4442709605433
20
-4.90985325951968
30
0
41
1
10
62.9575110002742
20
-4.90968449915641
30
0
41
1
10
63.6829684081826
20
-4.91040180834301
30
0
41
1
10
64.2733773922426
20
-4.91216090379709
30
0
41
1
10
64.7509429324545
20
-4.9124550688241
30
0
41
1
10
65.1885238217338
20
-4.91279433948384
30
0
41
1
10
65.6675109381366
20
-4.91268044540891
30
0
41
1
10
66.2057406645254
20
-4.91243138821616
30
0
41
1
10
66.7577003538344
20
-4.91339104502762
30
0
41
1
10
67.2695743459371
20
-4.91469472152829
30
0
41
1
10
67.7455678125865
20
-4.91461402317023
30
0
41
1
10
68.1774943289223
20
-4.91435823826791
30
0
41
1
10
68.636742630209
20
-4.91415067526142
30
0
41
1
10
69.1648419673616
20
-4.91455188550231
30
0
41
1
10
69.7493026847633
20
-4.917399526883
30
0
41
1
10
70.3320383996315
20
-4.91714922341984
30
0
41
1
10
70.9200383369785
20
-4.91670729735387
30
0
41
1
10
71.546352724011
20
-4.91487536200691
30
0
41
1
10
72.1729898166541
20
-4.91786869122984
30
0
41
1
10
72.7219049398629
20
-4.91697928600971
30
0
41
1
10
73.1545271361171
20
-4.91609941469085
30
0
41
1
10
73.5606344011922
20
-4.91543772718026
30
0
41
1
10
73.9986151582658
20
-4.91521688890288
30
0
41
1
10
74.4643819648068
20
-4.91597950683567
30
0
41
1
10
74.8901371324244
20
-4.91996864375272
30
0
41
1
10
75.2433706529655
20
-4.92138546818384
30
0
41
1
10
75.5854106134489
20
-4.92229029102657
30
0
41
1
10
75.9911277975283
20
-4.92285606164592
30
0
41
1
10
76.452726641058
20
-4.92236034817574
30
0
41
1
10
76.7836277647184
20
-4.92152866043514
30
0
41
1
10
76.9350788746517
20
-4.92101911834399
30
0
0
SPLINE
5
B5
100
AcDbEntity
8
1
62
256
6
ByLayer
370
18
48
1
60
0
100
AcDbSpline
70
4
71
2
72
6
73
3
40
0
40
0
40
0
40
1
40
1
40
1
41
1
10
92.206066111185
20
-4.92820855729741
30
0
41
1
10
92.7078416439009
20
-4.92421571310697
30
0
41
1
10
93.2096139425126
20
-4.93092141696803
30
0
0
SPLINE
5
B6
100
AcDbEntity
8
1
62
256
6
ByLayer
370
18
48
1
60
0
100
AcDbSpline
70
4
71
3
72
29
73
25
40
0
40
0
40
0
40
0
40
0.0060499293215533
40
0.0738600098843719
40
0.129706421052223
40
0.178154317803199
40
0.219873574857454
40
0.263250064716459
40
0.313936143689719
40
0.374744059970493
40
0.429636397746503
40
0.489977196169785
40
0.564770833010813
40
0.623299149850077
40
0.661824591695325
40
0.69585857919249
40
0.742329427478209
40
0.797235911039502
40
0.84621517104332
40
0.888128266603378
40
0.917311122196931
40
0.949585849007522
40
0.983671640594762
40
1
40
1
40
1
40
1
41
1
10
77.0770592180824
20
4.920200867083
30
0
41
1
10
77.0523947910814
20
4.92025932173294
30
0
41
1
10
76.7512560262123
20
4.92095810957832
30
0
41
1
10
76.2192800514411
20
4.92207154471654
30
0
41
1
10
75.5184946156957
20
4.92234643451789
30
0
41
1
10
74.9223451335005
20
4.92033078126988
30
0
41
1
10
74.3761637139708
20
4.91545019049516
30
0
41
1
10
73.8210424209887
20
4.91523705204622
30
0
41
1
10
73.1877691165771
20
4.91573513848746
30
0
41
1
10
72.507442037633
20
4.91835617286063
30
0
41
1
10
71.7876289360368
20
4.91514212737758
30
0
41
1
10
71.0106310553129
20
4.91641062288323
30
0
41
1
10
70.2187678903669
20
4.91755608749094
30
0
41
1
10
69.5161031063917
20
4.91652652243988
30
0
41
1
10
68.9800997128374
20
4.91421925748708
30
0
41
1
10
68.4934083560407
20
4.91421523115937
30
0
41
1
10
67.9397352633456
20
4.91446610056082
30
0
41
1
10
67.32493887781
20
4.91487458656857
30
0
41
1
10
66.7287870582205
20
4.91328317066513
30
0
41
1
10
66.2378266947387
20
4.91254731865237
30
0
41
1
10
65.8151510069764
20
4.91263576935961
30
0
41
1
10
65.4244902537003
20
4.91273306654213
30
0
41
1
10
65.0863894932805
20
4.91273579425621
30
0
41
1
10
64.880248718
20
4.91264824817921
30
0
41
1
10
64.8134840822661
20
4.91260677664494
30
0
0
SPLINE
5
B7
100
AcDbEntity
8
1
62
256
6
ByLayer
370
18
48
1
60
0
100
AcDbSpline
70
4
71
3
72
30
73
26
40
0
40
0
40
0
40
0
40
0.009177259185036
40
0.0790658875270147
40
0.139748882166903
40
0.191503149278645
40
0.239039222357793
40
0.299739420378315
40
0.345674448985908
40
0.379022329423995
40
0.411776586251844
40
0.450078742638906
40
0.493349648954794
40
0.539623435295556
40
0.5873876110263
40
0.632980180083638
40
0.673117651164688
40
0.715680046676754
40
0.767095905798569
40
0.822297834771481
40
0.865033774535219
40
0.89221129271416
40
0.92381554079387
40
0.964157258795472
40
1
40
1
40
1
40
1
41
1
10
47.171869160634
20
4.90323527680584
30
0
41
1
10
47.1345260476203
20
4.90318325064931
30
0
41
1
10
46.8127543898294
20
4.90276668786703
30
0
41
1
10
46.2371820729989
20
4.90537449541466
30
0
41
1
10
45.4997605360061
20
4.90283982402454
30
0
41
1
10
44.8441442791735
20
4.90165206692265
30
0
41
1
10
44.1902735311858
20
4.90263511016246
30
0
41
1
10
43.5592611482843
20
4.90414470314431
30
0
41
1
10
42.9865287015156
20
4.90170033732147
30
0
41
1
10
42.5280971869715
20
4.90028441651967
30
0
41
1
10
42.1009039581418
20
4.90015592903043
30
0
41
1
10
41.6331075619579
20
4.90069462874172
30
0
41
1
10
41.1099933555447
20
4.90106797661932
30
0
41
1
10
40.5481589174223
20
4.90136039800598
30
0
41
1
10
39.9768377317286
20
4.89727847223068
30
0
41
1
10
39.4306115319619
20
4.89755070061577
30
0
41
1
10
38.9056733619663
20
4.89826536615618
30
0
41
1
10
38.3569078271542
20
4.89907286258224
30
0
41
1
10
37.7465117856814
20
4.89823153963405
30
0
41
1
10
37.135401425182
20
4.89552277010023
30
0
41
1
10
36.6234589791971
20
4.89586292360141
30
0
41
1
10
36.2081159311225
20
4.89608220264833
30
0
41
1
10
35.8025136408146
20
4.89623534118368
30
0
41
1
10
35.3614922313488
20
4.89576563781543
30
0
41
1
10
35.0497692590382
20
4.89503391984428
30
0
41
1
10
34.9031109982721
20
4.89475123675351
30
0
0
SPLINE
5
B8
100
AcDbEntity
8
1
62
256
6
ByLayer
370
18
48
1
60
0
100
AcDbSpline
70
4
71
3
72
28
73
24
40
0
40
0
40
0
40
0
40
0.052692380780469
40
0.113939797351051
40
0.160791890791684
40
0.193464559786019
40
0.218804454845075
40
0.281142876430545
40
0.348779958435883
40
0.398111700111145
40
0.448720909504194
40
0.507388653422436
40
0.57014333920523
40
0.61378855079206
40
0.647294523808958
40
0.681161173706534
40
0.732291018488931
40
0.791004778343655
40
0.844270875143723
40
0.906073297814445
40
0.957226184364246
40
0.974606669045245
40
1
40
1
40
1
40
1
41
1
10
6.25090658611629
20
-4.8771268847093
30
0
41
1
10
6.44021880793136
20
-4.87787578839948
30
0
41
1
10
6.84958555472923
20
-4.8793225883831
30
0
41
1
10
7.42734332316567
20
-4.88090695151337
30
0
41
1
10
7.93311765205115
20
-4.881749454073
30
0
41
1
10
8.30990104403827
20
-4.88209970794588
30
0
41
1
10
8.74233145848089
20
-4.8823030922751
30
0
41
1
10
9.30039394225818
20
-4.88222393058291
30
0
41
1
10
9.94467084949301
20
-4.88193551636826
30
0
41
1
10
10.5466900519732
20
-4.88176791074602
30
0
41
1
10
11.1165812897637
20
-4.88290912104259
30
0
41
1
10
11.7347078815777
20
-4.8854185795077
30
0
41
1
10
12.3277744006222
20
-4.88564941040173
30
0
41
1
10
12.8304603589887
20
-4.88608410797167
30
0
41
1
10
13.2293524443448
20
-4.88625273698864
30
0
41
1
10
13.6551451364849
20
-4.88645336484862
30
0
41
1
10
14.1715062462225
20
-4.88790847195645
30
0
41
1
10
14.7575726739249
20
-4.88802702761899
30
0
41
1
10
15.3819923089036
20
-4.88739079817
30
0
41
1
10
15.9792297194879
20
-4.88730127284876
30
0
41
1
10
16.4475653478604
20
-4.88843974630106
30
0
41
1
10
16.7849886624035
20
-4.88892204873213
30
0
41
1
10
16.9386798732977
20
-4.88903974325518
30
0
41
1
10
17.029926137904
20
-4.88907427967197
30
0
0
SPLINE
5
B9
100
AcDbEntity
8
1
62
256
6
ByLayer
370
18
48
1
60
0
100
AcDbSpline
70
4
71
3
72
29
73
25
40
0
40
0
40
0
40
0
40
0.0041583327821228
40
0.0295683917567702
40
0.0485868891080358
40
0.0695425940928895
40
0.0924459095138191
40
0.153985962421085
40
0.225211395519687
40
0.28092038548917
40
0.325839253058044
40
0.356013319260516
40
0.388421409869303
40
0.42984722194264
40
0.509404174577823
40
0.57987996026086
40
0.641481729328555
40
0.717006387494826
40
0.756434201918101
40
0.789804536232881
40
0.820857024069367
40
0.868602468567603
40
0.93591808182529
40
1
40
1
40
1
40
1
41
1
10
17.0297444057191
20
4.88906142774724
30
0
41
1
10
17.0148034827253
20
4.88906053518917
30
0
41
1
10
16.9085646705708
20
4.88904451866566
30
0
41
1
10
16.7339912217121
20
4.88886329853446
30
0
41
1
10
16.4991015013483
20
4.88848959564902
30
0
41
1
10
16.2731808542455
20
4.88799910497505
30
0
41
1
10
15.8944797198857
20
4.88735449086491
30
0
41
1
10
15.3351569074859
20
4.88735474416234
30
0
41
1
10
14.6579607126418
20
4.88823801400278
30
0
41
1
10
14.0404884996266
20
4.88749251304503
30
0
41
1
10
13.5705148935584
20
4.88637702106826
30
0
41
1
10
13.1842586587971
20
4.88624366326417
30
0
41
1
10
12.8105600061443
20
4.88606587527767
30
0
41
1
10
12.2594312841378
20
4.88559833726069
30
0
41
1
10
11.5715649998159
20
4.88534969761605
30
0
41
1
10
10.8111127895296
20
4.88168045918471
30
0
41
1
10
10.0653163252289
20
4.88191657885522
30
0
41
1
10
9.43095208766474
20
4.88216369362775
30
0
41
1
10
8.89802131569604
20
4.88229122801599
30
0
41
1
10
8.52488573556948
20
4.88222058110171
30
0
41
1
10
8.1218548132035
20
4.88196365288209
30
0
41
1
10
7.59690151475331
20
4.88127611396138
30
0
41
1
10
6.95322452367125
20
4.87967139748733
30
0
41
1
10
6.48113661123486
20
4.87803366677144
30
0
41
1
10
6.25090345899875
20
4.87711108652241
30
0
0
SPLINE
5
BA
100
AcDbEntity
8
1
62
256
6
ByLayer
370
18
48
1
60
0
100
AcDbSpline
70
4
71
3
72
24
73
20
40
0
40
0
40
0
40
0
40
0.125
40
0.125
40
0.156249999999998
40
0.156249999999998
40
0.187499999999997
40
0.187499999999997
40
0.25
40
0.25
40
0.375
40
0.375
40
0.5
40
0.5
40
0.625
40
0.625
40
0.75
40
0.75
40
1
40
1
40
1
40
1
41
1
10
87.8720575385169
20
2.03194879183741
30
0
41
1
10
87.9336869070955
20
1.77146397097266
30
0
41
1
10
88.0283797158349
20
1.51112227545798
30
0
41
1
10
88.1813732311526
20
1.18584505195156
30
0
41
1
10
88.2137159187485
20
1.12084209812826
30
0
41
1
10
88.2808544667923
20
0.992540258550207
30
0
41
1
10
88.3157522982239
20
0.929018336755775
30
0
41
1
10
88.4241252295631
20
0.740194580040708
30
0
41
1
10
88.5012673280235
20
0.616628864854192
30
0
41
1
10
88.7454942060517
20
0.251992082781868
30
0
41
1
10
88.9264420556745
20
0.015809778674253
30
0
41
1
10
89.3046770184088
20
-0.431059347261737
30
0
41
1
10
89.5030461394765
20
-0.64349988802482
30
0
41
1
10
89.9143125049686
20
-1.05111673143284
30
0
41
1
10
90.1272464665596
20
-1.24624940188301
30
0
41
1
10
90.5654257542414
20
-1.62188475079654
30
0
41
1
10
90.7887235534591
20
-1.80065504954214
30
0
41
1
10
91.466143911241
20
-2.31149257919267
30
0
41
1
10
91.9291111556243
20
-2.61980510583876
30
0
41
1
10
92.4015765189642
20
-2.90114180640285
30
0
0
SPLINE
5
BB
100
AcDbEntity
8
1
62
256
6
ByLayer
370
18
48
1
60
0
100
AcDbSpline
70
4
71
3
72
26
73
22
40
0
40
0
40
0
40
0
40
0.0194139877127537
40
0.0194139877127537
40
0.182844989760627
40
0.182844989760627
40
0.264560490784564
40
0.264560490784564
40
0.305418241296532
40
0.305418241296532
40
0.3462759918085
40
0.3462759918085
40
0.509706993856375
40
0.509706993856375
40
0.591422494880313
40
0.591422494880313
40
0.67313799590425
40
0.67313799590425
40
0.836568997952125
40
0.836568997952125
40
1
40
1
40
1
40
1
41
1
10
6.00076600633102
20
-5.10763248755265
30
0
41
1
10
6.00076667821625
20
-5.10761827759242
30
0
41
1
10
6.00076734450485
20
-5.10711255177253
30
0
41
1
10
6.00077356822752
20
-5.09768382523649
30
0
41
1
10
6.00077863641241
20
-5.05481176082233
30
0
41
1
10
6.00078593853613
20
-4.94061746707976
30
0
41
1
10
6.00078832062496
20
-4.89417467305756
30
0
41
1
10
6.00079185625754
20
-4.81158595185931
30
0
41
1
10
6.0007930310247
20
-4.78181859991722
30
0
41
1
10
6.00079534874783
20
-4.71857034740918
30
0
41
1
10
6.00079649421823
20
-4.68504090341591
30
0
41
1
10
6.0008021678747
20
-4.50803719163224
30
0
41
1
10
6.00080654682597
20
-4.33677301491704
30
0
41
1
10
6.00081298373229
20
-4.03520254638892
30
0
41
1
10
6.00081511657942
20
-3.92649893750809
30
0
41
1
10
6.00081924436529
20
-3.69788235355429
30
0
41
1
10
6.00082124370488
20
-3.5778724846667
30
0
41
1
10
6.00082701334432
20
-3.201142057867
30
0
41
1
10
6.00083057070214
20
-2.92756477402358
30
0
41
1
10
6.00083663651276
20
-2.33559126534024
30
0
41
1
10
6.00083904362879
20
-2.0267012727615
30
0
41
1
10
6.00084054372334
20
-1.70540549251993
30
0
0
SPLINE
5
BC
100
AcDbEntity
8
1
62
256
6
ByLayer
370
18
48
1
60
0
100
AcDbSpline
70
4
71
3
72
94
73
90
40
0
40
0
40
0
40
0
40
0.0020080700747146
40
0.0020080700747146
40
0.0182018769762721
40
0.0182018769762721
40
0.0505894907793853
40
0.0505894907793853
40
0.0829771045824985
40
0.0829771045824985
40
0.099170911484055
40
0.099170911484055
40
0.115364718385611
40
0.115364718385611
40
0.147752332188722
40
0.147752332188722
40
0.180139945991834
40
0.180139945991834
40
0.212527559794945
40
0.212527559794945
40
0.244915173598057
40
0.244915173598057
40
0.261108980499612
40
0.261108980499612
40
0.277302787401168
40
0.277302787401168
40
0.30969040120428
40
0.30969040120428
40
0.325884208105836
40
0.325884208105836
40
0.342078015007393
40
0.342078015007393
40
0.374465628810505
40
0.374465628810505
40
0.390659435712062
40
0.390659435712062
40
0.406853242613618
40
0.406853242613618
40
0.439240856416731
40
0.439240856416731
40
0.455434663318287
40
0.455434663318287
40
0.471628470219843
40
0.471628470219843
40
0.504016084022955
40
0.504016084022955
40
0.536403697826066
40
0.536403697826066
40
0.568791311629177
40
0.568791311629177
40
0.601178925432289
40
0.601178925432289
40
0.617372732333845
40
0.617372732333845
40
0.633566539235401
40
0.633566539235401
40
0.665954153038513
40
0.665954153038513
40
0.68214795994007
40
0.68214795994007
40
0.698341766841626
40
0.698341766841626
40
0.730729380644738
40
0.730729380644738
40
0.746923187546294
40
0.746923187546294
40
0.76311699444785
40
0.76311699444785
40
0.795504608250961
40
0.795504608250961
40
0.811698415152517
40
0.811698415152517
40
0.827892222054073
40
0.827892222054073
40
0.860279835857184
40
0.860279835857184
40
0.892667449660295
40
0.892667449660295
40
0.908861256561851
40
0.908861256561851
40
0.925055063463407
40
0.925055063463407
40
0.957442677266519
40
0.957442677266519
40
0.973636484168075
40
0.973636484168075
40
0.989830291069631
40
0.989830291069631
40
1
40
1
40
1
40
1
41
1
10
83.7931544045907
20
-3.70797365109817
30
0
41
1
10
83.7686305980098
20
-3.71634108462635
30
0
41
1
10
83.7441020352093
20
-3.72466999623455
30
0
41
1
10
83.5217151835002
20
-3.79980509666791
30
0
41
1
10
83.3234158023803
20
-3.8642049068261
30
0
41
1
10
82.7290899642254
20
-4.04923537607999
30
0
41
1
10
82.3334643894495
20
-4.16188461998138
30
0
41
1
10
81.5433829072217
20
-4.36628303420332
30
0
41
1
10
81.149027072994
20
-4.45796810861549
30
0
41
1
10
80.555681507911
20
-4.57625416023402
30
0
41
1
10
80.3577113192191
20
-4.61270647240343
30
0
41
1
10
79.9612609194158
20
-4.67780179545696
30
0
41
1
10
79.7628666766228
20
-4.70718047709462
30
0
41
1
10
79.1686969847831
20
-4.7880370583562
30
0
41
1
10
78.7737254592974
20
-4.83118171657952
30
0
41
1
10
77.9824619811688
20
-4.89307930448479
30
0
41
1
10
77.5865595674773
20
-4.91225886764542
30
0
41
1
10
76.7942206115568
20
-4.92519126862612
30
0
41
1
10
76.3978622296999
20
-4.91869769530612
30
0
41
1
10
75.6063782495071
20
-4.87802834280737
30
0
41
1
10
75.2108799913471
20
-4.84455248158002
30
0
41
1
10
74.6177307968784
20
-4.77219042377052
30
0
41
1
10
74.4200059947522
20
-4.74524610014839
30
0
41
1
10
74.0246803148455
20
-4.68660832617596
30
0
41
1
10
73.8269665932552
20
-4.65465754808471
30
0
41
1
10
73.2327904716751
20
-4.55052268919701
30
0
41
1
10
72.8358693428652
20
-4.47014762319412
30
0
41
1
10
72.2423226843601
20
-4.331303911731
30
0
41
1
10
72.0446690439117
20
-4.28108505186975
30
0
41
1
10
71.6496281399386
20
-4.17617366619936
30
0
41
1
10
71.4522818420034
20
-4.12139699398821
30
0
41
1
10
70.8595317343306
20
-3.94992440599708
30
0
41
1
10
70.4637183458652
20
-3.82581128663807
30
0
41
1
10
69.8688197892684
20
-3.62341783047802
30
0
41
1
10
69.6705596144826
20
-3.55337973598205
30
0
41
1
10
69.2748953587123
20
-3.40765979359165
30
0
41
1
10
69.077424565074
20
-3.332311493417
30
0
41
1
10
68.4846688073216
20
-3.1022316156926
30
0
41
1
10
68.0892332254777
20
-2.94228572816891
30
0
41
1
10
67.495745825412
20
-2.69074442694628
30
0
41
1
10
67.2978504418175
20
-2.60495082528919
30
0
41
1
10
66.9018894193875
20
-2.42907468352473
30
0
41
1
10
66.7037947844813
20
-2.33878752562555
30
0
41
1
10
66.1096522184294
20
-2.06454327632099
30
0
41
1
10
65.7136455893061
20
-1.87820468368858
30
0
41
1
10
64.922144287623
20
-1.49658513414931
30
0
41
1
10
64.5266671597763
20
-1.30118656579927
30
0
41
1
10
63.7359020854082
20
-0.901260669944577
30
0
41
1
10
63.3389582151045
20
-0.699317786324002
30
0
41
1
10
62.5460206996783
20
-0.294067507970652
30
0
41
1
10
62.1501908081325
20
-0.0906441459550535
30
0
41
1
10
61.5576053369125
20
0.215953631964908
30
0
41
1
10
61.3601276715894
20
0.318116268220337
30
0
41
1
10
60.9646527150673
20
0.521247762283792
30
0
41
1
10
60.766736164948
20
0.622356333717534
30
0
41
1
10
60.1724865349159
20
0.924380473535962
30
0
41
1
10
59.7751377005146
20
1.12428250242331
30
0
41
1
10
59.1816587055918
20
1.41946079331109
30
0
41
1
10
58.9841783737388
20
1.51706255762247
30
0
41
1
10
58.5889038567868
20
1.70937083580284
30
0
41
1
10
58.3911836259716
20
1.80435269587937
30
0
41
1
10
57.7978465742989
20
2.085440039567
30
0
41
1
10
57.4020423404693
20
2.26798946448747
30
0
41
1
10
56.8080462513569
20
2.53375754439875
30
0
41
1
10
56.609926786071
20
2.62121084487384
30
0
41
1
10
56.2138513430257
20
2.7913491954177
30
0
41
1
10
56.0158914091811
20
2.87421013684769
30
0
41
1
10
55.422021271665
20
3.11763647254304
30
0
41
1
10
55.026296510091
20
3.27208699636751
30
0
41
1
10
54.4330858342274
20
3.4916884924684
30
0
41
1
10
54.2355245840388
20
3.56295519399157
30
0
41
1
10
53.8400596205648
20
3.70027240856123
30
0
41
1
10
53.6420650385424
20
3.76604645986643
30
0
41
1
10
53.0471875736055
20
3.95605913062045
30
0
41
1
10
52.650341834467
20
4.07373612558814
30
0
41
1
10
51.8587775059061
20
4.28753488307686
30
0
41
1
10
51.4641059641709
20
4.38427975469486
30
0
41
1
10
50.87064201172
20
4.50893289081625
30
0
41
1
10
50.6726330004329
20
4.54728311624655
30
0
41
1
10
50.2763087654028
20
4.61951654775237
30
0
41
1
10
50.0779241090707
20
4.6529442953906
30
0
41
1
10
49.4827115013875
20
4.74453496709924
30
0
41
1
10
49.0874892327854
20
4.79428609048432
30
0
41
1
10
48.494340667613
20
4.84725355660507
30
0
41
1
10
48.2965925175482
20
4.86108135500032
30
0
41
1
10
47.9009383971763
20
4.88292015961366
30
0
41
1
10
47.7030414416459
20
4.89135418751283
30
0
41
1
10
47.3807858801954
20
4.90022372961314
30
0
41
1
10
47.2564536902341
20
4.90248800413369
30
0
41
1
10
47.1321120574181
20
4.90353739532509
30
0
0
SPLINE
5
BD
100
AcDbEntity
8
1
62
256
6
ByLayer
370
18
48
1
60
0
100
AcDbSpline
70
4
71
3
72
32
73
28
40
0
40
0
40
0
40
0
40
0.007050063020061
40
0.007050063020061
40
0.106345056718048
40
0.106345056718048
40
0.155992553567043
40
0.155992553567043
40
0.205640050416037
40
0.205640050416037
40
0.30493504411403
40
0.30493504411403
40
0.354582540963027
40
0.354582540963027
40
0.404230037812025
40
0.404230037812025
40
0.503525031510019
40
0.503525031510019
40
0.602820025208016
40
0.602820025208016
40
0.702115018906012
40
0.702115018906012
40
0.801410012604008
40
0.801410012604008
40
0.900705006302005
40
0.900705006302005
40
1
40
1
40
1
40
1
41
1
10
23.8897230489363
20
-3.6873646194733
30
0
41
1
10
23.8616521175349
20
-3.69683086635439
30
0
41
1
10
23.8335770971551
20
-3.70624866919249
30
0
41
1
10
23.4100149596514
20
-3.84755920161885
30
0
41
1
10
23.013658650472
20
-3.97010075433565
30
0
41
1
10
22.4185729221934
20
-4.13854547423199
30
0
41
1
10
22.2204880727197
20
-4.19196531423293
30
0
41
1
10
21.8250183099568
20
-4.29242944313873
30
0
41
1
10
21.6275638919839
20
-4.33967880133841
30
0
41
1
10
21.0346737253423
20
-4.47393518648786
30
0
41
1
10
20.6391540521568
20
-4.55237918571063
30
0
41
1
10
20.045534748792
20
-4.65255552127849
30
0
41
1
10
19.8475934676629
20
-4.68308586620071
30
0
41
1
10
19.4516204494988
20
-4.73774206910477
30
0
41
1
10
19.2535001154182
20
-4.76159950207725
30
0
41
1
10
18.6593118296337
20
-4.82342820055257
30
0
41
1
10
18.2633558743615
20
-4.853610707797
30
0
41
1
10
17.4721391468871
20
-4.88856489391483
30
0
41
1
10
17.0771029426138
20
-4.89355640234749
30
0
41
1
10
16.2865527420816
20
-4.87654675292109
30
0
41
1
10
15.8898593504241
20
-4.85500547633075
30
0
41
1
10
15.0963579411785
20
-4.78927508291056
30
0
41
1
10
14.7005947331105
20
-4.74450544742228
30
0
41
1
10
13.9107704304925
20
-4.62816570878979
30
0
41
1
10
13.5156861702759
20
-4.55752105484382
30
0
41
1
10
12.7244969231146
20
-4.39504593560989
30
0
41
1
10
12.328398675224
20
-4.30241144070001
30
0
41
1
10
11.9318370432975
20
-4.19771980262109
30
0
0
SPLINE
5
BE
100
AcDbEntity
8
1
62
256
6
ByLayer
370
18
48
1
60
0
100
AcDbSpline
70
4
71
3
72
12
73
8
40
0
40
0
40
0
40
0
40
0.249999999999981
40
0.249999999999981
40
0.499999999999962
40
0.499999999999962
40
1
40
1
40
1
40
1
41
1
10
93.2476835347305
20
-4.98397289708126
30
0
41
1
10
93.2525215823148
20
-4.97089690327593
30
0
41
1
10
93.2571460095081
20
-4.95761863983367
30
0
41
1
10
93.2647994644511
20
-4.93370324550648
30
0
41
1
10
93.26780868826
20
-4.92310837231847
30
0
41
1
10
93.2733159446091
20
-4.8992585813844
30
0
41
1
10
93.2722666695083
20
-4.89469683593416
30
0
41
1
10
93.2685884846496
20
-4.89777999072916
30
0
0
SPLINE
5
BF
100
AcDbEntity
8
1
62
256
6
ByLayer
370
13
48
1
60
0
100
AcDbSpline
70
4
71
3
72
12
73
8
40
0
40
0
40
0
40
0
40
0.313231447864371
40
0.313231447864371
40
0.660228393528699
40
0.660228393528699
40
1
40
1
40
1
40
1
41
1
10
6.25058977636166
20
4.66518720780289
30
0
41
1
10
6.25063078999617
20
4.70919191092324
30
0
41
1
10
6.25066986291228
20
4.74646437740071
30
0
41
1
10
6.25074898011488
20
4.8108753293202
30
0
41
1
10
6.25078842522464
20
4.83616573702713
30
0
41
1
10
6.25086246569947
20
4.86907224965955
30
0
41
1
10
6.25089730086162
20
4.87717763342661
30
0
41
1
10
6.25093085428443
20
4.87719133377979
30
0
0
SPLINE
5
C0
100
AcDbEntity
8
1
62
256
6
ByLayer
370
18
48
1
60
0
100
AcDbSpline
70
4
71
3
72
13
73
9
40
0
40
0
40
0
40
0
40
0.266318849294118
40
0.266318849294118
40
0.532637698588237
40
0.798956547882355
40
0.798956547882355
40
1
40
1
40
1
40
1
41
1
10
6.00072840036583
20
4.74669636447095
30
0
41
1
10
6.00073237873866
20
4.81041606828788
30
0
41
1
10
6.00073617842313
20
4.8661203483891
30
0
41
1
10
6.00074337096743
20
4.9599533460586
30
0
41
1
10
6.00075017769512
20
5.0366125932735
30
0
41
1
10
6.00075637611556
20
5.07966147371405
30
0
41
1
10
6.00076161394384
20
5.10256371893865
30
0
41
1
10
6.0007638064917
20
5.10757862668248
30
0
41
1
10
6.00076594249501
20
5.1076323592296
30
0
0
SPLINE
5
C1
100
AcDbEntity
8
1
62
256
6
ByLayer
370
18
48
1
60
0
100
AcDbSpline
70
4
71
3
72
23
73
19
40
0
40
0
40
0
40
0
40
0.124999999999998
40
0.124999999999998
40
0.1875
40
0.1875
40
0.250000000000003
40
0.250000000000003
40
0.500000000000006
40
0.500000000000006
40
0.562500000000005
40
0.562500000000005
40
0.625000000000004
40
0.625000000000004
40
0.750000000000003
40
0.875000000000001
40
0.875000000000001
40
1
40
1
40
1
40
1
41
1
10
93.2061430951071
20
-4.92858133991487
30
0
41
1
10
93.1349807257451
20
-4.92856237333066
30
0
41
1
10
93.0672117478913
20
-4.91830430681745
30
0
41
1
10
92.9709035928159
20
-4.88678845191509
30
0
41
1
10
92.9396939087549
20
-4.87358855673551
30
0
41
1
10
92.8791328120612
20
-4.84158168366733
30
0
41
1
10
92.8496861823006
20
-4.8226902397391
30
0
41
1
10
92.7089884631973
20
-4.71487187382198
30
0
41
1
10
92.6164037750615
20
-4.58647601907205
30
0
41
1
10
92.5268401125802
20
-4.37077220737325
30
0
41
1
10
92.5102525150603
20
-4.3248356023588
30
0
41
1
10
92.4798313007001
20
-4.22715189238247
30
0
41
1
10
92.4659600729408
20
-4.17519165963387
30
0
41
1
10
92.4292011423666
20
-4.0126964756503
30
0
41
1
10
92.3927120203309
20
-3.77763924960556
30
0
41
1
10
92.3808470031927
20
-3.50640722945468
30
0
41
1
10
92.3816208328177
20
-3.21660772507121
30
0
41
1
10
92.3884496616129
20
-3.06172026425364
30
0
41
1
10
92.4015765189642
20
-2.90114180640285
30
0
0
SPLINE
5
C2
100
AcDbEntity
8
1
62
256
6
ByLayer
370
18
48
1
60
0
100
AcDbSpline
70
4
71
3
72
104
73
100
40
0
40
0
40
0
40
0
40
0.0029046947990365
40
0.0029046947990365
40
0.0185213945427722
40
0.0185213945427722
40
0.0341380942865079
40
0.0341380942865079
40
0.0497547940302436
40
0.0497547940302436
40
0.0653714937739793
40
0.0653714937739793
40
0.080988193517715
40
0.080988193517715
40
0.112221593005187
40
0.112221593005187
40
0.14345499249266
40
0.14345499249266
40
0.174688391980132
40
0.174688391980132
40
0.190305091723868
40
0.190305091723868
40
0.205921791467604
40
0.205921791467604
40
0.22153849121134
40
0.22153849121134
40
0.237155190955076
40
0.237155190955076
40
0.252771890698812
40
0.252771890698812
40
0.268388590442548
40
0.268388590442548
40
0.29962198993002
40
0.29962198993002
40
0.330855389417491
40
0.330855389417491
40
0.362088788904963
40
0.362088788904963
40
0.393322188392434
40
0.393322188392434
40
0.40893888813617
40
0.40893888813617
40
0.424555587879905
40
0.424555587879905
40
0.455788987367377
40
0.455788987367377
40
0.471405687111112
40
0.471405687111112
40
0.487022386854847
40
0.487022386854847
40
0.518255786342317
40
0.518255786342317
40
0.533872486086052
40
0.533872486086052
40
0.549489185829788
40
0.549489185829788
40
0.580722585317259
40
0.580722585317259
40
0.596339285060994
40
0.596339285060994
40
0.611955984804729
40
0.611955984804729
40
0.643189384292201
40
0.643189384292201
40
0.658806084035936
40
0.658806084035936
40
0.674422783779672
40
0.674422783779672
40
0.705656183267144
40
0.705656183267144
40
0.721272883010879
40
0.721272883010879
40
0.736889582754614
40
0.736889582754614
40
0.768122982242084
40
0.768122982242084
40
0.783739681985818
40
0.783739681985818
40
0.799356381729552
40
0.799356381729552
40
0.830589781217021
40
0.830589781217021
40
0.86182318070449
40
0.86182318070449
40
0.877439880448224
40
0.877439880448224
40
0.893056580191958
40
0.893056580191958
40
0.924289979679426
40
0.924289979679426
40
0.93990667942316
40
0.93990667942316
40
0.955523379166894
40
0.955523379166894
40
0.971140078910628
40
0.971140078910628
40
0.986756778654362
40
0.986756778654362
40
1
40
1
40
1
40
1
41
1
10
23.8973129849504
20
3.67912683748176
30
0
41
1
10
23.9333416392497
20
3.69269017324734
30
0
41
1
10
23.9693861712226
20
3.70616634147956
30
0
41
1
10
24.1993560599862
20
3.79149014581788
30
0
41
1
10
24.3938126083481
20
3.8608026109209
30
0
41
1
10
24.7835547065404
20
3.99457418709426
30
0
41
1
10
24.9788497685195
20
4.05901996771573
30
0
41
1
10
25.3701431200272
20
4.18317314000131
30
0
41
1
10
25.5664564145527
20
4.24296769191687
30
0
41
1
10
25.9578780721085
20
4.35730808533776
30
0
41
1
10
26.1528129728539
20
4.41197387167009
30
0
41
1
10
26.5419536586328
20
4.51540941844925
30
0
41
1
10
26.7364908365347
20
4.56388046778741
30
0
41
1
10
27.3197141630228
20
4.70017202097318
30
0
41
1
10
27.7079544123917
20
4.77898150797364
30
0
41
1
10
28.4821370595213
20
4.91355222887444
30
0
41
1
10
28.8673045068345
20
4.96949003670363
30
0
41
1
10
29.6406105250273
20
5.05523442582833
30
0
41
1
10
30.0281662494822
20
5.08557125533844
30
0
41
1
10
30.6099115573428
20
5.11253246819271
30
0
41
1
10
30.8039015940802
20
5.11841015602491
30
0
41
1
10
31.1919093904279
20
5.12378019554188
30
0
41
1
10
31.3858539661129
20
5.12323882267916
30
0
41
1
10
31.7753514264204
20
5.11570078680847
30
0
41
1
10
31.9707181427194
20
5.10873014561784
30
0
41
1
10
32.362448061768
20
5.08839292100353
30
0
41
1
10
32.5588926699198
20
5.07500783670676
30
0
41
1
10
32.9501580909087
20
5.04196379497202
30
0
41
1
10
33.1452896313923
20
5.02229304078708
30
0
41
1
10
33.534418036335
20
4.97657173804834
30
0
41
1
10
33.7282304268431
20
4.95041306202595
30
0
41
1
10
34.3095486816784
20
4.86307512559318
30
0
41
1
10
34.69730379916
20
4.79342976616331
30
0
41
1
10
35.4715761831956
20
4.6311300858973
30
0
41
1
10
35.8580038008618
20
4.53835213497757
30
0
41
1
10
36.6293351057326
20
4.32868686316669
30
0
41
1
10
37.0163858113141
20
4.21387449066179
30
0
41
1
10
37.7924397193297
20
3.96403219649471
30
0
41
1
10
38.181329106357
20
3.82888308722028
30
0
41
1
10
38.7652356117595
20
3.60903912581239
30
0
41
1
10
38.960078238906
20
3.53301369803612
30
0
41
1
10
39.3515494069638
20
3.37745643883673
30
0
41
1
10
39.5476512014796
20
3.29776202791433
30
0
41
1
10
40.1340761043952
20
3.05368423708572
30
0
41
1
10
40.5235904716091
20
2.8839373602639
30
0
41
1
10
41.1049106941789
20
2.6174822661718
30
0
41
1
10
41.2980247368172
20
2.52639646483868
30
0
41
1
10
41.6846774116295
20
2.34260455295157
30
0
41
1
10
41.8781340343547
20
2.24977441612683
30
0
41
1
10
42.4584962932261
20
1.96788617662168
30
0
41
1
10
42.8454203065999
20
1.77549528088932
30
0
41
1
10
43.4249946735397
20
1.47864985290892
30
0
41
1
10
43.6179312721424
20
1.37809598063865
30
0
41
1
10
44.004055835621
20
1.17512021496361
30
0
41
1
10
44.1975965280314
20
1.07335871837654
30
0
41
1
10
44.7793940710697
20
0.766839853654261
30
0
41
1
10
45.1687262423507
20
0.560683444489655
30
0
41
1
10
45.7540931042424
20
0.246966591946403
30
0
41
1
10
45.9494334374643
20
0.141620016050695
30
0
41
1
10
46.3405395121755
20
-0.0707384901185435
30
0
41
1
10
46.5356961931962
20
-0.176629028034796
30
0
41
1
10
47.1209586824334
20
-0.491028765124724
30
0
41
1
10
47.5103113941269
20
-0.697648113911441
30
0
41
1
10
48.0922146185364
20
-1.00501187187689
30
0
41
1
10
48.2858323064254
20
-1.10702421081322
30
0
41
1
10
48.6722318801897
20
-1.31038486097896
30
0
41
1
10
48.8649418329368
20
-1.41185417877648
30
0
41
1
10
49.4442158337488
20
-1.71085963683296
30
0
41
1
10
49.8311195152466
20
-1.90453306064623
30
0
41
1
10
50.4114632284882
20
-2.18860402132279
30
0
41
1
10
50.6049203570273
20
-2.28219479936917
30
0
41
1
10
50.9917248890377
20
-2.46735301528153
30
0
41
1
10
51.1848989427936
20
-2.55920502170264
30
0
41
1
10
51.7656820044806
20
-2.82925442697862
30
0
41
1
10
52.1551433520265
20
-3.00103767901004
30
0
41
1
10
52.7414457629359
20
-3.24850049703656
30
0
41
1
10
52.9375247307139
20
-3.32935785064368
30
0
41
1
10
53.328962919974
20
-3.48716187611259
30
0
41
1
10
53.5239838553164
20
-3.56408882651215
30
0
41
1
10
54.1073677107406
20
-3.78824401198742
30
0
41
1
10
54.4959247356498
20
-3.92632300935046
30
0
41
1
10
55.2716367941448
20
-4.18186503665532
30
0
41
1
10
55.6586745983005
20
-4.2994717346225
30
0
41
1
10
56.2371977831425
20
-4.46112700572701
30
0
41
1
10
56.4297951572718
20
-4.51241937392606
30
0
41
1
10
56.8159267981875
20
-4.60858223096207
30
0
41
1
10
57.0092500063925
20
-4.65366456909808
30
0
41
1
10
57.5896711007467
20
-4.78028753483659
30
0
41
1
10
57.9772303486404
20
-4.85325054594151
30
0
41
1
10
58.5587075776579
20
-4.94549019165299
30
0
41
1
10
58.7523805445984
20
-4.97342100391054
30
0
41
1
10
59.1411163832423
20
-5.02270474550579
30
0
41
1
10
59.3361383314683
20
-5.04411194737332
30
0
41
1
10
59.7272096973965
20
-5.08063042642496
30
0
41
1
10
59.9235514676952
20
-5.09574730351855
30
0
41
1
10
60.31490391674
20
-5.11952995296744
30
0
41
1
10
60.5100888615319
20
-5.12822052560597
30
0
41
1
10
60.869765498498
20
-5.13837246505537
30
0
41
1
10
61.0343270861151
20
-5.14072778478447
30
0
41
1
10
61.1986263841968
20
-5.14075222076912
30
0
0
SPLINE
5
C3
100
AcDbEntity
8
1
62
256
6
ByLayer
370
18
48
1
60
0
100
AcDbSpline
70
4
71
3
72
30
73
26
40
0
40
0
40
0
40
0
40
0.0180437108654
40
0.0180437108654
40
0.140788247007233
40
0.140788247007233
40
0.202160515078147
40
0.202160515078147
40
0.26353278314906
40
0.26353278314906
40
0.324905051219974
40
0.324905051219974
40
0.386277319290887
40
0.386277319290887
40
0.509021855432707
40
0.509021855432707
40
0.631766391574527
40
0.631766391574527
40
0.754510927716347
40
0.754510927716347
40
0.815883195787261
40
0.815883195787261
40
0.877255463858174
40
0.877255463858174
40
1
40
1
40
1
40
1
41
1
10
83.8020584594397
20
3.69854373157395
30
0
41
1
10
83.8586924688574
20
3.7200636738155
30
0
41
1
10
83.9153422084484
20
3.74136382558649
30
0
41
1
10
84.3576593171942
20
3.90561010903645
30
0
41
1
10
84.7444276387311
20
4.03823384953304
30
0
41
1
10
85.3251472997229
20
4.22288937028378
30
0
41
1
10
85.5188281855264
20
4.28203158799778
30
0
41
1
10
85.9062809670237
20
4.39552977800585
30
0
41
1
10
86.0999051770459
20
4.45002290828711
30
0
41
1
10
86.4879715877656
20
4.55335724976172
30
0
41
1
10
86.6826913978756
20
4.60195290701361
30
0
41
1
10
87.0732253495205
20
4.69332596543666
30
0
41
1
10
87.2693561882232
20
4.73616209309796
30
0
41
1
10
87.8562892447418
20
4.85548949264594
30
0
41
1
10
88.2456104151509
20
4.92296503005474
30
0
41
1
10
89.0197701716428
20
5.03375705532525
30
0
41
1
10
89.406705189911
20
5.07600551597844
30
0
41
1
10
90.1801599092485
20
5.13548244458229
30
0
41
1
10
90.5664648701625
20
5.15279915015645
30
0
41
1
10
91.1444896777533
20
5.15978662649044
30
0
41
1
10
91.3369087918934
20
5.15890107839968
30
0
41
1
10
91.7228929745409
20
5.15077363151593
30
0
41
1
10
91.9162518135134
20
5.14355235840299
30
0
41
1
10
92.4970787217344
20
5.1124843117754
30
0
41
1
10
92.8853125475497
20
5.07929836218509
30
0
41
1
10
93.2740541854551
20
5.03301747780947
30
0
0
SPLINE
5
C4
100
AcDbEntity
8
1
62
256
6
ByLayer
370
18
48
1
60
0
100
AcDbSpline
70
4
71
3
72
20
73
16
40
0
40
0
40
0
40
0
40
0.124999999999996
40
0.124999999999996
40
0.249999999999991
40
0.249999999999991
40
0.499999999999994
40
0.499999999999994
40
0.624999999999995
40
0.624999999999995
40
0.749999999999997
40
0.749999999999997
40
0.874999999999998
40
0.874999999999998
40
1
40
1
40
1
40
1
41
1
10
94.2155464933872
20
2.54914238845845
30
0
41
1
10
94.1766363613511
20
2.65385015781698
30
0
41
1
10
94.137671793888
20
2.75839843164465
30
0
41
1
10
94.0597363520974
20
2.96747650021871
30
0
41
1
10
94.0207472749018
20
3.07195296065203
30
0
41
1
10
93.9036703077952
20
3.38506081742378
30
0
41
1
10
93.8254965617291
20
3.59344065565403
30
0
41
1
10
93.7077456909686
20
3.90457397806722
30
0
41
1
10
93.6683933013178
20
4.00798593481127
30
0
41
1
10
93.5896790471072
20
4.21478208686312
30
0
41
1
10
93.5502953693776
20
4.31810236969142
30
0
41
1
10
93.4713957363161
20
4.5243553626307
30
0
41
1
10
93.4319040625621
20
4.6272556963705
30
0
41
1
10
93.352969639302
20
4.83142053897092
30
0
41
1
10
93.3135110873265
20
4.93233069706861
30
0
41
1
10
93.2740541854674
20
5.03301747780776
30
0
0
SPLINE
5
C5
100
AcDbEntity
8
1
62
256
6
ByLayer
370
18
48
1
60
0
100
AcDbSpline
70
4
71
3
72
48
73
44
40
0
40
0
40
0
40
0
40
0.043626193720118
40
0.043626193720118
40
0.0872523874402359
40
0.0872523874402359
40
0.130878581160354
40
0.130878581160354
40
0.174504774880472
40
0.174504774880472
40
0.21813096860059
40
0.21813096860059
40
0.239944065460648
40
0.239944065460648
40
0.261757162320706
40
0.261757162320706
40
0.305383356040822
40
0.305383356040822
40
0.349009549760937
40
0.349009549760937
40
0.436261937201167
40
0.436261937201167
40
0.479888130921282
40
0.479888130921282
40
0.523514324641397
40
0.523514324641397
40
0.567140518361512
40
0.567140518361512
40
0.610766712081626
40
0.610766712081626
40
0.654392905801741
40
0.654392905801741
40
0.698019099521856
40
0.698019099521856
40
0.741645293241971
40
0.741645293241971
40
0.785271486962086
40
0.785271486962086
40
0.872523874402316
40
0.872523874402316
40
0.959776261842545
40
0.959776261842545
40
1
40
1
40
1
40
1
41
1
10
93.1978671564199
20
-5.11843114478845
30
0
41
1
10
92.7448476998238
20
-5.14932499697386
30
0
41
1
10
92.2918573876179
20
-5.16266007340977
30
0
41
1
10
91.3842501174665
20
-5.1543139267813
30
0
41
1
10
90.9304644683222
20
-5.13260581365617
30
0
41
1
10
90.0235846607261
20
-5.05468940936939
30
0
41
1
10
89.5694533869394
20
-4.9983470517827
30
0
41
1
10
88.662594403939
20
-4.8522902866396
30
0
41
1
10
88.2102004277244
20
-4.76269799508751
30
0
41
1
10
87.3052844553805
20
-4.55208622394645
30
0
41
1
10
86.8527857491613
20
-4.43105379207373
30
0
41
1
10
86.1724322024677
20
-4.22717011603802
30
0
41
1
10
85.9452912861928
20
-4.15545459059649
30
0
41
1
10
85.4918960412151
20
-4.00538608729343
30
0
41
1
10
85.2654439058956
20
-3.92697050998083
30
0
41
1
10
84.5864447465415
20
-3.68207124818494
30
0
41
1
10
84.1342339366672
20
-3.50595723527431
30
0
41
1
10
83.2285912966978
20
-3.13086265559582
30
0
41
1
10
82.7742958312645
20
-2.93149696018256
30
0
41
1
10
81.4141719641012
20
-2.30700572686249
30
0
41
1
10
80.5109140175612
20
-1.85585276847425
30
0
41
1
10
79.1496740219935
20
-1.14641133701898
30
0
41
1
10
78.6961672404358
20
-0.905449343994263
30
0
41
1
10
77.7907560833143
20
-0.420243533547136
30
0
41
1
10
77.3383499003299
20
-0.175726420949985
30
0
41
1
10
76.4321605653092
20
0.313466143023305
30
0
41
1
10
75.9775964780693
20
0.558584693654495
30
0
41
1
10
75.0709507351956
20
1.04209665256295
30
0
41
1
10
74.6184875593036
20
1.28071700851413
30
0
41
1
10
73.7133757310259
20
1.74824120925578
30
0
41
1
10
73.26052409587
20
1.97678215894669
30
0
41
1
10
72.352176479069
20
2.41979312223043
30
0
41
1
10
71.8989852492831
20
2.63341238342136
30
0
41
1
10
70.9936019109951
20
3.04110918257149
30
0
41
1
10
70.5410630432866
20
3.23502783686394
30
0
41
1
10
69.6345290765487
20
3.60038097598601
30
0
41
1
10
69.179944710201
20
3.77204000168109
30
0
41
1
10
67.820261346865
20
4.24515234520848
30
0
41
1
10
66.9161330308367
20
4.50602733889284
30
0
41
1
10
65.0997276692228
20
4.90180313441147
30
0
41
1
10
64.1959277905257
20
5.03418109011429
30
0
41
1
10
62.8711672625288
20
5.12702867330481
30
0
41
1
10
62.4520572978878
20
5.14157270383672
30
0
41
1
10
62.0339576012661
20
5.14125406011686
30
0
0
SPLINE
5
C6
100
AcDbEntity
8
1
62
256
6
ByLayer
370
18
48
1
60
0
100
AcDbSpline
70
4
71
3
72
48
73
44
40
0
40
0
40
0
40
0
40
0.0045031433904366
40
0.0045031433904366
40
0.0519077556099394
40
0.0519077556099394
40
0.0993123678294425
40
0.0993123678294425
40
0.146716980048946
40
0.146716980048946
40
0.194121592268449
40
0.194121592268449
40
0.241526204487951
40
0.241526204487951
40
0.288930816707455
40
0.288930816707455
40
0.336335428926958
40
0.336335428926958
40
0.383740041146461
40
0.383740041146461
40
0.431144653365964
40
0.431144653365964
40
0.525953877804971
40
0.525953877804971
40
0.573358490024474
40
0.573358490024474
40
0.620763102243977
40
0.620763102243977
40
0.66816771446348
40
0.66816771446348
40
0.715572326682983
40
0.715572326682983
40
0.762976938902486
40
0.762976938902486
40
0.786679245012237
40
0.786679245012237
40
0.810381551121988
40
0.810381551121988
40
0.857786163341491
40
0.857786163341491
40
0.905190775560994
40
0.905190775560994
40
1
40
1
40
1
40
1
41
1
10
34.8497946729328
20
-4.91125588634227
30
0
41
1
10
34.8067309966604
20
-4.91784628625123
30
0
41
1
10
34.7636731301476
20
-4.92428518847285
30
0
41
1
10
34.2674126732663
20
-4.9967531789311
30
0
41
1
10
33.814524845681
20
-5.04617115376587
30
0
41
1
10
32.9073644775075
20
-5.11060209951253
30
0
41
1
10
32.4523196344014
20
-5.12555436171363
30
0
41
1
10
31.5447947376363
20
-5.12047093192911
30
0
41
1
10
31.0918172320501
20
-5.10053235415339
30
0
41
1
10
30.1854465297742
20
-5.02626259973897
30
0
41
1
10
29.7319809650113
20
-4.97193774926282
30
0
41
1
10
28.8225133726467
20
-4.8295018015439
30
0
41
1
10
28.3690352092213
20
-4.74177408631661
30
0
41
1
10
27.4625708858883
20
-4.53496120603776
30
0
41
1
10
27.009528619428
20
-4.41592225399279
30
0
41
1
10
26.1018589322304
20
-4.14828149337839
30
0
41
1
10
25.6467313694548
20
-3.99944840929277
30
0
41
1
10
24.7393902244811
20
-3.67654449385603
30
0
41
1
10
24.2863777133834
20
-3.50236923329788
30
0
41
1
10
23.3797132423723
20
-3.13126418646138
30
0
41
1
10
22.925649933905
20
-2.93419015967035
30
0
41
1
10
21.5618625122524
20
-2.31434728075837
30
0
41
1
10
20.6573765172259
20
-1.86610643926662
30
0
41
1
10
19.2952137148744
20
-1.16279216418181
30
0
41
1
10
18.8401168995579
20
-0.923012247432183
30
0
41
1
10
17.932815939522
20
-0.440389662928453
30
0
41
1
10
17.4797413336119
20
-0.197185194458598
30
0
41
1
10
16.5727209626912
20
0.289222348270073
30
0
41
1
10
16.1181933626436
20
0.532888564487507
30
0
41
1
10
15.2092408124435
20
1.01476128988972
30
0
41
1
10
14.7557948022911
20
1.25234934821978
30
0
41
1
10
13.8490608224828
20
1.71742825603619
30
0
41
1
10
13.3957938292893
20
1.94495295564758
30
0
41
1
10
12.7144065018226
20
2.27579721351711
30
0
41
1
10
12.4868341494169
20
2.38442037995918
30
0
41
1
10
12.0323645260036
20
2.59703191083057
30
0
41
1
10
11.8053663826929
20
2.70107075437795
30
0
41
1
10
11.1247540513415
20
3.00590012651509
30
0
41
1
10
10.6716599442646
20
3.19960321072565
30
0
41
1
10
9.76421224002425
20
3.56412768747816
30
0
41
1
10
9.30902181307533
20
3.73522372664851
30
0
41
1
10
7.94618884663461
20
4.20750319563749
30
0
41
1
10
7.0408534219886
20
4.46772282683446
30
0
41
1
10
6.13174150722139
20
4.665820711284
30
0
0
SPLINE
5
C7
100
AcDbEntity
8
1
62
256
6
ByLayer
370
18
48
1
60
0
100
AcDbSpline
70
4
71
3
72
20
73
16
40
0
40
0
40
0
40
0
40
0.124999999999996
40
0.124999999999996
40
0.249999999999992
40
0.249999999999992
40
0.499999999999994
40
0.499999999999994
40
0.624999999999996
40
0.624999999999996
40
0.749999999999997
40
0.749999999999997
40
0.874999999999999
40
0.874999999999999
40
1
40
1
40
1
40
1
41
1
10
94.2155464933871
20
-2.54914238845848
30
0
41
1
10
94.1766363613511
20
-2.65385015781703
30
0
41
1
10
94.137671793888
20
-2.75839843164471
30
0
41
1
10
94.0597363520974
20
-2.96747650021874
30
0
41
1
10
94.0207472749017
20
-3.07195296065208
30
0
41
1
10
93.9036703077951
20
-3.38506081742381
30
0
41
1
10
93.825496561729
20
-3.59344065565406
30
0
41
1
10
93.7077456909686
20
-3.90457397806722
30
0
41
1
10
93.6683933013178
20
-4.0079859348113
30
0
41
1
10
93.5896790471073
20
-4.21478208686315
30
0
41
1
10
93.5502953693776
20
-4.31810236969142
30
0
41
1
10
93.471395736316
20
-4.5243553626307
30
0
41
1
10
93.4319040625621
20
-4.62725569637053
30
0
41
1
10
93.352969639302
20
-4.83142053897095
30
0
41
1
10
93.3135110873265
20
-4.93233069706864
30
0
41
1
10
93.2740541854675
20
-5.03301747780776
30
0
0
SPLINE
5
C8
100
AcDbEntity
8
1
62
256
6
ByLayer
370
18
48
1
60
0
100
AcDbSpline
70
4
71
3
72
66
73
62
40
0
40
0
40
0
40
0
40
0.0624999999999964
40
0.0624999999999964
40
0.124999999999994
40
0.124999999999994
40
0.249999999999988
40
0.249999999999988
40
0.374999999999983
40
0.374999999999983
40
0.499999999999978
40
0.499999999999978
40
0.562499999999975
40
0.562499999999975
40
0.624999999999972
40
0.624999999999972
40
0.687499999999969
40
0.687499999999969
40
0.695312499999969
40
0.695312499999969
40
0.699218749999969
40
0.699218749999969
40
0.703124999999968
40
0.703124999999968
40
0.707031249999968
40
0.707031249999968
40
0.708984374999968
40
0.708984374999968
40
0.710937499999968
40
0.710937499999968
40
0.718749999999968
40
0.718749999999968
40
0.734374999999969
40
0.734374999999969
40
0.74999999999997
40
0.74999999999997
40
0.781249999999972
40
0.781249999999972
40
0.789062499999973
40
0.789062499999973
40
0.796874999999973
40
0.796874999999973
40
0.812499999999975
40
0.812499999999975
40
0.828124999999977
40
0.828124999999977
40
0.843749999999979
40
0.843749999999979
40
0.859374999999981
40
0.859374999999981
40
0.874999999999983
40
0.874999999999983
40
0.906249999999987
40
0.906249999999987
40
0.921874999999989
40
0.921874999999989
40
0.937499999999992
40
0.937499999999992
40
0.968749999999996
40
0.968749999999996
40
1
40
1
40
1
40
1
41
1
10
18.7673601665549
20
-1.33488277121202
30
0
41
1
10
18.3979573080057
20
-1.14262065533256
30
0
41
1
10
18.0263549871995
20
-0.95240821459231
30
0
41
1
10
17.2780543870577
20
-0.578017510077927
30
0
41
1
10
16.9009519871447
20
-0.39366093545658
30
0
41
1
10
15.7630430132121
20
0.145207183630532
30
0
41
1
10
15.0004137325865
20
0.483171646868385
30
0
41
1
10
13.4586066283136
20
1.09660833838572
30
0
41
1
10
12.6793540044874
20
1.37186684288892
30
0
41
1
10
11.0971068176112
20
1.84509197654708
30
0
41
1
10
10.2941136307495
20
2.04311864533176
30
0
41
1
10
9.06851456104323
20
2.27748057902892
30
0
41
1
10
8.65633079286155
20
2.34523483176869
30
0
41
1
10
7.82520698924932
20
2.45942470092894
30
0
41
1
10
7.40838845494224
20
2.5055902242118
30
0
41
1
10
6.57211298906137
20
2.57614765954102
30
0
41
1
10
6.15237790788586
20
2.60056070957069
30
0
41
1
10
5.67950853788636
20
2.6154630856345
30
0
41
1
10
5.62695903034719
20
2.61694408869505
30
0
41
1
10
5.54812198335259
20
2.61890208866603
30
0
41
1
10
5.52184007842647
20
2.61951084838876
30
0
41
1
10
5.46928128278233
20
2.62064010108486
30
0
41
1
10
5.44299042739215
20
2.62154467837695
30
0
41
1
10
5.39064090380771
20
2.61646907782739
30
0
41
1
10
5.36432593136297
20
2.61121959612785
30
0
41
1
10
5.32975467619897
20
2.59633803772573
30
0
41
1
10
5.31887923295457
20
2.59025757882077
30
0
41
1
10
5.29669118882626
20
2.57883428859472
30
0
41
1
10
5.28561850086933
20
2.57307940361966
30
0
41
1
10
5.23036428718737
20
2.54408309383322
30
0
41
1
10
5.18655755473549
20
2.5202007834566
30
0
41
1
10
5.05669474009071
20
2.44642956063032
30
0
41
1
10
4.97208611809697
20
2.39438203571433
30
0
41
1
10
4.80766563585931
20
2.28317082013408
30
0
41
1
10
4.72768399940574
20
2.22383419776642
30
0
41
1
10
4.50044707060997
20
2.03530799143331
30
0
41
1
10
4.36423586609644
20
1.89549101072723
30
0
41
1
10
4.22485590172516
20
1.69126455658807
30
0
41
1
10
4.19843379067061
20
1.64864436833096
30
0
41
1
10
4.15005008700024
20
1.56122648479666
30
0
41
1
10
4.1281184324653
20
1.51654252703199
30
0
41
1
10
4.06954078892286
20
1.37935085171154
30
0
41
1
10
4.03997873915046
20
1.28314308300909
30
0
41
1
10
4.0034762849061
20
1.08338151493024
30
0
41
1
10
3.99693667425956
20
0.982652412368168
30
0
41
1
10
4.00567335747084
20
0.779518169146058
30
0
41
1
10
4.02133066229706
20
0.67632988473926
30
0
41
1
10
4.07039185770614
20
0.47711130659215
30
0
41
1
10
4.10368488799062
20
0.380002052163149
30
0
41
1
10
4.18429299144015
20
0.189752792894893
30
0
41
1
10
4.23175061029136
20
0.0966043401653565
30
0
41
1
10
4.38685675929619
20
-0.170860816895214
30
0
41
1
10
4.50811597114472
20
-0.336475675583927
30
0
41
1
10
4.70663205175779
20
-0.573029968165628
30
0
41
1
10
4.77577077078607
20
-0.649921631969534
30
0
41
1
10
4.91699847199689
20
-0.798489705277603
30
0
41
1
10
4.98930871569408
20
-0.870436412305196
30
0
41
1
10
5.21036710055475
20
-1.08053441709106
30
0
41
1
10
5.36319318123566
20
-1.21300933170133
30
0
41
1
10
5.67660239615154
20
-1.466939667025
30
0
41
1
10
5.83721814141285
20
-1.58835201515851
30
0
41
1
10
6.00084054372255
20
-1.70540549251226
30
0
0
SPLINE
5
C9
100
AcDbEntity
8
1
62
256
6
ByLayer
370
18
48
1
60
0
100
AcDbSpline
70
4
71
3
72
20
73
16
40
0
40
0
40
0
40
0
40
0.125000000000001
40
0.125000000000001
40
0.250000000000001
40
0.250000000000001
40
0.375000000000002
40
0.375000000000002
40
0.500000000000003
40
0.500000000000003
40
0.750000000000001
40
0.750000000000001
40
0.875000000000001
40
0.875000000000001
40
1
40
1
40
1
40
1
41
1
10
6.25181231535012
20
-1.61686636565614
30
0
41
1
10
6.4698783523061
20
-1.77813228065273
30
0
41
1
10
6.69254990948335
20
-1.92912870519737
30
0
41
1
10
7.14446546147326
20
-2.21571844935613
30
0
41
1
10
7.37374208081062
20
-2.35124673920501
30
0
41
1
10
7.83759210632886
20
-2.60941988448488
30
0
41
1
10
8.07234673768662
20
-2.73214104721546
30
0
41
1
10
8.54567217773024
20
-2.96594733848343
30
0
41
1
10
8.78338063386246
20
-3.07660678358801
30
0
41
1
10
9.49937421025805
20
-3.39188313280693
30
0
41
1
10
9.98047316199748
20
-3.57985181206189
30
0
41
1
10
10.7083011038111
20
-3.83317408711648
30
0
41
1
10
10.9519906736647
20
-3.9129403457531
30
0
41
1
10
11.4414651836169
20
-4.06364776493857
30
0
41
1
10
11.6864407989311
20
-4.13333523818585
30
0
41
1
10
11.9318835019638
20
-4.19770105273227
30
0
0
SPLINE
5
CA
100
AcDbEntity
8
1
62
256
6
ByLayer
370
18
48
1
60
0
100
AcDbSpline
70
4
71
3
72
8
73
4
40
0
40
0
40
0
40
0
40
1
40
1
40
1
40
1
41
1
10
93.1978671564146
20
5.11843114478881
30
0
41
1
10
92.7947879974613
20
5.14591929739319
30
0
41
1
10
92.3913252275458
20
5.15951597545828
30
0
41
1
10
91.9875175292063
20
5.15922764883976
30
0
0
SPLINE
5
CB
100
AcDbEntity
8
1
62
256
6
ByLayer
370
18
48
1
60
0
100
AcDbSpline
70
4
71
3
72
56
73
52
40
0
40
0
40
0
40
0
40
0.0050294837621584
40
0.0050294837621584
40
0.0465974367460456
40
0.0465974367460456
40
0.0881653897299329
40
0.0881653897299329
40
0.12973334271382
40
0.12973334271382
40
0.171301295697707
40
0.171301295697707
40
0.212869248681595
40
0.212869248681595
40
0.29600515464937
40
0.29600515464937
40
0.379141060617145
40
0.379141060617145
40
0.420709013601033
40
0.420709013601033
40
0.462276966584921
40
0.462276966584921
40
0.503844919568809
40
0.503844919568809
40
0.545412872552696
40
0.545412872552696
40
0.586980825536584
40
0.586980825536584
40
0.628548778520472
40
0.628548778520472
40
0.67011673150436
40
0.67011673150436
40
0.690900707996304
40
0.690900707996304
40
0.711684684488248
40
0.711684684488248
40
0.794820590456024
40
0.794820590456024
40
0.815604566947969
40
0.815604566947969
40
0.836388543439913
40
0.836388543439913
40
0.877956496423803
40
0.877956496423803
40
0.898740472915747
40
0.898740472915747
40
0.919524449407692
40
0.919524449407692
40
0.961092402391581
40
0.961092402391581
40
1
40
1
40
1
40
1
41
1
10
64.8153429750344
20
-4.92611843045222
30
0
41
1
10
64.7604429886697
20
-4.93459278212373
30
0
41
1
10
64.7055546435725
20
-4.94281931002615
30
0
41
1
10
64.1971739143816
20
-5.01671987448918
30
0
41
1
10
63.7445453165826
20
-5.06574931829795
30
0
41
1
10
62.8391074178485
20
-5.12934274232168
30
0
41
1
10
62.3861198025742
20
-5.14385918181836
30
0
41
1
10
61.4775738586758
20
-5.13790190243103
30
0
41
1
10
61.0241742775137
20
-5.11742077922398
30
0
41
1
10
60.118603727984
20
-5.04203107650983
30
0
41
1
10
59.6659998610508
20
-4.98717637304404
30
0
41
1
10
58.7591649299947
20
-4.84401219565626
30
0
41
1
10
58.3043937130282
20
-4.75543997438695
30
0
41
1
10
56.9444823666971
20
-4.44280349330077
30
0
41
1
10
56.0400879812433
20
-4.17231727500112
30
0
41
1
10
54.2230392057905
20
-3.52216933833156
30
0
41
1
10
53.3189790181679
20
-3.14713550208109
30
0
41
1
10
51.9584884614078
20
-2.52585610487978
30
0
41
1
10
51.5036803628837
20
-2.30900141299682
30
0
41
1
10
50.5968339901824
20
-1.86279591909732
30
0
41
1
10
50.1441897797357
20
-1.63279358764038
30
0
41
1
10
49.2382009646256
20
-1.16294991947532
30
0
41
1
10
48.7842747600838
20
-0.923018467093556
30
0
41
1
10
47.8756977127347
20
-0.438399578333701
30
0
41
1
10
47.4226851414942
20
-0.194173235407646
30
0
41
1
10
46.5168410438122
20
0.293682767255945
30
0
41
1
10
46.0639563094131
20
0.537213470951571
30
0
41
1
10
45.1562392074659
20
1.01970892561223
30
0
41
1
10
44.7015526860151
20
1.25902739757373
30
0
41
1
10
43.7950046871096
20
1.72588144995001
30
0
41
1
10
43.3422192645841
20
1.95374365254779
30
0
41
1
10
42.6623642255736
20
2.28476411622182
30
0
41
1
10
42.4356446840073
20
2.39332804703366
30
0
41
1
10
41.9817527201025
20
2.60646675475985
30
0
41
1
10
41.7543759881777
20
2.71112984700667
30
0
41
1
10
40.6192315136017
20
3.22167974702734
30
0
41
1
10
39.7150539371805
20
3.58933416868015
30
0
41
1
10
38.5800809680792
20
3.98447841135965
30
0
41
1
10
38.3526679124351
20
4.06031613969316
30
0
41
1
10
37.898560155507
20
4.20458029359023
30
0
41
1
10
37.6717615226055
20
4.27311616544236
30
0
41
1
10
36.9917614529963
20
4.46759767827541
30
0
41
1
10
36.5389171415343
20
4.58237912303869
30
0
41
1
10
35.8589093846656
20
4.730925754021
30
0
41
1
10
35.6321279717124
20
4.7765097005252
30
0
41
1
10
35.1779649150377
20
4.85951597957796
30
0
41
1
10
34.9505043972357
20
4.89696702217995
30
0
41
1
10
34.269457105498
20
4.99652505356212
30
0
41
1
10
33.8164023311571
20
5.04597773138164
30
0
41
1
10
32.939215440453
20
5.10839581575161
30
0
41
1
10
32.5150441379662
20
5.12348107458712
30
0
41
1
10
32.0899444339364
20
5.12328922412038
30
0
0
SPLINE
5
CC
100
AcDbEntity
8
1
62
256
6
ByLayer
370
18
48
1
60
0
100
AcDbSpline
70
4
71
3
72
38
73
34
40
0
40
0
40
0
40
0
40
0.093475475808716
40
0.093475475808716
40
0.186950951617432
40
0.186950951617432
40
0.23368868952179
40
0.23368868952179
40
0.280426427426148
40
0.280426427426148
40
0.373901903234861
40
0.373901903234861
40
0.420639641139217
40
0.420639641139217
40
0.467377379043572
40
0.467377379043572
40
0.514115116947927
40
0.514115116947927
40
0.560852854852283
40
0.560852854852283
40
0.607590592756638
40
0.607590592756638
40
0.654328330660994
40
0.654328330660994
40
0.747803806469704
40
0.747803806469704
40
0.841279282278415
40
0.841279282278415
40
0.934754758087126
40
0.934754758087126
40
0.981492495991481
40
0.981492495991481
40
1
40
1
40
1
40
1
41
1
10
18.7673684369334
20
-1.33485460731376
30
0
41
1
10
19.1585411479068
20
-1.5398834561797
30
0
41
1
10
19.5492325741563
20
-1.73773668635107
30
0
41
1
10
20.3282277596234
20
-2.12279120406654
30
0
41
1
10
20.7165334749645
20
-2.30997111653298
30
0
41
1
10
21.2964037264119
20
-2.58392061405135
30
0
41
1
10
21.489392992791
20
-2.67385572193291
30
0
41
1
10
21.8760986861782
20
-2.84885383971428
30
0
41
1
10
22.0696102836878
20
-2.93426288106389
30
0
41
1
10
22.6503107671434
20
-3.18479334047618
30
0
41
1
10
23.0376740311294
20
-3.34424005721078
30
0
41
1
10
23.6182644584783
20
-3.57291918713767
30
0
41
1
10
23.8115482526823
20
-3.64760505873463
30
0
41
1
10
24.1993560599862
20
-3.79149014581785
30
0
41
1
10
24.3938126083481
20
-3.86080261092093
30
0
41
1
10
24.7835547065404
20
-3.99457418709426
30
0
41
1
10
24.9788497685195
20
-4.05901996771573
30
0
41
1
10
25.3701431200273
20
-4.18317314000134
30
0
41
1
10
25.5664564145527
20
-4.2429676919169
30
0
41
1
10
25.9578780721085
20
-4.35730808533779
30
0
41
1
10
26.152812972854
20
-4.41197387167011
30
0
41
1
10
26.5419536586328
20
-4.51540941844925
30
0
41
1
10
26.7364908365347
20
-4.56388046778744
30
0
41
1
10
27.3197141630228
20
-4.70017202097318
30
0
41
1
10
27.7079544123918
20
-4.77898150797364
30
0
41
1
10
28.4821370595213
20
-4.91355222887444
30
0
41
1
10
28.8673045068346
20
-4.96949003670363
30
0
41
1
10
29.6406105250273
20
-5.05523442582833
30
0
41
1
10
30.0281662494822
20
-5.08557125533844
30
0
41
1
10
30.6099115573429
20
-5.11253246819271
30
0
41
1
10
30.8039015940803
20
-5.11841015602491
30
0
41
1
10
31.0747283785151
20
-5.12215840682904
30
0
41
1
10
31.1515419627042
20
-5.12271572289069
30
0
41
1
10
31.2283998604303
20
-5.12276704620024
30
0
0
SPLINE
5
CD
100
AcDbEntity
8
1
62
256
6
ByLayer
370
18
48
1
60
0
100
AcDbSpline
70
4
71
3
72
100
73
96
40
0
40
0
40
0
40
0
40
0.0271505640689255
40
0.0271505640689255
40
0.0583576543322504
40
0.0583576543322504
40
0.0739611994639127
40
0.0739611994639127
40
0.0895647445955747
40
0.0895647445955747
40
0.120771834858899
40
0.120771834858899
40
0.136375379990561
40
0.136375379990561
40
0.151978925122224
40
0.151978925122224
40
0.167582470253886
40
0.167582470253886
40
0.183186015385549
40
0.183186015385549
40
0.198789560517211
40
0.198789560517211
40
0.214393105648874
40
0.214393105648874
40
0.245600195912199
40
0.245600195912199
40
0.261203741043861
40
0.261203741043861
40
0.276807286175524
40
0.276807286175524
40
0.308014376438849
40
0.308014376438849
40
0.323617921570512
40
0.323617921570512
40
0.339221466702174
40
0.339221466702174
40
0.354825011833837
40
0.354825011833837
40
0.370428556965499
40
0.370428556965499
40
0.386032102097162
40
0.386032102097162
40
0.401635647228824
40
0.401635647228824
40
0.432842737492149
40
0.432842737492149
40
0.464049827755474
40
0.464049827755474
40
0.495256918018799
40
0.495256918018799
40
0.526464008282124
40
0.526464008282124
40
0.542067553413786
40
0.542067553413786
40
0.557671098545448
40
0.557671098545448
40
0.588878188808773
40
0.588878188808773
40
0.604481733940436
40
0.604481733940436
40
0.620085279072098
40
0.620085279072098
40
0.651292369335423
40
0.651292369335423
40
0.682499459598748
40
0.682499459598748
40
0.713706549862073
40
0.713706549862073
40
0.729310094993736
40
0.729310094993736
40
0.744913640125398
40
0.744913640125398
40
0.776120730388723
40
0.776120730388723
40
0.791724275520386
40
0.791724275520386
40
0.807327820652049
40
0.807327820652049
40
0.838534910915375
40
0.838534910915375
40
0.854138456047038
40
0.854138456047038
40
0.8697420011787
40
0.8697420011787
40
0.885345546310363
40
0.885345546310363
40
0.900949091442025
40
0.900949091442025
40
0.932156181705352
40
0.932156181705352
40
0.963363271968679
40
0.963363271968679
40
0.994570362232006
40
0.994570362232006
40
1
40
1
40
1
40
1
41
1
10
53.8700908881573
20
3.69650846563854
30
0
41
1
10
54.2083708430298
20
3.82396688013083
30
0
41
1
10
54.5463411035018
20
3.94293162166883
30
0
41
1
10
55.271636794145
20
4.18186503665535
30
0
41
1
10
55.6586745983006
20
4.29947173462253
30
0
41
1
10
56.2371977831426
20
4.46112700572706
30
0
41
1
10
56.429795157272
20
4.51241937392612
30
0
41
1
10
56.8159267981878
20
4.6085822309621
30
0
41
1
10
57.0092500063926
20
4.65366456909811
30
0
41
1
10
57.5896711007469
20
4.78028753483659
30
0
41
1
10
57.9772303486406
20
4.85325054594153
30
0
41
1
10
58.5587075776581
20
4.94549019165302
30
0
41
1
10
58.7523805445986
20
4.97342100391057
30
0
41
1
10
59.1411163832426
20
5.02270474550582
30
0
41
1
10
59.3361383314685
20
5.04411194737335
30
0
41
1
10
59.7272096973967
20
5.08063042642499
30
0
41
1
10
59.9235514676954
20
5.09574730351858
30
0
41
1
10
60.3149039167402
20
5.11952995296747
30
0
41
1
10
60.5100888615321
20
5.12822052560597
30
0
41
1
10
60.8993457847886
20
5.13920737409435
30
0
41
1
10
61.0932976146393
20
5.14149805568371
30
0
41
1
10
61.4805836123148
20
5.13958312794739
30
0
41
1
10
61.6742725580177
20
5.13540300356121
30
0
41
1
10
62.2552488289747
20
5.11350219109903
30
0
41
1
10
62.6423500927858
20
5.08647255382465
30
0
41
1
10
63.2218078206609
20
5.02715189044483
30
0
41
1
10
63.4147544585427
20
5.00422849065421
30
0
41
1
10
63.8001648951342
20
4.95189859419168
30
0
41
1
10
63.9929123183423
20
4.92260841060494
30
0
41
1
10
64.572647560629
20
4.82625657310103
30
0
41
1
10
64.9604050260134
20
4.75043893164442
30
0
41
1
10
65.5429967672184
20
4.61859572711654
30
0
41
1
10
65.7373602422744
20
4.57161609781187
30
0
41
1
10
66.126304682606
20
4.47129415268986
30
0
41
1
10
66.3207830472214
20
4.41781639475465
30
0
41
1
10
66.711505148158
20
4.30592717853409
30
0
41
1
10
66.9076292670323
20
4.24735394876666
30
0
41
1
10
67.2985340602346
20
4.1255799822662
30
0
41
1
10
67.4936402827359
20
4.06229918598476
30
0
41
1
10
67.8830226908603
20
3.93083045074277
30
0
41
1
10
68.0773002097274
20
3.8626438649224
30
0
41
1
10
68.4648947896316
20
3.721169271441
30
0
41
1
10
68.6580389277586
20
3.64763892051977
30
0
41
1
10
69.2374078915552
20
3.42117842233929
30
0
41
1
10
69.6242410765052
20
3.26342474597428
30
0
41
1
10
70.3973549084997
20
2.93240740995753
30
0
41
1
10
70.7835976563894
20
2.75905599945958
30
0
41
1
10
71.5550632717888
20
2.39546537419884
30
0
41
1
10
71.9424083503725
20
2.20872658214361
30
0
41
1
10
72.7198981883807
20
1.82495982055846
30
0
41
1
10
73.1098630264495
20
1.62762894588332
30
0
41
1
10
73.6959539239866
20
1.32154803976522
30
0
41
1
10
73.8911223559147
20
1.21813966000337
30
0
41
1
10
74.2810762812679
20
1.0123074624037
30
0
41
1
10
74.4758829808214
20
0.909355749833935
30
0
41
1
10
75.0594922076959
20
0.59979059074567
30
0
41
1
10
75.447502653694
20
0.392498091454144
30
0
41
1
10
76.0271157792409
20
0.0786452668828304
30
0
41
1
10
76.219735891441
20
-0.0268038308477969
30
0
41
1
10
76.6054691202911
20
-0.236206713288368
30
0
41
1
10
76.7985679602043
20
-0.34019083288058
30
0
41
1
10
77.378136082116
20
-0.65081411226501
30
0
41
1
10
77.7649034122172
20
-0.856079150449432
30
0
41
1
10
78.5381022973557
20
-1.26502841257525
30
0
41
1
10
78.9240637010898
20
-1.46956293686631
30
0
41
1
10
79.7014575696688
20
-1.86621478946302
30
0
41
1
10
80.0923211106988
20
-2.06014252102946
30
0
41
1
10
80.6796024666421
20
-2.345182247456
30
0
41
1
10
80.8747404234431
20
-2.43883781867743
30
0
41
1
10
81.2636670168661
20
-2.62356007481566
30
0
41
1
10
81.4577025774015
20
-2.71418631363778
30
0
41
1
10
82.0400598133217
20
-2.97851313135149
30
0
41
1
10
82.4278843491296
20
-3.14600078013657
30
0
41
1
10
83.0080668123597
20
-3.38588793504223
30
0
41
1
10
83.2012072389938
20
-3.46393822104602
30
0
41
1
10
83.5868473814129
20
-3.61632547066122
30
0
41
1
10
83.779216057604
20
-3.69081589534719
30
0
41
1
10
84.3576593171946
20
-3.90561010903653
30
0
41
1
10
84.7444276387314
20
-4.03823384953313
30
0
41
1
10
85.3251472997233
20
-4.22288937028387
30
0
41
1
10
85.5188281855268
20
-4.28203158799786
30
0
41
1
10
85.906280967024
20
-4.39552977800594
30
0
41
1
10
86.0999051770462
20
-4.45002290828717
30
0
41
1
10
86.4879715877658
20
-4.5533572497618
30
0
41
1
10
86.682691397876
20
-4.60195290701367
30
0
41
1
10
87.0732253495209
20
-4.69332596543671
30
0
41
1
10
87.2693561882237
20
-4.73616209309805
30
0
41
1
10
87.8562892447422
20
-4.855489492646
30
0
41
1
10
88.2456104151512
20
-4.9229650300548
30
0
41
1
10
89.0197701716431
20
-5.03375705532525
30
0
41
1
10
89.4067051899113
20
-5.07600551597847
30
0
41
1
10
90.1801599092488
20
-5.13548244458232
30
0
41
1
10
90.5664648701629
20
-5.15279915015645
30
0
41
1
10
91.0188607304704
20
-5.15826795586509
30
0
41
1
10
91.0858757425346
20
-5.15868918692968
30
0
41
1
10
91.1528946995029
20
-5.15872270016072
30
0
0
SPLINE
5
CE
100
AcDbEntity
8
1
62
256
6
ByLayer
370
18
48
1
60
0
100
AcDbSpline
70
4
71
3
72
91
73
87
40
0
40
0
40
0
40
0
40
0.0366680339535403
40
0.0366680339535403
40
0.107202543936151
40
0.107202543936151
40
0.142469798927456
40
0.142469798927456
40
0.177737053918761
40
0.177737053918761
40
0.248271563901372
40
0.248271563901372
40
0.283538818892677
40
0.283538818892677
40
0.318806073883982
40
0.318806073883982
40
0.354073328875287
40
0.354073328875287
40
0.389340583866592
40
0.389340583866592
40
0.424607838857898
40
0.424607838857898
40
0.44224146635355
40
0.451058280101377
40
0.451058280101377
40
0.45546668697529
40
0.45546668697529
40
0.4556044496901
40
0.4556044496901
40
0.455742212404909
40
0.455742212404909
40
0.456017737834529
40
0.456017737834529
40
0.456568788693768
40
0.456568788693768
40
0.457670890412247
40
0.457670890412247
40
0.459875093849203
40
0.459875093849203
40
0.468691907597031
40
0.468691907597031
40
0.477508721344858
40
0.477508721344858
40
0.495142348840512
40
0.495142348840512
40
0.530409603831821
40
0.530409603831821
40
0.600944113814438
40
0.600944113814438
40
0.671478623797055
40
0.671478623797055
40
0.689112251292709
40
0.689112251292709
40
0.706745878788364
40
0.706745878788364
40
0.711154285662277
40
0.711154285662277
40
0.712256387380756
40
0.712256387380756
40
0.712807438239995
40
0.712807438239995
40
0.713082963669614
40
0.713082963669614
40
0.713358489099234
40
0.713358489099234
40
0.713496251814044
40
0.713496251814044
40
0.713634014528854
40
0.713909539958473
40
0.714460590817713
40
0.715562692536192
40
0.724379506284021
40
0.724379506284021
40
0.742013133779682
40
0.742013133779682
40
0.777280388771002
40
0.777280388771002
40
0.812547643762322
40
0.812547643762322
40
0.883082153744963
40
0.883082153744963
40
0.918349408736283
40
0.918349408736283
40
0.953616663727604
40
0.953616663727604
40
1
40
1
40
1
40
1
41
1
10
18.7673684368916
20
-1.33485460729281
30
0
41
1
10
18.5894408384064
20
-1.24563819162893
30
0
41
1
10
18.4115842275422
20
-1.15874186454965
30
0
41
1
10
17.8913962709512
20
-0.913071717610393
30
0
41
1
10
17.5488964410464
20
-0.762037155752381
30
0
41
1
10
17.0315891166283
20
-0.559557033826366
30
0
41
1
10
16.8595120894586
20
-0.496512938721736
30
0
41
1
10
16.5181234685637
20
-0.381389430153973
30
0
41
1
10
16.3484013981007
20
-0.329148910478409
30
0
41
1
10
15.841025991611
20
-0.189753123037889
30
0
41
1
10
15.5051906944213
20
-0.11998218423912
30
0
41
1
10
14.9997780427562
20
-0.0544476783560128
30
0
41
1
10
14.831022379012
20
-0.0391080664673495
30
0
41
1
10
14.4919934159967
20
-0.0220167731482377
30
0
41
1
10
14.3224152326482
20
-0.0203308154959245
30
0
41
1
10
13.9844963424883
20
-0.0305877165759227
30
0
41
1
10
13.8157967554055
20
-0.0425083314997039
30
0
41
1
10
13.477973812478
20
-0.0796833926262366
30
0
41
1
10
13.308606953261
20
-0.104999557318905
30
0
41
1
10
12.9708640324364
20
-0.168221085157228
30
0
41
1
10
12.8022652003279
20
-0.206131540305478
30
0
41
1
10
12.5491495773682
20
-0.271982927013511
30
0
41
1
10
12.4225381979875
20
-0.307155732059471
30
0
41
1
10
12.295734438132
20
-0.345618162645849
30
0
41
1
10
12.2322913404967
20
-0.365391178698559
30
0
41
1
10
12.2111362519359
20
-0.372072646895617
30
0
41
1
10
12.1893132926885
20
-0.37905512576134
30
0
41
1
10
12.1886519905007
20
-0.37926680142391
30
0
41
1
10
12.1873293852939
20
-0.37969032349335
30
0
41
1
10
12.1864500596875
20
-0.379813828514585
30
0
41
1
10
12.1858782343783
20
-0.381337188602885
30
0
41
1
10
12.1871921810811
20
-0.382398785317576
30
0
41
1
10
12.1900346527718
20
-0.385112490247423
30
0
41
1
10
12.1922719080328
20
-0.38674840816347
30
0
41
1
10
12.1990152854491
20
-0.391549242048683
30
0
41
1
10
12.2037584179172
20
-0.394581092535816
30
0
41
1
10
12.2181107549056
20
-0.403538621472137
30
0
41
1
10
12.2279207363834
20
-0.409296811411792
30
0
41
1
10
12.2773001359444
20
-0.437803097325201
30
0
41
1
10
12.3178303467967
20
-0.45968719461635
30
0
41
1
10
12.3990219220202
20
-0.503305142462125
30
0
41
1
10
12.4398373152144
20
-0.524920073071598
30
0
41
1
10
12.5625799398745
20
-0.589547488636839
30
0
41
1
10
12.6447974144679
20
-0.632328195226165
30
0
41
1
10
12.8919007412564
20
-0.760479956007799
30
0
41
1
10
13.0572776801915
20
-0.845638669188361
30
0
41
1
10
13.5541575086869
20
-1.1015556672765
30
0
41
1
10
13.8861557521941
20
-1.27315661315063
30
0
41
1
10
14.549962921587
20
-1.62050747614808
30
0
41
1
10
14.8818608464849
20
-1.79593533211278
30
0
41
1
10
15.2943356716063
20
-2.02160930832591
30
0
41
1
10
15.3767090343153
20
-2.06707331579449
30
0
41
1
10
15.5408925582367
20
-2.15927218317714
30
0
41
1
10
15.6229304699335
20
-2.20555851584075
30
0
41
1
10
15.7235192184611
20
-2.26696436486424
30
0
41
1
10
15.7435840033532
20
-2.27935864257014
30
0
41
1
10
15.7678923405951
20
-2.29604912782844
30
0
41
1
10
15.772709179372
20
-2.29944726983362
30
0
41
1
10
15.7797207332386
20
-2.30482986723067
30
0
41
1
10
15.7820260877803
20
-2.30666657968271
30
0
41
1
10
15.7853287931652
20
-2.30962888729545
30
0
41
1
10
15.7864069378302
20
-2.3106466880169
30
0
41
1
10
15.7884079772371
20
-2.31288936172069
30
0
41
1
10
15.7898696147332
20
-2.31419568674175
30
0
41
1
10
15.7892216229845
20
-2.31645202671152
30
0
41
1
10
15.7883929189753
20
-2.31679309484247
30
0
41
1
10
15.7871978620671
20
-2.31774997391102
30
0
41
1
10
15.7854052729479
20
-2.31918521058728
30
0
41
1
10
15.7812225381135
20
-2.32253352130564
30
0
41
1
10
15.7728569665666
20
-2.32922782410722
30
0
41
1
10
15.7274428943809
20
-2.36554271758854
30
0
41
1
10
15.6844115240477
20
-2.39979879137789
30
0
41
1
10
15.56965560166
20
-2.49071895297251
30
0
41
1
10
15.493072863372
20
-2.55081632606965
30
0
41
1
10
15.2634567030337
20
-2.72868941621002
30
0
41
1
10
15.1106230018853
20
-2.84401444179016
30
0
41
1
10
14.8037442700245
20
-3.06613212241345
30
0
41
1
10
14.6493101947821
20
-3.17317944384661
30
0
41
1
10
14.183884117494
20
-3.47624569279205
30
0
41
1
10
13.8744854279228
20
-3.65177879899298
30
0
41
1
10
13.4004341457608
20
-3.86451585178162
30
0
41
1
10
13.2407524173483
20
-3.92700616792609
30
0
41
1
10
12.9162726092974
20
-4.03371275485745
30
0
41
1
10
12.7509275852371
20
-4.07792572166505
30
0
41
1
10
12.3690370971768
20
-4.15683830622291
30
0
41
1
10
12.1512548769912
20
-4.18466497497605
30
0
41
1
10
11.9318474344722
20
-4.19771918438258
30
0
0
SPLINE
5
CF
100
AcDbEntity
8
1
62
256
6
ByLayer
370
18
48
1
60
0
100
AcDbSpline
70
4
71
3
72
16
73
12
40
0
40
0
40
0
40
0
40
0.277400725152016
40
0.277400725152016
40
0.51715066917904
40
0.51715066917904
40
0.637025641192555
40
0.637025641192555
40
0.75690061320607
40
0.75690061320607
40
1
40
1
40
1
40
1
41
1
10
62.2303001613494
20
-4.91013361279468
30
0
41
1
10
61.7091769831304
20
-4.90916405595746
30
0
41
1
10
61.1878763206399
20
-4.88618015514484
30
0
41
1
10
60.2133522582314
20
-4.80246882038296
30
0
41
1
10
59.7603033656956
20
-4.74726885401336
30
0
41
1
10
59.0773296206992
20
-4.63992845098414
30
0
41
1
10
58.8487158432249
20
-4.59997096609803
30
0
41
1
10
58.3930907238135
20
-4.51246576161668
30
0
41
1
10
58.165886216217
20
-4.46491343609617
30
0
41
1
10
57.4792332744359
20
-4.30993939721859
30
0
41
1
10
57.0210013301659
20
-4.191210611401
30
0
41
1
10
56.563568798166
20
-4.05871101987501
30
0
0
SPLINE
5
D0
100
AcDbEntity
8
1
62
256
6
ByLayer
370
13
48
1
60
0
100
AcDbSpline
70
4
71
3
72
22
73
18
40
0
40
0
40
0
40
0
40
0.0961126537940419
40
0.0961126537940419
40
0.291061507451889
40
0.291061507451889
40
0.388535934280812
40
0.388535934280812
40
0.486010361109734
40
0.486010361109734
40
0.680959214767577
40
0.680959214767577
40
0.875908068425419
40
0.875908068425419
40
0.973382495254341
40
0.973382495254341
40
1
40
1
40
1
40
1
41
1
10
56.563568798456
20
-4.05871101995905
30
0
41
1
10
56.1187413502784
20
-3.92986260831952
30
0
41
1
10
55.6746698639342
20
-3.78799187525891
30
0
41
1
10
54.3297957250445
20
-3.32216856571458
30
0
41
1
10
53.4279430444448
20
-2.96178507233356
30
0
41
1
10
52.063670237392
20
-2.3625187300996
30
0
41
1
10
51.6063775496329
20
-2.15298385940997
30
0
41
1
10
50.6940489943511
20
-1.72200921694105
30
0
41
1
10
50.2381750799443
20
-1.49983647505553
30
0
41
1
10
48.8684276554226
20
-0.818886973872111
30
0
41
1
10
47.9640176302331
20
-0.352926931062399
30
0
41
1
10
46.1609228613953
20
0.574377582292755
30
0
41
1
10
45.2612128714793
20
1.03451706661593
30
0
41
1
10
43.9043169939655
20
1.6995883445378
30
0
41
1
10
43.4506218232315
20
1.91674564332595
30
0
41
1
10
42.8700820144095
20
2.18512127240501
30
0
41
1
10
42.7453857384288
20
2.24222592012452
30
0
41
1
10
42.6207661412652
20
2.29871660978651
30
0
0
SPLINE
5
D1
100
AcDbEntity
8
1
62
256
6
ByLayer
370
18
48
1
60
0
100
AcDbSpline
70
4
71
3
72
12
73
8
40
0
40
0
40
0
40
0
40
0.250000000000012
40
0.250000000000012
40
0.500000000000025
40
0.500000000000025
40
1
40
1
40
1
40
1
41
1
10
6.13174150722134
20
4.665820711284
30
0
41
1
10
6.11405742289142
20
4.66967411990979
30
0
41
1
10
6.09785789977096
20
4.67428101898116
30
0
41
1
10
6.06832430625724
20
4.68487911958087
30
0
41
1
10
6.0549680032868
20
4.69092573283578
30
0
41
1
10
6.02140078675316
20
4.71014491848362
30
0
41
1
10
6.00685812902779
20
4.7248329410003
30
0
41
1
10
6.0019271039684
20
4.73955809125798
30
0
0
SPLINE
5
D2
100
AcDbEntity
8
1
62
256
6
ByLayer
370
18
48
1
60
0
100
AcDbSpline
70
4
71
3
72
40
73
36
40
0
40
0
40
0
40
0
40
0.250000000000008
40
0.250000000000008
40
0.500000000000016
40
0.500000000000016
40
0.625000000000015
40
0.625000000000015
40
0.687500000000014
40
0.687500000000014
40
0.718750000000019
40
0.718750000000019
40
0.750000000000024
40
0.750000000000024
40
0.781250000000028
40
0.781250000000028
40
0.812500000000033
40
0.812500000000033
40
0.828125000000031
40
0.828125000000031
40
0.843750000000029
40
0.843750000000029
40
0.859375000000027
40
0.859375000000027
40
0.875000000000025
40
0.875000000000025
40
0.906250000000021
40
0.906250000000021
40
0.921875000000017
40
0.921875000000017
40
0.937500000000014
40
0.937500000000014
40
0.968750000000007
40
0.968750000000007
40
1
40
1
40
1
40
1
41
1
10
87.8720575385167
20
2.03194879183729
30
0
41
1
10
88.2976354882723
20
1.73783241862893
30
0
41
1
10
88.7280168749301
20
1.4701476296286
30
0
41
1
10
89.6015373562823
20
1.00497912664076
30
0
41
1
10
90.0445048569419
20
0.806551192446193
30
0
41
1
10
90.7216861289032
20
0.578958014216084
30
0
41
1
10
90.9467631779933
20
0.51590957564872
30
0
41
1
10
91.2818322326474
20
0.444091480119766
30
0
41
1
10
91.3929902648494
20
0.423978662774914
30
0
41
1
10
91.5584820184196
20
0.400075988234619
30
0
41
1
10
91.6134553423323
20
0.39315067345035
30
0
41
1
10
91.7228713468225
20
0.381486200273997
30
0
41
1
10
91.777495364381
20
0.3762228210675
30
0
41
1
10
91.8849832672256
20
0.371938578885647
30
0
41
1
10
91.9379101485927
20
0.372589915745664
30
0
41
1
10
92.0404822803627
20
0.381065395675933
30
0
41
1
10
92.090293266417
20
0.388793930453858
30
0
41
1
10
92.1617769706039
20
0.408037134718228
30
0
41
1
10
92.1852167377582
20
0.415740611926964
30
0
41
1
10
92.2297870783496
20
0.434744466617019
30
0
41
1
10
92.2508925759641
20
0.44586500471982
30
0
41
1
10
92.291038846256
20
0.470939058282454
30
0
41
1
10
92.3100247354913
20
0.484967878469803
30
0
41
1
10
92.3455969766578
20
0.516317887105544
30
0
41
1
10
92.3622791665177
20
0.533771344446137
30
0
41
1
10
92.4069930113637
20
0.590196353157097
30
0
41
1
10
92.4300429513977
20
0.633439357612303
30
0
41
1
10
92.4531596961758
20
0.707841470023084
30
0
41
1
10
92.4589201826142
20
0.734283074614808
30
0
41
1
10
92.466298236388
20
0.788430127578124
30
0
41
1
10
92.467999841533
20
0.81635641556457
30
0
41
1
10
92.4676313426714
20
0.902483765321875
30
0
41
1
10
92.4598991229811
20
0.963229436216153
30
0
41
1
10
92.433340273794
20
1.08408158208837
30
0
41
1
10
92.4143373950447
20
1.1450075188049
30
0
41
1
10
92.3915731196865
20
1.20626196097947
30
0
0
SPLINE
5
D3
100
AcDbEntity
8
1
62
256
6
ByLayer
370
18
48
1
60
0
100
AcDbSpline
70
4
71
3
72
16
73
12
40
0
40
0
40
0
40
0
40
0.192096408227464
40
0.192096408227464
40
0.387713920491468
40
0.387713920491468
40
0.583331432755471
40
0.583331432755471
40
0.778948945019473
40
0.778948945019473
40
1
40
1
40
1
40
1
41
1
10
47.0528725131005
20
0.0049746037616387
30
0
41
1
10
47.4956295430072
20
-0.227376901066521
30
0
41
1
10
47.938957103258
20
-0.460081918511207
30
0
41
1
10
48.8370063507826
20
-0.926359160004125
30
0
41
1
10
49.2918357340376
20
-1.16036964899655
30
0
41
1
10
50.2054792258387
20
-1.6212623569879
30
0
41
1
10
50.661564505219
20
-1.8464974485963
30
0
41
1
10
51.574357934432
20
-2.28270551360356
30
0
41
1
10
52.0319284819831
20
-2.49441202606079
30
0
41
1
10
53.0008805113793
20
-2.9234242737015
30
0
41
1
10
53.5124105958997
20
-3.13789100510141
30
0
41
1
10
54.0226548442483
20
-3.33759782170415
30
0
0
SPLINE
5
D4
100
AcDbEntity
8
1
62
256
6
ByLayer
370
13
48
1
60
0
100
AcDbSpline
70
4
71
3
72
20
73
16
40
0
40
0
40
0
40
0
40
0.120097620634957
40
0.120097620634957
40
0.396189403359985
40
0.396189403359985
40
0.465212349041243
40
0.465212349041243
40
0.534235294722499
40
0.534235294722499
40
0.672281186085013
40
0.672281186085013
40
0.948372968810042
40
0.948372968810042
40
1
40
1
40
1
40
1
41
1
10
54.0226548439653
20
-3.33759782159331
30
0
41
1
10
54.415484417438
20
-3.49134917467885
30
0
41
1
10
54.8075518456492
20
-3.63635198003482
30
0
41
1
10
56.1002823282497
20
-4.08339114056417
30
0
41
1
10
57.0010842440768
20
-4.34383689578002
30
0
41
1
10
58.1354151781139
20
-4.59462290950643
30
0
41
1
10
58.3627294327415
20
-4.64103987448729
30
0
41
1
10
58.8186237520347
20
-4.72602503514199
30
0
41
1
10
59.0473532985639
20
-4.7645915432378
30
0
41
1
10
59.7305641645442
20
-4.86744982793388
30
0
41
1
10
60.1837258121363
20
-4.91925660233741
30
0
41
1
10
61.5392961622724
20
-5.0243956862418
30
0
41
1
10
62.4386216558588
20
-5.0274170765033
30
0
41
1
10
63.508889611702
20
-4.95131614908945
30
0
41
1
10
63.6776097710696
20
-4.93701198223832
30
0
41
1
10
63.8464906778625
20
-4.92038529537416
30
0
0
SPLINE
5
D5
100
AcDbEntity
8
1
62
256
6
ByLayer
370
18
48
1
60
0
100
AcDbSpline
70
4
71
3
72
96
73
92
40
0
40
0
40
0
40
0
40
0.0227569606691552
40
0.0227569606691552
40
0.0549868764577158
40
0.0549868764577158
40
0.0711018343519966
40
0.0711018343519966
40
0.0872167922462773
40
0.0872167922462773
40
0.119446708034839
40
0.119446708034839
40
0.13556166592912
40
0.13556166592912
40
0.151676623823401
40
0.151676623823401
40
0.183906539611964
40
0.183906539611964
40
0.200021497506245
40
0.200021497506245
40
0.216136455400526
40
0.216136455400526
40
0.248366371189088
40
0.248366371189088
40
0.280596286977651
40
0.280596286977651
40
0.312826202766213
40
0.312826202766213
40
0.345056118554776
40
0.345056118554776
40
0.377286034343338
40
0.377286034343338
40
0.4095159501319
40
0.4095159501319
40
0.425630908026181
40
0.425630908026181
40
0.441745865920463
40
0.441745865920463
40
0.473975781709025
40
0.473975781709025
40
0.506205697497587
40
0.506205697497587
40
0.53843561328615
40
0.53843561328615
40
0.554550571180431
40
0.554550571180431
40
0.570665529074712
40
0.570665529074712
40
0.602895444863275
40
0.602895444863275
40
0.619010402757557
40
0.619010402757557
40
0.635125360651839
40
0.635125360651839
40
0.667355276440402
40
0.667355276440402
40
0.699585192228965
40
0.699585192228965
40
0.715700150123247
40
0.715700150123247
40
0.731815108017528
40
0.731815108017528
40
0.74793006591181
40
0.74793006591181
40
0.764045023806091
40
0.764045023806091
40
0.780159981700373
40
0.780159981700373
40
0.796274939594655
40
0.796274939594655
40
0.812389897488936
40
0.812389897488936
40
0.828504855383218
40
0.828504855383218
40
0.844619813277499
40
0.844619813277499
40
0.860734771171781
40
0.860734771171781
40
0.876849729066062
40
0.876849729066062
40
0.892964686960344
40
0.892964686960344
40
0.909079644854626
40
0.909079644854626
40
0.925194602748908
40
0.925194602748908
40
0.957424518537471
40
0.957424518537471
40
0.989654434326036
40
0.989654434326036
40
1
40
1
40
1
40
1
41
1
10
17.029186012446
20
4.88907659368883
30
0
41
1
10
17.3081420494342
20
4.88955916795771
30
0
41
1
10
17.587181787617
20
4.88346529907702
30
0
41
1
10
18.2623020545637
20
4.85368163314169
30
0
41
1
10
18.6588638428993
20
4.82346610601692
30
0
41
1
10
19.2530488822368
20
4.76165080311949
30
0
41
1
10
19.450709665026
20
4.7378550480291
30
0
41
1
10
19.8461812292383
20
4.68329345981024
30
0
41
1
10
20.0439254579349
20
4.65280967156636
30
0
41
1
10
20.6370962491145
20
4.55276107094457
30
0
41
1
10
21.0325111654738
20
4.47438632118011
30
0
41
1
10
21.6255198479941
20
4.34016079263844
30
0
41
1
10
21.8230539395275
20
4.29290919032195
30
0
41
1
10
22.2187858123233
20
4.19241685076383
30
0
41
1
10
22.4171958328735
20
4.13892101766135
30
0
41
1
10
23.0116172659629
20
3.97070692579968
30
0
41
1
10
23.4073496429365
20
3.84839985924037
30
0
41
1
10
24.0001412615074
20
3.65070285852826
30
0
41
1
10
24.1975479375567
20
3.5823285491181
30
0
41
1
10
24.5923913181973
20
3.4415088976366
30
0
41
1
10
24.7899970998906
20
3.36909958181943
30
0
41
1
10
25.3835172080682
20
3.14435056431873
30
0
41
1
10
25.7806179053358
20
2.98534101413173
30
0
41
1
10
26.5727095590826
20
2.65295869819192
30
0
41
1
10
26.9674063289485
20
2.47933135681313
30
0
41
1
10
27.7579465766196
20
2.12202350015934
30
0
41
1
10
28.1534945737591
20
1.93721348033776
30
0
41
1
10
28.9452026715427
20
1.55766620378969
30
0
41
1
10
29.3414352881551
20
1.36183730395473
30
0
41
1
10
30.1331007535598
20
0.9674588579052
30
0
41
1
10
30.5286019261963
20
0.767978931094035
30
0
41
1
10
31.3192450448135
20
0.365297802061662
30
0
41
1
10
31.7139773797946
20
0.161330323085906
30
0
41
1
10
32.3074214861323
20
-0.143929344244981
30
0
41
1
10
32.5055561365234
20
-0.245557699188396
30
0
41
1
10
32.9020744337246
20
-0.448374315003122
30
0
41
1
10
33.1001102235524
20
-0.549315840483956
30
0
41
1
10
33.6937015702411
20
-0.850755672731054
30
0
41
1
10
34.0884087970089
20
-1.05058073166336
30
0
41
1
10
34.8780957422996
20
-1.44425434402234
30
0
41
1
10
35.2734269815734
20
-1.63768694584999
30
0
41
1
10
36.0655255468524
20
-2.01437653173002
30
0
41
1
10
36.4620354914521
20
-2.19811415665373
30
0
41
1
10
37.0548572485029
20
-2.46522548364268
30
0
41
1
10
37.252523745453
20
-2.55254957300281
30
0
41
1
10
37.6478672027286
20
-2.72445281897851
30
0
41
1
10
37.8455092765788
20
-2.80910622500522
30
0
41
1
10
38.4386028593517
20
-3.05514518572937
30
0
41
1
10
38.834129138879
20
-3.21078357571469
30
0
41
1
10
39.427940468424
20
-3.43307972646366
30
0
41
1
10
39.6261815147026
20
-3.50497359935534
30
0
41
1
10
40.022311062434
20
-3.64429202358556
30
0
41
1
10
40.220292613917
20
-3.7120448261928
30
0
41
1
10
40.8138602292644
20
-3.90868066861995
30
0
41
1
10
41.2091161916618
20
-4.0272889650868
30
0
41
1
10
41.9992171859183
20
-4.24520386949391
30
0
41
1
10
42.3948838140388
20
-4.34309061934386
30
0
41
1
10
42.9898432357445
20
-4.47509549599923
30
0
41
1
10
43.1880216349668
20
-4.51679729998878
30
0
41
1
10
43.5838143079447
20
-4.59260580494134
30
0
41
1
10
43.7814808034868
20
-4.62709229087258
30
0
41
1
10
44.1764588154874
20
-4.69014773201542
30
0
41
1
10
44.3737393501706
20
-4.71863413714414
30
0
41
1
10
44.768776451588
20
-4.76946498464233
30
0
41
1
10
44.9664394158318
20
-4.79186505409768
30
0
41
1
10
45.3619386104895
20
-4.83117973011966
30
0
41
1
10
45.559765224879
20
-4.84831710832921
30
0
41
1
10
45.955632504266
20
-4.87627056764151
30
0
41
1
10
46.1538617707524
20
-4.88666385352801
30
0
41
1
10
46.5498604895802
20
-4.90044287615584
30
0
41
1
10
46.7474533593227
20
-4.90390253229526
30
0
41
1
10
47.1427373835983
20
-4.9044819187817
30
0
41
1
10
47.3404205626473
20
-4.90163322317434
30
0
41
1
10
47.7357610539606
20
-4.89010072681089
30
0
41
1
10
47.9334280282052
20
-4.8813965031928
30
0
41
1
10
48.3286955485733
20
-4.85899208365953
30
0
41
1
10
48.5262989542919
20
-4.84475444730589
30
0
41
1
10
48.9215668602625
20
-4.80868574889988
30
0
41
1
10
49.1191627077215
20
-4.7870436063545
30
0
41
1
10
49.5148717176951
20
-4.73734444859898
30
0
41
1
10
49.7131953574577
20
-4.70935020171839
30
0
41
1
10
50.1093542193685
20
-4.64777688636335
30
0
41
1
10
50.307313998436
20
-4.61411459053187
30
0
41
1
10
50.7029992846137
20
-4.54145760826211
30
0
41
1
10
50.9007173334149
20
-4.50292812730171
30
0
41
1
10
51.4934542605732
20
-4.3774140648797
30
0
41
1
10
51.8878817600861
20
-4.28015647675355
30
0
41
1
10
52.679335264844
20
-4.06538575932399
30
0
41
1
10
53.0764396354884
20
-3.94714802004427
30
0
41
1
10
53.5994433229063
20
-3.77950037569698
30
0
41
1
10
53.7264208361056
20
-3.7377250076361
30
0
41
1
10
53.8533031598016
20
-3.69482202145056
30
0
0
SPLINE
5
D6
100
AcDbEntity
8
1
62
256
6
ByLayer
370
18
48
1
60
0
100
AcDbSpline
70
4
71
3
72
30
73
26
40
0
40
0
40
0
40
0
40
0.0115324024669871
40
0.0115324024669871
40
0.121362135526218
40
0.121362135526218
40
0.23119186858545
40
0.23119186858545
40
0.286106735115065
40
0.286106735115065
40
0.341021601644683
40
0.341021601644683
40
0.450851334703904
40
0.450851334703904
40
0.560681067763127
40
0.560681067763127
40
0.615595934292739
40
0.615595934292739
40
0.67051080082235
40
0.67051080082235
40
0.780340533881567
40
0.780340533881567
40
0.890170266940784
40
0.890170266940784
40
1
40
1
40
1
40
1
41
1
10
77.0737891869366
20
4.92025267194683
30
0
41
1
10
77.1153582268576
20
4.91984202625645
30
0
41
1
10
77.1569259439459
20
4.91928781098949
30
0
41
1
10
77.594342762136
20
4.91195543402591
30
0
41
1
10
77.9899142198132
20
4.89263799539748
30
0
41
1
10
78.7804905197608
20
4.83050828889603
30
0
41
1
10
79.1751116339454
20
4.78727075171159
30
0
41
1
10
79.7687467657392
20
4.70632575136077
30
0
41
1
10
79.9669354300866
20
4.67693625688517
30
0
41
1
10
80.3631462874884
20
4.61174600571877
30
0
41
1
10
80.5609897936955
20
4.57524994515623
30
0
41
1
10
81.1539389834317
20
4.45687871742476
30
0
41
1
10
81.5480085357546
20
4.36516080843586
30
0
41
1
10
82.3374883384135
20
4.16076833244315
30
0
41
1
10
82.7327876156059
20
4.0481433238669
30
0
41
1
10
83.3265876229102
20
3.86318748698477
30
0
41
1
10
83.5247422534187
20
3.79880739225575
30
0
41
1
10
83.9201949886027
20
3.66515025973422
30
0
41
1
10
84.1175601628737
20
3.59573400445169
30
0
41
1
10
84.7099502384966
20
3.38180765839172
30
0
41
1
10
85.1050175585184
20
3.23159714840898
30
0
41
1
10
85.8952077851943
20
2.9143809739177
30
0
41
1
10
86.2901175431235
20
2.74676793699282
30
0
41
1
10
87.0815932541371
20
2.39704994396934
30
0
41
1
10
87.4771258509007
20
2.21716053444666
30
0
41
1
10
87.8720575385169
20
2.03194879183741
30
0
0
SPLINE
5
D7
100
AcDbEntity
8
1
62
256
6
ByLayer
370
18
48
1
60
0
100
AcDbSpline
70
4
71
3
72
18
73
14
40
0
40
0
40
0
40
0
40
0.0063798406517848
40
0.0063798406517848
40
0.333549637785783
40
0.333549637785783
40
0.497134536352782
40
0.497134536352782
40
0.660719434919781
40
0.660719434919781
40
0.98788923205378
40
0.98788923205378
40
1
40
1
40
1
40
1
41
1
10
17.0456937042546
20
0.034868857177031
30
0
41
1
10
17.0633186277139
20
0.0256616118610395
30
0
41
1
10
17.0809421182095
20
0.016454986592862
30
0
41
1
10
18.0022582844191
20
-0.464845705944384
30
0
41
1
10
18.902041634347
20
-0.935563640455825
30
0
41
1
10
20.2578535600221
20
-1.61636980609035
30
0
41
1
10
20.7107526888194
20
-1.83919826086998
30
0
41
1
10
21.6204775112957
20
-2.27279287218883
30
0
41
1
10
22.0784084583057
20
-2.48392463986295
30
0
41
1
10
23.4473000501781
20
-3.08751654984795
30
0
41
1
10
24.3566494972496
20
-3.45159778618367
30
0
41
1
10
25.3045718713667
20
-3.77724654145072
30
0
41
1
10
25.3383992779656
20
-3.78879619284751
30
0
41
1
10
25.3722174581558
20
-3.80027081481489
30
0
0
SPLINE
5
D8
100
AcDbEntity
8
1
62
256
6
ByLayer
370
13
48
1
60
0
100
AcDbSpline
70
4
71
3
72
20
73
16
40
0
40
0
40
0
40
0
40
0.146746551592404
40
0.146746551592404
40
0.305226006601358
40
0.305226006601358
40
0.62218491661926
40
0.62218491661926
40
0.780664371628212
40
0.780664371628212
40
0.859904099132688
40
0.859904099132688
40
0.939143826637164
40
0.939143826637164
40
1
40
1
40
1
40
1
41
1
10
25.3722184049535
20
-3.80027113606653
30
0
41
1
10
25.7951953472904
20
-3.94378861451546
30
0
41
1
10
26.2167289595122
20
-4.07556889053927
30
0
41
1
10
27.0899686888899
20
-4.32319252148758
30
0
41
1
10
27.5418209987856
20
-4.43707496906043
30
0
41
1
10
28.8954449800569
20
-4.73283754194466
30
0
41
1
10
29.7955028270917
20
-4.86835401286169
30
0
41
1
10
31.1533464409027
20
-4.97224278318348
30
0
41
1
10
31.6073051401557
20
-4.99028871050859
30
0
41
1
10
32.2917477936682
20
-4.99156588231043
30
0
41
1
10
32.5205303544433
20
-4.98767000254722
30
0
41
1
10
32.9769584163658
20
-4.97135182614309
30
0
41
1
10
33.2049170007956
20
-4.95893615064711
30
0
41
1
10
33.607753651949
20
-4.92950758414952
30
0
41
1
10
33.782677252386
20
-4.91423285499593
30
0
41
1
10
33.9575937253657
20
-4.89648396717027
30
0
0
SPLINE
5
D9
100
AcDbEntity
8
1
62
256
6
ByLayer
370
18
48
1
60
0
100
AcDbSpline
70
4
71
3
72
14
73
10
40
0
40
0
40
0
40
0
40
0.336720680558772
40
0.336720680558772
40
0.681191914450019
40
0.681191914450019
40
0.853427531395643
40
0.853427531395643
40
1
40
1
40
1
40
1
41
1
10
77.0084981817589
20
0.0023911616176804
30
0
41
1
10
77.8961931838324
20
-0.464648150433476
30
0
41
1
10
78.776390623806
20
-0.928225920849826
30
0
41
1
10
80.5565870274133
20
-1.83086948535797
30
0
41
1
10
81.457063025946
20
-2.26824998557396
30
0
41
1
10
82.8189724413871
20
-2.87570241207524
30
0
41
1
10
83.2760577941601
20
-3.07049319972677
30
0
41
1
10
84.1195645174028
20
-3.40942949871783
30
0
41
1
10
84.5067267011372
20
-3.55697431578702
30
0
41
1
10
84.8938945973296
20
-3.69536943539526
30
0
0
SPLINE
5
DA
100
AcDbEntity
8
1
62
256
6
ByLayer
370
13
48
1
60
0
100
AcDbSpline
70
4
71
3
72
20
73
16
40
0
40
0
40
0
40
0
40
0.0242315109039839
40
0.0242315109039839
40
0.18685959241998
40
0.18685959241998
40
0.268173633177982
40
0.268173633177982
40
0.349487673935985
40
0.349487673935985
40
0.674743836967993
40
0.674743836967993
40
0.837371918483997
40
0.837371918483997
40
1
40
1
40
1
40
1
41
1
10
84.8938955402196
20
-3.69536977243604
30
0
41
1
10
84.9616838580433
20
-3.71960104635698
30
0
41
1
10
85.0294723510025
20
-3.74355183000546
30
0
41
1
10
85.5522466754025
20
-3.92604770295205
30
0
41
1
10
86.0074076973629
20
-4.07203291014107
30
0
41
1
10
86.6918453083856
20
-4.26987196650816
30
0
41
1
10
86.9200573593545
20
-4.33221798924919
30
0
41
1
10
87.3748450036728
20
-4.44896029654907
30
0
41
1
10
87.6017081098073
20
-4.50343563760208
30
0
41
1
10
88.733985908205
20
-4.75610894195293
30
0
41
1
10
89.6332956244716
20
-4.89531353237928
30
0
41
1
10
90.9845971456437
20
-5.00443106028354
30
0
41
1
10
91.4353915137965
20
-5.02419675240316
30
0
41
1
10
92.3393526062796
20
-5.02973857609337
30
0
41
1
10
92.7925909599778
20
-5.01502146357393
30
0
41
1
10
93.2476835347423
20
-4.98397289708043
30
0
0
SPLINE
5
DB
100
AcDbEntity
8
1
62
256
6
ByLayer
370
18
48
1
60
0
100
AcDbSpline
70
4
71
3
72
14
73
10
40
0
40
0
40
0
40
0
40
0.25
40
0.25
40
0.5
40
0.5
40
0.75
40
0.75
40
1
40
1
40
1
40
1
41
1
10
92.3915731196865
20
1.20626196097947
30
0
41
1
10
92.380755634899
20
1.23536980587977
30
0
41
1
10
92.3734321310098
20
1.26545480116559
30
0
41
1
10
92.3692810579488
20
1.32856844326088
30
0
41
1
10
92.3725104058489
20
1.36168443547078
30
0
41
1
10
92.3980042801282
20
1.42034135301395
30
0
41
1
10
92.4209092438373
20
1.44538551580823
30
0
41
1
10
92.4758230365446
20
1.47989970363176
30
0
41
1
10
92.5069747195063
20
1.49014033305181
30
0
41
1
10
92.5388504653145
20
1.49604689054999
30
0
0
SPLINE
5
DC
100
AcDbEntity
8
1
62
256
6
ByLayer
370
18
48
1
60
0
100
AcDbSpline
70
4
71
3
72
16
73
12
40
0
40
0
40
0
40
0
40
0.280349052869939
40
0.280349052869939
40
0.741073141644413
40
0.741073141644413
40
0.856254163838026
40
0.856254163838026
40
0.971435186031638
40
0.971435186031638
40
1
40
1
40
1
40
1
41
1
10
92.2028658979009
20
-4.92819649705791
30
0
41
1
10
91.6521795103858
20
-4.92792713307324
30
0
41
1
10
91.1034427085551
20
-4.90290037887578
30
0
41
1
10
89.654339640624
20
-4.77319674653469
30
0
41
1
10
88.7549721794133
20
-4.62761754162946
30
0
41
1
10
87.6227960215011
20
-4.36922877419559
30
0
41
1
10
87.3959650264119
20
-4.31372452182458
30
0
41
1
10
86.9412781597018
20
-4.19516726583959
30
0
41
1
10
86.7131272495849
20
-4.13203167689778
30
0
41
1
10
86.428575606047
20
-4.04892689175443
30
0
41
1
10
86.3720466827725
20
-4.03220315268138
30
0
41
1
10
86.3155324807936
20
-4.01527246919582
30
0
0
SPLINE
5
DD
100
AcDbEntity
8
1
62
256
6
ByLayer
370
13
48
1
60
0
100
AcDbSpline
70
4
71
3
72
24
73
20
40
0
40
0
40
0
40
0
40
0.0879959586984379
40
0.0879959586984379
40
0.188447926754177
40
0.188447926754177
40
0.238673910782044
40
0.238673910782044
40
0.288899894809912
40
0.288899894809912
40
0.48980383092139
40
0.48980383092139
40
0.690707767032868
40
0.690707767032868
40
0.791159735088608
40
0.791159735088608
40
0.891611703144347
40
0.891611703144347
40
1
40
1
40
1
40
1
41
1
10
86.3155324807825
20
-4.01527246919252
30
0
41
1
10
85.9162857203728
20
-3.89566500245954
30
0
41
1
10
85.5177736660432
20
-3.76572941495459
30
0
41
1
10
84.6645927888991
20
-3.46717392078838
30
0
41
1
10
84.2099536322768
20
-3.29567504912239
30
0
41
1
10
83.526689278256
20
-3.02200784181684
30
0
41
1
10
83.2984393122279
20
-2.92793481257971
30
0
41
1
10
82.8426313318798
20
-2.73527062820352
30
0
41
1
10
82.6153041446133
20
-2.63678101586552
30
0
41
1
10
81.4809617200149
20
-2.13465557847897
30
0
41
1
10
80.5806629721543
20
-1.70221009617532
30
0
41
1
10
78.7803181290615
20
-0.802637656398247
30
0
41
1
10
77.8799315725965
20
-0.336142350036823
30
0
41
1
10
76.5175793133789
20
0.366264825783929
30
0
41
1
10
76.0601652908678
20
0.601606059360392
30
0
41
1
10
75.1514152027757
20
1.06341494498088
30
0
41
1
10
74.6989880101727
20
1.29029024740876
30
0
41
1
10
73.7608237912238
20
1.75105743303177
30
0
41
1
10
73.2749714547965
20
1.98338810783201
30
0
41
1
10
72.7891137748096
20
2.20708384307324
30
0
0
SPLINE
5
DE
100
AcDbEntity
8
1
62
256
6
ByLayer
370
18
48
1
60
0
100
AcDbSpline
70
4
71
3
72
16
73
12
40
0
40
0
40
0
40
0
40
0.0338644347959778
40
0.0338644347959778
40
0.270662683315508
40
0.270662683315508
40
0.744259180354571
40
0.744259180354571
40
0.981057428874101
40
0.981057428874101
40
1
40
1
40
1
40
1
41
1
10
32.2978707765469
20
-4.89214260165809
30
0
41
1
10
32.2325750217365
20
-4.89208929963667
30
0
41
1
10
32.167303515162
20
-4.8916917019109
30
0
41
1
10
31.6460356223849
20
-4.88575641465783
30
0
41
1
10
31.1922569416466
20
-4.86377481232213
30
0
41
1
10
29.8348091230761
20
-4.74918974416661
30
0
41
1
10
28.9347804751474
20
-4.60813293801633
30
0
41
1
10
27.5813607679147
20
-4.30660103580658
30
0
41
1
10
27.1295641679651
20
-4.19122894770956
30
0
41
1
10
26.6400154868482
20
-4.05128623546528
30
0
41
1
10
26.6037425320386
20
-4.04082877356973
30
0
41
1
10
26.5674573970013
20
-4.0302799766433
30
0
0
SPLINE
5
DF
100
AcDbEntity
8
1
62
256
6
ByLayer
370
13
48
1
60
0
100
AcDbSpline
70
4
71
3
72
24
73
20
40
0
40
0
40
0
40
0
40
0.0916979321242576
40
0.0916979321242576
40
0.291040083857057
40
0.291040083857057
40
0.390711159723457
40
0.390711159723457
40
0.490382235589857
40
0.490382235589857
40
0.689724387322659
40
0.689724387322659
40
0.78939546318906
40
0.78939546318906
40
0.83923100112226
40
0.83923100112226
40
0.889066539055461
40
0.889066539055461
40
1
40
1
40
1
40
1
41
1
10
26.5674573952981
20
-4.03027997614817
30
0
41
1
10
26.1501474847451
20
-3.90895984054899
30
0
41
1
10
25.7312265008308
20
-3.77555886056794
30
0
41
1
10
24.3974342622514
20
-3.3169669066431
30
0
41
1
10
23.4884093455381
20
-2.95472031653293
30
0
41
1
10
22.1201995158536
20
-2.35653393991353
30
0
41
1
10
21.6625282693241
20
-2.14773939809064
30
0
41
1
10
20.7531734866864
20
-1.71950394807732
30
0
41
1
10
20.3004009464164
20
-1.49972197656518
30
0
41
1
10
18.944869186656
20
-0.829120147013299
30
0
41
1
10
18.0451044739284
20
-0.36670314958107
30
0
41
1
10
16.6897872959558
20
0.327122684194734
30
0
41
1
10
16.2371214962349
20
0.558527143505898
30
0
41
1
10
15.5554081550366
20
0.903073797639593
30
0
41
1
10
15.3277052032836
20
1.01747129234116
30
0
41
1
10
14.8711086594708
20
1.24484369190026
30
0
41
1
10
14.6425700314606
20
1.3576425093209
30
0
41
1
10
13.9080957302396
20
1.71607473840893
30
0
41
1
10
13.4038553284564
20
1.95599232105062
30
0
41
1
10
12.9008195394952
20
2.18615214722462
30
0
0
SPLINE
5
E0
100
AcDbEntity
8
1
62
256
6
ByLayer
370
18
48
1
60
0
100
AcDbSpline
70
4
71
3
72
8
73
4
40
0
40
0
40
0
40
0
40
1
40
1
40
1
40
1
41
1
10
93.2685884846506
20
-4.89777999072825
30
0
41
1
10
93.2441534031774
20
-4.91826214196919
30
0
41
1
10
93.2233187230127
20
-4.9285844268336
30
0
41
1
10
93.2061430951113
20
-4.92858133991487
30
0
0
SPLINE
5
E1
100
AcDbEntity
8
1
62
256
6
ByLayer
370
18
48
1
60
0
100
AcDbSpline
70
4
71
3
72
14
73
10
40
0
40
0
40
0
40
0
40
0.25
40
0.25
40
0.5
40
0.5
40
0.75
40
0.75
40
1
40
1
40
1
40
1
41
1
10
6.00084054372255
20
-1.7054054925236
30
0
41
1
10
6.00304663479696
20
-1.67635647776413
30
0
41
1
10
6.00968842538893
20
-1.64844030937391
30
0
41
1
10
6.03502964972284
20
-1.60091733968091
30
0
41
1
10
6.054138485685
20
-1.58132985432113
30
0
41
1
10
6.10490574180935
20
-1.56144892313535
30
0
41
1
10
6.13511488000876
20
-1.56206827841058
30
0
41
1
10
6.19540198293791
20
-1.58019875500409
30
0
41
1
10
6.22447834774536
20
-1.59665213440465
30
0
41
1
10
6.25181231289034
20
-1.61686636383706
30
0
0
SPLINE
5
E2
100
AcDbEntity
8
1
62
256
6
ByLayer
370
18
48
1
60
0
100
AcDbSpline
70
4
71
3
72
22
73
18
40
0
40
0
40
0
40
0
40
0.249999999999987
40
0.249999999999987
40
0.499999999999974
40
0.499999999999974
40
0.624999999999967
40
0.624999999999967
40
0.74999999999996
40
0.74999999999996
40
0.81249999999997
40
0.81249999999997
40
0.87499999999998
40
0.87499999999998
40
0.93749999999999
40
0.93749999999999
40
1
40
1
40
1
40
1
41
1
10
92.5388504653151
20
1.49604689054848
30
0
41
1
10
92.7164476763799
20
1.52895555235654
30
0
41
1
10
92.8932712065159
20
1.5664658622371
30
0
41
1
10
93.2421738170511
20
1.6573814359337
30
0
41
1
10
93.415155156489
20
1.71058720462733
30
0
41
1
10
93.6630953470369
20
1.81420575810901
30
0
41
1
10
93.7438048539826
20
1.85274920639353
30
0
41
1
10
93.8986452296884
20
1.94368882411405
30
0
41
1
10
93.9727525390778
20
1.99600113503629
30
0
41
1
10
94.0695073827175
20
2.09049139871308
30
0
41
1
10
94.0992707171321
20
2.12478056052382
30
0
41
1
10
94.1501771961747
20
2.19817309682918
30
0
41
1
10
94.1716219733082
20
2.237517422781
30
0
41
1
10
94.2042154742992
20
2.32307962536902
30
0
41
1
10
94.2145003355277
20
2.36720363366695
30
0
41
1
10
94.2234156629484
20
2.45780737636659
30
0
41
1
10
94.2218872406644
20
2.50407542939348
30
0
41
1
10
94.215546493388
20
2.54914238845822
30
0
0
SPLINE
5
E3
100
AcDbEntity
8
1
62
256
6
ByLayer
370
18
48
1
60
0
100
AcDbSpline
70
2053
71
3
72
62
73
58
40
0
40
0
40
0
40
0
40
0.0312499999999998
40
0.0312499999999998
40
0.0624999999999997
40
0.0624999999999997
40
0.0937499999999995
40
0.0937499999999995
40
0.124999999999999
40
0.124999999999999
40
0.156249999999999
40
0.156249999999999
40
0.187499999999999
40
0.187499999999999
40
0.218749999999999
40
0.218749999999999
40
0.249999999999999
40
0.249999999999999
40
0.281249999999999
40
0.281249999999999
40
0.312499999999998
40
0.312499999999998
40
0.374999999999998
40
0.374999999999998
40
0.437499999999997
40
0.437499999999997
40
0.468749999999997
40
0.468749999999997
40
0.499999999999997
40
0.499999999999997
40
0.531249999999996
40
0.531249999999996
40
0.562499999999996
40
0.562499999999996
40
0.593749999999996
40
0.593749999999996
40
0.624999999999996
40
0.624999999999996
40
0.656249999999995
40
0.656249999999995
40
0.687499999999995
40
0.687499999999995
40
0.749999999999994
40
0.749999999999994
40
0.781249999999995
40
0.781249999999995
40
0.812499999999996
40
0.812499999999996
40
0.843749999999996
40
0.843749999999996
40
0.874999999999997
40
0.874999999999997
40
0.906249999999998
40
0.906249999999998
40
0.937499999999999
40
0.937499999999999
40
1
40
1
40
1
40
1
41
1
10
93.345391636336
20
-2.07433806367761
30
0
41
1
10
93.3171329869257
20
-2.11379989300477
30
0
41
1
10
93.2894076425388
20
-2.15621196389742
30
0
41
1
10
93.2351218649665
20
-2.24748038308206
30
0
41
1
10
93.2082639421286
20
-2.29694607341577
30
0
41
1
10
93.1576114671217
20
-2.40039671015228
30
0
41
1
10
93.1338813527887
20
-2.45410396378884
30
0
41
1
10
93.0901089145985
20
-2.56609766779479
30
0
41
1
10
93.0706132771935
20
-2.62315650575786
30
0
41
1
10
93.0379941542904
20
-2.73561830949467
30
0
41
1
10
93.0245315139926
20
-2.7924748493038
30
0
41
1
10
93.0054760288524
20
-2.89906095573744
30
0
41
1
10
92.9996181613265
20
-2.94980612381667
30
0
41
1
10
92.9953579976289
20
-3.04288411266313
30
0
41
1
10
92.996903342746
20
-3.08447541569117
30
0
41
1
10
93.0065908292453
20
-3.15877771684163
30
0
41
1
10
93.0146271522054
20
-3.1904751089578
30
0
41
1
10
93.035991720893
20
-3.24386193855034
30
0
41
1
10
93.0494465239629
20
-3.26563983870355
30
0
41
1
10
93.0802443989825
20
-3.29898501085952
30
0
41
1
10
93.0976733581552
20
-3.31081983826937
30
0
41
1
10
93.1555942031333
20
-3.33289797367036
30
0
41
1
10
93.1999901825576
20
-3.32942513567983
30
0
41
1
10
93.2981026121449
20
-3.29041286594369
30
0
41
1
10
93.350069520065
20
-3.25562322182617
30
0
41
1
10
93.4324199577478
20
-3.18033477446562
30
0
41
1
10
93.4603219681116
20
-3.15152716932855
30
0
41
1
10
93.5159249221597
20
-3.08749844627326
30
0
41
1
10
93.543792612816
20
-3.05213440070602
30
0
41
1
10
93.5996738974615
20
-2.97402519990067
30
0
41
1
10
93.6279462159076
20
-2.93080888753812
30
0
41
1
10
93.6824812547328
20
-2.83915872656934
30
0
41
1
10
93.7089297696301
20
-2.7905475514801
30
0
41
1
10
93.7599213382012
20
-2.68684319157433
30
0
41
1
10
93.7841179847873
20
-2.63233255575108
30
0
41
1
10
93.8278868984208
20
-2.52121525007598
30
0
41
1
10
93.8479293418116
20
-2.46324320871849
30
0
41
1
10
93.8811302103324
20
-2.35017628236483
30
0
41
1
10
93.8946105593982
20
-2.29432018073092
30
0
41
1
10
93.9144114634624
20
-2.18598918355229
30
0
41
1
10
93.920377906648
20
-2.13564320272829
30
0
41
1
10
93.9272402106762
20
-1.99532107629258
30
0
41
1
10
93.9163970077444
20
-1.9203032242778
30
0
41
1
10
93.884056751706
20
-1.84070200376396
30
0
41
1
10
93.8705303861988
20
-1.81918981760776
30
0
41
1
10
93.8393089827259
20
-1.78614069463364
30
0
41
1
10
93.8217447457026
20
-1.77461587672937
30
0
41
1
10
93.7831538485201
20
-1.76042772807611
30
0
41
1
10
93.7620281961104
20
-1.75784221012088
30
0
41
1
10
93.7176966566475
20
-1.76109845971388
30
0
41
1
10
93.6943627369747
20
-1.76686594599352
30
0
41
1
10
93.6454503236465
20
-1.78635460905196
30
0
41
1
10
93.61976381778
20
-1.80019468878896
30
0
41
1
10
93.567571449877
20
-1.83506135726518
30
0
41
1
10
93.5409060508328
20
-1.85612510284773
30
0
41
1
10
93.4591652124301
20
-1.93044353129767
30
0
41
1
10
93.4019089351566
20
-1.9954144050233
30
0
41
1
10
93.345391636336
20
-2.07433806367761
30
0
0
SPLINE
5
E4
100
AcDbEntity
8
1
62
256
6
ByLayer
370
18
48
1
60
0
100
AcDbSpline
70
4
71
3
72
8
73
4
40
0
40
0
40
0
40
0
40
1
40
1
40
1
40
1
41
1
10
6.00192710396951
20
4.73955809124536
30
0
41
1
10
6.00113124441503
20
4.74193470693464
30
0
41
1
10
6.00072825220551
20
4.74432335124891
30
0
41
1
10
6.00072840036583
20
4.74669636446703
30
0
0
SPLINE
5
E5
100
AcDbEntity
8
1
62
256
6
ByLayer
370
13
48
1
60
0
100
AcDbSpline
70
4
71
3
72
26
73
22
40
0
40
0
40
0
40
0
40
0.0017331900155208
40
0.0849220908475608
40
0.0849220908475608
40
0.168110991679601
40
0.168110991679601
40
0.334488793343681
40
0.334488793343681
40
0.417677694175721
40
0.417677694175721
40
0.500866595007761
40
0.500866595007761
40
0.584055495839801
40
0.584055495839801
40
0.667244396671841
40
0.750433297503881
40
0.750433297503881
40
0.833622198335921
40
0.833622198335921
40
1
40
1
40
1
40
1
41
1
10
6.25093074803471
20
-4.87719128977702
30
0
41
1
10
6.25093185222168
20
-4.87719210691111
30
0
41
1
10
6.25096651946893
20
-4.877026622377
30
0
41
1
10
6.25100009070596
20
-4.8680687233234
30
0
41
1
10
6.25106416150956
20
-4.83328452218899
30
0
41
1
10
6.25109545858615
20
-4.80705786838982
30
0
41
1
10
6.25118604290452
20
-4.70395583345336
30
0
41
1
10
6.25124278884331
20
-4.60283526816195
30
0
41
1
10
6.25132625751044
20
-4.40294829179425
30
0
41
1
10
6.2513538855321
20
-4.3278822466811
30
0
41
1
10
6.25140830019473
20
-4.16255409750465
30
0
41
1
10
6.25143500872161
20
-4.07261439341258
30
0
41
1
10
6.25148753569388
20
-3.87821744464475
30
0
41
1
10
6.2515133742973
20
-3.77357761326371
30
0
41
1
10
6.25156317390199
20
-3.55338507178686
30
0
41
1
10
6.25161132244668
20
-3.32149947703172
30
0
41
1
10
6.25165552376401
20
-3.06657222408134
30
0
41
1
10
6.25169715808229
20
-2.79993141359091
30
0
41
1
10
6.25171677556281
20
-2.65995697446144
30
0
41
1
10
6.25176940051216
20
-2.23061561585436
30
0
41
1
10
6.25179662280612
20
-1.93055505762354
30
0
41
1
10
6.25181231289022
20
-1.61686636564877
30
0
0
SPLINE
5
E6
100
AcDbEntity
8
1
62
256
6
ByLayer
370
18
48
1
60
0
100
AcDbSpline
70
4
71
3
72
8
73
4
40
0
40
0
40
0
40
0
40
1
40
1
40
1
40
1
41
1
10
93.1978671564203
20
-5.1184311447735
30
0
41
1
10
93.2144867244097
20
-5.07363446184189
30
0
41
1
10
93.2310926045147
20
-5.02881389897277
30
0
41
1
10
93.2476835347425
20
-4.98397289708041
30
0
0
SPLINE
5
E7
100
AcDbEntity
8
SK1
62
256
6
ByLayer
370
18
48
1
60
0
100
AcDbSpline
70
4
71
3
72
10
73
6
40
0
40
0
40
0
40
0
40
0.5
40
0.5
40
1
40
1
40
1
40
1
41
1
10
-45
20
1.46794815036617
30
0
41
1
10
-44.7879272347742
20
1.74950612997256
30
0
41
1
10
-44.5722135635742
20
2.02980423905137
30
0
41
1
10
-44.1380211281577
20
2.58913114641803
30
0
41
1
10
-43.9193934819041
20
2.86817202894451
30
0
41
1
10
-43.7
20
3.14690157654894
30
0
0
SPLINE
5
E8
100
AcDbEntity
8
SK1
62
256
6
ByLayer
370
18
48
1
60
0
100
AcDbSpline
70
4
71
3
72
14
73
10
40
0
40
0
40
0
40
0
40
0.499999999999998
40
0.499999999999998
40
0.749999999999997
40
0.749999999999997
40
0.874999999999998
40
0.874999999999998
40
1
40
1
40
1
40
1
41
1
10
-43.7
20
3.14690157654888
30
0
41
1
10
-43.6789021434844
20
3.17370545399774
30
0
41
1
10
-43.6585587767126
20
3.20469083337088
30
0
41
1
10
-43.6303722414292
20
3.25856085552701
30
0
41
1
10
-43.6214260646625
20
3.27772198736682
30
0
41
1
10
-43.6102968606991
20
3.30769968908618
30
0
41
1
10
-43.6069058574072
20
3.31808599554171
30
0
41
1
10
-43.6017309986994
20
3.33900550971663
30
0
41
1
10
-43.6
20
3.3494921624625
30
0
41
1
10
-43.6
20
3.35847703660699
30
0
0
SPLINE
5
E9
100
AcDbEntity
8
SK1
62
256
6
ByLayer
370
18
48
1
60
0
100
AcDbSpline
70
4
71
3
72
10
73
6
40
0
40
0
40
0
40
0
40
0.5
40
0.5
40
1
40
1
40
1
40
1
41
1
10
-43.7
20
4.89223972816194
30
0
41
1
10
-43.9194028252284
20
4.61349831028429
30
0
41
1
10
-44.1380349803589
20
4.33445152837251
30
0
41
1
10
-44.5722177279898
20
3.77513695130517
30
0
41
1
10
-44.7878762790972
20
3.49491193278752
30
0
41
1
10
-45
20
3.21328630197917
30
0
0
SPLINE
5
EA
100
AcDbEntity
8
SK1
62
256
6
ByLayer
370
18
48
1
60
0
100
AcDbSpline
70
4
71
3
72
14
73
10
40
0
40
0
40
0
40
0
40
0.25
40
0.25
40
0.5
40
0.5
40
0.75
40
0.75
40
1
40
1
40
1
40
1
41
1
10
-44.9999999999889
20
2.85526468637792
30
0
41
1
10
-44.9782314858011
20
2.87579556960958
30
0
41
1
10
-44.9593695072025
20
2.89785221624672
30
0
41
1
10
-44.9317178691463
20
2.94606463452521
30
0
41
1
10
-44.9235454209585
20
2.97172283692746
30
0
41
1
10
-44.9226628396571
20
3.02351838933402
30
0
41
1
10
-44.9300883793465
20
3.04938907163307
30
0
41
1
10
-44.9574454474916
20
3.09734690111486
30
0
41
1
10
-44.9772442314718
20
3.11962326484672
30
0
41
1
10
-44.9999999999994
20
3.13958199537649
30
0
0
SPLINE
5
EB
100
AcDbEntity
8
SK1
62
256
6
ByLayer
370
18
48
1
60
0
100
AcDbSpline
70
4
71
3
72
14
73
10
40
0
40
0
40
0
40
0
40
0.124999999999999
40
0.124999999999999
40
0.249999999999998
40
0.249999999999998
40
0.499999999999996
40
0.499999999999996
40
1
40
1
40
1
40
1
41
1
10
-43.6
20
4.96418813609091
30
0
41
1
10
-43.6
20
4.97010890008474
30
0
41
1
10
-43.6017220508865
20
4.97340359027001
30
0
41
1
10
-43.6068954324577
20
4.97627719241711
30
0
41
1
10
-43.610237321167
20
4.97596985544237
30
0
41
1
10
-43.6215324998379
20
4.9721183726781
30
0
41
1
10
-43.6303471072619
20
4.96584844806119
30
0
41
1
10
-43.658490206513
20
4.94172392708742
30
0
41
1
10
-43.678793979422
20
4.9191810231853
30
0
41
1
10
-43.7
20
4.89223972816194
30
0
0
SPLINE
5
EC
100
AcDbEntity
8
SK1
62
256
6
ByLayer
370
18
48
1
60
0
100
AcDbSpline
70
4
71
3
72
10
73
6
40
0
40
0
40
0
40
0
40
0.5
40
0.5
40
1
40
1
40
1
40
1
41
1
10
-45
20
3.13958199537672
30
0
41
1
10
-45
20
3.10448085637859
30
0
41
1
10
-45
20
3.06226620001144
30
0
41
1
10
-45
20
2.9664371378513
30
0
41
1
10
-45
20
2.91254642463556
30
0
41
1
10
-45
20
2.85526468638997
30
0
0
LINE
5
76
100
AcDbEntity
8
81
62
256
6
ByLayer
370
18
48
1
60
0
100
AcDbLine
10
95
20
0
30
0
11
100
21
0
31
0
39
0
210
0
220
0
230
1
0
LINE
5
77
100
AcDbEntity
8
1
62
256
6
ByLayer
370
18
48
1
60
0
100
AcDbLine
10
6.000763
20
5.107636
30
0
11
1.436836
21
5.104898
31
0
39
0
210
0
220
0
230
1
0
LINE
5
79
100
AcDbEntity
8
1
62
256
6
ByLayer
370
18
48
1
60
0
100
AcDbLine
10
32.086772
20
5.123288
30
0
11
31.231059
21
5.122774
31
0
39
0
210
0
220
0
230
1
0
LINE
5
7A
100
AcDbEntity
8
1
62
256
6
ByLayer
370
18
48
1
60
0
100
AcDbLine
10
31.231059
20
-5.122774
30
0
11
32.087569
21
-5.123288
31
0
39
0
210
0
220
0
230
1
0
LINE
5
7B
100
AcDbEntity
8
1
62
256
6
ByLayer
370
18
48
1
60
0
100
AcDbLine
10
1.436836
20
-5.104898
30
0
11
6.000763
21
-5.107636
31
0
39
0
210
0
220
0
230
1
0
LINE
5
7C
100
AcDbEntity
8
1
62
256
6
ByLayer
370
18
48
1
60
0
100
AcDbLine
10
62.037328
20
5.141258
30
0
11
61.188974
21
5.140749
31
0
39
0
210
0
220
0
230
1
0
LINE
5
7D
100
AcDbEntity
8
1
62
256
6
ByLayer
370
18
48
1
60
0
100
AcDbLine
10
91.989424
20
5.159229
30
0
11
91.1507
21
5.158726
31
0
39
0
210
0
220
0
230
1
0
LINE
5
7E
100
AcDbEntity
8
1
62
256
6
ByLayer
370
18
48
1
60
0
100
AcDbLine
10
91.1507
20
-5.158726
30
0
11
91.988656
21
-5.159229
31
0
39
0
210
0
220
0
230
1
0
LINE
5
7F
100
AcDbEntity
8
1
62
256
6
ByLayer
370
18
48
1
60
0
100
AcDbLine
10
61.188974
20
-5.140749
30
0
11
62.036803
21
-5.141258
31
0
39
0
210
0
220
0
230
1
0
LINE
5
80
100
AcDbEntity
8
SK1
62
256
6
ByLayer
370
18
48
1
60
0
100
AcDbLine
10
0
20
6
30
0
11
-43.556624
21
6
31
0
39
0
210
0
220
0
230
1
0
LINE
5
82
100
AcDbEntity
8
SK1
62
256
6
ByLayer
370
18
48
1
60
0
100
AcDbLine
10
-43.556624
20
-6
30
0
11
0
21
-6
31
0
39
0
210
0
220
0
230
1
0
LINE
5
83
100
AcDbEntity
8
SK1
62
256
6
ByLayer
370
18
48
1
60
0
100
AcDbLine
10
-43.556624
20
6
30
0
11
-45
21
3.5
31
0
39
0
210
0
220
0
230
1
0
LINE
5
84
100
AcDbEntity
8
SK1
62
256
6
ByLayer
370
18
48
1
60
0
100
AcDbLine
10
-45
20
-3.5
30
0
11
-43.556624
21
-6
31
0
39
0
210
0
220
0
230
1
0
LINE
5
85
100
AcDbEntity
8
SK4
62
256
6
ByLayer
370
18
48
0.05
60
0
100
AcDbLine
10
100
20
0
30
0
11
-50
21
0
31
0
39
0
210
0
220
0
230
1
0
LINE
5
87
100
AcDbEntity
8
4
62
256
6
ByLayer
370
18
48
0.05
60
0
100
AcDbLine
10
95
20
0
30
0
11
0
21
0
31
0
39
0
210
0
220
0
230
1
0
LINE
5
89
100
AcDbEntity
8
80
62
256
6
ByLayer
370
18
48
1
60
0
100
AcDbLine
10
0
20
0
30
0
11
-5
21
0
31
0
39
0
210
0
220
0
230
1
0
LINE
5
8A
100
AcDbEntity
8
1
62
256
6
ByLayer
370
18
48
1
60
0
100
AcDbLine
10
31.362602
20
0.342165
30
0
11
31.362323
21
0.342324
31
0
39
0
210
0
220
0
230
1
0
LINE
5
8B
100
AcDbEntity
8
1
62
256
6
ByLayer
370
18
48
1
60
0
100
AcDbLine
10
94.912562
20
-0.298502
30
0
11
94.729021
21
-0.976108
31
0
39
0
210
0
220
0
230
1
0
LINE
5
8C
100
AcDbEntity
8
1
62
256
6
ByLayer
370
18
48
1
60
0
100
AcDbLine
10
95
20
0
30
0
11
93.206143
21
-4.928581
31
0
39
0
210
0
220
0
230
1
0
LINE
5
8D
100
AcDbEntity
8
1
62
256
6
ByLayer
370
18
48
1
60
0
100
AcDbLine
10
95
20
0
30
0
11
94.989134
21
-0.048748
31
0
39
0
210
0
220
0
230
1
0
LINE
5
8E
100
AcDbEntity
8
1
62
256
6
ByLayer
370
13
48
1
60
0
100
AcDbLine
10
93.543997
20
0.976108
30
0
11
94.912562
21
0.298502
31
0
39
0
210
0
220
0
230
1
0
LINE
5
8F
100
AcDbEntity
8
1
62
256
6
ByLayer
370
18
48
1
60
0
100
AcDbLine
10
94.912562
20
0.298502
30
0
11
94.729021
21
0.976108
31
0
39
0
210
0
220
0
230
1
0
LINE
5
90
100
AcDbEntity
8
1
62
256
6
ByLayer
370
13
48
1
60
0
100
AcDbLine
10
93.374539
20
0.629684
30
0
11
94.894464
21
-0.122864
31
0
39
0
210
0
220
0
230
1
0
LINE
5
91
100
AcDbEntity
8
1
62
256
6
ByLayer
370
18
48
1
60
0
100
AcDbLine
10
0
20
-6
30
0
11
0
21
6
31
0
39
0
210
0
220
0
230
1
0
LINE
5
92
100
AcDbEntity
8
1
62
256
6
ByLayer
370
18
48
1
60
0
100
AcDbLine
10
94.989134
20
0.048748
30
0
11
95
21
0
31
0
39
0
210
0
220
0
230
1
0
LINE
5
93
100
AcDbEntity
8
1
62
256
6
ByLayer
370
13
48
1
60
0
100
AcDbLine
10
0.718178
20
5.552449
30
0
11
0.718178
21
-5.552449
31
0
39
0
210
0
220
0
230
1
0
LINE
5
94
100
AcDbEntity
8
1
62
256
6
ByLayer
370
13
48
1
60
0
100
AcDbLine
10
1.436836
20
5.104898
30
0
11
1.436836
21
-5.104898
31
0
39
0
210
0
220
0
230
1
0
LINE
5
95
100
AcDbEntity
8
1
62
256
6
ByLayer
370
18
48
1
60
0
100
AcDbLine
10
92.401577
20
-2.901142
30
0
11
94.894464
21
-0.122864
31
0
39
0
210
0
220
0
230
1
0
LINE
5
96
100
AcDbEntity
8
1
62
256
6
ByLayer
370
13
48
1
60
0
100
AcDbLine
10
94.729021
20
0.976108
30
0
11
93.543997
21
0.976108
31
0
39
0
210
0
220
0
230
1
0
LINE
5
97
100
AcDbEntity
8
SK1
62
256
6
ByLayer
370
18
48
1
60
0
100
AcDbLine
10
-45
20
3.5
30
0
11
-45
21
3.213286
31
0
39
0
210
0
220
0
230
1
0
LINE
5
98
100
AcDbEntity
8
SK1
62
256
6
ByLayer
370
18
48
1
60
0
100
AcDbLine
10
-43.6
20
3.358477
30
0
11
-43.6
21
4.964188
31
0
39
0
210
0
220
0
230
1
0
LINE
5
99
100
AcDbEntity
8
SK1
62
256
6
ByLayer
370
18
48
1
60
0
100
AcDbLine
10
-45
20
2.855265
30
0
11
-45
21
1.467919
31
0
39
0
210
0
220
0
230
1
0
LINE
5
9A
100
AcDbEntity
8
SK1
62
256
6
ByLayer
370
18
48
1
60
0
100
AcDbLine
10
-45
20
3.213286
30
0
11
-45
21
3.139582
31
0
39
0
210
0
220
0
230
1
0
LINE
5
9B
100
AcDbEntity
8
SK1
62
256
6
ByLayer
370
18
48
1
60
0
100
AcDbLine
10
0
20
-6
30
0
11
0
21
6
31
0
39
0
210
0
220
0
230
1
0
LINE
5
9C
100
AcDbEntity
8
SK1
62
256
6
ByLayer
370
13
48
1
60
0
100
AcDbLine
10
-43.7
20
4.89224
30
0
11
-43.7
21
3.146867
31
0
39
0
210
0
220
0
230
1
0
LINE
5
9D
100
AcDbEntity
8
SK1
62
256
6
ByLayer
370
18
48
1
60
0
100
AcDbLine
10
-43.556624
20
6
30
0
11
-43.556624
21
-6
31
0
39
0
210
0
220
0
230
1
0
LINE
5
9E
100
AcDbEntity
8
SK1
62
256
6
ByLayer
370
18
48
1
60
0
100
AcDbLine
10
-45
20
1.467948
30
0
11
-45
21
-3.5
31
0
39
0
210
0
220
0
230
1
0
MTEXT
5
ED
100
AcDbEntity
8
SK6
62
256
6
ByLayer
370
13
48
1
60
0
100
AcDbMText
10
27.129169
20
37.542694
30
0
210
0
220
0
230
1
1
\W0.7415;R840-1032-70-A1A1220
40
3.5
41
0
44
1.084337
50
0
71
8
72
5
7
iso_b_vert
0
DIMENSION
5
FA
100
AcDbEntity
8
SK2
62
256
6
ByLayer
370
13
48
1
60
0
100
AcDbDimension
2
DimnDraft3D1
10
93.23
20
-15.373398
30
0
11
44.980059
21
-15.373398
31
0
70
32
71
5
72
1
41
1
210
0
220
0
230
1
3
Standard
100
AcDbAlignedDimension
13
0
23
-1.5875
33
0
14
93.23
24
-6.7475
34
0
50
0
100
AcDbRotatedDimension
1001
ACAD
1000
DSTYLE
1002
{
1070
   279
1070
     0
1070
   172
1070
     1
1070
   173
1070
     1
1070
   340
1005
EE
1070
   271
1070
     2
1070
   272
1070
     2
1070
    77
1070
     1
1070
    73
1070
     0
1070
   171
1070
     3
1070
   274
1070
     4
1070
   177
1070
    35
1070
   176
1070
    35
1070
   178
1070
    35
1070
    48
1040
-0.005
1070
    41
1041
3.5
1070
   147
1041
1.75
1070
    42
1041
1.5875
1070
    44
1041
2.0
1070
   140
1041
3.5
1070
   343
1005
0
1070
   344
1005
0
1002
}
0
DIMENSION
5
104
100
AcDbEntity
8
SK2
62
256
6
ByLayer
370
13
48
1
60
0
100
AcDbDimension
2
DimnDraft3D2
10
95
20
-34.692985
30
0
11
24.5713
21
-34.692985
31
0
70
32
71
5
72
1
41
1
210
0
220
0
230
1
3
Standard
100
AcDbAlignedDimension
13
-45
23
-7.5875
33
0
14
95
24
-1.5875
34
0
50
0
100
AcDbRotatedDimension
1001
ACAD
1000
DSTYLE
1002
{
1070
   279
1070
     0
1070
   172
1070
     1
1070
   173
1070
     1
1070
   340
1005
EE
1070
   271
1070
     2
1070
   272
1070
     2
1070
    77
1070
     1
1070
    73
1070
     0
1070
   171
1070
     3
1070
   274
1070
     4
1070
   177
1070
    35
1070
   176
1070
    35
1070
   178
1070
    35
1070
    48
1040
-0.005
1070
    41
1041
3.5
1070
   147
1041
1.75
1070
    42
1041
1.5875
1070
    44
1041
2.0
1070
   140
1041
3.5
1070
   343
1005
0
1070
   344
1005
0
1002
}
0
DIMENSION
5
10E
100
AcDbEntity
8
SK2
62
256
6
ByLayer
370
13
48
1
60
0
100
AcDbDimension
2
DimnDraft3D3
10
95
20
16.769119
30
0
11
52.835
21
16.769119
31
0
70
32
71
5
72
1
41
1
210
0
220
0
230
1
3
Standard
100
AcDbAlignedDimension
13
10.67
23
6.7475
33
0
14
95
24
1.5875
34
0
50
0
100
AcDbRotatedDimension
1001
ACAD
1000
DSTYLE
1002
{
1070
   279
1070
     0
1070
   172
1070
     1
1070
   173
1070
     1
1070
   340
1005
EE
1070
   271
1070
     2
1070
   272
1070
     2
1070
    77
1070
     1
1070
    73
1070
     0
1070
   171
1070
     3
1070
   274
1070
     4
1070
   177
1070
    35
1070
   176
1070
    35
1070
   178
1070
    35
1070
    48
1040
-0.005
1070
    41
1041
3.5
1070
   147
1041
1.75
1070
    42
1041
1.5875
1070
    44
1041
2.0
1070
   140
1041
3.5
1070
   343
1005
0
1070
   344
1005
0
1002
}
0
DIMENSION
5
118
100
AcDbEntity
8
SK2
62
256
6
ByLayer
370
13
48
1
60
0
100
AcDbDimension
2
DimnDraft3D4
10
93.23
20
-17.962503
30
0
11
104.981425
21
-17.962503
31
0
70
32
71
5
72
1
41
1
210
0
220
0
230
1
3
Standard
100
AcDbAlignedDimension
13
95
23
-1.5875
33
0
14
93.23
24
-6.7475
34
0
50
0
100
AcDbRotatedDimension
1001
ACAD
1000
DSTYLE
1002
{
1070
   279
1070
     0
1070
   172
1070
     1
1070
   173
1070
     1
1070
   340
1005
EE
1070
   271
1070
     2
1070
   272
1070
     2
1070
    77
1070
     1
1070
    73
1070
     0
1070
   171
1070
     3
1070
   274
1070
     4
1070
   177
1070
    35
1070
   176
1070
    35
1070
   178
1070
    35
1070
    48
1040
-0.005
1070
    41
1041
3.5
1070
   147
1041
1.75
1070
    42
1041
1.5875
1070
    44
1041
2.0
1070
   140
1041
3.5
1070
   343
1005
0
1070
   344
1005
0
1002
}
0
DIMENSION
5
122
100
AcDbEntity
8
SK2
62
256
6
ByLayer
370
13
48
1
60
0
100
AcDbDimension
2
DimnDraft3D5
10
93.23
20
-24.343428
30
0
11
21.490676
21
-24.343428
31
0
70
32
71
5
72
1
41
1
210
0
220
0
230
1
3
Standard
100
AcDbAlignedDimension
13
-45
23
-7.5875
33
0
14
93.23
24
-6.7475
34
0
50
0
100
AcDbRotatedDimension
1001
ACAD
1000
DSTYLE
1002
{
1070
   279
1070
     0
1070
   172
1070
     1
1070
   173
1070
     1
1070
   340
1005
EE
1070
   271
1070
     2
1070
   272
1070
     2
1070
    77
1070
     1
1070
    73
1070
     0
1070
   171
1070
     3
1070
   274
1070
     4
1070
   177
1070
    35
1070
   176
1070
    35
1070
   178
1070
    35
1070
    48
1040
-0.005
1070
    41
1041
3.5
1070
   147
1041
1.75
1070
    42
1041
1.5875
1070
    44
1041
2.0
1070
   140
1041
3.5
1070
   343
1005
0
1070
   344
1005
0
1002
}
0
DIMENSION
5
12D
100
AcDbEntity
8
SK2
62
256
6
ByLayer
370
13
48
1
60
0
100
AcDbDimension
2
DimnDraft3D6
10
-55.625163
20
6
30
0
11
-56.250163
21
24.47418
31
0
70
33
71
5
72
1
41
1
210
0
220
0
230
1
3
Standard
100
AcDbAlignedDimension
13
-46.5875
23
-6
33
0
14
-46.5875
24
6
34
0
1001
ACAD
1000
DSTYLE
1002
{
1070
   279
1070
     0
1070
    74
1070
     0
1070
   173
1070
     1
1070
   340
1005
EE
1070
   271
1070
     3
1070
   272
1070
     2
1070
    77
1070
     1
1070
    73
1070
     0
1070
   171
1070
     3
1070
   274
1070
     4
1070
   177
1070
    35
1070
   176
1070
    35
1070
   178
1070
    35
1070
    48
1040
-0.005
1070
    41
1041
3.5
1070
   147
1041
1.75
1070
    42
1041
1.5875
1070
    44
1041
2.0
1070
   140
1041
3.5
1070
   343
1005
0
1070
   344
1005
0
1002
}
0
DIMENSION
5
138
100
AcDbEntity
8
2
62
256
6
ByLayer
370
13
48
1
60
0
100
AcDbDimension
2
DimnDraft3D7
10
109.083343
20
5.16
30
0
11
104.458343
21
22.227266
31
0
70
33
71
5
72
1
41
1
210
0
220
0
230
1
3
Standard
100
AcDbAlignedDimension
13
94.8175
23
-5.16
33
0
14
94.8175
24
5.16
34
0
1001
ACAD
1000
DSTYLE
1002
{
1070
   279
1070
     0
1070
    74
1070
     0
1070
   173
1070
     1
1070
   340
1005
EE
1070
   271
1070
     3
1070
   272
1070
     2
1070
    77
1070
     1
1070
    73
1070
     0
1070
   171
1070
     3
1070
   274
1070
     4
1070
   177
1070
    35
1070
   176
1070
    35
1070
   178
1070
    35
1070
    48
1040
-0.005
1070
    41
1041
3.5
1070
   147
1041
1.75
1070
    42
1041
1.5875
1070
    44
1041
2.0
1070
   140
1041
3.5
1070
   343
1005
0
1070
   344
1005
0
1002
}
0
ENDSEC
0
SECTION
2
OBJECTS
0
DICTIONARY
5
1a3
330
0
100
AcDbDictionary
280
0
281
1
3
ACAD_GROUP
350
1a4
3
ACAD_MLINESTYLE
350
1a5
0
DICTIONARY
5
1a4
330
0
100
AcDbDictionary
280
0
281
1
0
DICTIONARY
5
1a5
330
0
100
AcDbDictionary
280
0
281
1
3
Standard
350
18
0
MLINESTYLE
5
18
330
1a5
100
AcDbMlineStyle
2
Standard
70
0
3

62
256
51
90
52
90
71
2
49
-0.5
62
256
6
ByLayer
49
0.5
62
256
6
ByLayer
0
RASTERVARIABLES
5
191
330

100
AcDbRasterVariables
90
0
70
1
71
1
72
1
0
ENDSEC
0
EOF
