0
SECTION
2
HEADER
9
$ACADVER
1
AC1015
9
$DWGCODEPAGE
3
ANSI_1252
9
$HANDSEED
5
1b1
9
$ANGBASE
50
0
9
$ANGDIR
70
0
9
$ATTMODE
70
1
9
$AUNITS
70
0
9
$AUPREC
70
0
9
$CECOLOR
62
256
9
$CELTSCALE
40
1
9
$CELTYPE
6
ByLayer
9
$CELWEIGHT
370
18
9
$CLAYER
8
0
9
$CMLJUST
70
0
9
$CMLSCALE
40
1
9
$CMLSTYLE
2
Standard
9
$DIMSTYLE
2
Standard
9
$TEXTSIZE
40
0.2
9
$TEXTSTYLE
7
Standard
9
$LUNITS
70
2
9
$LUPREC
70
4
9
$EXTNAMES
290
1
9
$INSUNITS
70
4
9
$LTSCALE
40
1
9
$LWDISPLAY
290
1
9
$PDMODE
70
0
9
$PDSIZE
40
0
9
$PLINEGEN
70
0
0
ENDSEC
0
SECTION
2
CLASSES
0
CLASS
1
RASTERVARIABLES
2
AcDbRasterVariables
3
ISM
90
0
280
0
281
0
0
ENDSEC
0
SECTION
2
TABLES
0
TABLE
2
VPORT
5
1a7
100
AcDbSymbolTable
0
VPORT
5
1
100
AcDbSymbolTableRecord
100
AcDbViewportTableRecord
2
*Active
70
0
10
0
20
0
11
1
21
1
12
-1
22
1
13
0
23
0
14
0.5
24
0.5
15
10
25
10
16
0
26
0
36
1
17
0
27
0
37
0
0
ENDTAB
0
TABLE
2
LTYPE
5
1a8
100
AcDbSymbolTable
0
LTYPE
5
14
100
AcDbSymbolTableRecord
100
AcDbLinetypeTableRecord
70
0
2
ByBlock
3

72
65
73
0
40
0
0
LTYPE
5
15
100
AcDbSymbolTableRecord
100
AcDbLinetypeTableRecord
70
0
2
ByLayer
3

72
65
73
0
40
0
0
LTYPE
5
16
100
AcDbSymbolTableRecord
100
AcDbLinetypeTableRecord
70
0
2
CONTINUOUS
3
Solid line
72
65
73
0
40
0
0
LTYPE
5
6A
100
AcDbSymbolTableRecord
100
AcDbLinetypeTableRecord
70
0
2
CENTER
3
____ _ ____ _ ____ _ ____
72
65
73
4
40
47.5
49
22
74
0
49
-8.5
74
0
49
8.5
74
0
49
-8.5
74
0
0
LTYPE
5
6B
100
AcDbSymbolTableRecord
100
AcDbLinetypeTableRecord
70
0
2
DASHED
3
__ __ __ __ __ __ __ __ __
72
65
73
2
40
25.72
49
12.86
74
0
49
-12.86
74
0
0
ENDTAB
0
TABLE
2
LAYER
5
1a9
100
AcDbSymbolTable
0
LAYER
5
10
100
AcDbSymbolTableRecord
100
AcDbLayerTableRecord
2
0
70
0
62
7
6
CONTINUOUS
290
1
370
-3
390
0
0
LAYER
5
6D
100
AcDbSymbolTableRecord
100
AcDbLayerTableRecord
2
81
70
0
62
-3
6
CONTINUOUS
290
1
370
-3
390
0
0
LAYER
5
6F
100
AcDbSymbolTableRecord
100
AcDbLayerTableRecord
2
80
70
0
62
-6
6
CONTINUOUS
290
1
370
-3
390
0
0
LAYER
5
74
100
AcDbSymbolTableRecord
100
AcDbLayerTableRecord
2
2
70
0
62
7
6
CONTINUOUS
290
1
370
-3
390
0
0
LAYER
5
78
100
AcDbSymbolTableRecord
100
AcDbLayerTableRecord
2
1
70
0
62
4
6
CONTINUOUS
290
1
370
-3
390
0
0
LAYER
5
88
100
AcDbSymbolTableRecord
100
AcDbLayerTableRecord
2
4
70
0
62
-2
6
CENTER
290
1
370
-3
390
0
0
LAYER
5
193
100
AcDbSymbolTableRecord
100
AcDbLayerTableRecord
2
SK2
70
0
62
7
6
CONTINUOUS
290
1
370
-3
390
0
0
LAYER
5
194
100
AcDbSymbolTableRecord
100
AcDbLayerTableRecord
2
SK1
70
0
62
4
6
CONTINUOUS
290
1
370
-3
390
0
0
LAYER
5
195
100
AcDbSymbolTableRecord
100
AcDbLayerTableRecord
2
SK4
70
0
62
2
6
CENTER
290
1
370
-3
390
0
0
LAYER
5
196
100
AcDbSymbolTableRecord
100
AcDbLayerTableRecord
2
SK6
70
0
62
5
6
CONTINUOUS
290
1
370
-3
390
0
0
ENDTAB
0
TABLE
2
STYLE
5
1aa
100
AcDbSymbolTable
0
STYLE
5
11
100
AcDbSymbolTableRecord
100
AcDbTextStyleTableRecord
2
Standard
3
txt
70
0
71
0
40
0
41
1
42
0
50
0
0
STYLE
5
EF
100
AcDbSymbolTableRecord
100
AcDbTextStyleTableRecord
2
iso_b_vert
3
simplex.shx
70
0
71
0
40
0
41
1
42
0
50
0
0
STYLE
5
F0
100
AcDbSymbolTableRecord
100
AcDbTextStyleTableRecord
2
DWGDirectTextStyle
3
simplex
70
0
71
0
40
0
41
1
42
0
50
0
0
ENDTAB
0
TABLE
2
DIMSTYLE
5
1ab
100
AcDbSymbolTable
100
AcDbDimStyleTable
0
DIMSTYLE
105
27
100
AcDbSymbolTableRecord
100
AcDbDimStyleTableRecord
2
Standard
70
0
3
<>
41
0.18
42
0.0625
44
0.18
140
0.18
147
0.09
73
0
74
0
77
1
271
2
275
0
278
52
280
0
340
11
0
ENDTAB
0
TABLE
2
VIEW
5
1ac
100
AcDbSymbolTable
0
ENDTAB
0
TABLE
2
UCS
5
1ad
100
AcDbSymbolTable
0
ENDTAB
0
TABLE
2
APPID
5
1ae
100
AcDbSymbolTable
0
APPID
5
12
100
AcDbSymbolTableRecord
100
AcDbRegAppTableRecord
2
ACAD
70
0
0
ENDTAB
0
TABLE
2
BLOCK_RECORD
5
1af
100
AcDbSymbolTable
0
BLOCK_RECORD
5
1F
100
AcDbSymbolTableRecord
100
AcDbBlockTableRecord
2
*Model_Space
340
0
70
0
0
BLOCK_RECORD
5
1B
100
AcDbSymbolTableRecord
100
AcDbBlockTableRecord
2
*Paper_Space
340
0
70
0
0
BLOCK_RECORD
5
23
100
AcDbSymbolTableRecord
100
AcDbBlockTableRecord
2
*Paper_Space0
340
0
70
0
0
BLOCK_RECORD
5
F2
100
AcDbSymbolTableRecord
100
AcDbBlockTableRecord
2
DimnDraft3D1
340
0
70
0
0
BLOCK_RECORD
5
FC
100
AcDbSymbolTableRecord
100
AcDbBlockTableRecord
2
DimnDraft3D2
340
0
70
0
0
BLOCK_RECORD
5
106
100
AcDbSymbolTableRecord
100
AcDbBlockTableRecord
2
DimnDraft3D3
340
0
70
0
0
BLOCK_RECORD
5
110
100
AcDbSymbolTableRecord
100
AcDbBlockTableRecord
2
DimnDraft3D4
340
0
70
0
0
BLOCK_RECORD
5
11A
100
AcDbSymbolTableRecord
100
AcDbBlockTableRecord
2
DimnDraft3D5
340
0
70
0
0
BLOCK_RECORD
5
124
100
AcDbSymbolTableRecord
100
AcDbBlockTableRecord
2
DimnDraft3D6
340
0
70
0
0
BLOCK_RECORD
5
12F
100
AcDbSymbolTableRecord
100
AcDbBlockTableRecord
2
DimnDraft3D7
340
0
70
0
0
ENDTAB
0
ENDSEC
0
SECTION
2
BLOCKS
0
BLOCK
5
20
100
AcDbEntity
8
0
100
AcDbBlockBegin
2
*Model_Space
70
0
10
0
20
0
30
0
3
*Model_Space
0
ENDBLK
5
21
100
AcDbEntity
8
0
100
AcDbBlockEnd
0
BLOCK
5
1C
100
AcDbEntity
8
0
100
AcDbBlockBegin
2
*Paper_Space
70
0
10
0
20
0
30
0
3
*Paper_Space
0
ENDBLK
5
1D
100
AcDbEntity
8
0
100
AcDbBlockEnd
0
BLOCK
5
24
100
AcDbEntity
8
0
100
AcDbBlockBegin
2
*Paper_Space0
70
0
10
0
20
0
30
0
3
*Paper_Space0
0
ENDBLK
5
25
100
AcDbEntity
8
0
100
AcDbBlockEnd
0
BLOCK
5
F9
100
AcDbEntity
8
0
100
AcDbBlockBegin
2
DimnDraft3D1
70
0
10
0
20
0
30
0
3
DimnDraft3D1
0
MTEXT
5
F3
100
AcDbEntity
8
SK2
62
256
6
ByLayer
370
13
48
1
60
0
100
AcDbMText
10
40.531375
20
-14.488398
30
0
210
0
220
0
230
1
1
\W0.7317;93,23
40
3.5
41
0
44
1.084337
50
0
71
7
72
5
7
iso_b_vert
0
LINE
5
F4
100
AcDbEntity
8
SK2
62
256
6
ByLayer
370
13
48
1
60
0
100
AcDbLine
10
0
20
-1.5875
30
0
11
0
21
-17.363398
31
0
39
0
210
0
220
0
230
1
0
LINE
5
F5
100
AcDbEntity
8
SK2
62
256
6
ByLayer
370
13
48
1
60
0
100
AcDbLine
10
93.23
20
-6.7375
30
0
11
93.23
21
-17.363398
31
0
39
0
210
0
220
0
230
1
0
LINE
5
F6
100
AcDbEntity
8
SK2
62
256
6
ByLayer
370
13
48
1
60
0
100
AcDbLine
10
0
20
-15.363398
30
0
11
93.23
21
-15.363398
31
0
39
0
210
0
220
0
230
1
0
SOLID
5
F7
100
AcDbEntity
8
SK2
62
256
6
ByLayer
370
13
48
1
60
0
100
AcDbTrace
10
0
20
-15.363398
30
0
11
3.499998
21
-14.902615
31
0
12
3.500002
22
-15.824182
32
0
13
0
23
-15.363398
33
0
39
0
210
0
220
0
230
1
0
SOLID
5
F8
100
AcDbEntity
8
SK2
62
256
6
ByLayer
370
13
48
1
60
0
100
AcDbTrace
10
93.23
20
-15.363398
30
0
11
89.730002
21
-15.824182
31
0
12
89.729998
22
-14.902615
32
0
13
93.23
23
-15.363398
33
0
39
0
210
0
220
0
230
1
0
ENDBLK
5
FA
100
AcDbEntity
8
0
100
AcDbBlockEnd
0
BLOCK
5
103
100
AcDbEntity
8
0
100
AcDbBlockBegin
2
DimnDraft3D2
70
0
10
0
20
0
30
0
3
DimnDraft3D2
0
MTEXT
5
FD
100
AcDbEntity
8
SK2
62
256
6
ByLayer
370
13
48
1
60
0
100
AcDbMText
10
19.068011
20
-33.817985
30
0
210
0
220
0
230
1
1
\W0.7145;140,00
40
3.5
41
0
44
1.084337
50
0
71
7
72
5
7
iso_b_vert
0
LINE
5
FE
100
AcDbEntity
8
SK2
62
256
6
ByLayer
370
13
48
1
60
0
100
AcDbLine
10
-45
20
-7.5875
30
0
11
-45
21
-36.692985
31
0
39
0
210
0
220
0
230
1
0
LINE
5
FF
100
AcDbEntity
8
SK2
62
256
6
ByLayer
370
13
48
1
60
0
100
AcDbLine
10
95
20
-1.5875
30
0
11
95
21
-36.692985
31
0
39
0
210
0
220
0
230
1
0
LINE
5
100
100
AcDbEntity
8
SK2
62
256
6
ByLayer
370
13
48
1
60
0
100
AcDbLine
10
-45
20
-34.692985
30
0
11
95
21
-34.692985
31
0
39
0
210
0
220
0
230
1
0
SOLID
5
101
100
AcDbEntity
8
SK2
62
256
6
ByLayer
370
13
48
1
60
0
100
AcDbTrace
10
-45
20
-34.692985
30
0
11
-41.500002
21
-34.232202
31
0
12
-41.499998
22
-35.153769
32
0
13
-45
23
-34.692985
33
0
39
0
210
0
220
0
230
1
0
SOLID
5
102
100
AcDbEntity
8
SK2
62
256
6
ByLayer
370
13
48
1
60
0
100
AcDbTrace
10
95
20
-34.692985
30
0
11
91.500002
21
-35.153769
31
0
12
91.499998
22
-34.232202
32
0
13
95
23
-34.692985
33
0
39
0
210
0
220
0
230
1
0
ENDBLK
5
104
100
AcDbEntity
8
0
100
AcDbBlockEnd
0
BLOCK
5
10D
100
AcDbEntity
8
0
100
AcDbBlockBegin
2
DimnDraft3D3
70
0
10
0
20
0
30
0
3
DimnDraft3D3
0
MTEXT
5
107
100
AcDbEntity
8
SK2
62
256
6
ByLayer
370
13
48
1
60
0
100
AcDbMText
10
48.719605
20
17.634119
30
0
210
0
220
0
230
1
1
\W0.6977;84,17
40
3.5
41
0
44
1.084337
50
0
71
7
72
5
7
iso_b_vert
0
LINE
5
108
100
AcDbEntity
8
SK2
62
256
6
ByLayer
370
13
48
1
60
0
100
AcDbLine
10
10.83
20
6.7375
30
0
11
10.83
21
18.759119
31
0
39
0
210
0
220
0
230
1
0
LINE
5
109
100
AcDbEntity
8
SK2
62
256
6
ByLayer
370
13
48
1
60
0
100
AcDbLine
10
95
20
1.5875
30
0
11
95
21
18.759119
31
0
39
0
210
0
220
0
230
1
0
LINE
5
10A
100
AcDbEntity
8
SK2
62
256
6
ByLayer
370
13
48
1
60
0
100
AcDbLine
10
10.83
20
16.759119
30
0
11
95
21
16.759119
31
0
39
0
210
0
220
0
230
1
0
SOLID
5
10B
100
AcDbEntity
8
SK2
62
256
6
ByLayer
370
13
48
1
60
0
100
AcDbTrace
10
10.83
20
16.759119
30
0
11
14.329998
21
17.219903
31
0
12
14.330002
22
16.298335
32
0
13
10.83
23
16.759119
33
0
39
0
210
0
220
0
230
1
0
SOLID
5
10C
100
AcDbEntity
8
SK2
62
256
6
ByLayer
370
13
48
1
60
0
100
AcDbTrace
10
95
20
16.759119
30
0
11
91.500002
21
16.298335
31
0
12
91.499998
22
17.219903
32
0
13
95
23
16.759119
33
0
39
0
210
0
220
0
230
1
0
ENDBLK
5
10E
100
AcDbEntity
8
0
100
AcDbBlockEnd
0
BLOCK
5
117
100
AcDbEntity
8
0
100
AcDbBlockBegin
2
DimnDraft3D4
70
0
10
0
20
0
30
0
3
DimnDraft3D4
0
MTEXT
5
111
100
AcDbEntity
8
SK2
62
256
6
ByLayer
370
13
48
1
60
0
100
AcDbMText
10
102.278136
20
-17.077503
30
0
210
0
220
0
230
1
1
\W0.6367;1,77
40
3.5
41
0
44
1.084337
50
0
71
7
72
5
7
iso_b_vert
0
LINE
5
112
100
AcDbEntity
8
SK2
62
256
6
ByLayer
370
13
48
1
60
0
100
AcDbLine
10
95
20
-1.5875
30
0
11
95
21
-19.952503
31
0
39
0
210
0
220
0
230
1
0
LINE
5
113
100
AcDbEntity
8
SK2
62
256
6
ByLayer
370
13
48
1
60
0
100
AcDbLine
10
93.23
20
-6.7375
30
0
11
93.23
21
-19.952503
31
0
39
0
210
0
220
0
230
1
0
LINE
5
114
100
AcDbEntity
8
SK2
62
256
6
ByLayer
370
13
48
1
60
0
100
AcDbLine
10
84.48
20
-17.952503
30
0
11
108.559715
21
-17.952503
31
0
39
0
210
0
220
0
230
1
0
SOLID
5
115
100
AcDbEntity
8
SK2
62
256
6
ByLayer
370
13
48
1
60
0
100
AcDbTrace
10
95
20
-17.952503
30
0
11
98.499998
21
-17.491719
31
0
12
98.500002
22
-18.413287
32
0
13
95
23
-17.952503
33
0
39
0
210
0
220
0
230
1
0
SOLID
5
116
100
AcDbEntity
8
SK2
62
256
6
ByLayer
370
13
48
1
60
0
100
AcDbTrace
10
93.23
20
-17.952503
30
0
11
89.730002
21
-18.413287
31
0
12
89.729998
22
-17.491719
32
0
13
93.23
23
-17.952503
33
0
39
0
210
0
220
0
230
1
0
ENDBLK
5
118
100
AcDbEntity
8
0
100
AcDbBlockEnd
0
BLOCK
5
121
100
AcDbEntity
8
0
100
AcDbBlockBegin
2
DimnDraft3D5
70
0
10
0
20
0
30
0
3
DimnDraft3D5
0
MTEXT
5
11B
100
AcDbEntity
8
SK2
62
256
6
ByLayer
370
13
48
1
60
0
100
AcDbMText
10
16.171597
20
-23.468428
30
0
210
0
220
0
230
1
1
\W0.6930;138,23
40
3.5
41
0
44
1.084337
50
0
71
7
72
5
7
iso_b_vert
0
LINE
5
11C
100
AcDbEntity
8
SK2
62
256
6
ByLayer
370
13
48
1
60
0
100
AcDbLine
10
-45
20
-7.5875
30
0
11
-45
21
-26.343428
31
0
39
0
210
0
220
0
230
1
0
LINE
5
11D
100
AcDbEntity
8
SK2
62
256
6
ByLayer
370
13
48
1
60
0
100
AcDbLine
10
93.23
20
-6.7375
30
0
11
93.23
21
-26.343428
31
0
39
0
210
0
220
0
230
1
0
LINE
5
11E
100
AcDbEntity
8
SK2
62
256
6
ByLayer
370
13
48
1
60
0
100
AcDbLine
10
-45
20
-24.343428
30
0
11
93.23
21
-24.343428
31
0
39
0
210
0
220
0
230
1
0
SOLID
5
11F
100
AcDbEntity
8
SK2
62
256
6
ByLayer
370
13
48
1
60
0
100
AcDbTrace
10
-45
20
-24.343428
30
0
11
-41.500002
21
-23.882645
31
0
12
-41.499998
22
-24.804212
32
0
13
-45
23
-24.343428
33
0
39
0
210
0
220
0
230
1
0
SOLID
5
120
100
AcDbEntity
8
SK2
62
256
6
ByLayer
370
13
48
1
60
0
100
AcDbTrace
10
93.23
20
-24.343428
30
0
11
89.730002
21
-24.804212
31
0
12
89.729998
22
-23.882645
32
0
13
93.23
23
-24.343428
33
0
39
0
210
0
220
0
230
1
0
ENDBLK
5
122
100
AcDbEntity
8
0
100
AcDbBlockEnd
0
BLOCK
5
12C
100
AcDbEntity
8
0
100
AcDbBlockBegin
2
DimnDraft3D6
70
0
10
0
20
0
30
0
3
DimnDraft3D6
0
MTEXT
5
125
100
AcDbEntity
8
SK2
62
256
6
ByLayer
370
13
48
1
60
0
100
AcDbMText
10
-55.375163
20
25.34918
30
0
210
0
220
0
230
1
1
\W0.6930;12,000
40
3.5
41
0
44
1.084337
50
90
71
7
72
5
7
iso_b_vert
0
MTEXT
5
126
100
AcDbEntity
8
SK2
62
256
6
ByLayer
370
13
48
1
60
0
100
AcDbMText
10
-55.375163
20
20.126524
30
0
210
0
220
0
230
1
1
%%c
40
3.5
41
0
44
1.084337
50
90
71
7
72
5
7
iso_b_vert
0
LINE
5
127
100
AcDbEntity
8
SK2
62
256
6
ByLayer
370
13
48
1
60
0
100
AcDbLine
10
-46.5875
20
-6
30
0
11
-55.625163
21
-6
31
0
39
0
210
0
220
0
230
1
0
LINE
5
128
100
AcDbEntity
8
SK2
62
256
6
ByLayer
370
13
48
1
60
0
100
AcDbLine
10
-46.5875
20
6
30
0
11
-55.625163
21
6
31
0
39
0
210
0
220
0
230
1
0
LINE
5
129
100
AcDbEntity
8
SK2
62
256
6
ByLayer
370
13
48
1
60
0
100
AcDbLine
10
-53.625163
20
-6
30
0
11
-53.625163
21
36.862338
31
0
39
0
210
0
220
0
230
1
0
SOLID
5
12A
100
AcDbEntity
8
SK2
62
256
6
ByLayer
370
13
48
1
60
0
100
AcDbTrace
10
-53.625163
20
-6
30
0
11
-54.085946
21
-2.500002
31
0
12
-53.164379
22
-2.499998
32
0
13
-53.625163
23
-6
33
0
39
0
210
0
220
0
230
1
0
SOLID
5
12B
100
AcDbEntity
8
SK2
62
256
6
ByLayer
370
13
48
1
60
0
100
AcDbTrace
10
-53.625163
20
6
30
0
11
-53.164379
21
2.500002
31
0
12
-54.085946
22
2.499998
32
0
13
-53.625163
23
6
33
0
39
0
210
0
220
0
230
1
0
ENDBLK
5
12D
100
AcDbEntity
8
0
100
AcDbBlockEnd
0
BLOCK
5
137
100
AcDbEntity
8
0
100
AcDbBlockBegin
2
DimnDraft3D7
70
0
10
0
20
0
30
0
3
DimnDraft3D7
0
MTEXT
5
130
100
AcDbEntity
8
2
62
256
6
ByLayer
370
13
48
1
60
0
100
AcDbMText
10
105.333343
20
23.092266
30
0
210
0
220
0
230
1
1
\W0.6930;10,300
40
3.5
41
0
44
1.084337
50
90
71
7
72
5
7
iso_b_vert
0
MTEXT
5
131
100
AcDbEntity
8
2
62
256
6
ByLayer
370
13
48
1
60
0
100
AcDbMText
10
105.333343
20
17.86961
30
0
210
0
220
0
230
1
1
%%c
40
3.5
41
0
44
1.084337
50
90
71
7
72
5
7
iso_b_vert
0
LINE
5
132
100
AcDbEntity
8
2
62
256
6
ByLayer
370
13
48
1
60
0
100
AcDbLine
10
94.8175
20
-5.15
30
0
11
109.083343
21
-5.15
31
0
39
0
210
0
220
0
230
1
0
LINE
5
133
100
AcDbEntity
8
2
62
256
6
ByLayer
370
13
48
1
60
0
100
AcDbLine
10
94.8175
20
5.15
30
0
11
109.083343
21
5.15
31
0
39
0
210
0
220
0
230
1
0
LINE
5
134
100
AcDbEntity
8
2
62
256
6
ByLayer
370
13
48
1
60
0
100
AcDbLine
10
107.083343
20
-5.15
30
0
11
107.083343
21
34.605424
31
0
39
0
210
0
220
0
230
1
0
SOLID
5
135
100
AcDbEntity
8
2
62
256
6
ByLayer
370
13
48
1
60
0
100
AcDbTrace
10
107.083343
20
-5.15
30
0
11
106.622559
21
-1.650002
31
0
12
107.544126
22
-1.649998
32
0
13
107.083343
23
-5.15
33
0
39
0
210
0
220
0
230
1
0
SOLID
5
136
100
AcDbEntity
8
2
62
256
6
ByLayer
370
13
48
1
60
0
100
AcDbTrace
10
107.083343
20
5.15
30
0
11
107.544126
21
1.650002
31
0
12
106.622559
22
1.649998
32
0
13
107.083343
23
5.15
33
0
39
0
210
0
220
0
230
1
0
ENDBLK
5
138
100
AcDbEntity
8
0
100
AcDbBlockEnd
0
ENDSEC
0
SECTION
2
ENTITIES
0
ARC
5
9F
100
AcDbEntity
8
1
62
256
6
ByLayer
370
18
48
1
60
0
100
AcDbCircle
39
0
10
0
20
5.2
30
0
40
0.799999999999995
210
0
220
0
230
1
100
AcDbArc
50
25.741488
51
90
0
ARC
5
A0
100
AcDbEntity
8
1
62
256
6
ByLayer
370
18
48
1
60
0
100
AcDbCircle
39
0
10
-1.44122
20
5.894898
30
0
40
0.800000000000001
210
0
220
0
230
-1
100
AcDbArc
50
269.965623
51
334.258512
0
ARC
5
A1
100
AcDbEntity
8
1
62
256
6
ByLayer
370
18
48
1
60
0
100
AcDbCircle
39
0
10
0
20
-5.2
30
0
40
0.799999999999995
210
0
220
0
230
1
100
AcDbArc
50
270
51
334.258512
0
ARC
5
A2
100
AcDbEntity
8
1
62
256
6
ByLayer
370
18
48
1
60
0
100
AcDbCircle
39
0
10
-1.44122
20
-5.894898
30
0
40
0.800000000000001
210
0
220
0
230
-1
100
AcDbArc
50
25.741488
51
90.034377
0
ELLIPSE
5
A3
100
AcDbEntity
8
1
62
256
6
ByLayer
370
18
48
1
60
0
100
AcDbEllipse
10
6.25
20
5.117479
30
0
11
0.25
21
0
31
0
210
0
220
0
230
1
40
0.999978
41
-3.1345096790438
42
-1.56400323438814
0
ELLIPSE
5
A4
100
AcDbEntity
8
1
62
256
6
ByLayer
370
18
48
1
60
0
100
AcDbEllipse
10
6.25
20
-5.117479
30
0
11
0.25
21
0
31
0
210
0
220
0
230
1
40
0.999978
41
1.57021691557633
42
3.13450967904384
0
ELLIPSE
5
A5
100
AcDbEntity
8
1
62
256
6
ByLayer
370
13
48
1
60
0
100
AcDbEllipse
10
94.134068
20
2.369973
30
0
11
3.49210923366888
21
-1.79525607731029
31
0
210
0
220
0
230
-1
40
0.482873
41
1.53949524912175
42
1.8317365965555
0
ELLIPSE
5
A6
100
AcDbEntity
8
1
62
256
6
ByLayer
370
18
48
1
60
0
100
AcDbEllipse
10
94.030296
20
2.504265
30
0
11
0.792974772887673
21
-2.16201910326549
31
0
210
0
220
0
230
-1
40
0.082138
41
-1.56072982458804
42
-0.755280950346976
0
ELLIPSE
5
A7
100
AcDbEntity
8
1
62
256
6
ByLayer
370
13
48
1
60
0
100
AcDbEllipse
10
93.546359
20
0.762661
30
0
11
0.133113781883907
21
0.268850741253513
31
0
210
0
220
0
230
1
40
0.40558
41
0.884485917130962
42
2.28074931872636
0
ELLIPSE
5
A8
100
AcDbEntity
8
1
62
256
6
ByLayer
370
18
48
1
60
0
100
AcDbEllipse
10
95.024585
20
-0.03076
30
0
11
0.135658546000927
21
0.401200806147067
31
0
210
0
220
0
230
-1
40
0.065863
41
-2.32292776269614
42
-1.63766716836132
0
ELLIPSE
5
A9
100
AcDbEntity
8
1
62
256
6
ByLayer
370
18
48
1
60
0
100
AcDbEllipse
10
94.030296
20
-2.504265
30
0
11
0.792974772886803
21
2.16201910326354
31
0
210
0
220
0
230
-1
40
0.082138
41
0.755280950347336
42
1.56072982458895
0
ELLIPSE
5
AA
100
AcDbEntity
8
1
62
256
6
ByLayer
370
18
48
1
60
0
100
AcDbEllipse
10
95.000436
20
-0.001125
30
0
11
1.88841421961871
21
-5.14869798561646
31
0
210
0
220
0
230
-1
40
0.082138
41
-2.98454983969013
42
-2.88921608642403
0
ELLIPSE
5
AB
100
AcDbEntity
8
1
62
256
6
ByLayer
370
18
48
1
60
0
100
AcDbEllipse
10
95.024585
20
0.03076
30
0
11
0.13565854599185
21
-0.40120080612299
31
0
210
0
220
0
230
-1
40
0.065863
41
1.63766716833179
42
2.32292776270796
0
ELLIPSE
5
AC
100
AcDbEntity
8
1
62
256
6
ByLayer
370
13
48
1
60
0
100
AcDbEllipse
10
94.303526
20
2.504265
30
0
11
3.53697640716626
21
-1.48693753511337
31
0
210
0
220
0
230
-1
40
0.444124
41
1.59823327955659
42
1.89766917493001
0
ELLIPSE
5
AD
100
AcDbEntity
8
1
62
256
6
ByLayer
370
18
48
1
60
0
100
AcDbEllipse
10
94.860442
20
0.112031
30
0
11
0.0868803724502947
21
0.290676908877134
31
0
210
0
220
0
230
-1
40
0.467765
41
1.64953436657919
42
2.36053717394027
0
ELLIPSE
5
AE
100
AcDbEntity
8
1
62
256
6
ByLayer
370
18
48
1
60
0
100
AcDbEllipse
10
95.000436
20
0.001125
30
0
11
1.88841413217197
21
5.14869773419568
31
0
210
0
220
0
230
-1
40
0.082138
41
2.88921608024046
42
2.98454983586891
0
POINT
5
6C
100
AcDbEntity
8
81
62
256
6
ByLayer
370
18
48
1
60
0
100
AcDbPoint
10
95
20
0
30
0
39
0
210
0
220
0
230
1
50
360
0
POINT
5
6E
100
AcDbEntity
8
80
62
256
6
ByLayer
370
18
48
1
60
0
100
AcDbPoint
10
0
20
0
30
0
39
0
210
0
220
0
230
1
50
360
0
POINT
5
70
100
AcDbEntity
8
SK2
62
256
6
ByLayer
370
18
48
1
60
1
100
AcDbPoint
10
-45
20
-6
30
0
39
0
210
0
220
0
230
1
50
360
0
POINT
5
72
100
AcDbEntity
8
SK2
62
256
6
ByLayer
370
18
48
1
60
1
100
AcDbPoint
10
-45
20
6
30
0
39
0
210
0
220
0
230
1
50
360
0
POINT
5
73
100
AcDbEntity
8
2
62
256
6
ByLayer
370
18
48
1
60
1
100
AcDbPoint
10
93.23
20
-5.15
30
0
39
0
210
0
220
0
230
1
50
360
0
POINT
5
75
100
AcDbEntity
8
2
62
256
6
ByLayer
370
18
48
1
60
1
100
AcDbPoint
10
93.23
20
5.15
30
0
39
0
210
0
220
0
230
1
50
360
0
SPLINE
5
AF
100
AcDbEntity
8
1
62
256
6
ByLayer
370
18
48
1
60
0
100
AcDbSpline
70
4
71
1
72
4
73
2
40
0
40
0
40
1
40
1
41
1
10
17.1001829464391
20
0.0079366872634239
30
0
41
1
10
17.1001647135463
20
0.0079424620292343
30
0
0
SPLINE
5
B0
100
AcDbEntity
8
1
62
256
6
ByLayer
370
18
48
1
60
0
100
AcDbSpline
70
4
71
2
72
6
73
3
40
0
40
0
40
0
40
1
40
1
40
1
41
1
10
77.0073617751447
20
0.0045399753518609
30
0
41
1
10
77.0073415130541
20
0.0045506081153803
30
0
41
1
10
77.0073212510182
20
0.0045615294313848
30
0
0
SPLINE
5
B1
100
AcDbEntity
8
1
62
256
6
ByLayer
370
18
48
1
60
0
100
AcDbSpline
70
4
71
3
72
12
73
8
40
0
40
0
40
0
40
0
40
0.0191391623928317
40
0.141256386172439
40
0.348132415281208
40
0.672563288021459
40
1
40
1
40
1
40
1
41
1
10
78.803652613494
20
-1.40882879326335
30
0
41
1
10
78.8036740630968
20
-1.40885083696082
30
0
41
1
10
78.8045114830308
20
-1.40931691649783
30
0
41
1
10
78.8202994843618
20
-1.41658980168228
30
0
41
1
10
78.908627741972
20
-1.45858606058582
30
0
41
1
10
79.0302939002839
20
-1.51881777784769
30
0
41
1
10
79.1335533175324
20
-1.57149817435209
30
0
41
1
10
79.1876939258584
20
-1.59952567213733
30
0
0
SPLINE
5
B2
100
AcDbEntity
8
1
62
256
6
ByLayer
370
18
48
1
60
0
100
AcDbSpline
70
4
71
3
72
9
73
5
40
0
40
0
40
0
40
0
40
0.821345619346873
40
1
40
1
40
1
40
1
41
1
10
48.8577785699885
20
-1.41166990924606
30
0
41
1
10
48.8593333239971
20
-1.41229716330653
30
0
41
1
10
48.8694697880686
20
-1.41582639203983
30
0
41
1
10
48.8721706163838
20
-1.41681462904015
30
0
41
1
10
48.8721681363972
20
-1.41679350000049
30
0
0
SPLINE
5
B3
100
AcDbEntity
8
1
62
256
6
ByLayer
370
18
48
1
60
0
100
AcDbSpline
70
4
71
3
72
12
73
8
40
0
40
0
40
0
40
0
40
0.0405083210407017
40
0.162013937121189
40
0.371399077935129
40
0.701518633071402
40
1
40
1
40
1
40
1
41
1
10
48.8501258357128
20
-1.40728723431687
30
0
41
1
10
48.8501218769144
20
-1.40730835752856
30
0
41
1
10
48.8512737803981
20
-1.40791859186785
30
0
41
1
10
48.8672665140488
20
-1.41531959960531
30
0
41
1
10
48.9545554501135
20
-1.45677198696001
30
0
41
1
10
49.0713478625972
20
-1.51447271615703
30
0
41
1
10
49.1695085893062
20
-1.56446186714138
30
0
41
1
10
49.2180946041255
20
-1.58953924549175
30
0
0
SPLINE
5
B4
100
AcDbEntity
8
1
62
256
6
ByLayer
370
18
48
1
60
0
100
AcDbSpline
70
4
71
3
72
31
73
27
40
0
40
0
40
0
40
0
40
0.0522544386623494
40
0.0974004145141176
40
0.129993165356588
40
0.15099767878558
40
0.172411420337405
40
0.229205549571613
40
0.273144379066361
40
0.321839029175931
40
0.389562000686629
40
0.445049748494968
40
0.496442970734947
40
0.555237842013716
40
0.591773926444389
40
0.626127827991176
40
0.656832646429758
40
0.68331805853181
40
0.70823623310245
40
0.741909724741533
40
0.781780330982164
40
0.815643367131774
40
0.861802443427386
40
0.916974298431677
40
0.982451696040314
40
1
40
1
40
1
40
1
41
1
10
32.3017410267636
20
-4.88255122853144
30
0
41
1
10
32.5605452430804
20
-4.88284326319686
30
0
41
1
10
33.0429774986146
20
-4.88333844299132
30
0
41
1
10
33.6869948490222
20
-4.88388595358941
30
0
41
1
10
34.1761404734535
20
-4.88421601468633
30
0
41
1
10
34.5477398298678
20
-4.88456592989869
30
0
41
1
10
35.0392360815549
20
-4.88531269960072
30
0
41
1
10
35.6443201448532
20
-4.88677968738486
30
0
41
1
10
36.3845939842704
20
-4.88644165871733
30
0
41
1
10
37.1789572767815
20
-4.88561886543425
30
0
41
1
10
38.0305715140491
20
-4.89004079936078
30
0
41
1
10
38.8955446334478
20
-4.88882794643109
30
0
41
1
10
39.7163007547821
20
-4.8868688897773
30
0
41
1
10
40.4431587627771
20
-4.89143605956414
30
0
41
1
10
41.085614135337
20
-4.8915352268445
30
0
41
1
10
41.5889100612007
20
-4.8911277002147
30
0
41
1
10
42.0424153611469
20
-4.8905929706747
30
0
41
1
10
42.4491756535269
20
-4.89063794340859
30
0
41
1
10
42.8706487778183
20
-4.89148525003196
30
0
41
1
10
43.3583968191646
20
-4.8942717376693
30
0
41
1
10
43.8905988944637
20
-4.89348755425368
30
0
41
1
10
44.4841269567558
20
-4.89270934007945
30
0
41
1
10
45.1549270790395
20
-4.89166784550025
30
0
41
1
10
45.9759717224189
20
-4.89637175796463
30
0
41
1
10
46.6613467766761
20
-4.8932069280774
30
0
41
1
10
47.0707881720629
20
-4.89371581231001
30
0
41
1
10
47.1573118210494
20
-4.8938260604663
30
0
0
SPLINE
5
B5
100
AcDbEntity
8
1
62
256
6
ByLayer
370
18
48
1
60
0
100
AcDbSpline
70
4
71
2
72
6
73
3
40
0
40
0
40
0
40
1
40
1
40
1
41
1
10
92.209455529198
20
-4.91860882607745
30
0
41
1
10
92.7112871406429
20
-4.91462321199936
30
0
41
1
10
93.2131154252925
20
-4.92131797873492
30
0
0
SPLINE
5
B6
100
AcDbEntity
8
1
62
256
6
ByLayer
370
18
48
1
60
0
100
AcDbSpline
70
4
71
3
72
29
73
25
40
0
40
0
40
0
40
0
40
0.0057856287254012
40
0.0734260036239287
40
0.129271713257051
40
0.177731341152433
40
0.21945723666825
40
0.262921768937959
40
0.313802107269603
40
0.374560258383945
40
0.429309217396122
40
0.489759138316507
40
0.56451433147029
40
0.622924324145662
40
0.661424006385433
40
0.695473969766456
40
0.741970192091402
40
0.796898105240352
40
0.845886708355044
40
0.887804245646473
40
0.917002153753556
40
0.949297765108516
40
0.98339831187839
40
1
40
1
40
1
40
1
41
1
10
77.0750118123892
20
4.91057298117585
30
0
41
1
10
77.0514273769701
20
4.91062875614733
30
0
41
1
10
76.7520903737917
20
4.91132272278313
30
0
41
1
10
76.221844083633
20
4.91243554901456
30
0
41
1
10
75.5218736143935
20
4.91273355440543
30
0
41
1
10
74.9256813594312
20
4.91070697538802
30
0
41
1
10
74.3790710613165
20
4.90582115879769
30
0
41
1
10
73.8228020205655
20
4.90560788723636
30
0
41
1
10
73.1885963833703
20
4.9061045540596
30
0
41
1
10
72.5082904910998
20
4.9087272522373
30
0
41
1
10
71.7888463882823
20
4.90551325089578
30
0
41
1
10
71.0121737466283
20
4.90679627385069
30
0
41
1
10
70.2205336754245
20
4.90793146906907
30
0
41
1
10
69.5186404301066
20
4.90690612623567
30
0
41
1
10
68.9831800159511
20
4.90460266648594
30
0
41
1
10
68.4964424999002
20
4.90459927094878
30
0
41
1
10
67.9425324407879
20
4.90484983807988
30
0
41
1
10
67.3275285440198
20
4.90525876552542
30
0
41
1
10
66.7312541728782
20
4.9036704976802
30
0
41
1
10
66.2401933767034
20
4.90293774814756
30
0
41
1
10
65.8173677548693
20
4.90302691178971
30
0
41
1
10
65.426513766427
20
4.90312430454011
30
0
41
1
10
65.0871617648351
20
4.90312709229542
30
0
41
1
10
64.8798504712304
20
4.90303863849491
30
0
41
1
10
64.8119707076654
20
4.9029960699342
30
0
0
SPLINE
5
B7
100
AcDbEntity
8
1
62
256
6
ByLayer
370
18
48
1
60
0
100
AcDbSpline
70
4
71
3
72
36
73
32
40
0
40
0
40
0
40
0
40
0.0562511518269378
40
0.105107002282271
40
0.146466137968594
40
0.17821053511306
40
0.201789779240808
40
0.235544784617697
40
0.275370507620638
40
0.311049930350481
40
0.347591413277999
40
0.379334563820163
40
0.407696086322219
40
0.43519630622589
40
0.472499245731383
40
0.514969889176217
40
0.554036764062946
40
0.590986051544432
40
0.634449168888693
40
0.681263471852421
40
0.718292016996662
40
0.745961841769133
40
0.769108545161349
40
0.800662718153289
40
0.834689811427432
40
0.863460224262474
40
0.886989570872439
40
0.906476938501887
40
0.933061358635174
40
0.969466510384211
40
1
40
1
40
1
40
1
41
1
10
62.1731152157961
20
-4.90058329496756
30
0
41
1
10
62.4475092493635
20
-4.90025339758682
30
0
41
1
10
62.9606287018859
20
-4.90008411011769
30
0
41
1
10
63.6859682638559
20
-4.90079987051175
30
0
41
1
10
64.276471156536
20
-4.90255482941964
30
0
41
1
10
64.754132263585
20
-4.90284811655516
30
0
41
1
10
65.1917192554997
20
-4.90318546535212
30
0
41
1
10
65.6704888763399
20
-4.90307139837645
30
0
41
1
10
66.208379265725
20
-4.90282265805351
30
0
41
1
10
66.7601421783758
20
-4.90377799422353
30
0
41
1
10
67.2720531503606
20
-4.90507909341602
30
0
41
1
10
67.7479434184803
20
-4.90499807156783
30
0
41
1
10
68.1793246571266
20
-4.90474261449671
30
0
41
1
10
68.6380702269813
20
-4.90453574807071
30
0
41
1
10
69.1663050341184
20
-4.90492756150152
30
0
41
1
10
69.7514775806552
20
-4.90777946507481
30
0
41
1
10
70.3348721781476
20
-4.90752657167437
30
0
41
1
10
70.9231809911824
20
-4.90708516130744
30
0
41
1
10
71.549674774807
20
-4.9052547915598
30
0
41
1
10
72.1765126484572
20
-4.90824123521196
30
0
41
1
10
72.7256001486519
20
-4.90734408367595
30
0
41
1
10
73.1581592955745
20
-4.90646507480687
30
0
41
1
10
73.563760595367
20
-4.90580631646733
30
0
41
1
10
74.0006592557889
20
-4.90559045178983
30
0
41
1
10
74.4652617164163
20
-4.90634503925307
30
0
41
1
10
74.8903290589708
20
-4.91031937042936
30
0
41
1
10
75.2438124285636
20
-4.9117572909901
30
0
41
1
10
75.58653440761
20
-4.91266063130007
30
0
41
1
10
75.9926603685348
20
-4.91323029032304
30
0
41
1
10
76.4531705100801
20
-4.91273769785758
30
0
41
1
10
76.7827836925644
20
-4.91190865740202
30
0
41
1
10
76.9331342098674
20
-4.91140281026463
30
0
0
SPLINE
5
B8
100
AcDbEntity
8
1
62
256
6
ByLayer
370
18
48
1
60
0
100
AcDbSpline
70
4
71
3
72
30
73
26
40
0
40
0
40
0
40
0
40
0.0090867854280608
40
0.0790638223325609
40
0.139917307825393
40
0.191812340720136
40
0.239507278736275
40
0.300487985837062
40
0.346567862536267
40
0.379923935835522
40
0.412709327774053
40
0.451114667056567
40
0.494535931830016
40
0.540931469599495
40
0.588781300066177
40
0.634449381733663
40
0.674678243467963
40
0.717362068824247
40
0.768912170024423
40
0.824231906000745
40
0.867060098653052
40
0.894313275845266
40
0.925995098835057
40
0.966396730817492
40
1
40
1
40
1
40
1
41
1
10
47.1701927847584
20
4.89361355029098
30
0
41
1
10
47.133314464364
20
4.89356241258352
30
0
41
1
10
46.8123916120967
20
4.89314875786201
30
0
41
1
10
46.2375458433481
20
4.89575686259198
30
0
41
1
10
45.5004657511217
20
4.89322527361344
30
0
41
1
10
44.8445735063649
20
4.89204245417156
30
0
41
1
10
44.1900097249973
20
4.8930285878632
30
0
41
1
10
43.558209489276
20
4.8945390602139
30
0
41
1
10
42.9851617001614
20
4.89207471575298
30
0
41
1
10
42.527141491531
20
4.8906763768471
30
0
41
1
10
42.1004505612569
20
4.89055180626735
30
0
41
1
10
41.6326792162059
20
4.8910896193336
30
0
41
1
10
41.1093605862617
20
4.89146355587818
30
0
41
1
10
40.5474915278286
20
4.89173995803102
30
0
41
1
10
39.976465193022
20
4.88767690899542
30
0
41
1
10
39.4305941548746
20
4.88795227325463
30
0
41
1
10
38.9058110986582
20
4.88866404013493
30
0
41
1
10
38.3570214541796
20
4.88946709788451
30
0
41
1
10
37.7466498736638
20
4.88861792739459
30
0
41
1
10
37.1356847428768
20
4.88592475382248
30
0
41
1
10
36.6238752162131
20
4.88626240004436
30
0
41
1
10
36.2085839491417
20
4.88647956803399
30
0
41
1
10
35.8031408867759
20
4.88663001450476
30
0
41
1
10
35.3718169453807
20
4.88617010009881
30
0
41
1
10
35.0697805122941
20
4.88547443261945
30
0
41
1
10
34.9326344695126
20
4.88520382604634
30
0
0
SPLINE
5
B9
100
AcDbEntity
8
1
62
256
6
ByLayer
370
18
48
1
60
0
100
AcDbSpline
70
4
71
3
72
28
73
24
40
0
40
0
40
0
40
0
40
0.0526809866727613
40
0.113931958206196
40
0.160795809412179
40
0.19348783007503
40
0.218837610520045
40
0.281157805083379
40
0.348776854613678
40
0.39811758147822
40
0.448741045812717
40
0.507432541616764
40
0.570217429391588
40
0.61388116587842
40
0.647397210159692
40
0.681284893273922
40
0.732409445616259
40
0.791081009490167
40
0.844346716454416
40
0.906204462776184
40
0.957388033859451
40
0.974770742931491
40
1
40
1
40
1
40
1
41
1
10
6.25091105453467
20
-4.86752852759224
30
0
41
1
10
6.44013947306638
20
-4.86828035369206
30
0
41
1
10
6.84938528441526
20
-4.86973277378647
30
0
41
1
10
7.42702573634929
20
-4.87132180917899
30
0
41
1
10
7.93280980959827
20
-4.87216670898582
30
0
41
1
10
8.30965488608203
20
-4.87251768830515
30
0
41
1
10
8.74202664977477
20
-4.87272108553984
30
0
41
1
10
9.29986760009501
20
-4.87264142428336
30
0
41
1
10
9.94390026382584
20
-4.87235151874395
30
0
41
1
10
10.5458017777333
20
-4.87218101462736
30
0
41
1
10
11.1157323682388
20
-4.87331518454519
30
0
41
1
10
11.7339635754045
20
-4.87582712257512
30
0
41
1
10
12.327155745447
20
-4.87606188176767
30
0
41
1
10
12.8299387446458
20
-4.87649570764751
30
0
41
1
10
13.2289185321315
20
-4.87666268872593
30
0
41
1
10
13.6547072321719
20
-4.87686016162164
30
0
41
1
10
14.1708560298138
20
-4.87831148081091
30
0
41
1
10
14.7566173938247
20
-4.87844108291432
30
0
41
1
10
15.3809408493776
20
-4.87780542088362
30
0
41
1
10
15.9783505615033
20
-4.8777123902463
30
0
41
1
10
16.4468957561378
20
-4.87884178530368
30
0
41
1
10
16.783774561672
20
-4.87932481511854
30
0
41
1
10
16.9368493928653
20
-4.87944384537894
30
0
41
1
10
17.0274851774368
20
-4.8794798788862
30
0
0
SPLINE
5
BA
100
AcDbEntity
8
1
62
256
6
ByLayer
370
18
48
1
60
0
100
AcDbSpline
70
4
71
3
72
29
73
25
40
0
40
0
40
0
40
0
40
0.0039710528889087
40
0.0293683096311833
40
0.0483899047387025
40
0.0693565044232503
40
0.0922784453917295
40
0.15387675031249
40
0.225096943680547
40
0.28077035862223
40
0.325691720410841
40
0.355886541764296
40
0.388306065029148
40
0.429751166788393
40
0.509348760241333
40
0.579852611888109
40
0.641470816019321
40
0.716981633110405
40
0.756393940545019
40
0.789764675985267
40
0.820837303608112
40
0.868602150122437
40
0.935927023159402
40
1
40
1
40
1
40
1
41
1
10
17.02688848109
20
4.87946781633428
30
0
41
1
10
17.0126242439687
20
4.87946671514925
30
0
41
1
10
16.9071322779913
20
4.87944941586304
30
0
41
1
10
16.7333128195733
20
4.87926589963473
30
0
41
1
10
16.498479211128
20
4.87889260447398
30
0
41
1
10
16.2725012668754
20
4.87840480209724
30
0
41
1
10
15.8935853391694
20
4.87776584712191
30
0
41
1
10
15.3341538580664
20
4.87777002688188
30
0
41
1
10
14.6570748989399
20
4.87865077316948
30
0
41
1
10
14.0399043549523
20
4.87789532304541
30
0
41
1
10
13.5700998610933
20
4.87678474224305
30
0
41
1
10
13.1838216503352
20
4.87665379596137
30
0
41
1
10
12.8100373393951
20
4.87647748242435
30
0
41
1
10
12.2587986812149
20
4.87601118228613
30
0
41
1
10
11.5707990382603
20
4.87575434419881
30
0
41
1
10
10.8102430577105
20
4.87209079057143
30
0
41
1
10
10.0645342926167
20
4.87233251943351
30
0
41
1
10
9.43038480965112
20
4.87258092802955
30
0
41
1
10
8.8976996138276
20
4.87270903311821
30
0
41
1
10
8.52464506040823
20
4.87263865756864
30
0
41
1
10
8.12157774319135
20
4.87238142340544
30
0
41
1
10
7.59658848049654
20
4.87169209144656
30
0
41
1
10
6.95301179071819
20
4.87008284449396
30
0
41
1
10
6.48104794791189
20
4.86843877950051
30
0
41
1
10
6.25090795003098
20
4.86751261248813
30
0
0
SPLINE
5
BB
100
AcDbEntity
8
1
62
256
6
ByLayer
370
18
48
1
60
0
100
AcDbSpline
70
2053
71
3
72
60
73
56
40
0
40
0
40
0
40
0
40
0.0312499999999996
40
0.0312499999999996
40
0.0624999999999992
40
0.0624999999999992
40
0.0937499999999988
40
0.0937499999999988
40
0.124999999999998
40
0.124999999999998
40
0.156249999999998
40
0.156249999999998
40
0.187499999999998
40
0.187499999999998
40
0.249999999999997
40
0.249999999999997
40
0.281249999999998
40
0.281249999999998
40
0.312499999999998
40
0.312499999999998
40
0.375000000000005
40
0.375000000000005
40
0.437500000000011
40
0.437500000000011
40
0.468750000000011
40
0.468750000000011
40
0.50000000000001
40
0.50000000000001
40
0.53125000000001
40
0.53125000000001
40
0.56250000000001
40
0.56250000000001
40
0.59375000000001
40
0.59375000000001
40
0.62500000000001
40
0.62500000000001
40
0.65625000000001
40
0.65625000000001
40
0.687500000000009
40
0.687500000000009
40
0.75000000000001
40
0.75000000000001
40
0.781250000000008
40
0.781250000000008
40
0.812500000000007
40
0.812500000000007
40
0.843750000000006
40
0.843750000000006
40
0.875000000000005
40
0.875000000000005
40
0.906250000000004
40
0.906250000000004
40
0.937500000000003
40
0.937500000000003
40
1
40
1
40
1
40
1
41
1
10
93.5824697116414
20
-2.99788304700255
30
0
41
1
10
93.610676406406
20
-2.95751239465369
30
0
41
1
10
93.6382935242314
20
-2.91426306311993
30
0
41
1
10
93.6922467035523
20
-2.82150940966767
30
0
41
1
10
93.7188761987771
20
-2.77139111191505
30
0
41
1
10
93.7689565024212
20
-2.66691770530312
30
0
41
1
10
93.7923468064835
20
-2.61283675005745
30
0
41
1
10
93.8353149615841
20
-2.50041315915098
30
0
41
1
10
93.8543627957214
20
-2.44328003244107
30
0
41
1
10
93.8859748996499
20
-2.33104429971789
30
0
41
1
10
93.8988715249149
20
-2.27446766761145
30
0
41
1
10
93.9167078974426
20
-2.1687964405377
30
0
41
1
10
93.9218989424709
20
-2.11872158659534
30
0
41
1
10
93.9261937091068
20
-1.98158243211299
30
0
41
1
10
93.9139743758855
20
-1.90963728892837
30
0
41
1
10
93.8799457572959
20
-1.83339561451402
30
0
41
1
10
93.865874394724
20
-1.81295315643101
30
0
41
1
10
93.8339745165292
20
-1.78217180124429
30
0
41
1
10
93.8160510075554
20
-1.77158094965782
30
0
41
1
10
93.7568503610311
20
-1.75306001813882
30
0
41
1
10
93.7118943771161
20
-1.75852924793134
30
0
41
1
10
93.6129255169482
20
-1.8008762744646
30
0
41
1
10
93.5607220307993
20
-1.83695381965896
30
0
41
1
10
93.4782725466211
20
-1.91378614869984
30
0
41
1
10
93.4502449225814
20
-1.94317942706718
30
0
41
1
10
93.3945854818441
20
-2.00820171023091
30
0
41
1
10
93.3667425248643
20
-2.04401322990108
30
0
41
1
10
93.3110273046927
20
-2.12294339481394
30
0
41
1
10
93.2828408627266
20
-2.16661268667784
30
0
41
1
10
93.2284183921977
20
-2.25949664758426
30
0
41
1
10
93.2021333294585
20
-2.30866377282752
30
0
41
1
10
93.1517120160653
20
-2.41332062941331
30
0
41
1
10
93.127838484158
20
-2.46841536330635
30
0
41
1
10
93.0850817952912
20
-2.58017735093827
30
0
41
1
10
93.0657030672435
20
-2.63829511592701
30
0
41
1
10
93.034026728658
20
-2.75116053331422
30
0
41
1
10
93.0213917817443
20
-2.8068050586092
30
0
41
1
10
93.0034469896295
20
-2.91365124293256
30
0
41
1
10
92.9983669688449
20
-2.96316080435935
30
0
41
1
10
92.9939726316614
20
-3.1007848158313
30
0
41
1
10
93.0060424189747
20
-3.17358287283272
30
0
41
1
10
93.0396605024627
20
-3.25069649883227
30
0
41
1
10
93.0535355163751
20
-3.27144590611005
30
0
41
1
10
93.085386440371
20
-3.30306483242998
30
0
41
1
10
93.1032181171225
20
-3.31390780398704
30
0
41
1
10
93.1422896704439
20
-3.32671395234269
30
0
41
1
10
93.1636591081284
20
-3.32860275261402
30
0
41
1
10
93.2084537535038
20
-3.32388413065627
30
0
41
1
10
93.2319935148087
20
-3.31735231547989
30
0
41
1
10
93.2812726258732
20
-3.29625517512048
30
0
41
1
10
93.3071678144717
20
-3.28154310332582
30
0
41
1
10
93.3597468104268
20
-3.24484694032299
30
0
41
1
10
93.3865667061087
20
-3.22284159884157
30
0
41
1
10
93.4686442065705
20
-3.14567023904951
30
0
41
1
10
93.5260563221121
20
-3.07862435170026
30
0
41
1
10
93.5824697116414
20
-2.99788304700255
30
0
0
SPLINE
5
BC
100
AcDbEntity
8
1
62
256
6
ByLayer
370
18
48
1
60
0
100
AcDbSpline
70
4
71
3
72
26
73
22
40
0
40
0
40
0
40
0
40
0.0201254792346833
40
0.0201254792346833
40
0.183437899362237
40
0.183437899362237
40
0.265094109426013
40
0.265094109426013
40
0.305922214457902
40
0.305922214457902
40
0.34675031948979
40
0.34675031948979
40
0.510062739617343
40
0.510062739617343
40
0.591718949681119
40
0.591718949681119
40
0.673375159744895
40
0.673375159744895
40
0.836687579872448
40
0.836687579872448
40
1
40
1
40
1
40
1
41
1
10
6.00079821503914
20
-5.09763055743773
30
0
41
1
10
6.00079893339199
20
-5.09764662036403
30
0
41
1
10
6.000799645586
20
-5.09713538237185
30
0
41
1
10
6.00080608225346
20
-5.08763000129773
30
0
41
1
10
6.00081130414034
20
-5.04481855725871
30
0
41
1
10
6.000818822816
20
-4.93086553630985
30
0
41
1
10
6.00082127471345
20
-4.88452843627979
30
0
41
1
10
6.00082491200843
20
-4.80213934310052
30
0
41
1
10
6.00082612032307
20
-4.77244337973858
30
0
41
1
10
6.00082850372374
20
-4.70934268711702
30
0
41
1
10
6.00082968128046
20
-4.67589261629948
30
0
41
1
10
6.00083551186216
20
-4.49931395631307
30
0
41
1
10
6.00084000536938
20
-4.32847889204368
30
0
41
1
10
6.00084659939583
20
-4.0277025536935
30
0
41
1
10
6.00084878244678
20
-3.91928810387518
30
0
41
1
10
6.00085300445269
20
-3.69124248826287
30
0
41
1
10
6.00085504751726
20
-3.57153640478381
30
0
41
1
10
6.00086093802329
20
-3.19577440508019
30
0
41
1
10
6.00086456163621
20
-2.92299971921892
30
0
41
1
10
6.00087073036471
20
-2.33247683579143
30
0
41
1
10
6.00087317047834
20
-2.02436119129436
30
0
41
1
10
6.00087468243686
20
-1.70389330291053
30
0
0
SPLINE
5
BD
100
AcDbEntity
8
1
62
256
6
ByLayer
370
18
48
1
60
0
100
AcDbSpline
70
4
71
3
72
102
73
98
40
0
40
0
40
0
40
0
40
0.0029668845306094
40
0.0029668845306094
40
0.0185821209734469
40
0.0185821209734469
40
0.0341973574162844
40
0.0341973574162844
40
0.0498125938591219
40
0.0498125938591219
40
0.0654278303019594
40
0.0654278303019594
40
0.0810430667447968
40
0.0810430667447968
40
0.112273539630471
40
0.112273539630471
40
0.143504012516145
40
0.143504012516145
40
0.174734485401819
40
0.174734485401819
40
0.190349721844656
40
0.190349721844656
40
0.205964958287493
40
0.205964958287493
40
0.22158019473033
40
0.22158019473033
40
0.237195431173168
40
0.237195431173168
40
0.252810667616005
40
0.252810667616005
40
0.268425904058842
40
0.268425904058842
40
0.299656376944515
40
0.299656376944515
40
0.330886849830188
40
0.330886849830188
40
0.362117322715862
40
0.362117322715862
40
0.393347795601535
40
0.393347795601535
40
0.408963032044372
40
0.408963032044372
40
0.424578268487208
40
0.424578268487208
40
0.455808741372881
40
0.455808741372881
40
0.471423977815718
40
0.471423977815718
40
0.487039214258555
40
0.487039214258555
40
0.51826968714423
40
0.51826968714423
40
0.533884923587066
40
0.533884923587066
40
0.549500160029903
40
0.549500160029903
40
0.580730632915577
40
0.580730632915577
40
0.596345869358413
40
0.596345869358413
40
0.61196110580125
40
0.61196110580125
40
0.643191578686923
40
0.643191578686923
40
0.65880681512976
40
0.65880681512976
40
0.674422051572596
40
0.674422051572596
40
0.70565252445827
40
0.70565252445827
40
0.721267760901106
40
0.721267760901106
40
0.736882997343943
40
0.736882997343943
40
0.768113470229616
40
0.768113470229616
40
0.79934394311529
40
0.79934394311529
40
0.830574416000963
40
0.830574416000963
40
0.861804888886636
40
0.861804888886636
40
0.877420125329473
40
0.877420125329473
40
0.89303536177231
40
0.89303536177231
40
0.924265834657984
40
0.924265834657984
40
0.93988107110082
40
0.93988107110082
40
0.955496307543657
40
0.955496307543657
40
0.971111543986493
40
0.971111543986493
40
0.98672678042933
40
0.98672678042933
40
1
40
1
40
1
40
1
41
1
10
23.8970722791131
20
3.67080842600455
30
0
41
1
10
23.933882747282
20
3.68464392273933
30
0
41
1
10
23.9707096754764
20
3.69838864771955
30
0
41
1
10
24.2015035431847
20
3.78385399398127
30
0
41
1
10
24.3959981435888
20
3.85304782836278
30
0
41
1
10
24.7858122087847
20
3.98659003189059
30
0
41
1
10
24.9811411492225
20
4.05092509871329
30
0
41
1
10
25.3724982089628
20
4.17486498128298
30
0
41
1
10
25.5688384563806
20
4.23455617048236
30
0
41
1
10
25.9603739763783
20
4.34871709986518
30
0
41
1
10
26.1553633726074
20
4.40329917496479
30
0
41
1
10
26.5446222271146
20
4.50656382890273
30
0
41
1
10
26.7392183294691
20
4.55495200981693
30
0
41
1
10
27.3226079486201
20
4.69101262034232
30
0
41
1
10
27.7109507240082
20
4.76968650165216
30
0
41
1
10
28.4853231588631
20
4.90402109482767
30
0
41
1
10
28.8705842913457
20
4.95985480749826
30
0
41
1
10
29.6440699904463
20
5.04542302920939
30
0
41
1
10
30.0317021577146
20
5.07569233886778
30
0
41
1
10
30.6135449051996
20
5.10258126861945
30
0
41
1
10
30.8075644409691
20
5.1084397361341
30
0
41
1
10
31.1956251167003
20
5.11378089960854
30
0
41
1
10
31.3896000628268
20
5.11322969436716
30
0
41
1
10
31.7791540374076
20
5.10568471605498
30
0
41
1
10
31.9745439493035
20
5.09871648101569
30
0
41
1
10
32.3663120431552
20
5.07839566174255
30
0
41
1
10
32.5628186367603
20
5.06502177584707
30
0
41
1
10
32.9542221893004
20
5.03200488702345
30
0
41
1
10
33.1494198086836
20
5.01235133295015
30
0
41
1
10
33.5386743245976
20
4.96667093254652
30
0
41
1
10
33.732545661014
20
4.94053468139995
30
0
41
1
10
34.3140682082173
20
4.85329774025112
30
0
41
1
10
34.7019387890741
20
4.78373592604032
30
0
41
1
10
35.4764119091776
20
4.62163429901943
30
0
41
1
10
35.8629135952688
20
4.52896021118292
30
0
41
1
10
36.6344074608214
20
4.3195752797335
30
0
41
1
10
37.021543341949
20
4.20494586781658
30
0
41
1
10
37.7977012380788
20
3.95547852263445
30
0
41
1
10
38.1866224712842
20
3.820533710066
30
0
41
1
10
38.7705457715921
20
3.60101893988113
30
0
41
1
10
38.9654060616506
20
3.52513196760265
30
0
41
1
10
39.3568929580337
20
3.36985388807608
30
0
41
1
10
39.553113043082
20
3.29025460535445
30
0
41
1
10
40.1397879825878
20
3.04650170162236
30
0
41
1
10
40.5294479324888
20
2.87697776575877
30
0
41
1
10
41.1109555998449
20
2.61086245337719
30
0
41
1
10
41.3041329383254
20
2.51989994634832
30
0
41
1
10
41.6909229830743
20
2.33639975216423
30
0
41
1
10
41.8844403251702
20
2.24371503877111
30
0
41
1
10
42.4649659311388
20
1.96226739941989
30
0
41
1
10
42.8519735910791
20
1.77017569094278
30
0
41
1
10
43.4316369528536
20
1.47378607988298
30
0
41
1
10
43.6245909820954
20
1.37337346863163
30
0
41
1
10
44.0107795888034
20
1.1707621041331
30
0
41
1
10
44.2043534549969
20
1.06920041538282
30
0
41
1
10
44.7862120075049
20
0.763253789723535
30
0
41
1
10
45.1755548794606
20
0.557481846224988
30
0
41
1
10
45.7608945532341
20
0.244348177177528
30
0
41
1
10
45.956214915345
20
0.139189609603648
30
0
41
1
10
46.3472821432264
20
-0.0727580498659961
30
0
41
1
10
46.5426619507167
20
-0.178521805439431
30
0
41
1
10
47.1282301256846
20
-0.492418842372814
30
0
41
1
10
47.5177540098578
20
-0.698711736620425
30
0
41
1
10
48.0998722510271
20
-1.00559075681642
30
0
41
1
10
48.293554397239
20
-1.10744273418351
30
0
41
1
10
48.6800682445129
20
-1.31048537874798
30
0
41
1
10
48.872846066799
20
-1.41176375096637
30
0
41
1
10
49.4523140198522
20
-1.71017091146149
30
0
41
1
10
49.8393076117806
20
-1.90346317960342
30
0
41
1
10
50.4197394149567
20
-2.18697000502263
30
0
41
1
10
50.6132176817452
20
-2.28037467763565
30
0
41
1
10
51.0000478716957
20
-2.46516435803866
30
0
41
1
10
51.1932213114086
20
-2.55684238377933
30
0
41
1
10
51.7740690459127
20
-2.82622164800924
30
0
41
1
10
52.1635269845721
20
-2.99758646613066
30
0
41
1
10
52.9451842241209
20
-3.32672300430968
30
0
41
1
10
53.3379539540722
20
-3.4848331037135
30
0
41
1
10
54.1162249056313
20
-3.78310268337509
30
0
41
1
10
54.5050033899398
20
-3.92082877160092
30
0
41
1
10
55.2810357919506
20
-4.17575922521058
30
0
41
1
10
55.6681971043768
20
-4.29307333291129
30
0
41
1
10
56.2468501959251
20
-4.45430444568112
30
0
41
1
10
56.4395161441311
20
-4.50542534097934
30
0
41
1
10
56.8257522037123
20
-4.60126941982185
30
0
41
1
10
57.0191151970803
20
-4.64619974926802
30
0
41
1
10
57.5996258437657
20
-4.77238111570401
30
0
41
1
10
57.987203559045
20
-4.84507049009116
30
0
41
1
10
58.5686472069583
20
-4.93692438116929
30
0
41
1
10
58.7623057922824
20
-4.96472590464754
30
0
41
1
10
59.1510380982645
20
-5.01374457585243
30
0
41
1
10
59.3460438841426
20
-5.03502886407563
30
0
41
1
10
59.7370594448598
20
-5.07131671038974
30
0
41
1
10
59.9333935936478
20
-5.08633004306625
30
0
41
1
10
60.3249916111332
20
-5.10992920096675
30
0
41
1
10
60.5202891257022
20
-5.11853008859671
30
0
41
1
10
60.8805445131153
20
-5.1285296060295
30
0
41
1
10
61.0455653803508
20
-5.13081019048852
30
0
41
1
10
61.2103363909885
20
-5.13075072073048
30
0
0
SPLINE
5
BE
100
AcDbEntity
8
1
62
256
6
ByLayer
370
18
48
1
60
0
100
AcDbSpline
70
4
71
3
72
30
73
26
40
0
40
0
40
0
40
0
40
0.01768229838016
40
0.01768229838016
40
0.140472011082641
40
0.140472011082641
40
0.201866867433878
40
0.201866867433878
40
0.263261723785115
40
0.263261723785115
40
0.324656580136352
40
0.324656580136352
40
0.386051436487589
40
0.386051436487589
40
0.50884114919007
40
0.50884114919007
40
0.63163086189255
40
0.63163086189255
40
0.754420574595031
40
0.754420574595031
40
0.815815430946276
40
0.815815430946276
40
0.877210287297519
40
0.877210287297519
40
1
40
1
40
1
40
1
41
1
10
83.8216644483879
20
3.6977136560038
30
0
41
1
10
83.8771621790234
20
3.71871605812939
30
0
41
1
10
83.9326760543437
20
3.73950462496026
30
0
41
1
10
84.3739871151493
20
3.90273233136657
30
0
41
1
10
84.7608033939217
20
4.03488015859818
30
0
41
1
10
85.3414974170195
20
4.21883916827798
30
0
41
1
10
85.5351525460734
20
4.27775329537587
30
0
41
1
10
85.9225191415061
20
4.39080168027601
30
0
41
1
10
86.1160684317922
20
4.44508543421779
30
0
41
1
10
86.5040745326903
20
4.54789316549437
30
0
41
1
10
86.6987519120693
20
4.59622935474118
30
0
41
1
10
87.0891493907383
20
4.68711403183465
30
0
41
1
10
87.285146151427
20
4.72970774202111
30
0
41
1
10
87.8725619180664
20
4.84851192229371
30
0
41
1
10
88.261926826012
20
4.91562398130105
30
0
41
1
10
89.0358448657811
20
5.02560306866363
30
0
41
1
10
89.4225011888596
20
5.06740789824281
30
0
41
1
10
90.1947788902984
20
5.12615387952329
30
0
41
1
10
90.5802430109738
20
5.14315372354184
30
0
41
1
10
91.1566351135143
20
5.14978615269538
30
0
41
1
10
91.3484885245061
20
5.14880269868701
30
0
41
1
10
91.7332039819069
20
5.14054504043537
30
0
41
1
10
91.9258568303502
20
5.13328881499729
30
0
41
1
10
92.504366107233
20
5.1022184613492
30
0
41
1
10
92.890787408104
20
5.06916587212797
30
0
41
1
10
93.2774459033618
20
5.02320315553899
30
0
0
SPLINE
5
BF
100
AcDbEntity
8
1
62
256
6
ByLayer
370
18
48
1
60
0
100
AcDbSpline
70
4
71
3
72
8
73
4
40
0
40
0
40
0
40
0
40
1
40
1
40
1
40
1
41
1
10
93.2719674247513
20
-4.88823459378008
30
0
41
1
10
93.2475771232855
20
-4.90868051347101
30
0
41
1
10
93.2267809153219
20
-4.91898437176886
30
0
41
1
10
93.2096373118433
20
-4.91898105834488
30
0
0
SPLINE
5
C0
100
AcDbEntity
8
1
62
256
6
ByLayer
370
18
48
1
60
0
100
AcDbSpline
70
4
71
3
72
48
73
44
40
0
40
0
40
0
40
0
40
0.0436261937881314
40
0.0436261937881314
40
0.0872523875762627
40
0.0872523875762627
40
0.130878581364394
40
0.130878581364394
40
0.174504775152525
40
0.174504775152525
40
0.218130968940657
40
0.218130968940657
40
0.239944065834722
40
0.239944065834722
40
0.261757162728788
40
0.261757162728788
40
0.305383356516917
40
0.305383356516917
40
0.349009550305047
40
0.349009550305047
40
0.436261937881305
40
0.436261937881305
40
0.479888131669435
40
0.479888131669435
40
0.523514325457565
40
0.523514325457565
40
0.567140519245695
40
0.567140519245695
40
0.610766713033824
40
0.610766713033824
40
0.654392906821954
40
0.654392906821954
40
0.698019100610084
40
0.698019100610084
40
0.741645294398214
40
0.741645294398214
40
0.785271488186344
40
0.785271488186344
40
0.872523875762602
40
0.872523875762602
40
0.959776263338861
40
0.959776263338861
40
1
40
1
40
1
40
1
41
1
10
93.201402383295
20
-5.10847261539658
30
0
41
1
10
92.7483648480964
20
-5.13932191222497
30
0
41
1
10
92.2953566854755
20
-5.15264507872106
30
0
41
1
10
91.3877188094026
20
-5.14434041249424
30
0
41
1
10
90.9339167629912
20
-5.12268574184449
30
0
41
1
10
90.0270039567529
20
-5.0449400455343
30
0
41
1
10
89.5728584081241
20
-4.9887154750742
30
0
41
1
10
88.6659663346236
20
-4.84295578357853
30
0
41
1
10
88.2135546239356
20
-4.75354267458801
30
0
41
1
10
87.3086074251309
20
-4.54334930336802
30
0
41
1
10
86.8560959158722
20
-4.42255546320399
30
0
41
1
10
86.1757314762426
20
-4.21907387914374
30
0
41
1
10
85.948580645739
20
-4.14749755263549
30
0
41
1
10
85.4951617470386
20
-3.99771804132865
30
0
41
1
10
85.2686985945169
20
-3.91945330465177
30
0
41
1
10
84.5896697471746
20
-3.6750255307137
30
0
41
1
10
84.1374437417917
20
-3.49925101380561
30
0
41
1
10
83.2317860435268
20
-3.12488520215743
30
0
41
1
10
82.7774919043167
20
-2.92591086194858
30
0
41
1
10
81.4172770232052
20
-2.30259805562162
30
0
41
1
10
80.5139885945502
20
-1.85230337717579
30
0
41
1
10
79.1527786292637
20
-1.1442569082673
30
0
41
1
10
78.6991995461546
20
-0.903725739247363
30
0
41
1
10
77.7937393547204
20
-0.419436592607127
30
0
41
1
10
77.3413213048266
20
-0.17538801509869
30
0
41
1
10
76.4351393319701
20
0.31285024762451
30
0
41
1
10
75.9805774819671
20
0.557491543866519
30
0
41
1
10
75.0738493902134
20
1.04010812637455
30
0
41
1
10
74.6213602285708
20
1.27827901585138
30
0
41
1
10
73.7162304669822
20
1.74490233302944
30
0
41
1
10
73.2633878651585
20
1.972992943344
30
0
41
1
10
72.3551014053858
20
2.41511176735818
30
0
41
1
10
71.9017829998103
20
2.62837565688508
30
0
41
1
10
70.9963461250025
20
3.03529723547163
30
0
41
1
10
70.5438011290004
20
3.22883696151516
30
0
41
1
10
69.6373015845332
20
3.59345851269089
30
0
41
1
10
69.1827043060852
20
3.76478585724425
30
0
41
1
10
67.8228711049963
20
4.2370144659842
30
0
41
1
10
66.9189853218421
20
4.49730537372193
30
0
41
1
10
65.1022615550965
20
4.89235323312735
30
0
41
1
10
64.1984045025652
20
5.02444729867946
30
0
41
1
10
62.8737397210004
20
5.11707463881314
30
0
41
1
10
62.4545955765671
20
5.13158300902458
30
0
41
1
10
62.0364465128624
20
5.13125338649783
30
0
0
SPLINE
5
C1
100
AcDbEntity
8
1
62
256
6
ByLayer
370
18
48
1
60
0
100
AcDbSpline
70
4
71
3
72
44
73
40
40
0
40
0
40
0
40
0
40
0.0043614063443023
40
0.0043614063443023
40
0.051772767946954
40
0.051772767946954
40
0.0991841295496061
40
0.0991841295496061
40
0.146595491152258
40
0.146595491152258
40
0.19400685275491
40
0.19400685275491
40
0.241418214357562
40
0.241418214357562
40
0.288829575960214
40
0.288829575960214
40
0.336240937562865
40
0.336240937562865
40
0.431063660768171
40
0.431063660768171
40
0.525886383973476
40
0.525886383973476
40
0.573297745576128
40
0.573297745576128
40
0.620709107178781
40
0.620709107178781
40
0.668120468781433
40
0.668120468781433
40
0.715531830384086
40
0.715531830384086
40
0.762943191986738
40
0.762943191986738
40
0.810354553589391
40
0.810354553589391
40
0.857765915192043
40
0.857765915192043
40
0.905177276794696
40
0.905177276794696
40
1
40
1
40
1
40
1
41
1
10
34.8472586434499
20
-4.90251146235644
30
0
41
1
10
34.8055476212701
20
-4.90887016541635
30
0
41
1
10
34.7638437171166
20
-4.91508666400836
30
0
41
1
10
34.2688826123043
20
-4.98718469379963
30
0
41
1
10
33.8159993578251
20
-5.03646472751387
30
0
41
1
10
32.908977071286
20
-5.10068726957883
30
0
41
1
10
32.4539742943809
20
-5.11557913914874
30
0
41
1
10
31.5462132585138
20
-5.11043040366698
30
0
41
1
10
31.0931814082588
20
-5.09048453304945
30
0
41
1
10
30.1868347213679
20
-5.01628074368205
30
0
41
1
10
29.7334689413594
20
-4.96203245599972
30
0
41
1
10
28.824256703509
20
-4.81984767727948
30
0
41
1
10
28.3703750042155
20
-4.73218346390576
30
0
41
1
10
27.4638101015256
20
-4.52567337202541
30
0
41
1
10
27.0107865102406
20
-4.40682982583968
30
0
41
1
10
26.1032978460962
20
-4.13969557484728
30
0
41
1
10
25.6481456107796
20
-3.99111791465191
30
0
41
1
10
24.2867779315337
20
-3.50748541443522
30
0
41
1
10
23.3820390399943
20
-3.13417920343346
30
0
41
1
10
21.5628845172786
20
-2.30890208405324
30
0
41
1
10
20.6583095069614
20
-1.86143763740708
30
0
41
1
10
19.2964897718901
20
-1.15963797077123
30
0
41
1
10
18.8412868044457
20
-0.920263007930828
30
0
41
1
10
17.9337528848167
20
-0.438447267057825
30
0
41
1
10
17.4806409730252
20
-0.195694712042098
30
0
41
1
10
16.5737095550619
20
0.289713167765512
30
0
41
1
10
16.1195568978076
20
0.532699054766056
30
0
41
1
10
15.2102099762946
20
1.01382394332515
30
0
41
1
10
14.7566491824977
20
1.25099507668685
30
0
41
1
10
13.8498529441367
20
1.71516358029933
30
0
41
1
10
13.3966386857062
20
1.94219512797633
30
0
41
1
10
12.4884038870327
20
2.38227846660959
30
0
41
1
10
12.0331698013743
20
2.59531345685156
30
0
41
1
10
11.1254206084205
20
3.00101357961833
30
0
41
1
10
10.6722575811274
20
3.19432825588774
30
0
41
1
10
9.76480725395251
20
3.55806003084527
30
0
41
1
10
9.30970951724933
20
3.72874557510781
30
0
41
1
10
7.94654535169892
20
4.20007501972407
30
0
41
1
10
7.04107212505201
20
4.45970199396717
30
0
41
1
10
6.131921520519
20
4.65728957639791
30
0
0
SPLINE
5
C2
100
AcDbEntity
8
1
62
256
6
ByLayer
370
18
48
1
60
0
100
AcDbSpline
70
4
71
3
72
14
73
10
40
0
40
0
40
0
40
0
40
0.387291015348925
40
0.387291015348925
40
0.582793792676199
40
0.582793792676199
40
0.778296570003475
40
0.778296570003475
40
1
40
1
40
1
40
1
41
1
10
47.0550251341977
20
0.0053897205932856
30
0
41
1
10
47.9482522027447
20
-0.462446887760933
30
0
41
1
10
48.8445541802226
20
-0.931420595158841
30
0
41
1
10
50.2063812671994
20
-1.61712668241893
30
0
41
1
10
50.6624818450364
20
-1.84195538639648
30
0
41
1
10
51.5753035196877
20
-2.27738158233311
30
0
41
1
10
52.0328864005483
20
-2.48871156362239
30
0
41
1
10
53.003696988398
20
-2.91777949697987
30
0
41
1
10
53.5170517018721
20
-3.13258911801154
30
0
41
1
10
54.0291142957061
20
-3.33255836862881
30
0
0
SPLINE
5
C3
100
AcDbEntity
8
1
62
256
6
ByLayer
370
13
48
1
60
0
100
AcDbSpline
70
4
71
3
72
20
73
16
40
0
40
0
40
0
40
0
40
0.1196941266767
40
0.1196941266767
40
0.396129336843039
40
0.396129336843039
40
0.465238139384625
40
0.465238139384625
40
0.534346941926211
40
0.534346941926211
40
0.672564547009387
40
0.672564547009387
40
0.948999757175735
40
0.948999757175735
40
1
40
1
40
1
40
1
41
1
10
54.0291142962408
20
-3.33255836883765
30
0
41
1
10
54.4201469701859
20
-3.48526335395727
30
0
41
1
10
54.8104261450628
20
-3.62931418280977
30
0
41
1
10
56.1013971457759
20
-4.07498952768802
30
0
41
1
10
57.0022120029438
20
-4.33501559978157
30
0
41
1
10
58.1365122721942
20
-4.58542004745485
30
0
41
1
10
58.3638177650625
20
-4.63176799047667
30
0
41
1
10
58.8196884517459
20
-4.7166306828949
30
0
41
1
10
59.0484346995894
20
-4.75514939397038
30
0
41
1
10
59.7317228768081
20
-4.85788965109424
30
0
41
1
10
60.1849312691724
20
-4.90964605360503
30
0
41
1
10
61.5406176262022
20
-5.01472059124055
30
0
41
1
10
62.4399871997025
20
-5.01781491800432
30
0
41
1
10
63.5079906252576
20
-4.94211516740705
30
0
41
1
10
63.6744501848923
20
-4.92807471329519
30
0
41
1
10
63.8410635764342
20
-4.91177815030522
30
0
0
SPLINE
5
C4
100
AcDbEntity
8
1
62
256
6
ByLayer
370
18
48
1
60
0
100
AcDbSpline
70
4
71
3
72
38
73
34
40
0
40
0
40
0
40
0
40
0.0934667504590204
40
0.0934667504590204
40
0.186933500918041
40
0.186933500918041
40
0.233666876147552
40
0.233666876147552
40
0.280400251377064
40
0.280400251377064
40
0.373867001836085
40
0.373867001836085
40
0.420600377065595
40
0.420600377065595
40
0.467333752295105
40
0.467333752295105
40
0.514067127524615
40
0.514067127524615
40
0.560800502754126
40
0.560800502754126
40
0.607533877983636
40
0.607533877983636
40
0.654267253213146
40
0.654267253213146
40
0.747734003672167
40
0.747734003672167
40
0.841200754131187
40
0.841200754131187
40
0.934667504590208
40
0.934667504590208
40
0.981400879819718
40
0.981400879819718
40
1
40
1
40
1
40
1
41
1
10
18.7682863665974
20
-1.33128466218761
30
0
41
1
10
19.15954984917
20
-1.53597328604411
30
0
41
1
10
19.5503315003237
20
-1.73349601430391
30
0
41
1
10
20.3295082585609
20
-2.11791079061376
30
0
41
1
10
20.7179051624536
20
-2.30478176347799
30
0
41
1
10
21.2979123434891
20
-2.5782872149332
30
0
41
1
10
21.4909492752023
20
-2.66807374295607
30
0
41
1
10
21.8777465370908
20
-2.84278207740988
30
0
41
1
10
22.0713026906103
20
-2.92804951812678
30
0
41
1
10
22.6521340461358
20
-3.17816465108862
30
0
41
1
10
23.0395807219752
20
-3.33734730482061
30
0
41
1
10
23.6202905623637
20
-3.56565157439476
30
0
41
1
10
23.8136144729357
20
-3.64021467622496
30
0
41
1
10
24.2015035431847
20
-3.78385399398124
30
0
41
1
10
24.3959981435887
20
-3.85304782836278
30
0
41
1
10
24.7858122087846
20
-3.98659003189056
30
0
41
1
10
24.9811411492225
20
-4.05092509871326
30
0
41
1
10
25.3724982089628
20
-4.17486498128295
30
0
41
1
10
25.5688384563806
20
-4.23455617048236
30
0
41
1
10
25.9603739763783
20
-4.34871709986516
30
0
41
1
10
26.1553633726074
20
-4.40329917496479
30
0
41
1
10
26.5446222271146
20
-4.5065638289027
30
0
41
1
10
26.7392183294691
20
-4.55495200981693
30
0
41
1
10
27.3226079486202
20
-4.69101262034232
30
0
41
1
10
27.7109507240082
20
-4.76968650165216
30
0
41
1
10
28.4853231588631
20
-4.90402109482767
30
0
41
1
10
28.8705842913457
20
-4.95985480749826
30
0
41
1
10
29.6440699904462
20
-5.04542302920939
30
0
41
1
10
30.0317021577146
20
-5.07569233886778
30
0
41
1
10
30.6135449051996
20
-5.10258126861945
30
0
41
1
10
30.8075644409691
20
-5.1084397361341
30
0
41
1
10
31.0788156847688
20
-5.11217316579186
30
0
41
1
10
31.1560278171499
20
-5.11272571164622
30
0
41
1
10
31.2332852260034
20
-5.11276798714604
30
0
0
SPLINE
5
C5
100
AcDbEntity
8
1
62
256
6
ByLayer
370
18
48
1
60
0
100
AcDbSpline
70
4
71
3
72
102
73
98
40
0
40
0
40
0
40
0
40
0.0272416245535201
40
0.0272416245535201
40
0.058445800111967
40
0.058445800111967
40
0.0740478878911909
40
0.0740478878911909
40
0.0896499756704146
40
0.0896499756704146
40
0.120854151228862
40
0.120854151228862
40
0.136456239008085
40
0.136456239008085
40
0.152058326787308
40
0.152058326787308
40
0.167660414566532
40
0.167660414566532
40
0.183262502345755
40
0.183262502345755
40
0.198864590124979
40
0.198864590124979
40
0.214466677904202
40
0.214466677904202
40
0.24567085346265
40
0.24567085346265
40
0.261272941241874
40
0.261272941241874
40
0.276875029021098
40
0.276875029021098
40
0.308079204579546
40
0.308079204579546
40
0.32368129235877
40
0.32368129235877
40
0.339283380137994
40
0.339283380137994
40
0.354885467917218
40
0.354885467917218
40
0.370487555696442
40
0.370487555696442
40
0.386089643475665
40
0.386089643475665
40
0.401691731254889
40
0.401691731254889
40
0.432895906813338
40
0.432895906813338
40
0.464100082371786
40
0.464100082371786
40
0.495304257930235
40
0.495304257930235
40
0.526508433488684
40
0.526508433488684
40
0.542110521267908
40
0.542110521267908
40
0.557712609047132
40
0.557712609047132
40
0.58891678460558
40
0.58891678460558
40
0.604518872384804
40
0.604518872384804
40
0.620120960164029
40
0.620120960164029
40
0.651325135722478
40
0.651325135722478
40
0.666927223501703
40
0.666927223501703
40
0.682529311280928
40
0.682529311280928
40
0.713733486839378
40
0.713733486839378
40
0.729335574618602
40
0.729335574618602
40
0.744937662397827
40
0.744937662397827
40
0.776141837956275
40
0.776141837956275
40
0.791743925735499
40
0.791743925735499
40
0.807346013514724
40
0.807346013514724
40
0.838550189073174
40
0.838550189073174
40
0.8541522768524
40
0.8541522768524
40
0.869754364631626
40
0.869754364631626
40
0.885356452410853
40
0.885356452410853
40
0.900958540190078
40
0.900958540190078
40
0.932162715748529
40
0.932162715748529
40
0.963366891306979
40
0.963366891306979
40
0.99457106686543
40
0.99457106686543
40
1
40
1
40
1
40
1
41
1
10
53.8753177557454
20
3.69023323357035
30
0
41
1
10
54.2149528968209
20
3.81791629586985
30
0
41
1
10
54.5542767310778
20
3.93701530604798
30
0
41
1
10
55.2810357919507
20
4.17575922521056
30
0
41
1
10
55.6681971043769
20
4.29307333291126
30
0
41
1
10
56.2468501959251
20
4.45430444568112
30
0
41
1
10
56.4395161441311
20
4.50542534097934
30
0
41
1
10
56.8257522037123
20
4.60126941982185
30
0
41
1
10
57.0191151970802
20
4.64619974926802
30
0
41
1
10
57.5996258437656
20
4.77238111570398
30
0
41
1
10
57.987203559045
20
4.84507049009116
30
0
41
1
10
58.5686472069582
20
4.93692438116929
30
0
41
1
10
58.7623057922824
20
4.96472590464754
30
0
41
1
10
59.1510380982645
20
5.0137445758524
30
0
41
1
10
59.3460438841426
20
5.03502886407563
30
0
41
1
10
59.7370594448597
20
5.07131671038974
30
0
41
1
10
59.9333935936478
20
5.08633004306625
30
0
41
1
10
60.3249916111331
20
5.10992920096675
30
0
41
1
10
60.5202891257022
20
5.11853008859671
30
0
41
1
10
60.9097507882867
20
5.12934027720314
30
0
41
1
10
61.1037845005474
20
5.13154295624443
30
0
41
1
10
61.4912842837998
20
5.12945811370733
30
0
41
1
10
61.6850826450658
20
5.12519895758678
30
0
41
1
10
62.266326143689
20
5.10307383860527
30
0
41
1
10
62.6535593173981
20
5.07591262458609
30
0
41
1
10
63.2331494899651
20
5.0164133302022
30
0
41
1
10
63.426123490743
20
4.99343070281338
30
0
41
1
10
63.8115913708575
20
4.94099951449664
30
0
41
1
10
64.0043968343007
20
4.91168413779809
30
0
41
1
10
64.5842282685649
20
4.81525999318748
30
0
41
1
10
64.9719957706042
20
4.73941702682777
30
0
41
1
10
65.5545324660558
20
4.6075683019817
30
0
41
1
10
65.7488654502381
20
4.56059207559892
30
0
41
1
10
66.1377241531206
20
4.46028655427725
30
0
41
1
10
66.3321706140951
20
4.40684421105118
30
0
41
1
10
66.7228253649245
20
4.29507019858042
30
0
41
1
10
66.9190519251571
20
4.23651544567826
30
0
41
1
10
67.3102333814108
20
4.11475039000356
30
0
41
1
10
67.5054650364305
20
4.0514755010565
30
0
41
1
10
67.8950737581598
20
3.92002089156605
30
0
41
1
10
68.0894520813692
20
3.85184244973678
30
0
41
1
10
68.4772235277333
20
3.71038488788392
30
0
41
1
10
68.6704352725893
20
3.63685011166083
30
0
41
1
10
69.2501152654287
20
3.41058989289363
30
0
41
1
10
69.6370894529304
20
3.25297056037968
30
0
41
1
10
70.4103841168796
20
2.92224557664039
30
0
41
1
10
70.7966363965022
20
2.74900281995053
30
0
41
1
10
71.5681390330188
20
2.38585284089837
30
0
41
1
10
71.9555279715634
20
2.19948923429169
30
0
41
1
10
72.7329063513126
20
1.81635898383701
30
0
41
1
10
73.1227579791999
20
1.61935851320357
30
0
41
1
10
73.7085908654483
20
1.31379276709404
30
0
41
1
10
73.9040244551791
20
1.21047364625662
30
0
41
1
10
74.294304408957
20
1.00489322509696
30
0
41
1
10
74.4892562752854
20
0.902062679264048
30
0
41
1
10
75.0732585015786
20
0.592863334021416
30
0
41
1
10
75.4614721677942
20
0.385813256154336
30
0
41
1
10
76.0413043662188
20
0.0723225329749653
30
0
41
1
10
76.2339916881024
20
-0.0329904413735846
30
0
41
1
10
76.6199039806386
20
-0.241975090192057
30
0
41
1
10
76.8130725128303
20
-0.34575774255407
30
0
41
1
10
77.3928020606238
20
-0.655780611925792
30
0
41
1
10
77.7796137832388
20
-0.860650551964596
30
0
41
1
10
78.3594880965735
20
-1.16677012825184
30
0
41
1
10
78.5526145742781
20
-1.26881050265106
30
0
41
1
10
78.939208175741
20
-1.4716279324592
30
0
41
1
10
79.1330461027805
20
-1.571718324729
30
0
41
1
10
79.7160022628913
20
-1.86838716452436
30
0
41
1
10
80.106422422199
20
-2.06162967979404
30
0
41
1
10
80.6939161025381
20
-2.34612416057419
30
0
41
1
10
80.8892866752218
20
-2.43969793762733
30
0
41
1
10
81.2784973580848
20
-2.62412599027681
30
0
41
1
10
81.4727140762718
20
-2.71451177886308
30
0
41
1
10
82.0555130047565
20
-2.97821238483527
30
0
41
1
10
82.4435586354162
20
-3.14530390316716
30
0
41
1
10
83.0239797140516
20
-3.3846009702446
30
0
41
1
10
83.2171835297823
20
-3.46245614590279
30
0
41
1
10
83.6029178702394
20
-3.61445495825285
30
0
41
1
10
83.7953473781178
20
-3.68871087235581
30
0
41
1
10
84.3739871151493
20
-3.90273233136654
30
0
41
1
10
84.7608033939216
20
-4.03488015859816
30
0
41
1
10
85.3414974170194
20
-4.21883916827795
30
0
41
1
10
85.5351525460732
20
-4.27775329537587
30
0
41
1
10
85.9225191415061
20
-4.39080168027598
30
0
41
1
10
86.1160684317921
20
-4.44508543421776
30
0
41
1
10
86.5040745326903
20
-4.54789316549437
30
0
41
1
10
86.6987519120692
20
-4.59622935474115
30
0
41
1
10
87.0891493907383
20
-4.68711403183462
30
0
41
1
10
87.285146151427
20
-4.72970774202108
30
0
41
1
10
87.8725619180662
20
-4.84851192229368
30
0
41
1
10
88.261926826012
20
-4.91562398130105
30
0
41
1
10
89.0358448657811
20
-5.0256030686636
30
0
41
1
10
89.4225011888595
20
-5.06740789824281
30
0
41
1
10
90.1947788902983
20
-5.12615387952329
30
0
41
1
10
90.5802430109737
20
-5.14315372354184
30
0
41
1
10
91.0313585890286
20
-5.14834462067299
30
0
41
1
10
91.0981791918192
20
-5.14872714480742
30
0
41
1
10
91.1649991504591
20
-5.14872497507625
30
0
0
SPLINE
5
C6
100
AcDbEntity
8
1
62
256
6
ByLayer
370
18
48
1
60
0
100
AcDbSpline
70
4
71
3
72
14
73
10
40
0
40
0
40
0
40
0
40
0.25
40
0.25
40
0.5
40
0.5
40
0.75
40
0.75
40
1
40
1
40
1
40
1
41
1
10
6.00087468243774
20
-1.70389330290678
30
0
41
1
10
6.00312221129639
20
-1.67488581269831
30
0
41
1
10
6.00979969279271
20
-1.64700466267269
30
0
41
1
10
6.03517995451617
20
-1.59954749676891
30
0
41
1
10
6.05429383247886
20
-1.57998234114135
30
0
41
1
10
6.10502738953025
20
-1.56009361159889
30
0
41
1
10
6.13520965236083
20
-1.56067822848803
30
0
41
1
10
6.19544537249291
20
-1.57871863744791
30
0
41
1
10
6.22450395491703
20
-1.59512276480604
30
0
41
1
10
6.25181981579087
20
-1.61528878064408
30
0
0
SPLINE
5
C7
100
AcDbEntity
8
1
62
256
6
ByLayer
370
18
48
1
60
0
100
AcDbSpline
70
4
71
3
72
20
73
16
40
0
40
0
40
0
40
0
40
0.124999999999996
40
0.124999999999996
40
0.249999999999992
40
0.249999999999992
40
0.499999999999994
40
0.499999999999994
40
0.624999999999995
40
0.624999999999995
40
0.749999999999997
40
0.749999999999997
40
0.874999999999998
40
0.874999999999998
40
1
40
1
40
1
40
1
41
1
10
94.2158541881642
20
2.54763211619021
30
0
41
1
10
94.1770342646574
20
2.65209663362634
30
0
41
1
10
94.1381441886404
20
2.75644003906137
30
0
41
1
10
94.0603629252844
20
2.96510231518829
30
0
41
1
10
94.021445380421
20
3.06937984010298
30
0
41
1
10
93.9045896694265
20
3.38188238267318
30
0
41
1
10
93.8265295695934
20
3.58994652073451
30
0
41
1
10
93.7090853471225
20
3.90024228948872
30
0
41
1
10
93.6698766762622
20
4.00326298525613
30
0
41
1
10
93.5914536983177
20
4.2092661277085
30
0
41
1
10
93.5522154528668
20
4.31218869635464
30
0
41
1
10
93.4737196288987
20
4.51737004816653
30
0
41
1
10
93.4344700851425
20
4.61962065513581
30
0
41
1
10
93.3559639118353
20
4.82264515669399
30
0
41
1
10
93.316705457868
20
4.92303883440545
30
0
41
1
10
93.2774459033658
20
5.02320315555167
30
0
0
SPLINE
5
C8
100
AcDbEntity
8
1
62
256
6
ByLayer
370
18
48
1
60
0
100
AcDbSpline
70
4
71
3
72
12
73
8
40
0
40
0
40
0
40
0
40
0.249999999999987
40
0.249999999999987
40
0.499999999999973
40
0.499999999999973
40
1
40
1
40
1
40
1
41
1
10
6.13192152051897
20
4.65728957639791
30
0
41
1
10
6.11426320285807
20
4.66112729512022
30
0
41
1
10
6.09808235512529
20
4.66571569892261
30
0
41
1
10
6.0685721575255
20
4.67627156528982
30
0
41
1
10
6.05521807222391
20
4.68229504748902
30
0
41
1
10
6.02162970809562
20
4.701443468278
30
0
41
1
10
6.00703363827157
20
4.7160829219057
30
0
41
1
10
6.00200951461042
20
4.73076296469688
30
0
0
SPLINE
5
C9
100
AcDbEntity
8
1
62
256
6
ByLayer
370
18
48
1
60
0
100
AcDbSpline
70
4
71
3
72
8
73
4
40
0
40
0
40
0
40
0
40
1
40
1
40
1
40
1
41
1
10
6.00200951460738
20
4.73076296471547
30
0
41
1
10
6.0011797962355
20
4.73318732805424
30
0
41
1
10
6.00075945345736
20
4.73562469969201
30
0
41
1
10
6.0007596092187
20
4.73804565375289
30
0
0
SPLINE
5
CA
100
AcDbEntity
8
1
62
256
6
ByLayer
370
18
48
1
60
0
100
AcDbSpline
70
4
71
3
72
64
73
60
40
0
40
0
40
0
40
0
40
0.0625000000000094
40
0.0625000000000094
40
0.125000000000019
40
0.125000000000019
40
0.250000000000038
40
0.250000000000038
40
0.375000000000057
40
0.375000000000057
40
0.500000000000076
40
0.500000000000076
40
0.562500000000085
40
0.562500000000085
40
0.625000000000094
40
0.625000000000094
40
0.687500000000104
40
0.687500000000104
40
0.695312500000104
40
0.695312500000104
40
0.699218750000105
40
0.699218750000105
40
0.703125000000105
40
0.703125000000105
40
0.707031250000106
40
0.707031250000106
40
0.708984375000105
40
0.708984375000105
40
0.710937500000105
40
0.710937500000105
40
0.718750000000102
40
0.718750000000102
40
0.750000000000092
40
0.750000000000092
40
0.765625000000086
40
0.765625000000086
40
0.78125000000008
40
0.78125000000008
40
0.796875000000074
40
0.796875000000074
40
0.812500000000068
40
0.812500000000068
40
0.828125000000062
40
0.828125000000062
40
0.835937500000059
40
0.835937500000059
40
0.843750000000056
40
0.843750000000056
40
0.859375000000051
40
0.859375000000051
40
0.875000000000045
40
0.875000000000045
40
0.906250000000034
40
0.906250000000034
40
0.937500000000023
40
0.937500000000023
40
0.968750000000011
40
0.968750000000011
40
1
40
1
40
1
40
1
41
1
10
18.7682807879925
20
-1.33131664487706
30
0
41
1
10
18.3989828227738
20
-1.13947278446491
30
0
41
1
10
18.0274865674458
20
-0.949691846025331
30
0
41
1
10
17.2794079288046
20
-0.576178679480734
30
0
41
1
10
16.902422693513
20
-0.392269127799892
30
0
41
1
10
15.7648855256726
20
0.145264728798594
30
0
41
1
10
15.0025188865518
20
0.482360298087912
30
0
41
1
10
13.4613341342077
20
1.09421792014683
30
0
41
1
10
12.6824418574092
20
1.36876727248978
30
0
41
1
10
11.1010683780113
20
1.84081691532367
30
0
41
1
10
10.2985884153946
20
2.03837655903789
30
0
41
1
10
9.07389890650498
20
2.27224941944553
30
0
41
1
10
8.66211263146639
20
2.33986592827878
30
0
41
1
10
7.83153706691829
20
2.4538951635524
30
0
41
1
10
7.4150090105895
20
2.50001481518396
30
0
41
1
10
6.57934907818617
20
2.57055259989764
30
0
41
1
10
6.15994387255915
20
2.59499218021367
30
0
41
1
10
5.68742159594228
20
2.60997017654677
30
0
41
1
10
5.63491088035292
20
2.61146019214993
30
0
41
1
10
5.55613236307633
20
2.61343264499118
30
0
41
1
10
5.5298697898113
20
2.61404638615701
30
0
41
1
10
5.4773456015804
20
2.61518599357444
30
0
41
1
10
5.45106675334952
20
2.61640613543361
30
0
41
1
10
5.39866872412509
20
2.61264876138776
30
0
41
1
10
5.37240317794257
20
2.60819434099247
30
0
41
1
10
5.33696920088289
20
2.59519089657482
30
0
41
1
10
5.32597756060287
20
2.5892673204086
30
0
41
1
10
5.30374797326834
20
2.57788168398289
30
0
41
1
10
5.29265189194544
20
2.57214451039036
30
0
41
1
10
5.23727757742731
20
2.54323615620146
30
0
41
1
10
5.19341208087343
20
2.51944811753523
30
0
41
1
10
4.97645429879057
20
2.39686327238363
30
0
41
1
10
4.80962829971094
20
2.2868007612993
30
0
41
1
10
4.58217818808552
20
2.09943462192393
30
0
41
1
10
4.51000047998102
20
2.03314305183696
30
0
41
1
10
4.37484668997863
20
1.89071151389629
30
0
41
1
10
4.31147283443579
20
1.8140451720229
30
0
41
1
10
4.19871894098452
20
1.64991318298055
30
0
41
1
10
4.15006192296772
20
1.5636235276495
30
0
41
1
10
4.0711354263851
20
1.38082774313622
30
0
41
1
10
4.04092766084725
20
1.28334274132484
30
0
41
1
10
4.00418349870824
20
1.086329185691
30
0
41
1
10
3.99705292823938
20
0.985887514676648
30
0
41
1
10
4.00314512642848
20
0.832251626889814
30
0
41
1
10
4.00799393843971
20
0.780854010648056
30
0
41
1
10
4.0227106802806
20
0.679449211020938
30
0
41
1
10
4.03258607574463
20
0.629170313189036
30
0
41
1
10
4.06906461710878
20
0.479476525330511
30
0
41
1
10
4.10286383414314
20
0.380488458393671
30
0
41
1
10
4.1832703178346
20
0.190409517632389
30
0
41
1
10
4.22987612676789
20
0.0987979990150052
30
0
41
1
10
4.38439791875865
20
-0.168169913111854
30
0
41
1
10
4.50777830698021
20
-0.336685275869684
30
0
41
1
10
4.7714646515839
20
-0.650600162781842
30
0
41
1
10
4.91268988968415
20
-0.797436677855899
30
0
41
1
10
5.2075425547263
20
-1.07755600762178
30
0
41
1
10
5.36159371061055
20
-1.21101638382373
30
0
41
1
10
5.6774598838291
20
-1.46653099226336
30
0
41
1
10
5.83816421720908
20
-1.58770084177488
30
0
41
1
10
6.00087468242066
20
-1.70389330290624
30
0
0
SPLINE
5
CB
100
AcDbEntity
8
1
62
256
6
ByLayer
370
18
48
1
60
0
100
AcDbSpline
70
4
71
3
72
18
73
14
40
0
40
0
40
0
40
0
40
0.0062325321945491
40
0.0062325321945491
40
0.334261598763415
40
0.334261598763415
40
0.498276132047848
40
0.498276132047848
40
0.662290665332281
40
0.662290665332281
40
0.990319731901146
40
0.990319731901146
40
1
40
1
40
1
40
1
41
1
10
17.0468398011406
20
0.0357495120993008
30
0
41
1
10
17.0640104825392
20
0.0267968661413533
30
0
41
1
10
17.0811798563203
20
0.0178447746634163
30
0
41
1
10
18.00193613795
20
-0.462236168336858
30
0
41
1
10
18.9017565890797
20
-0.932091194956826
30
0
41
1
10
20.2578019972455
20
-1.61176570070754
30
0
41
1
10
20.7108090344237
20
-1.83424397599526
30
0
41
1
10
21.6208056745326
20
-2.26718957028157
30
0
41
1
10
22.078796842858
20
-2.4779722258111
30
0
41
1
10
23.4475869950764
20
-3.08046221385678
30
0
41
1
10
24.3569916268753
20
-3.44395971776217
30
0
41
1
10
25.2982127355581
20
-3.76678009716693
30
0
41
1
10
25.3251853939998
20
-3.77598593041637
30
0
41
1
10
25.3521511267555
20
-3.78514389466258
30
0
0
SPLINE
5
CC
100
AcDbEntity
8
1
62
256
6
ByLayer
370
13
48
1
60
0
100
AcDbSpline
70
4
71
3
72
20
73
16
40
0
40
0
40
0
40
0
40
0.148349723285026
40
0.148349723285026
40
0.30600434780212
40
0.30600434780212
40
0.621313596836304
40
0.621313596836304
40
0.778968221353395
40
0.778968221353395
40
0.857795533611938
40
0.857795533611938
40
0.936622845870482
40
0.936622845870482
40
1
40
1
40
1
40
1
41
1
10
25.3521511267812
20
-3.78514389467134
30
0
41
1
10
25.7820706814312
20
-3.93115097506103
30
0
41
1
10
26.2102298304628
20
-4.06499047208837
30
0
41
1
10
27.0901501137092
20
-4.31413888450874
30
0
41
1
10
27.5419640697066
20
-4.42785510483236
30
0
41
1
10
28.8955442218405
20
-4.72323107786272
30
0
41
1
10
29.7956669160523
20
-4.85864045286712
30
0
41
1
10
31.1537159808028
20
-4.96254242433346
30
0
41
1
10
31.6077612660694
20
-4.98062176524166
30
0
41
1
10
32.2923576124209
20
-4.9819877298508
30
0
41
1
10
32.5211251426835
20
-4.97812869854778
30
0
41
1
10
32.9775305904983
20
-4.96190263907047
30
0
41
1
10
33.2054828647473
20
-4.94954132794763
30
0
41
1
10
33.6165188292052
20
-4.91962549119253
30
0
41
1
10
33.79964023337
20
-4.90356737344231
30
0
41
1
10
33.9827595540563
20
-4.88480327810575
30
0
0
SPLINE
5
CD
100
AcDbEntity
8
1
62
256
6
ByLayer
370
18
48
1
60
0
100
AcDbSpline
70
4
71
3
72
16
73
12
40
0
40
0
40
0
40
0
40
0.33464564348528
40
0.33464564348528
40
0.676994156432725
40
0.676994156432725
40
0.762581284669584
40
0.762581284669584
40
0.848168412906445
40
0.848168412906445
40
1
40
1
40
1
40
1
41
1
10
77.0101241549118
20
0.0030891474780219
30
0
41
1
10
77.8980565329257
20
-0.46318042375762
30
0
41
1
10
78.7783986236462
20
-0.925952198366588
30
0
41
1
10
80.5586581095008
20
-1.82692676490908
30
0
41
1
10
81.4590463324206
20
-2.26344396022748
30
0
41
1
10
82.5936812931398
20
-2.76859697549071
30
0
41
1
10
82.8210765380856
20
-2.86758721408214
30
0
41
1
10
83.2770482591643
20
-3.06103760010205
30
0
41
1
10
83.5054711598905
20
-3.15542742341532
30
0
41
1
10
84.1376369968359
20
-3.40898841012338
30
0
41
1
10
84.5411893727271
20
-3.56215112394594
30
0
41
1
10
84.9447484573437
20
-3.70534310439902
30
0
0
SPLINE
5
CE
100
AcDbEntity
8
1
62
256
6
ByLayer
370
13
48
1
60
0
100
AcDbSpline
70
4
71
3
72
20
73
16
40
0
40
0
40
0
40
0
40
0.018485175143292
40
0.018485175143292
40
0.182070979286089
40
0.182070979286089
40
0.263863881357483
40
0.263863881357483
40
0.345656783428878
40
0.345656783428878
40
0.672828391714438
40
0.672828391714438
40
0.83641419585722
40
0.83641419585722
40
1
40
1
40
1
40
1
41
1
10
84.9447484580205
20
-3.70534310463921
30
0
41
1
10
84.9961600915565
20
-3.72358512645064
30
0
41
1
10
85.0475718339727
20
-3.74166532697441
30
0
41
1
10
85.5539712084198
20
-3.91813368031799
30
0
41
1
10
86.009098786141
20
-4.06385324422732
30
0
41
1
10
86.6934250435692
20
-4.26132545289823
30
0
41
1
10
86.9217642287008
20
-4.32360299355176
30
0
41
1
10
87.3767478658486
20
-4.44019827543286
30
0
41
1
10
87.603705278601
20
-4.49460341764083
30
0
41
1
10
88.7364347957936
20
-4.74694340282699
30
0
41
1
10
89.6360406119078
20
-4.88594049337533
30
0
41
1
10
90.987671488973
20
-4.99487957200716
30
0
41
1
10
91.4385564522332
20
-5.01460803168649
30
0
41
1
10
92.3426563516263
20
-5.02012867291856
30
0
41
1
10
92.7959418595731
20
-5.00543111086057
30
0
41
1
10
93.2510606275209
20
-4.97442570412773
30
0
0
SPLINE
5
CF
100
AcDbEntity
8
1
62
256
6
ByLayer
370
18
48
1
60
0
100
AcDbSpline
70
4
71
3
72
82
73
78
40
0
40
0
40
0
40
0
40
0.0370000299701024
40
0.0370000299701024
40
0.0722880544687298
40
0.0722880544687298
40
0.107576078967357
40
0.107576078967357
40
0.178152127964612
40
0.178152127964612
40
0.248728176961866
40
0.248728176961866
40
0.284016201460494
40
0.284016201460494
40
0.319304225959121
40
0.319304225959121
40
0.389880274956376
40
0.389880274956376
40
0.425168299455003
40
0.425168299455003
40
0.442812311704317
40
0.442812311704317
40
0.451634317828974
40
0.451634317828974
40
0.452185693211764
40
0.452185693211764
40
0.45246138090316
40
0.45246138090316
40
0.452737068594555
40
0.452737068594555
40
0.453839819360137
40
0.453839819360137
40
0.456045320891301
40
0.456045320891301
40
0.460456323953629
40
0.460456323953629
40
0.478100336202941
40
0.478100336202941
40
0.495744348452252
40
0.495744348452252
40
0.531032372950875
40
0.531032372950875
40
0.601608421948121
40
0.601608421948121
40
0.672184470945367
40
0.672184470945367
40
0.689828483194679
40
0.689828483194679
40
0.698650489319335
40
0.698650489319335
40
0.70747249544399
40
0.70747249544399
40
0.709677996975154
40
0.709677996975154
40
0.710229372357945
40
0.710229372357945
40
0.710505060049341
40
0.710505060049341
40
0.710780747740736
40
0.711883498506318
40
0.716294501568646
40
0.716294501568646
40
0.725116507693302
40
0.725116507693302
40
0.742760519942614
40
0.742760519942614
40
0.778048544441237
40
0.778048544441237
40
0.813336568939861
40
0.813336568939861
40
0.883912617937108
40
0.883912617937108
40
0.919200642435732
40
0.919200642435732
40
0.954488666934355
40
0.954488666934355
40
1
40
1
40
1
40
1
41
1
10
18.7682863665824
20
-1.33128466218014
30
0
41
1
10
18.5869856927189
20
-1.2406239634561
30
0
41
1
10
18.4056381557873
20
-1.15231369535968
30
0
41
1
10
18.0509190620415
20
-0.985501262691571
30
0
41
1
10
17.8775517872834
20
-0.906760183084259
30
0
41
1
10
17.5299010517742
20
-0.755984455344958
30
0
41
1
10
17.3550003618109
20
-0.683722678971037
30
0
41
1
10
16.8337942594488
20
-0.48151843525099
30
0
41
1
10
16.4907294086208
20
-0.365944243825084
30
0
41
1
10
15.8078120085529
20
-0.181599201519958
30
0
41
1
10
15.4679231890564
20
-0.112838043725787
30
0
41
1
10
14.9550050508116
20
-0.0498199213734267
30
0
41
1
10
14.7828524528735
20
-0.0354853630790615
30
0
41
1
10
14.441073593059
20
-0.0209401696573366
30
0
41
1
10
14.2712027443284
20
-0.0206379592626149
30
0
41
1
10
13.763130888818
20
-0.0400790021060402
30
0
41
1
10
13.4264408903515
20
-0.0801589342258637
30
0
41
1
10
12.9190366735934
20
-0.178638106948
30
0
41
1
10
12.7495154358449
20
-0.217859282569123
30
0
41
1
10
12.4940267794734
20
-0.286020308381154
30
0
41
1
10
12.4085920400377
20
-0.310317506500439
30
0
41
1
10
12.2803199911166
20
-0.348986134669616
30
0
41
1
10
12.2375610451911
20
-0.362239943929183
30
0
41
1
10
12.1921259380299
20
-0.376701637664269
30
0
41
1
10
12.1894532782723
20
-0.377553718460092
30
0
41
1
10
12.1854442798873
20
-0.378833925904217
30
0
41
1
10
12.1836043204673
20
-0.379289119166458
30
0
41
1
10
12.1845114954782
20
-0.381408880723683
30
0
41
1
10
12.1855526516184
20
-0.382316535856177
30
0
41
1
10
12.1905283865471
20
-0.386727357503503
30
0
41
1
10
12.1952699533717
20
-0.389768958461587
30
0
41
1
10
12.2093804741591
20
-0.398906351822802
30
0
41
1
10
12.2191445013229
20
-0.404686298273106
30
0
41
1
10
12.2486230689172
20
-0.421857622886108
30
0
41
1
10
12.2686408708085
20
-0.43298950405142
30
0
41
1
10
12.3691279293873
20
-0.488222162642273
30
0
41
1
10
12.4509362193936
20
-0.531091833026977
30
0
41
1
10
12.6147920770418
20
-0.616776019178843
30
0
41
1
10
12.6970244784901
20
-0.659392715722049
30
0
41
1
10
12.9441383571316
20
-0.787103717424799
30
0
41
1
10
13.1094467078412
20
-0.872047900737158
30
0
41
1
10
13.6060871374532
20
-1.12735283696742
30
0
41
1
10
13.9377520535639
20
-1.29877387283108
30
0
41
1
10
14.6010408775406
20
-1.64553827240581
30
0
41
1
10
14.9325507847888
20
-1.82081992255397
30
0
41
1
10
15.3443790327818
20
-2.04668297116757
30
0
41
1
10
15.4266202734074
20
-2.09221099606185
30
0
41
1
10
15.5494241845468
20
-2.16163506950411
30
0
41
1
10
15.5902679205424
20
-2.18495948631073
30
0
41
1
10
15.6715221241755
20
-2.23242245795086
30
0
41
1
10
15.712180434318
20
-2.2561983156543
30
0
41
1
10
15.7613197372705
20
-2.28863124421207
30
0
41
1
10
15.7711672029656
20
-2.29513129391049
30
0
41
1
10
15.7825356121893
20
-2.30454275631087
30
0
41
1
10
15.7848078886704
20
-2.30644159239478
30
0
41
1
10
15.787591470796
20
-2.30993546041415
30
0
41
1
10
15.7885213556589
20
-2.31170778352737
30
0
41
1
10
15.7861502454848
20
-2.31360056645121
30
0
41
1
10
15.7802224373995
20
-2.31833198908493
30
0
41
1
10
15.7553249576674
20
-2.33819266366263
30
0
41
1
10
15.7316114828074
20
-2.3570626482317
30
0
41
1
10
15.6746921870549
20
-2.40225897904404
30
0
41
1
10
15.6367465495183
20
-2.43225993545426
30
0
41
1
10
15.5228808689083
20
-2.52182826150639
30
0
41
1
10
15.4468808763641
20
-2.58100072683237
30
0
41
1
10
15.2191167652689
20
-2.75593841448219
30
0
41
1
10
15.0674469645112
20
-2.86925455258447
30
0
41
1
10
14.7627855695001
20
-3.08728153706969
30
0
41
1
10
14.6093447311337
20
-3.19228003358086
30
0
41
1
10
14.1473084253231
20
-3.4888631692487
30
0
41
1
10
13.8399663909346
20
-3.66015582534783
30
0
41
1
10
13.3690963370851
20
-3.86717199861951
30
0
41
1
10
13.2104928902541
20
-3.92786493987731
30
0
41
1
10
12.8882907076175
20
-4.03130483580048
30
0
41
1
10
12.7241700329787
20
-4.07404485135868
30
0
41
1
10
12.3493048682127
20
-4.14928966792624
30
0
41
1
10
12.1373922924392
20
-4.17572191326411
30
0
41
1
10
11.924010424652
20
-4.18827386497062
30
0
0
SPLINE
5
D0
100
AcDbEntity
8
1
62
256
6
ByLayer
370
18
48
1
60
0
100
AcDbSpline
70
4
71
3
72
12
73
8
40
0
40
0
40
0
40
0
40
0.25
40
0.25
40
0.499999999999999
40
0.499999999999999
40
1
40
1
40
1
40
1
41
1
10
93.2510606275336
20
-4.97442570412684
30
0
41
1
10
93.2558971705143
20
-4.96135231946164
30
0
41
1
10
93.2605197685734
20
-4.94807822912395
30
0
41
1
10
93.2681712382963
20
-4.92416875146316
30
0
41
1
10
93.2711805721301
20
-4.91357464800203
30
0
41
1
10
93.276690135073
20
-4.88972370771586
30
0
41
1
10
93.2756448627685
20
-4.88515186835687
30
0
41
1
10
93.2719674247502
20
-4.88823459378102
30
0
0
SPLINE
5
D1
100
AcDbEntity
8
1
62
256
6
ByLayer
370
18
48
1
60
0
100
AcDbSpline
70
4
71
3
72
8
73
4
40
0
40
0
40
0
40
0
40
1
40
1
40
1
40
1
41
1
10
93.201402383295
20
-5.10847261539655
30
0
41
1
10
93.2179691907066
20
-5.06381280819397
30
0
41
1
10
93.2345223555916
20
-5.0191293677768
30
0
41
1
10
93.251060627521
20
-4.97442570412773
30
0
0
SPLINE
5
D2
100
AcDbEntity
8
1
62
256
6
ByLayer
370
18
48
1
60
0
100
AcDbSpline
70
4
71
3
72
24
73
20
40
0
40
0
40
0
40
0
40
0.249999999999993
40
0.249999999999993
40
0.499999999999986
40
0.499999999999986
40
0.624999999999965
40
0.624999999999965
40
0.687499999999971
40
0.687499999999971
40
0.749999999999977
40
0.749999999999977
40
0.812499999999983
40
0.812499999999983
40
0.874999999999988
40
0.874999999999988
40
0.937499999999994
40
0.937499999999994
40
1
40
1
40
1
40
1
41
1
10
92.5424458034612
20
1.49401577026015
30
0
41
1
10
92.7190259411197
20
1.52673411642917
30
0
41
1
10
92.8948437640102
20
1.56397257838361
30
0
41
1
10
93.2438191725344
20
1.65481297102809
30
0
41
1
10
93.4168161603863
20
1.70792173165606
30
0
41
1
10
93.66575389908
20
1.81198485783523
30
0
41
1
10
93.7464919672156
20
1.85062523875484
30
0
41
1
10
93.8620429775524
20
1.91855856083438
30
0
41
1
10
93.8996212827384
20
1.94288876670481
30
0
41
1
10
93.9721880820295
20
1.99624471882481
30
0
41
1
10
94.0070920594134
20
2.02525725489781
30
0
41
1
10
94.0713385639083
20
2.08818725126366
30
0
41
1
10
94.1011453501523
20
2.12259199039985
30
0
41
1
10
94.1524289812311
20
2.19702761460817
30
0
41
1
10
94.173599525857
20
2.23652044003123
30
0
41
1
10
94.205363681187
20
2.32094453136696
30
0
41
1
10
94.2157461505911
20
2.36623288890078
30
0
41
1
10
94.2241330315274
20
2.45636274519964
30
0
41
1
10
94.2224195667614
20
2.50243523688198
30
0
41
1
10
94.2158541881638
20
2.54763211619004
30
0
0
SPLINE
5
D3
100
AcDbEntity
8
1
62
256
6
ByLayer
370
18
48
1
60
0
100
AcDbSpline
70
4
71
3
72
24
73
20
40
0
40
0
40
0
40
0
40
0.124999999999993
40
0.124999999999993
40
0.156249999999993
40
0.156249999999993
40
0.187499999999994
40
0.187499999999994
40
0.249999999999995
40
0.249999999999995
40
0.374999999999997
40
0.374999999999997
40
0.5
40
0.5
40
0.625000000000002
40
0.625000000000002
40
0.750000000000005
40
0.750000000000005
40
1
40
1
40
1
40
1
41
1
10
87.8877931305711
20
2.01905530871542
30
0
41
1
10
87.9500001562257
20
1.75935925368626
30
0
41
1
10
88.0450119267802
20
1.49995580571985
30
0
41
1
10
88.1980735752551
20
1.17600741265056
30
0
41
1
10
88.2304304938007
20
1.1112421810929
30
0
41
1
10
88.297572182316
20
0.983418538962098
30
0
41
1
10
88.3324586069552
20
0.920137597836515
30
0
41
1
10
88.44076071635
20
0.73204167784985
30
0
41
1
10
88.5178068994796
20
0.608967686182581
30
0
41
1
10
88.7616139275003
20
0.245820816245526
30
0
41
1
10
88.9421440174296
20
0.0105924432045015
30
0
41
1
10
89.3194734803147
20
-0.434574750268666
30
0
41
1
10
89.5172892335287
20
-0.646183908797042
30
0
41
1
10
89.927285987321
20
-1.05217458467027
30
0
41
1
10
90.1395031237335
20
-1.24651276581824
30
0
41
1
10
90.576106988081
20
-1.62059464527775
30
0
41
1
10
90.798861627179
20
-1.79886114204143
30
0
41
1
10
91.4742299312994
20
-2.30797300260849
30
0
41
1
10
91.9357284703847
20
-2.61524840001241
30
0
41
1
10
92.4066377176134
20
-2.89565188864407
30
0
0
SPLINE
5
D4
100
AcDbEntity
8
1
62
256
6
ByLayer
370
18
48
1
60
0
100
AcDbSpline
70
4
71
3
72
20
73
16
40
0
40
0
40
0
40
0
40
0.125000000000007
40
0.125000000000007
40
0.250000000000014
40
0.250000000000014
40
0.500000000000017
40
0.500000000000017
40
0.625000000000013
40
0.625000000000013
40
0.750000000000008
40
0.750000000000008
40
0.875000000000004
40
0.875000000000004
40
1
40
1
40
1
40
1
41
1
10
94.2158541881643
20
-2.54763211619021
30
0
41
1
10
94.1770342646575
20
-2.65209663362637
30
0
41
1
10
94.1381441886405
20
-2.7564400390614
30
0
41
1
10
94.0603629252844
20
-2.96510231518835
30
0
41
1
10
94.0214453804209
20
-3.06937984010301
30
0
41
1
10
93.9045896694264
20
-3.38188238267324
30
0
41
1
10
93.8265295695934
20
-3.5899465207346
30
0
41
1
10
93.7090853471225
20
-3.9002422894888
30
0
41
1
10
93.6698766762622
20
-4.00326298525621
30
0
41
1
10
93.5914536983177
20
-4.20926612770862
30
0
41
1
10
93.5522154528669
20
-4.31218869635475
30
0
41
1
10
93.4737196288988
20
-4.5173700481667
30
0
41
1
10
93.4344700851424
20
-4.61962065513595
30
0
41
1
10
93.3559639118352
20
-4.82264515669419
30
0
41
1
10
93.3167054578678
20
-4.92303883440565
30
0
41
1
10
93.2774459033658
20
-5.02320315555187
30
0
0
SPLINE
5
D5
100
AcDbEntity
8
1
62
256
6
ByLayer
370
13
48
1
60
0
100
AcDbSpline
70
4
71
3
72
26
73
22
40
0
40
0
40
0
40
0
40
0.0020236338885336
40
0.0851883310644892
40
0.0851883310644892
40
0.168353028240445
40
0.168353028240445
40
0.334682422592356
40
0.334682422592356
40
0.417847119768312
40
0.417847119768312
40
0.501011816944267
40
0.501011816944267
40
0.584176514120223
40
0.584176514120223
40
0.667341211296178
40
0.750505908472134
40
0.750505908472134
40
0.833670605648089
40
0.833670605648089
40
1
40
1
40
1
40
1
41
1
10
6.25093483746989
20
-4.86759332270705
30
0
41
1
10
6.25093567860958
20
-4.86759441030316
30
0
41
1
10
6.25097105427653
20
-4.86743042440136
30
0
41
1
10
6.2510050316059
20
-4.85843806782725
30
0
41
1
10
6.25106964979503
20
-4.82369611578335
30
0
41
1
10
6.25110121234542
20
-4.79751513780536
30
0
41
1
10
6.25119253958977
20
-4.69461607354876
30
0
41
1
10
6.25124971096545
20
-4.59372236599131
30
0
41
1
10
6.25133369438092
20
-4.39432042704985
30
0
41
1
10
6.25136147308794
20
-4.31944416547287
30
0
41
1
10
6.2514161494332
20
-4.15452177127955
30
0
41
1
10
6.25144296539585
20
-4.06480644274495
30
0
41
1
10
6.25149566108399
20
-3.87090293605485
30
0
41
1
10
6.25152156323162
20
-3.76652328227348
30
0
41
1
10
6.25157144530917
20
-3.54687825113152
30
0
41
1
10
6.25161963089428
20
-3.31557393675635
30
0
41
1
10
6.25166379006507
20
-3.06129712783221
30
0
41
1
10
6.25170534543588
20
-2.79534335071793
30
0
41
1
10
6.25172490568607
20
-2.65572885851432
30
0
41
1
10
6.2517773208825
20
-2.2274644947519
30
0
41
1
10
6.25180434683298
20
-1.92816649615926
30
0
41
1
10
6.25181981579081
20
-1.61528878244295
30
0
0
SPLINE
5
D6
100
AcDbEntity
8
1
62
256
6
ByLayer
370
18
48
1
60
0
100
AcDbSpline
70
4
71
3
72
13
73
9
40
0
40
0
40
0
40
0
40
0.266380395165842
40
0.266380395165842
40
0.532760790331684
40
0.799141185497526
40
0.799141185497526
40
1
40
1
40
1
40
1
41
1
10
6.0007596092187
20
4.73804565374977
30
0
41
1
10
6.00076369542464
20
4.80155671099223
30
0
41
1
10
6.00076760007886
20
4.85707505625817
30
0
41
1
10
6.00077499466622
20
4.95058656702909
30
0
41
1
10
6.00078199585997
20
5.02697049720308
30
0
41
1
10
6.00078837620589
20
5.06983673037581
30
0
41
1
10
6.00079376647506
20
5.09260987491069
30
0
41
1
10
6.00079602174671
20
5.09758799887882
30
0
41
1
10
6.00079821937612
20
5.09763064801129
30
0
0
SPLINE
5
D7
100
AcDbEntity
8
1
62
256
6
ByLayer
370
13
48
1
60
0
100
AcDbSpline
70
4
71
3
72
12
73
8
40
0
40
0
40
0
40
0
40
0.312956003980874
40
0.312956003980874
40
0.660707489235729
40
0.660707489235729
40
1
40
1
40
1
40
1
41
1
10
6.25059189619819
20
4.65682612401338
30
0
41
1
10
6.25063303900333
20
4.70050875638916
30
0
41
1
10
6.2506722595964
20
4.73751832022919
30
0
41
1
10
6.25075184166832
20
4.8016023027954
30
0
41
1
10
6.25079159516218
20
4.82679418662892
30
0
41
1
10
6.25086610267596
20
4.85949475450334
30
0
41
1
10
6.25090111111487
20
4.86754984708523
30
0
41
1
10
6.25093483830781
20
4.86759332378875
30
0
0
SPLINE
5
D8
100
AcDbEntity
8
1
62
256
6
ByLayer
370
18
48
1
60
0
100
AcDbSpline
70
4
71
3
72
34
73
30
40
0
40
0
40
0
40
0
40
0.250000000000006
40
0.250000000000006
40
0.500000000000011
40
0.500000000000011
40
0.625000000000014
40
0.625000000000014
40
0.687500000000016
40
0.687500000000016
40
0.718750000000016
40
0.718750000000016
40
0.750000000000017
40
0.750000000000017
40
0.812500000000018
40
0.812500000000018
40
0.843750000000019
40
0.843750000000019
40
0.87500000000002
40
0.87500000000002
40
0.890625000000017
40
0.890625000000017
40
0.906250000000015
40
0.906250000000015
40
0.93750000000001
40
0.93750000000001
40
0.968750000000005
40
0.968750000000005
40
1
40
1
40
1
40
1
41
1
10
87.887793130571
20
2.01905530871534
30
0
41
1
10
88.3125976766148
20
1.72651369272245
30
0
41
1
10
88.742125720917
20
1.46023515828955
30
0
41
1
10
89.6137638843369
20
0.997635574114696
30
0
41
1
10
90.0557048024438
20
0.800373751303994
30
0
41
1
10
90.7311671201475
20
0.574265392380909
30
0
41
1
10
90.9556103175647
20
0.511679781018728
30
0
41
1
10
91.2897580281183
20
0.44043748854719
30
0
41
1
10
91.4006058149503
20
0.420500647837684
30
0
41
1
10
91.5656345811805
20
0.396828513345582
30
0
41
1
10
91.6204535840695
20
0.389976251015582
30
0
41
1
10
91.7295619704341
20
0.378445515199075
30
0
41
1
10
91.7840359008107
20
0.373253879148052
30
0
41
1
10
91.9448115227308
20
0.366929826714283
30
0
41
1
10
92.0494017930154
20
0.373396627296927
30
0
41
1
10
92.1906614394051
20
0.411598803445173
30
0
41
1
10
92.2348325696549
20
0.429980474390391
30
0
41
1
10
92.3160323165971
20
0.480579958936175
30
0
41
1
10
92.3518758774711
20
0.51171437138467
30
0
41
1
10
92.3967106618185
20
0.568047264349104
30
0
41
1
10
92.4102543186962
20
0.588693624987428
30
0
41
1
10
92.4333158740568
20
0.632695729423375
30
0
41
1
10
92.442874426514
20
0.656006456451451
30
0
41
1
10
92.4656767776147
20
0.72983886210659
30
0
41
1
10
92.4729754394943
20
0.785186449975868
30
0
41
1
10
92.4722671073863
20
0.900311539088165
30
0
41
1
10
92.4644706205202
20
0.960736211714021
30
0
41
1
10
92.4374283952374
20
1.0825144460924
30
0
41
1
10
92.4182287532294
20
1.14327846971801
30
0
41
1
10
92.3956064684999
20
1.20396709519966
30
0
0
SPLINE
5
D9
100
AcDbEntity
8
1
62
256
6
ByLayer
370
18
48
1
60
0
100
AcDbSpline
70
4
71
3
72
16
73
12
40
0
40
0
40
0
40
0
40
0.250000000000052
40
0.250000000000052
40
0.375000000000072
40
0.375000000000072
40
0.500000000000091
40
0.500000000000091
40
0.750000000000046
40
0.750000000000046
40
1
40
1
40
1
40
1
41
1
10
92.3956064685
20
1.20396709519969
30
0
41
1
10
92.3847586531389
20
1.23306844422845
30
0
41
1
10
92.3773744387564
20
1.26314737542413
30
0
41
1
10
92.374157034186
20
1.31047284092378
30
0
41
1
10
92.3744572700184
20
1.32630263711405
30
0
41
1
10
92.3785756722266
20
1.35780145874239
30
0
41
1
10
92.3824158029556
20
1.37364896679904
30
0
41
1
10
92.4013255742007
20
1.41779339646911
30
0
41
1
10
92.4243520664998
20
1.44314442077905
30
0
41
1
10
92.4790595054725
20
1.47770021859731
30
0
41
1
10
92.5104819417242
20
1.48809322026625
30
0
41
1
10
92.5424458034612
20
1.49401577026018
30
0
0
SPLINE
5
DA
100
AcDbEntity
8
1
62
256
6
ByLayer
370
18
48
1
60
0
100
AcDbSpline
70
4
71
3
72
96
73
92
40
0
40
0
40
0
40
0
40
0.0226968833877013
40
0.0226968833877013
40
0.0549330435391214
40
0.0549330435391214
40
0.0710511236148316
40
0.0710511236148316
40
0.0871692036905417
40
0.0871692036905417
40
0.119405363841962
40
0.119405363841962
40
0.135523443917672
40
0.135523443917672
40
0.151641523993382
40
0.151641523993382
40
0.183877684144803
40
0.183877684144803
40
0.199995764220513
40
0.199995764220513
40
0.216113844296223
40
0.216113844296223
40
0.248350004447643
40
0.248350004447643
40
0.280586164599063
40
0.280586164599063
40
0.312822324750484
40
0.312822324750484
40
0.345058484901904
40
0.345058484901904
40
0.377294645053324
40
0.377294645053324
40
0.409530805204744
40
0.409530805204744
40
0.425648885280454
40
0.425648885280454
40
0.441766965356163
40
0.441766965356163
40
0.474003125507582
40
0.474003125507582
40
0.506239285659
40
0.506239285659
40
0.538475445810419
40
0.538475445810419
40
0.554593525886128
40
0.554593525886128
40
0.570711605961837
40
0.570711605961837
40
0.602947766113256
40
0.602947766113256
40
0.619065846188966
40
0.619065846188966
40
0.635183926264675
40
0.635183926264675
40
0.667420086416096
40
0.667420086416096
40
0.699656246567516
40
0.699656246567516
40
0.715774326643226
40
0.715774326643226
40
0.731892406718936
40
0.731892406718936
40
0.748010486794646
40
0.748010486794646
40
0.764128566870356
40
0.764128566870356
40
0.780246646946066
40
0.780246646946066
40
0.796364727021776
40
0.796364727021776
40
0.812482807097486
40
0.812482807097486
40
0.828600887173196
40
0.828600887173196
40
0.844718967248906
40
0.844718967248906
40
0.860837047324617
40
0.860837047324617
40
0.876955127400327
40
0.876955127400327
40
0.893073207476037
40
0.893073207476037
40
0.909191287551747
40
0.909191287551747
40
0.925309367627457
40
0.925309367627457
40
0.957545527778877
40
0.957545527778877
40
0.989781687930297
40
0.989781687930297
40
1
40
1
40
1
40
1
41
1
10
17.0251947320307
20
4.87947978472224
30
0
41
1
10
17.3034425979315
20
4.87997659349449
30
0
41
1
10
17.581773977809
20
4.87394332374041
30
0
41
1
10
18.2562912110388
20
4.84434783724748
30
0
41
1
10
18.6529479897041
20
4.81422873625979
30
0
41
1
10
19.2473155818305
20
4.75257600651344
30
0
41
1
10
19.4450388263901
20
4.72885998105937
30
0
41
1
10
19.8406336776019
20
4.67444990641118
30
0
41
1
10
20.0384375417888
20
4.6440411392378
30
0
41
1
10
20.631783305266
20
4.54422713300454
30
0
41
1
10
21.0273090243186
20
4.46602155749309
30
0
41
1
10
21.6204762484207
20
4.33205677981215
30
0
41
1
10
21.8180625493572
20
4.28488900074203
30
0
41
1
10
22.2138982369893
20
4.1846204331747
30
0
41
1
10
22.4123642983815
20
4.13123661055565
30
0
41
1
10
23.0069816577586
20
3.96334552912231
30
0
41
1
10
23.402837280393
20
3.84126080471586
30
0
41
1
10
23.9958028057956
20
3.64390647525263
30
0
41
1
10
24.1932640897731
20
3.57564392716233
30
0
41
1
10
24.5882244955223
20
3.43507142625162
30
0
41
1
10
24.7858869305745
20
3.3628034472668
30
0
41
1
10
25.3795651247716
20
3.13846839208006
30
0
41
1
10
25.7767602934794
20
2.97974090705134
30
0
41
1
10
26.5691116899295
20
2.64789728947523
30
0
41
1
10
26.9639369977952
20
2.47454783041997
30
0
41
1
10
27.7547187128509
20
2.11785617680249
30
0
41
1
10
28.1503740581681
20
1.93336078302608
30
0
41
1
10
28.9422734612438
20
1.55444883944421
30
0
41
1
10
29.3386080078652
20
1.35893883334416
30
0
41
1
10
30.1305475136188
20
0.965213249356566
30
0
41
1
10
30.5261702537448
20
0.766063453816656
30
0
41
1
10
31.3170291371909
20
0.36404557413627
30
0
41
1
10
31.711853979064
20
0.160406667347786
30
0
41
1
10
32.3054431338
20
-0.144303078801215
30
0
41
1
10
32.503589493867
20
-0.245734487555694
30
0
41
1
10
32.9002617873195
20
-0.448227854436965
30
0
41
1
10
33.0983704116786
20
-0.549007297962703
30
0
41
1
10
33.6921668491332
20
-0.84996122931571
30
0
41
1
10
34.0869855249453
20
-1.04948022061456
30
0
41
1
10
34.8769199240734
20
-1.44243608110167
30
0
41
1
10
35.2723535546304
20
-1.63552483658663
30
0
41
1
10
36.0646144132694
20
-2.01152891167524
30
0
41
1
10
36.4612644664134
20
-2.19498964218494
30
0
41
1
10
37.0543124223573
20
-2.46160981033148
30
0
41
1
10
37.2520521408203
20
-2.54876655874676
30
0
41
1
10
37.6475277961463
20
-2.72034666147681
30
0
41
1
10
37.8452313435395
20
-2.80484407079831
30
0
41
1
10
38.4384895065038
20
-3.05042055159416
30
0
41
1
10
38.8340925010159
20
-3.20576776589209
30
0
41
1
10
39.4280158803943
20
-3.42759507826949
30
0
41
1
10
39.6263425162832
20
-3.49933568323561
30
0
41
1
10
40.0226310676336
20
-3.63837085038193
30
0
41
1
10
40.220686310579
20
-3.7059845744742
30
0
41
1
10
40.8144597712175
20
-3.90221516467784
30
0
41
1
10
41.2098242234485
20
-4.02056662855179
30
0
41
1
10
42.0001002001378
20
-4.23797856013908
30
0
41
1
10
42.3958675307371
20
-4.33558594063845
30
0
41
1
10
42.990913226318
20
-4.4672264158767
30
0
41
1
10
43.1892095866664
20
-4.50883192081955
30
0
41
1
10
43.5851386535388
20
-4.58443341341837
30
0
41
1
10
43.7828655509307
20
-4.61881957416563
30
0
41
1
10
44.1779523109711
20
-4.68167962371749
30
0
41
1
10
44.3752907279005
20
-4.71006517313762
30
0
41
1
10
44.7704340881984
20
-4.7607017368326
30
0
41
1
10
44.9681409812672
20
-4.78301036644368
30
0
41
1
10
45.3637144386928
20
-4.82215104260803
30
0
41
1
10
45.5615718560878
20
-4.83920485761894
30
0
41
1
10
45.9574842693396
20
-4.86700333290094
30
0
41
1
10
46.1556977752355
20
-4.87732234429168
30
0
41
1
10
46.5518663322955
20
-4.89096908218895
30
0
41
1
10
46.7495390585043
20
-4.89436451325003
30
0
41
1
10
47.144991132049
20
-4.89482517249294
30
0
41
1
10
47.3427481629841
20
-4.89192238860895
30
0
41
1
10
47.7382201828053
20
-4.88029052448911
30
0
41
1
10
47.9359452260058
20
-4.87154239632514
30
0
41
1
10
48.3313143626095
20
-4.84905479276415
30
0
41
1
10
48.5289600923015
20
-4.83477622975801
30
0
41
1
10
48.9242945394765
20
-4.7986396229808
30
0
41
1
10
49.1219112727042
20
-4.77696718437161
30
0
41
1
10
49.5176792797112
20
-4.7272374843873
30
0
41
1
10
49.7160640268933
20
-4.69923261439914
30
0
41
1
10
50.1124028692235
20
-4.63763049941565
30
0
41
1
10
50.3104439524351
20
-4.60395747168388
30
0
41
1
10
50.7062761742469
20
-4.53129049605593
30
0
41
1
10
50.9040598578028
20
-4.49275987336569
30
0
41
1
10
51.496965354966
20
-4.3672410390744
30
0
41
1
10
51.891489495585
20
-4.27002095528286
30
0
41
1
10
52.6830781818008
20
-4.05540416009981
30
0
41
1
10
53.0802395373791
20
-3.93726352821577
30
0
41
1
10
53.6018694942798
20
-3.77021257739227
30
0
41
1
10
53.727274605367
20
-3.72886957645707
30
0
41
1
10
53.8526018289903
20
-3.6864843156155
30
0
0
SPLINE
5
DB
100
AcDbEntity
8
1
62
256
6
ByLayer
370
18
48
1
60
0
100
AcDbSpline
70
4
71
3
72
30
73
26
40
0
40
0
40
0
40
0
40
0.012834495353172
40
0.012834495353172
40
0.122519551425042
40
0.122519551425042
40
0.232204607496914
40
0.232204607496914
40
0.287047135532848
40
0.287047135532848
40
0.341889663568779
40
0.341889663568779
40
0.451574719640653
40
0.451574719640653
40
0.561259775712527
40
0.561259775712527
40
0.616102303748462
40
0.616102303748462
40
0.670944831784396
40
0.670944831784396
40
0.780629887856264
40
0.780629887856264
40
0.890314943928131
40
0.890314943928131
40
1
40
1
40
1
40
1
41
1
10
77.0706311220765
20
4.91063942760167
30
0
41
1
10
77.1169782672567
20
4.91018195427958
30
0
41
1
10
77.1633264482057
20
4.90954640468686
30
0
41
1
10
77.6057709361163
20
4.90179308129848
30
0
41
1
10
78.00152350505
20
4.88219428608022
30
0
41
1
10
78.7923385185427
20
4.81953838626151
30
0
41
1
10
79.1870408208208
20
4.77606125320446
30
0
41
1
10
79.7807542540835
20
4.69484748984524
30
0
41
1
10
79.9788196117223
20
4.6654099668653
30
0
41
1
10
80.3753748178113
20
4.59995468282921
30
0
41
1
10
80.5733677577159
20
4.56332627227843
30
0
41
1
10
81.1667085330159
20
4.44461081190084
30
0
41
1
10
81.5609685504103
20
4.35268181176053
30
0
41
1
10
82.3507898268926
20
4.14805125449874
30
0
41
1
10
82.746175326777
20
4.0353299926457
30
0
41
1
10
83.3399913674147
20
3.85027915483431
30
0
41
1
10
83.5382027246473
20
3.78585255564286
30
0
41
1
10
83.9339536263444
20
3.65204500471739
30
0
41
1
10
84.1314615135351
20
3.58257595361212
30
0
41
1
10
84.7242773570169
20
3.36860024015633
30
0
41
1
10
85.1195378903898
20
3.21837289628977
30
0
41
1
10
85.9099564174867
20
2.90117568448852
30
0
41
1
10
86.3048599408637
20
2.73353627473577
30
0
41
1
10
87.0963584364494
20
2.38421563611388
30
0
41
1
10
87.4925713377272
20
2.2042209566311
30
0
41
1
10
87.8877931305711
20
2.01905530871548
30
0
0
SPLINE
5
DC
100
AcDbEntity
8
1
62
256
6
ByLayer
370
18
48
1
60
0
100
AcDbSpline
70
4
71
3
72
96
73
92
40
0
40
0
40
0
40
0
40
0.0016521732555899
40
0.0016521732555899
40
0.0178496530686747
40
0.0178496530686747
40
0.050244612694846
40
0.050244612694846
40
0.0826395723210172
40
0.0826395723210172
40
0.0988370521341028
40
0.0988370521341028
40
0.115034531947189
40
0.115034531947189
40
0.147429491573362
40
0.147429491573362
40
0.179824451199535
40
0.179824451199535
40
0.212219410825709
40
0.212219410825709
40
0.244614370451882
40
0.244614370451882
40
0.260811850264968
40
0.260811850264968
40
0.277009330078055
40
0.277009330078055
40
0.309404289704228
40
0.309404289704228
40
0.325601769517315
40
0.325601769517315
40
0.341799249330401
40
0.341799249330401
40
0.374194208956574
40
0.374194208956574
40
0.390391688769661
40
0.390391688769661
40
0.406589168582747
40
0.406589168582747
40
0.438984128208919
40
0.438984128208919
40
0.455181608022006
40
0.455181608022006
40
0.471379087835092
40
0.471379087835092
40
0.503774047461264
40
0.503774047461264
40
0.536169007087436
40
0.536169007087436
40
0.552366486900522
40
0.552366486900522
40
0.568563966713608
40
0.568563966713608
40
0.600958926339779
40
0.600958926339779
40
0.617156406152865
40
0.617156406152865
40
0.633353885965951
40
0.633353885965951
40
0.665748845592123
40
0.665748845592123
40
0.681946325405209
40
0.681946325405209
40
0.698143805218295
40
0.698143805218295
40
0.730538764844467
40
0.730538764844467
40
0.746736244657553
40
0.746736244657553
40
0.762933724470638
40
0.762933724470638
40
0.795328684096809
40
0.795328684096809
40
0.827723643722979
40
0.827723643722979
40
0.86011860334915
40
0.86011860334915
40
0.89251356297532
40
0.89251356297532
40
0.908711042788405
40
0.908711042788405
40
0.92490852260149
40
0.92490852260149
40
0.941106002414576
40
0.941106002414576
40
0.957303482227661
40
0.957303482227661
40
0.973500962040746
40
0.973500962040746
40
0.989698441853831
40
0.989698441853831
40
1
40
1
40
1
40
1
41
1
10
83.7978113349221
20
-3.69798995597921
30
0
41
1
10
83.7776516926382
20
-3.70486217685897
30
0
41
1
10
83.7574889613921
20
-3.7117084337485
30
0
41
1
10
83.539617332542
20
-3.78538501308975
30
0
41
1
10
83.3414786990396
20
-3.8498034993105
30
0
41
1
10
82.7472973633277
20
-4.03500452420207
30
0
41
1
10
82.3517987252501
20
-4.14777216246807
30
0
41
1
10
81.5620026572801
20
-4.35243154679549
30
0
41
1
10
81.1678845482159
20
-4.44434474960596
30
0
41
1
10
80.5749613365614
20
-4.5630227274618
30
0
41
1
10
80.3771398536315
20
-4.59963899651703
30
0
41
1
10
79.9810139440774
20
-4.66507187896795
30
0
41
1
10
79.7826635894176
20
-4.69457027187778
30
0
41
1
10
79.1886367515851
20
-4.77587481018557
30
0
41
1
10
78.7938256233685
20
-4.81939069630653
30
0
41
1
10
78.0030061333438
20
-4.88210657353295
30
0
41
1
10
77.6073539812938
20
-4.90172668786843
30
0
41
1
10
76.8155851117205
20
-4.91567864339865
30
0
41
1
10
76.4193725205131
20
-4.90977058006681
30
0
41
1
10
75.628094649334
20
-4.87031862786333
30
0
41
1
10
75.2327452203292
20
-4.83751001994676
30
0
41
1
10
74.6399075015105
20
-4.76616788374633
30
0
41
1
10
74.4422905046219
20
-4.73947474337106
30
0
41
1
10
74.0472001190716
20
-4.68146717729891
30
0
41
1
10
73.8496575197218
20
-4.64983448721998
30
0
41
1
10
73.2560084874084
20
-4.54671283908752
30
0
41
1
10
72.859095023918
20
-4.46697636988674
30
0
41
1
10
72.265681149127
20
-4.32931522450232
30
0
41
1
10
72.0680909191166
20
-4.27953290735394
30
0
41
1
10
71.6731924687194
20
-4.17532416022675
30
0
41
1
10
71.4759537522835
20
-4.12090190979706
30
0
41
1
10
70.8836051140121
20
-3.95052747781966
30
0
41
1
10
70.4881150209004
20
-3.82721231443546
30
0
41
1
10
69.8937969310091
20
-3.62614634042794
30
0
41
1
10
69.6954564287596
20
-3.55648740407378
30
0
41
1
10
69.2997757864801
20
-3.41157611728482
30
0
41
1
10
69.1023226665774
20
-3.33655853598509
30
0
41
1
10
68.5097530135607
20
-3.10744634095224
30
0
41
1
10
68.1144945231902
20
-2.94821785371559
30
0
41
1
10
67.5213671004244
20
-2.69787364708497
30
0
41
1
10
67.3236101777765
20
-2.61250429958622
30
0
41
1
10
66.9279581396174
20
-2.43752019291873
30
0
41
1
10
66.7301353075801
20
-2.34777938644115
30
0
41
1
10
66.1361033081045
20
-2.074388355281
30
0
41
1
10
65.7401517722286
20
-1.88862736789815
30
0
41
1
10
64.9489555715507
20
-1.50835336980637
30
0
41
1
10
64.5536673608523
20
-1.31377244261964
30
0
41
1
10
63.9610852770285
20
-1.01492098000546
30
0
41
1
10
63.7633979418428
20
-0.914679379150954
30
0
41
1
10
63.3674231111516
20
-0.713775433942232
30
0
41
1
10
63.1690289913366
20
-0.612909740021991
30
0
41
1
10
62.5743500538162
20
-0.309673086468138
30
0
41
1
10
62.1785973282777
20
-0.106780067425547
30
0
41
1
10
61.5862660488706
20
0.198972986569146
30
0
41
1
10
61.388952441202
20
0.300949119810269
30
0
41
1
10
60.9938121985468
20
0.503644708076735
30
0
41
1
10
60.7960813681834
20
0.604526770594219
30
0
41
1
10
60.2024378890877
20
0.90582973048987
30
0
41
1
10
59.8054360500225
20
1.10528891153547
30
0
41
1
10
59.2119026267042
20
1.40006189575743
30
0
41
1
10
59.0144668245447
20
1.49760516685561
30
0
41
1
10
58.6193582617608
20
1.6897588770448
30
0
41
1
10
58.4217398452122
20
1.78465656210002
30
0
41
1
10
57.8287647588861
20
2.06547434793544
30
0
41
1
10
57.4332815663454
20
2.24780670758594
30
0
41
1
10
56.839886445816
20
2.513237929073
30
0
41
1
10
56.6421690138792
20
2.60052442166617
30
0
41
1
10
56.2459903174542
20
2.77091764722067
30
0
41
1
10
56.0480191679006
20
2.85383767205323
30
0
41
1
10
55.4541463990602
20
3.0974850686973
30
0
41
1
10
55.0585026508873
20
3.25206692159062
30
0
41
1
10
54.267874970496
20
3.54512841673127
30
0
41
1
10
53.8732159958022
20
3.68330203986062
30
0
41
1
10
53.0809704059142
20
3.9370418078052
30
0
41
1
10
52.6838858065598
20
4.05517057621137
30
0
41
1
10
51.8923801120039
20
4.26979407796287
30
0
41
1
10
51.497863081824
20
4.36703139925828
30
0
41
1
10
50.9049104114102
20
4.4925895729011
30
0
41
1
10
50.7071011405016
20
4.53113212873589
30
0
41
1
10
50.3112044617928
20
4.60382474934587
30
0
41
1
10
50.1131231619089
20
4.63751207062447
30
0
41
1
10
49.7166865097284
20
4.69914231651163
30
0
41
1
10
49.5183513331437
20
4.72714542906681
30
0
41
1
10
49.1226870136104
20
4.77687729123494
30
0
41
1
10
48.9251087215004
20
4.79855509108913
30
0
41
1
10
48.5298195702046
20
4.83470773355509
30
0
41
1
10
48.332179981558
20
4.84899757257503
30
0
41
1
10
47.9367967961773
20
4.8715019125066
30
0
41
1
10
47.7390537945732
20
4.88025809379437
30
0
41
1
10
47.4155077535995
20
4.88978734496826
30
0
41
1
10
47.2897148627715
20
4.89231340907418
30
0
41
1
10
47.1639214153594
20
4.89360411644177
30
0
0
SPLINE
5
DD
100
AcDbEntity
8
1
62
256
6
ByLayer
370
18
48
1
60
0
100
AcDbSpline
70
4
71
3
72
32
73
28
40
0
40
0
40
0
40
0
40
0.0072471548358828
40
0.0072471548358828
40
0.106522439352293
40
0.106522439352293
40
0.1561600816105
40
0.1561600816105
40
0.205797723868707
40
0.205797723868707
40
0.305073008385117
40
0.305073008385117
40
0.354710650643324
40
0.354710650643324
40
0.40434829290153
40
0.40434829290153
40
0.503623577417943
40
0.503623577417943
40
0.602898861934354
40
0.602898861934354
40
0.702174146450765
40
0.702174146450765
40
0.801449430967176
40
0.801449430967176
40
0.900724715483588
40
0.900724715483588
40
1
40
1
40
1
40
1
41
1
10
23.8828614111387
20
-3.68134195052204
30
0
41
1
10
23.8539878309796
20
-3.69105643459935
30
0
41
1
10
23.8251095197845
20
-3.70071985700955
30
0
41
1
10
23.4005617466122
20
-3.84198659490505
30
0
41
1
10
23.0035922315461
20
-3.96436402453844
30
0
41
1
10
22.4088494521835
20
-4.13219788390518
30
0
41
1
10
22.2108493369353
20
-4.18542173787498
30
0
41
1
10
21.8154784069004
20
-4.28551417775012
30
0
41
1
10
21.618036714683
20
-4.3326293632949
30
0
41
1
10
21.0251192967533
20
-4.46647246461478
30
0
41
1
10
20.6294753778036
20
-4.5446690072668
30
0
41
1
10
20.0354995669491
20
-4.64450827949906
30
0
41
1
10
19.8374118388559
20
-4.67493200271994
30
0
41
1
10
19.4410828872269
20
-4.7293644035579
30
0
41
1
10
19.2430513229249
20
-4.75305633243249
30
0
41
1
10
18.6494317861325
20
-4.81451629336985
30
0
41
1
10
18.2537726889776
20
-4.84450233600933
30
0
41
1
10
17.4629617060262
20
-4.87911216693425
30
0
41
1
10
17.0680361382248
20
-4.88395737366099
30
0
41
1
10
16.2775020960911
20
-4.8667082860031
30
0
41
1
10
15.8805464028652
20
-4.84509502721025
30
0
41
1
10
15.0875235760226
20
-4.77930504745234
30
0
41
1
10
14.6919671617784
20
-4.73452928223148
30
0
41
1
10
13.9024766899343
20
-4.61821827912786
30
0
41
1
10
13.5075226909469
20
-4.54766007728463
30
0
41
1
10
12.7165417259373
20
-4.38536472291793
30
0
41
1
10
12.3205187057989
20
-4.29284098082846
30
0
41
1
10
11.924001411375
20
-4.18827439515835
30
0
0
SPLINE
5
DE
100
AcDbEntity
8
1
62
256
6
ByLayer
370
18
48
1
60
0
100
AcDbSpline
70
4
71
3
72
8
73
4
40
0
40
0
40
0
40
0
40
1
40
1
40
1
40
1
41
1
10
93.201402383295
20
5.10847261539658
30
0
41
1
10
92.7978528693833
20
5.13595205754515
30
0
41
1
10
92.3939210923054
20
5.14953457330228
30
0
41
1
10
91.9896434403323
20
5.14922676336283
30
0
0
SPLINE
5
DF
100
AcDbEntity
8
1
62
256
6
ByLayer
370
18
48
1
60
0
100
AcDbSpline
70
4
71
3
72
52
73
48
40
0
40
0
40
0
40
0
40
0.0052781724946508
40
0.0052781724946508
40
0.0468392089944462
40
0.0468392089944462
40
0.0884002454942416
40
0.0884002454942416
40
0.129961281994037
40
0.129961281994037
40
0.171522318493832
40
0.171522318493832
40
0.213083354993628
40
0.213083354993628
40
0.296205427993217
40
0.296205427993217
40
0.379327500992807
40
0.379327500992807
40
0.420888537492602
40
0.420888537492602
40
0.462449573992396
40
0.462449573992396
40
0.504010610492191
40
0.504010610492191
40
0.545571646991985
40
0.545571646991985
40
0.587132683491779
40
0.587132683491779
40
0.628693719991574
40
0.628693719991574
40
0.670254756491368
40
0.670254756491368
40
0.711815792991162
40
0.711815792991162
40
0.794937865990751
40
0.794937865990751
40
0.836498902490546
40
0.836498902490546
40
0.878059938990341
40
0.878059938990341
40
0.898840457240239
40
0.898840457240239
40
0.919620975490137
40
0.919620975490137
40
0.961182011989932
40
0.961182011989932
40
1
40
1
40
1
40
1
41
1
10
64.8260727524742
20
-4.91534212206545
30
0
41
1
10
64.7684416054032
20
-4.92424493617941
30
0
41
1
10
64.7108217133935
20
-4.93287553534904
30
0
41
1
10
64.1996418421035
20
-5.00702593229437
30
0
41
1
10
63.7469753661142
20
-5.05594916782957
30
0
41
1
10
62.8415261711274
20
-5.11939118289845
30
0
41
1
10
62.388565663714
20
-5.13386254224088
30
0
41
1
10
61.4801466821616
20
-5.12789323374449
30
0
41
1
10
61.0265416809772
20
-5.10743207941158
30
0
41
1
10
60.1208966483901
20
-5.03214967926053
30
0
41
1
10
59.668290766835
20
-4.97738234835381
30
0
41
1
10
58.7615285772843
20
-4.83447600390062
30
0
41
1
10
58.3067551632235
20
-4.74606342512951
30
0
41
1
10
56.9466201472447
20
-4.43393539101552
30
0
41
1
10
56.0425485806244
20
-4.16404147538105
30
0
41
1
10
54.2251926530549
20
-3.51499706668105
30
0
41
1
10
53.3209766786039
20
-3.14059080692036
30
0
41
1
10
51.9606481170669
20
-2.52055869043252
30
0
41
1
10
51.5057942492648
20
-2.30409571969511
30
0
41
1
10
50.598791626406
20
-1.85866306053859
30
0
41
1
10
50.1461138899419
20
-1.62908228630033
30
0
41
1
10
49.2401547400158
20
-1.16015423252855
30
0
41
1
10
48.7864672377252
20
-0.920811155749476
30
0
41
1
10
47.8776345685183
20
-0.43699496774704
30
0
41
1
10
47.4245417715075
20
-0.193199571827108
30
0
41
1
10
46.5186384084803
20
0.293737262072113
30
0
41
1
10
46.0657747566233
20
0.536779871233307
30
0
41
1
10
45.1582068154179
20
1.01824679240721
30
0
41
1
10
44.7034145939409
20
1.25714824798979
30
0
41
1
10
43.7967069069185
20
1.72315693424699
30
0
41
1
10
43.3438948572869
20
1.95057575533878
30
0
41
1
10
42.437479142342
20
2.39101963907285
30
0
41
1
10
41.9833578820851
20
2.60440252495721
30
0
41
1
10
40.6207761671223
20
3.21600227102314
30
0
41
1
10
39.7165482651425
20
3.58289412470191
30
0
41
1
10
38.3548726749613
20
4.05596545876492
30
0
41
1
10
37.9000350240812
20
4.20049889559638
30
0
41
1
10
36.9932104199982
20
4.45928363521705
30
0
41
1
10
36.5403476014044
20
4.5738081351345
30
0
41
1
10
35.8604073279868
20
4.72199750361318
30
0
41
1
10
35.6336642762349
20
4.76746706574286
30
0
41
1
10
35.1796110283158
20
4.85025798077055
30
0
41
1
10
34.9521398072186
20
4.8876227325168
30
0
41
1
10
34.2708802904485
20
4.98696494595745
30
0
41
1
10
33.8177473044151
20
5.03628636741129
30
0
41
1
10
32.94144249936
20
5.09843926671675
30
0
41
1
10
32.5182235168895
20
5.11345152308741
30
0
41
1
10
32.0941422209214
20
5.11328946481262
30
0
0
SPLINE
5
E0
100
AcDbEntity
8
1
62
256
6
ByLayer
370
18
48
1
60
0
100
AcDbSpline
70
4
71
3
72
20
73
16
40
0
40
0
40
0
40
0
40
0.124999999999999
40
0.124999999999999
40
0.249999999999999
40
0.249999999999999
40
0.374999999999998
40
0.374999999999998
40
0.499999999999997
40
0.499999999999997
40
0.749999999999999
40
0.749999999999999
40
0.874999999999999
40
0.874999999999999
40
1
40
1
40
1
40
1
41
1
10
6.25181981823749
20
-1.61528878245031
30
0
41
1
10
6.46961658306102
20
-1.7760778941813
30
0
41
1
10
6.69200126066903
20
-1.92662239041425
30
0
41
1
10
7.14332037304621
20
-2.21234391917739
30
0
41
1
10
7.37228722514479
20
-2.34745625039642
30
0
41
1
10
7.83550024417056
20
-2.6048284812386
30
0
41
1
10
8.06991956770651
20
-2.72716048253537
30
0
41
1
10
8.54259617800969
20
-2.96023647054867
30
0
41
1
10
8.77997677288209
20
-3.07054800904422
30
0
41
1
10
9.49497643298022
20
-3.38483209415466
30
0
41
1
10
9.97539942549295
20
-3.57220829506741
30
0
41
1
10
10.7021821295887
20
-3.82474277890159
30
0
41
1
10
10.9454919614109
20
-3.90424623391033
30
0
41
1
10
11.4343008997149
20
-4.05452782453955
30
0
41
1
10
11.6789422917326
20
-4.12404922455806
30
0
41
1
10
11.9240448460698
20
-4.18825474768056
30
0
0
SPLINE
5
E1
100
AcDbEntity
8
1
62
256
6
ByLayer
370
18
48
1
60
0
100
AcDbSpline
70
4
71
3
72
16
73
12
40
0
40
0
40
0
40
0
40
0.277374481690788
40
0.277374481690788
40
0.516894727696148
40
0.516894727696148
40
0.636654850698827
40
0.636654850698827
40
0.756414973701508
40
0.756414973701508
40
1
40
1
40
1
40
1
41
1
10
62.233014335853
20
-4.90053228191775
30
0
41
1
10
61.7114212480614
20
-4.89954685384882
30
0
41
1
10
61.1896370733526
20
-4.8765504538415
30
0
41
1
10
60.2145779727193
20
-4.79285120312395
30
0
41
1
10
59.7614828658372
20
-4.73770375514289
30
0
41
1
10
59.0784332078079
20
-4.63048495915189
30
0
41
1
10
58.8498057710715
20
-4.59057708849392
30
0
41
1
10
58.394202113
20
-4.50319669298045
30
0
41
1
10
58.1670053623294
20
-4.45571449170555
30
0
41
1
10
57.479007679339
20
-4.30066800680609
30
0
41
1
10
57.0194260655529
20
-4.18173045931363
30
0
41
1
10
56.5606393856887
20
-4.0489712259035
30
0
0
SPLINE
5
E2
100
AcDbEntity
8
1
62
256
6
ByLayer
370
13
48
1
60
0
100
AcDbSpline
70
4
71
3
72
22
73
18
40
0
40
0
40
0
40
0
40
0.0957921954739255
40
0.0957921954739255
40
0.290684140123548
40
0.290684140123548
40
0.388130112448358
40
0.388130112448358
40
0.485576084773168
40
0.485576084773168
40
0.680468029422791
40
0.680468029422791
40
0.875359974072414
40
0.875359974072414
40
0.972805946397225
40
0.972805946397225
40
1
40
1
40
1
40
1
41
1
10
56.5606384248608
20
-4.04897094786841
30
0
41
1
10
56.1171639029012
20
-3.92064257902791
30
0
41
1
10
55.6744321374294
20
-3.77939973554109
30
0
41
1
10
54.3308629617027
20
-3.31482083654632
30
0
41
1
10
53.4289661231499
20
-2.95505430088363
30
0
41
1
10
52.0646385809113
20
-2.35684771441066
30
0
41
1
10
51.6073333795464
20
-2.14769093102151
30
0
41
1
10
50.6949758074753
20
-1.71750108427602
30
0
41
1
10
50.239086349365
20
-1.49573609750507
30
0
41
1
10
48.8692967450917
20
-0.816052802827187
30
0
41
1
10
47.9648542799029
20
-0.350974816033954
30
0
41
1
10
46.1616934214129
20
0.574541486256663
30
0
41
1
10
45.2619573013842
20
1.03377136823428
30
0
41
1
10
43.9050651412334
20
1.69748135925326
30
0
41
1
10
43.4513786752451
20
1.91418537247875
30
0
41
1
10
42.8681294737149
20
2.18325024105835
30
0
41
1
10
42.7406866797413
20
2.24147827464051
30
0
41
1
10
42.6133250464478
20
2.29906458237812
30
0
0
SPLINE
5
E3
100
AcDbEntity
8
1
62
256
6
ByLayer
370
18
48
1
60
0
100
AcDbSpline
70
4
71
3
72
16
73
12
40
0
40
0
40
0
40
0
40
0.281516450266856
40
0.281516450266856
40
0.74415882743945
40
0.74415882743945
40
0.859819421732601
40
0.859819421732601
40
0.975480016025752
40
0.975480016025752
40
1
40
1
40
1
40
1
41
1
10
92.2061473601059
20
-4.91859663475145
30
0
41
1
10
91.6553893506336
20
-4.91832651091408
30
0
41
1
10
91.106549836464
20
-4.89333999788383
30
0
41
1
10
89.6571027997602
20
-4.76383119837689
30
0
41
1
10
88.7574473494967
20
-4.61846276512162
30
0
41
1
10
87.6248332038963
20
-4.36041489521713
30
0
41
1
10
87.3979108646771
20
-4.30498254574775
30
0
41
1
10
86.9430343149236
20
-4.18657617142156
30
0
41
1
10
86.7147762758746
20
-4.12351591456994
30
0
41
1
10
86.4384748633845
20
-4.04295787898582
30
0
41
1
10
86.3901566057644
20
-4.02871414027248
30
0
41
1
10
86.3418488519427
20
-4.01431914457748
30
0
0
SPLINE
5
E4
100
AcDbEntity
8
1
62
256
6
ByLayer
370
13
48
1
60
0
100
AcDbSpline
70
4
71
3
72
24
73
20
40
0
40
0
40
0
40
0
40
0.0896509969520631
40
0.0896509969520631
40
0.189931724095394
40
0.189931724095394
40
0.240072087667058
40
0.240072087667058
40
0.290212451238721
40
0.290212451238721
40
0.490773905525374
40
0.490773905525374
40
0.69133535981203
40
0.69133535981203
40
0.791616086955357
40
0.791616086955357
40
0.891896814098685
40
0.891896814098685
40
1
40
1
40
1
40
1
41
1
10
86.3418488519594
20
-4.01431914458246
30
0
41
1
10
85.9344219265154
20
-3.89291195062711
30
0
41
1
10
85.5277421585504
20
-3.76074552660566
30
0
41
1
10
84.666363825131
20
-3.45985635324627
30
0
41
1
10
84.211682646528
20
-3.28865053965151
30
0
41
1
10
83.5283052930645
20
-3.01543354283362
30
0
41
1
10
83.2999820309275
20
-2.92150042642675
30
0
41
1
10
82.8443204188016
20
-2.72925042706117
30
0
41
1
10
82.6170569684597
20
-2.63097033541536
30
0
41
1
10
81.4829890196236
20
-2.12989959942087
30
0
41
1
10
80.5827702287007
20
-1.69831605538144
30
0
41
1
10
78.7823548426013
20
-0.800432936054392
30
0
41
1
10
77.8818186112259
20
-0.334764474734584
30
0
41
1
10
76.519103145333
20
0.366455052731226
30
0
41
1
10
76.06166340293
20
0.601345583300002
30
0
41
1
10
75.1530903159866
20
1.06214895532656
30
0
41
1
10
74.7007231543843
20
1.28854329777201
30
0
41
1
10
73.7630817434317
20
1.74813032838028
30
0
41
1
10
73.277687590291
20
1.97978043376151
30
0
41
1
10
72.7922638630227
20
2.20283816494518
30
0
0
SPLINE
5
E5
100
AcDbEntity
8
1
62
256
6
ByLayer
370
18
48
1
60
0
100
AcDbSpline
70
4
71
3
72
16
73
12
40
0
40
0
40
0
40
0
40
0.0342192618902324
40
0.0342192618902324
40
0.270178699305532
40
0.270178699305532
40
0.742097574136134
40
0.742097574136134
40
0.978057011551434
40
0.978057011551434
40
1
40
1
40
1
40
1
41
1
10
32.3011947077494
20
-4.88254202140271
30
0
41
1
10
32.234973954173
20
-4.88248807507011
30
0
41
1
10
32.1687740679749
20
-4.88208070981506
30
0
41
1
10
31.6464743140736
20
-4.87606759252168
30
0
41
1
10
31.1926109876752
20
-4.85405348595199
30
0
41
1
10
29.8349616291854
20
-4.73945886177486
30
0
41
1
10
28.9348683952773
20
-4.59851299217465
30
0
41
1
10
27.5814888039351
20
-4.2973728579731
30
0
41
1
10
27.1297287757825
20
-4.18216859567502
30
0
41
1
10
26.6343557692009
20
-4.04077095208314
30
0
41
1
10
26.5921931059221
20
-4.0286170267353
30
0
41
1
10
26.5500152503448
20
-4.01634052677241
30
0
0
SPLINE
5
E6
100
AcDbEntity
8
1
62
256
6
ByLayer
370
13
48
1
60
0
100
AcDbSpline
70
4
71
3
72
24
73
20
40
0
40
0
40
0
40
0
40
0.0902492077273153
40
0.0902492077273153
40
0.289254181292626
40
0.289254181292626
40
0.38875666807528
40
0.38875666807528
40
0.488259154857936
40
0.488259154857936
40
0.687264128423245
40
0.687264128423245
40
0.786766615205901
40
0.786766615205901
40
0.836517858597229
40
0.836517858597229
40
0.886269101988557
40
0.886269101988557
40
1
40
1
40
1
40
1
41
1
10
26.5500142882048
20
-4.01634024672708
30
0
41
1
10
26.1386415205946
20
-3.89660399090425
30
0
41
1
10
25.725823560841
20
-3.76520762646993
30
0
41
1
10
24.3977489297755
20
-3.30932814191516
30
0
41
1
10
23.4886690415318
20
-2.94766881277562
30
0
41
1
10
22.1205556406186
20
-2.35058577615916
30
0
41
1
10
21.6628235921283
20
-2.14214134733734
30
0
41
1
10
20.7532041478627
20
-1.7145623980885
30
0
41
1
10
20.3003261019827
20
-1.49513409124569
30
0
41
1
10
18.9445652820811
20
-0.825672681869804
30
0
41
1
10
18.0447625694211
20
-0.364121497187853
30
0
41
1
10
16.6895965886272
20
0.32825770820466
30
0
41
1
10
16.2370157041966
20
0.559155508131624
30
0
41
1
10
15.5554875010402
20
0.902911523254403
30
0
41
1
10
15.3278559746216
20
1.0170404536932
30
0
41
1
10
14.8714229396587
20
1.2438670007119
30
0
41
1
10
14.6427431229628
20
1.3565040331095
30
0
41
1
10
13.8943248301739
20
1.72098349360113
30
0
41
1
10
13.3764108109611
20
1.96671340847536
30
0
41
1
10
12.8597761882104
20
2.20207327184906
30
0
0
SPLINE
5
E7
100
AcDbEntity
8
1
62
256
6
ByLayer
370
18
48
1
60
0
100
AcDbSpline
70
4
71
3
72
23
73
19
40
0
40
0
40
0
40
0
40
0.125
40
0.125
40
0.1875
40
0.1875
40
0.25
40
0.25
40
0.499999999999996
40
0.499999999999996
40
0.562499999999996
40
0.562499999999996
40
0.624999999999997
40
0.624999999999997
40
0.749999999999998
40
0.874999999999999
40
0.874999999999999
40
1
40
1
40
1
40
1
41
1
10
93.2096373118472
20
-4.91898105834485
30
0
41
1
10
93.1386172455937
20
-4.91896168368638
30
0
41
1
10
93.0709837123187
20
-4.90872379445895
30
0
41
1
10
92.9748678406918
20
-4.87727087252372
30
0
41
1
10
92.94372043304
20
-4.86409741202118
30
0
41
1
10
92.8832800946715
20
-4.83215479780895
30
0
41
1
10
92.8538921651632
20
-4.81330136150501
30
0
41
1
10
92.7134748940477
20
-4.70570054608203
30
0
41
1
10
92.6210734066331
20
-4.57756456248333
30
0
41
1
10
92.5316848621518
20
-4.36229795692887
30
0
41
1
10
92.5151295592442
20
-4.31645448417137
30
0
41
1
10
92.4847672607981
20
-4.21896886986846
30
0
41
1
10
92.4709227649501
20
-4.16711416109041
30
0
41
1
10
92.4342341550654
20
-4.00494955055214
30
0
41
1
10
92.3978133830041
20
-3.77036964998521
30
0
41
1
10
92.3859651265554
20
-3.49968923045512
30
0
41
1
10
92.3867301841534
20
-3.21047805932682
30
0
41
1
10
92.3935413683704
20
-3.05590481895519
30
0
41
1
10
92.4066377176132
20
-2.89565188864404
30
0
0
SPLINE
5
E8
100
AcDbEntity
8
SK1
62
256
6
ByLayer
370
18
48
1
60
0
100
AcDbSpline
70
4
71
3
72
14
73
10
40
0
40
0
40
0
40
0
40
0.500000000000003
40
0.500000000000003
40
0.750000000000001
40
0.750000000000001
40
0.875000000000001
40
0.875000000000001
40
1
40
1
40
1
40
1
41
1
10
-43.7
20
3.14690158144617
30
0
41
1
10
-43.6789021434844
20
3.1737054589216
30
0
41
1
10
-43.6585587767127
20
3.20469083831696
30
0
41
1
10
-43.6303722414292
20
3.25856086049629
30
0
41
1
10
-43.6214260646625
20
3.27772199234204
30
0
41
1
10
-43.6102968606991
20
3.3076996940645
30
0
41
1
10
-43.6069058574072
20
3.31808600052011
30
0
41
1
10
-43.6017309986994
20
3.33900551469156
30
0
41
1
10
-43.6
20
3.34949216743385
30
0
41
1
10
-43.6
20
3.35847704157203
30
0
0
SPLINE
5
E9
100
AcDbEntity
8
SK1
62
256
6
ByLayer
370
18
48
1
60
0
100
AcDbSpline
70
4
71
4
72
13
73
8
40
0
40
0
40
0
40
0
40
0
40
0.798263096424079
40
0.798263096424079
40
0.798263096424079
40
1
40
1
40
1
40
1
40
1
41
1.00393913095161
10
-44.9999994335596
20
3.13955511330568
30
0
41
1.00809207411279
10
-44.9999997937844
20
3.09465855160408
30
0
41
1.01279327303027
10
-45.0000000833281
20
3.04117406926812
30
0
41
1.0166117137858
10
-45.0000002966395
20
2.98170095322453
30
0
41
1.0166117137858
10
-45.0000004779966
20
2.90490156776774
30
0
41
1.01636784026216
10
-45.0000005112335
20
2.88886282993214
30
0
41
1.01592747669913
10
-45.0000005408034
20
2.87229870302316
30
0
41
1.01533186898816
10
-45.0000005664424
20
2.8552334855728
30
0
0
SPLINE
5
EA
100
AcDbEntity
8
SK1
62
256
6
ByLayer
370
18
48
1
60
0
100
AcDbSpline
70
4
71
3
72
10
73
6
40
0
40
0
40
0
40
0
40
0.5
40
0.5
40
1
40
1
40
1
40
1
41
1
10
-45
20
1.46794815359814
30
0
41
1
10
-44.7879272347745
20
1.74950613348335
30
0
41
1
10
-44.5722135635745
20
2.02980424284019
30
0
41
1
10
-44.1380211281579
20
2.58913115076186
30
0
41
1
10
-43.9193934819042
20
2.86817203356523
30
0
41
1
10
-43.7
20
3.14690158144623
30
0
0
SPLINE
5
EB
100
AcDbEntity
8
SK1
62
256
6
ByLayer
370
18
48
1
60
0
100
AcDbSpline
70
4
71
3
72
14
73
10
40
0
40
0
40
0
40
0
40
0.125
40
0.125
40
0.25
40
0.25
40
0.5
40
0.5
40
1
40
1
40
1
40
1
41
1
10
-43.6
20
4.96418813938089
30
0
41
1
10
-43.6
20
4.97010890336549
30
0
41
1
10
-43.6017220508865
20
4.97340359353999
30
0
41
1
10
-43.6068954324577
20
4.97627719566572
30
0
41
1
10
-43.610237321167
20
4.97596985868054
30
0
41
1
10
-43.6215324998379
20
4.97211837588543
30
0
41
1
10
-43.6303471072619
20
4.96584845124951
30
0
41
1
10
-43.658490206513
20
4.94172393022163
30
0
41
1
10
-43.678793979422
20
4.91918102628858
30
0
41
1
10
-43.7
20
4.89223973123848
30
0
0
SPLINE
5
EC
100
AcDbEntity
8
SK1
62
256
6
ByLayer
370
18
48
1
60
0
100
AcDbSpline
70
4
71
3
72
16
73
12
40
0
40
0
40
0
40
0
40
0.25
40
0.25
40
0.5
40
0.5
40
0.625
40
0.625
40
0.750000000000001
40
0.750000000000001
40
1
40
1
40
1
40
1
41
1
10
-45
20
2.85523339544443
30
0
41
1
10
-44.9782572036271
20
2.87574161234906
30
0
41
1
10
-44.959103332535
20
2.8982188275798
30
0
41
1
10
-44.9317221177683
20
2.946100141394
30
0
41
1
10
-44.9235337197963
20
2.97186590712053
30
0
41
1
10
-44.9228872428085
20
3.0105246543198
30
0
41
1
10
-44.9245997057753
20
3.02367807074728
30
0
41
1
10
-44.9316618592855
20
3.04908935634271
30
0
41
1
10
-44.9369628087936
20
3.06143777173179
30
0
41
1
10
-44.9575884316519
20
3.09752978302169
30
0
41
1
10
-44.9771665562814
20
3.11952921941494
30
0
41
1
10
-44.9999999999993
20
3.13955525330783
30
0
0
SPLINE
5
ED
100
AcDbEntity
8
SK1
62
256
6
ByLayer
370
18
48
1
60
0
100
AcDbSpline
70
4
71
3
72
10
73
6
40
0
40
0
40
0
40
0
40
0.5
40
0.5
40
1
40
1
40
1
40
1
41
1
10
-43.7
20
4.89223973123848
30
0
41
1
10
-43.9194028252285
20
4.61349831308434
30
0
41
1
10
-44.138034980359
20
4.33445153089576
30
0
41
1
10
-44.5722177279899
20
3.77513695327363
30
0
41
1
10
-44.7878762790972
20
3.49491193447804
30
0
41
1
10
-45
20
3.21328630339042
30
0
0
LINE
5
76
100
AcDbEntity
8
81
62
256
6
ByLayer
370
18
48
1
60
0
100
AcDbLine
10
95
20
0
30
0
11
100
21
0
31
0
39
0
210
0
220
0
230
1
0
LINE
5
77
100
AcDbEntity
8
1
62
256
6
ByLayer
370
18
48
1
60
0
100
AcDbLine
10
6.000795
20
5.097634
30
0
11
1.4417
21
5.094898
31
0
39
0
210
0
220
0
230
1
0
LINE
5
79
100
AcDbEntity
8
1
62
256
6
ByLayer
370
18
48
1
60
0
100
AcDbLine
10
32.089717
20
5.113287
30
0
11
31.233916
21
5.112774
31
0
39
0
210
0
220
0
230
1
0
LINE
5
7A
100
AcDbEntity
8
1
62
256
6
ByLayer
370
18
48
1
60
0
100
AcDbLine
10
91.992389
20
5.149229
30
0
11
91.153814
21
5.148726
31
0
39
0
210
0
220
0
230
1
0
LINE
5
7B
100
AcDbEntity
8
1
62
256
6
ByLayer
370
18
48
1
60
0
100
AcDbLine
10
91.153814
20
-5.148726
30
0
11
91.991622
21
-5.149228
31
0
39
0
210
0
220
0
230
1
0
LINE
5
7C
100
AcDbEntity
8
1
62
256
6
ByLayer
370
18
48
1
60
0
100
AcDbLine
10
31.233916
20
-5.112774
30
0
11
32.09061
21
-5.113288
31
0
39
0
210
0
220
0
230
1
0
LINE
5
7D
100
AcDbEntity
8
1
62
256
6
ByLayer
370
18
48
1
60
0
100
AcDbLine
10
1.4417
20
-5.094898
30
0
11
6.000795
21
-5.097634
31
0
39
0
210
0
220
0
230
1
0
LINE
5
7E
100
AcDbEntity
8
1
62
256
6
ByLayer
370
18
48
1
60
0
100
AcDbLine
10
62.040367
20
5.131258
30
0
11
61.19187
21
5.130749
31
0
39
0
210
0
220
0
230
1
0
LINE
5
7F
100
AcDbEntity
8
1
62
256
6
ByLayer
370
18
48
1
60
0
100
AcDbLine
10
61.19187
20
-5.130749
30
0
11
62.039689
21
-5.131257
31
0
39
0
210
0
220
0
230
1
0
LINE
5
80
100
AcDbEntity
8
SK1
62
256
6
ByLayer
370
18
48
1
60
0
100
AcDbLine
10
0
20
6
30
0
11
-43.556624
21
6
31
0
39
0
210
0
220
0
230
1
0
LINE
5
82
100
AcDbEntity
8
SK1
62
256
6
ByLayer
370
18
48
1
60
0
100
AcDbLine
10
-43.556624
20
-6
30
0
11
0
21
-6
31
0
39
0
210
0
220
0
230
1
0
LINE
5
83
100
AcDbEntity
8
SK1
62
256
6
ByLayer
370
18
48
1
60
0
100
AcDbLine
10
-43.556624
20
6
30
0
11
-45
21
3.5
31
0
39
0
210
0
220
0
230
1
0
LINE
5
84
100
AcDbEntity
8
SK1
62
256
6
ByLayer
370
18
48
1
60
0
100
AcDbLine
10
-45
20
-3.5
30
0
11
-43.556624
21
-6
31
0
39
0
210
0
220
0
230
1
0
LINE
5
85
100
AcDbEntity
8
SK4
62
256
6
ByLayer
370
18
48
0.05
60
0
100
AcDbLine
10
100
20
0
30
0
11
-50
21
0
31
0
39
0
210
0
220
0
230
1
0
LINE
5
87
100
AcDbEntity
8
4
62
256
6
ByLayer
370
18
48
0.05
60
0
100
AcDbLine
10
95
20
0
30
0
11
0
21
0
31
0
39
0
210
0
220
0
230
1
0
LINE
5
89
100
AcDbEntity
8
80
62
256
6
ByLayer
370
18
48
1
60
0
100
AcDbLine
10
0
20
0
30
0
11
-5
21
0
31
0
39
0
210
0
220
0
230
1
0
LINE
5
8A
100
AcDbEntity
8
1
62
256
6
ByLayer
370
18
48
1
60
0
100
AcDbLine
10
31.350822
20
0.345788
30
0
11
31.349393
21
0.346621
31
0
39
0
210
0
220
0
230
1
0
LINE
5
8B
100
AcDbEntity
8
1
62
256
6
ByLayer
370
18
48
1
60
0
100
AcDbLine
10
94.989155
20
0.048653
30
0
11
95
21
0
31
0
39
0
210
0
220
0
230
1
0
LINE
5
8C
100
AcDbEntity
8
1
62
256
6
ByLayer
370
13
48
1
60
0
100
AcDbLine
10
94.729377
20
0.974793
30
0
11
93.546359
21
0.974793
31
0
39
0
210
0
220
0
230
1
0
LINE
5
8D
100
AcDbEntity
8
1
62
256
6
ByLayer
370
13
48
1
60
0
100
AcDbLine
10
0.72061
20
5.547449
30
0
11
0.72061
21
-5.547449
31
0
39
0
210
0
220
0
230
1
0
LINE
5
8E
100
AcDbEntity
8
1
62
256
6
ByLayer
370
13
48
1
60
0
100
AcDbLine
10
93.546359
20
0.974793
30
0
11
94.912608
21
0.298334
31
0
39
0
210
0
220
0
230
1
0
LINE
5
8F
100
AcDbEntity
8
1
62
256
6
ByLayer
370
18
48
1
60
0
100
AcDbLine
10
95
20
0
30
0
11
93.209637
21
-4.918981
31
0
39
0
210
0
220
0
230
1
0
LINE
5
90
100
AcDbEntity
8
1
62
256
6
ByLayer
370
18
48
1
60
0
100
AcDbLine
10
94.912608
20
-0.298334
30
0
11
94.729377
21
-0.974793
31
0
39
0
210
0
220
0
230
1
0
LINE
5
91
100
AcDbEntity
8
1
62
256
6
ByLayer
370
18
48
1
60
0
100
AcDbLine
10
92.406638
20
-2.895652
30
0
11
94.894467
21
-0.123011
31
0
39
0
210
0
220
0
230
1
0
LINE
5
92
100
AcDbEntity
8
1
62
256
6
ByLayer
370
18
48
1
60
0
100
AcDbLine
10
0
20
-6
30
0
11
0
21
6
31
0
39
0
210
0
220
0
230
1
0
LINE
5
93
100
AcDbEntity
8
1
62
256
6
ByLayer
370
13
48
1
60
0
100
AcDbLine
10
1.4417
20
5.094898
30
0
11
1.4417
21
-5.094898
31
0
39
0
210
0
220
0
230
1
0
LINE
5
94
100
AcDbEntity
8
1
62
256
6
ByLayer
370
18
48
1
60
0
100
AcDbLine
10
95
20
0
30
0
11
94.989155
21
-0.048653
31
0
39
0
210
0
220
0
230
1
0
LINE
5
95
100
AcDbEntity
8
1
62
256
6
ByLayer
370
13
48
1
60
0
100
AcDbLine
10
93.3769
20
0.628369
30
0
11
94.894467
21
-0.123011
31
0
39
0
210
0
220
0
230
1
0
LINE
5
96
100
AcDbEntity
8
1
62
256
6
ByLayer
370
18
48
1
60
0
100
AcDbLine
10
94.912608
20
0.298334
30
0
11
94.729377
21
0.974793
31
0
39
0
210
0
220
0
230
1
0
LINE
5
97
100
AcDbEntity
8
SK1
62
256
6
ByLayer
370
18
48
1
60
0
100
AcDbLine
10
-43.556624
20
6
30
0
11
-43.556624
21
-6
31
0
39
0
210
0
220
0
230
1
0
LINE
5
98
100
AcDbEntity
8
SK1
62
256
6
ByLayer
370
18
48
1
60
0
100
AcDbLine
10
-45
20
2.855233
30
0
11
-45
21
1.467897
31
0
39
0
210
0
220
0
230
1
0
LINE
5
99
100
AcDbEntity
8
SK1
62
256
6
ByLayer
370
18
48
1
60
0
100
AcDbLine
10
-45
20
3.5
30
0
11
-45
21
3.213286
31
0
39
0
210
0
220
0
230
1
0
LINE
5
9A
100
AcDbEntity
8
SK1
62
256
6
ByLayer
370
18
48
1
60
0
100
AcDbLine
10
-43.6
20
3.358477
30
0
11
-43.6
21
4.964188
31
0
39
0
210
0
220
0
230
1
0
LINE
5
9B
100
AcDbEntity
8
SK1
62
256
6
ByLayer
370
13
48
1
60
0
100
AcDbLine
10
-43.7
20
4.89224
30
0
11
-43.7
21
3.146867
31
0
39
0
210
0
220
0
230
1
0
LINE
5
9C
100
AcDbEntity
8
SK1
62
256
6
ByLayer
370
18
48
1
60
0
100
AcDbLine
10
0
20
-6
30
0
11
0
21
6
31
0
39
0
210
0
220
0
230
1
0
LINE
5
9D
100
AcDbEntity
8
SK1
62
256
6
ByLayer
370
18
48
1
60
0
100
AcDbLine
10
-45
20
1.467948
30
0
11
-45
21
-3.5
31
0
39
0
210
0
220
0
230
1
0
LINE
5
9E
100
AcDbEntity
8
SK1
62
256
6
ByLayer
370
18
48
1
60
0
100
AcDbLine
10
-45
20
3.213286
30
0
11
-45
21
3.139555
31
0
39
0
210
0
220
0
230
1
0
MTEXT
5
EE
100
AcDbEntity
8
SK6
62
256
6
ByLayer
370
13
48
1
60
0
100
AcDbMText
10
27.129169
20
37.532694
30
0
210
0
220
0
230
1
1
\W0.7415;R840-1030-70-A1A1220
40
3.5
41
0
44
1.084337
50
0
71
8
72
5
7
iso_b_vert
0
DIMENSION
5
FB
100
AcDbEntity
8
SK2
62
256
6
ByLayer
370
13
48
1
60
0
100
AcDbDimension
2
DimnDraft3D1
10
93.23
20
-15.363398
30
0
11
44.980059
21
-15.363398
31
0
70
32
71
5
72
1
41
1
210
0
220
0
230
1
3
Standard
100
AcDbAlignedDimension
13
0
23
-1.5875
33
0
14
93.23
24
-6.7375
34
0
50
0
100
AcDbRotatedDimension
1001
ACAD
1000
DSTYLE
1002
{
1070
   279
1070
     0
1070
   172
1070
     1
1070
   173
1070
     1
1070
   340
1005
EF
1070
   271
1070
     2
1070
   272
1070
     2
1070
    77
1070
     1
1070
    73
1070
     0
1070
   171
1070
     3
1070
   274
1070
     4
1070
   177
1070
    35
1070
   176
1070
    35
1070
   178
1070
    35
1070
    48
1040
-0.005
1070
    41
1041
3.5
1070
   147
1041
1.75
1070
    42
1041
1.5875
1070
    44
1041
2.0
1070
   140
1041
3.5
1070
   343
1005
0
1070
   344
1005
0
1002
}
0
DIMENSION
5
105
100
AcDbEntity
8
SK2
62
256
6
ByLayer
370
13
48
1
60
0
100
AcDbDimension
2
DimnDraft3D2
10
95
20
-34.692985
30
0
11
24.5713
21
-34.692985
31
0
70
32
71
5
72
1
41
1
210
0
220
0
230
1
3
Standard
100
AcDbAlignedDimension
13
-45
23
-7.5875
33
0
14
95
24
-1.5875
34
0
50
0
100
AcDbRotatedDimension
1001
ACAD
1000
DSTYLE
1002
{
1070
   279
1070
     0
1070
   172
1070
     1
1070
   173
1070
     1
1070
   340
1005
EF
1070
   271
1070
     2
1070
   272
1070
     2
1070
    77
1070
     1
1070
    73
1070
     0
1070
   171
1070
     3
1070
   274
1070
     4
1070
   177
1070
    35
1070
   176
1070
    35
1070
   178
1070
    35
1070
    48
1040
-0.005
1070
    41
1041
3.5
1070
   147
1041
1.75
1070
    42
1041
1.5875
1070
    44
1041
2.0
1070
   140
1041
3.5
1070
   343
1005
0
1070
   344
1005
0
1002
}
0
DIMENSION
5
10F
100
AcDbEntity
8
SK2
62
256
6
ByLayer
370
13
48
1
60
0
100
AcDbDimension
2
DimnDraft3D3
10
95
20
16.759119
30
0
11
52.915
21
16.759119
31
0
70
32
71
5
72
1
41
1
210
0
220
0
230
1
3
Standard
100
AcDbAlignedDimension
13
10.83
23
6.7375
33
0
14
95
24
1.5875
34
0
50
0
100
AcDbRotatedDimension
1001
ACAD
1000
DSTYLE
1002
{
1070
   279
1070
     0
1070
   172
1070
     1
1070
   173
1070
     1
1070
   340
1005
EF
1070
   271
1070
     2
1070
   272
1070
     2
1070
    77
1070
     1
1070
    73
1070
     0
1070
   171
1070
     3
1070
   274
1070
     4
1070
   177
1070
    35
1070
   176
1070
    35
1070
   178
1070
    35
1070
    48
1040
-0.005
1070
    41
1041
3.5
1070
   147
1041
1.75
1070
    42
1041
1.5875
1070
    44
1041
2.0
1070
   140
1041
3.5
1070
   343
1005
0
1070
   344
1005
0
1002
}
0
DIMENSION
5
119
100
AcDbEntity
8
SK2
62
256
6
ByLayer
370
13
48
1
60
0
100
AcDbDimension
2
DimnDraft3D4
10
93.23
20
-17.952503
30
0
11
104.981425
21
-17.952503
31
0
70
32
71
5
72
1
41
1
210
0
220
0
230
1
3
Standard
100
AcDbAlignedDimension
13
95
23
-1.5875
33
0
14
93.23
24
-6.7375
34
0
50
0
100
AcDbRotatedDimension
1001
ACAD
1000
DSTYLE
1002
{
1070
   279
1070
     0
1070
   172
1070
     1
1070
   173
1070
     1
1070
   340
1005
EF
1070
   271
1070
     2
1070
   272
1070
     2
1070
    77
1070
     1
1070
    73
1070
     0
1070
   171
1070
     3
1070
   274
1070
     4
1070
   177
1070
    35
1070
   176
1070
    35
1070
   178
1070
    35
1070
    48
1040
-0.005
1070
    41
1041
3.5
1070
   147
1041
1.75
1070
    42
1041
1.5875
1070
    44
1041
2.0
1070
   140
1041
3.5
1070
   343
1005
0
1070
   344
1005
0
1002
}
0
DIMENSION
5
123
100
AcDbEntity
8
SK2
62
256
6
ByLayer
370
13
48
1
60
0
100
AcDbDimension
2
DimnDraft3D5
10
93.23
20
-24.343428
30
0
11
21.490676
21
-24.343428
31
0
70
32
71
5
72
1
41
1
210
0
220
0
230
1
3
Standard
100
AcDbAlignedDimension
13
-45
23
-7.5875
33
0
14
93.23
24
-6.7375
34
0
50
0
100
AcDbRotatedDimension
1001
ACAD
1000
DSTYLE
1002
{
1070
   279
1070
     0
1070
   172
1070
     1
1070
   173
1070
     1
1070
   340
1005
EF
1070
   271
1070
     2
1070
   272
1070
     2
1070
    77
1070
     1
1070
    73
1070
     0
1070
   171
1070
     3
1070
   274
1070
     4
1070
   177
1070
    35
1070
   176
1070
    35
1070
   178
1070
    35
1070
    48
1040
-0.005
1070
    41
1041
3.5
1070
   147
1041
1.75
1070
    42
1041
1.5875
1070
    44
1041
2.0
1070
   140
1041
3.5
1070
   343
1005
0
1070
   344
1005
0
1002
}
0
DIMENSION
5
12E
100
AcDbEntity
8
SK2
62
256
6
ByLayer
370
13
48
1
60
0
100
AcDbDimension
2
DimnDraft3D6
10
-55.625163
20
6
30
0
11
-56.250163
21
24.47418
31
0
70
33
71
5
72
1
41
1
210
0
220
0
230
1
3
Standard
100
AcDbAlignedDimension
13
-46.5875
23
-6
33
0
14
-46.5875
24
6
34
0
1001
ACAD
1000
DSTYLE
1002
{
1070
   279
1070
     0
1070
    74
1070
     0
1070
   173
1070
     1
1070
   340
1005
EF
1070
   271
1070
     3
1070
   272
1070
     2
1070
    77
1070
     1
1070
    73
1070
     0
1070
   171
1070
     3
1070
   274
1070
     4
1070
   177
1070
    35
1070
   176
1070
    35
1070
   178
1070
    35
1070
    48
1040
-0.005
1070
    41
1041
3.5
1070
   147
1041
1.75
1070
    42
1041
1.5875
1070
    44
1041
2.0
1070
   140
1041
3.5
1070
   343
1005
0
1070
   344
1005
0
1002
}
0
DIMENSION
5
139
100
AcDbEntity
8
2
62
256
6
ByLayer
370
13
48
1
60
0
100
AcDbDimension
2
DimnDraft3D7
10
109.083343
20
5.15
30
0
11
104.458343
21
22.217266
31
0
70
33
71
5
72
1
41
1
210
0
220
0
230
1
3
Standard
100
AcDbAlignedDimension
13
94.8175
23
-5.15
33
0
14
94.8175
24
5.15
34
0
1001
ACAD
1000
DSTYLE
1002
{
1070
   279
1070
     0
1070
    74
1070
     0
1070
   173
1070
     1
1070
   340
1005
EF
1070
   271
1070
     3
1070
   272
1070
     2
1070
    77
1070
     1
1070
    73
1070
     0
1070
   171
1070
     3
1070
   274
1070
     4
1070
   177
1070
    35
1070
   176
1070
    35
1070
   178
1070
    35
1070
    48
1040
-0.005
1070
    41
1041
3.5
1070
   147
1041
1.75
1070
    42
1041
1.5875
1070
    44
1041
2.0
1070
   140
1041
3.5
1070
   343
1005
0
1070
   344
1005
0
1002
}
0
ENDSEC
0
SECTION
2
OBJECTS
0
DICTIONARY
5
1a4
330
0
100
AcDbDictionary
280
0
281
1
3
ACAD_GROUP
350
1a5
3
ACAD_MLINESTYLE
350
1a6
0
DICTIONARY
5
1a5
330
0
100
AcDbDictionary
280
0
281
1
0
DICTIONARY
5
1a6
330
0
100
AcDbDictionary
280
0
281
1
3
Standard
350
18
0
MLINESTYLE
5
18
330
1a6
100
AcDbMlineStyle
2
Standard
70
0
3

62
256
51
90
52
90
71
2
49
-0.5
62
256
6
ByLayer
49
0.5
62
256
6
ByLayer
0
RASTERVARIABLES
5
192
330

100
AcDbRasterVariables
90
0
70
1
71
1
72
1
0
ENDSEC
0
EOF
