0
SECTION
2
HEADER
9
$ACADVER
1
AC1015
9
$DWGCODEPAGE
3
ANSI_1252
9
$HANDSEED
5
1aa
9
$ANGBASE
50
0
9
$ANGDIR
70
0
9
$ATTMODE
70
1
9
$AUNITS
70
0
9
$AUPREC
70
0
9
$CECOLOR
62
256
9
$CELTSCALE
40
1
9
$CELTYPE
6
ByLayer
9
$CELWEIGHT
370
18
9
$CLAYER
8
0
9
$CMLJUST
70
0
9
$CMLSCALE
40
1
9
$CMLSTYLE
2
Standard
9
$DIMSTYLE
2
Standard
9
$TEXTSIZE
40
0.2
9
$TEXTSTYLE
7
Standard
9
$LUNITS
70
2
9
$LUPREC
70
4
9
$EXTNAMES
290
1
9
$INSUNITS
70
4
9
$LTSCALE
40
1
9
$LWDISPLAY
290
1
9
$PDMODE
70
0
9
$PDSIZE
40
0
9
$PLINEGEN
70
0
0
ENDSEC
0
SECTION
2
CLASSES
0
CLASS
1
RASTERVARIABLES
2
AcDbRasterVariables
3
ISM
90
0
280
0
281
0
0
ENDSEC
0
SECTION
2
TABLES
0
TABLE
2
VPORT
5
1a0
100
AcDbSymbolTable
0
VPORT
5
1
100
AcDbSymbolTableRecord
100
AcDbViewportTableRecord
2
*Active
70
0
10
0
20
0
11
1
21
1
12
-1
22
1
13
0
23
0
14
0.5
24
0.5
15
10
25
10
16
0
26
0
36
1
17
0
27
0
37
0
0
ENDTAB
0
TABLE
2
LTYPE
5
1a1
100
AcDbSymbolTable
0
LTYPE
5
14
100
AcDbSymbolTableRecord
100
AcDbLinetypeTableRecord
70
0
2
ByBlock
3

72
65
73
0
40
0
0
LTYPE
5
15
100
AcDbSymbolTableRecord
100
AcDbLinetypeTableRecord
70
0
2
ByLayer
3

72
65
73
0
40
0
0
LTYPE
5
16
100
AcDbSymbolTableRecord
100
AcDbLinetypeTableRecord
70
0
2
CONTINUOUS
3
Solid line
72
65
73
0
40
0
0
LTYPE
5
6A
100
AcDbSymbolTableRecord
100
AcDbLinetypeTableRecord
70
0
2
CENTER
3
____ _ ____ _ ____ _ ____
72
65
73
4
40
47.5
49
22
74
0
49
-8.5
74
0
49
8.5
74
0
49
-8.5
74
0
0
LTYPE
5
6B
100
AcDbSymbolTableRecord
100
AcDbLinetypeTableRecord
70
0
2
DASHED
3
__ __ __ __ __ __ __ __ __
72
65
73
2
40
25.72
49
12.86
74
0
49
-12.86
74
0
0
ENDTAB
0
TABLE
2
LAYER
5
1a2
100
AcDbSymbolTable
0
LAYER
5
10
100
AcDbSymbolTableRecord
100
AcDbLayerTableRecord
2
0
70
0
62
7
6
CONTINUOUS
290
1
370
-3
390
0
0
LAYER
5
6D
100
AcDbSymbolTableRecord
100
AcDbLayerTableRecord
2
81
70
0
62
-3
6
CONTINUOUS
290
1
370
-3
390
0
0
LAYER
5
6F
100
AcDbSymbolTableRecord
100
AcDbLayerTableRecord
2
80
70
0
62
-6
6
CONTINUOUS
290
1
370
-3
390
0
0
LAYER
5
74
100
AcDbSymbolTableRecord
100
AcDbLayerTableRecord
2
2
70
0
62
7
6
CONTINUOUS
290
1
370
-3
390
0
0
LAYER
5
78
100
AcDbSymbolTableRecord
100
AcDbLayerTableRecord
2
1
70
0
62
4
6
CONTINUOUS
290
1
370
-3
390
0
0
LAYER
5
88
100
AcDbSymbolTableRecord
100
AcDbLayerTableRecord
2
4
70
0
62
-2
6
CENTER
290
1
370
-3
390
0
0
LAYER
5
18c
100
AcDbSymbolTableRecord
100
AcDbLayerTableRecord
2
SK2
70
0
62
7
6
CONTINUOUS
290
1
370
-3
390
0
0
LAYER
5
18d
100
AcDbSymbolTableRecord
100
AcDbLayerTableRecord
2
SK1
70
0
62
4
6
CONTINUOUS
290
1
370
-3
390
0
0
LAYER
5
18e
100
AcDbSymbolTableRecord
100
AcDbLayerTableRecord
2
SK4
70
0
62
2
6
CENTER
290
1
370
-3
390
0
0
LAYER
5
18f
100
AcDbSymbolTableRecord
100
AcDbLayerTableRecord
2
SK6
70
0
62
5
6
CONTINUOUS
290
1
370
-3
390
0
0
ENDTAB
0
TABLE
2
STYLE
5
1a3
100
AcDbSymbolTable
0
STYLE
5
11
100
AcDbSymbolTableRecord
100
AcDbTextStyleTableRecord
2
Standard
3
txt
70
0
71
0
40
0
41
1
42
0
50
0
0
STYLE
5
E8
100
AcDbSymbolTableRecord
100
AcDbTextStyleTableRecord
2
iso_b_vert
3
simplex.shx
70
0
71
0
40
0
41
1
42
0
50
0
0
STYLE
5
E9
100
AcDbSymbolTableRecord
100
AcDbTextStyleTableRecord
2
DWGDirectTextStyle
3
simplex
70
0
71
0
40
0
41
1
42
0
50
0
0
ENDTAB
0
TABLE
2
DIMSTYLE
5
1a4
100
AcDbSymbolTable
100
AcDbDimStyleTable
0
DIMSTYLE
105
27
100
AcDbSymbolTableRecord
100
AcDbDimStyleTableRecord
2
Standard
70
0
3
<>
41
0.18
42
0.0625
44
0.18
140
0.18
147
0.09
73
0
74
0
77
1
271
2
275
0
278
52
280
0
340
11
0
ENDTAB
0
TABLE
2
VIEW
5
1a5
100
AcDbSymbolTable
0
ENDTAB
0
TABLE
2
UCS
5
1a6
100
AcDbSymbolTable
0
ENDTAB
0
TABLE
2
APPID
5
1a7
100
AcDbSymbolTable
0
APPID
5
12
100
AcDbSymbolTableRecord
100
AcDbRegAppTableRecord
2
ACAD
70
0
0
ENDTAB
0
TABLE
2
BLOCK_RECORD
5
1a8
100
AcDbSymbolTable
0
BLOCK_RECORD
5
1F
100
AcDbSymbolTableRecord
100
AcDbBlockTableRecord
2
*Model_Space
340
0
70
0
0
BLOCK_RECORD
5
1B
100
AcDbSymbolTableRecord
100
AcDbBlockTableRecord
2
*Paper_Space
340
0
70
0
0
BLOCK_RECORD
5
23
100
AcDbSymbolTableRecord
100
AcDbBlockTableRecord
2
*Paper_Space0
340
0
70
0
0
BLOCK_RECORD
5
EB
100
AcDbSymbolTableRecord
100
AcDbBlockTableRecord
2
DimnDraft3D1
340
0
70
0
0
BLOCK_RECORD
5
F5
100
AcDbSymbolTableRecord
100
AcDbBlockTableRecord
2
DimnDraft3D2
340
0
70
0
0
BLOCK_RECORD
5
FF
100
AcDbSymbolTableRecord
100
AcDbBlockTableRecord
2
DimnDraft3D3
340
0
70
0
0
BLOCK_RECORD
5
109
100
AcDbSymbolTableRecord
100
AcDbBlockTableRecord
2
DimnDraft3D4
340
0
70
0
0
BLOCK_RECORD
5
113
100
AcDbSymbolTableRecord
100
AcDbBlockTableRecord
2
DimnDraft3D5
340
0
70
0
0
BLOCK_RECORD
5
11D
100
AcDbSymbolTableRecord
100
AcDbBlockTableRecord
2
DimnDraft3D6
340
0
70
0
0
BLOCK_RECORD
5
128
100
AcDbSymbolTableRecord
100
AcDbBlockTableRecord
2
DimnDraft3D7
340
0
70
0
0
ENDTAB
0
ENDSEC
0
SECTION
2
BLOCKS
0
BLOCK
5
20
100
AcDbEntity
8
0
100
AcDbBlockBegin
2
*Model_Space
70
0
10
0
20
0
30
0
3
*Model_Space
0
ENDBLK
5
21
100
AcDbEntity
8
0
100
AcDbBlockEnd
0
BLOCK
5
1C
100
AcDbEntity
8
0
100
AcDbBlockBegin
2
*Paper_Space
70
0
10
0
20
0
30
0
3
*Paper_Space
0
ENDBLK
5
1D
100
AcDbEntity
8
0
100
AcDbBlockEnd
0
BLOCK
5
24
100
AcDbEntity
8
0
100
AcDbBlockBegin
2
*Paper_Space0
70
0
10
0
20
0
30
0
3
*Paper_Space0
0
ENDBLK
5
25
100
AcDbEntity
8
0
100
AcDbBlockEnd
0
BLOCK
5
F2
100
AcDbEntity
8
0
100
AcDbBlockBegin
2
DimnDraft3D1
70
0
10
0
20
0
30
0
3
DimnDraft3D1
0
MTEXT
5
EC
100
AcDbEntity
8
SK2
62
256
6
ByLayer
370
13
48
1
60
0
100
AcDbMText
10
29.968875
20
-14.488398
30
0
210
0
220
0
230
1
1
\W0.6713;71,23
40
3.5
41
0
44
1.084337
50
0
71
7
72
5
7
iso_b_vert
0
LINE
5
ED
100
AcDbEntity
8
SK2
62
256
6
ByLayer
370
13
48
1
60
0
100
AcDbLine
10
0
20
-1.5875
30
0
11
0
21
-17.363398
31
0
39
0
210
0
220
0
230
1
0
LINE
5
EE
100
AcDbEntity
8
SK2
62
256
6
ByLayer
370
13
48
1
60
0
100
AcDbLine
10
71.23
20
-6.7375
30
0
11
71.23
21
-17.363398
31
0
39
0
210
0
220
0
230
1
0
LINE
5
EF
100
AcDbEntity
8
SK2
62
256
6
ByLayer
370
13
48
1
60
0
100
AcDbLine
10
0
20
-15.363398
30
0
11
71.23
21
-15.363398
31
0
39
0
210
0
220
0
230
1
0
SOLID
5
F0
100
AcDbEntity
8
SK2
62
256
6
ByLayer
370
13
48
1
60
0
100
AcDbTrace
10
0
20
-15.363398
30
0
11
3.499998
21
-14.902615
31
0
12
3.500002
22
-15.824182
32
0
13
0
23
-15.363398
33
0
39
0
210
0
220
0
230
1
0
SOLID
5
F1
100
AcDbEntity
8
SK2
62
256
6
ByLayer
370
13
48
1
60
0
100
AcDbTrace
10
71.23
20
-15.363398
30
0
11
67.730002
21
-15.824182
31
0
12
67.729998
22
-14.902615
32
0
13
71.23
23
-15.363398
33
0
39
0
210
0
220
0
230
1
0
ENDBLK
5
F3
100
AcDbEntity
8
0
100
AcDbBlockEnd
0
BLOCK
5
FC
100
AcDbEntity
8
0
100
AcDbBlockBegin
2
DimnDraft3D2
70
0
10
0
20
0
30
0
3
DimnDraft3D2
0
MTEXT
5
F6
100
AcDbEntity
8
SK2
62
256
6
ByLayer
370
13
48
1
60
0
100
AcDbMText
10
8.689721
20
-33.817985
30
0
210
0
220
0
230
1
1
\W0.6440;118,00
40
3.5
41
0
44
1.084337
50
0
71
7
72
5
7
iso_b_vert
0
LINE
5
F7
100
AcDbEntity
8
SK2
62
256
6
ByLayer
370
13
48
1
60
0
100
AcDbLine
10
-45
20
-7.5875
30
0
11
-45
21
-36.692985
31
0
39
0
210
0
220
0
230
1
0
LINE
5
F8
100
AcDbEntity
8
SK2
62
256
6
ByLayer
370
13
48
1
60
0
100
AcDbLine
10
73
20
-1.5875
30
0
11
73
21
-36.692985
31
0
39
0
210
0
220
0
230
1
0
LINE
5
F9
100
AcDbEntity
8
SK2
62
256
6
ByLayer
370
13
48
1
60
0
100
AcDbLine
10
-45
20
-34.692985
30
0
11
73
21
-34.692985
31
0
39
0
210
0
220
0
230
1
0
SOLID
5
FA
100
AcDbEntity
8
SK2
62
256
6
ByLayer
370
13
48
1
60
0
100
AcDbTrace
10
-45
20
-34.692985
30
0
11
-41.500002
21
-34.232202
31
0
12
-41.499998
22
-35.153769
32
0
13
-45
23
-34.692985
33
0
39
0
210
0
220
0
230
1
0
SOLID
5
FB
100
AcDbEntity
8
SK2
62
256
6
ByLayer
370
13
48
1
60
0
100
AcDbTrace
10
73
20
-34.692985
30
0
11
69.500002
21
-35.153769
31
0
12
69.499998
22
-34.232202
32
0
13
73
23
-34.692985
33
0
39
0
210
0
220
0
230
1
0
ENDBLK
5
FD
100
AcDbEntity
8
0
100
AcDbBlockEnd
0
BLOCK
5
106
100
AcDbEntity
8
0
100
AcDbBlockBegin
2
DimnDraft3D3
70
0
10
0
20
0
30
0
3
DimnDraft3D3
0
MTEXT
5
100
100
AcDbEntity
8
SK2
62
256
6
ByLayer
370
13
48
1
60
0
100
AcDbMText
10
41.916316
20
17.634119
30
0
210
0
220
0
230
1
1
\W0.7317;53,27
40
3.5
41
0
44
1.084337
50
0
71
7
72
5
7
iso_b_vert
0
LINE
5
101
100
AcDbEntity
8
SK2
62
256
6
ByLayer
370
13
48
1
60
0
100
AcDbLine
10
19.73
20
6.7375
30
0
11
19.73
21
18.759119
31
0
39
0
210
0
220
0
230
1
0
LINE
5
102
100
AcDbEntity
8
SK2
62
256
6
ByLayer
370
13
48
1
60
0
100
AcDbLine
10
73
20
1.5875
30
0
11
73
21
18.759119
31
0
39
0
210
0
220
0
230
1
0
LINE
5
103
100
AcDbEntity
8
SK2
62
256
6
ByLayer
370
13
48
1
60
0
100
AcDbLine
10
19.73
20
16.759119
30
0
11
73
21
16.759119
31
0
39
0
210
0
220
0
230
1
0
SOLID
5
104
100
AcDbEntity
8
SK2
62
256
6
ByLayer
370
13
48
1
60
0
100
AcDbTrace
10
19.73
20
16.759119
30
0
11
23.229998
21
17.219903
31
0
12
23.230002
22
16.298335
32
0
13
19.73
23
16.759119
33
0
39
0
210
0
220
0
230
1
0
SOLID
5
105
100
AcDbEntity
8
SK2
62
256
6
ByLayer
370
13
48
1
60
0
100
AcDbTrace
10
73
20
16.759119
30
0
11
69.500002
21
16.298335
31
0
12
69.499998
22
17.219903
32
0
13
73
23
16.759119
33
0
39
0
210
0
220
0
230
1
0
ENDBLK
5
107
100
AcDbEntity
8
0
100
AcDbBlockEnd
0
BLOCK
5
110
100
AcDbEntity
8
0
100
AcDbBlockBegin
2
DimnDraft3D4
70
0
10
0
20
0
30
0
3
DimnDraft3D4
0
MTEXT
5
10A
100
AcDbEntity
8
SK2
62
256
6
ByLayer
370
13
48
1
60
0
100
AcDbMText
10
80.278136
20
-17.077503
30
0
210
0
220
0
230
1
1
\W0.6367;1,77
40
3.5
41
0
44
1.084337
50
0
71
7
72
5
7
iso_b_vert
0
LINE
5
10B
100
AcDbEntity
8
SK2
62
256
6
ByLayer
370
13
48
1
60
0
100
AcDbLine
10
73
20
-1.5875
30
0
11
73
21
-19.952503
31
0
39
0
210
0
220
0
230
1
0
LINE
5
10C
100
AcDbEntity
8
SK2
62
256
6
ByLayer
370
13
48
1
60
0
100
AcDbLine
10
71.23
20
-6.7375
30
0
11
71.23
21
-19.952503
31
0
39
0
210
0
220
0
230
1
0
LINE
5
10D
100
AcDbEntity
8
SK2
62
256
6
ByLayer
370
13
48
1
60
0
100
AcDbLine
10
62.48
20
-17.952503
30
0
11
86.559715
21
-17.952503
31
0
39
0
210
0
220
0
230
1
0
SOLID
5
10E
100
AcDbEntity
8
SK2
62
256
6
ByLayer
370
13
48
1
60
0
100
AcDbTrace
10
73
20
-17.952503
30
0
11
76.499998
21
-17.491719
31
0
12
76.500002
22
-18.413287
32
0
13
73
23
-17.952503
33
0
39
0
210
0
220
0
230
1
0
SOLID
5
10F
100
AcDbEntity
8
SK2
62
256
6
ByLayer
370
13
48
1
60
0
100
AcDbTrace
10
71.23
20
-17.952503
30
0
11
67.730002
21
-18.413287
31
0
12
67.729998
22
-17.491719
32
0
13
71.23
23
-17.952503
33
0
39
0
210
0
220
0
230
1
0
ENDBLK
5
111
100
AcDbEntity
8
0
100
AcDbBlockEnd
0
BLOCK
5
11A
100
AcDbEntity
8
0
100
AcDbBlockBegin
2
DimnDraft3D5
70
0
10
0
20
0
30
0
3
DimnDraft3D5
0
MTEXT
5
114
100
AcDbEntity
8
SK2
62
256
6
ByLayer
370
13
48
1
60
0
100
AcDbMText
10
5.609097
20
-23.468428
30
0
210
0
220
0
230
1
1
\W0.6440;116,23
40
3.5
41
0
44
1.084337
50
0
71
7
72
5
7
iso_b_vert
0
LINE
5
115
100
AcDbEntity
8
SK2
62
256
6
ByLayer
370
13
48
1
60
0
100
AcDbLine
10
-45
20
-7.5875
30
0
11
-45
21
-26.343428
31
0
39
0
210
0
220
0
230
1
0
LINE
5
116
100
AcDbEntity
8
SK2
62
256
6
ByLayer
370
13
48
1
60
0
100
AcDbLine
10
71.23
20
-6.7375
30
0
11
71.23
21
-26.343428
31
0
39
0
210
0
220
0
230
1
0
LINE
5
117
100
AcDbEntity
8
SK2
62
256
6
ByLayer
370
13
48
1
60
0
100
AcDbLine
10
-45
20
-24.343428
30
0
11
71.23
21
-24.343428
31
0
39
0
210
0
220
0
230
1
0
SOLID
5
118
100
AcDbEntity
8
SK2
62
256
6
ByLayer
370
13
48
1
60
0
100
AcDbTrace
10
-45
20
-24.343428
30
0
11
-41.500002
21
-23.882645
31
0
12
-41.499998
22
-24.804212
32
0
13
-45
23
-24.343428
33
0
39
0
210
0
220
0
230
1
0
SOLID
5
119
100
AcDbEntity
8
SK2
62
256
6
ByLayer
370
13
48
1
60
0
100
AcDbTrace
10
71.23
20
-24.343428
30
0
11
67.730002
21
-24.804212
31
0
12
67.729998
22
-23.882645
32
0
13
71.23
23
-24.343428
33
0
39
0
210
0
220
0
230
1
0
ENDBLK
5
11B
100
AcDbEntity
8
0
100
AcDbBlockEnd
0
BLOCK
5
125
100
AcDbEntity
8
0
100
AcDbBlockBegin
2
DimnDraft3D6
70
0
10
0
20
0
30
0
3
DimnDraft3D6
0
MTEXT
5
11E
100
AcDbEntity
8
SK2
62
256
6
ByLayer
370
13
48
1
60
0
100
AcDbMText
10
-55.375163
20
25.34918
30
0
210
0
220
0
230
1
1
\W0.6930;12,000
40
3.5
41
0
44
1.084337
50
90
71
7
72
5
7
iso_b_vert
0
MTEXT
5
11F
100
AcDbEntity
8
SK2
62
256
6
ByLayer
370
13
48
1
60
0
100
AcDbMText
10
-55.375163
20
20.126524
30
0
210
0
220
0
230
1
1
%%c
40
3.5
41
0
44
1.084337
50
90
71
7
72
5
7
iso_b_vert
0
LINE
5
120
100
AcDbEntity
8
SK2
62
256
6
ByLayer
370
13
48
1
60
0
100
AcDbLine
10
-46.5875
20
-6
30
0
11
-55.625163
21
-6
31
0
39
0
210
0
220
0
230
1
0
LINE
5
121
100
AcDbEntity
8
SK2
62
256
6
ByLayer
370
13
48
1
60
0
100
AcDbLine
10
-46.5875
20
6
30
0
11
-55.625163
21
6
31
0
39
0
210
0
220
0
230
1
0
LINE
5
122
100
AcDbEntity
8
SK2
62
256
6
ByLayer
370
13
48
1
60
0
100
AcDbLine
10
-53.625163
20
-6
30
0
11
-53.625163
21
36.862338
31
0
39
0
210
0
220
0
230
1
0
SOLID
5
123
100
AcDbEntity
8
SK2
62
256
6
ByLayer
370
13
48
1
60
0
100
AcDbTrace
10
-53.625163
20
-6
30
0
11
-54.085946
21
-2.500002
31
0
12
-53.164379
22
-2.499998
32
0
13
-53.625163
23
-6
33
0
39
0
210
0
220
0
230
1
0
SOLID
5
124
100
AcDbEntity
8
SK2
62
256
6
ByLayer
370
13
48
1
60
0
100
AcDbTrace
10
-53.625163
20
6
30
0
11
-53.164379
21
2.500002
31
0
12
-54.085946
22
2.499998
32
0
13
-53.625163
23
6
33
0
39
0
210
0
220
0
230
1
0
ENDBLK
5
126
100
AcDbEntity
8
0
100
AcDbBlockEnd
0
BLOCK
5
130
100
AcDbEntity
8
0
100
AcDbBlockBegin
2
DimnDraft3D7
70
0
10
0
20
0
30
0
3
DimnDraft3D7
0
MTEXT
5
129
100
AcDbEntity
8
2
62
256
6
ByLayer
370
13
48
1
60
0
100
AcDbMText
10
83.333343
20
23.092266
30
0
210
0
220
0
230
1
1
\W0.6930;10,300
40
3.5
41
0
44
1.084337
50
90
71
7
72
5
7
iso_b_vert
0
MTEXT
5
12A
100
AcDbEntity
8
2
62
256
6
ByLayer
370
13
48
1
60
0
100
AcDbMText
10
83.333343
20
17.86961
30
0
210
0
220
0
230
1
1
%%c
40
3.5
41
0
44
1.084337
50
90
71
7
72
5
7
iso_b_vert
0
LINE
5
12B
100
AcDbEntity
8
2
62
256
6
ByLayer
370
13
48
1
60
0
100
AcDbLine
10
72.8175
20
-5.15
30
0
11
87.083343
21
-5.15
31
0
39
0
210
0
220
0
230
1
0
LINE
5
12C
100
AcDbEntity
8
2
62
256
6
ByLayer
370
13
48
1
60
0
100
AcDbLine
10
72.8175
20
5.15
30
0
11
87.083343
21
5.15
31
0
39
0
210
0
220
0
230
1
0
LINE
5
12D
100
AcDbEntity
8
2
62
256
6
ByLayer
370
13
48
1
60
0
100
AcDbLine
10
85.083343
20
-5.15
30
0
11
85.083343
21
34.605424
31
0
39
0
210
0
220
0
230
1
0
SOLID
5
12E
100
AcDbEntity
8
2
62
256
6
ByLayer
370
13
48
1
60
0
100
AcDbTrace
10
85.083343
20
-5.15
30
0
11
84.622559
21
-1.650002
31
0
12
85.544126
22
-1.649998
32
0
13
85.083343
23
-5.15
33
0
39
0
210
0
220
0
230
1
0
SOLID
5
12F
100
AcDbEntity
8
2
62
256
6
ByLayer
370
13
48
1
60
0
100
AcDbTrace
10
85.083343
20
5.15
30
0
11
85.544126
21
1.650002
31
0
12
84.622559
22
1.649998
32
0
13
85.083343
23
5.15
33
0
39
0
210
0
220
0
230
1
0
ENDBLK
5
131
100
AcDbEntity
8
0
100
AcDbBlockEnd
0
ENDSEC
0
SECTION
2
ENTITIES
0
ARC
5
9D
100
AcDbEntity
8
1
62
256
6
ByLayer
370
18
48
1
60
0
100
AcDbCircle
39
0
10
0
20
5.2
30
0
40
0.799999999999999
210
0
220
0
230
1
100
AcDbArc
50
26.267272
51
90
0
ARC
5
9E
100
AcDbEntity
8
1
62
256
6
ByLayer
370
18
48
1
60
0
100
AcDbCircle
39
0
10
0
20
-5.2
30
0
40
0.799999999999999
210
0
220
0
230
1
100
AcDbArc
50
270
51
333.732728
0
ARC
5
9F
100
AcDbEntity
8
1
62
256
6
ByLayer
370
18
48
1
60
0
100
AcDbCircle
39
0
10
-1.434783
20
5.908094
30
0
40
0.799999999999999
210
0
220
0
230
-1
100
AcDbArc
50
269.965623
51
333.732728
0
ARC
5
A0
100
AcDbEntity
8
1
62
256
6
ByLayer
370
18
48
1
60
0
100
AcDbCircle
39
0
10
-1.434783
20
-5.908094
30
0
40
0.799999999999999
210
0
220
0
230
-1
100
AcDbArc
50
26.267272
51
90.034377
0
ELLIPSE
5
A1
100
AcDbEntity
8
1
62
256
6
ByLayer
370
18
48
1
60
0
100
AcDbEllipse
10
72.029909
20
2.505696
30
0
11
0.792974772903833
21
-2.16201910330251
31
0
210
0
220
0
230
-1
40
0.082138
41
-1.54842302964776
42
-0.755280950345654
0
ELLIPSE
5
A2
100
AcDbEntity
8
1
62
256
6
ByLayer
370
18
48
1
60
0
100
AcDbEllipse
10
72.860442
20
0.112031
30
0
11
0.0868803724545421
21
0.290676908841461
31
0
210
0
220
0
230
-1
40
0.467765
41
1.64953436650417
42
2.36053717390816
0
ELLIPSE
5
A3
100
AcDbEntity
8
1
62
256
6
ByLayer
370
13
48
1
60
0
100
AcDbEllipse
10
4.180351
20
-3.999873
30
0
11
-0.011060810781769
21
0.0993864098599497
31
0
210
0
220
0
230
1
40
0.58539
41
0.71329322149009
42
2.0525550176546
0
ELLIPSE
5
A4
100
AcDbEntity
8
1
62
256
6
ByLayer
370
18
48
1
60
0
100
AcDbEllipse
10
72.029909
20
-2.505696
30
0
11
0.792974772908455
21
2.16201910331318
31
0
210
0
220
0
230
-1
40
0.082138
41
0.75528095034564
42
1.54842302964418
0
ELLIPSE
5
A5
100
AcDbEntity
8
1
62
256
6
ByLayer
370
18
48
1
60
0
100
AcDbEllipse
10
73.000436
20
-0.001125
30
0
11
1.88841413865978
21
-5.14869775277619
31
0
210
0
220
0
230
-1
40
0.082138
41
-2.98453318092771
42
-2.88880557407988
0
ELLIPSE
5
A6
100
AcDbEntity
8
1
62
256
6
ByLayer
370
18
48
1
60
0
100
AcDbEllipse
10
73.000436
20
0.001125
30
0
11
1.88841413711133
21
5.14869774839223
31
0
210
0
220
0
230
-1
40
0.082138
41
2.88880557397118
42
2.98453318085994
0
ELLIPSE
5
A7
100
AcDbEntity
8
1
62
256
6
ByLayer
370
13
48
1
60
0
100
AcDbEllipse
10
71.54347
20
0.764092
30
0
11
0.133113781883896
21
0.268850741253519
31
0
210
0
220
0
230
1
40
0.40558
41
0.884485917130896
42
2.28074931872654
0
ELLIPSE
5
A8
100
AcDbEntity
8
1
62
256
6
ByLayer
370
18
48
1
60
0
100
AcDbEllipse
10
73.024585
20
-0.03076
30
0
11
0.135658546005524
21
0.401200806158701
31
0
210
0
220
0
230
-1
40
0.065863
41
-2.32292776269818
42
-1.63766716835682
0
ELLIPSE
5
A9
100
AcDbEntity
8
1
62
256
6
ByLayer
370
18
48
1
60
0
100
AcDbEllipse
10
73.024585
20
0.03076
30
0
11
0.135658546050957
21
-0.401200806275308
31
0
210
0
220
0
230
-1
40
0.065863
41
1.63766716855931
42
2.32292776272468
0
ELLIPSE
5
AA
100
AcDbEntity
8
1
62
256
6
ByLayer
370
13
48
1
60
0
100
AcDbEllipse
10
72.300637
20
2.505696
30
0
11
3.53697640862516
21
-1.48693753541811
31
0
210
0
220
0
230
-1
40
0.444124
41
1.59823327971457
42
1.8961416622721
0
ELLIPSE
5
AB
100
AcDbEntity
8
1
62
256
6
ByLayer
370
13
48
1
60
0
100
AcDbEllipse
10
4.250199
20
-4.007712
30
0
11
0.0296946968172948
21
0.0954893972173295
31
0
210
0
220
0
230
1
40
0.372126
41
0.693249379096213
42
2.24882238469386
0
ELLIPSE
5
AC
100
AcDbEntity
8
1
62
256
6
ByLayer
370
13
48
1
60
0
100
AcDbEllipse
10
72.131179
20
2.371404
30
0
11
3.49210923526925
21
-1.79525607786562
31
0
210
0
220
0
230
-1
40
0.482873
41
1.53949524926064
42
1.83097711594779
0
POINT
5
6C
100
AcDbEntity
8
81
62
256
6
ByLayer
370
18
48
1
60
0
100
AcDbPoint
10
73
20
0
30
0
39
0
210
0
220
0
230
1
50
360
0
POINT
5
6E
100
AcDbEntity
8
80
62
256
6
ByLayer
370
18
48
1
60
0
100
AcDbPoint
10
0
20
0
30
0
39
0
210
0
220
0
230
1
50
360
0
POINT
5
70
100
AcDbEntity
8
SK2
62
256
6
ByLayer
370
18
48
1
60
1
100
AcDbPoint
10
-45
20
-6
30
0
39
0
210
0
220
0
230
1
50
360
0
POINT
5
72
100
AcDbEntity
8
SK2
62
256
6
ByLayer
370
18
48
1
60
1
100
AcDbPoint
10
-45
20
6
30
0
39
0
210
0
220
0
230
1
50
360
0
POINT
5
73
100
AcDbEntity
8
2
62
256
6
ByLayer
370
18
48
1
60
1
100
AcDbPoint
10
71.23
20
-5.15
30
0
39
0
210
0
220
0
230
1
50
360
0
POINT
5
75
100
AcDbEntity
8
2
62
256
6
ByLayer
370
18
48
1
60
1
100
AcDbPoint
10
71.23
20
5.15
30
0
39
0
210
0
220
0
230
1
50
360
0
SPLINE
5
AD
100
AcDbEntity
8
1
62
256
6
ByLayer
370
18
48
1
60
0
100
AcDbSpline
70
4
71
3
72
27
73
23
40
0
40
0
40
0
40
0
40
0.0477157335494951
40
0.0914052265698249
40
0.129187661511589
40
0.161600487542481
40
0.200383724472722
40
0.250746591739109
40
0.296874693440448
40
0.33644054845956
40
0.383430490032407
40
0.437296253099434
40
0.482071305353116
40
0.523246593060075
40
0.574261087990668
40
0.647103546573724
40
0.715149543365946
40
0.797502044222585
40
0.856798471513039
40
0.928618044109042
40
0.969739081809085
40
1
40
1
40
1
40
1
41
1
10
55.256953693476
20
4.90600956859865
30
0
41
1
10
55.0566979383815
20
4.90516308031778
30
0
41
1
10
54.6758640044313
20
4.90435119223022
30
0
41
1
10
54.1549153474931
20
4.90865477913201
30
0
41
1
10
53.6855181599117
20
4.90881362918245
30
0
41
1
10
53.232159922252
20
4.90906847958098
30
0
41
1
10
52.7276018016273
20
4.90727076240668
30
0
41
1
10
52.1656391188834
20
4.90654010152315
30
0
41
1
10
51.6005639055255
20
4.90706646726841
30
0
41
1
10
51.0494560262466
20
4.90676336401734
30
0
41
1
10
50.4662211202177
20
4.90538803583931
30
0
41
1
10
49.8613469448035
20
4.90578202324434
30
0
41
1
10
49.2806257397378
20
4.90618271077704
30
0
41
1
10
48.7117460638729
20
4.90514250234966
30
0
41
1
10
48.0262878719852
20
4.90440182180546
30
0
41
1
10
47.2292230813944
20
4.90512985918917
30
0
41
1
10
46.3019964639928
20
4.90337842778865
30
0
41
1
10
45.4310606393436
20
4.90409944384135
30
0
41
1
10
44.5443388161465
20
4.90279075075367
30
0
41
1
10
43.8293948612823
20
4.9027874258289
30
0
41
1
10
43.233619221045
20
4.90277230268268
30
0
41
1
10
42.9416666750313
20
4.90155580974604
30
0
41
1
10
42.8167714624442
20
4.90124861463468
30
0
0
SPLINE
5
AE
100
AcDbEntity
8
1
62
256
6
ByLayer
370
18
48
1
60
0
100
AcDbSpline
70
4
71
3
72
32
73
28
40
0
40
0
40
0
40
0
40
0.0381302193363578
40
0.0698145671651385
40
0.100439086993159
40
0.130099473762228
40
0.159298724273737
40
0.190539186144362
40
0.223454124370579
40
0.254046783239585
40
0.280772439184368
40
0.310874180985745
40
0.366463612009916
40
0.411529857522885
40
0.449224721408556
40
0.494865098768277
40
0.536481732138421
40
0.594006404879461
40
0.668634870270041
40
0.725801142814553
40
0.800376962098378
40
0.832991322403407
40
0.860826624969509
40
0.893718244511847
40
0.93494497664364
40
0.992676612526855
40
1
40
1
40
1
40
1
41
1
10
40.1778269736339
20
-4.90046000560642
30
0
41
1
10
40.3539202843611
20
-4.8990583448404
30
0
41
1
10
40.6819028598994
20
-4.89760001034316
30
0
41
1
10
41.1884567965046
20
-4.89836676101714
30
0
41
1
10
41.6281803516169
20
-4.90155114869663
30
0
41
1
10
42.0700705324109
20
-4.90156321296269
30
0
41
1
10
42.5157070387036
20
-4.90184656149918
30
0
41
1
10
42.9776889444066
20
-4.90241321687623
30
0
41
1
10
43.4465170406068
20
-4.90274475786305
30
0
41
1
10
43.893016803684
20
-4.90285330545643
30
0
41
1
10
44.3255953318819
20
-4.90269449451341
30
0
41
1
10
44.88186046981
20
-4.90345276924825
30
0
41
1
10
45.5288868955737
20
-4.90386920444504
30
0
41
1
10
46.2134871156176
20
-4.90357317936164
30
0
41
1
10
46.84885207748
20
-4.90445420694016
30
0
41
1
10
47.4671547282899
20
-4.90491398203935
30
0
41
1
10
48.1835731859697
20
-4.90436054584904
30
0
41
1
10
49.0434424981718
20
-4.90619586243793
30
0
41
1
10
49.9802542751998
20
-4.90530758407743
30
0
41
1
10
51.0014287973841
20
-4.90656501529116
30
0
41
1
10
51.8147600742078
20
-4.90684748858254
30
0
41
1
10
52.4828214328123
20
-4.90670762438114
30
0
41
1
10
52.9447610136745
20
-4.9081844632602
30
0
41
1
10
53.4489274460994
20
-4.90929366449771
30
0
41
1
10
54.1007128653656
20
-4.90817414342277
30
0
41
1
10
54.6268914317614
20
-4.90817329991222
30
0
41
1
10
54.9487213311521
20
-4.90824155673704
30
0
41
1
10
54.984950682249
20
-4.90825186393695
30
0
0
SPLINE
5
AF
100
AcDbEntity
8
1
62
256
6
ByLayer
370
18
48
1
60
0
100
AcDbSpline
70
4
71
3
72
36
73
32
40
0
40
0
40
0
40
0
40
0.0488138987522489
40
0.0923777949018746
40
0.130358873158542
40
0.157917827348404
40
0.177188887421416
40
0.203830136740774
40
0.240308424886771
40
0.273980391961806
40
0.300505333745012
40
0.332426196045979
40
0.373585944577764
40
0.413413626799739
40
0.444009580668274
40
0.476599140754733
40
0.518039505154753
40
0.559564878714649
40
0.591614543438144
40
0.630081226775812
40
0.675874318076384
40
0.712884618671807
40
0.745516065645337
40
0.788451167117026
40
0.823635590902314
40
0.852163546133431
40
0.877028905486236
40
0.907614394163943
40
0.94539917279109
40
0.99578239654344
40
1
40
1
40
1
40
1
41
1
10
10.2222611017284
20
-4.88244457947565
30
0
41
1
10
10.4627024670202
20
-4.88233653249907
30
0
41
1
10
10.9182252671891
20
-4.88239849376956
30
0
41
1
10
11.5706573991254
20
-4.88274053488414
30
0
41
1
10
12.1047151258759
20
-4.88426830669434
30
0
41
1
10
12.5258766364096
20
-4.88422084318611
30
0
41
1
10
12.8909125256799
20
-4.88471543538708
30
0
41
1
10
13.3006175015661
20
-4.88490106637573
30
0
41
1
10
13.7820831226595
20
-4.88512579467442
30
0
41
1
10
14.2629231598229
20
-4.88559278317146
30
0
41
1
10
14.7211140229728
20
-4.88608052287
30
0
41
1
10
15.2165454108039
20
-4.88636096990621
30
0
41
1
10
15.778149054872
20
-4.88664130201022
30
0
41
1
10
16.3331534926913
20
-4.88786042558627
30
0
41
1
10
16.8455379123974
20
-4.88792462266815
30
0
41
1
10
17.3659422958715
20
-4.88778561059533
30
0
41
1
10
17.9407093634566
20
-4.88821514163902
30
0
41
1
10
18.5127881627015
20
-4.88967695378747
30
0
41
1
10
19.070079322567
20
-4.88921693234892
30
0
41
1
10
19.6485981271443
20
-4.88885354157787
30
0
41
1
10
20.2517859616969
20
-4.89087668909562
30
0
41
1
10
20.8259528468853
20
-4.89114396774474
30
0
41
1
10
21.3859135112711
20
-4.89033013625047
30
0
41
1
10
21.9367456989456
20
-4.89038743591547
30
0
41
1
10
22.467312915221
20
-4.89220160290819
30
0
41
1
10
22.9074409056383
20
-4.89226242330744
30
0
41
1
10
23.3248706925571
20
-4.89171485745049
30
0
41
1
10
23.7883188327449
20
-4.8918596258307
30
0
41
1
10
24.3711492115098
20
-4.89230492218658
30
0
41
1
10
24.8337892187388
20
-4.8928216066079
30
0
41
1
10
25.1045592371052
20
-4.89293490764604
30
0
41
1
10
25.1254761063954
20
-4.89294324193392
30
0
0
SPLINE
5
B0
100
AcDbEntity
8
1
62
256
6
ByLayer
370
18
48
1
60
0
100
AcDbSpline
70
4
71
3
72
13
73
9
40
0
40
0
40
0
40
0
40
0.0093817654229943
40
0.170096401373375
40
0.323494356835501
40
0.583175238208175
40
0.792241126608585
40
1
40
1
40
1
40
1
41
1
10
26.8045907996911
20
-1.38931945202569
30
0
41
1
10
26.804539924603
20
-1.38930468612415
30
0
41
1
10
26.8039228423427
20
-1.38916225586129
30
0
41
1
10
26.8136132478061
20
-1.39334952655898
30
0
41
1
10
26.8780263507674
20
-1.42237235422328
30
0
41
1
10
26.9883241518866
20
-1.47425425393627
30
0
41
1
10
27.1211972152265
20
-1.53866999115101
30
0
41
1
10
27.1825279535017
20
-1.56976440387825
30
0
41
1
10
27.2102873628347
20
-1.58420458490985
30
0
0
SPLINE
5
B1
100
AcDbEntity
8
1
62
256
6
ByLayer
370
18
48
1
60
0
100
AcDbSpline
70
4
71
3
72
30
73
26
40
0
40
0
40
0
40
0
40
0.0049702867060231
40
0.066041275902884
40
0.111858972242755
40
0.148958656742818
40
0.179093002908638
40
0.225837560273126
40
0.283061775322371
40
0.329960374231677
40
0.365582970271197
40
0.411263973649699
40
0.461856621269359
40
0.502146922084854
40
0.538231380116232
40
0.584935337629048
40
0.639283401785097
40
0.680823420571424
40
0.723968068286955
40
0.779682017353553
40
0.829214741678264
40
0.868865219161685
40
0.919667023739742
40
0.971526289151422
40
1
40
1
40
1
40
1
41
1
10
25.1255304810697
20
4.89294249194714
30
0
41
1
10
25.1052201076922
20
4.89293435741754
30
0
41
1
10
24.8353693651594
20
4.89282109599432
30
0
41
1
10
24.3738251249319
20
4.89230901774314
30
0
41
1
10
23.7915164371108
20
4.89186618705125
30
0
41
1
10
23.3285353749588
20
4.89169993479641
30
0
41
1
10
22.8617231209461
20
4.89237236926849
30
0
41
1
10
22.3125444362144
20
4.89177551563728
30
0
41
1
10
21.6941097773697
20
4.89012411824439
30
0
41
1
10
21.121416702588
20
4.89059564814991
30
0
41
1
10
20.5959956009361
20
4.89146268870638
30
0
41
1
10
20.0554430393689
20
4.88985542541201
30
0
41
1
10
19.4957609366336
20
4.88897530467176
30
0
41
1
10
18.9754052359537
20
4.88927828150591
30
0
41
1
10
18.4709867454607
20
4.88963067478826
30
0
41
1
10
17.9089586099673
20
4.88813768745462
30
0
41
1
10
17.3245683893639
20
4.88777473569482
30
0
41
1
10
16.7547653804647
20
4.88798007559561
30
0
41
1
10
16.179366109621
20
4.88761654776849
30
0
41
1
10
15.5712101312514
20
4.88639959350056
30
0
41
1
10
14.9773803351487
20
4.88628999023285
30
0
41
1
10
14.4036499299463
20
4.88576036368005
30
0
41
1
10
13.8205237724853
20
4.88511651378343
30
0
41
1
10
13.2827494247148
20
4.88494028324513
30
0
41
1
10
12.9540973437093
20
4.88468383080411
30
0
41
1
10
12.8374125713379
20
4.88459384538942
30
0
0
SPLINE
5
B2
100
AcDbEntity
8
1
62
256
6
ByLayer
370
18
48
1
60
0
100
AcDbSpline
70
4
71
2
72
6
73
3
40
0
40
0
40
0
40
1
40
1
40
1
41
1
10
70.2103749222285
20
-4.91850861704344
30
0
41
1
10
70.7097310960697
20
-4.91627066197472
30
0
41
1
10
71.2088268476994
20
-4.92084973325379
30
0
0
SPLINE
5
B3
100
AcDbEntity
8
1
62
256
6
ByLayer
370
18
48
1
60
0
100
AcDbSpline
70
4
71
3
72
12
73
8
40
0
40
0
40
0
40
0
40
0.122316749705985
40
0.403619989805002
40
0.666510987468802
40
0.81147090134686
40
1
40
1
40
1
40
1
41
1
10
56.7505641688596
20
-1.38843161616691
30
0
41
1
10
56.7511695209498
20
-1.38870496347403
30
0
41
1
10
56.7666313891684
20
-1.39528884771664
30
0
41
1
10
56.8904470902779
20
-1.45045452687771
30
0
41
1
10
56.9145522225416
20
-1.46136049769629
30
0
41
1
10
57.0043952459871
20
-1.50541026343245
30
0
41
1
10
57.0751057753249
20
-1.54143879042945
30
0
41
1
10
57.1226944206765
20
-1.56587762500573
30
0
0
SPLINE
5
B4
100
AcDbEntity
8
1
62
256
6
ByLayer
370
18
48
1
60
0
100
AcDbSpline
70
4
71
3
72
31
73
27
40
0
40
0
40
0
40
0
40
0.0625
40
0.0625
40
0.125
40
0.1875
40
0.1875
40
0.25
40
0.25
40
0.375
40
0.375
40
0.4375
40
0.4375
40
0.46875
40
0.46875
40
0.5
40
0.5
40
0.625
40
0.625
40
0.6875
40
0.6875
40
0.75
40
0.75
40
0.875
40
0.875
40
1
40
1
40
1
40
1
41
1
10
4.00075164239388
20
-4.01837936219337
30
0
41
1
10
4.00075518951789
20
-3.91186990099934
30
0
41
1
10
4.00075860914831
20
-3.79813698922888
30
0
41
1
10
4.0007651352025
20
-3.56015500808243
30
0
41
1
10
4.00077136629125
20
-3.31124571362156
30
0
41
1
10
4.0007771243769
20
-3.04095152538602
30
0
41
1
10
4.00078269914204
20
-2.75987518002708
30
0
41
1
10
4.0007854023022
20
-2.61351181453856
30
0
41
1
10
4.00079326285544
20
-2.16044435753429
30
0
41
1
10
4.00079806566464
20
-1.84660505615898
30
0
41
1
10
4.00080493417533
20
-1.3587698594429
30
0
41
1
10
4.00080716622995
20
-1.19329032656702
30
0
41
1
10
4.00081045655224
20
-0.940648164262427
30
0
41
1
10
4.00081154612187
20
-0.855492079007661
30
0
41
1
10
4.00081368727604
20
-0.685471545138569
30
0
41
1
10
4.00081474103877
20
-0.600446683068043
30
0
41
1
10
4.00081993620074
20
-0.175250708858215
30
0
41
1
10
4.00082386595139
20
0.165133258951158
30
0
41
1
10
4.00082950610206
20
0.676051167292314
30
0
41
1
10
4.00083135170584
20
0.847366699193316
30
0
41
1
10
4.00083488069089
20
1.18382040204696
30
0
41
1
10
4.00083656755081
20
1.34922179634557
30
0
41
1
10
4.00084137592032
20
1.83715298488957
30
0
41
1
10
4.00084425587048
20
2.15166370428267
30
0
41
1
10
4.00084904546685
20
2.75716682616976
30
0
41
1
10
4.00085087277563
20
3.03816943603451
30
0
41
1
10
4.00085194704764
20
3.29828327359653
30
0
0
SPLINE
5
B5
100
AcDbEntity
8
1
62
256
6
ByLayer
370
13
48
1
60
0
100
AcDbSpline
70
4
71
3
72
8
73
4
40
0
40
0
40
0
40
0
40
1
40
1
40
1
40
1
41
1
10
4.13181539344899
20
-4.14380326440215
30
0
41
1
10
4.13251095417496
20
-4.11309222600994
30
0
41
1
10
4.13321179273589
20
-4.08237791686881
30
0
41
1
10
4.13391791950659
20
-4.05166023004401
30
0
0
SPLINE
5
B6
100
AcDbEntity
8
1
62
256
6
ByLayer
370
13
48
1
60
0
100
AcDbSpline
70
4
71
3
72
8
73
4
40
0
40
0
40
0
40
0
40
1
40
1
40
1
40
1
41
1
10
4.13391791950662
20
-4.05166023004404
30
0
41
1
10
4.15590748986861
20
-4.04908083870097
30
0
41
1
10
4.17965834922722
20
-4.05165091205726
30
0
41
1
10
4.20389873260274
20
-4.05900238941493
30
0
0
SPLINE
5
B7
100
AcDbEntity
8
1
62
256
6
ByLayer
370
18
48
1
60
0
100
AcDbSpline
70
4
71
3
72
8
73
4
40
0
40
0
40
0
40
0
40
1
40
1
40
1
40
1
41
1
10
71.2719760141838
20
-4.8882274015717
30
0
41
1
10
71.2475824956975
20
-4.90867711234688
30
0
41
1
10
71.2267877945368
20
-4.91897131372428
30
0
41
1
10
71.2096484612306
20
-4.9189504256552
30
0
0
SPLINE
5
B8
100
AcDbEntity
8
1
62
256
6
ByLayer
370
13
48
1
60
0
100
AcDbSpline
70
4
71
3
72
12
73
8
40
0
40
0
40
0
40
0
40
0.500000000000018
40
0.500000000000018
40
0.750000000000009
40
0.750000000000009
40
1
40
1
40
1
40
1
41
1
10
4.00075164239303
20
-4.01837936220358
30
0
41
1
10
4.00389890585092
20
-4.00090389432359
30
0
41
1
10
4.01704310080345
20
-3.98341443749317
30
0
41
1
10
4.05053933994913
20
-3.96014632119693
30
0
41
1
10
4.06428890929075
20
-3.95271147896713
30
0
41
1
10
4.0960018842633
20
-3.93950834890191
30
0
41
1
10
4.1138222743736
20
-3.93373479753515
30
0
41
1
10
4.13391791950662
20
-3.92895235210204
30
0
0
SPLINE
5
B9
100
AcDbEntity
8
1
62
256
6
ByLayer
370
18
48
1
60
0
100
AcDbSpline
70
4
71
3
72
14
73
10
40
0
40
0
40
0
40
0
40
0.494037139142846
40
0.494037139142846
40
0.825054090290031
40
0.825054090290031
40
0.990562565863624
40
0.990562565863624
40
1
40
1
40
1
40
1
41
1
10
70.207007568457
20
-4.9184868736352
30
0
41
1
10
69.1664596371232
20
-4.91794895722123
30
0
41
1
10
68.1346556547858
20
-4.82925208838034
30
0
41
1
10
66.4081219117718
20
-4.54349348756119
30
0
41
1
10
65.7144207767465
20
-4.39169977049244
30
0
41
1
10
64.6670620861884
20
-4.11154402928869
30
0
41
1
10
64.3168342848298
20
-4.00939020279145
30
0
41
1
10
63.9449872390998
20
-3.89249254395415
30
0
41
1
10
63.9249316993747
20
-3.88616186663526
30
0
41
1
10
63.9048798963367
20
-3.87980671547757
30
0
0
SPLINE
5
BA
100
AcDbEntity
8
1
62
256
6
ByLayer
370
13
48
1
60
0
100
AcDbSpline
70
4
71
3
72
22
73
18
40
0
40
0
40
0
40
0
40
0.0746324236150188
40
0.0746324236150188
40
0.391213861063352
40
0.391213861063352
40
0.549504579787519
40
0.549504579787519
40
0.589077259468562
40
0.589077259468562
40
0.628649939149606
40
0.628649939149606
40
0.70779529851169
40
0.70779529851169
40
0.866086017235857
40
0.866086017235857
40
1
40
1
40
1
40
1
41
1
10
63.9048798963626
20
-3.87980671548584
30
0
41
1
10
63.5732743203457
20
-3.77470875714639
30
0
41
1
10
63.2426906799304
20
-3.66291752047252
30
0
41
1
10
61.5160308021953
20
-3.04597627076848
30
0
41
1
10
60.1369475681623
20
-2.43867551917583
30
0
41
1
10
58.05392682299
20
-1.43767596791
30
0
41
1
10
57.3571864445995
20
-1.08902085856334
30
0
41
1
10
56.4792957239262
20
-0.641520200417517
30
0
41
1
10
56.3031521240376
20
-0.551360107029808
30
0
41
1
10
55.9519431553796
20
-0.371193744552414
30
0
41
1
10
55.7766932644515
20
-0.281085619472009
30
0
41
1
10
55.2518409857107
20
-0.0110145791349794
30
0
41
1
10
54.9031305567875
20
0.168674702044825
30
0
41
1
10
53.8595453067325
20
0.704813341630398
30
0
41
1
10
53.1667822017178
20
1.05734664836777
30
0
41
1
10
51.887938585678
20
1.68863357851114
30
0
41
1
10
51.3014985279143
20
1.96965791044752
30
0
41
1
10
50.7129413614447
20
2.23908043750563
30
0
0
SPLINE
5
BB
100
AcDbEntity
8
1
62
256
6
ByLayer
370
18
48
1
60
0
100
AcDbSpline
70
4
71
3
72
14
73
10
40
0
40
0
40
0
40
0
40
0.305545810834928
40
0.305545810834928
40
0.479159358126196
40
0.479159358126196
40
0.652772905417465
40
0.652772905417465
40
1
40
1
40
1
40
1
41
1
10
10.3094066338557
20
-4.88251272576673
30
0
41
1
10
9.69734744671351
20
-4.88224642244381
30
0
41
1
10
9.08431583205572
20
-4.85182699466085
30
0
41
1
10
8.11777530650653
20
-4.75636672942014
30
0
41
1
10
7.76604246289378
20
-4.71184921288369
30
0
41
1
10
7.06167798344762
20
-4.60366502602514
30
0
41
1
10
6.71015899758723
20
-4.54018174904408
30
0
41
1
10
5.65626536780107
20
-4.32270769238247
30
0
41
1
10
4.95452501419243
20
-4.14177047805779
30
0
41
1
10
4.25033200490577
20
-3.92720259223873
30
0
0
SPLINE
5
BC
100
AcDbEntity
8
1
62
256
6
ByLayer
370
13
48
1
60
0
100
AcDbSpline
70
4
71
3
72
30
73
26
40
0
40
0
40
0
40
0
40
0.125
40
0.125
40
0.1875
40
0.1875
40
0.249999999999999
40
0.312499999999999
40
0.312499999999999
40
0.374999999999999
40
0.374999999999999
40
0.499999999999999
40
0.499999999999999
40
0.562499999999999
40
0.562499999999999
40
0.624999999999999
40
0.624999999999999
40
0.6875
40
0.6875
40
0.75
40
0.8125
40
0.8125
40
0.875
40
0.875
40
1
40
1
40
1
40
1
41
1
10
4.25033200490594
20
-3.92720259223876
30
0
41
1
10
4.25041790057139
20
-3.72780160845221
30
0
41
1
10
4.25049551608262
20
-3.50301965557463
30
0
41
1
10
4.25060384278424
20
-3.12800321012509
30
0
41
1
10
4.25063839234644
20
-2.9972566304248
30
0
41
1
10
4.25070429045141
20
-2.72795207783148
30
0
41
1
10
4.25076727195278
20
-2.44986238247867
30
0
41
1
10
4.25082588739946
20
-2.15438625047338
30
0
41
1
10
4.25088294811704
20
-1.85003351980302
30
0
41
1
10
4.25091080302519
20
-1.69274183182907
30
0
41
1
10
4.2509910850581
20
-1.21773115333951
30
0
41
1
10
4.25104088550796
20
-0.894124206765042
30
0
41
1
10
4.25111265983409
20
-0.39839847850692
30
0
41
1
10
4.25113616504302
20
-0.230766659978315
30
0
41
1
10
4.25118191943702
20
0.104823213968444
30
0
41
1
10
4.25120409772984
20
0.272211827583646
30
0
41
1
10
4.2512471568559
20
0.60617855745906
30
0
41
1
10
4.25126805627409
20
0.772958238965401
30
0
41
1
10
4.25130781021744
20
1.1001323340144
30
0
41
1
10
4.25134570526831
20
1.42233798410845
30
0
41
1
10
4.2513795384771
20
1.73475899532429
30
0
41
1
10
4.25141096431014
20
2.04220918669085
30
0
41
1
10
4.25142553798006
20
2.19424964334283
30
0
41
1
10
4.25146402861188
20
2.63397702808223
30
0
41
1
10
4.25148301932501
20
2.90698755707891
30
0
41
1
10
4.25149302026736
20
3.16018325212019
30
0
0
SPLINE
5
BD
100
AcDbEntity
8
1
62
256
6
ByLayer
370
13
48
1
60
0
100
AcDbSpline
70
4
71
3
72
12
73
8
40
0
40
0
40
0
40
0
40
0.499999999999998
40
0.499999999999998
40
0.749999999999999
40
0.749999999999999
40
1
40
1
40
1
40
1
41
1
10
4.00198875920429
20
-4.03042451260993
30
0
41
1
10
4.00685597641615
20
-4.03491408624001
30
0
41
1
10
4.02068704863967
20
-4.03915410761067
30
0
41
1
10
4.05385786410594
20
-4.04461148927078
30
0
41
1
10
4.06728203487199
20
-4.04632042107502
30
0
41
1
10
4.09778349046638
20
-4.04930600884506
30
0
41
1
10
4.11481657804592
20
-4.05059427216298
30
0
41
1
10
4.13391791950662
20
-4.05166023004404
30
0
0
SPLINE
5
BE
100
AcDbEntity
8
1
62
256
6
ByLayer
370
18
48
1
60
0
100
AcDbSpline
70
4
71
3
72
22
73
18
40
0
40
0
40
0
40
0
40
0.594842979222025
40
0.594842979222025
40
0.704343675773513
40
0.704343675773513
40
0.75909402404925
40
0.75909402404925
40
0.813844372324986
40
0.813844372324986
40
0.868594720600724
40
0.868594720600724
40
0.895969894738592
40
0.895969894738592
40
0.92334506887646
40
0.92334506887646
40
1
40
1
40
1
40
1
41
1
10
4.604720248717
20
-5.10999427270309
30
0
41
1
10
4.31912331341783
20
-5.10986753493546
30
0
41
1
10
4.03293587921186
20
-5.10957618019691
30
0
41
1
10
3.69373228364384
20
-5.1092723594891
30
0
41
1
10
3.64098965583125
20
-5.10922562740575
30
0
41
1
10
3.56186305068542
20
-5.10915724753497
30
0
41
1
10
3.53548424601706
20
-5.10913473745967
30
0
41
1
10
3.48272956977667
20
-5.10909042605275
30
0
41
1
10
3.45633047547793
20
-5.10906046803947
30
0
41
1
10
3.4037180953465
20
-5.10906689700837
30
0
41
1
10
3.37703142194249
20
-5.10910348375228
30
0
41
1
10
3.3412043455233
20
-5.10917296460212
30
0
41
1
10
3.3301607686227
20
-5.10919868913464
30
0
41
1
10
3.30788208982915
20
-5.10921861372995
30
0
41
1
10
3.29676355116192
20
-5.10921587104465
30
0
41
1
10
3.25459225157073
20
-5.10915524271124
30
0
41
1
10
3.22370714728308
20
-5.10900707962619
30
0
41
1
10
3.19305506918954
20
-5.10874418084754
30
0
0
SPLINE
5
BF
100
AcDbEntity
8
1
62
256
6
ByLayer
370
18
48
1
60
0
100
AcDbSpline
70
4
71
3
72
36
73
32
40
0
40
0
40
0
40
0
40
0.250000000000006
40
0.250000000000006
40
0.500000000000011
40
0.500000000000011
40
0.562500000000014
40
0.562500000000014
40
0.625000000000016
40
0.625000000000016
40
0.687500000000019
40
0.687500000000019
40
0.718750000000018
40
0.718750000000018
40
0.750000000000016
40
0.750000000000016
40
0.812500000000014
40
0.812500000000014
40
0.843750000000015
40
0.843750000000015
40
0.859375000000013
40
0.859375000000013
40
0.875000000000012
40
0.875000000000012
40
0.906250000000009
40
0.906250000000009
40
0.937500000000006
40
0.937500000000006
40
0.968750000000003
40
0.968750000000003
40
1
40
1
40
1
40
1
41
1
10
65.8926292298927
20
2.01498113502029
30
0
41
1
10
66.3173872309387
20
1.72294250639331
30
0
41
1
10
66.7466173922053
20
1.45700141530202
30
0
41
1
10
67.6171084666635
20
0.995325349280989
30
0
41
1
10
68.0581923751126
20
0.798557453417629
30
0
41
1
10
68.6194772546461
20
0.610544610892873
30
0
41
1
10
68.732350379489
20
0.575874268802892
30
0
41
1
10
68.9567411284879
20
0.513771983215094
30
0
41
1
10
69.0685445433823
20
0.486223861846241
30
0
41
1
10
69.2913055936542
20
0.438686519900045
30
0
41
1
10
69.4023285151393
20
0.418697768956605
30
0
41
1
10
69.567454010871
20
0.394993552388371
30
0
41
1
10
69.6222938034058
20
0.388133636598496
30
0
41
1
10
69.7315108608402
20
0.376585783106094
30
0
41
1
10
69.786019962351
20
0.371385781552675
30
0
41
1
10
69.947093465099
20
0.364534633088965
30
0
41
1
10
70.0503630848204
20
0.371582267015725
30
0
41
1
10
70.1914707926564
20
0.413086012797947
30
0
41
1
10
70.2364411059954
20
0.432013435665624
30
0
41
1
10
70.2971139329937
20
0.468783737727364
30
0
41
1
10
70.3163058110499
20
0.482475221342384
30
0
41
1
10
70.3523308041307
20
0.513136146255334
30
0
41
1
10
70.3692560915572
20
0.530246968532538
30
0
41
1
10
70.4147297753103
20
0.586000518547934
30
0
41
1
10
70.438359988444
20
0.629531915255285
30
0
41
1
10
70.4683550117557
20
0.729745918211876
30
0
41
1
10
70.4740118065562
20
0.78444153413102
30
0
41
1
10
70.4710378565313
20
0.900851500362734
30
0
41
1
10
70.4625427543604
20
0.960689468080574
30
0
41
1
10
70.4357270382853
20
1.08132550858474
30
0
41
1
10
70.4171529339209
20
1.14277092068002
30
0
41
1
10
70.3951103784874
20
1.20375020346336
30
0
0
SPLINE
5
C0
100
AcDbEntity
8
1
62
256
6
ByLayer
370
18
48
1
60
0
100
AcDbSpline
70
4
71
3
72
23
73
19
40
0
40
0
40
0
40
0
40
0.124999999999997
40
0.124999999999997
40
0.187499999999997
40
0.187499999999997
40
0.249999999999997
40
0.249999999999997
40
0.499999999999994
40
0.499999999999994
40
0.562499999999995
40
0.562499999999995
40
0.624999999999996
40
0.624999999999996
40
0.749999999999997
40
0.874999999999999
40
0.874999999999999
40
1
40
1
40
1
40
1
41
1
10
71.2096484612264
20
-4.9189504256552
30
0
41
1
10
71.1386569179056
20
-4.91889123609045
30
0
41
1
10
71.0710575945016
20
-4.90859598685012
30
0
41
1
10
70.9749969544438
20
-4.87704460003243
30
0
41
1
10
70.943868633816
20
-4.86383617531078
30
0
41
1
10
70.8834672895462
20
-4.83182094748182
30
0
41
1
10
70.854100627811
20
-4.81293017103712
30
0
41
1
10
70.7138081644588
20
-4.70516106300252
30
0
41
1
10
70.6214927376332
20
-4.5769015354758
30
0
41
1
10
70.5321955228702
20
-4.36149119914265
30
0
41
1
10
70.515657767382
20
-4.3156193021168
30
0
41
1
10
70.4853295186074
20
-4.21807656235831
30
0
41
1
10
70.4715044744012
20
-4.16620197199964
30
0
41
1
10
70.4348784562136
20
-4.0040252892305
30
0
41
1
10
70.3985246994943
20
-3.76943665750349
30
0
41
1
10
70.3867281263755
20
-3.49873700020729
30
0
41
1
10
70.3875425656091
20
-3.20949300993991
30
0
41
1
10
70.3943775555792
20
-3.05492368153807
30
0
41
1
10
70.4074908225452
20
-2.89470111870625
30
0
0
SPLINE
5
C1
100
AcDbEntity
8
1
62
256
6
ByLayer
370
18
48
1
60
0
100
AcDbSpline
70
4
71
3
72
8
73
4
40
0
40
0
40
0
40
0
40
1
40
1
40
1
40
1
41
1
10
71.2014142594859
20
-5.10846175474779
30
0
41
1
10
71.217978649615
20
-5.06380470961685
30
0
41
1
10
71.2345292546757
20
-5.01912389141899
30
0
41
1
10
71.2510647912148
20
-4.97442275666157
30
0
0
SPLINE
5
C2
100
AcDbEntity
8
1
62
256
6
ByLayer
370
18
48
1
60
0
100
AcDbSpline
70
4
71
3
72
14
73
10
40
0
40
0
40
0
40
0
40
0.25
40
0.25
40
0.5
40
0.5
40
0.75
40
0.75
40
1
40
1
40
1
40
1
41
1
10
4.25149302026736
20
3.16018325249104
30
0
41
1
10
4.22416344457167
20
3.17631286304606
30
0
41
1
10
4.19486384679155
20
3.19335807773052
30
0
41
1
10
4.13506566525558
20
3.22729479379009
30
0
41
1
10
4.10488401341118
20
3.24396022587734
30
0
41
1
10
4.05404842599677
20
3.27127071601143
30
0
41
1
10
4.035022620815
20
3.28110574227466
30
0
41
1
10
4.00970067583893
20
3.29400259918881
30
0
41
1
10
4.00306958436192
20
3.29724403568284
30
0
41
1
10
4.00085194704764
20
3.29828327359653
30
0
0
SPLINE
5
C3
100
AcDbEntity
8
1
62
256
6
ByLayer
370
18
48
1
60
0
100
AcDbSpline
70
4
71
3
72
12
73
8
40
0
40
0
40
0
40
0
40
0.250000000000008
40
0.250000000000008
40
0.500000000000016
40
0.500000000000016
40
1
40
1
40
1
40
1
41
1
10
71.251064791218
20
-4.97442275665307
30
0
41
1
10
71.2558998697206
20
-4.96135190798756
30
0
41
1
10
71.2605206990866
20
-4.9480819222282
30
0
41
1
10
71.2681705798427
20
-4.92417761948477
30
0
41
1
10
71.2711803893187
20
-4.9135834957018
30
0
41
1
10
71.2766933782664
20
-4.88972892984521
30
0
41
1
10
71.275652719417
20
-4.88514512549017
30
0
41
1
10
71.271976014185
20
-4.8882274015705
30
0
0
SPLINE
5
C4
100
AcDbEntity
8
1
62
256
6
ByLayer
370
18
48
1
60
0
100
AcDbSpline
70
4
71
3
72
16
73
12
40
0
40
0
40
0
40
0
40
0.0554194613462903
40
0.0554194613462903
40
0.381417782439229
40
0.381417782439229
40
0.707416103532167
40
0.707416103532167
40
0.870415264078637
40
0.870415264078637
40
1
40
1
40
1
40
1
41
1
10
40.2662624493441
20
-4.90051180667581
30
0
41
1
10
40.1470821869305
20
-4.90050885460423
30
0
41
1
10
40.0279267996253
20
-4.89935641703684
30
0
41
1
10
39.2079174144284
20
-4.88351400428883
30
0
41
1
10
38.5072193640932
20
-4.83025268914034
30
0
41
1
10
37.0992137477997
20
-4.64526908001201
30
0
41
1
10
36.3963061636208
20
-4.51414999526196
30
0
41
1
10
35.3403342797901
20
-4.26364783349536
30
0
41
1
10
34.9886772366398
20
-4.17130467621365
30
0
41
1
10
34.3602345832962
20
-3.99160924227661
30
0
41
1
10
34.0826013419177
20
-3.90700936805396
30
0
41
1
10
33.8054287276301
20
-3.81772174522223
30
0
0
SPLINE
5
C5
100
AcDbEntity
8
1
62
256
6
ByLayer
370
13
48
1
60
0
100
AcDbSpline
70
4
71
3
72
26
73
22
40
0
40
0
40
0
40
0
40
0.0166895354303874
40
0.0166895354303874
40
0.342342937498259
40
0.342342937498259
40
0.383049612756744
40
0.383049612756744
40
0.423756288015229
40
0.423756288015229
40
0.505169638532197
40
0.505169638532197
40
0.667996339566133
40
0.667996339566133
40
0.830823040600069
40
0.830823040600069
40
0.912236391117036
40
0.912236391117036
40
0.993649741634005
40
0.993649741634005
40
1
40
1
40
1
40
1
41
1
10
33.8054287276882
20
-3.81772174524096
30
0
41
1
10
33.7339576291447
20
-3.79469824233655
30
0
41
1
10
33.6625171579747
20
-3.7713630481953
30
0
41
1
10
32.1976426046522
20
-3.2864224026481
30
0
41
1
10
30.8141837243966
20
-2.7085375049798
30
0
41
1
10
29.2386190105377
20
-1.97392449127778
30
0
41
1
10
29.0632923867275
20
-1.89112574194337
30
0
41
1
10
28.7119565569619
20
-1.72344933276935
30
0
41
1
10
28.5357036596814
20
-1.6384607544808
30
0
41
1
10
28.0080835014875
20
-1.38164129787248
30
0
41
1
10
27.6577252422892
20
-1.20788843807006
30
0
41
1
10
26.6094440516127
20
-0.681746406270662
30
0
41
1
10
25.9141483325287
20
-0.324807150881867
30
0
41
1
10
24.5241690795627
20
0.388454606570605
30
0
41
1
10
23.8293530759991
20
0.744515719790144
30
0
41
1
10
22.7824229861407
20
1.26785803960095
30
0
41
1
10
22.4326391320889
20
1.44046904910189
30
0
41
1
10
21.7305896906556
20
1.78029333773387
30
0
41
1
10
21.3777104229104
20
1.9478123544321
30
0
41
1
10
20.9994649823909
20
2.12266281137289
30
0
41
1
10
20.972103875012
20
2.1352846458274
30
0
41
1
10
20.9447499314921
20
2.14787646078571
30
0
0
SPLINE
5
C6
100
AcDbEntity
8
1
62
256
6
ByLayer
370
18
48
1
60
0
100
AcDbSpline
70
4
71
3
72
18
73
14
40
0
40
0
40
0
40
0
40
0.0204142937537538
40
0.0204142937537538
40
0.31627298351899
40
0.31627298351899
40
0.464202328401607
40
0.464202328401607
40
0.538167000842917
40
0.538167000842917
40
0.612131673284225
40
0.612131673284225
40
1
40
1
40
1
40
1
41
1
10
25.037902495312
20
0.0144077551991302
30
0
41
1
10
25.0858681273653
20
-0.0107017644252494
30
0
41
1
10
25.1338336838246
20
-0.0358125158618066
30
0
41
1
10
25.8769672630482
20
-0.424830911125042
30
0
41
1
10
26.5724332094711
20
-0.788383970173726
30
0
41
1
10
27.6212236410202
20
-1.3231309336841
30
0
41
1
10
27.9717845963252
20
-1.49955309418434
30
0
41
1
10
28.4997715003154
20
-1.76008013897541
30
0
41
1
10
28.6761297945291
20
-1.84624067789059
30
0
41
1
10
29.0276472931837
20
-2.01609095603808
30
0
41
1
10
29.2030592498957
20
-2.09989908121992
30
0
41
1
10
30.2966301251377
20
-2.61542609809871
30
0
41
1
10
31.2074964675498
20
-3.01424043795191
30
0
41
1
10
32.1187088111765
20
-3.3672204773379
30
0
0
SPLINE
5
C7
100
AcDbEntity
8
1
62
256
6
ByLayer
370
13
48
1
60
0
100
AcDbSpline
70
4
71
3
72
20
73
16
40
0
40
0
40
0
40
0
40
0.147475853725023
40
0.147475853725023
40
0.254496250080077
40
0.254496250080077
40
0.361516646435131
40
0.361516646435131
40
0.575557439145239
40
0.575557439145239
40
0.789598231855347
40
0.789598231855347
40
0.896618628210403
40
0.896618628210403
40
1
40
1
40
1
40
1
41
1
10
32.118708811261
20
-3.36722047737061
30
0
41
1
10
32.5976078611609
20
-3.55273355418143
30
0
41
1
10
33.076602482117
20
-3.72558646587621
30
0
41
1
10
33.9053408398597
20
-3.99910058683091
30
0
41
1
10
34.2544898025656
20
-4.10657640821509
30
0
41
1
10
34.9550888259179
20
-4.3051109876759
30
0
41
1
10
35.3070320427534
20
-4.39633095433527
30
0
41
1
10
36.3636886730188
20
-4.6426007235022
30
0
41
1
10
37.0670756461203
20
-4.76979826438051
30
0
41
1
10
38.4759488057588
20
-4.94480911981887
30
0
41
1
10
39.1769582234664
20
-4.99208875523556
30
0
41
1
10
40.2288243795571
20
-5.00211962241443
30
0
41
1
10
40.5795224198244
20
-4.99530091090131
30
0
41
1
10
41.2699883328068
20
-4.96194737673724
30
0
41
1
10
41.6103241994338
20
-4.93601347056318
30
0
41
1
10
41.950183662233
20
-4.90074851863136
30
0
0
SPLINE
5
C8
100
AcDbEntity
8
1
62
256
6
ByLayer
370
18
48
1
60
0
100
AcDbSpline
70
4
71
3
72
88
73
84
40
0
40
0
40
0
40
0
40
0.008139602703602
40
0.008139602703602
40
0.0537433645796356
40
0.0537433645796356
40
0.076545245517652
40
0.076545245517652
40
0.0993471264556685
40
0.0993471264556685
40
0.122149007393685
40
0.122149007393685
40
0.144950888331701
40
0.144950888331701
40
0.167752769269718
40
0.167752769269718
40
0.190554650207734
40
0.190554650207734
40
0.236158412083766
40
0.236158412083766
40
0.258960293021782
40
0.258960293021782
40
0.281762173959797
40
0.281762173959797
40
0.304564054897813
40
0.304564054897813
40
0.327365935835828
40
0.327365935835828
40
0.350167816773844
40
0.350167816773844
40
0.372969697711859
40
0.372969697711859
40
0.395771578649875
40
0.395771578649875
40
0.41857345958789
40
0.41857345958789
40
0.46417722146392
40
0.46417722146392
40
0.486979102401935
40
0.486979102401935
40
0.50978098333995
40
0.50978098333995
40
0.532582864277966
40
0.532582864277966
40
0.555384745215981
40
0.555384745215981
40
0.578186626153996
40
0.578186626153996
40
0.600988507092011
40
0.600988507092011
40
0.646592268968041
40
0.646592268968041
40
0.669394149906056
40
0.669394149906056
40
0.692196030844071
40
0.692196030844071
40
0.703596971313079
40
0.703596971313079
40
0.714997911782087
40
0.714997911782087
40
0.737799792720104
40
0.737799792720104
40
0.76060167365812
40
0.76060167365812
40
0.783403554596137
40
0.783403554596137
40
0.806205435534154
40
0.806205435534154
40
0.829007316472171
40
0.829007316472171
40
0.874611078348205
40
0.874611078348205
40
0.897412959286223
40
0.897412959286223
40
0.920214840224241
40
0.920214840224241
40
0.943016721162258
40
0.943016721162258
40
0.965818602100276
40
0.965818602100276
40
0.988620483038293
40
0.988620483038293
40
1
40
1
40
1
40
1
41
1
10
31.8556217511478
20
3.68259773217821
30
0
41
1
10
31.9568360205641
20
3.72062051343471
30
0
41
1
10
32.0579366967816
20
3.75804046131947
30
0
41
1
10
32.7248172599698
20
4.00098689091459
30
0
41
1
10
33.2909284243705
20
4.18354385254017
30
0
41
1
10
34.1377815868052
20
4.42589690146437
30
0
41
1
10
34.4193682417663
20
4.50159336926254
30
0
41
1
10
34.9844356284103
20
4.63970766532748
30
0
41
1
10
35.267585063188
20
4.70250330449295
30
0
41
1
10
35.8346025474322
20
4.81599991173294
30
0
41
1
10
36.1184395131652
20
4.86671646071983
30
0
41
1
10
36.6866144495349
20
4.9557380558436
30
0
41
1
10
36.9717228930909
20
4.99358388085798
30
0
41
1
10
37.5445932185465
20
5.05571228084892
30
0
41
1
10
37.8306309639996
20
5.07992564947446
30
0
41
1
10
38.4000620564473
20
5.11479318846082
30
0
41
1
10
38.6832917780289
20
5.12545891066949
30
0
41
1
10
39.532985961205
20
5.13669931572735
30
0
41
1
10
40.0991596879363
20
5.11726561753227
30
0
41
1
10
40.9449747168184
20
5.04750770280666
30
0
41
1
10
41.226822478603
20
5.01748487019194
30
0
41
1
10
41.7920631408258
20
4.94476475848194
30
0
41
1
10
42.0751114814471
20
4.90196964897174
30
0
41
1
10
42.6416283010019
20
4.80315202911657
30
0
41
1
10
42.9247798246615
20
4.74686345686234
30
0
41
1
10
43.4928026713948
20
4.62150554503381
30
0
41
1
10
43.7781266676043
20
4.55287866514607
30
0
41
1
10
44.3506506576604
20
4.40311082374024
30
0
41
1
10
44.6369464958708
20
4.32222954372651
30
0
41
1
10
45.206068375106
20
4.1488012523406
30
0
41
1
10
45.4894181713312
20
4.05613391016169
30
0
41
1
10
46.0564367875755
20
3.86234241873149
30
0
41
1
10
46.339673349075
20
3.76074446127365
30
0
41
1
10
46.9051615566233
20
3.54767703398238
30
0
41
1
10
47.1872186103476
20
3.43592275877788
30
0
41
1
10
48.0326282157434
20
3.08656864315361
30
0
41
1
10
48.5983307390016
20
2.83968774625726
30
0
41
1
10
49.4471267255418
20
2.44398838920989
30
0
41
1
10
49.7298527077226
20
2.30732835773569
30
0
41
1
10
50.2981476391866
20
2.03000153725287
30
0
41
1
10
50.5833406036516
20
1.88873748132269
30
0
41
1
10
51.1553479034379
20
1.60006199034848
30
0
41
1
10
51.4416602192149
20
1.45272259987709
30
0
41
1
10
52.0105032180642
20
1.15430399385261
30
0
41
1
10
52.2944735883693
20
1.00447941170123
30
0
41
1
10
52.8618270148597
20
0.704182679293041
30
0
41
1
10
53.1450692143557
20
0.553441059147673
30
0
41
1
10
53.7102533885622
20
0.249949052071003
30
0
41
1
10
53.9918087058694
20
0.0964665083587022
30
0
41
1
10
54.8380241291366
20
-0.360338622719183
30
0
41
1
10
55.4035920950574
20
-0.661260624570758
30
0
41
1
10
56.2511608054654
20
-1.11271811520405
30
0
41
1
10
56.5341268666323
20
-1.26213013111314
30
0
41
1
10
57.1024263665254
20
-1.55602300325313
30
0
41
1
10
57.387444556328
20
-1.70109818632426
30
0
41
1
10
57.815969318415
20
-1.91646933261643
30
0
41
1
10
57.9591496187496
20
-1.98796543648979
30
0
41
1
10
58.2447077981562
20
-2.12978278429568
30
0
41
1
10
58.3870992168762
20
-2.20013035427121
30
0
41
1
10
58.8141206906939
20
-2.40770302489503
30
0
41
1
10
59.0985132360413
20
-2.54166034821503
30
0
41
1
10
59.6660392117329
20
-2.80222763501897
30
0
41
1
10
59.9492152385178
20
-2.92876117880581
30
0
41
1
10
60.5139124175738
20
-3.17500913830349
30
0
41
1
10
60.7955798322809
20
-3.29444010430041
30
0
41
1
10
61.3601187688025
20
-3.5222870942668
30
0
41
1
10
61.6425608261767
20
-3.63137014422901
30
0
41
1
10
62.2073433822754
20
-3.84047347693934
30
0
41
1
10
62.4894681166384
20
-3.94074680239223
30
0
41
1
10
63.3366219192726
20
-4.2263775082009
30
0
41
1
10
63.9052954900443
20
-4.39349936565765
30
0
41
1
10
64.7612288771394
20
-4.61186760355682
30
0
41
1
10
65.0470513484015
20
-4.67929007175454
30
0
41
1
10
65.6171113344224
20
-4.79944342378241
30
0
41
1
10
65.9016140784826
20
-4.85277708542361
30
0
41
1
10
66.4691243290082
20
-4.94656580438428
30
0
41
1
10
66.75203666174
20
-4.98705732756127
30
0
41
1
10
67.3163521690775
20
-5.05494696962836
30
0
41
1
10
67.5985929898717
20
-5.08199731950256
30
0
41
1
10
68.1633284791432
20
-5.12267679114285
30
0
41
1
10
68.4457114950317
20
-5.13634774064852
30
0
41
1
10
68.8687180409611
20
-5.14680679217142
30
0
41
1
10
69.0093997206872
20
-5.14860422321846
30
0
41
1
10
69.1501357119618
20
-5.14870902721111
30
0
0
SPLINE
5
C9
100
AcDbEntity
8
1
62
256
6
ByLayer
370
18
48
1
60
0
100
AcDbSpline
70
2053
71
3
72
60
73
56
40
0
40
0
40
0
40
0
40
0.0312499999999988
40
0.0312499999999988
40
0.0624999999999977
40
0.0624999999999977
40
0.0937499999999965
40
0.0937499999999965
40
0.124999999999995
40
0.124999999999995
40
0.156249999999994
40
0.156249999999994
40
0.187499999999993
40
0.187499999999993
40
0.249999999999991
40
0.249999999999991
40
0.28124999999999
40
0.28124999999999
40
0.312499999999989
40
0.312499999999989
40
0.374999999999987
40
0.374999999999987
40
0.437499999999984
40
0.437499999999984
40
0.468749999999985
40
0.468749999999985
40
0.499999999999985
40
0.499999999999985
40
0.531249999999986
40
0.531249999999986
40
0.562499999999986
40
0.562499999999986
40
0.593749999999987
40
0.593749999999987
40
0.624999999999987
40
0.624999999999987
40
0.656249999999988
40
0.656249999999988
40
0.687499999999988
40
0.687499999999988
40
0.74999999999999
40
0.74999999999999
40
0.781249999999991
40
0.781249999999991
40
0.812499999999992
40
0.812499999999992
40
0.843749999999994
40
0.843749999999994
40
0.874999999999995
40
0.874999999999995
40
0.906249999999996
40
0.906249999999996
40
0.937499999999997
40
0.937499999999997
40
1
40
1
40
1
40
1
41
1
10
71.5824280351539
20
-2.99796404057525
30
0
41
1
10
71.6106337254657
20
-2.95759643607585
30
0
41
1
10
71.6382499233058
20
-2.91435017025284
30
0
41
1
10
71.6922015521042
20
-2.82160328548974
30
0
41
1
10
71.7188303357522
20
-2.77148894898167
30
0
41
1
10
71.7689107844791
20
-2.66702236736677
30
0
41
1
10
71.7923015062833
20
-2.61294506132052
30
0
41
1
10
71.8352715883026
20
-2.50052964416838
30
0
41
1
10
71.8543221631104
20
-2.44339736732945
30
0
41
1
10
71.8859400385379
20
-2.33116512143704
30
0
41
1
10
71.8988405603478
20
-2.27458917465654
30
0
41
1
10
71.9166861734524
20
-2.16891358721415
30
0
41
1
10
71.9218821190324
20
-2.11883782752267
30
0
41
1
10
71.9261925353092
20
-1.98168190129795
30
0
41
1
10
71.913982922747
20
-1.90972490682555
30
0
41
1
10
71.8799679582003
20
-1.83346324135161
30
0
41
1
10
71.8659007489155
20
-1.81301324495485
30
0
41
1
10
71.8340087689173
20
-1.78221678954051
30
0
41
1
10
71.8160900655729
20
-1.77161862061965
30
0
41
1
10
71.7568995068448
20
-1.75307263446442
30
0
41
1
10
71.7119524433562
20
-1.75852416849634
30
0
41
1
10
71.6129935588123
20
-1.80083567488896
30
0
41
1
10
71.5607951689299
20
-1.8368955614512
30
0
41
1
10
71.4783537344214
20
-1.91370024174159
30
0
41
1
10
71.4503263594131
20
-1.94308675509922
30
0
41
1
10
71.3946690662643
20
-2.00809498086852
30
0
41
1
10
71.3668273606479
20
-2.04389966214342
30
0
41
1
10
71.311115037986
20
-2.12281615705211
30
0
41
1
10
71.2829299506222
20
-2.16647883711784
30
0
41
1
10
71.2285070959026
20
-2.25935624446299
30
0
41
1
10
71.2022224082405
20
-2.30851999347197
30
0
41
1
10
71.1518027756762
20
-2.41316873411677
30
0
41
1
10
71.1279286068858
20
-2.46826318667988
30
0
41
1
10
71.0851726280355
20
-2.58002005753946
30
0
41
1
10
71.0657941555186
20
-2.63813507866027
30
0
41
1
10
71.0341162574591
20
-2.75099892255071
30
0
41
1
10
71.0214807445433
20
-2.80663921525735
30
0
41
1
10
71.0035305226727
20
-2.91348840685879
30
0
41
1
10
70.9984469397676
20
-2.96300000690954
30
0
41
1
10
70.9940378776549
20
-3.10063331200121
30
0
41
1
10
71.006093188758
20
-3.17345328126228
30
0
41
1
10
71.0396908336287
20
-3.25060167747364
30
0
41
1
10
71.0535582781303
20
-3.27136262462039
30
0
41
1
10
71.085397768497
20
-3.30300753903811
30
0
41
1
10
71.1032239289113
20
-3.31386256989092
30
0
41
1
10
71.1422846046715
20
-3.32669169535569
30
0
41
1
10
71.1636497479147
20
-3.32859169252143
30
0
41
1
10
71.2084376552422
20
-3.32389267607849
30
0
41
1
10
71.2319741356789
20
-3.31736952733888
30
0
41
1
10
71.281246592437
20
-3.29628849022561
30
0
41
1
10
71.3071395968141
20
-3.28158332297411
30
0
41
1
10
71.3597160337547
20
-3.24489781149799
30
0
41
1
10
71.3865344513132
20
-3.22289706374948
30
0
41
1
10
71.4686066252244
20
-3.14573922801648
30
0
41
1
10
71.5260166545303
20
-3.07869924957407
30
0
41
1
10
71.5824280351539
20
-2.99796404057525
30
0
0
SPLINE
5
CA
100
AcDbEntity
8
1
62
256
6
ByLayer
370
18
48
1
60
0
100
AcDbSpline
70
4
71
3
72
22
73
18
40
0
40
0
40
0
40
0
40
0.250000000000009
40
0.250000000000009
40
0.500000000000017
40
0.500000000000017
40
0.625000000000013
40
0.625000000000013
40
0.750000000000009
40
0.750000000000009
40
0.812500000000006
40
0.812500000000006
40
0.875000000000004
40
0.875000000000004
40
0.937500000000002
40
0.937500000000002
40
1
40
1
40
1
40
1
41
1
10
70.5443515268037
20
1.49252593574815
30
0
41
1
10
70.7181673058865
20
1.5240064365239
30
0
41
1
10
70.891063305855
20
1.55990800857904
30
0
41
1
10
71.2337266009383
20
1.64728652290702
30
0
41
1
10
71.4036039436272
20
1.69815937586409
30
0
41
1
10
71.6535472151105
20
1.79968034562168
30
0
41
1
10
71.7356481580923
20
1.83774952558667
30
0
41
1
10
71.8922644425829
20
1.92657120807704
30
0
41
1
10
71.9670985649209
20
1.9773531939291
30
0
41
1
10
72.0657559461474
20
2.06855476558243
30
0
41
1
10
72.0967426926411
20
2.10198138218053
30
0
41
1
10
72.1506945108141
20
2.17433073587171
30
0
41
1
10
72.1736495929163
20
2.21308405704923
30
0
41
1
10
72.2091452584935
20
2.29733503202832
30
0
41
1
10
72.2208231135665
20
2.34096695840503
30
0
41
1
10
72.2319479084873
20
2.43092921853878
30
0
41
1
10
72.231198239721
20
2.47735317059801
30
0
41
1
10
72.2251889053471
20
2.52244573430508
30
0
0
SPLINE
5
CB
100
AcDbEntity
8
1
62
256
6
ByLayer
370
18
48
1
60
0
100
AcDbSpline
70
4
71
3
72
54
73
50
40
0
40
0
40
0
40
0
40
0.0761237448751802
40
0.0761237448751802
40
0.11418561731277
40
0.11418561731277
40
0.15224748975036
40
0.15224748975036
40
0.19030936218795
40
0.19030936218795
40
0.228371234625541
40
0.228371234625541
40
0.266433107063131
40
0.266433107063131
40
0.304494979500721
40
0.304494979500721
40
0.380618724375899
40
0.380618724375899
40
0.41868059681349
40
0.41868059681349
40
0.45674246925108
40
0.45674246925108
40
0.49480434168867
40
0.49480434168867
40
0.53286621412626
40
0.53286621412626
40
0.57092808656385
40
0.57092808656385
40
0.60898995900144
40
0.60898995900144
40
0.64705183143903
40
0.64705183143903
40
0.68511370387662
40
0.68511370387662
40
0.761237448751801
40
0.761237448751801
40
0.799299321189391
40
0.799299321189391
40
0.837361193626981
40
0.837361193626981
40
0.875423066064571
40
0.875423066064571
40
0.913484938502161
40
0.913484938502161
40
0.951546810939751
40
0.951546810939751
40
0.989608683377341
40
0.989608683377341
40
1
40
1
40
1
40
1
41
1
10
16.8285887956893
20
3.57746901391442
30
0
41
1
10
17.4005076137368
20
3.3562824302619
30
0
41
1
10
17.970947082565
20
3.12098013271765
30
0
41
1
10
18.8214119765886
20
2.74320768259665
30
0
41
1
10
19.1037020720065
20
2.61253349586664
30
0
41
1
10
19.6691120219901
20
2.34699845401698
30
0
41
1
10
19.9519743787182
20
2.21175092695694
30
0
41
1
10
20.5174737249465
20
1.93544836307205
30
0
41
1
10
20.800107311707
20
1.79438526727287
30
0
41
1
10
21.3648004040825
20
1.50568042545376
30
0
41
1
10
21.6475640549779
20
1.35929655159757
30
0
41
1
10
22.2149116599817
20
1.06436344112257
30
0
41
1
10
22.4992466209617
20
0.915363451094464
30
0
41
1
10
23.0688208343028
20
0.613395992023413
30
0
41
1
10
23.3536967779442
20
0.459645508609896
30
0
41
1
10
24.2124862186465
20
-0.0020868466190507
30
0
41
1
10
24.7828982744412
20
-0.305674131428901
30
0
41
1
10
25.6323663700732
20
-0.760907728127336
30
0
41
1
10
25.9148536394477
20
-0.911897044859757
30
0
41
1
10
26.4805575417873
20
-1.20855137013817
30
0
41
1
10
26.7633938767943
20
-1.35494707040886
30
0
41
1
10
27.3285903719916
20
-1.64470387765391
30
0
41
1
10
27.6106668705729
20
-1.7885640741224
30
0
41
1
10
28.1753674588254
20
-2.07131064095049
30
0
41
1
10
28.4585729254658
20
-2.20918801071466
30
0
41
1
10
29.0259535899751
20
-2.47930108841925
30
0
41
1
10
29.3101640102854
20
-2.61147428476428
30
0
41
1
10
29.8791959987765
20
-2.8706622764258
30
0
41
1
10
30.163989211302
20
-2.99775912274472
30
0
41
1
10
30.7369149863555
20
-3.24196118289953
30
0
41
1
10
31.0226552982487
20
-3.35898331686403
30
0
41
1
10
31.5922776164017
20
-3.58377977025518
30
0
41
1
10
31.8759981738947
20
-3.69175975532636
30
0
41
1
10
32.7248172599698
20
-4.00098689091465
30
0
41
1
10
33.2909284243705
20
-4.1835438525402
30
0
41
1
10
34.1377815868052
20
-4.42589690146437
30
0
41
1
10
34.4193682417663
20
-4.50159336926254
30
0
41
1
10
34.9844356284103
20
-4.63970766532748
30
0
41
1
10
35.267585063188
20
-4.70250330449295
30
0
41
1
10
35.8346025474322
20
-4.81599991173294
30
0
41
1
10
36.1184395131652
20
-4.86671646071983
30
0
41
1
10
36.6866144495349
20
-4.9557380558436
30
0
41
1
10
36.9717228930908
20
-4.99358388085798
30
0
41
1
10
37.5445932185464
20
-5.05571228084892
30
0
41
1
10
37.8306309639996
20
-5.07992564947446
30
0
41
1
10
38.4000620564473
20
-5.11479318846082
30
0
41
1
10
38.6832917780288
20
-5.12545891066949
30
0
41
1
10
39.0438485089878
20
-5.13022863109663
30
0
41
1
10
39.1211684592373
20
-5.13074979253756
30
0
41
1
10
39.1984779156453
20
-5.13076882969386
30
0
0
SPLINE
5
CC
100
AcDbEntity
8
1
62
256
6
ByLayer
370
18
48
1
60
0
100
AcDbSpline
70
4
71
3
72
26
73
22
40
0
40
0
40
0
40
0
40
0.0126560108515717
40
0.0126560108515717
40
0.102414555319608
40
0.102414555319608
40
0.281931644255686
40
0.281931644255686
40
0.371690188723725
40
0.371690188723725
40
0.461448733191764
40
0.461448733191764
40
0.551207277659802
40
0.551207277659802
40
0.640965822127841
40
0.640965822127841
40
0.73072436659588
40
0.73072436659588
40
0.820482911063919
40
0.820482911063919
40
1
40
1
40
1
40
1
41
1
10
61.8054976617942
20
3.69142512565611
30
0
41
1
10
61.8453164013845
20
3.70634802078732
30
0
41
1
10
61.8851347575816
20
3.72117996030369
30
0
41
1
10
62.2073433822753
20
3.84047347693931
30
0
41
1
10
62.4894681166383
20
3.94074680239223
30
0
41
1
10
63.3366219192724
20
4.22637750820093
30
0
41
1
10
63.9052954900442
20
4.39349936565765
30
0
41
1
10
64.7612288771393
20
4.61186760355679
30
0
41
1
10
65.0470513484014
20
4.67929007175454
30
0
41
1
10
65.6171113344224
20
4.79944342378238
30
0
41
1
10
65.9016140784825
20
4.85277708542361
30
0
41
1
10
66.4691243290082
20
4.94656580438428
30
0
41
1
10
66.75203666174
20
4.98705732756127
30
0
41
1
10
67.3163521690774
20
5.05494696962836
30
0
41
1
10
67.5985929898717
20
5.08199731950256
30
0
41
1
10
68.1633284791432
20
5.12267679114282
30
0
41
1
10
68.4457114950317
20
5.13634774064852
30
0
41
1
10
69.0100737206246
20
5.15030188308876
30
0
41
1
10
69.2916776526711
20
5.15051536223652
30
0
41
1
10
70.1395383637538
20
5.1306700592869
30
0
41
1
10
70.7079688783852
20
5.09079666191667
30
0
41
1
10
71.2778077283087
20
5.02273661722145
30
0
0
SPLINE
5
CD
100
AcDbEntity
8
1
62
256
6
ByLayer
370
13
48
1
60
0
100
AcDbSpline
70
4
71
3
72
14
73
10
40
0
40
0
40
0
40
0
40
0.276701850360582
40
0.276701850360582
40
0.415052775540873
40
0.415052775540873
40
0.553403700721163
40
0.553403700721163
40
1
40
1
40
1
40
1
41
1
10
4.20389873260274
20
-4.05900238941493
30
0
41
1
10
4.90866051872604
20
-4.27273829585562
30
0
41
1
10
5.61087956470956
20
-4.45169857207105
30
0
41
1
10
6.66548204945991
20
-4.66465607941618
30
0
41
1
10
7.01723577679042
20
-4.72637305782857
30
0
41
1
10
7.72208625588547
20
-4.83048802844598
30
0
41
1
10
8.07401395667077
20
-4.87268798607943
30
0
41
1
10
9.5553746351662
20
-5.00813287733558
30
0
41
1
10
10.6749063582467
20
-5.00673355695429
30
0
41
1
10
11.7978309231439
20
-4.90290985479976
30
0
0
SPLINE
5
CE
100
AcDbEntity
8
1
62
256
6
ByLayer
370
18
48
1
60
0
100
AcDbSpline
70
4
71
3
72
16
73
12
40
0
40
0
40
0
40
0
40
0.0759020969718668
40
0.0759020969718668
40
0.150462164724156
40
0.150462164724156
40
0.225022232476444
40
0.225022232476444
40
0.523262503485598
40
0.523262503485598
40
1
40
1
40
1
40
1
41
1
10
55.0432691269206
20
-0.0145929435239793
30
0
41
1
10
55.2208874916007
20
-0.107877669779697
30
0
41
1
10
55.398780709992
20
-0.201293742485149
30
0
41
1
10
55.7520606370194
20
-0.386563633633074
30
0
41
1
10
55.9274365163408
20
-0.47841321884124
30
0
41
1
10
56.2789237105778
20
-0.661979196049003
30
0
41
1
10
56.455184906509
20
-0.753781734178119
30
0
41
1
10
57.3334256306814
20
-1.20908122206336
30
0
41
1
10
58.0303060698004
20
-1.56285532915126
30
0
41
1
10
59.8348761718514
20
-2.44042320110637
30
0
41
1
10
60.9387023826621
20
-2.93929646197523
30
0
41
1
10
62.050961961312
20
-3.37250893001112
30
0
0
SPLINE
5
CF
100
AcDbEntity
8
1
62
256
6
ByLayer
370
13
48
1
60
0
100
AcDbSpline
70
4
71
3
72
20
73
16
40
0
40
0
40
0
40
0
40
0.0912187018305956
40
0.0912187018305956
40
0.204816364101771
40
0.204816364101771
40
0.318414026372946
40
0.318414026372946
40
0.545609350915296
40
0.545609350915296
40
0.772804675457646
40
0.772804675457646
40
0.886402337728823
40
0.886402337728823
40
1
40
1
40
1
40
1
41
1
10
62.0509610287821
20
-3.37250856680137
30
0
41
1
10
62.3303296497494
20
-3.48131948007199
30
0
41
1
10
62.6102303100913
20
-3.58598802208761
30
0
41
1
10
63.2404185376026
20
-3.81082441401136
30
0
41
1
10
63.5914619195897
20
-3.92865696173962
30
0
41
1
10
64.2953524251674
20
-4.14840681706798
30
0
41
1
10
64.6456859734499
20
-4.24953784451532
30
0
41
1
10
65.6932409178437
20
-4.52577200789298
30
0
41
1
10
66.3869325959109
20
-4.67382746096075
30
0
41
1
10
67.7722403185211
20
-4.89368933389324
30
0
41
1
10
68.4639601021033
20
-4.96558880758082
30
0
41
1
10
69.5051361226457
20
-5.0141057914866
30
0
41
1
10
69.8528176494112
20
-5.02037745508014
30
0
41
1
10
70.5502142887982
20
-5.01267293836074
30
0
41
1
10
70.8999866496317
20
-4.99832379167742
30
0
41
1
10
71.2510647911977
20
-4.97442275665443
30
0
0
SPLINE
5
D0
100
AcDbEntity
8
1
62
256
6
ByLayer
370
18
48
1
60
0
100
AcDbSpline
70
4
71
3
72
12
73
8
40
0
40
0
40
0
40
0
40
0.249999999999999
40
0.249999999999999
40
0.499999999999997
40
0.499999999999997
40
1
40
1
40
1
40
1
41
1
10
4.13181539344902
20
-4.14380326440258
30
0
41
1
10
4.1141583938601
20
-4.13825238897627
30
0
41
1
10
4.09798031475825
20
-4.13156909627898
30
0
41
1
10
4.0684784782635
20
-4.11595553123982
30
0
41
1
10
4.05513028320885
20
-4.10693710202651
30
0
41
1
10
4.02156360126625
20
-4.07772228821506
30
0
41
1
10
4.00698800240355
20
-4.05466183421115
30
0
41
1
10
4.00198875920415
20
-4.03042451261186
30
0
0
SPLINE
5
D1
100
AcDbEntity
8
1
62
256
6
ByLayer
370
18
48
1
60
0
100
AcDbSpline
70
4
71
3
72
16
73
12
40
0
40
0
40
0
40
0
40
0.249999999999997
40
0.249999999999997
40
0.374999999999998
40
0.374999999999998
40
0.499999999999999
40
0.499999999999999
40
0.75
40
0.75
40
1
40
1
40
1
40
1
41
1
10
70.3951103784874
20
1.20375020346336
30
0
41
1
10
70.3845965234869
20
1.23283609321646
30
0
41
1
10
70.377665672566
20
1.2628868012491
30
0
41
1
10
70.3753523780966
20
1.31014747723685
30
0
41
1
10
70.3759942738972
20
1.32588320828015
30
0
41
1
10
70.3807425909251
20
1.35719937954968
30
0
41
1
10
70.3844894428307
20
1.37303885597544
30
0
41
1
10
70.4033541709126
20
1.41707766045377
30
0
41
1
10
70.426387451671
20
1.44230994837599
30
0
41
1
10
70.4810831995778
20
1.47654567692649
30
0
41
1
10
70.5124553527113
20
1.48674908661187
30
0
41
1
10
70.5443515268038
20
1.49252593574815
30
0
0
SPLINE
5
D2
100
AcDbEntity
8
1
62
256
6
ByLayer
370
18
48
1
60
0
100
AcDbSpline
70
4
71
3
72
88
73
84
40
0
40
0
40
0
40
0
40
0.0080554348310185
40
0.0080554348310185
40
0.0318870661615127
40
0.0318870661615127
40
0.0795503288225012
40
0.0795503288225012
40
0.103381960152996
40
0.103381960152996
40
0.127213591483491
40
0.127213591483491
40
0.151045222813985
40
0.151045222813985
40
0.17487685414448
40
0.17487685414448
40
0.198708485474974
40
0.198708485474974
40
0.222540116805469
40
0.222540116805469
40
0.246371748135964
40
0.246371748135964
40
0.270203379466459
40
0.270203379466459
40
0.294035010796953
40
0.294035010796953
40
0.317866642127448
40
0.317866642127448
40
0.341698273457943
40
0.341698273457943
40
0.365529904788437
40
0.365529904788437
40
0.389361536118932
40
0.389361536118932
40
0.413193167449427
40
0.413193167449427
40
0.460856430110416
40
0.460856430110416
40
0.484688061440911
40
0.484688061440911
40
0.508519692771405
40
0.508519692771405
40
0.5323513241019
40
0.5323513241019
40
0.556182955432394
40
0.556182955432394
40
0.580014586762889
40
0.580014586762889
40
0.603846218093384
40
0.603846218093384
40
0.627677849423879
40
0.627677849423879
40
0.651509480754373
40
0.651509480754373
40
0.675341112084868
40
0.675341112084868
40
0.699172743415363
40
0.699172743415363
40
0.723004374745858
40
0.723004374745858
40
0.746836006076352
40
0.746836006076352
40
0.770667637406847
40
0.770667637406847
40
0.794499268737342
40
0.794499268737342
40
0.818330900067836
40
0.818330900067836
40
0.842162531398331
40
0.842162531398331
40
0.865994162728826
40
0.865994162728826
40
0.889825794059321
40
0.889825794059321
40
0.913657425389815
40
0.913657425389815
40
0.93748905672031
40
0.93748905672031
40
0.961320688050805
40
0.961320688050805
40
0.9851523193813
40
0.9851523193813
40
1
40
1
40
1
40
1
41
1
10
61.8436363404295
20
-3.68191803323413
30
0
41
1
10
61.745346431744
20
-3.71548539616609
30
0
41
1
10
61.6469583461287
20
-3.74843711985653
30
0
41
1
10
61.2569662647453
20
-3.8761909130713
30
0
41
1
10
60.9642441943923
20
-3.96599576263856
30
0
41
1
10
60.0846471744681
20
-4.21955044891598
30
0
41
1
10
59.5007303548199
20
-4.3679475991166
30
0
41
1
10
58.6235509402985
20
-4.55180624729889
30
0
41
1
10
58.331083245896
20
-4.6068706468549
30
0
41
1
10
57.7461174565277
20
-4.70358742443227
30
0
41
1
10
57.4531965706721
20
-4.74510738397652
30
0
41
1
10
56.8671780066252
20
-4.81240412624072
30
0
41
1
10
56.5749453927251
20
-4.83909146248848
30
0
41
1
10
55.9917845019242
20
-4.8809122347939
30
0
41
1
10
55.7011205388532
20
-4.89555428002299
30
0
41
1
10
55.1208642025605
20
-4.91011786340405
30
0
41
1
10
54.8310128327013
20
-4.91003800167272
30
0
41
1
10
54.251568995662
20
-4.89755871919675
30
0
41
1
10
53.9619989838315
20
-4.88489492462443
30
0
41
1
10
53.3833799482295
20
-4.84562748984362
30
0
41
1
10
53.0942754454207
20
-4.81845369832095
30
0
41
1
10
52.5148090397524
20
-4.75031438658374
30
0
41
1
10
52.2246389990136
20
-4.71049184437484
30
0
41
1
10
51.6434657093718
20
-4.61803117052975
30
0
41
1
10
51.3526244490258
20
-4.56510890900193
30
0
41
1
10
50.769259670702
20
-4.44478250010587
30
0
41
1
10
50.4763359211271
20
-4.37823022595566
30
0
41
1
10
49.8893603669088
20
-4.23399639022085
30
0
41
1
10
49.596290612238
20
-4.1562809585057
30
0
41
1
10
49.0112925069978
20
-3.9879172275356
30
0
41
1
10
48.7192543139284
20
-3.8970678834329
30
0
41
1
10
48.1344168485457
20
-3.70661417799948
30
0
41
1
10
47.8418160642551
20
-3.6066720479424
30
0
41
1
10
47.2562736855049
20
-3.39621270051762
30
0
41
1
10
46.9634167468701
20
-3.28515905912079
30
0
41
1
10
46.0836107910818
20
-2.93779238679673
30
0
41
1
10
45.49778757107
20
-2.69242528553212
30
0
41
1
10
44.620721367417
20
-2.2988973428925
30
0
41
1
10
44.3284427768829
20
-2.1640168303112
30
0
41
1
10
43.7427700245738
20
-1.89020935955943
30
0
41
1
10
43.4493974741892
20
-1.75050301115934
30
0
41
1
10
42.862326708097
20
-1.4655144273602
30
0
41
1
10
42.5696813140157
20
-1.32009833754864
30
0
41
1
10
41.9844626585966
20
-1.02726661412336
30
0
41
1
10
41.691831655127
20
-0.879931927206655
30
0
41
1
10
41.1065491226047
20
-0.582993789265828
30
0
41
1
10
40.8138607969775
20
-0.433460692398342
30
0
41
1
10
40.2285142694778
20
-0.132128977158544
30
0
41
1
10
39.9353846740214
20
0.0191669834105141
30
0
41
1
10
39.3485751501273
20
0.320354747587402
30
0
41
1
10
39.0560996699797
20
0.469934812541567
30
0
41
1
10
38.47290903797
20
0.766876998198825
30
0
41
1
10
38.1823562017662
20
0.914704675767211
30
0
41
1
10
37.6017098948522
20
1.20665474012736
30
0
41
1
10
37.3116607957285
20
1.35055094654481
30
0
41
1
10
36.7320498535112
20
1.63367661267105
30
0
41
1
10
36.4424825205777
20
1.77264286717846
30
0
41
1
10
35.8638169848501
20
2.04706995637218
30
0
41
1
10
35.5744912120298
20
2.18186463181621
30
0
41
1
10
34.9948396313556
20
2.44432131151214
30
0
41
1
10
34.7046080355587
20
2.57192958450986
30
0
41
1
10
34.1232769022546
20
2.8203377260005
30
0
41
1
10
33.8324488583526
20
2.94186648295116
30
0
41
1
10
33.2490152150667
20
3.17668027804155
30
0
41
1
10
32.9561437425492
20
3.29002138334332
30
0
41
1
10
32.3689358471113
20
3.50575233123163
30
0
41
1
10
32.0757441565436
20
3.60872950845257
30
0
41
1
10
31.490385677851
20
3.80589616608768
30
0
41
1
10
31.1979535243802
20
3.89942851708977
30
0
41
1
10
30.6126072970853
20
4.07309325699381
30
0
41
1
10
30.3197608862208
20
4.15362523277858
30
0
41
1
10
29.7337531255885
20
4.30489460941533
30
0
41
1
10
29.4405429832814
20
4.37551343974411
30
0
41
1
10
28.8539912280679
20
4.50324144799453
30
0
41
1
10
28.5617243367332
20
4.55908266684852
30
0
41
1
10
27.978413482665
20
4.65843981433122
30
0
41
1
10
27.687349007789
20
4.70242272604247
30
0
41
1
10
27.1067890644697
20
4.77757841111682
30
0
41
1
10
26.8169700613007
20
4.80854371031768
30
0
41
1
10
26.2374742042303
20
4.85456257605404
30
0
41
1
10
25.9477945231664
20
4.87093367879086
30
0
41
1
10
25.4777791190075
20
4.88773008431528
30
0
41
1
10
25.2974868951968
20
4.89172777504302
30
0
41
1
10
25.1171291656462
20
4.89302244746673
30
0
0
SPLINE
5
D3
100
AcDbEntity
8
1
62
256
6
ByLayer
370
18
48
1
60
0
100
AcDbSpline
70
4
71
3
72
56
73
52
40
0
40
0
40
0
40
0
40
0.0399042292098857
40
0.0399042292098857
40
0.0798084584197715
40
0.0798084584197715
40
0.119712687629657
40
0.119712687629657
40
0.159616916839543
40
0.159616916839543
40
0.239425375259315
40
0.239425375259315
40
0.2793296044692
40
0.2793296044692
40
0.319233833679085
40
0.319233833679085
40
0.35913806288897
40
0.35913806288897
40
0.399042292098857
40
0.399042292098857
40
0.438946521308743
40
0.438946521308743
40
0.478850750518629
40
0.478850750518629
40
0.518754979728515
40
0.518754979728515
40
0.558659208938401
40
0.558659208938401
40
0.598563438148287
40
0.598563438148287
40
0.638467667358173
40
0.638467667358173
40
0.678371896568059
40
0.678371896568059
40
0.718276125777945
40
0.718276125777945
40
0.758180354987831
40
0.758180354987831
40
0.798084584197717
40
0.798084584197717
40
0.837988813407603
40
0.837988813407603
40
0.877893042617489
40
0.877893042617489
40
0.917797271827375
40
0.917797271827375
40
0.957701501037261
40
0.957701501037261
40
0.997605730247147
40
0.997605730247147
40
1
40
1
40
1
40
1
41
1
10
9.92307520196653
20
0.0512710547771746
30
0
41
1
10
10.2164216439072
20
-0.0993681908584563
30
0
41
1
10
10.5090137102296
20
-0.249082645100913
30
0
41
1
10
11.0925112381667
20
-0.546567852917519
30
0
41
1
10
11.3834389541812
20
-0.694381656611938
30
0
41
1
10
11.9640990756397
20
-0.987884346038555
30
0
41
1
10
12.2536937768354
20
-1.13381715335177
30
0
41
1
10
12.8330320193035
20
-1.42043559037657
30
0
41
1
10
13.1225858582144
20
-1.56144397793585
30
0
41
1
10
13.9909204139833
20
-1.97806265743989
30
0
41
1
10
14.5689080873054
20
-2.24841229956388
30
0
41
1
10
15.4401287703324
20
-2.63125648783031
30
0
41
1
10
15.7310266312454
20
-2.75562893473691
30
0
41
1
10
16.3137422314146
20
-2.99818735978266
30
0
41
1
10
16.6056117339411
20
-3.11594555405588
30
0
41
1
10
17.1921589415879
20
-3.34147761302586
30
0
41
1
10
17.485338767582
20
-3.44924315523829
30
0
41
1
10
18.0692862055799
20
-3.65518724243034
30
0
41
1
10
18.3603231840407
20
-3.75370254581301
30
0
41
1
10
18.9410198992124
20
-3.93822477122131
30
0
41
1
10
19.2311087040509
20
-4.02428182525
30
0
41
1
10
19.8108151407704
20
-4.18557306202956
30
0
41
1
10
20.1003946647319
20
-4.26124758848312
30
0
41
1
10
20.6790249020152
20
-4.40039305173738
30
0
41
1
10
20.9680728733603
20
-4.46312410096593
30
0
41
1
10
21.5473223573599
20
-4.57616655222498
30
0
41
1
10
21.8373060088443
20
-4.62655624158268
30
0
41
1
10
22.4178114708635
20
-4.7160171646465
30
0
41
1
10
22.7083193371213
20
-4.75435414096356
30
0
41
1
10
23.2907555591887
20
-4.81640844734912
30
0
41
1
10
23.5829971442966
20
-4.84048760694992
30
0
41
1
10
24.1693015286603
20
-4.87606156237055
30
0
41
1
10
24.4629007636479
20
-4.88797561981255
30
0
41
1
10
25.0481566151265
20
-4.89586908139643
30
0
41
1
10
25.340222798435
20
-4.89224861985073
30
0
41
1
10
25.9250029464002
20
-4.87211203010423
30
0
41
1
10
26.2174671115209
20
-4.85585487849866
30
0
41
1
10
26.8024770378821
20
-4.80997411700591
30
0
41
1
10
27.095025174173
20
-4.77896465172952
30
0
41
1
10
27.6809972290814
20
-4.70337746917539
30
0
41
1
10
27.9745256918914
20
-4.65906814218403
30
0
41
1
10
28.5603662422873
20
-4.55934758479162
30
0
41
1
10
28.8529316308615
20
-4.50344014835247
30
0
41
1
10
29.4375505283101
20
-4.37619689644228
30
0
41
1
10
29.729622915754
20
-4.30590526395605
30
0
41
1
10
30.3148498895505
20
-4.15494758334145
30
0
41
1
10
30.6077132052217
20
-4.07447901843733
30
0
41
1
10
31.1941442751557
20
-3.90062394976002
30
0
41
1
10
31.4873551461521
20
-3.80688338777452
30
0
41
1
10
31.7974963983171
20
-3.70245369705634
30
0
41
1
10
31.8150517457699
20
-3.69652728986708
30
0
41
1
10
31.8326071360951
20
-3.69058553985383
30
0
0
SPLINE
5
D4
100
AcDbEntity
8
1
62
256
6
ByLayer
370
18
48
1
60
0
100
AcDbSpline
70
4
71
3
72
28
73
24
40
0
40
0
40
0
40
0
40
0.0138065127153121
40
0.0138065127153121
40
0.0959893033223692
40
0.0959893033223692
40
0.178172093929426
40
0.178172093929426
40
0.260354884536483
40
0.260354884536483
40
0.34253767514354
40
0.34253767514354
40
0.506903256357658
40
0.506903256357658
40
0.589086046964715
40
0.589086046964715
40
0.671268837571772
40
0.671268837571772
40
0.835634418785886
40
0.835634418785886
40
0.917817209392944
40
0.917817209392944
40
1
40
1
40
1
40
1
41
1
10
55.2614382444594
20
4.90594408675841
30
0
41
1
10
55.3100007709196
20
4.90514259394524
30
0
41
1
10
55.3585569212737
20
4.90414072986584
30
0
41
1
10
55.6960998035026
20
4.8957450722389
30
0
41
1
10
55.9851283295125
20
4.88126456787509
30
0
41
1
10
56.5641828812125
20
4.83998458855274
30
0
41
1
10
56.8539797966245
20
4.81363062035086
30
0
41
1
10
57.434166421022
20
4.7475662766619
30
0
41
1
10
57.7245120383415
20
4.70679652803062
30
0
41
1
10
58.3072922891903
20
4.6111400561559
30
0
41
1
10
58.5998042115412
20
4.55644385102059
30
0
41
1
10
59.4801241839074
20
4.37290826575855
30
0
41
1
10
60.0642340112909
20
4.22489530040622
30
0
41
1
10
60.9415102888531
20
3.9728039126804
30
0
41
1
10
61.2339705678218
20
3.88341004490576
30
0
41
1
10
61.8191044860827
20
3.69233656423825
30
0
41
1
10
62.1117042782068
20
3.59040356635538
30
0
41
1
10
62.9914316018788
20
3.27017405840431
30
0
41
1
10
63.5747078001094
20
3.03983001693493
30
0
41
1
10
64.4450226392605
20
2.66967093597648
30
0
41
1
10
64.7346949301658
20
2.54278334516292
30
0
41
1
10
65.3139506775996
20
2.28352710373497
30
0
41
1
10
65.6033781772055
20
2.15084548498973
30
0
41
1
10
65.8926292298927
20
2.01498113502041
30
0
0
SPLINE
5
D5
100
AcDbEntity
8
1
62
256
6
ByLayer
370
18
48
1
60
0
100
AcDbSpline
70
4
71
3
72
8
73
4
40
0
40
0
40
0
40
0
40
1
40
1
40
1
40
1
41
1
10
4.00198875920543
20
-4.03042451260905
30
0
41
1
10
4.00116751422144
20
-4.02644295420336
30
0
41
1
10
4.00075150809081
20
-4.02241207849062
30
0
41
1
10
4.00075164239385
20
-4.01837936219937
30
0
0
SPLINE
5
D6
100
AcDbEntity
8
1
62
256
6
ByLayer
370
18
48
1
60
0
100
AcDbSpline
70
4
71
3
72
82
73
78
40
0
40
0
40
0
40
0
40
0.0393622912194371
40
0.0393622912194371
40
0.0745013905451992
40
0.0745013905451992
40
0.109640489870961
40
0.109640489870961
40
0.179918688522485
40
0.179918688522485
40
0.250196887174009
40
0.250196887174009
40
0.285335986499771
40
0.285335986499771
40
0.320475085825533
40
0.320475085825533
40
0.390753284477057
40
0.390753284477057
40
0.425892383802819
40
0.425892383802819
40
0.4434619334657
40
0.4434619334657
40
0.45224670829714
40
0.45224670829714
40
0.452795756724105
40
0.452795756724105
40
0.453070280937588
40
0.453070280937588
40
0.453344805151071
40
0.453344805151071
40
0.454442902005001
40
0.454442902005001
40
0.456639095712861
40
0.456639095712861
40
0.461031483128581
40
0.461031483128581
40
0.478601032791462
40
0.478601032791462
40
0.496170582454343
40
0.496170582454343
40
0.531309681780105
40
0.531309681780105
40
0.601587880431629
40
0.601587880431629
40
0.671866079083153
40
0.671866079083153
40
0.689435628746034
40
0.689435628746034
40
0.698220403577475
40
0.698220403577475
40
0.707005178408915
40
0.707005178408915
40
0.709201372116776
40
0.709201372116776
40
0.709750420543741
40
0.709750420543741
40
0.710024944757223
40
0.710024944757223
40
0.710299468970706
40
0.711397565824636
40
0.715789953240356
40
0.715789953240356
40
0.724574728071798
40
0.724574728071798
40
0.74214427773468
40
0.74214427773468
40
0.777283377060445
40
0.777283377060445
40
0.81242247638621
40
0.81242247638621
40
0.88270067503774
40
0.88270067503774
40
0.917839774363506
40
0.917839774363506
40
0.95297887368927
40
0.95297887368927
40
1
40
1
40
1
40
1
41
1
10
16.8285887959238
20
3.57746901389493
30
0
41
1
10
16.6348999425636
20
3.5935725604447
30
0
41
1
10
16.4411705159255
20
3.60343519691082
30
0
41
1
10
16.0740380128555
20
3.60855870873391
30
0
41
1
10
15.9006692534437
20
3.60526884211558
30
0
41
1
10
15.5530155185024
20
3.58602870887691
30
0
41
1
10
15.3781133114128
20
3.56997632038366
30
0
41
1
10
14.8569030028258
20
3.50204031783016
30
0
41
1
10
14.5138353861051
20
3.43040967783981
30
0
41
1
10
13.8309123418396
20
3.23645337479559
30
0
41
1
10
13.4910206426688
20
3.11418318840438
30
0
41
1
10
12.9780979350036
20
2.89774723420993
30
0
41
1
10
12.805943818795
20
2.81979608345546
30
0
41
1
10
12.4641623691951
20
2.65629504722753
30
0
41
1
10
12.2942902026524
20
2.57068941152363
30
0
41
1
10
11.7862142962463
20
2.30481040038441
30
0
41
1
10
11.4495214673782
20
2.11552394824307
30
0
41
1
10
10.9421127063162
20
1.82257760592449
30
0
41
1
10
10.7725899040664
20
1.72341272472244
30
0
41
1
10
10.5170988120252
20
1.57343708888476
30
0
41
1
10
10.4316631997818
20
1.52319842299698
30
0
41
1
10
10.3033900607728
20
1.44781418143808
30
0
41
1
10
10.2606307464592
20
1.4226925141484
30
0
41
1
10
10.2151952518911
20
1.39602160398715
30
0
41
1
10
10.2125225693439
20
1.39445280782681
30
0
41
1
10
10.2085135367884
20
1.39209974065716
30
0
41
1
10
10.2067273072783
20
1.39116756950472
30
0
41
1
10
10.2076889890717
20
1.38836182964937
30
0
41
1
10
10.2087241025813
20
1.38724780135897
30
0
41
1
10
10.2137127192247
20
1.38181747500823
30
0
41
1
10
10.2184511995796
20
1.37825281924424
30
0
41
1
10
10.2325646294455
20
1.3675308392514
30
0
41
1
10
10.2423288411161
20
1.36086964156829
30
0
41
1
10
10.2718088552333
20
1.34115763178224
30
0
41
1
10
10.2918270654547
20
1.32852121213301
30
0
41
1
10
10.3923161082052
20
1.26606050370484
30
0
41
1
10
10.4741251384221
20
1.21835141751561
30
0
41
1
10
10.6379827086184
20
1.12349625320428
30
0
41
1
10
10.720215901616
20
1.07665151994382
30
0
41
1
10
10.9673321137455
20
0.937047424927073
30
0
41
1
10
11.1326419534967
20
0.845234953414064
30
0
41
1
10
11.6292868212449
20
0.571950390488212
30
0
41
1
10
11.9609544876286
20
0.392245299058942
30
0
41
1
10
12.6242490132094
20
0.0366602041486601
30
0
41
1
10
12.9557615864176
20
-0.13969461729144
30
0
41
1
10
13.3675928032872
20
-0.360748775404232
30
0
41
1
10
13.4498346216422
20
-0.404995715514076
30
0
41
1
10
13.5726391447635
20
-0.471694558297685
30
0
41
1
10
13.6134830549372
20
-0.493979379997739
30
0
41
1
10
13.6947372867293
20
-0.538863763569367
30
0
41
1
10
13.735396416089
20
-0.561301224340326
30
0
41
1
10
13.7845324483812
20
-0.590548133688003
30
0
41
1
10
13.7943818019006
20
-0.596406824155139
30
0
41
1
10
13.8057410796658
20
-0.604291110007864
30
0
41
1
10
13.8080169912251
20
-0.605878156807847
30
0
41
1
10
13.8107760330215
20
-0.608510611811312
30
0
41
1
10
13.811569098998
20
-0.609702653183632
30
0
41
1
10
13.8091980196361
20
-0.610321884665495
30
0
41
1
10
13.8032702891554
20
-0.611867581440777
30
0
41
1
10
13.778373134154
20
-0.618309462756883
30
0
41
1
10
13.7546599709904
20
-0.624253272091806
30
0
41
1
10
13.6977414042418
20
-0.638148964247478
30
0
41
1
10
13.6597963031976
20
-0.64691776531086
30
0
41
1
10
13.5459319986546
20
-0.671723294010718
30
0
41
1
10
13.4699333044929
20
-0.686265997137355
30
0
41
1
10
13.2421732581795
20
-0.723662539894235
30
0
41
1
10
13.0905041687193
20
-0.740333302321801
30
0
41
1
10
12.7858400199899
20
-0.756736398183364
30
0
41
1
10
12.6323863076481
20
-0.756433505408694
30
0
41
1
10
12.1703910310699
20
-0.729512487412478
30
0
41
1
10
11.8630632234978
20
-0.677184722025373
30
0
41
1
10
11.3921934370822
20
-0.551546373596096
30
0
41
1
10
11.2335865111981
20
-0.50182552254492
30
0
41
1
10
10.9113694411061
20
-0.387754100134884
30
0
41
1
10
10.7472534073586
20
-0.323135398066683
30
0
41
1
10
10.3644822305803
20
-0.160379405164974
30
0
41
1
10
10.1445902793388
20
-0.057933686534426
30
0
41
1
10
9.92308374325816
20
0.0512668440019581
30
0
0
SPLINE
5
D7
100
AcDbEntity
8
1
62
256
6
ByLayer
370
13
48
1
60
0
100
AcDbSpline
70
4
71
3
72
8
73
4
40
0
40
0
40
0
40
0
40
1
40
1
40
1
40
1
41
1
10
4.13391791950662
20
-3.92895235210202
30
0
41
1
10
4.17020324586096
20
-3.92031701881615
30
0
41
1
10
4.20978696529306
20
-3.91977165744268
30
0
41
1
10
4.25033200490594
20
-3.92720259223876
30
0
0
SPLINE
5
D8
100
AcDbEntity
8
1
62
256
6
ByLayer
370
18
48
1
60
0
100
AcDbSpline
70
4
71
3
72
18
73
14
40
0
40
0
40
0
40
0
40
0.25
40
0.25
40
0.5
40
0.5
40
0.625
40
0.625
40
0.75
40
0.75
40
0.875
40
0.875
40
1
40
1
40
1
40
1
41
1
10
72.2251889053455
20
2.52244573430534
30
0
41
1
10
72.1468780892455
20
2.73375649013357
30
0
41
1
10
72.0683232413451
20
2.94471566278543
30
0
41
1
10
71.910758415014
20
3.3652082185277
30
0
41
1
10
71.8318646621995
20
3.57535389421682
30
0
41
1
10
71.7133673500584
20
3.88916034836529
30
0
41
1
10
71.6738513337731
20
3.9934929197853
30
0
41
1
10
71.5947593929471
20
4.20120312898658
30
0
41
1
10
71.5551869427195
20
4.30463614708898
30
0
41
1
10
71.4760298293985
20
4.51130751102139
30
0
41
1
10
71.4364373343191
20
4.61442101550611
30
0
41
1
10
71.3571877739734
20
4.81961877996369
30
0
41
1
10
71.3175199385627
20
4.92153136454138
30
0
41
1
10
71.2778077283198
20
5.02273661721986
30
0
0
SPLINE
5
D9
100
AcDbEntity
8
1
62
256
6
ByLayer
370
18
48
1
60
0
100
AcDbSpline
70
4
71
3
72
66
73
62
40
0
40
0
40
0
40
0
40
0.0625000000000007
40
0.0625000000000007
40
0.125000000000001
40
0.125000000000001
40
0.250000000000004
40
0.250000000000004
40
0.375000000000006
40
0.375000000000006
40
0.500000000000008
40
0.500000000000008
40
0.562500000000009
40
0.562500000000009
40
0.62500000000001
40
0.62500000000001
40
0.687500000000011
40
0.687500000000011
40
0.69531250000001
40
0.69531250000001
40
0.69921875000001
40
0.69921875000001
40
0.70312500000001
40
0.70312500000001
40
0.70703125000001
40
0.70703125000001
40
0.70898437500001
40
0.70898437500001
40
0.710937500000009
40
0.710937500000009
40
0.718750000000009
40
0.718750000000009
40
0.734375000000008
40
0.734375000000008
40
0.750000000000008
40
0.750000000000008
40
0.765625000000007
40
0.765625000000007
40
0.781250000000007
40
0.781250000000007
40
0.796875000000006
40
0.796875000000006
40
0.812500000000005
40
0.812500000000005
40
0.828125000000005
40
0.828125000000005
40
0.835937500000005
40
0.835937500000005
40
0.843750000000004
40
0.843750000000004
40
0.859375000000004
40
0.859375000000004
40
0.875000000000003
40
0.875000000000003
40
0.906250000000002
40
0.906250000000002
40
0.937500000000002
40
0.937500000000002
40
0.968750000000001
40
0.968750000000001
40
1
40
1
40
1
40
1
41
1
10
16.8285832211883
20
3.5774459999902
30
0
41
1
10
16.4578238025637
20
3.7202356998134
30
0
41
1
10
16.0848706782517
20
3.8510558378668
30
0
41
1
10
15.3338861781536
20
4.09041245864674
30
0
41
1
10
14.9555175786054
20
4.19900697812693
30
0
41
1
10
13.8133391951554
20
4.49239712980523
30
0
41
1
10
13.0479153679768
20
4.64326406589311
30
0
41
1
10
11.5005532481879
20
4.87146922720663
30
0
41
1
10
10.7185385294775
20
4.94877505678755
30
0
41
1
10
9.13071840593409
20
5.05246486700597
30
0
41
1
10
8.32491353253738
20
5.07909807192584
30
0
41
1
10
7.09502155766506
20
5.10050200845589
30
0
41
1
10
6.68146008831198
20
5.10454518071523
30
0
41
1
10
5.84728046566869
20
5.10926011277516
30
0
41
1
10
5.42893410762241
20
5.1099344673533
30
0
41
1
10
4.58960298939522
20
5.11015072996506
30
0
41
1
10
4.16834046340639
20
5.10969746050515
30
0
41
1
10
3.69373228364228
20
5.10927235948913
30
0
41
1
10
3.64098965582969
20
5.10922562740575
30
0
41
1
10
3.56186305068383
20
5.10915724753497
30
0
41
1
10
3.53548424601547
20
5.1091347374597
30
0
41
1
10
3.48272956977507
20
5.10909042605277
30
0
41
1
10
3.45633047547639
20
5.10906046803947
30
0
41
1
10
3.40371809534491
20
5.1090668970084
30
0
41
1
10
3.37703142194101
20
5.10910348375225
30
0
41
1
10
3.34120434552204
20
5.10917296460212
30
0
41
1
10
3.33016076862148
20
5.10919868913464
30
0
41
1
10
3.30788208982793
20
5.10921861372995
30
0
41
1
10
3.29676355116067
20
5.10921587104468
30
0
41
1
10
3.24127736920266
20
5.10913610032918
30
0
41
1
10
3.19727400936159
20
5.10886110641613
30
0
41
1
10
3.0668060481149
20
5.107304241257
30
0
41
1
10
2.98176684203915
20
5.10529894902561
30
0
41
1
10
2.8164233259871
20
5.09866353792418
30
0
41
1
10
2.73614395227332
20
5.09402386023959
30
0
41
1
10
2.5836493437132
20
5.08133271297936
30
0
41
1
10
2.51116540033729
20
5.07328117689943
30
0
41
1
10
2.37564030384112
20
5.05253312849754
30
0
41
1
10
2.31229059905695
20
5.03977085486875
30
0
41
1
10
2.19932066165544
20
5.00801282905428
30
0
41
1
10
2.15060703388141
20
4.98929320933712
30
0
41
1
10
2.07159522246326
20
4.9446250500306
30
0
41
1
10
2.04127327945162
20
4.91828155488776
30
0
41
1
10
2.00431787606442
20
4.85942585755268
30
0
41
1
10
1.99711858103433
20
4.8267891358536
30
0
41
1
10
2.00302221992968
20
4.7727151324942
30
0
41
1
10
2.00781819606112
20
4.75383018215069
30
0
41
1
10
2.02244515864669
20
4.71528093610507
30
0
41
1
10
2.03227811120496
20
4.69550601842587
30
0
41
1
10
2.0686122214872
20
4.63474963792069
30
0
41
1
10
2.10228983931199
20
4.59197803590644
30
0
41
1
10
2.18265726961135
20
4.50514992956283
30
0
41
1
10
2.22923709588471
20
4.46104621849418
30
0
41
1
10
2.38360357523766
20
4.32679363953596
30
0
41
1
10
2.5068832893096
20
4.23400653418824
30
0
41
1
10
2.77077841858838
20
4.04907488636218
30
0
41
1
10
2.91205090344587
20
3.95639772511979
30
0
41
1
10
3.20687030970635
20
3.76988239585032
30
0
41
1
10
3.36050599852666
20
3.67605505065433
30
0
41
1
10
3.67689294939475
20
3.48686715735266
30
0
41
1
10
3.83790939780562
20
3.39255728511083
30
0
41
1
10
4.00085194704215
20
3.29828327359971
30
0
0
SPLINE
5
DA
100
AcDbEntity
8
1
62
256
6
ByLayer
370
18
48
1
60
0
100
AcDbSpline
70
4
71
3
72
44
73
40
40
0
40
0
40
0
40
0
40
0.033613470411896
40
0.033613470411896
40
0.067226940823792
40
0.067226940823792
40
0.134453881647585
40
0.134453881647585
40
0.26890776329517
40
0.26890776329517
40
0.302521233707066
40
0.302521233707066
40
0.336134704118962
40
0.336134704118962
40
0.369748174530859
40
0.369748174530859
40
0.403361644942755
40
0.403361644942755
40
0.470588585766547
40
0.470588585766547
40
0.504202056178443
40
0.504202056178443
40
0.53781552659034
40
0.53781552659034
40
0.672269408237924
40
0.672269408237924
40
0.70588287864982
40
0.70588287864982
40
0.739496349061716
40
0.739496349061716
40
0.806723289885507
40
0.806723289885507
40
0.873950230709299
40
0.873950230709299
40
0.907563701121195
40
0.907563701121195
40
0.941177171533091
40
0.941177171533091
40
1
40
1
40
1
40
1
41
1
10
71.2014142594859
20
-5.10846175474776
30
0
41
1
10
70.8499731297509
20
-5.13235138145717
30
0
41
1
10
70.4986840385166
20
-5.14574131615763
30
0
41
1
10
69.7955837071643
20
-5.1515264581985
30
0
41
1
10
69.4431281862981
20
-5.14386774162807
30
0
41
1
10
68.3905845418297
20
-5.08974926162915
30
0
41
1
10
67.6941571511703
20
-5.01234215158811
30
0
41
1
10
65.6098135157031
20
-4.66369289756858
30
0
41
1
10
64.2263941555973
20
-4.27598807808917
30
0
41
1
10
62.4675626307637
20
-3.62673096410731
30
0
41
1
10
62.1157913624759
20
-3.48922124741429
30
0
41
1
10
61.413654006832
20
-3.20115615962891
30
0
41
1
10
61.0629247728379
20
-3.05045187131449
30
0
41
1
10
60.3612623090725
20
-2.73700344476458
30
0
41
1
10
60.010248251989
20
-2.57438196196301
30
0
41
1
10
59.3068769741228
20
-2.23885232465847
30
0
41
1
10
58.9547171113522
20
-2.06601105796327
30
0
41
1
10
57.9009029504562
20
-1.53744007151835
30
0
41
1
10
57.2000144473071
20
-1.17057611112062
30
0
41
1
10
56.145660893297
20
-0.608370791118489
30
0
41
1
10
55.7931526951694
20
-0.418926389876788
30
0
41
1
10
55.0919321906397
20
-0.0413120774153981
30
0
41
1
10
54.7425793167216
20
0.147265807518465
30
0
41
1
10
52.9999087120942
20
1.0849478234858
30
0
41
1
10
51.6179691094068
20
1.81665554609637
30
0
41
1
10
49.8696463277283
20
2.6419848641072
30
0
41
1
10
49.5185525737142
20
2.80259869335941
30
0
41
1
10
48.8144862626306
20
3.11237436951521
30
0
41
1
10
48.4639661766939
20
3.26055056780245
30
0
41
1
10
47.4157098676403
20
3.68354004514208
30
0
41
1
10
46.7207388500833
20
3.93604609463407
30
0
41
1
10
45.3318956596395
20
4.37494907289786
30
0
41
1
10
44.6377305625653
20
4.56099805166318
30
0
41
1
10
43.5916576775423
20
4.78448802071659
30
0
41
1
10
43.2421584209938
20
4.8497116388551
30
0
41
1
10
42.5405129182421
20
4.96060073252869
30
0
41
1
10
42.1876235986521
20
5.0063064841604
30
0
41
1
10
41.2229400857421
20
5.10302927009712
30
0
41
1
10
40.6129556412309
20
5.13275626218802
30
0
41
1
10
40.0044050349319
20
5.13115178278971
30
0
0
SPLINE
5
DB
100
AcDbEntity
8
1
62
256
6
ByLayer
370
18
48
1
60
0
100
AcDbSpline
70
4
71
3
72
20
73
16
40
0
40
0
40
0
40
0
40
0.038577244802824
40
0.038577244802824
40
0.0986661670026459
40
0.0986661670026459
40
0.158755089202469
40
0.158755089202469
40
0.278932933602116
40
0.278932933602116
40
0.519288622401411
40
0.519288622401411
40
0.759644311200705
40
0.759644311200705
40
1
40
1
40
1
40
1
41
1
10
12.8391838840817
20
-4.90379369120015
30
0
41
1
10
12.726997130301
20
-4.92084851275098
30
0
41
1
10
12.6147108064384
20
-4.93689770472685
30
0
41
1
10
12.3272304560023
20
-4.97533719648223
30
0
41
1
10
12.1518737494485
20
-4.99627832618634
30
0
41
1
10
11.8004781969984
20
-5.03311740613009
30
0
41
1
10
11.624193766959
20
-5.04903257012549
30
0
41
1
10
11.0960037281641
20
-5.08892770220365
30
0
41
1
10
10.745477954535
20
-5.10503669875288
30
0
41
1
10
9.69729914415265
20
-5.12244023748974
30
0
41
1
10
9.0032355939548
20
-5.09276365555169
30
0
41
1
10
7.61659618925222
20
-4.95392351258971
30
0
41
1
10
6.92430990330757
20
-4.84466068010383
30
0
41
1
10
5.53398456369072
20
-4.55026183120674
30
0
41
1
10
4.83600071120833
20
-4.36517977609219
30
0
41
1
10
4.13181539344907
20
-4.14380326440258
30
0
0
SPLINE
5
DC
100
AcDbEntity
8
1
62
256
6
ByLayer
370
18
48
1
60
0
100
AcDbSpline
70
4
71
3
72
26
73
22
40
0
40
0
40
0
40
0
40
0.0625000000000012
40
0.0625000000000012
40
0.0937500000000017
40
0.0937500000000017
40
0.125000000000002
40
0.125000000000002
40
0.250000000000007
40
0.250000000000007
40
0.312500000000007
40
0.312500000000007
40
0.375000000000008
40
0.375000000000008
40
0.500000000000006
40
0.500000000000006
40
0.625000000000003
40
0.625000000000003
40
0.750000000000001
40
0.750000000000001
40
1
40
1
40
1
40
1
41
1
10
65.8926292298922
20
2.01498113502007
30
0
41
1
10
65.9239856245122
20
1.8848249967904
30
0
41
1
10
65.9637158194824
20
1.7544633542887
30
0
41
1
10
66.0347520195397
20
1.55864011534487
30
0
41
1
10
66.0603421831274
20
1.49331879330637
30
0
41
1
10
66.115206182269
20
1.36258574698726
30
0
41
1
10
66.1445352617868
20
1.29708432492811
30
0
41
1
10
66.2978876461233
20
0.973768294794041
30
0
41
1
10
66.4430989369715
20
0.724795071674151
30
0
41
1
10
66.6860955952059
20
0.3621535384749
30
0
41
1
10
66.7715166222494
20
0.242891622642787
30
0
41
1
10
66.9493212159254
20
0.0085622636419487
30
0
41
1
10
67.0409127906483
20
-0.10548416106775
30
0
41
1
10
67.3227706429941
20
-0.439410450404552
30
0
41
1
10
67.5201823806667
20
-0.651005055573251
30
0
41
1
10
67.9301057571189
20
-1.05668572236058
30
0
41
1
10
68.1426814481688
20
-1.25103542266814
30
0
41
1
10
68.5796833613293
20
-1.62460961162449
30
0
41
1
10
68.8016378191838
20
-1.80169376162107
30
0
41
1
10
69.4761581876374
20
-2.30862355060003
30
0
41
1
10
69.9372456499196
20
-2.61452706930697
30
0
41
1
10
70.4074908225451
20
-2.89470111870625
30
0
0
SPLINE
5
DD
100
AcDbEntity
8
1
62
256
6
ByLayer
370
18
48
1
60
0
100
AcDbSpline
70
4
71
3
72
10
73
6
40
0
40
0
40
0
40
0
40
0.864297109883031
40
0.864297109883031
40
1
40
1
40
1
40
1
41
1
10
71.2014142594859
20
5.10846175474776
30
0
41
1
10
70.8504011294995
20
5.13232228766773
30
0
41
1
10
70.4994143947004
20
5.14571719577881
30
0
41
1
10
70.0928736564143
20
5.14908315928781
30
0
41
1
10
70.0376950533285
20
5.14928009175424
30
0
41
1
10
69.9825154790215
20
5.14921809844225
30
0
0
SPLINE
5
DE
100
AcDbEntity
8
1
62
256
6
ByLayer
370
18
48
1
60
0
100
AcDbSpline
70
4
71
3
72
50
73
46
40
0
40
0
40
0
40
0
40
0.030691886499211
40
0.030691886499211
40
0.0946325175447956
40
0.0946325175447956
40
0.126602833067588
40
0.126602833067588
40
0.158573148590381
40
0.158573148590381
40
0.286454410681552
40
0.286454410681552
40
0.318424726204345
40
0.318424726204345
40
0.350395041727138
40
0.350395041727138
40
0.414335672772723
40
0.414335672772723
40
0.446305988295516
40
0.446305988295516
40
0.478276303818308
40
0.478276303818308
40
0.542216934863894
40
0.542216934863894
40
0.60615756590948
40
0.60615756590948
40
0.622142723670876
40
0.622142723670876
40
0.638127881432273
40
0.638127881432273
40
0.670098196955065
40
0.670098196955065
40
0.797979459046234
40
0.797979459046234
40
0.829949774569027
40
0.829949774569027
40
0.845934932330423
40
0.845934932330423
40
0.861920090091819
40
0.861920090091819
40
0.925860721137404
40
0.925860721137404
40
0.989801352182989
40
0.989801352182989
40
1
40
1
40
1
40
1
41
1
10
42.8489186038709
20
-4.91177820778248
30
0
41
1
10
42.5158531310233
20
-4.96366419272638
30
0
41
1
10
42.1828371765775
20
-5.00654833675443
30
0
41
1
10
41.1549498534086
20
-5.11032850610053
30
0
41
1
10
40.4588745190693
20
-5.14044677858271
30
0
41
1
10
39.4068581856425
20
-5.1230231226418
30
0
41
1
10
39.0543140317378
20
-5.10668316766001
30
0
41
1
10
38.353564150837
20
-5.05357911475645
30
0
41
1
10
38.0044396263471
20
-5.01683715931875
30
0
41
1
10
36.2628272156102
20
-4.7838749324161
30
0
41
1
10
34.8820235207401
20
-4.43980409095673
30
0
41
1
10
33.1350283293069
20
-3.84259509443328
30
0
41
1
10
32.78453281532
20
-3.71487303162496
30
0
41
1
10
32.0805586888154
20
-3.44350478869583
30
0
41
1
10
31.7293365593838
20
-3.30081528447127
30
0
41
1
10
30.6765833775724
20
-2.85384612218104
30
0
41
1
10
29.9757362873243
20
-2.53101525451282
30
0
41
1
10
28.9206290572844
20
-2.0177716068041
30
0
41
1
10
28.5688965367936
20
-1.84224750308442
30
0
41
1
10
27.868995070932
20
-1.48638770676843
30
0
41
1
10
27.520188971614
20
-1.30568180208485
30
0
41
1
10
26.4758355635368
20
-0.757828286950655
30
0
41
1
10
25.7821927384029
20
-0.385246469601839
30
0
41
1
10
24.3930373224476
20
0.361221900468195
30
0
41
1
10
23.697431631708
20
0.734931614690566
30
0
41
1
10
22.8220984479213
20
1.19403158535755
30
0
41
1
10
22.6467401115656
20
1.28544896407152
30
0
41
1
10
22.2953071809197
20
1.46722517329175
30
0
41
1
10
22.1190946235383
20
1.55765344989501
30
0
41
1
10
21.5921846434632
20
1.82551245839471
30
0
41
1
10
21.2423001713281
20
1.99998958416845
30
0
41
1
10
19.4974105419472
20
2.84814754009514
30
0
41
1
10
18.1162919045689
20
3.44942393757566
30
0
41
1
10
16.3712885619802
20
4.0486669679
30
0
41
1
10
16.0214036596332
20
4.16096827602166
30
0
41
1
10
15.4944702193074
20
4.31697620647714
30
0
41
1
10
15.3182366805474
20
4.36696425135327
30
0
41
1
10
14.966724022656
20
4.46215178777612
30
0
41
1
10
14.7913234258655
20
4.50739385101096
30
0
41
1
10
13.9158047222672
20
4.72171418980145
30
0
41
1
10
13.220082222023
20
4.85506416541946
30
0
41
1
10
11.8307080310466
20
5.04258731023307
30
0
41
1
10
11.1370334934865
20
5.09673535214799
30
0
41
1
10
10.3296001133916
20
5.11216414020814
30
0
41
1
10
10.2184646948964
20
5.1132483560153
30
0
41
1
10
10.1072499170263
20
5.11328935525094
30
0
0
SPLINE
5
DF
100
AcDbEntity
8
1
62
256
6
ByLayer
370
18
48
1
60
0
100
AcDbSpline
70
4
71
3
72
18
73
14
40
0
40
0
40
0
40
0
40
0.250000000000003
40
0.250000000000003
40
0.500000000000005
40
0.500000000000005
40
0.625000000000004
40
0.625000000000004
40
0.750000000000003
40
0.750000000000003
40
0.875000000000001
40
0.875000000000001
40
1
40
1
40
1
40
1
41
1
10
72.2251889053456
20
-2.52244573430536
30
0
41
1
10
72.1468780892455
20
-2.73375649013357
30
0
41
1
10
72.068323241345
20
-2.94471566278543
30
0
41
1
10
71.910758415014
20
-3.3652082185277
30
0
41
1
10
71.8318646621996
20
-3.57535389421682
30
0
41
1
10
71.7133673500585
20
-3.88916034836529
30
0
41
1
10
71.6738513337732
20
-3.9934929197853
30
0
41
1
10
71.5947593929471
20
-4.20120312898658
30
0
41
1
10
71.5551869427195
20
-4.30463614708898
30
0
41
1
10
71.4760298293986
20
-4.51130751102139
30
0
41
1
10
71.436437334319
20
-4.61442101550608
30
0
41
1
10
71.3571877739735
20
-4.81961877996369
30
0
41
1
10
71.3175199385627
20
-4.92153136454138
30
0
41
1
10
71.2778077283198
20
-5.02273661721986
30
0
0
SPLINE
5
E0
100
AcDbEntity
8
1
62
256
6
ByLayer
370
18
48
1
60
0
100
AcDbSpline
70
4
71
3
72
18
73
14
40
0
40
0
40
0
40
0
40
0.249999999999997
40
0.249999999999997
40
0.374999999999997
40
0.374999999999997
40
0.499999999999997
40
0.499999999999997
40
0.749999999999997
40
0.749999999999997
40
0.874999999999999
40
0.874999999999999
40
1
40
1
40
1
40
1
41
1
10
9.92311599744747
20
0.0513066856129285
30
0
41
1
10
9.4307180232845
20
0.302700253098692
30
0
41
1
10
8.9416608106244
20
0.560453406983783
30
0
41
1
10
8.21083581744421
20
0.952080243522516
30
0
41
1
10
7.96865135912361
20
1.08294998355194
30
0
41
1
10
7.48750013272939
20
1.34449484460083
30
0
41
1
10
7.24842347936317
20
1.47523033014315
30
0
41
1
10
6.53580966356719
20
1.86672429318068
30
0
41
1
10
6.06670549357409
20
2.12662440276603
30
0
41
1
10
5.37488241861178
20
2.51458957911189
30
0
41
1
10
5.14628504867528
20
2.64362457401526
30
0
41
1
10
4.69437487177211
20
2.90164483003249
30
0
41
1
10
4.47102636906584
20
3.03061712021869
30
0
41
1
10
4.25149302202334
20
3.1601832514547
30
0
0
SPLINE
5
E1
100
AcDbEntity
8
SK1
62
256
6
ByLayer
370
18
48
1
60
0
100
AcDbSpline
70
4
71
3
72
10
73
6
40
0
40
0
40
0
40
0
40
0.5
40
0.5
40
1
40
1
40
1
40
1
41
1
10
-45
20
-3.33942365488358
30
0
41
1
10
-44.7879213063754
20
-3.73195642609818
30
0
41
1
10
-44.5722737898406
20
-4.12260199239012
30
0
41
1
10
-44.1380829418105
20
-4.90236180879893
30
0
41
1
10
-43.9194308847408
20
-5.29141856448581
30
0
41
1
10
-43.7
20
-5.68006347361933
30
0
0
SPLINE
5
E2
100
AcDbEntity
8
SK1
62
256
6
ByLayer
370
18
48
1
60
0
100
AcDbSpline
70
4
71
3
72
14
73
10
40
0
40
0
40
0
40
0
40
0.499999999999996
40
0.499999999999996
40
0.749999999999998
40
0.749999999999998
40
0.874999999999999
40
0.874999999999999
40
1
40
1
40
1
40
1
41
1
10
-43.7
20
-5.68006347361936
30
0
41
1
10
-43.6789021434844
20
-5.71743093234389
30
0
41
1
10
-43.6585587767126
20
-5.75442591288106
30
0
41
1
10
-43.6303722414292
20
-5.80752754693711
30
0
41
1
10
-43.6214260646625
20
-5.82472927529179
30
0
41
1
10
-43.6102968606991
20
-5.84712659158089
30
0
41
1
10
-43.6069058574072
20
-5.85415432352036
30
0
41
1
10
-43.6017309986994
20
-5.86570021896117
30
0
41
1
10
-43.6
20
-5.87012697388403
30
0
41
1
10
-43.6
20
-5.87158637706867
30
0
0
SPLINE
5
E3
100
AcDbEntity
8
SK1
62
256
6
ByLayer
370
18
48
1
60
0
100
AcDbSpline
70
4
71
3
72
10
73
6
40
0
40
0
40
0
40
0
40
0.5
40
0.5
40
1
40
1
40
1
40
1
41
1
10
-45
20
3.33942365488358
30
0
41
1
10
-44.7879213063754
20
3.73195642609818
30
0
41
1
10
-44.5722737898406
20
4.12260199239012
30
0
41
1
10
-44.1380829418105
20
4.90236180879893
30
0
41
1
10
-43.9194308847408
20
5.29141856448581
30
0
41
1
10
-43.7
20
5.68006347361933
30
0
0
SPLINE
5
E4
100
AcDbEntity
8
SK1
62
256
6
ByLayer
370
18
48
1
60
0
100
AcDbSpline
70
4
71
3
72
10
73
6
40
0
40
0
40
0
40
0
40
0.5
40
0.5
40
1
40
1
40
1
40
1
41
1
10
-43.7
20
-5.52735535814114
30
0
41
1
10
-43.9194045553471
20
-5.13875708230105
30
0
41
1
10
-44.1380490457335
20
-4.74971418653925
30
0
41
1
10
-44.5722419213308
20
-3.96995148972275
30
0
41
1
10
-44.7878974798874
20
-3.57929241065295
30
0
41
1
10
-45
20
-3.18671553940541
30
0
0
SPLINE
5
E5
100
AcDbEntity
8
SK1
62
256
6
ByLayer
370
18
48
1
60
0
100
AcDbSpline
70
4
71
3
72
14
73
10
40
0
40
0
40
0
40
0
40
0.499999999999999
40
0.499999999999999
40
0.749999999999999
40
0.749999999999999
40
0.875
40
0.875
40
1
40
1
40
1
40
1
41
1
10
-43.7
20
5.68006347361936
30
0
41
1
10
-43.6789021434844
20
5.71743093234389
30
0
41
1
10
-43.6585587767126
20
5.75442591288106
30
0
41
1
10
-43.6303722414292
20
5.80752754693711
30
0
41
1
10
-43.6214260646625
20
5.82472927529179
30
0
41
1
10
-43.6102968606991
20
5.84712659158089
30
0
41
1
10
-43.6069058574072
20
5.85415432352036
30
0
41
1
10
-43.6017309986994
20
5.86570021896117
30
0
41
1
10
-43.6
20
5.87012697388403
30
0
41
1
10
-43.6
20
5.87158637706867
30
0
0
SPLINE
5
E6
100
AcDbEntity
8
SK1
62
256
6
ByLayer
370
18
48
1
60
0
100
AcDbSpline
70
4
71
3
72
14
73
10
40
0
40
0
40
0
40
0
40
0.124999999999998
40
0.124999999999998
40
0.249999999999996
40
0.249999999999996
40
0.499999999999997
40
0.499999999999997
40
1
40
1
40
1
40
1
41
1
10
-43.6
20
-5.73109491082869
30
0
41
1
10
-43.6
20
-5.72834374420464
30
0
41
1
10
-43.6017220508865
20
-5.72272406253873
30
0
41
1
10
-43.6068954324577
20
-5.70909592911792
30
0
41
1
10
-43.610237321167
20
-5.70129563365168
30
0
41
1
10
-43.6215324998379
20
-5.67623851826483
30
0
41
1
10
-43.6303471072619
20
-5.65820179261817
30
0
41
1
10
-43.658490206513
20
-5.60258194791916
30
0
41
1
10
-43.678793979422
20
-5.56491439159416
30
0
41
1
10
-43.7
20
-5.52735535814114
30
0
0
LINE
5
76
100
AcDbEntity
8
81
62
256
6
ByLayer
370
18
48
1
60
0
100
AcDbLine
10
73
20
0
30
0
11
78
21
0
31
0
39
0
210
0
220
0
230
1
0
LINE
5
77
100
AcDbEntity
8
1
62
256
6
ByLayer
370
18
48
1
60
0
100
AcDbLine
10
3.226756
20
5.109169
30
0
11
1.435263
21
5.108095
31
0
39
0
210
0
220
0
230
1
0
LINE
5
79
100
AcDbEntity
8
1
62
256
6
ByLayer
370
18
48
1
60
0
100
AcDbLine
10
10.090354
20
5.113288
30
0
11
4.663533
21
5.110032
31
0
39
0
210
0
220
0
230
1
0
LINE
5
7A
100
AcDbEntity
8
1
62
256
6
ByLayer
370
18
48
1
60
0
100
AcDbLine
10
4.663533
20
-5.110032
30
0
11
10.089464
21
-5.113287
31
0
39
0
210
0
220
0
230
1
0
LINE
5
7B
100
AcDbEntity
8
1
62
256
6
ByLayer
370
18
48
1
60
0
100
AcDbLine
10
1.435263
20
-5.108095
30
0
11
3.226756
21
-5.109169
31
0
39
0
210
0
220
0
230
1
0
LINE
5
7C
100
AcDbEntity
8
1
62
256
6
ByLayer
370
18
48
1
60
0
100
AcDbLine
10
40.040515
20
5.131258
30
0
11
39.189763
21
5.130747
31
0
39
0
210
0
220
0
230
1
0
LINE
5
7D
100
AcDbEntity
8
1
62
256
6
ByLayer
370
18
48
1
60
0
100
AcDbLine
10
69.990876
20
5.149228
30
0
11
69.151361
21
5.148724
31
0
39
0
210
0
220
0
230
1
0
LINE
5
7E
100
AcDbEntity
8
1
62
256
6
ByLayer
370
18
48
1
60
0
100
AcDbLine
10
69.151361
20
-5.148724
30
0
11
69.990485
21
-5.149228
31
0
39
0
210
0
220
0
230
1
0
LINE
5
7F
100
AcDbEntity
8
1
62
256
6
ByLayer
370
18
48
1
60
0
100
AcDbLine
10
39.189763
20
-5.130747
30
0
11
40.04008
21
-5.131257
31
0
39
0
210
0
220
0
230
1
0
LINE
5
80
100
AcDbEntity
8
SK1
62
256
6
ByLayer
370
18
48
1
60
0
100
AcDbLine
10
0
20
6
30
0
11
-43.556624
21
6
31
0
39
0
210
0
220
0
230
1
0
LINE
5
82
100
AcDbEntity
8
SK1
62
256
6
ByLayer
370
18
48
1
60
0
100
AcDbLine
10
-43.556624
20
-6
30
0
11
0
21
-6
31
0
39
0
210
0
220
0
230
1
0
LINE
5
83
100
AcDbEntity
8
SK1
62
256
6
ByLayer
370
18
48
1
60
0
100
AcDbLine
10
-43.556624
20
6
30
0
11
-43.6
21
5.924871
31
0
39
0
210
0
220
0
230
1
0
LINE
5
84
100
AcDbEntity
8
SK1
62
256
6
ByLayer
370
18
48
1
60
0
100
AcDbLine
10
-43.6
20
-5.924871
30
0
11
-43.556624
21
-6
31
0
39
0
210
0
220
0
230
1
0
LINE
5
85
100
AcDbEntity
8
SK4
62
256
6
ByLayer
370
18
48
0.05
60
0
100
AcDbLine
10
78
20
0
30
0
11
-50
21
0
31
0
39
0
210
0
220
0
230
1
0
LINE
5
87
100
AcDbEntity
8
4
62
256
6
ByLayer
370
18
48
0.05
60
0
100
AcDbLine
10
73
20
0
30
0
11
0
21
0
31
0
39
0
210
0
220
0
230
1
0
LINE
5
89
100
AcDbEntity
8
80
62
256
6
ByLayer
370
18
48
1
60
0
100
AcDbLine
10
0
20
0
30
0
11
-5
21
0
31
0
39
0
210
0
220
0
230
1
0
LINE
5
8A
100
AcDbEntity
8
1
62
256
6
ByLayer
370
13
48
1
60
0
100
AcDbLine
10
1.435263
20
5.108095
30
0
11
1.435263
21
-5.108095
31
0
39
0
210
0
220
0
230
1
0
LINE
5
8B
100
AcDbEntity
8
1
62
256
6
ByLayer
370
18
48
1
60
0
100
AcDbLine
10
0
20
-6
30
0
11
0
21
6
31
0
39
0
210
0
220
0
230
1
0
LINE
5
8C
100
AcDbEntity
8
1
62
256
6
ByLayer
370
18
48
1
60
0
100
AcDbLine
10
70.407491
20
-2.894701
30
0
11
72.894467
21
-0.123011
31
0
39
0
210
0
220
0
230
1
0
LINE
5
8D
100
AcDbEntity
8
1
62
256
6
ByLayer
370
13
48
1
60
0
100
AcDbLine
10
71.54347
20
0.976224
30
0
11
72.912608
21
0.298334
31
0
39
0
210
0
220
0
230
1
0
LINE
5
8E
100
AcDbEntity
8
1
62
256
6
ByLayer
370
13
48
1
60
0
100
AcDbLine
10
0.717391
20
5.554047
30
0
11
0.717391
21
-5.554047
31
0
39
0
210
0
220
0
230
1
0
LINE
5
8F
100
AcDbEntity
8
1
62
256
6
ByLayer
370
18
48
1
60
0
100
AcDbLine
10
73
20
0
30
0
11
72.989155
21
-0.048653
31
0
39
0
210
0
220
0
230
1
0
LINE
5
90
100
AcDbEntity
8
1
62
256
6
ByLayer
370
18
48
1
60
0
100
AcDbLine
10
72.989155
20
0.048653
30
0
11
73
21
0
31
0
39
0
210
0
220
0
230
1
0
LINE
5
91
100
AcDbEntity
8
1
62
256
6
ByLayer
370
18
48
1
60
0
100
AcDbLine
10
72.912608
20
0.298334
30
0
11
72.72899
21
0.976224
31
0
39
0
210
0
220
0
230
1
0
LINE
5
92
100
AcDbEntity
8
1
62
256
6
ByLayer
370
13
48
1
60
0
100
AcDbLine
10
72.72899
20
0.976224
30
0
11
71.54347
21
0.976224
31
0
39
0
210
0
220
0
230
1
0
LINE
5
93
100
AcDbEntity
8
1
62
256
6
ByLayer
370
18
48
1
60
0
100
AcDbLine
10
73
20
0
30
0
11
71.209648
21
-4.91895
31
0
39
0
210
0
220
0
230
1
0
LINE
5
94
100
AcDbEntity
8
1
62
256
6
ByLayer
370
13
48
1
60
0
100
AcDbLine
10
71.374011
20
0.6298
30
0
11
72.894467
21
-0.123011
31
0
39
0
210
0
220
0
230
1
0
LINE
5
95
100
AcDbEntity
8
1
62
256
6
ByLayer
370
18
48
1
60
0
100
AcDbLine
10
72.912608
20
-0.298334
30
0
11
72.72899
21
-0.976224
31
0
39
0
210
0
220
0
230
1
0
LINE
5
96
100
AcDbEntity
8
SK1
62
256
6
ByLayer
370
18
48
1
60
0
100
AcDbLine
10
0
20
-6
30
0
11
0
21
6
31
0
39
0
210
0
220
0
230
1
0
LINE
5
97
100
AcDbEntity
8
SK1
62
256
6
ByLayer
370
18
48
1
60
0
100
AcDbLine
10
-43.6
20
5.924871
30
0
11
-43.6
21
5.871586
31
0
39
0
210
0
220
0
230
1
0
LINE
5
98
100
AcDbEntity
8
SK1
62
256
6
ByLayer
370
18
48
1
60
0
100
AcDbLine
10
-45
20
-3.186678
30
0
11
-45
21
-3.339424
31
0
39
0
210
0
220
0
230
1
0
LINE
5
99
100
AcDbEntity
8
SK1
62
256
6
ByLayer
370
18
48
1
60
0
100
AcDbLine
10
-45
20
3.339424
30
0
11
-45
21
-3.186716
31
0
39
0
210
0
220
0
230
1
0
LINE
5
9A
100
AcDbEntity
8
SK1
62
256
6
ByLayer
370
18
48
1
60
0
100
AcDbLine
10
-43.6
20
-5.924871
30
0
11
-43.6
21
-5.731095
31
0
39
0
210
0
220
0
230
1
0
LINE
5
9B
100
AcDbEntity
8
SK1
62
256
6
ByLayer
370
13
48
1
60
0
100
AcDbLine
10
-43.7
20
-5.527187
30
0
11
-43.7
21
-5.680063
31
0
39
0
210
0
220
0
230
1
0
LINE
5
9C
100
AcDbEntity
8
SK1
62
256
6
ByLayer
370
18
48
1
60
0
100
AcDbLine
10
-43.556624
20
6
30
0
11
-43.556624
21
-6
31
0
39
0
210
0
220
0
230
1
0
MTEXT
5
E7
100
AcDbEntity
8
SK6
62
256
6
ByLayer
370
13
48
1
60
0
100
AcDbMText
10
16.129169
20
37.532694
30
0
210
0
220
0
230
1
1
\W0.7415;R840-1030-50-A1A1220
40
3.5
41
0
44
1.084337
50
0
71
8
72
5
7
iso_b_vert
0
DIMENSION
5
F4
100
AcDbEntity
8
SK2
62
256
6
ByLayer
370
13
48
1
60
0
100
AcDbDimension
2
DimnDraft3D1
10
71.23
20
-15.363398
30
0
11
33.980059
21
-15.363398
31
0
70
32
71
5
72
1
41
1
210
0
220
0
230
1
3
Standard
100
AcDbAlignedDimension
13
0
23
-1.5875
33
0
14
71.23
24
-6.7375
34
0
50
0
100
AcDbRotatedDimension
1001
ACAD
1000
DSTYLE
1002
{
1070
   279
1070
     0
1070
   172
1070
     1
1070
   173
1070
     1
1070
   340
1005
E8
1070
   271
1070
     2
1070
   272
1070
     2
1070
    77
1070
     1
1070
    73
1070
     0
1070
   171
1070
     3
1070
   274
1070
     4
1070
   177
1070
    35
1070
   176
1070
    35
1070
   178
1070
    35
1070
    48
1040
-0.005
1070
    41
1041
3.5
1070
   147
1041
1.75
1070
    42
1041
1.5875
1070
    44
1041
2.0
1070
   140
1041
3.5
1070
   343
1005
0
1070
   344
1005
0
1002
}
0
DIMENSION
5
FE
100
AcDbEntity
8
SK2
62
256
6
ByLayer
370
13
48
1
60
0
100
AcDbDimension
2
DimnDraft3D2
10
73
20
-34.692985
30
0
11
13.5713
21
-34.692985
31
0
70
32
71
5
72
1
41
1
210
0
220
0
230
1
3
Standard
100
AcDbAlignedDimension
13
-45
23
-7.5875
33
0
14
73
24
-1.5875
34
0
50
0
100
AcDbRotatedDimension
1001
ACAD
1000
DSTYLE
1002
{
1070
   279
1070
     0
1070
   172
1070
     1
1070
   173
1070
     1
1070
   340
1005
E8
1070
   271
1070
     2
1070
   272
1070
     2
1070
    77
1070
     1
1070
    73
1070
     0
1070
   171
1070
     3
1070
   274
1070
     4
1070
   177
1070
    35
1070
   176
1070
    35
1070
   178
1070
    35
1070
    48
1040
-0.005
1070
    41
1041
3.5
1070
   147
1041
1.75
1070
    42
1041
1.5875
1070
    44
1041
2.0
1070
   140
1041
3.5
1070
   343
1005
0
1070
   344
1005
0
1002
}
0
DIMENSION
5
108
100
AcDbEntity
8
SK2
62
256
6
ByLayer
370
13
48
1
60
0
100
AcDbDimension
2
DimnDraft3D3
10
73
20
16.759119
30
0
11
46.365
21
16.759119
31
0
70
32
71
5
72
1
41
1
210
0
220
0
230
1
3
Standard
100
AcDbAlignedDimension
13
19.73
23
6.7375
33
0
14
73
24
1.5875
34
0
50
0
100
AcDbRotatedDimension
1001
ACAD
1000
DSTYLE
1002
{
1070
   279
1070
     0
1070
   172
1070
     1
1070
   173
1070
     1
1070
   340
1005
E8
1070
   271
1070
     2
1070
   272
1070
     2
1070
    77
1070
     1
1070
    73
1070
     0
1070
   171
1070
     3
1070
   274
1070
     4
1070
   177
1070
    35
1070
   176
1070
    35
1070
   178
1070
    35
1070
    48
1040
-0.005
1070
    41
1041
3.5
1070
   147
1041
1.75
1070
    42
1041
1.5875
1070
    44
1041
2.0
1070
   140
1041
3.5
1070
   343
1005
0
1070
   344
1005
0
1002
}
0
DIMENSION
5
112
100
AcDbEntity
8
SK2
62
256
6
ByLayer
370
13
48
1
60
0
100
AcDbDimension
2
DimnDraft3D4
10
71.23
20
-17.952503
30
0
11
82.981425
21
-17.952503
31
0
70
32
71
5
72
1
41
1
210
0
220
0
230
1
3
Standard
100
AcDbAlignedDimension
13
73
23
-1.5875
33
0
14
71.23
24
-6.7375
34
0
50
0
100
AcDbRotatedDimension
1001
ACAD
1000
DSTYLE
1002
{
1070
   279
1070
     0
1070
   172
1070
     1
1070
   173
1070
     1
1070
   340
1005
E8
1070
   271
1070
     2
1070
   272
1070
     2
1070
    77
1070
     1
1070
    73
1070
     0
1070
   171
1070
     3
1070
   274
1070
     4
1070
   177
1070
    35
1070
   176
1070
    35
1070
   178
1070
    35
1070
    48
1040
-0.005
1070
    41
1041
3.5
1070
   147
1041
1.75
1070
    42
1041
1.5875
1070
    44
1041
2.0
1070
   140
1041
3.5
1070
   343
1005
0
1070
   344
1005
0
1002
}
0
DIMENSION
5
11C
100
AcDbEntity
8
SK2
62
256
6
ByLayer
370
13
48
1
60
0
100
AcDbDimension
2
DimnDraft3D5
10
71.23
20
-24.343428
30
0
11
10.490676
21
-24.343428
31
0
70
32
71
5
72
1
41
1
210
0
220
0
230
1
3
Standard
100
AcDbAlignedDimension
13
-45
23
-7.5875
33
0
14
71.23
24
-6.7375
34
0
50
0
100
AcDbRotatedDimension
1001
ACAD
1000
DSTYLE
1002
{
1070
   279
1070
     0
1070
   172
1070
     1
1070
   173
1070
     1
1070
   340
1005
E8
1070
   271
1070
     2
1070
   272
1070
     2
1070
    77
1070
     1
1070
    73
1070
     0
1070
   171
1070
     3
1070
   274
1070
     4
1070
   177
1070
    35
1070
   176
1070
    35
1070
   178
1070
    35
1070
    48
1040
-0.005
1070
    41
1041
3.5
1070
   147
1041
1.75
1070
    42
1041
1.5875
1070
    44
1041
2.0
1070
   140
1041
3.5
1070
   343
1005
0
1070
   344
1005
0
1002
}
0
DIMENSION
5
127
100
AcDbEntity
8
SK2
62
256
6
ByLayer
370
13
48
1
60
0
100
AcDbDimension
2
DimnDraft3D6
10
-55.625163
20
6
30
0
11
-56.250163
21
24.47418
31
0
70
33
71
5
72
1
41
1
210
0
220
0
230
1
3
Standard
100
AcDbAlignedDimension
13
-46.5875
23
-6
33
0
14
-46.5875
24
6
34
0
1001
ACAD
1000
DSTYLE
1002
{
1070
   279
1070
     0
1070
    74
1070
     0
1070
   173
1070
     1
1070
   340
1005
E8
1070
   271
1070
     3
1070
   272
1070
     2
1070
    77
1070
     1
1070
    73
1070
     0
1070
   171
1070
     3
1070
   274
1070
     4
1070
   177
1070
    35
1070
   176
1070
    35
1070
   178
1070
    35
1070
    48
1040
-0.005
1070
    41
1041
3.5
1070
   147
1041
1.75
1070
    42
1041
1.5875
1070
    44
1041
2.0
1070
   140
1041
3.5
1070
   343
1005
0
1070
   344
1005
0
1002
}
0
DIMENSION
5
132
100
AcDbEntity
8
2
62
256
6
ByLayer
370
13
48
1
60
0
100
AcDbDimension
2
DimnDraft3D7
10
87.083343
20
5.15
30
0
11
82.458343
21
22.217266
31
0
70
33
71
5
72
1
41
1
210
0
220
0
230
1
3
Standard
100
AcDbAlignedDimension
13
72.8175
23
-5.15
33
0
14
72.8175
24
5.15
34
0
1001
ACAD
1000
DSTYLE
1002
{
1070
   279
1070
     0
1070
    74
1070
     0
1070
   173
1070
     1
1070
   340
1005
E8
1070
   271
1070
     3
1070
   272
1070
     2
1070
    77
1070
     1
1070
    73
1070
     0
1070
   171
1070
     3
1070
   274
1070
     4
1070
   177
1070
    35
1070
   176
1070
    35
1070
   178
1070
    35
1070
    48
1040
-0.005
1070
    41
1041
3.5
1070
   147
1041
1.75
1070
    42
1041
1.5875
1070
    44
1041
2.0
1070
   140
1041
3.5
1070
   343
1005
0
1070
   344
1005
0
1002
}
0
ENDSEC
0
SECTION
2
OBJECTS
0
DICTIONARY
5
19d
330
0
100
AcDbDictionary
280
0
281
1
3
ACAD_GROUP
350
19e
3
ACAD_MLINESTYLE
350
19f
0
DICTIONARY
5
19e
330
0
100
AcDbDictionary
280
0
281
1
0
DICTIONARY
5
19f
330
0
100
AcDbDictionary
280
0
281
1
3
Standard
350
18
0
MLINESTYLE
5
18
330
19f
100
AcDbMlineStyle
2
Standard
70
0
3

62
256
51
90
52
90
71
2
49
-0.5
62
256
6
ByLayer
49
0.5
62
256
6
ByLayer
0
RASTERVARIABLES
5
18b
330

100
AcDbRasterVariables
90
0
70
1
71
1
72
1
0
ENDSEC
0
EOF
