0
SECTION
2
HEADER
9
$ACADVER
1
AC1015
9
$DWGCODEPAGE
3
ANSI_1252
9
$HANDSEED
5
19d
9
$ANGBASE
50
0
9
$ANGDIR
70
0
9
$ATTMODE
70
1
9
$AUNITS
70
0
9
$AUPREC
70
0
9
$CECOLOR
62
256
9
$CELTSCALE
40
1
9
$CELTYPE
6
ByLayer
9
$CELWEIGHT
370
18
9
$CLAYER
8
0
9
$CMLJUST
70
0
9
$CMLSCALE
40
1
9
$CMLSTYLE
2
Standard
9
$DIMSTYLE
2
Standard
9
$TEXTSIZE
40
0.2
9
$TEXTSTYLE
7
Standard
9
$LUNITS
70
2
9
$LUPREC
70
4
9
$EXTNAMES
290
1
9
$INSUNITS
70
4
9
$LTSCALE
40
1
9
$LWDISPLAY
290
1
9
$PDMODE
70
0
9
$PDSIZE
40
0
9
$PLINEGEN
70
0
0
ENDSEC
0
SECTION
2
CLASSES
0
CLASS
1
RASTERVARIABLES
2
AcDbRasterVariables
3
ISM
90
0
280
0
281
0
0
ENDSEC
0
SECTION
2
TABLES
0
TABLE
2
VPORT
5
193
100
AcDbSymbolTable
0
VPORT
5
1
100
AcDbSymbolTableRecord
100
AcDbViewportTableRecord
2
*Active
70
0
10
0
20
0
11
1
21
1
12
-1
22
1
13
0
23
0
14
0.5
24
0.5
15
10
25
10
16
0
26
0
36
1
17
0
27
0
37
0
0
ENDTAB
0
TABLE
2
LTYPE
5
194
100
AcDbSymbolTable
0
LTYPE
5
14
100
AcDbSymbolTableRecord
100
AcDbLinetypeTableRecord
70
0
2
ByBlock
3

72
65
73
0
40
0
0
LTYPE
5
15
100
AcDbSymbolTableRecord
100
AcDbLinetypeTableRecord
70
0
2
ByLayer
3

72
65
73
0
40
0
0
LTYPE
5
16
100
AcDbSymbolTableRecord
100
AcDbLinetypeTableRecord
70
0
2
CONTINUOUS
3
Solid line
72
65
73
0
40
0
0
LTYPE
5
6A
100
AcDbSymbolTableRecord
100
AcDbLinetypeTableRecord
70
0
2
CENTER
3
____ _ ____ _ ____ _ ____
72
65
73
4
40
47.5
49
22
74
0
49
-8.5
74
0
49
8.5
74
0
49
-8.5
74
0
0
LTYPE
5
6B
100
AcDbSymbolTableRecord
100
AcDbLinetypeTableRecord
70
0
2
DASHED
3
__ __ __ __ __ __ __ __ __
72
65
73
2
40
25.72
49
12.86
74
0
49
-12.86
74
0
0
ENDTAB
0
TABLE
2
LAYER
5
195
100
AcDbSymbolTable
0
LAYER
5
10
100
AcDbSymbolTableRecord
100
AcDbLayerTableRecord
2
0
70
0
62
7
6
CONTINUOUS
290
1
370
-3
390
0
0
LAYER
5
6D
100
AcDbSymbolTableRecord
100
AcDbLayerTableRecord
2
81
70
0
62
-3
6
CONTINUOUS
290
1
370
-3
390
0
0
LAYER
5
6F
100
AcDbSymbolTableRecord
100
AcDbLayerTableRecord
2
80
70
0
62
-6
6
CONTINUOUS
290
1
370
-3
390
0
0
LAYER
5
74
100
AcDbSymbolTableRecord
100
AcDbLayerTableRecord
2
2
70
0
62
7
6
CONTINUOUS
290
1
370
-3
390
0
0
LAYER
5
78
100
AcDbSymbolTableRecord
100
AcDbLayerTableRecord
2
1
70
0
62
4
6
CONTINUOUS
290
1
370
-3
390
0
0
LAYER
5
86
100
AcDbSymbolTableRecord
100
AcDbLayerTableRecord
2
4
70
0
62
-2
6
CENTER
290
1
370
-3
390
0
0
LAYER
5
17f
100
AcDbSymbolTableRecord
100
AcDbLayerTableRecord
2
SK2
70
0
62
7
6
CONTINUOUS
290
1
370
-3
390
0
0
LAYER
5
180
100
AcDbSymbolTableRecord
100
AcDbLayerTableRecord
2
SK1
70
0
62
4
6
CONTINUOUS
290
1
370
-3
390
0
0
LAYER
5
181
100
AcDbSymbolTableRecord
100
AcDbLayerTableRecord
2
SK4
70
0
62
2
6
CENTER
290
1
370
-3
390
0
0
LAYER
5
182
100
AcDbSymbolTableRecord
100
AcDbLayerTableRecord
2
SK6
70
0
62
5
6
CONTINUOUS
290
1
370
-3
390
0
0
ENDTAB
0
TABLE
2
STYLE
5
196
100
AcDbSymbolTable
0
STYLE
5
11
100
AcDbSymbolTableRecord
100
AcDbTextStyleTableRecord
2
Standard
3
txt
70
0
71
0
40
0
41
1
42
0
50
0
0
STYLE
5
DB
100
AcDbSymbolTableRecord
100
AcDbTextStyleTableRecord
2
iso_b_vert
3
simplex.shx
70
0
71
0
40
0
41
1
42
0
50
0
0
STYLE
5
DC
100
AcDbSymbolTableRecord
100
AcDbTextStyleTableRecord
2
DWGDirectTextStyle
3
simplex
70
0
71
0
40
0
41
1
42
0
50
0
0
ENDTAB
0
TABLE
2
DIMSTYLE
5
197
100
AcDbSymbolTable
100
AcDbDimStyleTable
0
DIMSTYLE
105
27
100
AcDbSymbolTableRecord
100
AcDbDimStyleTableRecord
2
Standard
70
0
3
<>
41
0.18
42
0.0625
44
0.18
140
0.18
147
0.09
73
0
74
0
77
1
271
2
275
0
278
52
280
0
340
11
0
ENDTAB
0
TABLE
2
VIEW
5
198
100
AcDbSymbolTable
0
ENDTAB
0
TABLE
2
UCS
5
199
100
AcDbSymbolTable
0
ENDTAB
0
TABLE
2
APPID
5
19a
100
AcDbSymbolTable
0
APPID
5
12
100
AcDbSymbolTableRecord
100
AcDbRegAppTableRecord
2
ACAD
70
0
0
ENDTAB
0
TABLE
2
BLOCK_RECORD
5
19b
100
AcDbSymbolTable
0
BLOCK_RECORD
5
1F
100
AcDbSymbolTableRecord
100
AcDbBlockTableRecord
2
*Model_Space
340
0
70
0
0
BLOCK_RECORD
5
1B
100
AcDbSymbolTableRecord
100
AcDbBlockTableRecord
2
*Paper_Space
340
0
70
0
0
BLOCK_RECORD
5
23
100
AcDbSymbolTableRecord
100
AcDbBlockTableRecord
2
*Paper_Space0
340
0
70
0
0
BLOCK_RECORD
5
DE
100
AcDbSymbolTableRecord
100
AcDbBlockTableRecord
2
DimnDraft3D1
340
0
70
0
0
BLOCK_RECORD
5
E8
100
AcDbSymbolTableRecord
100
AcDbBlockTableRecord
2
DimnDraft3D2
340
0
70
0
0
BLOCK_RECORD
5
F2
100
AcDbSymbolTableRecord
100
AcDbBlockTableRecord
2
DimnDraft3D3
340
0
70
0
0
BLOCK_RECORD
5
FC
100
AcDbSymbolTableRecord
100
AcDbBlockTableRecord
2
DimnDraft3D4
340
0
70
0
0
BLOCK_RECORD
5
106
100
AcDbSymbolTableRecord
100
AcDbBlockTableRecord
2
DimnDraft3D5
340
0
70
0
0
BLOCK_RECORD
5
110
100
AcDbSymbolTableRecord
100
AcDbBlockTableRecord
2
DimnDraft3D6
340
0
70
0
0
BLOCK_RECORD
5
11B
100
AcDbSymbolTableRecord
100
AcDbBlockTableRecord
2
DimnDraft3D7
340
0
70
0
0
ENDTAB
0
ENDSEC
0
SECTION
2
BLOCKS
0
BLOCK
5
20
100
AcDbEntity
8
0
100
AcDbBlockBegin
2
*Model_Space
70
0
10
0
20
0
30
0
3
*Model_Space
0
ENDBLK
5
21
100
AcDbEntity
8
0
100
AcDbBlockEnd
0
BLOCK
5
1C
100
AcDbEntity
8
0
100
AcDbBlockBegin
2
*Paper_Space
70
0
10
0
20
0
30
0
3
*Paper_Space
0
ENDBLK
5
1D
100
AcDbEntity
8
0
100
AcDbBlockEnd
0
BLOCK
5
24
100
AcDbEntity
8
0
100
AcDbBlockBegin
2
*Paper_Space0
70
0
10
0
20
0
30
0
3
*Paper_Space0
0
ENDBLK
5
25
100
AcDbEntity
8
0
100
AcDbBlockEnd
0
BLOCK
5
E5
100
AcDbEntity
8
0
100
AcDbBlockBegin
2
DimnDraft3D1
70
0
10
0
20
0
30
0
3
DimnDraft3D1
0
MTEXT
5
DF
100
AcDbEntity
8
SK2
62
256
6
ByLayer
370
13
48
1
60
0
100
AcDbMText
10
21.551375
20
-14.438398
30
0
210
0
220
0
230
1
1
\W0.7317;55,25
40
3.5
41
0
44
1.084337
50
0
71
7
72
5
7
iso_b_vert
0
LINE
5
E0
100
AcDbEntity
8
SK2
62
256
6
ByLayer
370
13
48
1
60
0
100
AcDbLine
10
0
20
-1.5875
30
0
11
0
21
-17.313398
31
0
39
0
210
0
220
0
230
1
0
LINE
5
E1
100
AcDbEntity
8
SK2
62
256
6
ByLayer
370
13
48
1
60
0
100
AcDbLine
10
55.25
20
-6.6875
30
0
11
55.25
21
-17.313398
31
0
39
0
210
0
220
0
230
1
0
LINE
5
E2
100
AcDbEntity
8
SK2
62
256
6
ByLayer
370
13
48
1
60
0
100
AcDbLine
10
0
20
-15.313398
30
0
11
55.25
21
-15.313398
31
0
39
0
210
0
220
0
230
1
0
SOLID
5
E3
100
AcDbEntity
8
SK2
62
256
6
ByLayer
370
13
48
1
60
0
100
AcDbTrace
10
0
20
-15.313398
30
0
11
3.499998
21
-14.852615
31
0
12
3.500002
22
-15.774182
32
0
13
0
23
-15.313398
33
0
39
0
210
0
220
0
230
1
0
SOLID
5
E4
100
AcDbEntity
8
SK2
62
256
6
ByLayer
370
13
48
1
60
0
100
AcDbTrace
10
55.25
20
-15.313398
30
0
11
51.750002
21
-15.774182
31
0
12
51.749998
22
-14.852615
32
0
13
55.25
23
-15.313398
33
0
39
0
210
0
220
0
230
1
0
ENDBLK
5
E6
100
AcDbEntity
8
0
100
AcDbBlockEnd
0
BLOCK
5
EF
100
AcDbEntity
8
0
100
AcDbBlockBegin
2
DimnDraft3D2
70
0
10
0
20
0
30
0
3
DimnDraft3D2
0
MTEXT
5
E9
100
AcDbEntity
8
SK2
62
256
6
ByLayer
370
13
48
1
60
0
100
AcDbMText
10
0.272221
20
-33.817985
30
0
210
0
220
0
230
1
1
\W0.6930;102,00
40
3.5
41
0
44
1.084337
50
0
71
7
72
5
7
iso_b_vert
0
LINE
5
EA
100
AcDbEntity
8
SK2
62
256
6
ByLayer
370
13
48
1
60
0
100
AcDbLine
10
-45
20
-7.5875
30
0
11
-45
21
-36.692985
31
0
39
0
210
0
220
0
230
1
0
LINE
5
EB
100
AcDbEntity
8
SK2
62
256
6
ByLayer
370
13
48
1
60
0
100
AcDbLine
10
57
20
-1.5875
30
0
11
57
21
-36.692985
31
0
39
0
210
0
220
0
230
1
0
LINE
5
EC
100
AcDbEntity
8
SK2
62
256
6
ByLayer
370
13
48
1
60
0
100
AcDbLine
10
-45
20
-34.692985
30
0
11
57
21
-34.692985
31
0
39
0
210
0
220
0
230
1
0
SOLID
5
ED
100
AcDbEntity
8
SK2
62
256
6
ByLayer
370
13
48
1
60
0
100
AcDbTrace
10
-45
20
-34.692985
30
0
11
-41.500002
21
-34.232202
31
0
12
-41.499998
22
-35.153769
32
0
13
-45
23
-34.692985
33
0
39
0
210
0
220
0
230
1
0
SOLID
5
EE
100
AcDbEntity
8
SK2
62
256
6
ByLayer
370
13
48
1
60
0
100
AcDbTrace
10
57
20
-34.692985
30
0
11
53.500002
21
-35.153769
31
0
12
53.499998
22
-34.232202
32
0
13
57
23
-34.692985
33
0
39
0
210
0
220
0
230
1
0
ENDBLK
5
F0
100
AcDbEntity
8
0
100
AcDbBlockEnd
0
BLOCK
5
F9
100
AcDbEntity
8
0
100
AcDbBlockBegin
2
DimnDraft3D3
70
0
10
0
20
0
30
0
3
DimnDraft3D3
0
MTEXT
5
F3
100
AcDbEntity
8
SK2
62
256
6
ByLayer
370
13
48
1
60
0
100
AcDbMText
10
36.376316
20
17.584119
30
0
210
0
220
0
230
1
1
\W0.7317;32,35
40
3.5
41
0
44
1.084337
50
0
71
7
72
5
7
iso_b_vert
0
LINE
5
F4
100
AcDbEntity
8
SK2
62
256
6
ByLayer
370
13
48
1
60
0
100
AcDbLine
10
24.65
20
6.6875
30
0
11
24.65
21
18.709119
31
0
39
0
210
0
220
0
230
1
0
LINE
5
F5
100
AcDbEntity
8
SK2
62
256
6
ByLayer
370
13
48
1
60
0
100
AcDbLine
10
57
20
1.5875
30
0
11
57
21
18.709119
31
0
39
0
210
0
220
0
230
1
0
LINE
5
F6
100
AcDbEntity
8
SK2
62
256
6
ByLayer
370
13
48
1
60
0
100
AcDbLine
10
24.65
20
16.709119
30
0
11
57
21
16.709119
31
0
39
0
210
0
220
0
230
1
0
SOLID
5
F7
100
AcDbEntity
8
SK2
62
256
6
ByLayer
370
13
48
1
60
0
100
AcDbTrace
10
24.65
20
16.709119
30
0
11
28.149998
21
17.169903
31
0
12
28.150002
22
16.248335
32
0
13
24.65
23
16.709119
33
0
39
0
210
0
220
0
230
1
0
SOLID
5
F8
100
AcDbEntity
8
SK2
62
256
6
ByLayer
370
13
48
1
60
0
100
AcDbTrace
10
57
20
16.709119
30
0
11
53.500002
21
16.248335
31
0
12
53.499998
22
17.169903
32
0
13
57
23
16.709119
33
0
39
0
210
0
220
0
230
1
0
ENDBLK
5
FA
100
AcDbEntity
8
0
100
AcDbBlockEnd
0
BLOCK
5
103
100
AcDbEntity
8
0
100
AcDbBlockBegin
2
DimnDraft3D4
70
0
10
0
20
0
30
0
3
DimnDraft3D4
0
MTEXT
5
FD
100
AcDbEntity
8
SK2
62
256
6
ByLayer
370
13
48
1
60
0
100
AcDbMText
10
64.278136
20
-17.027503
30
0
210
0
220
0
230
1
1
\W0.6367;1,75
40
3.5
41
0
44
1.084337
50
0
71
7
72
5
7
iso_b_vert
0
LINE
5
FE
100
AcDbEntity
8
SK2
62
256
6
ByLayer
370
13
48
1
60
0
100
AcDbLine
10
57
20
-1.5875
30
0
11
57
21
-19.902503
31
0
39
0
210
0
220
0
230
1
0
LINE
5
FF
100
AcDbEntity
8
SK2
62
256
6
ByLayer
370
13
48
1
60
0
100
AcDbLine
10
55.25
20
-6.6875
30
0
11
55.25
21
-19.902503
31
0
39
0
210
0
220
0
230
1
0
LINE
5
100
100
AcDbEntity
8
SK2
62
256
6
ByLayer
370
13
48
1
60
0
100
AcDbLine
10
46.5
20
-17.902503
30
0
11
70.559715
21
-17.902503
31
0
39
0
210
0
220
0
230
1
0
SOLID
5
101
100
AcDbEntity
8
SK2
62
256
6
ByLayer
370
13
48
1
60
0
100
AcDbTrace
10
57
20
-17.902503
30
0
11
60.499998
21
-17.441719
31
0
12
60.500002
22
-18.363287
32
0
13
57
23
-17.902503
33
0
39
0
210
0
220
0
230
1
0
SOLID
5
102
100
AcDbEntity
8
SK2
62
256
6
ByLayer
370
13
48
1
60
0
100
AcDbTrace
10
55.25
20
-17.902503
30
0
11
51.750002
21
-18.363287
31
0
12
51.749998
22
-17.441719
32
0
13
55.25
23
-17.902503
33
0
39
0
210
0
220
0
230
1
0
ENDBLK
5
104
100
AcDbEntity
8
0
100
AcDbBlockEnd
0
BLOCK
5
10D
100
AcDbEntity
8
0
100
AcDbBlockBegin
2
DimnDraft3D5
70
0
10
0
20
0
30
0
3
DimnDraft3D5
0
MTEXT
5
107
100
AcDbEntity
8
SK2
62
256
6
ByLayer
370
13
48
1
60
0
100
AcDbMText
10
-2.808403
20
-23.468428
30
0
210
0
220
0
230
1
1
\W0.6930;100,25
40
3.5
41
0
44
1.084337
50
0
71
7
72
5
7
iso_b_vert
0
LINE
5
108
100
AcDbEntity
8
SK2
62
256
6
ByLayer
370
13
48
1
60
0
100
AcDbLine
10
-45
20
-7.5875
30
0
11
-45
21
-26.343428
31
0
39
0
210
0
220
0
230
1
0
LINE
5
109
100
AcDbEntity
8
SK2
62
256
6
ByLayer
370
13
48
1
60
0
100
AcDbLine
10
55.25
20
-6.6875
30
0
11
55.25
21
-26.343428
31
0
39
0
210
0
220
0
230
1
0
LINE
5
10A
100
AcDbEntity
8
SK2
62
256
6
ByLayer
370
13
48
1
60
0
100
AcDbLine
10
-45
20
-24.343428
30
0
11
55.25
21
-24.343428
31
0
39
0
210
0
220
0
230
1
0
SOLID
5
10B
100
AcDbEntity
8
SK2
62
256
6
ByLayer
370
13
48
1
60
0
100
AcDbTrace
10
-45
20
-24.343428
30
0
11
-41.500002
21
-23.882645
31
0
12
-41.499998
22
-24.804212
32
0
13
-45
23
-24.343428
33
0
39
0
210
0
220
0
230
1
0
SOLID
5
10C
100
AcDbEntity
8
SK2
62
256
6
ByLayer
370
13
48
1
60
0
100
AcDbTrace
10
55.25
20
-24.343428
30
0
11
51.750002
21
-24.804212
31
0
12
51.749998
22
-23.882645
32
0
13
55.25
23
-24.343428
33
0
39
0
210
0
220
0
230
1
0
ENDBLK
5
10E
100
AcDbEntity
8
0
100
AcDbBlockEnd
0
BLOCK
5
118
100
AcDbEntity
8
0
100
AcDbBlockBegin
2
DimnDraft3D6
70
0
10
0
20
0
30
0
3
DimnDraft3D6
0
MTEXT
5
111
100
AcDbEntity
8
SK2
62
256
6
ByLayer
370
13
48
1
60
0
100
AcDbMText
10
-55.375163
20
25.34918
30
0
210
0
220
0
230
1
1
\W0.6930;12,000
40
3.5
41
0
44
1.084337
50
90
71
7
72
5
7
iso_b_vert
0
MTEXT
5
112
100
AcDbEntity
8
SK2
62
256
6
ByLayer
370
13
48
1
60
0
100
AcDbMText
10
-55.375163
20
20.126524
30
0
210
0
220
0
230
1
1
%%c
40
3.5
41
0
44
1.084337
50
90
71
7
72
5
7
iso_b_vert
0
LINE
5
113
100
AcDbEntity
8
SK2
62
256
6
ByLayer
370
13
48
1
60
0
100
AcDbLine
10
-46.5875
20
-6
30
0
11
-55.625163
21
-6
31
0
39
0
210
0
220
0
230
1
0
LINE
5
114
100
AcDbEntity
8
SK2
62
256
6
ByLayer
370
13
48
1
60
0
100
AcDbLine
10
-46.5875
20
6
30
0
11
-55.625163
21
6
31
0
39
0
210
0
220
0
230
1
0
LINE
5
115
100
AcDbEntity
8
SK2
62
256
6
ByLayer
370
13
48
1
60
0
100
AcDbLine
10
-53.625163
20
-6
30
0
11
-53.625163
21
36.862338
31
0
39
0
210
0
220
0
230
1
0
SOLID
5
116
100
AcDbEntity
8
SK2
62
256
6
ByLayer
370
13
48
1
60
0
100
AcDbTrace
10
-53.625163
20
-6
30
0
11
-54.085946
21
-2.500002
31
0
12
-53.164379
22
-2.499998
32
0
13
-53.625163
23
-6
33
0
39
0
210
0
220
0
230
1
0
SOLID
5
117
100
AcDbEntity
8
SK2
62
256
6
ByLayer
370
13
48
1
60
0
100
AcDbTrace
10
-53.625163
20
6
30
0
11
-53.164379
21
2.500002
31
0
12
-54.085946
22
2.499998
32
0
13
-53.625163
23
6
33
0
39
0
210
0
220
0
230
1
0
ENDBLK
5
119
100
AcDbEntity
8
0
100
AcDbBlockEnd
0
BLOCK
5
123
100
AcDbEntity
8
0
100
AcDbBlockBegin
2
DimnDraft3D7
70
0
10
0
20
0
30
0
3
DimnDraft3D7
0
MTEXT
5
11C
100
AcDbEntity
8
2
62
256
6
ByLayer
370
13
48
1
60
0
100
AcDbMText
10
67.333343
20
23.042266
30
0
210
0
220
0
230
1
1
\W0.6930;10,200
40
3.5
41
0
44
1.084337
50
90
71
7
72
5
7
iso_b_vert
0
MTEXT
5
11D
100
AcDbEntity
8
2
62
256
6
ByLayer
370
13
48
1
60
0
100
AcDbMText
10
67.333343
20
17.81961
30
0
210
0
220
0
230
1
1
%%c
40
3.5
41
0
44
1.084337
50
90
71
7
72
5
7
iso_b_vert
0
LINE
5
11E
100
AcDbEntity
8
2
62
256
6
ByLayer
370
13
48
1
60
0
100
AcDbLine
10
56.8375
20
-5.1
30
0
11
71.083343
21
-5.1
31
0
39
0
210
0
220
0
230
1
0
LINE
5
11F
100
AcDbEntity
8
2
62
256
6
ByLayer
370
13
48
1
60
0
100
AcDbLine
10
56.8375
20
5.1
30
0
11
71.083343
21
5.1
31
0
39
0
210
0
220
0
230
1
0
LINE
5
120
100
AcDbEntity
8
2
62
256
6
ByLayer
370
13
48
1
60
0
100
AcDbLine
10
69.083343
20
-5.1
30
0
11
69.083343
21
34.555424
31
0
39
0
210
0
220
0
230
1
0
SOLID
5
121
100
AcDbEntity
8
2
62
256
6
ByLayer
370
13
48
1
60
0
100
AcDbTrace
10
69.083343
20
-5.1
30
0
11
68.622559
21
-1.600002
31
0
12
69.544126
22
-1.599998
32
0
13
69.083343
23
-5.1
33
0
39
0
210
0
220
0
230
1
0
SOLID
5
122
100
AcDbEntity
8
2
62
256
6
ByLayer
370
13
48
1
60
0
100
AcDbTrace
10
69.083343
20
5.1
30
0
11
69.544126
21
1.600002
31
0
12
68.622559
22
1.599998
32
0
13
69.083343
23
5.1
33
0
39
0
210
0
220
0
230
1
0
ENDBLK
5
124
100
AcDbEntity
8
0
100
AcDbBlockEnd
0
ENDSEC
0
SECTION
2
ENTITIES
0
ARC
5
9A
100
AcDbEntity
8
1
62
256
6
ByLayer
370
18
48
1
60
0
100
AcDbCircle
39
0
10
0
20
5.2
30
0
40
0.799999999999998
210
0
220
0
230
1
100
AcDbArc
50
24.664863
51
90
0
ARC
5
9B
100
AcDbEntity
8
1
62
256
6
ByLayer
370
18
48
1
60
0
100
AcDbCircle
39
0
10
0
20
-5.2
30
0
40
0.799999999999998
210
0
220
0
230
1
100
AcDbArc
50
270
51
335.335137
0
ARC
5
9C
100
AcDbEntity
8
1
62
256
6
ByLayer
370
18
48
1
60
0
100
AcDbCircle
39
0
10
-1.454023
20
-5.867696
30
0
40
0.800000000000004
210
0
220
0
230
-1
100
AcDbArc
50
24.664863
51
90.034377
0
ARC
5
9D
100
AcDbEntity
8
1
62
256
6
ByLayer
370
18
48
1
60
0
100
AcDbCircle
39
0
10
-1.454023
20
5.867696
30
0
40
0.800000000000004
210
0
220
0
230
-1
100
AcDbArc
50
269.965623
51
335.335137
0
ELLIPSE
5
9E
100
AcDbEntity
8
1
62
256
6
ByLayer
370
18
48
1
60
0
100
AcDbEllipse
10
4.25
20
-5.090703
30
0
11
-0.25
21
3.06151588455594E-17
31
0
210
0
220
0
230
1
40
0.999966
41
-1.56991312065805
42
-0.0566012784705146
0
ELLIPSE
5
9F
100
AcDbEntity
8
1
62
256
6
ByLayer
370
18
48
1
60
0
100
AcDbEllipse
10
4.25
20
5.090703
30
0
11
-0.25
21
3.06151588455594E-17
31
0
210
0
220
0
230
1
40
0.999966
41
0.0566012784704576
42
1.57616298704403
0
ELLIPSE
5
A0
100
AcDbEntity
8
1
62
256
6
ByLayer
370
13
48
1
60
0
100
AcDbEllipse
10
56.307948
20
2.483305
30
0
11
3.50712760442305
21
-1.47176811006965
31
0
210
0
220
0
230
-1
40
0.443753
41
1.59870446338035
42
1.89744825491384
0
ELLIPSE
5
A1
100
AcDbEntity
8
1
62
256
6
ByLayer
370
18
48
1
60
0
100
AcDbEllipse
10
57.024812
20
0.029921
30
0
11
0.135658546095282
21
-0.40120080638994
31
0
210
0
220
0
230
-1
40
0.065863
41
1.6385768104868
42
2.32292776271888
0
ELLIPSE
5
A2
100
AcDbEntity
8
1
62
256
6
ByLayer
370
18
48
1
60
0
100
AcDbEllipse
10
57.000432
20
0.001114
30
0
11
1.87007993058773
21
5.09871014811022
31
0
210
0
220
0
230
-1
40
0.082138
41
2.88888898901121
42
2.98422953209333
0
ELLIPSE
5
A3
100
AcDbEntity
8
1
62
256
6
ByLayer
370
13
48
1
60
0
100
AcDbEllipse
10
55.557236
20
0.75655
30
0
11
0.133113781883896
21
0.268850741253519
31
0
210
0
220
0
230
1
40
0.40558
41
0.884485917130959
42
2.28074931872635
0
ELLIPSE
5
A4
100
AcDbEntity
8
1
62
256
6
ByLayer
370
18
48
1
60
0
100
AcDbEllipse
10
56.860459
20
0.111296
30
0
11
0.0868803724518393
21
0.290676908867345
31
0
210
0
220
0
230
-1
40
0.467765
41
1.64862472481925
42
2.36053717392674
0
ELLIPSE
5
A5
100
AcDbEntity
8
1
62
256
6
ByLayer
370
18
48
1
60
0
100
AcDbEllipse
10
56.038739
20
2.483305
30
0
11
0.785275988719795
21
-2.1410286266152
31
0
210
0
220
0
230
-1
40
0.082138
41
-1.55010051237289
42
-0.755280950346255
0
ELLIPSE
5
A6
100
AcDbEntity
8
1
62
256
6
ByLayer
370
18
48
1
60
0
100
AcDbEllipse
10
57.024812
20
-0.029921
30
0
11
0.135658546099914
21
0.40120080640066
31
0
210
0
220
0
230
-1
40
0.065863
41
-2.32292776275166
42
-1.63857681052729
0
ELLIPSE
5
A7
100
AcDbEntity
8
1
62
256
6
ByLayer
370
18
48
1
60
0
100
AcDbEllipse
10
56.038739
20
-2.483305
30
0
11
0.785275988715849
21
2.14102862660578
31
0
210
0
220
0
230
-1
40
0.082138
41
0.755280950345407
42
1.55010051237546
0
ELLIPSE
5
A8
100
AcDbEntity
8
1
62
256
6
ByLayer
370
18
48
1
60
0
100
AcDbEllipse
10
57.000432
20
-0.001114
30
0
11
1.87007996788892
21
-5.09871025550247
31
0
210
0
220
0
230
-1
40
0.082138
41
-2.98422953374308
42
-2.88888899168071
0
ELLIPSE
5
A9
100
AcDbEntity
8
1
62
256
6
ByLayer
370
13
48
1
60
0
100
AcDbEllipse
10
56.138489
20
2.349012
30
0
11
3.46233485612875
21
-1.77994938752184
31
0
210
0
220
0
230
-1
40
0.482873
41
1.53949524919915
42
1.830831549373
0
POINT
5
6C
100
AcDbEntity
8
81
62
256
6
ByLayer
370
18
48
1
60
0
100
AcDbPoint
10
57
20
0
30
0
39
0
210
0
220
0
230
1
50
360
0
POINT
5
6E
100
AcDbEntity
8
80
62
256
6
ByLayer
370
18
48
1
60
0
100
AcDbPoint
10
0
20
0
30
0
39
0
210
0
220
0
230
1
50
360
0
POINT
5
70
100
AcDbEntity
8
SK2
62
256
6
ByLayer
370
18
48
1
60
1
100
AcDbPoint
10
-45
20
-6
30
0
39
0
210
0
220
0
230
1
50
360
0
POINT
5
72
100
AcDbEntity
8
SK2
62
256
6
ByLayer
370
18
48
1
60
1
100
AcDbPoint
10
-45
20
6
30
0
39
0
210
0
220
0
230
1
50
360
0
POINT
5
73
100
AcDbEntity
8
2
62
256
6
ByLayer
370
18
48
1
60
1
100
AcDbPoint
10
55.25
20
-5.1
30
0
39
0
210
0
220
0
230
1
50
360
0
POINT
5
75
100
AcDbEntity
8
2
62
256
6
ByLayer
370
18
48
1
60
1
100
AcDbPoint
10
55.25
20
5.1
30
0
39
0
210
0
220
0
230
1
50
360
0
SPLINE
5
AA
100
AcDbEntity
8
1
62
256
6
ByLayer
370
18
48
1
60
0
100
AcDbSpline
70
4
71
1
72
4
73
2
40
0
40
0
40
1
40
1
41
1
10
39.0305042639803
20
9.81293950133E-05
30
0
41
1
10
39.0305205007257
20
0.0001067813626321
30
0
0
SPLINE
5
AB
100
AcDbEntity
8
1
62
256
6
ByLayer
370
18
48
1
60
0
100
AcDbSpline
70
4
71
3
72
32
73
28
40
0
40
0
40
0
40
0
40
0.0590062234547882
40
0.110051552008582
40
0.150256818474692
40
0.185426999099888
40
0.216166910444346
40
0.243691612410518
40
0.268383478467316
40
0.296091279518101
40
0.334767906420743
40
0.382344711548685
40
0.427023914093428
40
0.465326464795001
40
0.498281468765555
40
0.529099959512825
40
0.567850737558425
40
0.617819648132453
40
0.67156071061075
40
0.710774544385742
40
0.758384938606286
40
0.820836148801133
40
0.862241835503583
40
0.894625642226088
40
0.923118275664335
40
0.961269697511752
40
1
40
1
40
1
40
1
41
1
10
24.2642905421703
20
-4.85240584188915
30
0
41
1
10
24.5527706994138
20
-4.85264603800954
30
0
41
1
10
25.0908977961233
20
-4.85302242502397
30
0
41
1
10
25.8275883098028
20
-4.85305373873283
30
0
41
1
10
26.444942643979
20
-4.85340449246104
30
0
41
1
10
26.964406738057
20
-4.85335369420542
30
0
41
1
10
27.4220328977559
20
-4.85448543509088
30
0
41
1
10
27.8282671801115
20
-4.85523434125821
30
0
41
1
10
28.2196896797811
20
-4.85530765403684
30
0
41
1
10
28.6656744259381
20
-4.85530392220133
30
0
41
1
10
29.2237502359724
20
-4.85512640009199
30
0
41
1
10
29.8649604343838
20
-4.85443002720561
30
0
41
1
10
30.5043427734717
20
-4.85645046865738
30
0
41
1
10
31.0720972657004
20
-4.85747488300728
30
0
41
1
10
31.5719457743406
20
-4.85659152065324
30
0
41
1
10
32.0740293750456
20
-4.85612883143628
30
0
41
1
10
32.6594430040915
20
-4.85556955996879
30
0
41
1
10
33.3571119757796
20
-4.85620452117956
30
0
41
1
10
34.0570423082432
20
-4.85874554923484
30
0
41
1
10
34.7454321830438
20
-4.85831605984311
30
0
41
1
10
35.4764688973794
20
-4.85893524038605
30
0
41
1
10
36.2182439034164
20
-4.85761022728531
30
0
41
1
10
36.8854563168784
20
-4.8597903258308
30
0
41
1
10
37.3862376379121
20
-4.85991844392578
30
0
41
1
10
37.8710533777256
20
-4.85959972542855
30
0
41
1
10
38.3871621632829
20
-4.86068524180814
30
0
41
1
10
38.7636283929203
20
-4.86061389955267
30
0
41
1
10
38.9532793435475
20
-4.86053245350422
30
0
0
SPLINE
5
AC
100
AcDbEntity
8
1
62
256
6
ByLayer
370
18
48
1
60
0
100
AcDbSpline
70
4
71
3
72
17
73
13
40
0
40
0
40
0
40
0
40
0.0345626041205069
40
0.212542682745165
40
0.3456294657272
40
0.449303290457535
40
0.503036430248723
40
0.557405770013799
40
0.63874981275234
40
0.748058990172862
40
0.885631187312757
40
1
40
1
40
1
40
1
41
1
10
9.08384317841484
20
4.84394954448729
30
0
41
1
10
9.02821050397182
20
4.84388097540068
30
0
41
1
10
8.68608037629315
20
4.84351614290486
30
0
41
1
10
8.12827628985008
20
4.84344132373954
30
0
41
1
10
7.46130547471057
20
4.84445425782732
30
0
41
1
10
6.99365665682035
20
4.84296005712577
30
0
41
1
10
6.65235946125102
20
4.8426634706546
30
0
41
1
10
6.34702822325872
20
4.84262160522511
30
0
41
1
10
5.95213250077373
20
4.84238148126698
30
0
41
1
10
5.4231379537635
20
4.84206787530664
30
0
41
1
10
4.84091570043392
20
4.84194813064505
30
0
41
1
10
4.43486701129899
20
4.8411420177874
30
0
41
1
10
4.25054096373898
20
4.8406914439158
30
0
0
SPLINE
5
AD
100
AcDbEntity
8
1
62
256
6
ByLayer
370
18
48
1
60
0
100
AcDbSpline
70
4
71
2
72
6
73
3
40
0
40
0
40
0
40
1
40
1
40
1
41
1
10
54.2244493020289
20
-4.87049396984673
30
0
41
1
10
54.7246619096084
20
-4.86931692749016
30
0
41
1
10
55.2243052041716
20
-4.87219368805921
30
0
0
SPLINE
5
AE
100
AcDbEntity
8
1
62
256
6
ByLayer
370
18
48
1
60
0
100
AcDbSpline
70
4
71
3
72
11
73
7
40
0
40
0
40
0
40
0
40
0.20819695125467
40
0.400230931797688
40
0.618575907756498
40
1
40
1
40
1
40
1
41
1
10
40.8186305411235
20
-1.39880057292913
30
0
41
1
10
40.8191621399163
20
-1.39925027186018
30
0
41
1
10
40.835176890326
20
-1.40637783989828
30
0
41
1
10
40.8997721390779
20
-1.43549184286596
30
0
41
1
10
41.0569118186415
20
-1.50838174200254
30
0
41
1
10
41.1715837904333
20
-1.56568596438279
30
0
41
1
10
41.2521146517275
20
-1.6070056604415
30
0
0
SPLINE
5
AF
100
AcDbEntity
8
1
62
256
6
ByLayer
370
18
48
1
60
0
100
AcDbSpline
70
4
71
3
72
24
73
20
40
0
40
0
40
0
40
0
40
0.0318156656365393
40
0.133269123549688
40
0.218675305882602
40
0.290762845615879
40
0.372033511250164
40
0.472735210427696
40
0.553804037613497
40
0.623418113738917
40
0.686397935579665
40
0.736577184895263
40
0.776786459333064
40
0.811266261105929
40
0.843131748063711
40
0.887871186114498
40
0.945240548459114
40
0.993089025368689
40
1
40
1
40
1
40
1
41
1
10
39.119788224431
20
4.85945512391675
30
0
41
1
10
38.9904726761082
20
4.85909286186632
30
0
41
1
10
38.4484421783494
20
4.85776382381499
30
0
41
1
10
37.5550375995253
20
4.86081532846475
30
0
41
1
10
36.4964792750749
20
4.85799138166976
30
0
41
1
10
35.5186705220336
20
4.85867594955405
30
0
41
1
10
34.4785499980194
20
4.85880579474002
30
0
41
1
10
33.4015665784845
20
4.85623579221507
30
0
41
1
10
32.3723365676216
20
4.85560038647213
30
0
41
1
10
31.4975523961603
20
4.85676204519243
30
0
41
1
10
30.7492238904443
20
4.85760436733804
30
0
41
1
10
30.1212979699271
20
4.85481994090529
30
0
41
1
10
29.6100540829788
20
4.85491415804577
30
0
41
1
10
29.1737851717738
20
4.85509430809583
30
0
41
1
10
28.7189977317341
20
4.85529137045194
30
0
41
1
10
28.1704822941414
20
4.85534319138708
30
0
41
1
10
27.5565174398912
20
4.85494858022332
30
0
41
1
10
27.097415505942
20
4.85364787946088
30
0
41
1
10
26.8732487043481
20
4.85344868463147
30
0
41
1
10
26.8449595950583
20
4.85342812568851
30
0
0
SPLINE
5
B0
100
AcDbEntity
8
1
62
256
6
ByLayer
370
18
48
1
60
0
100
AcDbSpline
70
4
71
3
72
17
73
13
40
0
40
0
40
0
40
0
40
0.114324876255559
40
0.251844223043921
40
0.361111407754629
40
0.442424200988244
40
0.496772653965018
40
0.550485151381628
40
0.654119148323658
40
0.787154804130277
40
0.96506650913
40
1
40
1
40
1
40
1
41
1
10
4.25054096373901
20
-4.84069144391586
30
0
41
1
10
4.43486701129478
20
-4.84114201778752
30
0
41
1
10
4.84091570039382
20
-4.84194813065491
30
0
41
1
10
5.42313795378018
20
-4.84206787526918
30
0
41
1
10
5.95213250046356
20
-4.84238148136347
30
0
41
1
10
6.3470282235011
20
-4.84262160500001
30
0
41
1
10
6.65235945989352
20
-4.84266347119322
30
0
41
1
10
6.99365666202843
20
-4.84296005432685
30
0
41
1
10
7.46130542589762
20
-4.84445428230484
30
0
41
1
10
8.12827655710856
20
-4.84344118876484
30
0
41
1
10
8.68669972267389
20
-4.84351667342378
30
0
41
1
10
9.02944811083057
20
-4.84388211669778
30
0
41
1
10
9.08569929094804
20
-4.84395153253655
30
0
0
SPLINE
5
B1
100
AcDbEntity
8
1
62
256
6
ByLayer
370
18
48
1
60
0
100
AcDbSpline
70
4
71
3
72
10
73
6
40
0
40
0
40
0
40
0
40
0.719189574470569
40
0.719189574470569
40
1
40
1
40
1
40
1
41
1
10
16.8817304161971
20
4.00009181847253
30
0
41
1
10
16.6843581178176
20
3.89841373171541
30
0
41
1
10
16.4871045020205
20
3.79556677069579
30
0
41
1
10
16.2127430396349
20
3.65123120310639
30
0
41
1
10
16.1356907096858
20
3.61055176596307
30
0
41
1
10
16.0586068063412
20
3.56975990098337
30
0
0
SPLINE
5
B2
100
AcDbEntity
8
1
62
256
6
ByLayer
370
18
48
1
60
0
100
AcDbSpline
70
4
71
3
72
14
73
10
40
0
40
0
40
0
40
0
40
0.25
40
0.25
40
0.5
40
0.5
40
0.75
40
0.75
40
1
40
1
40
1
40
1
41
1
10
54.4176777603897
20
1.1910016166616
30
0
41
1
10
54.4069177866666
20
1.22014158229575
30
0
41
1
10
54.3996627146745
20
1.25024910621738
30
0
41
1
10
54.3954196554391
20
1.31332973470964
30
0
41
1
10
54.3983142175566
20
1.34656073797788
30
0
41
1
10
54.4231877001801
20
1.4054678571479
30
0
41
1
10
54.4460227569563
20
1.43083725118274
30
0
41
1
10
54.5007857029197
20
1.46544470194877
30
0
41
1
10
54.532101641055
20
1.47570314155465
30
0
41
1
10
54.5640359215652
20
1.4815526391686
30
0
0
SPLINE
5
B3
100
AcDbEntity
8
1
62
256
6
ByLayer
370
18
48
1
60
0
100
AcDbSpline
70
4
71
3
72
14
73
10
40
0
40
0
40
0
40
0
40
0.25
40
0.25
40
0.5
40
0.5
40
0.75
40
0.75
40
1
40
1
40
1
40
1
41
1
10
4.25084906846709
20
-4.00994088552463
30
0
41
1
10
4.22358200702513
20
-3.99808168089797
30
0
41
1
10
4.19434818690681
20
-3.99112393840289
30
0
41
1
10
4.1347908014362
20
-3.99440662469348
30
0
41
1
10
4.10478454897867
20
-4.00532858393214
30
0
41
1
10
4.05426906443915
20
-4.04715965334759
30
0
41
1
10
4.03535170155783
20
-4.07628964503269
30
0
41
1
10
4.01003727128295
20
-4.13943770077537
30
0
41
1
10
4.00331624899931
20
-4.17351778434883
30
0
41
1
10
4.00096758457499
20
-4.20739490290393
30
0
0
SPLINE
5
B4
100
AcDbEntity
8
1
62
256
6
ByLayer
370
18
48
1
60
0
100
AcDbSpline
70
4
71
3
72
22
73
18
40
0
40
0
40
0
40
0
40
0.249999999999993
40
0.249999999999993
40
0.499999999999986
40
0.499999999999986
40
0.624999999999982
40
0.624999999999982
40
0.749999999999978
40
0.749999999999978
40
0.812499999999984
40
0.812499999999984
40
0.874999999999989
40
0.874999999999989
40
0.937499999999995
40
0.937499999999995
40
1
40
1
40
1
40
1
41
1
10
54.5640359215652
20
1.48155263916848
30
0
41
1
10
54.7381168185349
20
1.51343955740143
30
0
41
1
10
54.910762655781
20
1.54987677103784
30
0
41
1
10
55.2514213343775
20
1.6379638438184
30
0
41
1
10
55.4195714691373
20
1.68911478465949
30
0
41
1
10
55.6647730748707
20
1.7897079083921
30
0
41
1
10
55.7457525555248
20
1.82757018114452
30
0
41
1
10
55.8998615566018
20
1.91561415474501
30
0
41
1
10
55.9739364822012
20
1.96626394705035
30
0
41
1
10
56.0709323216385
20
2.05630756508188
30
0
41
1
10
56.1009798210321
20
2.08873031511709
30
0
41
1
10
56.1546230094215
20
2.16044134118022
30
0
41
1
10
56.1774493965264
20
2.19883856044098
30
0
41
1
10
56.2126663753382
20
2.28085377312976
30
0
41
1
10
56.2249457053836
20
2.32481607260664
30
0
41
1
10
56.2367621830447
20
2.41319451276738
30
0
41
1
10
56.2365046282727
20
2.45888296929871
30
0
41
1
10
56.2308124264262
20
2.50348490563138
30
0
0
SPLINE
5
B5
100
AcDbEntity
8
1
62
256
6
ByLayer
370
18
48
1
60
0
100
AcDbSpline
70
4
71
3
72
22
73
18
40
0
40
0
40
0
40
0
40
0.189791520190394
40
0.189791520190394
40
0.379583040380788
40
0.379583040380788
40
0.569374560571181
40
0.569374560571181
40
0.664270320666381
40
0.664270320666381
40
0.75916608076158
40
0.75916608076158
40
0.85406184085678
40
0.85406184085678
40
0.948957600951979
40
0.948957600951979
40
1
40
1
40
1
40
1
41
1
10
16.8817304159957
20
-4.00009181836876
30
0
41
1
10
17.2823427317179
20
-4.13254787402158
30
0
41
1
10
17.6831304696921
20
-4.2526718734068
30
0
41
1
10
18.4834948363555
20
-4.47069419910025
30
0
41
1
10
18.8824139650318
20
-4.56899620955616
30
0
41
1
10
19.6827394236456
20
-4.73974048640576
30
0
41
1
10
20.0843699758935
20
-4.81271566691689
30
0
41
1
10
20.6853032279165
20
-4.90349489381828
30
0
41
1
10
20.8851699305907
20
-4.93058339830839
30
0
41
1
10
21.2852730475943
20
-4.9778807929633
30
0
41
1
10
21.4853816424831
20
-4.99817205499835
30
0
41
1
10
21.8855067745886
20
-5.03219152608835
30
0
41
1
10
22.0855311283134
20
-5.04591681191815
30
0
41
1
10
22.4853240016381
20
-5.06677860795782
30
0
41
1
10
22.6849772594495
20
-5.07391052500427
30
0
41
1
10
22.9925099718868
20
-5.07965460573385
30
0
41
1
10
23.1002234845143
20
-5.08069041786206
30
0
41
1
10
23.2080203916717
20
-5.08075461762868
30
0
0
SPLINE
5
B6
100
AcDbEntity
8
1
62
256
6
ByLayer
370
18
48
1
60
0
100
AcDbSpline
70
4
71
3
72
28
73
24
40
0
40
0
40
0
40
0
40
0.0517134830535373
40
0.0517134830535373
40
0.114932584183299
40
0.114932584183299
40
0.178151685313061
40
0.178151685313061
40
0.241370786442823
40
0.241370786442823
40
0.36780898870235
40
0.36780898870235
40
0.431028089832114
40
0.431028089832114
40
0.494247190961878
40
0.494247190961878
40
0.620685393221408
40
0.620685393221408
40
0.747123595480939
40
0.747123595480939
40
0.87356179774047
40
0.87356179774047
40
1
40
1
40
1
40
1
41
1
10
45.8022513432999
20
3.64820330060263
30
0
41
1
10
45.9655166921514
20
3.70941414327146
30
0
41
1
10
46.128789729092
20
3.76903435694984
30
0
41
1
10
46.4922529056942
20
3.89729118824684
30
0
41
1
10
46.6924210724744
20
3.96518912091702
30
0
41
1
10
47.0930792146772
20
4.09589134127089
30
0
41
1
10
47.2937332166066
20
4.15874070114899
30
0
41
1
10
47.6941183619171
20
4.27913406442553
30
0
41
1
10
47.893829804083
20
4.33673270095338
30
0
41
1
10
48.4934837361419
20
4.4998112895484
30
0
41
1
10
48.8935174052691
20
4.5961672820406
30
0
41
1
10
49.4928500856048
20
4.72318733372927
30
0
41
1
10
49.6923903977292
20
4.76265568538543
30
0
41
1
10
50.0920072294385
20
4.83508398350929
30
0
41
1
10
50.2922096760284
20
4.86798680225337
30
0
41
1
10
50.8935891467799
20
4.95709137605874
30
0
41
1
10
51.2943071322949
20
5.00362284763128
30
0
41
1
10
52.093182742331
20
5.07023266270576
30
0
41
1
10
52.4932722986346
20
5.08996295999168
30
0
41
1
10
53.2937610402762
20
5.10284955190048
30
0
41
1
10
53.6940378055364
20
5.09575409044879
30
0
41
1
10
54.4948082416424
20
5.05479325534918
30
0
41
1
10
54.8950521521048
20
5.02115848887115
30
0
41
1
10
55.2944552800668
20
4.97406592463958
30
0
0
SPLINE
5
B7
100
AcDbEntity
8
1
62
256
6
ByLayer
370
18
48
1
60
0
100
AcDbSpline
70
4
71
3
72
8
73
4
40
0
40
0
40
0
40
0
40
1
40
1
40
1
40
1
41
1
10
4.00240606534203
20
2.67416498569375
30
0
41
1
10
4.00141270968243
20
2.68020726027686
30
0
41
1
10
4.0009082319678
20
2.6863147353981
30
0
41
1
10
4.00090831098936
20
2.69239984926662
30
0
0
SPLINE
5
B8
100
AcDbEntity
8
1
62
256
6
ByLayer
370
13
48
1
60
0
100
AcDbSpline
70
4
71
3
72
23
73
19
40
0
40
0
40
0
40
0
40
0.196603797785818
40
0.196603797785818
40
0.294905696678727
40
0.294905696678727
40
0.393207595571636
40
0.491509494464545
40
0.491509494464545
40
0.589811393357454
40
0.589811393357454
40
0.786415191143272
40
0.786415191143272
40
0.88471709003618
40
0.88471709003618
40
0.983018988929089
40
0.983018988929089
40
1
40
1
40
1
40
1
41
1
10
4.25026818859357
20
2.44470985471932
30
0
41
1
10
4.25030557706449
20
2.73189737597181
30
0
41
1
10
4.2503329146347
20
2.99863313050147
30
0
41
1
10
4.25036508984059
20
3.36824638645069
30
0
41
1
10
4.25037427229819
20
3.48564059287884
30
0
41
1
10
4.25039045191488
20
3.7060420810667
30
0
41
1
10
4.2504045297382
20
3.91304113833024
30
0
41
1
10
4.25041650674385
20
4.09351967706598
30
0
41
1
10
4.25042839533074
20
4.26046372819548
30
0
41
1
10
4.25043432474752
20
4.33739606482459
30
0
41
1
10
4.25045293343678
20
4.54262918590507
30
0
41
1
10
4.2504666060949
20
4.64739252544518
30
0
41
1
10
4.25049288501933
20
4.75688587203865
30
0
41
1
10
4.25050263052282
20
4.78544716636449
30
0
41
1
10
4.25052427848297
20
4.8255378262227
30
0
41
1
10
4.25053612956572
20
4.83705579216328
30
0
41
1
10
4.25055132401525
20
4.8405962481695
30
0
41
1
10
4.25055359618278
20
4.84086116944752
30
0
41
1
10
4.25055590082388
20
4.84087075198815
30
0
0
SPLINE
5
B9
100
AcDbEntity
8
1
62
256
6
ByLayer
370
18
48
1
60
0
100
AcDbSpline
70
4
71
3
72
18
73
14
40
0
40
0
40
0
40
0
40
0.218082902507343
40
0.218082902507343
40
0.36249153235165
40
0.36249153235165
40
0.506900162195958
40
0.506900162195958
40
0.651308792040265
40
0.651308792040265
40
0.795717421884573
40
0.795717421884573
40
1
40
1
40
1
40
1
41
1
10
13.234557056881
20
-2.66401412190797
30
0
41
1
10
13.0004702657757
20
-2.84377589191257
30
0
41
1
10
12.7663554300134
20
-3.02663175174354
30
0
41
1
10
12.3722237208083
20
-3.32919074163962
30
0
41
1
10
12.2134585182897
20
-3.44959850843819
30
0
41
1
10
11.8964247194184
20
-3.683067933975
30
0
41
1
10
11.7375666965289
20
-3.79658278631479
30
0
41
1
10
11.4173910031426
20
-4.01473230235754
30
0
41
1
10
11.2560691183146
20
-4.1193597839592
30
0
41
1
10
10.9293357335341
20
-4.31759366570614
30
0
41
1
10
10.7636599097374
20
-4.41132626440097
30
0
41
1
10
10.3583747463119
20
-4.6217429987683
30
0
41
1
10
10.1207212483043
20
-4.7295163964682
30
0
41
1
10
9.88183008786251
20
-4.82312395756347
30
0
0
SPLINE
5
BA
100
AcDbEntity
8
1
62
256
6
ByLayer
370
18
48
1
60
0
100
AcDbSpline
70
4
71
3
72
90
73
86
40
0
40
0
40
0
40
0
40
0.0330808172351886
40
0.0330808172351886
40
0.0661616344703772
40
0.0661616344703772
40
0.0992424517055658
40
0.0992424517055658
40
0.115782860323161
40
0.115782860323161
40
0.132323268940755
40
0.132323268940755
40
0.14886367755835
40
0.14886367755835
40
0.165404086175945
40
0.165404086175945
40
0.198484903411134
40
0.198484903411134
40
0.231565720646324
40
0.231565720646324
40
0.264646537881513
40
0.264646537881513
40
0.297727355116703
40
0.297727355116703
40
0.314267763734297
40
0.314267763734297
40
0.330808172351892
40
0.330808172351892
40
0.363888989587082
40
0.363888989587082
40
0.380429398204678
40
0.380429398204678
40
0.396969806822273
40
0.396969806822273
40
0.413510215439868
40
0.413510215439868
40
0.430050624057463
40
0.430050624057463
40
0.463131441292654
40
0.463131441292654
40
0.496212258527846
40
0.496212258527846
40
0.529293075763037
40
0.529293075763037
40
0.545833484380633
40
0.545833484380633
40
0.562373892998228
40
0.562373892998228
40
0.578914301615824
40
0.578914301615824
40
0.59545471023342
40
0.59545471023342
40
0.62853552746861
40
0.62853552746861
40
0.645075936086205
40
0.645075936086205
40
0.6616163447038
40
0.6616163447038
40
0.69469716193899
40
0.69469716193899
40
0.727777979174179
40
0.727777979174179
40
0.760858796409369
40
0.760858796409369
40
0.793939613644558
40
0.793939613644558
40
0.810480022262153
40
0.810480022262153
40
0.827020430879749
40
0.827020430879749
40
0.843560839497344
40
0.843560839497344
40
0.860101248114939
40
0.860101248114939
40
0.893182065350129
40
0.893182065350129
40
0.909722473967724
40
0.909722473967724
40
0.926262882585319
40
0.926262882585319
40
0.959343699820509
40
0.959343699820509
40
0.992424517055698
40
0.992424517055698
40
1
40
1
40
1
40
1
41
1
10
16.8817304159957
20
4.00009181836873
30
0
41
1
10
17.2823427317181
20
4.13254787402164
30
0
41
1
10
17.6831304696924
20
4.25267187340685
30
0
41
1
10
18.483494836356
20
4.47069419910039
30
0
41
1
10
18.8824139650324
20
4.5689962095563
30
0
41
1
10
19.6827394236464
20
4.73974048640594
30
0
41
1
10
20.0843699758945
20
4.81271566691706
30
0
41
1
10
20.6853032279177
20
4.90349489381845
30
0
41
1
10
20.885169930592
20
4.93058339830853
30
0
41
1
10
21.2852730475958
20
4.97788079296345
30
0
41
1
10
21.4853816424846
20
4.99817205499849
30
0
41
1
10
21.8855067745901
20
5.03219152608847
30
0
41
1
10
22.0855311283151
20
5.04591681191823
30
0
41
1
10
22.4853240016399
20
5.0667786079579
30
0
41
1
10
22.6849772594513
20
5.07391052500432
30
0
41
1
10
23.2848933610155
20
5.08511572815505
30
0
41
1
10
23.6869504874113
20
5.07913054619178
30
0
41
1
10
24.4881512580626
20
5.04041287547037
30
0
41
1
10
24.8871937892765
20
5.00743091750218
30
0
41
1
10
25.6871737634865
20
4.91592839986581
30
0
41
1
10
26.08731749053
20
4.85730246030658
30
0
41
1
10
26.8872642972304
20
4.71337012137769
30
0
41
1
10
27.2889732918466
20
4.62891068467709
30
0
41
1
10
27.8897099831566
20
4.48469271922971
30
0
41
1
10
28.0897419188135
20
4.43362191927028
30
0
41
1
10
28.4892214719258
20
4.32526970452281
30
0
41
1
10
28.6887808408828
20
4.26807601673028
30
0
41
1
10
29.2884432875486
20
4.08906805520266
30
0
41
1
10
29.6889190093374
20
3.95932601788314
30
0
41
1
10
30.2896485811137
20
3.74770441701736
30
0
41
1
10
30.4899449664017
20
3.67413903294306
30
0
41
1
10
30.8904545370164
20
3.52318477994041
30
0
41
1
10
31.0907156235601
20
3.44568126090886
30
0
41
1
10
31.4910108374519
20
3.28635467182394
30
0
41
1
10
31.6910578368779
20
3.20454898724913
30
0
41
1
10
32.090774323612
20
3.03637381719852
30
0
41
1
10
32.2903237062239
20
2.94981217402642
30
0
41
1
10
32.8894640034935
20
2.68480970515265
30
0
41
1
10
33.2900981381644
20
2.50201746267592
30
0
41
1
10
34.0922088064437
20
2.12167382298745
30
0
41
1
10
34.4918233509094
20
1.9240224861679
30
0
41
1
10
35.2918596043919
20
1.52354270799285
30
0
41
1
10
35.6918441353847
20
1.31947450635084
30
0
41
1
10
36.291000341564
20
1.00614136121189
30
0
41
1
10
36.4908073208418
20
0.900896744924239
30
0
41
1
10
36.8912932804237
20
0.690118144107032
30
0
41
1
10
37.0919900931279
20
0.58425801752108
30
0
41
1
10
37.493050907829
20
0.371862434576343
30
0
41
1
10
37.6933142649399
20
0.265383281121274
30
0
41
1
10
38.0931126593036
20
0.0514982609250012
30
0
41
1
10
38.2926739789128
20
-0.0558560639520351
30
0
41
1
10
38.8921498273935
20
-0.375753708951208
30
0
41
1
10
39.2922717876982
20
-0.587244860158336
30
0
41
1
10
39.8920966914405
20
-0.903812448617003
30
0
41
1
10
40.0918679195092
20
-1.00942701788662
30
0
41
1
10
40.4922694588696
20
-1.2186004780234
30
0
41
1
10
40.6929705606582
20
-1.32213357407627
30
0
41
1
10
41.2940533256482
20
-1.6293283656907
30
0
41
1
10
41.6937922893146
20
-1.83040629210791
30
0
41
1
10
42.4921979304878
20
-2.22340674960338
30
0
41
1
10
42.8922967495997
20
-2.41289154634592
30
0
41
1
10
43.6929234874909
20
-2.78023206551094
30
0
41
1
10
44.0933989527989
20
-2.95905671626025
30
0
41
1
10
44.8940002073395
20
-3.29620837775605
30
0
41
1
10
45.2940733379144
20
-3.45576392157994
30
0
41
1
10
45.8928773406527
20
-3.68278998264583
30
0
41
1
10
46.0924043252189
20
-3.75619488129831
30
0
41
1
10
46.4922529057035
20
-3.89729118825008
30
0
41
1
10
46.6924210724839
20
-3.96518912092017
30
0
41
1
10
47.0930792146868
20
-4.09589134127393
30
0
41
1
10
47.2937332166163
20
-4.15874070115197
30
0
41
1
10
47.6941183619269
20
-4.27913406442838
30
0
41
1
10
47.8938298040928
20
-4.33673270095616
30
0
41
1
10
48.4934837361519
20
-4.49981128955091
30
0
41
1
10
48.8935174052792
20
-4.59616728204296
30
0
41
1
10
49.4928500856152
20
-4.72318733373135
30
0
41
1
10
49.6923903977396
20
-4.76265568538741
30
0
41
1
10
50.0920072294491
20
-4.83508398351105
30
0
41
1
10
50.292209676039
20
-4.86798680225505
30
0
41
1
10
50.8935891467908
20
-4.95709137606011
30
0
41
1
10
51.2943071323059
20
-5.00362284763244
30
0
41
1
10
52.0931827423422
20
-5.07023266270645
30
0
41
1
10
52.4932722986458
20
-5.08996295999211
30
0
41
1
10
52.9851723375583
20
-5.09788176600574
30
0
41
1
10
53.0768297044359
20
-5.09864729462464
30
0
41
1
10
53.1684896834745
20
-5.0987046887835
30
0
0
SPLINE
5
BB
100
AcDbEntity
8
1
62
256
6
ByLayer
370
18
48
1
60
0
100
AcDbSpline
70
4
71
3
72
18
73
14
40
0
40
0
40
0
40
0
40
0.0386882705522284
40
0.0386882705522284
40
0.145857913415744
40
0.145857913415744
40
0.253027556279259
40
0.253027556279259
40
0.467366842006289
40
0.467366842006289
40
0.896045413460354
40
0.896045413460354
40
1
40
1
40
1
40
1
41
1
10
39.0558640711741
20
-0.0133074127796533
30
0
41
1
10
39.1516987940293
20
-0.0631731489684455
30
0
41
1
10
39.2475932097348
20
-0.11306930959276
30
0
41
1
10
39.6093824388977
20
-0.301229984494512
30
0
41
1
10
39.8757563951042
20
-0.439536331183206
30
0
41
1
10
40.4099019757125
20
-0.715680567598838
30
0
41
1
10
40.6782820483802
20
-0.853801175772389
30
0
41
1
10
41.4811097101777
20
-1.26330770904769
30
0
41
1
10
42.0128715204026
20
-1.52988238648658
30
0
41
1
10
43.6025216148755
20
-2.30213532655506
30
0
41
1
10
44.6547838580409
20
-2.78021994515939
30
0
41
1
10
45.9679723872528
20
-3.30346820913147
30
0
41
1
10
46.2245471183658
20
-3.40223778847982
30
0
41
1
10
46.4815757456773
20
-3.49736386242566
30
0
0
SPLINE
5
BC
100
AcDbEntity
8
1
62
256
6
ByLayer
370
13
48
1
60
0
100
AcDbSpline
70
4
71
3
72
18
73
14
40
0
40
0
40
0
40
0
40
0.0933816609932069
40
0.0933816609932069
40
0.184043494893887
40
0.184043494893887
40
0.274705328794566
40
0.274705328794566
40
0.637352664397281
40
0.637352664397281
40
0.81867633219864
40
0.81867633219864
40
1
40
1
40
1
40
1
41
1
10
46.4815757460259
20
-3.49736386255461
30
0
41
1
10
46.7545028831607
20
-3.59837396131104
30
0
41
1
10
47.0279418046335
20
-3.69527587628738
30
0
41
1
10
47.5682784707303
20
-3.87747595311734
30
0
41
1
10
47.8351320571188
20
-3.9630373122441
30
0
41
1
10
48.3705697673452
20
-4.12520334618355
30
0
41
1
10
48.6386366958948
20
-4.20161487607729
30
0
41
1
10
49.9727213518762
20
-4.55668896162607
30
0
41
1
10
51.0284078985182
20
-4.75711553084562
30
0
41
1
10
52.6129259034145
20
-4.92328456868029
30
0
41
1
10
53.1413001034671
20
-4.95630938307269
30
0
41
1
10
54.2013731525654
20
-4.97636743779273
30
0
41
1
10
54.7331611345816
20
-4.96282898193547
30
0
41
1
10
55.2679497730863
20
-4.92668677961663
30
0
0
SPLINE
5
BD
100
AcDbEntity
8
1
62
256
6
ByLayer
370
18
48
1
60
0
100
AcDbSpline
70
4
71
3
72
10
73
6
40
0
40
0
40
0
40
0
40
0.86951939687331
40
0.86951939687331
40
1
40
1
40
1
40
1
41
1
10
54.2212114728392
20
-4.87045282366444
30
0
41
1
10
52.4515075141113
20
-4.86922777082566
30
0
41
1
10
50.7052299193007
20
-4.61531340350865
30
0
41
1
10
48.6612746754082
20
-4.06400717906774
30
0
41
1
10
48.3933383914567
20
-3.98683495104703
30
0
41
1
10
48.1258646646777
20
-3.90520561373404
30
0
0
SPLINE
5
BE
100
AcDbEntity
8
1
62
256
6
ByLayer
370
13
48
1
60
0
100
AcDbSpline
70
4
71
3
72
22
73
18
40
0
40
0
40
0
40
0
40
0.0607533433198918
40
0.0607533433198918
40
0.182260029959673
40
0.182260029959673
40
0.425273403239235
40
0.425273403239235
40
0.546780089879018
40
0.546780089879018
40
0.60753343319891
40
0.60753343319891
40
0.668286776518803
40
0.668286776518803
40
0.911300149798367
40
0.911300149798367
40
1
40
1
40
1
40
1
41
1
10
48.1258646646776
20
-3.90520561373407
30
0
41
1
10
47.8583909378985
20
-3.82357627642111
30
0
41
1
10
47.5917420827381
20
-3.7376381230203
30
0
41
1
10
46.7937550195811
20
-3.46772426856393
30
0
41
1
10
46.2643928917296
20
-3.27161576848704
30
0
41
1
10
44.6796894607141
20
-2.64236124201133
30
0
41
1
10
43.6275760852955
20
-2.16844850718411
30
0
41
1
10
42.0384374914169
20
-1.40615207365127
30
0
41
1
10
41.5068818007545
20
-1.14352796081545
30
0
41
1
10
40.7045099584383
20
-0.740878362820382
30
0
41
1
10
40.4364010620698
20
-0.605242041016993
30
0
41
1
10
39.9026756709872
20
-0.334258381063336
30
0
41
1
10
39.6364801278589
20
-0.198647303794388
30
0
41
1
10
38.3081593237637
20
0.478700583325747
30
0
41
1
10
37.2535882050555
20
1.01737039862408
30
0
41
1
10
35.8087681620449
20
1.71611932573202
30
0
41
1
10
35.4219324296392
20
1.8994637529122
30
0
41
1
10
35.0340015726913
20
2.07812593527319
30
0
0
SPLINE
5
BF
100
AcDbEntity
8
1
62
256
6
ByLayer
370
18
48
1
60
0
100
AcDbSpline
70
4
71
3
72
8
73
4
40
0
40
0
40
0
40
0
40
1
40
1
40
1
40
1
41
1
10
9.0816381793922
20
4.84375716311754
30
0
41
1
10
9.34743724640413
20
4.84249869288473
30
0
41
1
10
9.614327382277
20
4.83538348148508
30
0
41
1
10
9.88185713980272
20
4.82312800265902
30
0
0
SPLINE
5
C0
100
AcDbEntity
8
1
62
256
6
ByLayer
370
18
48
1
60
0
100
AcDbSpline
70
4
71
3
72
18
73
14
40
0
40
0
40
0
40
0
40
0.249999999999997
40
0.249999999999997
40
0.499999999999995
40
0.499999999999995
40
0.624999999999996
40
0.624999999999996
40
0.749999999999997
40
0.749999999999997
40
0.874999999999999
40
0.874999999999999
40
1
40
1
40
1
40
1
41
1
10
56.2308124264264
20
2.50348490563144
30
0
41
1
10
56.1534099098498
20
2.7121818230286
30
0
41
1
10
56.0758368455779
20
2.92076155149957
30
0
41
1
10
55.9202780866025
20
3.33632289924012
30
0
41
1
10
55.8423099287978
20
3.54347309564128
30
0
41
1
10
55.725168167533
20
3.8535654204955
30
0
41
1
10
55.6860532461683
20
3.95682348288372
30
0
41
1
10
55.607801853354
20
4.16244835822346
30
0
41
1
10
55.5686607670332
20
4.26476967845272
30
0
41
1
10
55.4903643033274
20
4.46895626755401
30
0
41
1
10
55.4512096506048
20
4.57084466159952
30
0
41
1
10
55.3728655228435
20
4.77351021233775
30
0
41
1
10
55.333669708448
20
4.87408506973227
30
0
41
1
10
55.2944552800791
20
4.97406592463776
30
0
0
SPLINE
5
C1
100
AcDbEntity
8
1
62
256
6
ByLayer
370
18
48
1
60
0
100
AcDbSpline
70
4
71
3
72
52
73
48
40
0
40
0
40
0
40
0
40
0.0512149422575915
40
0.0512149422575915
40
0.102429884515183
40
0.102429884515183
40
0.153644826772775
40
0.153644826772775
40
0.17925229790157
40
0.17925229790157
40
0.204859769030366
40
0.204859769030366
40
0.256074711287958
40
0.256074711287958
40
0.281682182416753
40
0.281682182416753
40
0.307289653545549
40
0.307289653545549
40
0.35850459580314
40
0.35850459580314
40
0.40971953806073
40
0.40971953806073
40
0.460934480318321
40
0.460934480318321
40
0.512149422575911
40
0.512149422575911
40
0.563364364833502
40
0.563364364833502
40
0.588971835962297
40
0.588971835962297
40
0.614579307091092
40
0.614579307091092
40
0.665794249348682
40
0.665794249348682
40
0.691401720477478
40
0.691401720477478
40
0.717009191606273
40
0.717009191606273
40
0.768224133863864
40
0.768224133863864
40
0.79383160499266
40
0.79383160499266
40
0.819439076121455
40
0.819439076121455
40
0.921868960636639
40
0.921868960636639
40
1
40
1
40
1
40
1
41
1
10
55.2190908358395
20
-5.05866849805508
30
0
41
1
10
54.6864967044985
20
-5.09458489127883
30
0
41
1
10
54.1544341323074
20
-5.10666234701864
30
0
41
1
10
53.0883563615174
20
-5.08303654686068
30
0
41
1
10
52.5560139341609
20
-5.04731307852509
30
0
41
1
10
51.493045889442
20
-4.92942900406632
30
0
41
1
10
50.9618674428089
20
-4.84724711355193
30
0
41
1
10
50.162963421446
20
-4.69032869522329
30
0
41
1
10
49.8961349309328
20
-4.63236136545103
30
0
41
1
10
49.363642415615
20
-4.50596815810778
30
0
41
1
10
49.097728077551
20
-4.43749978334659
30
0
41
1
10
48.3003640542898
20
-4.21690224426794
30
0
41
1
10
47.7692710599318
20
-4.04959008568304
30
0
41
1
10
46.9707446450449
20
-3.77105126799441
30
0
41
1
10
46.7039750571415
20
-3.67348596795767
30
0
41
1
10
46.171119257874
20
-3.47023503950936
30
0
41
1
10
45.9050612027783
20
-3.36457313492954
30
0
41
1
10
45.1073919414573
20
-3.03638824060914
30
0
41
1
10
44.5762347525356
20
-2.80273743942684
30
0
41
1
10
43.5119077306233
20
-2.31071083434566
30
0
41
1
10
42.9780838132485
20
-2.0518895773036
30
0
41
1
10
41.9140684396696
20
-1.51945974905649
30
0
41
1
10
41.3828759905579
20
-1.24539056853183
30
0
41
1
10
40.3189050481723
20
-0.687374939881835
30
0
41
1
10
39.7850400054427
20
-0.402910816487207
30
0
41
1
10
38.720541851658
20
0.165342810653556
30
0
41
1
10
38.1892860695135
20
0.449393955907425
30
0
41
1
10
37.3914979245407
20
0.870863058772329
30
0
41
1
10
37.1254256469396
20
1.01059932503932
30
0
41
1
10
36.5925133113569
20
1.28766288117751
30
0
41
1
10
36.3256366890915
20
1.42500565301822
30
0
41
1
10
35.5268001984018
20
1.83065495409048
30
0
41
1
10
34.9954472452422
20
2.09313725778722
30
0
41
1
10
34.1977704131724
20
2.47072817932786
30
0
41
1
10
33.9317740234434
20
2.59390942120891
30
0
41
1
10
33.3991245373474
20
2.83414897520029
30
0
41
1
10
33.1322124393194
20
2.95133849300035
30
0
41
1
10
32.3329276944164
20
3.29147987782647
30
0
41
1
10
31.8013945369434
20
3.50314827086024
30
0
41
1
10
31.0036658280438
20
3.79482943391233
30
0
41
1
10
30.7377098760349
20
3.88778574679384
30
0
41
1
10
30.2053001832094
20
4.06461110815459
30
0
41
1
10
29.9385781540689
20
4.14851896903787
30
0
41
1
10
28.6054583937394
20
4.54297403594251
30
0
41
1
10
27.5451392025358
20
4.77702619206025
30
0
41
1
10
25.6640602341319
20
5.02811899463069
30
0
41
1
10
24.8538368873433
20
5.08232042682479
30
0
41
1
10
24.0419502348023
20
5.08123836439143
30
0
0
SPLINE
5
C2
100
AcDbEntity
8
1
62
256
6
ByLayer
370
18
48
1
60
0
100
AcDbSpline
70
4
71
3
72
26
73
22
40
0
40
0
40
0
40
0
40
0.062499999999997
40
0.062499999999997
40
0.0937499999999965
40
0.0937499999999965
40
0.124999999999996
40
0.124999999999996
40
0.249999999999997
40
0.249999999999997
40
0.374999999999997
40
0.374999999999997
40
0.499999999999998
40
0.499999999999998
40
0.624999999999998
40
0.624999999999998
40
0.687499999999999
40
0.687499999999999
40
0.749999999999999
40
0.749999999999999
40
1
40
1
40
1
40
1
41
1
10
49.9712405510877
20
1.95182444326591
30
0
41
1
10
50.0039702257897
20
1.82366739702147
30
0
41
1
10
50.0447590378293
20
1.69549317555263
30
0
41
1
10
50.1168946415016
20
1.5032085021806
30
0
41
1
10
50.1427697792369
20
1.43910971118868
30
0
41
1
10
50.198037061152
20
1.31090463393929
30
0
41
1
10
50.2275216803199
20
1.24662374539514
30
0
41
1
10
50.3814607747247
20
0.929128749809479
30
0
41
1
10
50.526015588693
20
0.685013464745964
30
0
41
1
10
50.8470743917978
20
0.211531884851809
30
0
41
1
10
51.025056064325
20
-0.0190955106341164
30
0
41
1
10
51.3968110616964
20
-0.45569242023376
30
0
41
1
10
51.5914803483892
20
-0.663217159630705
30
0
41
1
10
51.9946352601426
20
-1.06133569134496
30
0
41
1
10
52.2031266971329
20
-1.25192236155266
30
0
41
1
10
52.5248081498247
20
-1.52684176220652
30
0
41
1
10
52.6335594746625
20
-1.61664099294134
30
0
41
1
10
52.8521585371194
20
-1.79136007202243
30
0
41
1
10
52.9622314445994
20
-1.87646479266033
30
0
41
1
10
53.516113618839
20
-2.29173254170425
30
0
41
1
10
53.9701771805167
20
-2.59199863706755
30
0
41
1
10
54.4328342024055
20
-2.86721004982283
30
0
0
SPLINE
5
C3
100
AcDbEntity
8
1
62
256
6
ByLayer
370
18
48
1
60
0
100
AcDbSpline
70
4
71
3
72
23
73
19
40
0
40
0
40
0
40
0
40
0.125000000000002
40
0.125000000000002
40
0.187500000000001
40
0.187500000000001
40
0.250000000000001
40
0.250000000000001
40
0.500000000000001
40
0.500000000000001
40
0.562500000000001
40
0.562500000000001
40
0.625000000000001
40
0.625000000000001
40
0.75
40
0.875
40
0.875
40
1
40
1
40
1
40
1
41
1
10
55.2271234312539
20
-4.87093834009883
30
0
41
1
10
55.1568492640747
20
-4.87086346004762
30
0
41
1
10
55.0899351431196
20
-4.86064913157199
30
0
41
1
10
54.9948473792936
20
-4.82938412595442
30
0
41
1
10
54.9640341930838
20
-4.81629867064777
30
0
41
1
10
54.9042435976696
20
-4.7845880248563
30
0
41
1
10
54.8751740334597
20
-4.7658799474107
30
0
41
1
10
54.7363019421045
20
-4.65917157293049
30
0
41
1
10
54.6449026377144
20
-4.53221261187772
30
0
41
1
10
54.5564714977995
20
-4.31900032970876
30
0
41
1
10
54.5400928895958
20
-4.2735968901396
30
0
41
1
10
54.5100541359586
20
-4.17705009334159
30
0
41
1
10
54.4963607021915
20
-4.12570805780595
30
0
41
1
10
54.460081481017
20
-3.9652077054524
30
0
41
1
10
54.4240592117729
20
-3.73303831001556
30
0
41
1
10
54.4123440104348
20
-3.46510920674965
30
0
41
1
10
54.4131160661476
20
-3.1788092878237
30
0
41
1
10
54.4198666703729
20
-3.02580782117931
30
0
41
1
10
54.4328342024055
20
-2.86721004982286
30
0
0
SPLINE
5
C4
100
AcDbEntity
8
1
62
256
6
ByLayer
370
18
48
1
60
0
100
AcDbSpline
70
4
71
3
72
20
73
16
40
0
40
0
40
0
40
0
40
0.105463164544969
40
0.105463164544969
40
0.210926329089937
40
0.210926329089937
40
0.421852658179872
40
0.421852658179872
40
0.527315822724841
40
0.527315822724841
40
0.632778987269809
40
0.632778987269809
40
0.843705316359747
40
0.843705316359747
40
1
40
1
40
1
40
1
41
1
10
9.88183009159025
20
-4.82312395610276
30
0
41
1
10
10.091356345048
20
-4.8134718432982
30
0
41
1
10
10.3007503192328
20
-4.80088804697513
30
0
41
1
10
10.7191616028655
20
-4.76782040847363
30
0
41
1
10
10.928184384204
20
-4.74748083810343
30
0
41
1
10
11.5548749786281
20
-4.67575477074831
30
0
41
1
10
11.9721003939837
20
-4.61365447651178
30
0
41
1
10
12.5992589085616
20
-4.50185633362938
30
0
41
1
10
12.8084702070956
20
-4.46150550363055
30
0
41
1
10
13.2270807168793
20
-4.37497354717678
30
0
41
1
10
13.4366343390924
20
-4.32865110781251
30
0
41
1
10
14.0642828296267
20
-4.1796408425501
30
0
41
1
10
14.4821169724796
20
-4.06718736236743
30
0
41
1
10
15.2092553561567
20
-3.85242712025595
30
0
41
1
10
15.5184414367257
20
-3.75436190093831
30
0
41
1
10
15.8279496122966
20
-3.65075896233975
30
0
0
SPLINE
5
C5
100
AcDbEntity
8
1
62
256
6
ByLayer
370
18
48
1
60
0
100
AcDbSpline
70
4
71
3
72
28
73
24
40
0
40
0
40
0
40
0
40
0.0766961319884496
40
0.0766961319884496
40
0.192109115489896
40
0.192109115489896
40
0.249815607240618
40
0.249815607240618
40
0.30752209899134
40
0.30752209899134
40
0.422935082492783
40
0.422935082492783
40
0.538348065994226
40
0.538348065994226
40
0.65376104949567
40
0.65376104949567
40
0.769174032997114
40
0.769174032997114
40
0.826880524747835
40
0.826880524747835
40
0.884587016498557
40
0.884587016498557
40
1
40
1
40
1
40
1
41
1
10
39.1275034206962
20
4.85964625627412
30
0
41
1
10
39.404560867604
20
4.85675110258913
30
0
41
1
10
39.6816514852792
20
4.8477817440554
30
0
41
1
10
40.3759252787605
20
4.81076193994971
30
0
41
1
10
40.79342782098
20
4.77307279852849
30
0
41
1
10
41.4205520421975
20
4.69836637074431
30
0
41
1
10
41.629417630241
20
4.67024610410417
30
0
41
1
10
42.0467342294073
20
4.60632485332286
30
0
41
1
10
42.2551847082732
20
4.57076548849506
30
0
41
1
10
42.8802518294303
20
4.45501635049135
30
0
41
1
10
43.2970304077553
20
4.3652831308321
30
0
41
1
10
44.1317163501732
20
4.16089311425949
30
0
41
1
10
44.5497224585758
20
4.04716048213237
30
0
41
1
10
45.3846007261715
20
3.79539233267056
30
0
41
1
10
45.8015387810439
20
3.65794494960647
30
0
41
1
10
46.6346632911888
20
3.36278578300582
30
0
41
1
10
47.0513582148668
20
3.20574106983767
30
0
41
1
10
47.6774993244979
20
2.95785089786753
30
0
41
1
10
47.8864919792982
20
2.87283270355968
30
0
41
1
10
48.3041109626146
20
2.69809508406436
30
0
41
1
10
48.5126051909747
20
2.60853819439262
30
0
41
1
10
49.1380228048627
20
2.33527896673709
30
0
41
1
10
49.5547536363651
20
2.14680205652994
30
0
41
1
10
49.971240551088
20
1.9518244432661
30
0
0
SPLINE
5
C6
100
AcDbEntity
8
1
62
256
6
ByLayer
370
18
48
1
60
0
100
AcDbSpline
70
4
71
3
72
8
73
4
40
0
40
0
40
0
40
0
40
1
40
1
40
1
40
1
41
1
10
55.2888709825237
20
-4.84050028871687
30
0
41
1
10
55.2647011723429
20
-4.86076920630867
30
0
41
1
10
55.2441002828677
20
-4.87096706805636
30
0
41
1
10
55.2271234312581
20
-4.87093834009886
30
0
0
SPLINE
5
C7
100
AcDbEntity
8
1
62
256
6
ByLayer
370
18
48
1
60
0
100
AcDbSpline
70
4
71
3
72
14
73
10
40
0
40
0
40
0
40
0
40
0.165510855262808
40
0.165510855262808
40
0.332408684210246
40
0.332408684210246
40
0.666204342105123
40
0.666204342105123
40
1
40
1
40
1
40
1
41
1
10
4.00093893366335
20
-5.06904201420966
30
0
41
1
10
4.00094020046936
20
-5.0704620559043
30
0
41
1
10
4.00094156987646
20
-5.06345212135878
30
0
41
1
10
4.0009444645479
20
-5.03256608423089
30
0
41
1
10
4.00094599006542
20
-5.00867598782796
30
0
41
1
10
4.00095074614757
20
-4.91248813542413
30
0
41
1
10
4.00095416471098
20
-4.81592204216483
30
0
41
1
10
4.00096112002399
20
-4.55528146565519
30
0
41
1
10
4.0009645397754
20
-4.39534156204508
30
0
41
1
10
4.0009675845738
20
-4.20739490291544
30
0
0
SPLINE
5
C8
100
AcDbEntity
8
1
62
256
6
ByLayer
370
18
48
1
60
0
100
AcDbSpline
70
4
71
3
72
16
73
12
40
0
40
0
40
0
40
0
40
0.19217910206966
40
0.19217910206966
40
0.39479281157938
40
0.39479281157938
40
0.49609966633424
40
0.49609966633424
40
0.5974065210891
40
0.5974065210891
40
1
40
1
40
1
40
1
41
1
10
9.09368554191263
20
-0.0070781662939225
30
0
41
1
10
9.59598755294502
20
-0.26758057771093
30
0
41
1
10
10.097598187171
20
-0.527717647515516
30
0
41
1
10
11.1294976765051
20
-1.05572641976886
30
0
41
1
10
11.659699664644
20
-1.32357003284608
30
0
41
1
10
12.4582047767229
20
-1.71616921863134
30
0
41
1
10
12.7249152806612
20
-1.84549195690806
30
0
41
1
10
13.2599081609498
20
-2.10010068658906
30
0
41
1
10
13.528678119326
20
-2.2256137842673
30
0
41
1
10
14.8598649985672
20
-2.83354098909561
30
0
41
1
10
15.9111882499751
20
-3.27006789414202
30
0
41
1
10
16.9626786859324
20
-3.64007659215739
30
0
0
SPLINE
5
C9
100
AcDbEntity
8
1
62
256
6
ByLayer
370
13
48
1
60
0
100
AcDbSpline
70
4
71
3
72
18
73
14
40
0
40
0
40
0
40
0
40
0.002324298159985
40
0.002324298159985
40
0.359913803881832
40
0.359913803881832
40
0.449311180312294
40
0.449311180312294
40
0.538708556742757
40
0.538708556742757
40
0.717503309603682
40
0.717503309603682
40
1
40
1
40
1
40
1
41
1
10
16.9626786858691
20
-3.64007659213513
30
0
41
1
10
16.9695579896497
20
-3.64249734856628
30
0
41
1
10
16.9764373005864
20
-3.64491525779167
30
0
41
1
10
18.0416890980794
20
-4.01888294638772
30
0
41
1
10
19.1001657463743
20
-4.32317504158934
30
0
41
1
10
20.4389840484783
20
-4.5992983325838
30
0
41
1
10
20.7075150718237
20
-4.64929254797514
30
0
41
1
10
21.2420218777632
20
-4.73771625678171
30
0
41
1
10
21.5085813193972
20
-4.77629081989903
30
0
41
1
10
22.3066512133755
20
-4.87495100722148
30
0
41
1
10
22.8365578370958
20
-4.91802419503355
30
0
41
1
10
24.2020362714954
20
-4.97001673092848
30
0
41
1
10
25.0369838499898
20
-4.94480331861271
30
0
41
1
10
25.8765118378074
20
-4.86249407816376
30
0
0
SPLINE
5
CA
100
AcDbEntity
8
1
62
256
6
ByLayer
370
18
48
1
60
0
100
AcDbSpline
70
4
71
3
72
18
73
14
40
0
40
0
40
0
40
0
40
0.250000000000003
40
0.250000000000003
40
0.500000000000005
40
0.500000000000005
40
0.625000000000004
40
0.625000000000004
40
0.750000000000003
40
0.750000000000003
40
0.875000000000001
40
0.875000000000001
40
1
40
1
40
1
40
1
41
1
10
56.2308124264264
20
-2.50348490563138
30
0
41
1
10
56.1534099098498
20
-2.71218182302857
30
0
41
1
10
56.0758368455779
20
-2.92076155149951
30
0
41
1
10
55.9202780866025
20
-3.33632289924009
30
0
41
1
10
55.8423099287979
20
-3.54347309564125
30
0
41
1
10
55.725168167533
20
-3.85356542049547
30
0
41
1
10
55.6860532461683
20
-3.95682348288369
30
0
41
1
10
55.6078018533539
20
-4.1624483582234
30
0
41
1
10
55.5686607670332
20
-4.26476967845269
30
0
41
1
10
55.4903643033274
20
-4.46895626755398
30
0
41
1
10
55.4512096506048
20
-4.57084466159949
30
0
41
1
10
55.3728655228435
20
-4.77351021233773
30
0
41
1
10
55.333669708448
20
-4.87408506973227
30
0
41
1
10
55.2944552800791
20
-4.97406592463776
30
0
0
SPLINE
5
CB
100
AcDbEntity
8
1
62
256
6
ByLayer
370
18
48
1
60
0
100
AcDbSpline
70
4
71
3
72
12
73
8
40
0
40
0
40
0
40
0
40
0.249999999999986
40
0.249999999999986
40
0.499999999999973
40
0.499999999999973
40
1
40
1
40
1
40
1
41
1
10
4.13263445420392
20
2.51427023997599
30
0
41
1
10
4.11510817679718
20
2.52235671770518
30
0
41
1
10
4.09902666014784
20
2.53205665647985
30
0
41
1
10
4.06965075145536
20
2.55453190677682
30
0
41
1
10
4.0563199903232
20
2.56743828184438
30
0
41
1
10
4.02266916478419
20
2.60886158574283
30
0
41
1
10
4.00784657752996
20
2.64107203635294
30
0
41
1
10
4.0024060653424
20
2.67416498568616
30
0
0
SPLINE
5
CC
100
AcDbEntity
8
1
62
256
6
ByLayer
370
18
48
1
60
0
100
AcDbSpline
70
4
71
3
72
36
73
32
40
0
40
0
40
0
40
0
40
0.250000000000001
40
0.250000000000001
40
0.500000000000003
40
0.500000000000003
40
0.562500000000003
40
0.562500000000003
40
0.625000000000003
40
0.625000000000003
40
0.687500000000004
40
0.687500000000004
40
0.718750000000004
40
0.718750000000004
40
0.750000000000004
40
0.750000000000004
40
0.8125
40
0.8125
40
0.843749999999999
40
0.843749999999999
40
0.874999999999999
40
0.874999999999999
40
0.890625
40
0.890625
40
0.90625
40
0.90625
40
0.9375
40
0.9375
40
0.96875
40
0.96875
40
1
40
1
40
1
40
1
41
1
10
49.971240551088
20
1.95182444326602
30
0
41
1
10
50.3924198791067
20
1.66747116255337
30
0
41
1
10
50.8177175038901
20
1.40825873816391
30
0
41
1
10
51.679615707293
20
0.958834729942964
30
0
41
1
10
52.1160414415127
20
0.767555778170617
30
0
41
1
10
52.6709335428394
20
0.585596424950637
30
0
41
1
10
52.7823382718107
20
0.552155032821275
30
0
41
1
10
53.003811159819
20
0.492313334559384
30
0
41
1
10
53.1141599552719
20
0.465815863724288
30
0
41
1
10
53.3340194861328
20
0.420221946922282
30
0
41
1
10
53.4435715569143
20
0.401137202625847
30
0
41
1
10
53.6062054902337
20
0.378682067294449
30
0
41
1
10
53.6601746611967
20
0.37221683273259
30
0
41
1
10
53.7676111061166
20
0.361400180232806
30
0
41
1
10
53.8212102963814
20
0.356493176425545
30
0
41
1
10
53.9798290421053
20
0.35094862272507
30
0
41
1
10
54.0837529431899
20
0.359700648564882
30
0
41
1
10
54.2229987316312
20
0.401772582731582
30
0
41
1
10
54.2667880216628
20
0.420408860231589
30
0
41
1
10
54.3475297669882
20
0.469689738119541
30
0
41
1
10
54.3835457851634
20
0.499953856075962
30
0
41
1
10
54.4275178763522
20
0.556116752641259
30
0
41
1
10
54.4405634265381
20
0.576936024515163
30
0
41
1
10
54.4623030961806
20
0.621241537114003
30
0
41
1
10
54.4711528820592
20
0.644741234677156
30
0
41
1
10
54.4916686412085
20
0.719263449083655
30
0
41
1
10
54.4971110639996
20
0.775040943575846
30
0
41
1
10
54.4940406013167
20
0.8892920713416
30
0
41
1
10
54.4857872505144
20
0.948687243127182
30
0
41
1
10
54.4587342037899
20
1.06957094942007
30
0
41
1
10
54.4400946165915
20
1.13029269337284
30
0
41
1
10
54.4176777603897
20
1.1910016166616
30
0
0
SPLINE
5
CD
100
AcDbEntity
8
1
62
256
6
ByLayer
370
18
48
1
60
0
100
AcDbSpline
70
4
71
3
72
66
73
62
40
0
40
0
40
0
40
0
40
0.0624999999999999
40
0.0624999999999999
40
0.125
40
0.125
40
0.249999999999999
40
0.249999999999999
40
0.374999999999999
40
0.374999999999999
40
0.499999999999999
40
0.499999999999999
40
0.562499999999999
40
0.562499999999999
40
0.624999999999999
40
0.624999999999999
40
0.687499999999998
40
0.687499999999998
40
0.703124999999998
40
0.703124999999998
40
0.707031249999998
40
0.707031249999998
40
0.710937499999998
40
0.710937499999998
40
0.712890624999998
40
0.712890624999998
40
0.714843749999999
40
0.718749999999999
40
0.718749999999999
40
0.734374999999999
40
0.734374999999999
40
0.749999999999999
40
0.749999999999999
40
0.781249999999998
40
0.781249999999998
40
0.789062499999998
40
0.789062499999998
40
0.796874999999998
40
0.804687499999998
40
0.804687499999998
40
0.812499999999998
40
0.812499999999998
40
0.828124999999999
40
0.828124999999999
40
0.835937499999999
40
0.835937499999999
40
0.843749999999999
40
0.843749999999999
40
0.859374999999999
40
0.859374999999999
40
0.875
40
0.875
40
0.890625
40
0.890625
40
0.90625
40
0.90625
40
0.9375
40
0.9375
40
0.96875
40
0.96875
40
1
40
1
40
1
40
1
41
1
10
16.8817217120225
20
-4.00010694397528
30
0
41
1
10
16.5110049909409
20
-3.87780456768078
30
0
41
1
10
16.1381114328048
20
-3.74964982709801
30
0
41
1
10
15.387320139384
20
-3.48496155977213
30
0
41
1
10
15.0091596666056
20
-3.34832729055043
30
0
41
1
10
13.8672664125185
20
-2.9319647499604
30
0
41
1
10
13.1021549934951
20
-2.6479834158919
30
0
41
1
10
11.5559383319923
20
-2.10082885520703
30
0
41
1
10
10.7747586191695
20
-1.83788059958132
30
0
41
1
10
9.18932948938877
20
-1.3652000453464
30
0
41
1
10
8.38507891851921
20
-1.15557417492107
30
0
41
1
10
7.15813993212788
20
-0.899861293527522
30
0
41
1
10
6.74575425512342
20
-0.824342561085956
30
0
41
1
10
5.91378713711674
20
-0.69517295709619
30
0
41
1
10
5.49592388846025
20
-0.641803053865061
30
0
41
1
10
4.65837020212913
20
-0.559224475984422
30
0
41
1
10
4.23813319954843
20
-0.52994206634807
30
0
41
1
10
3.71185918295993
20
-0.509291145561377
30
0
41
1
10
3.60657501807631
20
-0.505959192644127
30
0
41
1
10
3.47493261626147
20
-0.502805980539023
30
0
41
1
10
3.44850866454257
20
-0.501461997526803
30
0
41
1
10
3.39653997875149
20
-0.505944783301175
30
0
41
1
10
3.37025119519157
20
-0.511068758942173
30
0
41
1
10
3.33411588818353
20
-0.526768850817803
30
0
41
1
10
3.32313691650458
20
-0.533724293388673
30
0
41
1
10
3.30074190141809
20
-0.546925205965039
30
0
41
1
10
3.26722502967686
20
-0.566844054349588
30
0
41
1
10
3.23394004696854
20
-0.587122790332614
30
0
41
1
10
3.12352933026065
20
-0.655554425051179
30
0
41
1
10
3.03668332713008
20
-0.713134845468289
30
0
41
1
10
2.86877452591045
20
-0.833610988476181
30
0
41
1
10
2.78763645316752
20
-0.89652231567797
30
0
41
1
10
2.55444965336918
20
-1.09487098737344
30
0
41
1
10
2.4120396684242
20
-1.239393678319
30
0
41
1
10
2.26193547710159
20
-1.44583026053618
30
0
41
1
10
2.23341048413175
20
-1.48843436244255
30
0
41
1
10
2.18091165604355
20
-1.57472008601405
30
0
41
1
10
2.13263617281729
20
-1.66251281783565
30
0
41
1
10
2.09356711778582
20
-1.75354919357346
30
0
41
1
10
2.05956219234298
20
-1.84634749398211
30
0
41
1
10
2.04508337816071
20
-1.89381405718277
30
0
41
1
10
2.01079516414487
20
-2.03530945955927
30
0
41
1
10
1.999636737489
20
-2.12951298585898
30
0
41
1
10
2.00019511831601
20
-2.27046483225084
30
0
41
1
10
2.00331793870049
20
-2.31766759465398
30
0
41
1
10
2.01502140573638
20
-2.41003603527562
30
0
41
1
10
2.02356128241229
20
-2.4553045632378
30
0
41
1
10
2.05644427801047
20
-2.5885932779253
30
0
41
1
10
2.0883487229018
20
-2.67473982909615
30
0
41
1
10
2.1665661581707
20
-2.83798960829623
30
0
41
1
10
2.21252602616846
20
-2.91480936301986
30
0
41
1
10
2.3147733450148
20
-3.06103207968585
30
0
41
1
10
2.3710868028036
20
-3.13041834625636
30
0
41
1
10
2.49195133263589
20
-3.2631351807367
30
0
41
1
10
2.5562315212818
20
-3.32610935940551
30
0
41
1
10
2.75575919997544
20
-3.50476917416683
30
0
41
1
10
2.89854651565454
20
-3.61143079806666
30
0
41
1
10
3.19684582674628
20
-3.8077004042137
30
0
41
1
10
3.352583599334
20
-3.89726124767691
30
0
41
1
10
3.67294226549467
20
-4.06287174675282
30
0
41
1
10
3.83594154794659
20
-4.13807359184298
30
0
41
1
10
4.00096758449939
20
-4.20739490289
30
0
0
SPLINE
5
CE
100
AcDbEntity
8
1
62
256
6
ByLayer
370
18
48
1
60
0
100
AcDbSpline
70
4
71
3
72
16
73
12
40
0
40
0
40
0
40
0
40
0.249999999999999
40
0.249999999999999
40
0.499999999999999
40
0.499999999999999
40
0.749999999999998
40
0.749999999999998
40
0.874999999999999
40
0.874999999999999
40
1
40
1
40
1
40
1
41
1
10
9.88185713985629
20
-4.82312800265672
30
0
41
1
10
9.39643755882696
20
-4.84536496594788
30
0
41
1
10
8.91558341281396
20
-4.85066341456576
30
0
41
1
10
7.96068918505949
20
-4.81915022062739
30
0
41
1
10
7.48657657786421
20
-4.7829101409535
30
0
41
1
10
6.54426970465244
20
-4.65963256832612
30
0
41
1
10
6.07580266752115
20
-4.57581158136941
30
0
41
1
10
5.37886297379359
20
-4.40286726632874
30
0
41
1
10
5.14745284976448
20
-4.33731407811874
30
0
41
1
10
4.69308593573714
20
-4.18843361294716
30
0
41
1
10
4.46946700284772
20
-4.10502391533089
30
0
41
1
10
4.25084907109064
20
-4.00994088666565
30
0
0
SPLINE
5
CF
100
AcDbEntity
8
1
62
256
6
ByLayer
370
18
48
1
60
0
100
AcDbSpline
70
4
71
3
72
25
73
21
40
0
40
0
40
0
40
0
40
0.0990515173870718
40
0.0990515173870718
40
0.198103034774144
40
0.297154552161215
40
0.297154552161215
40
0.396206069548287
40
0.396206069548287
40
0.594309104322431
40
0.594309104322431
40
0.693360621709503
40
0.693360621709503
40
0.742886380403039
40
0.742886380403039
40
0.792412139096575
40
0.792412139096575
40
0.99051517387072
40
0.99051517387072
40
1
40
1
40
1
40
1
41
1
10
4.00090831098939
20
2.69239984926983
30
0
41
1
10
4.00091018840351
20
2.83697145897406
30
0
41
1
10
4.00091185811587
20
2.97734650080034
30
0
41
1
10
4.00091481864379
20
3.24530137657092
30
0
41
1
10
4.00091741120633
20
3.50115599500498
30
0
41
1
10
4.00091946112886
20
3.73333762856319
30
0
41
1
10
4.00092133017051
20
3.95358901559763
30
0
41
1
10
4.00092217601645
20
4.05798362824328
30
0
41
1
10
4.0009245618065
20
4.35108680094189
30
0
41
1
10
4.00092592159928
20
4.51536714203286
30
0
41
1
10
4.00092811651552
20
4.71678270314891
30
0
41
1
10
4.00092887238276
20
4.77636317600988
30
0
41
1
10
4.00093009407001
20
4.85408732440567
30
0
41
1
10
4.00093051711349
20
4.87810297432912
30
0
41
1
10
4.0009313914951
20
4.92173701966556
30
0
41
1
10
4.00093184328341
20
4.94140109401295
30
0
41
1
10
4.00093418880743
20
5.02915441906484
30
0
41
1
10
4.0009363504665
20
5.06585570745668
30
0
41
1
10
4.00093902399286
20
5.06915529907624
30
0
41
1
10
4.00093914710706
20
5.06922745684543
30
0
41
1
10
4.00093927115262
20
5.06922106708129
30
0
0
SPLINE
5
D0
100
AcDbEntity
8
1
62
256
6
ByLayer
370
18
48
1
60
0
100
AcDbSpline
70
4
71
3
72
16
73
12
40
0
40
0
40
0
40
0
40
0.1456302099502
40
0.1456302099502
40
0.413584833931687
40
0.413584833931687
40
0.547562145922431
40
0.547562145922431
40
0.681539457913176
40
0.681539457913176
40
1
40
1
40
1
40
1
41
1
10
24.2644192378222
20
-4.85239392358727
30
0
41
1
10
23.9769374889215
20
-4.85211273575516
30
0
41
1
10
23.6895376729672
20
-4.845218282167
30
0
41
1
10
22.8729113678767
20
-4.80688178993196
30
0
41
1
10
22.3431987619689
20
-4.75964220395582
30
0
41
1
10
21.5455103680587
20
-4.65554648444515
30
0
41
1
10
21.2790877258005
20
-4.61529897059498
30
0
41
1
10
20.7448861692496
20
-4.52385228664835
30
0
41
1
10
20.4765556769471
20
-4.47249940029459
30
0
41
1
10
19.5730364161485
20
-4.28195570874229
30
0
41
1
10
18.9413424772687
20
-4.11928890198504
30
0
41
1
10
18.3114033792334
20
-3.93144216476244
30
0
0
SPLINE
5
D1
100
AcDbEntity
8
1
62
256
6
ByLayer
370
13
48
1
60
0
100
AcDbSpline
70
4
71
3
72
24
73
20
40
0
40
0
40
0
40
0
40
0.0977254233771858
40
0.0977254233771858
40
0.338572835793498
40
0.338572835793498
40
0.398784688897575
40
0.398784688897575
40
0.458996542001652
40
0.458996542001652
40
0.579420248209807
40
0.579420248209807
40
0.820267660626117
40
0.820267660626117
40
0.880479513730195
40
0.880479513730195
40
0.940691366834273
40
0.940691366834273
40
1
40
1
40
1
40
1
41
1
10
18.311403379366
20
-3.93144216480198
30
0
41
1
10
17.8812733520631
20
-3.80317814299292
30
0
41
1
10
17.4519614883133
20
-3.66317442328577
30
0
41
1
10
15.964654779611
20
-3.14116873431661
30
0
41
1
10
14.9068609556553
20
-2.70485994711194
30
0
41
1
10
13.5695896635796
20
-2.1005156802463
30
0
41
1
10
13.3010375705745
20
-1.97654661665234
30
0
41
1
10
12.7664121631286
20
-1.72527359662499
30
0
41
1
10
12.4998620927456
20
-1.59774171178029
30
0
41
1
10
11.7017900335433
20
-1.21087243444876
30
0
41
1
10
11.1718115883085
20
-0.947328336657392
30
0
41
1
10
9.58361138550785
20
-0.148743675233618
30
0
41
1
10
8.52780891666634
20
0.395590714872668
30
0
41
1
10
7.19602604985323
20
1.05920002965749
30
0
41
1
10
6.92905743260081
20
1.19105960450349
30
0
41
1
10
6.39365566994451
20
1.45256701764706
30
0
41
1
10
6.12526966772728
20
1.5822013069583
30
0
41
1
10
5.59355031282692
20
1.83492631821338
30
0
41
1
10
5.32982538194125
20
1.95823187173832
30
0
41
1
10
5.06605001989883
20
2.07911106726945
30
0
0
SPLINE
5
D2
100
AcDbEntity
8
1
62
256
6
ByLayer
370
13
48
1
60
0
100
AcDbSpline
70
4
71
3
72
15
73
11
40
0
40
0
40
0
40
0
40
0.128634476086428
40
0.128634476086428
40
0.302907580869142
40
0.477180685651857
40
0.477180685651857
40
0.651453790434571
40
0.651453790434571
40
1
40
1
40
1
40
1
41
1
10
4.25055949416486
20
-4.84068179662222
30
0
41
1
10
4.250569483135
20
-4.83959819020325
30
0
41
1
10
4.2505800501857
20
-4.83386435717327
30
0
41
1
10
4.25060600571496
20
-4.8096406133815
30
0
41
1
10
4.25063763926872
20
-4.76514742702284
30
0
41
1
10
4.25067221363216
20
-4.68794762805717
30
0
41
1
10
4.2507078035618
20
-4.59414668968171
30
0
41
1
10
4.25072621301172
20
-4.53854597733744
30
0
41
1
10
4.25078096600976
20
-4.34946458917312
30
0
41
1
10
4.25081698697335
20
-4.1940934678197
30
0
41
1
10
4.25084906846698
20
-4.00994088583926
30
0
0
SPLINE
5
D3
100
AcDbEntity
8
1
62
256
6
ByLayer
370
18
48
1
60
0
100
AcDbSpline
70
4
71
3
72
86
73
82
40
0
40
0
40
0
40
0
40
0.0233188158139674
40
0.0233188158139674
40
0.0582002866777566
40
0.0582002866777566
40
0.0930817575415459
40
0.0930817575415459
40
0.11052249297344
40
0.11052249297344
40
0.127963228405334
40
0.127963228405334
40
0.162844699269123
40
0.162844699269123
40
0.197726170132911
40
0.197726170132911
40
0.215166905564805
40
0.215166905564805
40
0.232607640996698
40
0.232607640996698
40
0.250048376428592
40
0.250048376428592
40
0.267489111860486
40
0.267489111860486
40
0.302370582724273
40
0.302370582724273
40
0.337252053588061
40
0.337252053588061
40
0.354692789019954
40
0.354692789019954
40
0.372133524451848
40
0.372133524451848
40
0.407014995315636
40
0.407014995315636
40
0.424455730747529
40
0.424455730747529
40
0.441896466179422
40
0.441896466179422
40
0.476777937043209
40
0.476777937043209
40
0.511659407906995
40
0.511659407906995
40
0.529100143338888
40
0.529100143338888
40
0.546540878770781
40
0.546540878770781
40
0.581422349634567
40
0.581422349634567
40
0.59886308506646
40
0.59886308506646
40
0.616303820498353
40
0.616303820498353
40
0.65118529136214
40
0.65118529136214
40
0.686066762225926
40
0.686066762225926
40
0.70350749765782
40
0.70350749765782
40
0.720948233089713
40
0.720948233089713
40
0.738388968521606
40
0.738388968521606
40
0.7558297039535
40
0.7558297039535
40
0.790711174817286
40
0.790711174817286
40
0.825592645681072
40
0.825592645681072
40
0.860474116544858
40
0.860474116544858
40
0.895355587408643
40
0.895355587408643
40
0.912796322840536
40
0.912796322840536
40
0.930237058272429
40
0.930237058272429
40
0.965118529136214
40
0.965118529136214
40
0.982559264568107
40
0.982559264568107
40
1
40
1
40
1
40
1
41
1
10
45.8023738890856
20
-3.65418922915481
30
0
41
1
10
45.5235514884739
20
-3.74829422722499
30
0
41
1
10
45.2444554096565
20
-3.83768165050441
30
0
41
1
10
44.5470781285849
20
-4.04791769482782
30
0
41
1
10
44.1298089424585
20
-4.16139146603521
30
0
41
1
10
43.2956079192685
20
-4.36560004749481
30
0
41
1
10
42.8788859729442
20
-4.45529879315126
30
0
41
1
10
42.2536255435156
20
-4.57103937558662
30
0
41
1
10
42.045067277784
20
-4.60660122188094
30
0
41
1
10
41.6274346074455
20
-4.6705286250529
30
0
41
1
10
41.4182044853668
20
-4.6986690960816
30
0
41
1
10
40.7910517946234
20
-4.77330930777941
30
0
41
1
10
40.3742012835427
20
-4.81089303585549
30
0
41
1
10
39.5401681878074
20
-4.85528653847354
30
0
41
1
10
39.1231794937306
20
-4.8643513505815
30
0
41
1
10
38.4974459933018
20
-4.8568195217704
30
0
41
1
10
38.2887023797878
20
-4.8504467687612
30
0
41
1
10
37.8705622355217
20
-4.8308726811654
30
0
41
1
10
37.6612527625086
20
-4.81795330371986
30
0
41
1
10
37.2434155958046
20
-4.78513185053978
30
0
41
1
10
37.0347815795694
20
-4.76520277649129
30
0
41
1
10
36.6178424022682
20
-4.71774148323752
30
0
41
1
10
36.4094550211635
20
-4.69040295605413
30
0
41
1
10
35.7839450864091
20
-4.60031616585303
30
0
41
1
10
35.3667226694714
20
-4.52751930209422
30
0
41
1
10
34.5317179851164
20
-4.35445369861466
30
0
41
1
10
34.1130196379131
20
-4.25544740882697
30
0
41
1
10
33.4868070273262
20
-4.08745252573573
30
0
41
1
10
33.2782797412448
20
-4.02799815940077
30
0
41
1
10
32.8613944780619
20
-3.90478359865486
30
0
41
1
10
32.6530047838707
20
-3.84065709243882
30
0
41
1
10
32.0274457077321
20
-3.64062906045047
30
0
41
1
10
31.6099458226223
20
-3.4972319807666
30
0
41
1
10
30.9830948278555
20
-3.26573599660688
30
0
41
1
10
30.773968179381
20
-3.18562355675974
30
0
41
1
10
30.3563436815008
20
-3.02072809367408
30
0
41
1
10
30.1476246561032
20
-2.93614566101644
30
0
41
1
10
29.5215834151918
20
-2.67792886165952
30
0
41
1
10
29.1049139853894
20
-2.49807267309032
30
0
41
1
10
28.2706732132112
20
-2.12477127455108
30
0
41
1
10
27.8524833292222
20
-1.93209393063165
30
0
41
1
10
27.2253251203366
20
-1.63199426892757
30
0
41
1
10
27.0165547359774
20
-1.53073348445551
30
0
41
1
10
26.5989722938281
20
-1.32724699728229
30
0
41
1
10
26.3901981210958
20
-1.22488181294324
30
0
41
1
10
25.7639962719394
20
-0.915541840267281
30
0
41
1
10
25.3470395992449
20
-0.705691277303174
30
0
41
1
10
24.7207961362857
20
-0.388189898925674
30
0
41
1
10
24.5118364943815
20
-0.282025180116875
30
0
41
1
10
24.0932828542585
20
-0.0692013063756178
30
0
41
1
10
23.8837938074577
20
0.0372942868303596
30
0
41
1
10
23.2565075746977
20
0.356519955679346
30
0
41
1
10
22.8392146184797
20
0.568940532349046
30
0
41
1
10
22.0038756291706
20
0.987906027898646
30
0
41
1
10
21.5864254070373
20
1.19573102619171
30
0
41
1
10
20.9591981588415
20
1.50144902387052
30
0
41
1
10
20.7496888052032
20
1.6023037531487
30
0
41
1
10
20.3308762540455
20
1.80150064160765
30
0
41
1
10
20.121631400731
20
1.8997951189676
30
0
41
1
10
19.70362661765
20
2.09361885227238
30
0
41
1
10
19.4949151540448
20
2.1890207272634
30
0
41
1
10
19.0774456636529
20
2.37647180615423
30
0
41
1
10
18.8686647568215
20
2.46857765983287
30
0
41
1
10
18.2420161838109
20
2.73900607659169
30
0
41
1
10
17.824079209207
20
2.91165512751803
30
0
41
1
10
16.9867691161061
20
3.24145327324646
30
0
41
1
10
16.5682710509348
20
3.39616993370149
30
0
41
1
10
15.7329253302177
20
3.68552603037946
30
0
41
1
10
15.3160310740626
20
3.82091664814664
30
0
41
1
10
14.4807397842622
20
4.06756830455404
30
0
41
1
10
14.062710078026
20
4.18005710993339
30
0
41
1
10
13.4344421543838
20
4.32914996246012
30
0
41
1
10
13.2252786341232
20
4.37536116382103
30
0
41
1
10
12.8070659087394
20
4.46178056926215
30
0
41
1
10
12.598036783003
20
4.50208450882775
30
0
41
1
10
11.9713714882317
20
4.61376369887864
30
0
41
1
10
11.5544010049761
20
4.67581577645822
30
0
41
1
10
10.9279769406025
20
4.74750119765565
30
0
41
1
10
10.7190236779161
20
4.76783238932956
30
0
41
1
10
10.3007105419938
20
4.80089010971648
30
0
41
1
10
10.091344395131
20
4.81347239378735
30
0
41
1
10
9.88183009159064
20
4.82312395610262
30
0
0
SPLINE
5
D4
100
AcDbEntity
8
1
62
256
6
ByLayer
370
18
48
1
60
0
100
AcDbSpline
70
4
71
3
72
8
73
4
40
0
40
0
40
0
40
0
40
1
40
1
40
1
40
1
41
1
10
16.8817217120224
20
4.00010694397528
30
0
41
1
10
16.5309309685574
20
3.88437830518413
30
0
41
1
10
16.1781911084902
20
3.76340952204097
30
0
41
1
10
15.8232265584912
20
3.63860956724784
30
0
0
SPLINE
5
D5
100
AcDbEntity
8
1
62
256
6
ByLayer
370
18
48
1
60
0
100
AcDbSpline
70
4
71
3
72
12
73
8
40
0
40
0
40
0
40
0
40
0.250000000000006
40
0.250000000000006
40
0.500000000000012
40
0.500000000000012
40
1
40
1
40
1
40
1
41
1
10
55.267949773086
20
-4.92668677961666
30
0
41
1
10
55.2727733045861
20
-4.91363950645316
30
0
41
1
10
55.2773812161855
20
-4.90040164317145
30
0
41
1
10
55.2850173831734
20
-4.87654215421691
30
0
41
1
10
55.288027954456
20
-4.86595498542559
30
0
41
1
10
55.2935586246473
20
-4.84209126657282
30
0
41
1
10
55.2925435158489
20
-4.83742048483242
30
0
41
1
10
55.2888709825237
20
-4.84050028871687
30
0
0
SPLINE
5
D6
100
AcDbEntity
8
1
62
256
6
ByLayer
370
13
48
1
60
0
100
AcDbSpline
70
4
71
3
72
8
73
4
40
0
40
0
40
0
40
0
40
1
40
1
40
1
40
1
41
1
10
4.00090831098942
20
2.69239984926665
30
0
41
1
10
4.00172182806816
20
2.68271002953728
30
0
41
1
10
4.00308774360573
20
2.67306529941783
30
0
41
1
10
4.00499543252485
20
2.66352231472243
30
0
0
SPLINE
5
D7
100
AcDbEntity
8
1
62
256
6
ByLayer
370
18
48
1
60
0
100
AcDbSpline
70
4
71
3
72
8
73
4
40
0
40
0
40
0
40
0
40
1
40
1
40
1
40
1
41
1
10
55.2190908358396
20
5.05866849805508
30
0
41
1
10
54.8138944622105
20
5.08599360629737
30
0
41
1
10
54.4088099634062
20
5.09952758640037
30
0
41
1
10
54.0033272516249
20
5.0992249534699
30
0
0
SPLINE
5
D8
100
AcDbEntity
8
1
62
256
6
ByLayer
370
18
48
1
60
0
100
AcDbSpline
70
4
71
3
72
36
73
32
40
0
40
0
40
0
40
0
40
0.0170645581465273
40
0.0170645581465273
40
0.157483906982733
40
0.157483906982733
40
0.297903255818939
40
0.297903255818939
40
0.333008093027991
40
0.333008093027991
40
0.368112930237043
40
0.368112930237043
40
0.438322604655149
40
0.438322604655149
40
0.473427441864202
40
0.473427441864202
40
0.508532279073255
40
0.508532279073255
40
0.578741953491362
40
0.578741953491362
40
0.613846790700415
40
0.613846790700415
40
0.648951627909468
40
0.648951627909468
40
0.719161302327575
40
0.719161302327575
40
0.789370976745681
40
0.789370976745681
40
0.859580651163788
40
0.859580651163788
40
1
40
1
40
1
40
1
41
1
10
26.8645481376548
20
-4.86383283315541
30
0
41
1
10
26.734936536143
20
-4.88383668069881
30
0
41
1
10
26.605285671653
20
-4.90249739290047
30
0
41
1
10
25.4091896018632
20
-5.06200396531418
30
0
41
1
10
24.3484907000282
20
-5.11084467772696
30
0
41
1
10
22.213957631791
20
-5.01725351203365
30
0
41
1
10
21.1533098014039
20
-4.87550940307838
30
0
41
1
10
19.8197405710924
20
-4.58750727785585
30
0
41
1
10
19.5528859432023
20
-4.52443228472748
30
0
41
1
10
19.0202649637778
20
-4.38804918162509
30
0
41
1
10
18.7542330947841
20
-4.31470274647512
30
0
41
1
10
17.9562546660827
20
-4.07996535100651
30
0
41
1
10
17.4245147804062
20
-3.90378535666918
30
0
41
1
10
16.6248153060557
20
-3.6126872397503
30
0
41
1
10
16.3577386479643
20
-3.51114710130574
30
0
41
1
10
15.824786297154
20
-3.3004829004924
30
0
41
1
10
15.5586424521194
20
-3.1912662274045
30
0
41
1
10
14.7605131866541
20
-2.85302144407496
30
0
41
1
10
14.2288206095251
20
-2.6134136952773
30
0
41
1
10
13.4294281827185
20
-2.23667609364196
30
0
41
1
10
13.1623696869467
20
-2.10805926624406
30
0
41
1
10
12.6290874804185
20
-1.8464608491939
30
0
41
1
10
12.3628348646988
20
-1.71347930628264
30
0
41
1
10
11.5644799005904
20
-1.30936975707658
30
0
41
1
10
11.03276180141
20
-1.03311357914171
30
0
41
1
10
9.96723107492451
20
-0.472665633118083
30
0
41
1
10
9.43280556969455
20
-0.187612711892399
30
0
41
1
10
8.3706514717019
20
0.377560932061499
30
0
41
1
10
7.84152147608816
20
0.658446197133912
30
0
41
1
10
6.25529619498008
20
1.48729696951804
30
0
41
1
10
5.19965348414968
20
2.02195658876221
30
0
41
1
10
4.13263445420398
20
2.51427023997596
30
0
0
SPLINE
5
D9
100
AcDbEntity
8
1
62
256
6
ByLayer
370
18
48
1
60
0
100
AcDbSpline
70
4
71
3
72
8
73
4
40
0
40
0
40
0
40
0
40
1
40
1
40
1
40
1
41
1
10
55.2190908358394
20
-5.05866849805506
30
0
41
1
10
55.2353911319951
20
-5.01469604796051
30
0
41
1
10
55.2516778543608
20
-4.97070103939612
30
0
41
1
10
55.2679497730859
20
-4.92668677961663
30
0
0
LINE
5
76
100
AcDbEntity
8
81
62
256
6
ByLayer
370
18
48
1
60
0
100
AcDbLine
10
57
20
0
30
0
11
62
21
0
31
0
39
0
210
0
220
0
230
1
0
LINE
5
77
100
AcDbEntity
8
1
62
256
6
ByLayer
370
18
48
1
60
0
100
AcDbLine
10
4.00093
20
5.069224
30
0
11
1.454503
21
5.067696
31
0
39
0
210
0
220
0
230
1
0
LINE
5
79
100
AcDbEntity
8
1
62
256
6
ByLayer
370
18
48
1
60
0
100
AcDbLine
10
24.055247
20
5.081256
30
0
11
23.209255
21
5.080749
31
0
39
0
210
0
220
0
230
1
0
LINE
5
7A
100
AcDbEntity
8
1
62
256
6
ByLayer
370
18
48
1
60
0
100
AcDbLine
10
54.00535
20
5.099226
30
0
11
53.169369
21
5.098725
31
0
39
0
210
0
220
0
230
1
0
LINE
5
7B
100
AcDbEntity
8
1
62
256
6
ByLayer
370
18
48
1
60
0
100
AcDbLine
10
53.169369
20
-5.098725
30
0
11
54.005151
21
-5.099226
31
0
39
0
210
0
220
0
230
1
0
LINE
5
7C
100
AcDbEntity
8
1
62
256
6
ByLayer
370
18
48
1
60
0
100
AcDbLine
10
23.209255
20
-5.080749
30
0
11
24.055032
21
-5.081256
31
0
39
0
210
0
220
0
230
1
0
LINE
5
7D
100
AcDbEntity
8
1
62
256
6
ByLayer
370
18
48
1
60
0
100
AcDbLine
10
1.454503
20
-5.067696
30
0
11
4.00093
21
-5.069224
31
0
39
0
210
0
220
0
230
1
0
LINE
5
7E
100
AcDbEntity
8
SK1
62
256
6
ByLayer
370
18
48
1
60
0
100
AcDbLine
10
-43.556624
20
6
30
0
11
-45
21
3.5
31
0
39
0
210
0
220
0
230
1
0
LINE
5
80
100
AcDbEntity
8
SK1
62
256
6
ByLayer
370
18
48
1
60
0
100
AcDbLine
10
-45
20
-3.5
30
0
11
-43.556624
21
-6
31
0
39
0
210
0
220
0
230
1
0
LINE
5
81
100
AcDbEntity
8
SK1
62
256
6
ByLayer
370
18
48
1
60
0
100
AcDbLine
10
0
20
6
30
0
11
-43.556624
21
6
31
0
39
0
210
0
220
0
230
1
0
LINE
5
82
100
AcDbEntity
8
SK1
62
256
6
ByLayer
370
18
48
1
60
0
100
AcDbLine
10
-43.556624
20
-6
30
0
11
0
21
-6
31
0
39
0
210
0
220
0
230
1
0
LINE
5
83
100
AcDbEntity
8
SK4
62
256
6
ByLayer
370
18
48
0.05
60
0
100
AcDbLine
10
62
20
0
30
0
11
-50
21
0
31
0
39
0
210
0
220
0
230
1
0
LINE
5
85
100
AcDbEntity
8
4
62
256
6
ByLayer
370
18
48
0.05
60
0
100
AcDbLine
10
57
20
0
30
0
11
0
21
0
31
0
39
0
210
0
220
0
230
1
0
LINE
5
87
100
AcDbEntity
8
80
62
256
6
ByLayer
370
18
48
1
60
0
100
AcDbLine
10
0
20
0
30
0
11
-5
21
0
31
0
39
0
210
0
220
0
230
1
0
LINE
5
88
100
AcDbEntity
8
1
62
256
6
ByLayer
370
18
48
1
60
0
100
AcDbLine
10
23.266576
20
0.351484
30
0
11
23.257974
21
0.355775
31
0
39
0
210
0
220
0
230
1
0
LINE
5
89
100
AcDbEntity
8
1
62
256
6
ByLayer
370
13
48
1
60
0
100
AcDbLine
10
0.727011
20
5.533848
30
0
11
0.727011
21
-5.533848
31
0
39
0
210
0
220
0
230
1
0
LINE
5
8A
100
AcDbEntity
8
1
62
256
6
ByLayer
370
18
48
1
60
0
100
AcDbLine
10
4.250556
20
4.840871
30
0
11
4.250559
21
4.840682
31
0
39
0
210
0
220
0
230
1
0
LINE
5
8B
100
AcDbEntity
8
1
62
256
6
ByLayer
370
18
48
1
60
0
100
AcDbLine
10
56.912835
20
0.297496
30
0
11
56.731033
21
0.968682
31
0
39
0
210
0
220
0
230
1
0
LINE
5
8C
100
AcDbEntity
8
1
62
256
6
ByLayer
370
18
48
1
60
0
100
AcDbLine
10
56.989261
20
0.04818
30
0
11
57
21
0
31
0
39
0
210
0
220
0
230
1
0
LINE
5
8D
100
AcDbEntity
8
1
62
256
6
ByLayer
370
13
48
1
60
0
100
AcDbLine
10
1.454503
20
5.067696
30
0
11
1.454503
21
-5.067696
31
0
39
0
210
0
220
0
230
1
0
LINE
5
8E
100
AcDbEntity
8
1
62
256
6
ByLayer
370
18
48
1
60
0
100
AcDbLine
10
54.432834
20
-2.86721
30
0
11
56.894485
21
-0.123745
31
0
39
0
210
0
220
0
230
1
0
LINE
5
8F
100
AcDbEntity
8
1
62
256
6
ByLayer
370
13
48
1
60
0
100
AcDbLine
10
55.557236
20
0.968682
30
0
11
56.912835
21
0.297496
31
0
39
0
210
0
220
0
230
1
0
LINE
5
90
100
AcDbEntity
8
1
62
256
6
ByLayer
370
18
48
1
60
0
100
AcDbLine
10
0
20
-6
30
0
11
0
21
6
31
0
39
0
210
0
220
0
230
1
0
LINE
5
91
100
AcDbEntity
8
1
62
256
6
ByLayer
370
18
48
1
60
0
100
AcDbLine
10
4.250556
20
-4.840871
30
0
11
4.250559
21
-4.840682
31
0
39
0
210
0
220
0
230
1
0
LINE
5
92
100
AcDbEntity
8
1
62
256
6
ByLayer
370
18
48
1
60
0
100
AcDbLine
10
57
20
0
30
0
11
55.227123
21
-4.870938
31
0
39
0
210
0
220
0
230
1
0
LINE
5
93
100
AcDbEntity
8
1
62
256
6
ByLayer
370
18
48
1
60
0
100
AcDbLine
10
56.912835
20
-0.297496
30
0
11
56.731033
21
-0.968682
31
0
39
0
210
0
220
0
230
1
0
LINE
5
94
100
AcDbEntity
8
1
62
256
6
ByLayer
370
18
48
1
60
0
100
AcDbLine
10
57
20
0
30
0
11
56.989261
21
-0.04818
31
0
39
0
210
0
220
0
230
1
0
LINE
5
95
100
AcDbEntity
8
1
62
256
6
ByLayer
370
13
48
1
60
0
100
AcDbLine
10
55.387777
20
0.622258
30
0
11
56.894485
21
-0.123745
31
0
39
0
210
0
220
0
230
1
0
LINE
5
96
100
AcDbEntity
8
1
62
256
6
ByLayer
370
13
48
1
60
0
100
AcDbLine
10
56.731033
20
0.968682
30
0
11
55.557236
21
0.968682
31
0
39
0
210
0
220
0
230
1
0
LINE
5
97
100
AcDbEntity
8
SK1
62
256
6
ByLayer
370
18
48
1
60
0
100
AcDbLine
10
0
20
-6
30
0
11
0
21
6
31
0
39
0
210
0
220
0
230
1
0
LINE
5
98
100
AcDbEntity
8
SK1
62
256
6
ByLayer
370
18
48
1
60
0
100
AcDbLine
10
-43.556624
20
6
30
0
11
-43.556624
21
-6
31
0
39
0
210
0
220
0
230
1
0
LINE
5
99
100
AcDbEntity
8
SK1
62
256
6
ByLayer
370
18
48
1
60
0
100
AcDbLine
10
-45
20
3.5
30
0
11
-45
21
-3.5
31
0
39
0
210
0
220
0
230
1
0
MTEXT
5
DA
100
AcDbEntity
8
SK6
62
256
6
ByLayer
370
13
48
1
60
0
100
AcDbMText
10
8.129169
20
37.482694
30
0
210
0
220
0
230
1
1
\W0.7542;R840-1020-30-A0A1220
40
3.5
41
0
44
1.084337
50
0
71
8
72
5
7
iso_b_vert
0
DIMENSION
5
E7
100
AcDbEntity
8
SK2
62
256
6
ByLayer
370
13
48
1
60
0
100
AcDbDimension
2
DimnDraft3D1
10
55.25
20
-15.313398
30
0
11
26.000059
21
-15.313398
31
0
70
32
71
5
72
1
41
1
210
0
220
0
230
1
3
Standard
100
AcDbAlignedDimension
13
0
23
-1.5875
33
0
14
55.25
24
-6.6875
34
0
50
0
100
AcDbRotatedDimension
1001
ACAD
1000
DSTYLE
1002
{
1070
   279
1070
     0
1070
   172
1070
     1
1070
   173
1070
     1
1070
   340
1005
DB
1070
   271
1070
     2
1070
   272
1070
     2
1070
    77
1070
     1
1070
    73
1070
     0
1070
   171
1070
     3
1070
   274
1070
     4
1070
   177
1070
    35
1070
   176
1070
    35
1070
   178
1070
    35
1070
    48
1040
-0.005
1070
    41
1041
3.5
1070
   147
1041
1.75
1070
    42
1041
1.5875
1070
    44
1041
2.0
1070
   140
1041
3.5
1070
   343
1005
0
1070
   344
1005
0
1002
}
0
DIMENSION
5
F1
100
AcDbEntity
8
SK2
62
256
6
ByLayer
370
13
48
1
60
0
100
AcDbDimension
2
DimnDraft3D2
10
57
20
-34.692985
30
0
11
5.5913
21
-34.692985
31
0
70
32
71
5
72
1
41
1
210
0
220
0
230
1
3
Standard
100
AcDbAlignedDimension
13
-45
23
-7.5875
33
0
14
57
24
-1.5875
34
0
50
0
100
AcDbRotatedDimension
1001
ACAD
1000
DSTYLE
1002
{
1070
   279
1070
     0
1070
   172
1070
     1
1070
   173
1070
     1
1070
   340
1005
DB
1070
   271
1070
     2
1070
   272
1070
     2
1070
    77
1070
     1
1070
    73
1070
     0
1070
   171
1070
     3
1070
   274
1070
     4
1070
   177
1070
    35
1070
   176
1070
    35
1070
   178
1070
    35
1070
    48
1040
-0.005
1070
    41
1041
3.5
1070
   147
1041
1.75
1070
    42
1041
1.5875
1070
    44
1041
2.0
1070
   140
1041
3.5
1070
   343
1005
0
1070
   344
1005
0
1002
}
0
DIMENSION
5
FB
100
AcDbEntity
8
SK2
62
256
6
ByLayer
370
13
48
1
60
0
100
AcDbDimension
2
DimnDraft3D3
10
57
20
16.709119
30
0
11
40.825
21
16.709119
31
0
70
32
71
5
72
1
41
1
210
0
220
0
230
1
3
Standard
100
AcDbAlignedDimension
13
24.65
23
6.6875
33
0
14
57
24
1.5875
34
0
50
0
100
AcDbRotatedDimension
1001
ACAD
1000
DSTYLE
1002
{
1070
   279
1070
     0
1070
   172
1070
     1
1070
   173
1070
     1
1070
   340
1005
DB
1070
   271
1070
     2
1070
   272
1070
     2
1070
    77
1070
     1
1070
    73
1070
     0
1070
   171
1070
     3
1070
   274
1070
     4
1070
   177
1070
    35
1070
   176
1070
    35
1070
   178
1070
    35
1070
    48
1040
-0.005
1070
    41
1041
3.5
1070
   147
1041
1.75
1070
    42
1041
1.5875
1070
    44
1041
2.0
1070
   140
1041
3.5
1070
   343
1005
0
1070
   344
1005
0
1002
}
0
DIMENSION
5
105
100
AcDbEntity
8
SK2
62
256
6
ByLayer
370
13
48
1
60
0
100
AcDbDimension
2
DimnDraft3D4
10
55.25
20
-17.902503
30
0
11
66.981425
21
-17.902503
31
0
70
32
71
5
72
1
41
1
210
0
220
0
230
1
3
Standard
100
AcDbAlignedDimension
13
57
23
-1.5875
33
0
14
55.25
24
-6.6875
34
0
50
0
100
AcDbRotatedDimension
1001
ACAD
1000
DSTYLE
1002
{
1070
   279
1070
     0
1070
   172
1070
     1
1070
   173
1070
     1
1070
   340
1005
DB
1070
   271
1070
     2
1070
   272
1070
     2
1070
    77
1070
     1
1070
    73
1070
     0
1070
   171
1070
     3
1070
   274
1070
     4
1070
   177
1070
    35
1070
   176
1070
    35
1070
   178
1070
    35
1070
    48
1040
-0.005
1070
    41
1041
3.5
1070
   147
1041
1.75
1070
    42
1041
1.5875
1070
    44
1041
2.0
1070
   140
1041
3.5
1070
   343
1005
0
1070
   344
1005
0
1002
}
0
DIMENSION
5
10F
100
AcDbEntity
8
SK2
62
256
6
ByLayer
370
13
48
1
60
0
100
AcDbDimension
2
DimnDraft3D5
10
55.25
20
-24.343428
30
0
11
2.510676
21
-24.343428
31
0
70
32
71
5
72
1
41
1
210
0
220
0
230
1
3
Standard
100
AcDbAlignedDimension
13
-45
23
-7.5875
33
0
14
55.25
24
-6.6875
34
0
50
0
100
AcDbRotatedDimension
1001
ACAD
1000
DSTYLE
1002
{
1070
   279
1070
     0
1070
   172
1070
     1
1070
   173
1070
     1
1070
   340
1005
DB
1070
   271
1070
     2
1070
   272
1070
     2
1070
    77
1070
     1
1070
    73
1070
     0
1070
   171
1070
     3
1070
   274
1070
     4
1070
   177
1070
    35
1070
   176
1070
    35
1070
   178
1070
    35
1070
    48
1040
-0.005
1070
    41
1041
3.5
1070
   147
1041
1.75
1070
    42
1041
1.5875
1070
    44
1041
2.0
1070
   140
1041
3.5
1070
   343
1005
0
1070
   344
1005
0
1002
}
0
DIMENSION
5
11A
100
AcDbEntity
8
SK2
62
256
6
ByLayer
370
13
48
1
60
0
100
AcDbDimension
2
DimnDraft3D6
10
-55.625163
20
6
30
0
11
-56.250163
21
24.47418
31
0
70
33
71
5
72
1
41
1
210
0
220
0
230
1
3
Standard
100
AcDbAlignedDimension
13
-46.5875
23
-6
33
0
14
-46.5875
24
6
34
0
1001
ACAD
1000
DSTYLE
1002
{
1070
   279
1070
     0
1070
    74
1070
     0
1070
   173
1070
     1
1070
   340
1005
DB
1070
   271
1070
     3
1070
   272
1070
     2
1070
    77
1070
     1
1070
    73
1070
     0
1070
   171
1070
     3
1070
   274
1070
     4
1070
   177
1070
    35
1070
   176
1070
    35
1070
   178
1070
    35
1070
    48
1040
-0.005
1070
    41
1041
3.5
1070
   147
1041
1.75
1070
    42
1041
1.5875
1070
    44
1041
2.0
1070
   140
1041
3.5
1070
   343
1005
0
1070
   344
1005
0
1002
}
0
DIMENSION
5
125
100
AcDbEntity
8
2
62
256
6
ByLayer
370
13
48
1
60
0
100
AcDbDimension
2
DimnDraft3D7
10
71.083343
20
5.1
30
0
11
66.458343
21
22.167266
31
0
70
33
71
5
72
1
41
1
210
0
220
0
230
1
3
Standard
100
AcDbAlignedDimension
13
56.8375
23
-5.1
33
0
14
56.8375
24
5.1
34
0
1001
ACAD
1000
DSTYLE
1002
{
1070
   279
1070
     0
1070
    74
1070
     0
1070
   173
1070
     1
1070
   340
1005
DB
1070
   271
1070
     3
1070
   272
1070
     2
1070
    77
1070
     1
1070
    73
1070
     0
1070
   171
1070
     3
1070
   274
1070
     4
1070
   177
1070
    35
1070
   176
1070
    35
1070
   178
1070
    35
1070
    48
1040
-0.005
1070
    41
1041
3.5
1070
   147
1041
1.75
1070
    42
1041
1.5875
1070
    44
1041
2.0
1070
   140
1041
3.5
1070
   343
1005
0
1070
   344
1005
0
1002
}
0
ENDSEC
0
SECTION
2
OBJECTS
0
DICTIONARY
5
190
330
0
100
AcDbDictionary
280
0
281
1
3
ACAD_GROUP
350
191
3
ACAD_MLINESTYLE
350
192
0
DICTIONARY
5
191
330
0
100
AcDbDictionary
280
0
281
1
0
DICTIONARY
5
192
330
0
100
AcDbDictionary
280
0
281
1
3
Standard
350
18
0
MLINESTYLE
5
18
330
192
100
AcDbMlineStyle
2
Standard
70
0
3

62
256
51
90
52
90
71
2
49
-0.5
62
256
6
ByLayer
49
0.5
62
256
6
ByLayer
0
RASTERVARIABLES
5
17e
330

100
AcDbRasterVariables
90
0
70
1
71
1
72
1
0
ENDSEC
0
EOF
