0
SECTION
2
HEADER
9
$ACADVER
1
AC1015
9
$DWGCODEPAGE
3
ANSI_1252
9
$HANDSEED
5
19d
9
$ANGBASE
50
0
9
$ANGDIR
70
0
9
$ATTMODE
70
1
9
$AUNITS
70
0
9
$AUPREC
70
0
9
$CECOLOR
62
256
9
$CELTSCALE
40
1
9
$CELTYPE
6
ByLayer
9
$CELWEIGHT
370
18
9
$CLAYER
8
0
9
$CMLJUST
70
0
9
$CMLSCALE
40
1
9
$CMLSTYLE
2
Standard
9
$DIMSTYLE
2
Standard
9
$TEXTSIZE
40
0.2
9
$TEXTSTYLE
7
Standard
9
$LUNITS
70
2
9
$LUPREC
70
4
9
$EXTNAMES
290
1
9
$INSUNITS
70
4
9
$LTSCALE
40
1
9
$LWDISPLAY
290
1
9
$PDMODE
70
0
9
$PDSIZE
40
0
9
$PLINEGEN
70
0
0
ENDSEC
0
SECTION
2
CLASSES
0
CLASS
1
RASTERVARIABLES
2
AcDbRasterVariables
3
ISM
90
0
280
0
281
0
0
ENDSEC
0
SECTION
2
TABLES
0
TABLE
2
VPORT
5
193
100
AcDbSymbolTable
0
VPORT
5
1
100
AcDbSymbolTableRecord
100
AcDbViewportTableRecord
2
*Active
70
0
10
0
20
0
11
1
21
1
12
-1
22
1
13
0
23
0
14
0.5
24
0.5
15
10
25
10
16
0
26
0
36
1
17
0
27
0
37
0
0
ENDTAB
0
TABLE
2
LTYPE
5
194
100
AcDbSymbolTable
0
LTYPE
5
14
100
AcDbSymbolTableRecord
100
AcDbLinetypeTableRecord
70
0
2
ByBlock
3

72
65
73
0
40
0
0
LTYPE
5
15
100
AcDbSymbolTableRecord
100
AcDbLinetypeTableRecord
70
0
2
ByLayer
3

72
65
73
0
40
0
0
LTYPE
5
16
100
AcDbSymbolTableRecord
100
AcDbLinetypeTableRecord
70
0
2
CONTINUOUS
3
Solid line
72
65
73
0
40
0
0
LTYPE
5
6A
100
AcDbSymbolTableRecord
100
AcDbLinetypeTableRecord
70
0
2
CENTER
3
____ _ ____ _ ____ _ ____
72
65
73
4
40
47.5
49
22
74
0
49
-8.5
74
0
49
8.5
74
0
49
-8.5
74
0
0
LTYPE
5
6B
100
AcDbSymbolTableRecord
100
AcDbLinetypeTableRecord
70
0
2
DASHED
3
__ __ __ __ __ __ __ __ __
72
65
73
2
40
25.72
49
12.86
74
0
49
-12.86
74
0
0
ENDTAB
0
TABLE
2
LAYER
5
195
100
AcDbSymbolTable
0
LAYER
5
10
100
AcDbSymbolTableRecord
100
AcDbLayerTableRecord
2
0
70
0
62
7
6
CONTINUOUS
290
1
370
-3
390
0
0
LAYER
5
6D
100
AcDbSymbolTableRecord
100
AcDbLayerTableRecord
2
81
70
0
62
-3
6
CONTINUOUS
290
1
370
-3
390
0
0
LAYER
5
6F
100
AcDbSymbolTableRecord
100
AcDbLayerTableRecord
2
80
70
0
62
-6
6
CONTINUOUS
290
1
370
-3
390
0
0
LAYER
5
74
100
AcDbSymbolTableRecord
100
AcDbLayerTableRecord
2
2
70
0
62
7
6
CONTINUOUS
290
1
370
-3
390
0
0
LAYER
5
78
100
AcDbSymbolTableRecord
100
AcDbLayerTableRecord
2
1
70
0
62
4
6
CONTINUOUS
290
1
370
-3
390
0
0
LAYER
5
86
100
AcDbSymbolTableRecord
100
AcDbLayerTableRecord
2
4
70
0
62
-2
6
CENTER
290
1
370
-3
390
0
0
LAYER
5
17f
100
AcDbSymbolTableRecord
100
AcDbLayerTableRecord
2
SK2
70
0
62
7
6
CONTINUOUS
290
1
370
-3
390
0
0
LAYER
5
180
100
AcDbSymbolTableRecord
100
AcDbLayerTableRecord
2
SK1
70
0
62
4
6
CONTINUOUS
290
1
370
-3
390
0
0
LAYER
5
181
100
AcDbSymbolTableRecord
100
AcDbLayerTableRecord
2
SK4
70
0
62
2
6
CENTER
290
1
370
-3
390
0
0
LAYER
5
182
100
AcDbSymbolTableRecord
100
AcDbLayerTableRecord
2
SK6
70
0
62
5
6
CONTINUOUS
290
1
370
-3
390
0
0
ENDTAB
0
TABLE
2
STYLE
5
196
100
AcDbSymbolTable
0
STYLE
5
11
100
AcDbSymbolTableRecord
100
AcDbTextStyleTableRecord
2
Standard
3
txt
70
0
71
0
40
0
41
1
42
0
50
0
0
STYLE
5
DB
100
AcDbSymbolTableRecord
100
AcDbTextStyleTableRecord
2
iso_b_vert
3
simplex.shx
70
0
71
0
40
0
41
1
42
0
50
0
0
STYLE
5
DC
100
AcDbSymbolTableRecord
100
AcDbTextStyleTableRecord
2
DWGDirectTextStyle
3
simplex
70
0
71
0
40
0
41
1
42
0
50
0
0
ENDTAB
0
TABLE
2
DIMSTYLE
5
197
100
AcDbSymbolTable
100
AcDbDimStyleTable
0
DIMSTYLE
105
27
100
AcDbSymbolTableRecord
100
AcDbDimStyleTableRecord
2
Standard
70
0
3
<>
41
0.18
42
0.0625
44
0.18
140
0.18
147
0.09
73
0
74
0
77
1
271
2
275
0
278
52
280
0
340
11
0
ENDTAB
0
TABLE
2
VIEW
5
198
100
AcDbSymbolTable
0
ENDTAB
0
TABLE
2
UCS
5
199
100
AcDbSymbolTable
0
ENDTAB
0
TABLE
2
APPID
5
19a
100
AcDbSymbolTable
0
APPID
5
12
100
AcDbSymbolTableRecord
100
AcDbRegAppTableRecord
2
ACAD
70
0
0
ENDTAB
0
TABLE
2
BLOCK_RECORD
5
19b
100
AcDbSymbolTable
0
BLOCK_RECORD
5
1F
100
AcDbSymbolTableRecord
100
AcDbBlockTableRecord
2
*Model_Space
340
0
70
0
0
BLOCK_RECORD
5
1B
100
AcDbSymbolTableRecord
100
AcDbBlockTableRecord
2
*Paper_Space
340
0
70
0
0
BLOCK_RECORD
5
23
100
AcDbSymbolTableRecord
100
AcDbBlockTableRecord
2
*Paper_Space0
340
0
70
0
0
BLOCK_RECORD
5
DE
100
AcDbSymbolTableRecord
100
AcDbBlockTableRecord
2
DimnDraft3D1
340
0
70
0
0
BLOCK_RECORD
5
E8
100
AcDbSymbolTableRecord
100
AcDbBlockTableRecord
2
DimnDraft3D2
340
0
70
0
0
BLOCK_RECORD
5
F2
100
AcDbSymbolTableRecord
100
AcDbBlockTableRecord
2
DimnDraft3D3
340
0
70
0
0
BLOCK_RECORD
5
FC
100
AcDbSymbolTableRecord
100
AcDbBlockTableRecord
2
DimnDraft3D4
340
0
70
0
0
BLOCK_RECORD
5
106
100
AcDbSymbolTableRecord
100
AcDbBlockTableRecord
2
DimnDraft3D5
340
0
70
0
0
BLOCK_RECORD
5
110
100
AcDbSymbolTableRecord
100
AcDbBlockTableRecord
2
DimnDraft3D6
340
0
70
0
0
BLOCK_RECORD
5
11B
100
AcDbSymbolTableRecord
100
AcDbBlockTableRecord
2
DimnDraft3D7
340
0
70
0
0
ENDTAB
0
ENDSEC
0
SECTION
2
BLOCKS
0
BLOCK
5
20
100
AcDbEntity
8
0
100
AcDbBlockBegin
2
*Model_Space
70
0
10
0
20
0
30
0
3
*Model_Space
0
ENDBLK
5
21
100
AcDbEntity
8
0
100
AcDbBlockEnd
0
BLOCK
5
1C
100
AcDbEntity
8
0
100
AcDbBlockBegin
2
*Paper_Space
70
0
10
0
20
0
30
0
3
*Paper_Space
0
ENDBLK
5
1D
100
AcDbEntity
8
0
100
AcDbBlockEnd
0
BLOCK
5
24
100
AcDbEntity
8
0
100
AcDbBlockBegin
2
*Paper_Space0
70
0
10
0
20
0
30
0
3
*Paper_Space0
0
ENDBLK
5
25
100
AcDbEntity
8
0
100
AcDbBlockEnd
0
BLOCK
5
E5
100
AcDbEntity
8
0
100
AcDbBlockBegin
2
DimnDraft3D1
70
0
10
0
20
0
30
0
3
DimnDraft3D1
0
MTEXT
5
DF
100
AcDbEntity
8
SK2
62
256
6
ByLayer
370
13
48
1
60
0
100
AcDbMText
10
21.571375
20
-14.388398
30
0
210
0
220
0
230
1
1
\W0.7317;55,27
40
3.5
41
0
44
1.084337
50
0
71
7
72
5
7
iso_b_vert
0
LINE
5
E0
100
AcDbEntity
8
SK2
62
256
6
ByLayer
370
13
48
1
60
0
100
AcDbLine
10
0
20
-1.5875
30
0
11
0
21
-17.263398
31
0
39
0
210
0
220
0
230
1
0
LINE
5
E1
100
AcDbEntity
8
SK2
62
256
6
ByLayer
370
13
48
1
60
0
100
AcDbLine
10
55.27
20
-6.6375
30
0
11
55.27
21
-17.263398
31
0
39
0
210
0
220
0
230
1
0
LINE
5
E2
100
AcDbEntity
8
SK2
62
256
6
ByLayer
370
13
48
1
60
0
100
AcDbLine
10
0
20
-15.263398
30
0
11
55.27
21
-15.263398
31
0
39
0
210
0
220
0
230
1
0
SOLID
5
E3
100
AcDbEntity
8
SK2
62
256
6
ByLayer
370
13
48
1
60
0
100
AcDbTrace
10
0
20
-15.263398
30
0
11
3.499998
21
-14.802615
31
0
12
3.500002
22
-15.724182
32
0
13
0
23
-15.263398
33
0
39
0
210
0
220
0
230
1
0
SOLID
5
E4
100
AcDbEntity
8
SK2
62
256
6
ByLayer
370
13
48
1
60
0
100
AcDbTrace
10
55.27
20
-15.263398
30
0
11
51.770002
21
-15.724182
31
0
12
51.769998
22
-14.802615
32
0
13
55.27
23
-15.263398
33
0
39
0
210
0
220
0
230
1
0
ENDBLK
5
E6
100
AcDbEntity
8
0
100
AcDbBlockEnd
0
BLOCK
5
EF
100
AcDbEntity
8
0
100
AcDbBlockBegin
2
DimnDraft3D2
70
0
10
0
20
0
30
0
3
DimnDraft3D2
0
MTEXT
5
E9
100
AcDbEntity
8
SK2
62
256
6
ByLayer
370
13
48
1
60
0
100
AcDbMText
10
0.292221
20
-33.817985
30
0
210
0
220
0
230
1
1
\W0.6930;102,00
40
3.5
41
0
44
1.084337
50
0
71
7
72
5
7
iso_b_vert
0
LINE
5
EA
100
AcDbEntity
8
SK2
62
256
6
ByLayer
370
13
48
1
60
0
100
AcDbLine
10
-45
20
-7.5875
30
0
11
-45
21
-36.692985
31
0
39
0
210
0
220
0
230
1
0
LINE
5
EB
100
AcDbEntity
8
SK2
62
256
6
ByLayer
370
13
48
1
60
0
100
AcDbLine
10
57
20
-1.5875
30
0
11
57
21
-36.692985
31
0
39
0
210
0
220
0
230
1
0
LINE
5
EC
100
AcDbEntity
8
SK2
62
256
6
ByLayer
370
13
48
1
60
0
100
AcDbLine
10
-45
20
-34.692985
30
0
11
57
21
-34.692985
31
0
39
0
210
0
220
0
230
1
0
SOLID
5
ED
100
AcDbEntity
8
SK2
62
256
6
ByLayer
370
13
48
1
60
0
100
AcDbTrace
10
-45
20
-34.692985
30
0
11
-41.500002
21
-34.232202
31
0
12
-41.499998
22
-35.153769
32
0
13
-45
23
-34.692985
33
0
39
0
210
0
220
0
230
1
0
SOLID
5
EE
100
AcDbEntity
8
SK2
62
256
6
ByLayer
370
13
48
1
60
0
100
AcDbTrace
10
57
20
-34.692985
30
0
11
53.500002
21
-35.153769
31
0
12
53.499998
22
-34.232202
32
0
13
57
23
-34.692985
33
0
39
0
210
0
220
0
230
1
0
ENDBLK
5
F0
100
AcDbEntity
8
0
100
AcDbBlockEnd
0
BLOCK
5
F9
100
AcDbEntity
8
0
100
AcDbBlockBegin
2
DimnDraft3D3
70
0
10
0
20
0
30
0
3
DimnDraft3D3
0
MTEXT
5
F3
100
AcDbEntity
8
SK2
62
256
6
ByLayer
370
13
48
1
60
0
100
AcDbMText
10
36.536316
20
17.534119
30
0
210
0
220
0
230
1
1
\W0.7317;32,03
40
3.5
41
0
44
1.084337
50
0
71
7
72
5
7
iso_b_vert
0
LINE
5
F4
100
AcDbEntity
8
SK2
62
256
6
ByLayer
370
13
48
1
60
0
100
AcDbLine
10
24.97
20
6.6375
30
0
11
24.97
21
18.659119
31
0
39
0
210
0
220
0
230
1
0
LINE
5
F5
100
AcDbEntity
8
SK2
62
256
6
ByLayer
370
13
48
1
60
0
100
AcDbLine
10
57
20
1.5875
30
0
11
57
21
18.659119
31
0
39
0
210
0
220
0
230
1
0
LINE
5
F6
100
AcDbEntity
8
SK2
62
256
6
ByLayer
370
13
48
1
60
0
100
AcDbLine
10
24.97
20
16.659119
30
0
11
57
21
16.659119
31
0
39
0
210
0
220
0
230
1
0
SOLID
5
F7
100
AcDbEntity
8
SK2
62
256
6
ByLayer
370
13
48
1
60
0
100
AcDbTrace
10
24.97
20
16.659119
30
0
11
28.469998
21
17.119903
31
0
12
28.470002
22
16.198335
32
0
13
24.97
23
16.659119
33
0
39
0
210
0
220
0
230
1
0
SOLID
5
F8
100
AcDbEntity
8
SK2
62
256
6
ByLayer
370
13
48
1
60
0
100
AcDbTrace
10
57
20
16.659119
30
0
11
53.500002
21
16.198335
31
0
12
53.499998
22
17.119903
32
0
13
57
23
16.659119
33
0
39
0
210
0
220
0
230
1
0
ENDBLK
5
FA
100
AcDbEntity
8
0
100
AcDbBlockEnd
0
BLOCK
5
103
100
AcDbEntity
8
0
100
AcDbBlockBegin
2
DimnDraft3D4
70
0
10
0
20
0
30
0
3
DimnDraft3D4
0
MTEXT
5
FD
100
AcDbEntity
8
SK2
62
256
6
ByLayer
370
13
48
1
60
0
100
AcDbMText
10
64.278136
20
-16.977503
30
0
210
0
220
0
230
1
1
\W0.6367;1,73
40
3.5
41
0
44
1.084337
50
0
71
7
72
5
7
iso_b_vert
0
LINE
5
FE
100
AcDbEntity
8
SK2
62
256
6
ByLayer
370
13
48
1
60
0
100
AcDbLine
10
57
20
-1.5875
30
0
11
57
21
-19.852503
31
0
39
0
210
0
220
0
230
1
0
LINE
5
FF
100
AcDbEntity
8
SK2
62
256
6
ByLayer
370
13
48
1
60
0
100
AcDbLine
10
55.27
20
-6.6375
30
0
11
55.27
21
-19.852503
31
0
39
0
210
0
220
0
230
1
0
LINE
5
100
100
AcDbEntity
8
SK2
62
256
6
ByLayer
370
13
48
1
60
0
100
AcDbLine
10
46.52
20
-17.852503
30
0
11
70.559715
21
-17.852503
31
0
39
0
210
0
220
0
230
1
0
SOLID
5
101
100
AcDbEntity
8
SK2
62
256
6
ByLayer
370
13
48
1
60
0
100
AcDbTrace
10
57
20
-17.852503
30
0
11
60.499998
21
-17.391719
31
0
12
60.500002
22
-18.313287
32
0
13
57
23
-17.852503
33
0
39
0
210
0
220
0
230
1
0
SOLID
5
102
100
AcDbEntity
8
SK2
62
256
6
ByLayer
370
13
48
1
60
0
100
AcDbTrace
10
55.27
20
-17.852503
30
0
11
51.770002
21
-18.313287
31
0
12
51.769998
22
-17.391719
32
0
13
55.27
23
-17.852503
33
0
39
0
210
0
220
0
230
1
0
ENDBLK
5
104
100
AcDbEntity
8
0
100
AcDbBlockEnd
0
BLOCK
5
10D
100
AcDbEntity
8
0
100
AcDbBlockBegin
2
DimnDraft3D5
70
0
10
0
20
0
30
0
3
DimnDraft3D5
0
MTEXT
5
107
100
AcDbEntity
8
SK2
62
256
6
ByLayer
370
13
48
1
60
0
100
AcDbMText
10
-2.788403
20
-23.468428
30
0
210
0
220
0
230
1
1
\W0.6930;100,27
40
3.5
41
0
44
1.084337
50
0
71
7
72
5
7
iso_b_vert
0
LINE
5
108
100
AcDbEntity
8
SK2
62
256
6
ByLayer
370
13
48
1
60
0
100
AcDbLine
10
-45
20
-7.5875
30
0
11
-45
21
-26.343428
31
0
39
0
210
0
220
0
230
1
0
LINE
5
109
100
AcDbEntity
8
SK2
62
256
6
ByLayer
370
13
48
1
60
0
100
AcDbLine
10
55.27
20
-6.6375
30
0
11
55.27
21
-26.343428
31
0
39
0
210
0
220
0
230
1
0
LINE
5
10A
100
AcDbEntity
8
SK2
62
256
6
ByLayer
370
13
48
1
60
0
100
AcDbLine
10
-45
20
-24.343428
30
0
11
55.27
21
-24.343428
31
0
39
0
210
0
220
0
230
1
0
SOLID
5
10B
100
AcDbEntity
8
SK2
62
256
6
ByLayer
370
13
48
1
60
0
100
AcDbTrace
10
-45
20
-24.343428
30
0
11
-41.500002
21
-23.882645
31
0
12
-41.499998
22
-24.804212
32
0
13
-45
23
-24.343428
33
0
39
0
210
0
220
0
230
1
0
SOLID
5
10C
100
AcDbEntity
8
SK2
62
256
6
ByLayer
370
13
48
1
60
0
100
AcDbTrace
10
55.27
20
-24.343428
30
0
11
51.770002
21
-24.804212
31
0
12
51.769998
22
-23.882645
32
0
13
55.27
23
-24.343428
33
0
39
0
210
0
220
0
230
1
0
ENDBLK
5
10E
100
AcDbEntity
8
0
100
AcDbBlockEnd
0
BLOCK
5
118
100
AcDbEntity
8
0
100
AcDbBlockBegin
2
DimnDraft3D6
70
0
10
0
20
0
30
0
3
DimnDraft3D6
0
MTEXT
5
111
100
AcDbEntity
8
SK2
62
256
6
ByLayer
370
13
48
1
60
0
100
AcDbMText
10
-55.375163
20
25.34918
30
0
210
0
220
0
230
1
1
\W0.6930;12,000
40
3.5
41
0
44
1.084337
50
90
71
7
72
5
7
iso_b_vert
0
MTEXT
5
112
100
AcDbEntity
8
SK2
62
256
6
ByLayer
370
13
48
1
60
0
100
AcDbMText
10
-55.375163
20
20.126524
30
0
210
0
220
0
230
1
1
%%c
40
3.5
41
0
44
1.084337
50
90
71
7
72
5
7
iso_b_vert
0
LINE
5
113
100
AcDbEntity
8
SK2
62
256
6
ByLayer
370
13
48
1
60
0
100
AcDbLine
10
-46.5875
20
-6
30
0
11
-55.625163
21
-6
31
0
39
0
210
0
220
0
230
1
0
LINE
5
114
100
AcDbEntity
8
SK2
62
256
6
ByLayer
370
13
48
1
60
0
100
AcDbLine
10
-46.5875
20
6
30
0
11
-55.625163
21
6
31
0
39
0
210
0
220
0
230
1
0
LINE
5
115
100
AcDbEntity
8
SK2
62
256
6
ByLayer
370
13
48
1
60
0
100
AcDbLine
10
-53.625163
20
-6
30
0
11
-53.625163
21
36.862338
31
0
39
0
210
0
220
0
230
1
0
SOLID
5
116
100
AcDbEntity
8
SK2
62
256
6
ByLayer
370
13
48
1
60
0
100
AcDbTrace
10
-53.625163
20
-6
30
0
11
-54.085946
21
-2.500002
31
0
12
-53.164379
22
-2.499998
32
0
13
-53.625163
23
-6
33
0
39
0
210
0
220
0
230
1
0
SOLID
5
117
100
AcDbEntity
8
SK2
62
256
6
ByLayer
370
13
48
1
60
0
100
AcDbTrace
10
-53.625163
20
6
30
0
11
-53.164379
21
2.500002
31
0
12
-54.085946
22
2.499998
32
0
13
-53.625163
23
6
33
0
39
0
210
0
220
0
230
1
0
ENDBLK
5
119
100
AcDbEntity
8
0
100
AcDbBlockEnd
0
BLOCK
5
123
100
AcDbEntity
8
0
100
AcDbBlockBegin
2
DimnDraft3D7
70
0
10
0
20
0
30
0
3
DimnDraft3D7
0
MTEXT
5
11C
100
AcDbEntity
8
2
62
256
6
ByLayer
370
13
48
1
60
0
100
AcDbMText
10
67.333343
20
22.992266
30
0
210
0
220
0
230
1
1
\W0.6440;10,100
40
3.5
41
0
44
1.084337
50
90
71
7
72
5
7
iso_b_vert
0
MTEXT
5
11D
100
AcDbEntity
8
2
62
256
6
ByLayer
370
13
48
1
60
0
100
AcDbMText
10
67.333343
20
17.76961
30
0
210
0
220
0
230
1
1
%%c
40
3.5
41
0
44
1.084337
50
90
71
7
72
5
7
iso_b_vert
0
LINE
5
11E
100
AcDbEntity
8
2
62
256
6
ByLayer
370
13
48
1
60
0
100
AcDbLine
10
56.8575
20
-5.05
30
0
11
71.083343
21
-5.05
31
0
39
0
210
0
220
0
230
1
0
LINE
5
11F
100
AcDbEntity
8
2
62
256
6
ByLayer
370
13
48
1
60
0
100
AcDbLine
10
56.8575
20
5.05
30
0
11
71.083343
21
5.05
31
0
39
0
210
0
220
0
230
1
0
LINE
5
120
100
AcDbEntity
8
2
62
256
6
ByLayer
370
13
48
1
60
0
100
AcDbLine
10
69.083343
20
-5.05
30
0
11
69.083343
21
33.630424
31
0
39
0
210
0
220
0
230
1
0
SOLID
5
121
100
AcDbEntity
8
2
62
256
6
ByLayer
370
13
48
1
60
0
100
AcDbTrace
10
69.083343
20
-5.05
30
0
11
68.622559
21
-1.550002
31
0
12
69.544126
22
-1.549998
32
0
13
69.083343
23
-5.05
33
0
39
0
210
0
220
0
230
1
0
SOLID
5
122
100
AcDbEntity
8
2
62
256
6
ByLayer
370
13
48
1
60
0
100
AcDbTrace
10
69.083343
20
5.05
30
0
11
69.544126
21
1.550002
31
0
12
68.622559
22
1.549998
32
0
13
69.083343
23
5.05
33
0
39
0
210
0
220
0
230
1
0
ENDBLK
5
124
100
AcDbEntity
8
0
100
AcDbBlockEnd
0
ENDSEC
0
SECTION
2
ENTITIES
0
ARC
5
99
100
AcDbEntity
8
1
62
256
6
ByLayer
370
18
48
1
60
0
100
AcDbCircle
39
0
10
0
20
5.2
30
0
40
0.799999999999999
210
0
220
0
230
1
100
AcDbArc
50
22.709666
51
90
0
ARC
5
9A
100
AcDbEntity
8
1
62
256
6
ByLayer
370
18
48
1
60
0
100
AcDbCircle
39
0
10
0
20
-5.2
30
0
40
0.799999999999999
210
0
220
0
230
1
100
AcDbArc
50
270
51
337.290334
0
ARC
5
9B
100
AcDbEntity
8
1
62
256
6
ByLayer
370
18
48
1
60
0
100
AcDbCircle
39
0
10
-1.475957
20
-5.817699
30
0
40
0.799999999999999
210
0
220
0
230
-1
100
AcDbArc
50
22.709666
51
90.034377
0
ARC
5
9C
100
AcDbEntity
8
1
62
256
6
ByLayer
370
18
48
1
60
0
100
AcDbCircle
39
0
10
-1.475957
20
5.817699
30
0
40
0.799999999999999
210
0
220
0
230
-1
100
AcDbArc
50
269.965623
51
337.290334
0
ELLIPSE
5
9D
100
AcDbEntity
8
1
62
256
6
ByLayer
370
18
48
1
60
0
100
AcDbEllipse
10
4.25
20
-5.042706
30
0
11
-0.25
21
3.06151588455594E-17
31
0
210
0
220
0
230
1
40
0.999966
41
-1.56976886880221
42
-0.0576379591273814
0
ELLIPSE
5
9E
100
AcDbEntity
8
1
62
256
6
ByLayer
370
18
48
1
60
0
100
AcDbEllipse
10
4.25
20
5.042706
30
0
11
-0.25
21
3.06151588455594E-17
31
0
210
0
220
0
230
1
40
0.999966
41
0.0576379591273921
42
1.57639099141508
0
ELLIPSE
5
9F
100
AcDbEntity
8
1
62
256
6
ByLayer
370
18
48
1
60
0
100
AcDbEllipse
10
57.02504
20
0.029082
30
0
11
0.135658546037898
21
-0.401200806241183
31
0
210
0
220
0
230
-1
40
0.065863
41
1.63948741840938
42
2.32292776273569
0
ELLIPSE
5
A0
100
AcDbEntity
8
1
62
256
6
ByLayer
370
18
48
1
60
0
100
AcDbEllipse
10
56.860476
20
0.110561
30
0
11
0.0868803724494711
21
0.290676908893853
31
0
210
0
220
0
230
-1
40
0.467765
41
1.64771411674298
42
2.36053717394099
0
ELLIPSE
5
A1
100
AcDbEntity
8
1
62
256
6
ByLayer
370
13
48
1
60
0
100
AcDbEllipse
10
55.56709
20
0.750945
30
0
11
0.133113781883898
21
0.268850741253518
31
0
210
0
220
0
230
1
40
0.40558
41
0.884485917130805
42
2.28074931872644
0
ELLIPSE
5
A2
100
AcDbEntity
8
1
62
256
6
ByLayer
370
13
48
1
60
0
100
AcDbEllipse
10
56.141887
20
2.328558
30
0
11
3.43256047792093
21
-1.76464269750637
31
0
210
0
220
0
230
-1
40
0.482873
41
1.53949524921684
42
1.82999515446871
0
ELLIPSE
5
A3
100
AcDbEntity
8
1
62
256
6
ByLayer
370
18
48
1
60
0
100
AcDbEllipse
10
57.000428
20
0.001103
30
0
11
1.85174574856227
21
5.04872261832369
31
0
210
0
220
0
230
-1
40
0.082138
41
2.88847466761105
42
2.98393100704026
0
ELLIPSE
5
A4
100
AcDbEntity
8
1
62
256
6
ByLayer
370
13
48
1
60
0
100
AcDbEllipse
10
56.311346
20
2.46285
30
0
11
3.47727760242448
21
-1.4566011019924
31
0
210
0
220
0
230
-1
40
0.443375
41
1.59918319335334
42
1.89789815464622
0
ELLIPSE
5
A5
100
AcDbEntity
8
1
62
256
6
ByLayer
370
18
48
1
60
0
100
AcDbEllipse
10
57.000428
20
-0.001103
30
0
11
1.85174574076978
21
-5.04872259602478
31
0
210
0
220
0
230
-1
40
0.082138
41
-2.98393100669201
42
-2.88847466704933
0
ELLIPSE
5
A6
100
AcDbEntity
8
1
62
256
6
ByLayer
370
18
48
1
60
0
100
AcDbEllipse
10
56.047044
20
-2.46285
30
0
11
0.777577204483786
21
2.12003814980784
31
0
210
0
220
0
230
-1
40
0.082138
41
0.755280950346242
42
1.54995079872003
0
ELLIPSE
5
A7
100
AcDbEntity
8
1
62
256
6
ByLayer
370
18
48
1
60
0
100
AcDbEllipse
10
56.047044
20
2.46285
30
0
11
0.777577204509807
21
-2.12003814986808
31
0
210
0
220
0
230
-1
40
0.082138
41
-1.54995079870012
42
-0.755280950347223
0
ELLIPSE
5
A8
100
AcDbEntity
8
1
62
256
6
ByLayer
370
18
48
1
60
0
100
AcDbEllipse
10
57.02504
20
-0.029082
30
0
11
0.135658546062448
21
0.401200806304771
31
0
210
0
220
0
230
-1
40
0.065863
41
-2.32292776272518
42
-1.63948741850034
0
POINT
5
6C
100
AcDbEntity
8
81
62
256
6
ByLayer
370
18
48
1
60
0
100
AcDbPoint
10
57
20
0
30
0
39
0
210
0
220
0
230
1
50
360
0
POINT
5
6E
100
AcDbEntity
8
80
62
256
6
ByLayer
370
18
48
1
60
0
100
AcDbPoint
10
0
20
0
30
0
39
0
210
0
220
0
230
1
50
360
0
POINT
5
70
100
AcDbEntity
8
SK2
62
256
6
ByLayer
370
18
48
1
60
1
100
AcDbPoint
10
-45
20
-6
30
0
39
0
210
0
220
0
230
1
50
360
0
POINT
5
72
100
AcDbEntity
8
SK2
62
256
6
ByLayer
370
18
48
1
60
1
100
AcDbPoint
10
-45
20
6
30
0
39
0
210
0
220
0
230
1
50
360
0
POINT
5
73
100
AcDbEntity
8
2
62
256
6
ByLayer
370
18
48
1
60
1
100
AcDbPoint
10
55.27
20
-5.05
30
0
39
0
210
0
220
0
230
1
50
360
0
POINT
5
75
100
AcDbEntity
8
2
62
256
6
ByLayer
370
18
48
1
60
1
100
AcDbPoint
10
55.27
20
5.05
30
0
39
0
210
0
220
0
230
1
50
360
0
SPLINE
5
A9
100
AcDbEntity
8
1
62
256
6
ByLayer
370
18
48
1
60
0
100
AcDbSpline
70
4
71
1
72
4
73
2
40
0
40
0
40
1
40
1
41
1
10
39.0453914343265
20
-0.0001310712135592
30
0
41
1
10
39.0453755014676
20
-0.0001226552248283
30
0
0
SPLINE
5
AA
100
AcDbEntity
8
1
62
256
6
ByLayer
370
18
48
1
60
0
100
AcDbSpline
70
4
71
3
72
32
73
28
40
0
40
0
40
0
40
0
40
0.0586929156500756
40
0.109688228078804
40
0.150039022964903
40
0.185281523125394
40
0.216004178483913
40
0.243499304717399
40
0.268176933041302
40
0.295865195406848
40
0.334585378864728
40
0.382293532469501
40
0.427147039687544
40
0.465592049369793
40
0.498606030727
40
0.529282763686672
40
0.567679211128921
40
0.617861769829317
40
0.67225905506293
40
0.711758294670318
40
0.759182506317647
40
0.821106567846255
40
0.862409114893825
40
0.895057027759541
40
0.923993669949423
40
0.962197538613183
40
1
40
1
40
1
40
1
41
1
10
24.2805877110804
20
-4.80440400084166
30
0
41
1
10
24.5669549695124
20
-4.80463802438319
30
0
41
1
10
25.1022278730765
20
-4.80500814541898
30
0
41
1
10
25.8364134172052
20
-4.80503944988521
30
0
41
1
10
26.4533631900912
20
-4.80540317518427
30
0
41
1
10
26.972779537141
20
-4.80535627235335
30
0
41
1
10
27.4296315233864
20
-4.80647550397575
30
0
41
1
10
27.8347684046992
20
-4.8072206602985
30
0
41
1
10
28.2251112588904
20
-4.80729917516953
30
0
41
1
10
28.6702682971455
20
-4.8073014925676
30
0
41
1
10
29.2280085521576
20
-4.80713139479391
30
0
41
1
10
29.8696662395935
20
-4.80644022246412
30
0
41
1
10
30.5099801279177
20
-4.80842778847438
30
0
41
1
10
31.078455443125
20
-4.80947135984766
30
0
41
1
10
31.5776195259988
20
-4.80860440069892
30
0
41
1
10
32.076579852749
20
-4.80815109239643
30
0
41
1
10
32.6594613576913
20
-4.80760569006961
30
0
41
1
10
33.3582782335449
20
-4.80814495660445
30
0
41
1
10
34.0624785356088
20
-4.81075282286861
30
0
41
1
10
34.7532068804051
20
-4.81031555464284
30
0
41
1
10
35.4807148627232
20
-4.81093544852288
30
0
41
1
10
36.2170407981887
20
-4.8096209211086
30
0
41
1
10
36.8811509491789
20
-4.8117467390947
30
0
41
1
10
37.3838804187029
20
-4.81192048368686
30
0
41
1
10
37.8714216323007
20
-4.81157032295206
30
0
41
1
10
38.3844225581799
20
-4.8126344696467
30
0
41
1
10
38.7558598119378
20
-4.8125832779761
30
0
41
1
10
38.9405981534952
20
-4.8125196908112
30
0
0
SPLINE
5
AB
100
AcDbEntity
8
1
62
256
6
ByLayer
370
18
48
1
60
0
100
AcDbSpline
70
4
71
3
72
8
73
4
40
0
40
0
40
0
40
0
40
1
40
1
40
1
40
1
41
1
10
23.2030622170061
20
0.370515120483475
30
0
41
1
10
23.2075194655962
20
0.368607139425364
30
0
41
1
10
23.2000322822325
20
0.372515363790313
30
0
41
1
10
23.1804262040031
20
0.382148713465568
30
0
0
SPLINE
5
AC
100
AcDbEntity
8
1
62
256
6
ByLayer
370
18
48
1
60
0
100
AcDbSpline
70
4
71
3
72
17
73
13
40
0
40
0
40
0
40
0
40
0.0334492812145355
40
0.211472240770201
40
0.345793243392719
40
0.449943566105489
40
0.503439421042524
40
0.557350223022434
40
0.638435823117193
40
0.747693929732913
40
0.885420758220762
40
1
40
1
40
1
40
1
41
1
10
9.07008569826681
20
4.79591704862051
30
0
41
1
10
9.01640300685943
20
4.79585249693153
30
0
41
1
10
8.67699250792671
20
4.79549851353465
30
0
41
1
10
8.12045827654578
20
4.79542012415502
30
0
41
1
10
7.45262167528614
20
4.79644595761604
30
0
41
1
10
6.9839566566618
20
4.79492568396475
30
0
41
1
10
6.64398224969247
20
4.79465855732224
30
0
41
1
10
6.34104815072536
20
4.79461782366351
30
0
41
1
10
5.94850520286212
20
4.79439003098256
30
0
41
1
10
5.4212571191764
20
4.79408975830466
30
0
41
1
10
4.84017881918612
20
4.79396903573593
30
0
41
1
10
4.43469313132965
20
4.79314947281168
30
0
41
1
10
4.25055081741849
20
4.79269010083109
30
0
0
SPLINE
5
AD
100
AcDbEntity
8
1
62
256
6
ByLayer
370
18
48
1
60
0
100
AcDbSpline
70
4
71
2
72
6
73
3
40
0
40
0
40
0
40
1
40
1
40
1
41
1
10
54.2410694987348
20
-4.82249118804867
30
0
41
1
10
54.7417411356767
20
-4.82132741624207
30
0
41
1
10
55.2418636318013
20
-4.82418610338445
30
0
0
SPLINE
5
AE
100
AcDbEntity
8
1
62
256
6
ByLayer
370
18
48
1
60
0
100
AcDbSpline
70
4
71
3
72
13
73
9
40
0
40
0
40
0
40
0
40
0.0512930128266108
40
0.261760444597535
40
0.430045312248233
40
0.511788367798318
40
0.636749571687705
40
1
40
1
40
1
40
1
41
1
10
40.8566165147482
20
-1.3986687411309
30
0
41
1
10
40.8566455575006
20
-1.39873231244843
30
0
41
1
10
40.8589597742672
20
-1.39996995421015
30
0
41
1
10
40.8851292359698
20
-1.41141942904076
30
0
41
1
10
40.9420572745652
20
-1.43690477466211
30
0
41
1
10
41.0181120524745
20
-1.47175969255008
30
0
41
1
10
41.1293440770573
20
-1.52365780459462
30
0
41
1
10
41.2332358658569
20
-1.57465674735133
30
0
41
1
10
41.3133357047712
20
-1.61524043079726
30
0
0
SPLINE
5
AF
100
AcDbEntity
8
1
62
256
6
ByLayer
370
18
48
1
60
0
100
AcDbSpline
70
4
71
3
72
25
73
21
40
0
40
0
40
0
40
0
40
0.0192451726601586
40
0.108303652974947
40
0.188452405080294
40
0.254548414023289
40
0.317698193281152
40
0.398260943344511
40
0.481642446735486
40
0.552893567880579
40
0.622660053811861
40
0.685680258712512
40
0.735703409659966
40
0.775660925699517
40
0.810024763099449
40
0.84184861797246
40
0.886546504957205
40
0.943920023498626
40
0.991779624570606
40
1
40
1
40
1
40
1
41
1
10
39.128336848898
20
4.81117080840414
30
0
41
1
10
39.0502198864316
20
4.81093633883654
30
0
41
1
10
38.6102884232665
20
4.80978082971896
30
0
41
1
10
37.8354313018351
20
4.81167618348283
30
0
41
1
10
36.8764950899018
20
4.81171845006736
30
0
41
1
10
36.0167590333843
20
4.81000589031666
30
0
41
1
10
35.1568981834758
20
4.81075163980933
30
0
41
1
10
34.2257047074147
20
4.81099737340594
30
0
41
1
10
33.2614503212953
20
4.80759421395223
30
0
41
1
10
32.3414189354414
20
4.80780249765434
30
0
41
1
10
31.5048839825304
20
4.80874495283925
30
0
41
1
10
30.7553655217605
20
4.80958194858721
30
0
41
1
10
30.1280746447362
20
4.80682015910688
30
0
41
1
10
29.6182685672461
20
4.80691845073457
30
0
41
1
10
29.1830724647787
20
4.80709518262125
30
0
41
1
10
28.7284691649683
20
4.80728867688765
30
0
41
1
10
28.1795164509461
20
4.8073346499695
30
0
41
1
10
27.5648064002148
20
4.80693678638235
30
0
41
1
10
27.0996367873428
20
4.80563122997179
30
0
41
1
10
26.8697441402143
20
4.80543946568869
30
0
41
1
10
26.8360489738554
20
4.80541716423068
30
0
0
SPLINE
5
B0
100
AcDbEntity
8
1
62
256
6
ByLayer
370
18
48
1
60
0
100
AcDbSpline
70
4
71
3
72
17
73
13
40
0
40
0
40
0
40
0
40
0.114554762491152
40
0.252252166320076
40
0.361486930474118
40
0.442555207019516
40
0.496454491207205
40
0.549938917009779
40
0.654066988528502
40
0.788359294160249
40
0.966344219986386
40
1
40
1
40
1
40
1
41
1
10
4.25055081741851
20
-4.79269010083112
30
0
41
1
10
4.4346931313265
20
-4.79314947281171
30
0
41
1
10
4.84017881915889
20
-4.79396903574124
30
0
41
1
10
5.42125711917754
20
-4.79408975828412
30
0
41
1
10
5.94850520265709
20
-4.79439003103508
30
0
41
1
10
6.3410481508368
20
-4.7946178235413
30
0
41
1
10
6.64398224883652
20
-4.79465855761319
30
0
41
1
10
6.98395665973621
20
-4.794925682437
30
0
41
1
10
7.45262164555308
20
-4.79644597113904
30
0
41
1
10
8.12045843909632
20
-4.79542004956329
30
0
41
1
10
8.67733589906919
20
-4.79549880560492
30
0
41
1
10
9.01708915284701
20
-4.79585311875024
30
0
41
1
10
9.07111474276959
20
-4.7959181274864
30
0
0
SPLINE
5
B1
100
AcDbEntity
8
1
62
256
6
ByLayer
370
18
48
1
60
0
100
AcDbSpline
70
4
71
3
72
16
73
12
40
0
40
0
40
0
40
0
40
0.25
40
0.25
40
0.5
40
0.5
40
0.75
40
0.75
40
0.875
40
0.875
40
1
40
1
40
1
40
1
41
1
10
9.84359839617716
20
-4.77620365527079
30
0
41
1
10
9.3617724387984
20
-4.79762777266421
30
0
41
1
10
8.88436051409565
20
-4.80243824021582
30
0
41
1
10
7.93617031184354
20
-4.77096820578717
30
0
41
1
10
7.46533234073758
20
-4.73511675484187
30
0
41
1
10
6.52946542617977
20
-4.61384961364433
30
0
41
1
10
6.06417611431323
20
-4.53149331693422
30
0
41
1
10
5.37190762704373
20
-4.36157215603836
30
0
41
1
10
5.14198169645707
20
-4.29715168189577
30
0
41
1
10
4.69045120835583
20
-4.15081797211556
30
0
41
1
10
4.4681955251487
20
-4.06882628034916
30
0
41
1
10
4.25085353264359
20
-3.97534906707242
30
0
0
SPLINE
5
B2
100
AcDbEntity
8
1
62
256
6
ByLayer
370
18
48
1
60
0
100
AcDbSpline
70
4
71
3
72
16
73
12
40
0
40
0
40
0
40
0
40
0.249999999999999
40
0.249999999999999
40
0.374999999999999
40
0.374999999999999
40
0.499999999999999
40
0.499999999999999
40
0.75
40
0.75
40
1
40
1
40
1
40
1
41
1
10
54.4384658667929
20
1.17872310383805
30
0
41
1
10
54.4274532600086
20
1.2078961164089
30
0
41
1
10
54.4198686728368
20
1.23804977117905
30
0
41
1
10
54.4160275111188
20
1.28545035464643
30
0
41
1
10
54.4160962272456
20
1.30142152844974
30
0
41
1
10
54.419556219703
20
1.33314953577323
30
0
41
1
10
54.4230804300068
20
1.34915257831656
30
0
41
1
10
54.4413069437487
20
1.39380814332259
30
0
41
1
10
54.4641041013013
20
1.41959430496723
30
0
41
1
10
54.5188519941056
20
1.45457386474743
30
0
41
1
10
54.5504198762497
20
1.46498134115538
30
0
41
1
10
54.5825198241451
20
1.47086520936949
30
0
0
SPLINE
5
B3
100
AcDbEntity
8
1
62
256
6
ByLayer
370
18
48
1
60
0
100
AcDbSpline
70
4
71
3
72
22
73
18
40
0
40
0
40
0
40
0
40
0.0762109324926462
40
0.0762109324926462
40
0.219671183949663
40
0.219671183949663
40
0.363131435406679
40
0.363131435406679
40
0.506591686863695
40
0.506591686863695
40
0.793512189777727
40
0.793512189777727
40
0.865242315506235
40
0.865242315506235
40
0.936972441234743
40
0.936972441234743
40
1
40
1
40
1
40
1
41
1
10
13.289412686058
20
-2.59085494322676
30
0
41
1
10
13.2051596574802
20
-2.65434110990344
30
0
41
1
10
13.1208951417776
20
-2.71826243547895
30
0
41
1
10
12.8779971112024
20
-2.9029993363074
30
0
41
1
10
12.719091039664
20
-3.02444419943373
30
0
41
1
10
12.3988158625823
20
-3.26647547606018
30
0
41
1
10
12.2367514910969
20
-3.38756139548752
30
0
41
1
10
11.9117050253312
20
-3.62345060841898
30
0
41
1
10
11.7490610420491
20
-3.73801154317258
30
0
41
1
10
11.2580865022595
20
-4.06783918918245
30
0
41
1
10
10.9265435523477
20
-4.26892969515424
30
0
41
1
10
10.4995802712974
20
-4.48780299930866
30
0
41
1
10
10.4134685428019
20
-4.53001625034432
30
0
41
1
10
10.241751199518
20
-4.61030428816252
30
0
41
1
10
10.155923552609
20
-4.64849887695991
30
0
41
1
10
9.99463269765005
20
-4.71671607777989
30
0
41
1
10
9.91917324987159
20
-4.74716555214187
30
0
41
1
10
9.84366560865197
20
-4.77622029805943
30
0
0
SPLINE
5
B4
100
AcDbEntity
8
1
62
256
6
ByLayer
370
18
48
1
60
0
100
AcDbSpline
70
4
71
3
72
10
73
6
40
0
40
0
40
0
40
0
40
0.978848371396919
40
0.978848371396919
40
1
40
1
40
1
40
1
41
1
10
54.2378560057555
20
-4.82244988038198
30
0
41
1
10
52.4688126683295
20
-4.82124174458255
30
0
41
1
10
50.7288529243972
20
-4.57004839500087
30
0
41
1
10
48.9271123863246
20
-4.0905476240296
30
0
41
1
10
48.8889915291957
20
-4.0803039797735
30
0
41
1
10
48.8508589671155
20
-4.06995941073927
30
0
0
SPLINE
5
B5
100
AcDbEntity
8
1
62
256
6
ByLayer
370
13
48
1
60
0
100
AcDbSpline
70
4
71
3
72
24
73
20
40
0
40
0
40
0
40
0
40
0.106998621942296
40
0.106998621942296
40
0.164648752097143
40
0.164648752097143
40
0.22229888225199
40
0.22229888225199
40
0.452899402871379
40
0.452899402871379
40
0.683499923490768
40
0.683499923490768
40
0.741150053645616
40
0.741150053645616
40
0.798800183800464
40
0.798800183800464
40
0.914100444110159
40
0.914100444110159
40
1
40
1
40
1
40
1
41
1
10
48.8508589671271
20
-4.06995941074246
30
0
41
1
10
48.3593738634981
20
-3.93662974951778
30
0
41
1
10
47.8659443028082
20
-3.7865342006929
30
0
41
1
10
47.101707323622
20
-3.53140729242375
30
0
41
1
10
46.8331895515002
20
-3.43745587259548
30
0
41
1
10
46.2990079336747
20
-3.24267364134548
30
0
41
1
10
46.0327084614562
20
-3.14163973698547
30
0
41
1
10
44.7042213023759
20
-2.61995775594662
30
0
41
1
10
43.6508559671921
20
-2.15006935426632
30
0
41
1
10
41.5399154106905
20
-1.14787032799512
30
0
41
1
10
40.4824060242445
20
-0.615433672534436
30
0
41
1
10
39.1431030188016
20
0.0607351122713737
30
0
41
1
10
38.8748046403496
20
0.196314729376667
30
0
41
1
10
38.3405992453943
20
0.465376537943456
30
0
41
1
10
38.0741551148633
20
0.599104198436606
30
0
41
1
10
37.2763864570568
20
0.99711230648245
30
0
41
1
10
36.7465210541936
20
1.25798080653743
30
0
41
1
10
35.8227242213515
20
1.70041634071876
30
0
41
1
10
35.4286039969898
20
1.88526682523613
30
0
41
1
10
35.0341590422743
20
2.06494710315007
30
0
0
SPLINE
5
B6
100
AcDbEntity
8
1
62
256
6
ByLayer
370
18
48
1
60
0
100
AcDbSpline
70
4
71
3
72
8
73
4
40
0
40
0
40
0
40
0
40
1
40
1
40
1
40
1
41
1
10
55.3057602627106
20
-4.79277777362472
30
0
41
1
10
55.2818170215592
20
-4.81286195608007
30
0
41
1
10
55.2614100048597
20
-4.8229670155626
30
0
41
1
10
55.2445939553039
20
-4.82293846977677
30
0
0
SPLINE
5
B7
100
AcDbEntity
8
1
62
256
6
ByLayer
370
18
48
1
60
0
100
AcDbSpline
70
4
71
3
72
40
73
36
40
0
40
0
40
0
40
0
40
0.250000000000001
40
0.250000000000001
40
0.500000000000002
40
0.500000000000002
40
0.562500000000005
40
0.562500000000005
40
0.625000000000008
40
0.625000000000008
40
0.68750000000001
40
0.68750000000001
40
0.718750000000009
40
0.718750000000009
40
0.750000000000008
40
0.750000000000008
40
0.781250000000007
40
0.781250000000007
40
0.812500000000006
40
0.812500000000006
40
0.843750000000005
40
0.843750000000005
40
0.875000000000004
40
0.875000000000004
40
0.890625000000003
40
0.890625000000003
40
0.906250000000003
40
0.906250000000003
40
0.921875000000002
40
0.921875000000002
40
0.937500000000002
40
0.937500000000002
40
0.968750000000001
40
0.968750000000001
40
1
40
1
40
1
40
1
41
1
10
50.0509896271748
20
1.88696871997792
30
0
41
1
10
50.4696111052577
20
1.60973313902065
30
0
41
1
10
50.8918942282084
20
1.35669473918966
30
0
41
1
10
51.7468431776703
20
0.91922977047102
30
0
41
1
10
52.1793204509089
20
0.733557188424101
30
0
41
1
10
52.7284811605107
20
0.5580605663055
30
0
41
1
10
52.8388076811549
20
0.525848007306877
30
0
41
1
10
53.0581464921935
20
0.468380318135729
30
0
41
1
10
53.1674258364815
20
0.443040461951512
30
0
41
1
10
53.3851454751832
20
0.399661463707076
30
0
41
1
10
53.4934282868937
20
0.381658444677868
30
0
41
1
10
53.6546309061548
20
0.360689930047755
30
0
41
1
10
53.7081414823297
20
0.354707358375492
30
0
41
1
10
53.8146660857025
20
0.344836329872521
30
0
41
1
10
53.8678558701212
20
0.340445135404025
30
0
41
1
10
53.9721632153877
20
0.338449975075548
30
0
41
1
10
54.0235205331891
20
0.340606129230224
30
0
41
1
10
54.1224033966934
20
0.352605171131273
30
0
41
1
10
54.1697631102384
20
0.362632552524076
30
0
41
1
10
54.2597626805779
20
0.391819638903485
30
0
41
1
10
54.3026223749118
20
0.411009108289846
30
0
41
1
10
54.3810919556318
20
0.461492177075229
30
0
41
1
10
54.4156364389941
20
0.492135309242059
30
0
41
1
10
54.4575243704363
20
0.549534514752793
30
0
41
1
10
54.4697407952756
20
0.570571966305522
30
0
41
1
10
54.4900333457904
20
0.614990164305226
30
0
41
1
10
54.4982135236202
20
0.638554066250009
30
0
41
1
10
54.5106116351085
20
0.688412182481642
30
0
41
1
10
54.5148657122411
20
0.714910419613261
30
0
41
1
10
54.5195533546421
20
0.769302871929597
30
0
41
1
10
54.5200128590358
20
0.797101741346808
30
0
41
1
10
54.5164885209861
20
0.882066382231159
30
0
41
1
10
54.5075329728049
20
0.94138187921871
30
0
41
1
10
54.4796059268648
20
1.06024856398383
30
0
41
1
10
54.4608076689503
20
1.1195384177812
30
0
41
1
10
54.4384658667929
20
1.17872310383808
30
0
0
SPLINE
5
B8
100
AcDbEntity
8
1
62
256
6
ByLayer
370
18
48
1
60
0
100
AcDbSpline
70
4
71
3
72
12
73
8
40
0
40
0
40
0
40
0
40
0.250000000000001
40
0.250000000000001
40
0.500000000000002
40
0.500000000000002
40
1
40
1
40
1
40
1
41
1
10
4.13353987336356
20
2.49582633254997
30
0
41
1
10
4.11614401440693
20
2.50376680870815
30
0
41
1
10
4.10015817627078
20
2.51329409446291
30
0
41
1
10
4.07090539515963
20
2.53537201839538
30
0
41
1
10
4.05759062595072
20
2.54805915585891
30
0
41
1
10
4.02384810713778
20
2.58881068410366
30
0
41
1
10
4.00877194449308
20
2.62055271485056
30
0
41
1
10
4.00288255016454
20
2.65321090835164
30
0
0
SPLINE
5
B9
100
AcDbEntity
8
1
62
256
6
ByLayer
370
18
48
1
60
0
100
AcDbSpline
70
4
71
3
72
18
73
14
40
0
40
0
40
0
40
0
40
0.0542950689069193
40
0.0542950689069193
40
0.140268244460835
40
0.140268244460835
40
0.312214595568668
40
0.312214595568668
40
0.656107297784334
40
0.656107297784334
40
0.828053648892167
40
0.828053648892167
40
1
40
1
40
1
40
1
41
1
10
4.00112317243148
20
-5.01903486478619
30
0
41
1
10
4.00112362293834
20
-5.01858830787555
30
0
41
1
10
4.00112408325157
20
-5.01730470816295
30
0
41
1
10
4.00112529822138
20
-5.01180049069166
30
0
41
1
10
4.00112606875899
20
-5.00628297413198
30
0
41
1
10
4.00112842828975
20
-4.98352989693026
30
0
41
1
10
4.00113007374952
20
-4.96009379456714
30
0
41
1
10
4.001135189135
20
-4.86563119970381
30
0
41
1
10
4.00113884703282
20
-4.77069342061216
30
0
41
1
10
4.00114440759162
20
-4.5785311951025
30
0
41
1
10
4.00114624752416
20
-4.50688557547539
30
0
41
1
10
4.0011498006682
20
-4.34983012862367
30
0
41
1
10
4.00115151807583
20
-4.26427872864386
30
0
41
1
10
4.00115313269936
20
-4.1717578657213
30
0
0
SPLINE
5
BA
100
AcDbEntity
8
1
62
256
6
ByLayer
370
18
48
1
60
0
100
AcDbSpline
70
4
71
3
72
24
73
20
40
0
40
0
40
0
40
0
40
0.12499999999999
40
0.12499999999999
40
0.156249999999988
40
0.156249999999988
40
0.187499999999986
40
0.187499999999986
40
0.249999999999986
40
0.249999999999986
40
0.374999999999988
40
0.374999999999988
40
0.499999999999991
40
0.499999999999991
40
0.749999999999995
40
0.749999999999995
40
0.874999999999998
40
0.874999999999998
40
1
40
1
40
1
40
1
41
1
10
50.0509896271748
20
1.88696871997797
30
0
41
1
10
50.1190678122998
20
1.63517837458073
30
0
41
1
10
50.2173859513348
20
1.38512056638115
30
0
41
1
10
50.3710774193389
20
1.07431257449321
30
0
41
1
10
50.4034872321296
20
1.01203953395904
30
0
41
1
10
50.4705734639013
20
0.888989824922504
30
0
41
1
10
50.5052663630071
20
0.828154910101858
30
0
41
1
10
50.6125093188123
20
0.647548912730855
30
0
41
1
10
50.6882113168165
20
0.529669186214448
30
0
41
1
10
50.926222211819
20
0.182573608937759
30
0
41
1
10
51.0993415441038
20
-0.0401553247036475
30
0
41
1
10
51.4690027923982
20
-0.471558220534689
30
0
41
1
10
51.6619101578208
20
-0.675997258404351
30
0
41
1
10
52.2576676237817
20
-1.26164064697716
30
0
41
1
10
52.6780338149152
20
-1.61658271910221
30
0
41
1
10
53.3349960930328
20
-2.10858486548682
30
0
41
1
10
53.5568821541255
20
-2.26465513288204
30
0
41
1
10
54.0044106280744
20
-2.56250520802709
30
0
41
1
10
54.2302756423705
20
-2.70439036627303
30
0
41
1
10
54.4580570086559
20
-2.8398536698009
30
0
0
SPLINE
5
BB
100
AcDbEntity
8
1
62
256
6
ByLayer
370
18
48
1
60
0
100
AcDbSpline
70
4
71
3
72
54
73
50
40
0
40
0
40
0
40
0
40
0.051228164035225
40
0.051228164035225
40
0.10245632807045
40
0.10245632807045
40
0.153684492105675
40
0.153684492105675
40
0.179298574123288
40
0.179298574123288
40
0.2049126561409
40
0.2049126561409
40
0.256140820176124
40
0.256140820176124
40
0.281754902193735
40
0.281754902193735
40
0.307368984211347
40
0.307368984211347
40
0.35859714824657
40
0.35859714824657
40
0.409825312281793
40
0.409825312281793
40
0.461053476317016
40
0.461053476317016
40
0.486667558334627
40
0.486667558334627
40
0.512281640352237
40
0.512281640352237
40
0.563509804387458
40
0.563509804387458
40
0.589123886405068
40
0.589123886405068
40
0.614737968422678
40
0.614737968422678
40
0.665966132457897
40
0.665966132457897
40
0.691580214475507
40
0.691580214475507
40
0.717194296493117
40
0.717194296493117
40
0.819650624563558
40
0.819650624563558
40
0.922106952634
40
0.922106952634
40
0.947721034651611
40
0.947721034651611
40
0.973335116669222
40
0.973335116669222
40
1
40
1
40
1
40
1
41
1
10
55.2367597806034
20
-5.00888192272851
30
0
41
1
10
54.7040356079523
20
-5.04453545019103
30
0
41
1
10
54.1718370781195
20
-5.05657274793785
30
0
41
1
10
53.105517101451
20
-5.033312222071
30
0
41
1
10
52.5730427799105
20
-4.99799414486438
30
0
41
1
10
51.5098261829976
20
-4.88135358469521
30
0
41
1
10
50.9785341169749
20
-4.80000951702152
30
0
41
1
10
50.1795112641248
20
-4.64467605668088
30
0
41
1
10
49.9126198335687
20
-4.58728610680606
30
0
41
1
10
49.3799589754797
20
-4.46213240201564
30
0
41
1
10
49.1139657659295
20
-4.39433282990055
30
0
41
1
10
48.316390118414
20
-4.17588748176692
30
0
41
1
10
47.7851884401837
20
-4.01020519198704
30
0
41
1
10
46.9865852086927
20
-3.73440699864153
30
0
41
1
10
46.719823420724
20
-3.63781334140117
30
0
41
1
10
46.1867467389791
20
-3.43649091647674
30
0
41
1
10
45.9205896375599
20
-3.3318330481641
30
0
41
1
10
45.1226659948297
20
-3.00677820508665
30
0
41
1
10
44.5913956504897
20
-2.77537265090891
30
0
41
1
10
43.5270013621292
20
-2.28815392426725
30
0
41
1
10
42.9930394341438
20
-2.03181024688186
30
0
41
1
10
41.9286022572694
20
-1.5043944991026
30
0
41
1
10
41.3972789133421
20
-1.23294298414643
30
0
41
1
10
40.5992577165759
20
-0.818516304202717
30
0
41
1
10
40.3330917856991
20
-0.679139503031706
30
0
41
1
10
39.7999528186808
20
-0.398824215111972
30
0
41
1
10
39.5331212197449
20
-0.257958302729264
30
0
41
1
10
38.7343507006044
20
0.164254570964346
30
0
41
1
10
38.2029347172613
20
0.445599856599756
30
0
41
1
10
37.405093706418
20
0.86294597925891
30
0
41
1
10
37.1390356449604
20
1.00129848167231
30
0
41
1
10
36.6062227023856
20
1.27558150691542
30
0
41
1
10
36.3392378533192
20
1.4116256396492
30
0
41
1
10
35.5399072454512
20
1.8135142730867
30
0
41
1
10
35.0083518982368
20
2.07349147779095
30
0
41
1
10
34.2105957265288
20
2.44736673637752
30
0
41
1
10
33.944610265793
20
2.56931655278493
30
0
41
1
10
33.4120648175218
20
2.80711741155471
30
0
41
1
10
33.1452560045437
20
2.92309521351837
30
0
41
1
10
31.8120977691235
20
3.48475624226472
30
0
41
1
10
30.7515353039452
20
3.87401704206312
30
0
41
1
10
28.6169558964064
20
4.4991424918739
30
0
41
1
10
27.5561457667836
20
4.730726548208
30
0
41
1
10
26.2229883541054
20
4.90669194280386
30
0
41
1
10
25.9560562194087
20
4.93617846472662
30
0
41
1
10
25.4233011708852
20
4.98339671469898
30
0
41
1
10
25.1571956526208
20
5.00116900210853
30
0
41
1
10
24.6142283748363
20
5.02549217112326
30
0
41
1
10
24.3374109892721
20
5.03155231939968
30
0
41
1
10
24.0604652607798
20
5.03124223686339
30
0
0
SPLINE
5
BC
100
AcDbEntity
8
1
62
256
6
ByLayer
370
18
48
1
60
0
100
AcDbSpline
70
4
71
3
72
14
73
10
40
0
40
0
40
0
40
0
40
0.25
40
0.25
40
0.5
40
0.5
40
0.75
40
0.75
40
1
40
1
40
1
40
1
41
1
10
4.25085353018702
20
-3.97534906601587
30
0
41
1
10
4.2236754850239
20
-3.96365998606544
30
0
41
1
10
4.19453705100429
20
-3.95686160558813
30
0
41
1
10
4.13521978377827
20
-3.96033791078119
30
0
41
1
10
4.10535057375486
20
-3.97128155598506
30
0
41
1
10
4.05502188622057
20
-4.01281712485542
30
0
41
1
10
4.03608324020709
20
-4.04170217639111
30
0
41
1
10
4.01059346974546
20
-4.10429940573349
30
0
41
1
10
4.00370133721432
20
-4.13813759986698
30
0
41
1
10
4.00115313269936
20
-4.17175786572125
30
0
0
SPLINE
5
BD
100
AcDbEntity
8
1
62
256
6
ByLayer
370
18
48
1
60
0
100
AcDbSpline
70
4
71
3
72
8
73
4
40
0
40
0
40
0
40
0
40
1
40
1
40
1
40
1
41
1
10
4.00288255016446
20
2.65321090835681
30
0
41
1
10
4.00169333589855
20
2.65980540474044
30
0
41
1
10
4.00108770184349
20
2.66648601737487
30
0
41
1
10
4.00108779921868
20
2.67313817099296
30
0
0
SPLINE
5
BE
100
AcDbEntity
8
1
62
256
6
ByLayer
370
13
48
1
60
0
100
AcDbSpline
70
4
71
3
72
8
73
4
40
0
40
0
40
0
40
0
40
1
40
1
40
1
40
1
41
1
10
4.00108779921877
20
2.67313817099287
30
0
41
1
10
4.00217812355601
20
2.66126630736534
30
0
41
1
10
4.00409731821398
20
2.64946720797596
30
0
41
1
10
4.00682565426803
20
2.63784534325154
30
0
0
SPLINE
5
BF
100
AcDbEntity
8
1
62
256
6
ByLayer
370
18
48
1
60
0
100
AcDbSpline
70
4
71
3
72
8
73
4
40
0
40
0
40
0
40
0
40
1
40
1
40
1
40
1
41
1
10
55.2367597806034
20
5.00888192272851
30
0
41
1
10
54.830666974668
20
5.03606041725166
30
0
41
1
10
54.424688699971
20
5.04952278126956
30
0
41
1
10
54.0183125277556
20
5.04922370295196
30
0
0
SPLINE
5
C0
100
AcDbEntity
8
1
62
256
6
ByLayer
370
18
48
1
60
0
100
AcDbSpline
70
4
71
3
72
40
73
36
40
0
40
0
40
0
40
0
40
0.0159205555382848
40
0.0159205555382848
40
0.156503333318527
40
0.156503333318527
40
0.191649027763588
40
0.191649027763588
40
0.226794722208648
40
0.226794722208648
40
0.297086111098769
40
0.297086111098769
40
0.33223180554383
40
0.33223180554383
40
0.36737749998889
40
0.36737749998889
40
0.437668888879013
40
0.437668888879013
40
0.472814583324074
40
0.472814583324074
40
0.507960277769135
40
0.507960277769135
40
0.578251666659258
40
0.578251666659258
40
0.648543055549382
40
0.648543055549382
40
0.718834444439505
40
0.718834444439505
40
0.753980138884567
40
0.753980138884567
40
0.789125833329628
40
0.789125833329628
40
0.859417222219752
40
0.859417222219752
40
1
40
1
40
1
40
1
41
1
10
26.8500017146659
20
-4.82046036231603
30
0
41
1
10
26.729270053046
20
-4.83871748625958
30
0
41
1
10
26.6084698768783
20
-4.85582479659308
30
0
41
1
10
25.4201157198303
20
-5.01254729756226
30
0
41
1
10
24.3591775892776
20
-5.06058343825029
30
0
41
1
10
23.0258222161152
20
-5.00242673561792
30
0
41
1
10
22.7588663790997
20
-4.98488461546052
30
0
41
1
10
22.2260493473298
20
-4.93826137660417
30
0
41
1
10
21.9599100202525
20
-4.90917059781899
30
0
41
1
10
21.1617169780427
20
-4.80487230529539
30
0
41
1
10
20.6300057644253
20
-4.71255929738746
30
0
41
1
10
19.8303828582289
20
-4.54138844984226
30
0
41
1
10
19.563263643618
20
-4.47882042995639
30
0
41
1
10
19.0301345944135
20
-4.34352756822457
30
0
41
1
10
18.7639134714617
20
-4.27078484697881
30
0
41
1
10
17.9655705157049
20
-4.0380541175505
30
0
41
1
10
17.4338541543856
20
-3.8634760157868
30
0
41
1
10
16.6346344994284
20
-3.57524686828447
30
0
41
1
10
16.3676789073366
20
-3.47470549204937
30
0
41
1
10
15.8341122603683
20
-3.26577263399906
30
0
41
1
10
15.5677321335184
20
-3.15748026492372
30
0
41
1
10
14.7691141715798
20
-2.82220008406637
30
0
41
1
10
14.2373878175763
20
-2.58482650993557
30
0
41
1
10
13.1720959115468
20
-2.08755907074914
30
0
41
1
10
12.6377081395998
20
-1.82699464105897
30
0
41
1
10
11.5723950967743
20
-1.29294531855487
30
0
41
1
10
11.0405737042936
20
-1.01930378853936
30
0
41
1
10
10.2417774426259
20
-0.603251428576044
30
0
41
1
10
9.97537337093488
20
-0.463562279034846
30
0
41
1
10
9.44187452118976
20
-0.182941560334342
30
0
41
1
10
9.17487498135085
20
-0.0420646867257233
30
0
41
1
10
8.37650954670963
20
0.378556246912837
30
0
41
1
10
7.8463608200658
20
0.657179160371584
30
0
41
1
10
6.25756521613616
20
1.47901078889228
30
0
41
1
10
5.20083956273166
20
2.00864902453688
30
0
41
1
10
4.13353987336356
20
2.49582633254997
30
0
0
SPLINE
5
C1
100
AcDbEntity
8
1
62
256
6
ByLayer
370
18
48
1
60
0
100
AcDbSpline
70
4
71
3
72
12
73
8
40
0
40
0
40
0
40
0
40
0.25
40
0.25
40
0.5
40
0.5
40
1
40
1
40
1
40
1
41
1
10
55.2848302586709
20
-4.87895524656474
30
0
41
1
10
55.2896463546574
20
-4.86592085391368
30
0
41
1
10
55.2942452112545
20
-4.85270361482424
30
0
41
1
10
55.3018715075203
20
-4.82887327698521
30
0
41
1
10
55.3048824431174
20
-4.81829030364244
30
0
41
1
10
55.3104242467684
20
-4.79442107676343
30
0
41
1
10
55.3094290495616
20
-4.78970030453865
30
0
41
1
10
55.3057602627105
20
-4.79277777362472
30
0
0
SPLINE
5
C2
100
AcDbEntity
8
1
62
256
6
ByLayer
370
18
48
1
60
0
100
AcDbSpline
70
4
71
3
72
18
73
14
40
0
40
0
40
0
40
0
40
0.25
40
0.25
40
0.5
40
0.5
40
0.625
40
0.625
40
0.75
40
0.75
40
0.875
40
0.875
40
1
40
1
40
1
40
1
41
1
10
56.2373506678876
20
2.48251505248513
30
0
41
1
10
56.1608771921677
20
2.68872594031384
30
0
41
1
10
56.0842629312181
20
2.89476088159688
30
0
41
1
10
55.9303468042696
20
3.30597142875169
30
0
41
1
10
55.8531631566116
20
3.51099631702255
30
0
41
1
10
55.7373982539833
20
3.81738677594433
30
0
41
1
10
55.6987899972754
20
3.91928787044043
30
0
41
1
10
55.6215069660377
20
4.12232654973775
30
0
41
1
10
55.5828274166902
20
4.22340932788055
30
0
41
1
10
55.5054308366018
20
4.42514466251166
30
0
41
1
10
55.4667169930286
20
4.52583380217999
30
0
41
1
10
55.3892058786357
20
4.72625448083747
30
0
41
1
10
55.3503952692875
20
4.82583291655894
30
0
41
1
10
55.311534705465
20
4.92483796120626
30
0
0
SPLINE
5
C3
100
AcDbEntity
8
1
62
256
6
ByLayer
370
13
48
1
60
0
100
AcDbSpline
70
4
71
3
72
15
73
11
40
0
40
0
40
0
40
0
40
0.127730063190007
40
0.127730063190007
40
0.302184050552005
40
0.476638037914004
40
0.476638037914004
40
0.651092025276003
40
0.651092025276003
40
1
40
1
40
1
40
1
41
1
10
4.25057033812735
20
-4.79268597854732
30
0
41
1
10
4.25058018295775
20
-4.79162696393931
30
0
41
1
10
4.2505905630247
20
-4.78605821262883
30
0
41
1
10
4.25061610870091
20
-4.76242570076559
30
0
41
1
10
4.250647253382
20
-4.71874822605741
30
0
41
1
10
4.25068113309567
20
-4.64283236459155
30
0
41
1
10
4.25071594400046
20
-4.55056441446027
30
0
41
1
10
4.25073391987721
20
-4.49586139076789
30
0
41
1
10
4.25078733833541
20
-4.30969437602309
30
0
41
1
10
4.25082238255919
20
-4.15668297325695
30
0
41
1
10
4.25085353018693
20
-3.97534906628636
30
0
0
SPLINE
5
C4
100
AcDbEntity
8
1
62
256
6
ByLayer
370
13
48
1
60
0
100
AcDbSpline
70
4
71
3
72
23
73
19
40
0
40
0
40
0
40
0
40
0.196388681405744
40
0.196388681405744
40
0.294583022108616
40
0.294583022108616
40
0.392777362811489
40
0.490971703514361
40
0.490971703514361
40
0.589166044217233
40
0.589166044217233
40
0.785554725622977
40
0.785554725622977
40
0.883749066325849
40
0.883749066325849
40
0.981943407028721
40
0.981943407028721
40
1
40
1
40
1
40
1
41
1
10
4.25026831744259
20
2.42761962174447
30
0
41
1
10
4.25030632611407
20
2.71103454039118
30
0
41
1
10
4.25033452359998
20
2.97424453430935
30
0
41
1
10
4.25036815752077
20
3.33894043514749
30
0
41
1
10
4.25037785400224
20
3.45478988749485
30
0
41
1
10
4.25039506566088
20
3.67227660880806
30
0
41
1
10
4.25041018626914
20
3.87653392194235
30
0
41
1
10
4.25042316012878
20
4.0546196184446
30
0
41
1
10
4.25043599684935
20
4.21935279804273
30
0
41
1
10
4.25044237771701
20
4.29528468477207
30
0
41
1
10
4.25046220225224
20
4.49790174661248
30
0
41
1
10
4.25047650428391
20
4.60134798476275
30
0
41
1
10
4.25050335757652
20
4.70954368109275
30
0
41
1
10
4.25051323077753
20
4.73778318248023
30
0
41
1
10
4.25053501359838
20
4.77750533822257
30
0
41
1
10
4.25054686514835
20
4.7889572595634
30
0
41
1
10
4.25056212521687
20
4.79259908224145
30
0
41
1
10
4.25056453194657
20
4.79287822315661
30
0
41
1
10
4.25056697328674
20
4.79287225571551
30
0
0
SPLINE
5
C5
100
AcDbEntity
8
1
62
256
6
ByLayer
370
18
48
1
60
0
100
AcDbSpline
70
4
71
3
72
18
73
14
40
0
40
0
40
0
40
0
40
0.25
40
0.25
40
0.5
40
0.5
40
0.625
40
0.625
40
0.75
40
0.75
40
0.875
40
0.875
40
1
40
1
40
1
40
1
41
1
10
56.2373506678876
20
-2.48251505248518
30
0
41
1
10
56.1608771921677
20
-2.68872594031387
30
0
41
1
10
56.0842629312181
20
-2.89476088159691
30
0
41
1
10
55.9303468042696
20
-3.30597142875172
30
0
41
1
10
55.8531631566116
20
-3.51099631702255
30
0
41
1
10
55.7373982539832
20
-3.81738677594433
30
0
41
1
10
55.6987899972753
20
-3.91928787044043
30
0
41
1
10
55.6215069660376
20
-4.12232654973775
30
0
41
1
10
55.5828274166903
20
-4.22340932788055
30
0
41
1
10
55.5054308366019
20
-4.42514466251166
30
0
41
1
10
55.4667169930286
20
-4.52583380217999
30
0
41
1
10
55.3892058786357
20
-4.72625448083747
30
0
41
1
10
55.3503952692875
20
-4.82583291655894
30
0
41
1
10
55.311534705465
20
-4.92483796120626
30
0
0
SPLINE
5
C6
100
AcDbEntity
8
1
62
256
6
ByLayer
370
18
48
1
60
0
100
AcDbSpline
70
4
71
3
72
10
73
6
40
0
40
0
40
0
40
0
40
0.716421803348423
40
0.716421803348423
40
1
40
1
40
1
40
1
41
1
10
16.8858936022361
20
3.95785491902748
30
0
41
1
10
16.6863528261619
20
3.8560171089012
30
0
41
1
10
16.4868361547265
20
3.7530205099612
30
0
41
1
10
16.2081049109331
20
3.60793819158334
30
0
41
1
10
16.1290169326891
20
3.56663506455072
30
0
41
1
10
16.0498724119854
20
3.52521658076171
30
0
0
SPLINE
5
C7
100
AcDbEntity
8
1
62
256
6
ByLayer
370
18
48
1
60
0
100
AcDbSpline
70
4
71
3
72
22
73
18
40
0
40
0
40
0
40
0
40
0.249999999999991
40
0.249999999999991
40
0.499999999999982
40
0.499999999999982
40
0.624999999999986
40
0.624999999999986
40
0.749999999999991
40
0.749999999999991
40
0.812499999999993
40
0.812499999999993
40
0.874999999999995
40
0.874999999999995
40
0.937499999999998
40
0.937499999999998
40
1
40
1
40
1
40
1
41
1
10
54.5825198241451
20
1.47086520936949
30
0
41
1
10
54.7526893956809
20
1.50205701492104
30
0
41
1
10
54.92190177469
20
1.5376519765432
30
0
41
1
10
55.2571806832895
20
1.62385376926343
30
0
41
1
10
55.4233484688512
20
1.67392313426674
30
0
41
1
10
55.6677303492154
20
1.77313769045077
30
0
41
1
10
55.748872057861
20
1.81064033090985
30
0
41
1
10
55.9032784013023
20
1.89776848782446
30
0
41
1
10
55.977552372546
20
1.94785521291126
30
0
41
1
10
56.0751165129223
20
2.03707069228258
30
0
41
1
10
56.1054085483774
20
2.06923078554425
30
0
41
1
10
56.1596283160713
20
2.14052936772296
30
0
41
1
10
56.1826539613406
20
2.17857298577127
30
0
41
1
10
56.2184267387859
20
2.26032233168164
30
0
41
1
10
56.2309211606159
20
2.30407563172417
30
0
41
1
10
56.2431123129543
20
2.39227643663662
30
0
41
1
10
56.2429791258008
20
2.43799725757455
30
0
41
1
10
56.2373506678875
20
2.48251505248513
30
0
0
SPLINE
5
C8
100
AcDbEntity
8
1
62
256
6
ByLayer
370
18
48
1
60
0
100
AcDbSpline
70
4
71
3
72
8
73
4
40
0
40
0
40
0
40
0
40
1
40
1
40
1
40
1
41
1
10
55.2367597806034
20
-5.00888192272851
30
0
41
1
10
55.2527969927534
20
-4.96559335066306
30
0
41
1
10
55.2688208760426
20
-4.92228340693833
30
0
41
1
10
55.2848302586709
20
-4.87895524656471
30
0
0
SPLINE
5
C9
100
AcDbEntity
8
1
62
256
6
ByLayer
370
18
48
1
60
0
100
AcDbSpline
70
4
71
3
72
23
73
19
40
0
40
0
40
0
40
0
40
0.125
40
0.125
40
0.1875
40
0.1875
40
0.25
40
0.25
40
0.499999999999999
40
0.499999999999999
40
0.5625
40
0.5625
40
0.625
40
0.625
40
0.75
40
0.875
40
0.875
40
1
40
1
40
1
40
1
41
1
10
55.2445939552998
20
-4.82293846977677
30
0
41
1
10
55.1750290236243
20
-4.82286406478352
30
0
41
1
10
55.1087892789492
20
-4.81275494794761
30
0
41
1
10
55.0146582242884
20
-4.78181257617319
30
0
41
1
10
54.9841547755442
20
-4.76886220413218
30
0
41
1
10
54.9249645773583
20
-4.73747904537501
30
0
41
1
10
54.8961866520645
20
-4.71896426982482
30
0
41
1
10
54.7587055791811
20
-4.61335854668769
30
0
41
1
10
54.6682140676125
20
-4.48771081306231
30
0
41
1
10
54.5806491734211
20
-4.27669951571067
30
0
41
1
10
54.5644302076632
20
-4.23176475156262
30
0
41
1
10
54.5346824202522
20
-4.13621457639934
30
0
41
1
10
54.5211206009487
20
-4.08540251368646
30
0
41
1
10
54.4851863935041
20
-3.92655765685854
30
0
41
1
10
54.4494957144674
20
-3.69678192523961
30
0
41
1
10
54.4378611923128
20
-3.43161049477649
30
0
41
1
10
54.4385839065366
20
-3.14825689915918
30
0
41
1
10
54.4452437437601
20
-2.99682649796108
30
0
41
1
10
54.4580570086559
20
-2.83985366980087
30
0
0
SPLINE
5
CA
100
AcDbEntity
8
1
62
256
6
ByLayer
370
18
48
1
60
0
100
AcDbSpline
70
4
71
3
72
16
73
12
40
0
40
0
40
0
40
0
40
0.191489442597697
40
0.191489442597697
40
0.395093216495371
40
0.395093216495371
40
0.496895103444207
40
0.496895103444207
40
0.598696990393042
40
0.598696990393042
40
1
40
1
40
1
40
1
41
1
10
9.1107393809281
20
-0.0081606749073444
30
0
41
1
10
9.60924740391056
20
-0.264182493643574
30
0
41
1
10
10.1072090195199
20
-0.51990910638682
30
0
41
1
10
11.1362711888387
20
-1.04142877230788
30
0
41
1
10
11.6673139087375
20
-1.3071510643268
30
0
41
1
10
12.4672366723289
20
-1.69671917317751
30
0
41
1
10
12.7344461170431
20
-1.8250558652563
30
0
41
1
10
13.2704850275924
20
-2.07773830923668
30
0
41
1
10
13.5395151108288
20
-2.20217578257109
30
0
41
1
10
14.8626300662488
20
-2.80068190843045
30
0
41
1
10
15.9064675434284
20
-3.23039021013267
30
0
41
1
10
16.9506868436378
20
-3.59539151522651
30
0
0
SPLINE
5
CB
100
AcDbEntity
8
1
62
256
6
ByLayer
370
13
48
1
60
0
100
AcDbSpline
70
4
71
3
72
18
73
14
40
0
40
0
40
0
40
0
40
0.0051652167965917
40
0.0051652167965917
40
0.361385331581421
40
0.361385331581421
40
0.450440360277628
40
0.450440360277628
40
0.539495388973835
40
0.539495388973835
40
0.717605446366246
40
0.717605446366246
40
1
40
1
40
1
40
1
41
1
10
16.9506868437616
20
-3.59539151526974
30
0
41
1
10
16.9660508768513
20
-3.60076193135765
30
0
41
1
10
16.9814149925997
20
-3.60611833937639
30
0
41
1
10
18.0563765843115
20
-3.97989653051258
30
0
41
1
10
19.1164137326516
20
-4.28168580759797
30
0
41
1
10
20.4574091490337
20
-4.55537454932806
30
0
41
1
10
20.7260782009093
20
-4.60485800911908
30
0
41
1
10
21.2609745192079
20
-4.69238316819369
30
0
41
1
10
21.5277480301149
20
-4.73055773562896
30
0
41
1
10
22.3265066281676
20
-4.82815794304938
30
0
41
1
10
22.8569382170734
20
-4.87071197529932
30
0
41
1
10
24.2268078942712
20
-4.92191990487541
30
0
41
1
10
25.0656831256326
20
-4.89630075313045
30
0
41
1
10
25.9092330590049
20
-4.81360559603013
30
0
0
SPLINE
5
CC
100
AcDbEntity
8
1
62
256
6
ByLayer
370
18
48
1
60
0
100
AcDbSpline
70
4
71
3
72
23
73
19
40
0
40
0
40
0
40
0
40
0.0990575240858456
40
0.0990575240858456
40
0.198115048171691
40
0.297172572257537
40
0.297172572257537
40
0.396230096343383
40
0.396230096343383
40
0.594345144515074
40
0.594345144515074
40
0.693402668600919
40
0.693402668600919
40
0.792460192686764
40
0.792460192686764
40
0.990575240858455
40
0.990575240858455
40
1
40
1
40
1
40
1
41
1
10
4.00108779921874
20
2.67313817099318
30
0
41
1
10
4.0010898872743
20
2.81578289124678
30
0
41
1
10
4.00109175418874
20
2.95428910661229
30
0
41
1
10
4.0010950816426
20
3.21869940347295
30
0
41
1
10
4.00109801418387
20
3.47114819535298
30
0
41
1
10
4.00110036246713
20
3.7002036882364
30
0
41
1
10
4.00110251460549
20
3.91747570427506
30
0
41
1
10
4.00110349417955
20
4.02039997903324
30
0
41
1
10
4.00110626739053
20
4.30969826892269
30
0
41
1
10
4.00110785710257
20
4.47182609353629
30
0
41
1
10
4.00111038641685
20
4.67062350778718
30
0
41
1
10
4.0011112518751
20
4.72943391022338
30
0
41
1
10
4.00111310029928
20
4.83174978496936
30
0
41
1
10
4.00111408392183
20
4.87510844625021
30
0
41
1
10
4.00111722928247
20
4.97925079605113
30
0
41
1
10
4.00111961257514
20
5.01562704358687
30
0
41
1
10
4.00112252618842
20
5.01912238520987
30
0
41
1
10
4.00112265938213
20
5.0192056472394
30
0
41
1
10
4.00112279346178
20
5.01921316981444
30
0
0
SPLINE
5
CD
100
AcDbEntity
8
1
62
256
6
ByLayer
370
18
48
1
60
0
100
AcDbSpline
70
4
71
3
72
16
73
12
40
0
40
0
40
0
40
0
40
0.146216443345301
40
0.146216443345301
40
0.412069420417055
40
0.412069420417055
40
0.54499590895293
40
0.54499590895293
40
0.677922397488804
40
0.677922397488804
40
1
40
1
40
1
40
1
41
1
10
24.2956631613663
20
-4.8043983616368
30
0
41
1
10
24.0044107657767
20
-4.80434241563776
30
0
41
1
10
23.7132554824312
20
-4.79756588104064
30
0
41
1
10
22.8923278190584
20
-4.75955479879232
30
0
41
1
10
22.3621053287981
20
-4.71280521573783
30
0
41
1
10
21.5637486269383
20
-4.6097297912263
30
0
41
1
10
21.2971189921924
20
-4.56986895014882
30
0
41
1
10
20.762540077568
20
-4.4792958987444
30
0
41
1
10
20.4940669298064
20
-4.42843998177491
30
0
41
1
10
19.576803363712
20
-4.23693243328611
30
0
41
1
10
18.9320133847508
20
-4.07191924431297
30
0
41
1
10
18.2890922555295
20
-3.88103165044038
30
0
0
SPLINE
5
CE
100
AcDbEntity
8
1
62
256
6
ByLayer
370
13
48
1
60
0
100
AcDbSpline
70
4
71
3
72
24
73
20
40
0
40
0
40
0
40
0
40
0.0949498692021481
40
0.0949498692021481
40
0.335782802386202
40
0.335782802386202
40
0.395991035682215
40
0.395991035682215
40
0.456199268978228
40
0.456199268978228
40
0.576615735570255
40
0.576615735570255
40
0.817448668754307
40
0.817448668754307
40
0.87765690205032
40
0.87765690205032
40
0.937865135346333
40
0.937865135346333
40
1
40
1
40
1
40
1
41
1
10
18.2890922554744
20
-3.88103165042401
30
0
41
1
10
17.8706387663417
20
-3.75679000388564
30
0
41
1
10
17.4529769639539
20
-3.62158737800669
30
0
41
1
10
15.9761818247213
20
-3.10818086795638
30
0
41
1
10
14.9175108454075
20
-2.67561016263997
30
0
41
1
10
13.5797587145676
20
-2.07683443803438
30
0
41
1
10
13.3109472928377
20
-1.95393930421253
30
0
41
1
10
12.775312537886
20
-1.70461144930025
30
0
41
1
10
12.5082804043209
20
-1.57807552403094
30
0
41
1
10
11.7088376737788
20
-1.19426728432282
30
0
41
1
10
11.1780448878841
20
-0.932865165994059
30
0
41
1
10
9.58774835901934
20
-0.141021701665494
30
0
41
1
10
8.53099478067332
20
0.398389093129083
30
0
41
1
10
7.19881282908281
20
1.05543259710677
30
0
41
1
10
6.93180382952548
20
1.1859582255627
30
0
41
1
10
6.39640430675112
20
1.44475994151219
30
0
41
1
10
6.12773126395132
20
1.57318408388738
30
0
41
1
10
5.58264010745572
20
1.82954800365152
30
0
41
1
10
5.30595962457886
20
1.95744051356138
30
0
41
1
10
5.02923595370302
20
2.08265367468738
30
0
0
SPLINE
5
CF
100
AcDbEntity
8
1
62
256
6
ByLayer
370
18
48
1
60
0
100
AcDbSpline
70
4
71
3
72
90
73
86
40
0
40
0
40
0
40
0
40
0.0216126085424206
40
0.0216126085424206
40
0.0565550153801916
40
0.0565550153801916
40
0.0914974222179627
40
0.0914974222179627
40
0.108968625636848
40
0.108968625636848
40
0.126439829055733
40
0.126439829055733
40
0.161382235893504
40
0.161382235893504
40
0.178853439312389
40
0.178853439312389
40
0.196324642731275
40
0.196324642731275
40
0.21379584615016
40
0.21379584615016
40
0.231267049569046
40
0.231267049569046
40
0.248738252987932
40
0.248738252987932
40
0.266209456406817
40
0.266209456406817
40
0.301151863244588
40
0.301151863244588
40
0.336094270082359
40
0.336094270082359
40
0.353565473501245
40
0.353565473501245
40
0.371036676920131
40
0.371036676920131
40
0.405979083757903
40
0.405979083757903
40
0.423450287176789
40
0.423450287176789
40
0.440921490595675
40
0.440921490595675
40
0.475863897433446
40
0.475863897433446
40
0.510806304271217
40
0.510806304271217
40
0.528277507690103
40
0.528277507690103
40
0.545748711108988
40
0.545748711108988
40
0.580691117946759
40
0.580691117946759
40
0.598162321365644
40
0.598162321365644
40
0.615633524784529
40
0.615633524784529
40
0.6505759316223
40
0.6505759316223
40
0.68551833846007
40
0.68551833846007
40
0.702989541878955
40
0.702989541878955
40
0.72046074529784
40
0.72046074529784
40
0.737931948716725
40
0.737931948716725
40
0.75540315213561
40
0.75540315213561
40
0.79034555897338
40
0.79034555897338
40
0.807816762392265
40
0.807816762392265
40
0.82528796581115
40
0.82528796581115
40
0.86023037264892
40
0.86023037264892
40
0.895172779486689
40
0.895172779486689
40
0.912643982905574
40
0.912643982905574
40
0.930115186324459
40
0.930115186324459
40
0.96505759316223
40
0.96505759316223
40
0.982528796581115
40
0.982528796581115
40
1
40
1
40
1
40
1
41
1
10
45.8080667002288
20
-3.61012215088874
30
0
41
1
10
45.5494310925237
20
-3.69682524893074
30
0
41
1
10
45.2905831549149
20
-3.77950952399044
30
0
41
1
10
44.6124673361131
20
-3.98435066159891
30
0
41
1
10
44.1936314431467
20
-4.09871214981041
30
0
41
1
10
43.3569685775456
20
-4.30460696611661
30
0
41
1
10
42.9389299179841
20
-4.39524647222706
30
0
41
1
10
42.3120229755319
20
-4.51248161469482
30
0
41
1
10
42.1029697845596
20
-4.54859123562397
30
0
41
1
10
41.6843646271801
20
-4.61372659451581
30
0
41
1
10
41.4748138310711
20
-4.64251908364557
30
0
41
1
10
40.8454984979867
20
-4.71893285472112
30
0
41
1
10
40.4272922573916
20
-4.75781907815133
30
0
41
1
10
39.7999856980083
20
-4.79331570171294
30
0
41
1
10
39.5908761804764
20
-4.80149621392687
30
0
41
1
10
39.1726397168134
20
-4.81182676126042
30
0
41
1
10
38.9635645908638
20
-4.81374268200642
30
0
41
1
10
38.5453575289949
20
-4.81027852633514
30
0
41
1
10
38.3361526985281
20
-4.80473640634287
30
0
41
1
10
37.9171195168203
20
-4.78669646855036
30
0
41
1
10
37.7071763236019
20
-4.77453920230533
30
0
41
1
10
37.2879430242237
20
-4.74333901867445
30
0
41
1
10
37.0785967428636
20
-4.72426486116487
30
0
41
1
10
36.6603721304044
20
-4.67853600159745
30
0
41
1
10
36.4514115827893
20
-4.6519598612976
30
0
41
1
10
35.8242193603829
20
-4.56429310290144
30
0
41
1
10
35.4058739542909
20
-4.49331125766901
30
0
41
1
10
34.5689119958783
20
-4.32390973352619
30
0
41
1
10
34.1491173149777
20
-4.22659207940649
30
0
41
1
10
33.5208840492914
20
-4.06132856558474
30
0
41
1
10
33.3116905453666
20
-4.00275754651719
30
0
41
1
10
32.8935494142882
20
-3.88129617784918
30
0
41
1
10
32.6845872609161
20
-3.81804554340024
30
0
41
1
10
32.0574080410468
20
-3.62063937963438
30
0
41
1
10
31.6388788111082
20
-3.47910321762322
30
0
41
1
10
31.0106407749259
20
-3.25058491041898
30
0
41
1
10
30.8009169041424
20
-3.17140172663343
30
0
41
1
10
30.3817905445833
20
-3.00811112454187
30
0
41
1
10
30.1723577165203
20
-2.92430658892874
30
0
41
1
10
29.5441941073116
20
-2.66853797294814
30
0
41
1
10
29.1261426506901
20
-2.49050517758394
30
0
41
1
10
28.2896218140447
20
-2.12056452574643
30
0
41
1
10
27.870829760634
20
-1.929856197769
30
0
41
1
10
27.2415543132845
20
-1.63227712330337
30
0
41
1
10
27.0318078427275
20
-1.53163383392314
30
0
41
1
10
26.6126255488942
20
-1.32952369990835
30
0
41
1
10
26.4030837621748
20
-1.22785350678436
30
0
41
1
10
25.7746481364677
20
-0.920696655200743
30
0
41
1
10
25.3562682216618
20
-0.712474313364083
30
0
41
1
10
24.7282513311522
20
-0.397237191648884
30
0
41
1
10
24.5187474883389
20
-0.291828625289412
30
0
41
1
10
24.0991848316177
20
-0.0805822611694396
30
0
41
1
10
23.8890069965609
20
0.0251916978301381
30
0
41
1
10
23.2592875370755
20
0.342400508352711
30
0
41
1
10
22.8405858496754
20
0.553566244643349
30
0
41
1
10
22.0026969585167
20
0.969818449424537
30
0
41
1
10
21.584059131685
20
1.17612448288986
30
0
41
1
10
20.9554431481237
20
1.47968258297169
30
0
41
1
10
20.7456702464108
20
1.57975483163577
30
0
41
1
10
20.3255669824886
20
1.77771821505561
30
0
41
1
10
20.1154083274457
20
1.87551175360568
30
0
41
1
10
19.6959079843106
20
2.06815267383092
30
0
41
1
10
19.4865012627353
20
2.16294542690818
30
0
41
1
10
19.0677493311174
20
2.34924330705982
30
0
41
1
10
18.8583744035655
20
2.440767485533
30
0
41
1
10
18.2300686120684
20
2.70937113672997
30
0
41
1
10
17.811180389248
20
2.88071190482631
30
0
41
1
10
17.1820917917084
20
3.12615858758642
30
0
41
1
10
16.9719788422632
20
3.20581316164106
30
0
41
1
10
16.5520346621949
20
3.35961652677685
30
0
41
1
10
16.3422386950936
20
3.433851581749
30
0
41
1
10
15.7133896059092
20
3.64952397826363
30
0
41
1
10
15.2950849416433
20
3.7839932288914
30
0
41
1
10
14.4572908670163
20
4.02880031187723
30
0
41
1
10
14.0381413984718
20
4.14032996624994
30
0
41
1
10
13.4084440573869
20
4.28799135596321
30
0
41
1
10
13.1983430790042
20
4.33387101883758
30
0
41
1
10
12.7786228783531
20
4.4196008783625
30
0
41
1
10
12.5688490244021
20
4.45957088868178
30
0
41
1
10
11.9399803757138
20
4.57020917235133
30
0
41
1
10
11.5215880166686
20
4.63156632590616
30
0
41
1
10
10.8931130067407
20
4.70219751146936
30
0
41
1
10
10.6834898339717
20
4.72217086436385
30
0
41
1
10
10.2638665422253
20
4.75450124025372
30
0
41
1
10
10.0538630313464
20
4.76680033634514
30
0
41
1
10
9.84372477259112
20
4.77619753195216
30
0
0
SPLINE
5
D0
100
AcDbEntity
8
1
62
256
6
ByLayer
370
18
48
1
60
0
100
AcDbSpline
70
4
71
3
72
8
73
4
40
0
40
0
40
0
40
0
40
1
40
1
40
1
40
1
41
1
10
9.06763356331626
20
4.79573356836218
30
0
41
1
10
9.32539764996568
20
4.79445936554885
30
0
41
1
10
9.58418809960449
20
4.78773818669401
30
0
41
1
10
9.84359839601737
20
4.77620365527787
30
0
0
SPLINE
5
D1
100
AcDbEntity
8
1
62
256
6
ByLayer
370
18
48
1
60
0
100
AcDbSpline
70
4
71
3
72
16
73
12
40
0
40
0
40
0
40
0
40
0.0353918008782024
40
0.0353918008782024
40
0.433951703381366
40
0.433951703381366
40
0.832511605884529
40
0.832511605884529
40
0.93215158151032
40
0.93215158151032
40
1
40
1
40
1
40
1
41
1
10
39.0996617271148
20
-0.0280990160464398
30
0
41
1
10
39.1949225389629
20
-0.0771924111046474
30
0
41
1
10
39.2901941976566
20
-0.126286712982051
30
0
41
1
10
40.4574778087178
20
-0.72742947953239
30
0
41
1
10
41.5152125979251
20
-1.26879822329209
30
0
41
1
10
43.6266681519123
20
-2.28407573239088
30
0
41
1
10
44.6802734028919
20
-2.75817259273703
30
0
41
1
10
46.0096213653952
20
-3.28194434010206
30
0
41
1
10
46.2761182301275
20
-3.38324317606097
30
0
41
1
10
46.7254640354388
20
-3.54713309363564
30
0
41
1
10
46.9081755417786
20
-3.61185758871809
30
0
41
1
10
47.0907659003084
20
-3.67452256667164
30
0
0
SPLINE
5
D2
100
AcDbEntity
8
1
62
256
6
ByLayer
370
13
48
1
60
0
100
AcDbSpline
70
4
71
3
72
16
73
12
40
0
40
0
40
0
40
0
40
0.0309198850127893
40
0.0309198850127893
40
0.224735908010231
40
0.224735908010231
40
0.612367954005116
40
0.612367954005116
40
0.806183977002558
40
0.806183977002558
40
1
40
1
40
1
40
1
41
1
10
47.090765899932
20
-3.67452256654246
30
0
41
1
10
47.176321789862
20
-3.70388533246103
30
0
41
1
10
47.2618510811349
20
-3.73279592025153
30
0
41
1
10
47.8827103577789
20
-3.93934691923866
30
0
41
1
10
48.4142921304601
20
-4.09851876287544
30
0
41
1
10
50.0024311670766
20
-4.51539938253774
30
0
41
1
10
51.052404502042
20
-4.71241076465421
30
0
41
1
10
52.6317763636504
20
-4.87596730871658
30
0
41
1
10
53.1590077757089
20
-4.90853778418614
30
0
41
1
10
54.2178687085095
20
-4.92825506441457
30
0
41
1
10
54.7495976611797
20
-4.91485023876405
30
0
41
1
10
55.2848302586708
20
-4.87895524656474
30
0
0
SPLINE
5
D3
100
AcDbEntity
8
1
62
256
6
ByLayer
370
18
48
1
60
0
100
AcDbSpline
70
4
71
3
72
60
73
56
40
0
40
0
40
0
40
0
40
0.0625000000000007
40
0.0625000000000007
40
0.125000000000001
40
0.125000000000001
40
0.250000000000003
40
0.250000000000003
40
0.375000000000004
40
0.375000000000004
40
0.500000000000005
40
0.500000000000005
40
0.562500000000006
40
0.562500000000006
40
0.625000000000008
40
0.625000000000008
40
0.687500000000009
40
0.687500000000009
40
0.70312500000001
40
0.70312500000001
40
0.70703125000001
40
0.70703125000001
40
0.70898437500001
40
0.70898437500001
40
0.71093750000001
40
0.71093750000001
40
0.71875000000001
40
0.71875000000001
40
0.750000000000008
40
0.750000000000008
40
0.781250000000007
40
0.781250000000007
40
0.796875000000007
40
0.796875000000007
40
0.804687500000006
40
0.804687500000006
40
0.812500000000006
40
0.812500000000006
40
0.828125000000006
40
0.828125000000006
40
0.835937500000006
40
0.835937500000006
40
0.843750000000006
40
0.843750000000006
40
0.859375000000005
40
0.859375000000005
40
0.875000000000005
40
0.875000000000005
40
0.906250000000004
40
0.906250000000004
40
0.937500000000003
40
0.937500000000003
40
0.968750000000001
40
0.968750000000001
40
1
40
1
40
1
40
1
41
1
10
16.8858854153534
20
-3.95787047330944
30
0
41
1
10
16.5134173787943
20
-3.83605040658966
30
0
41
1
10
16.1387522739375
20
-3.70844289479535
30
0
41
1
10
15.3844003687011
20
-3.44500305615426
30
0
41
1
10
15.0044157387087
20
-3.30905825383812
30
0
41
1
10
13.8573009171183
20
-2.89509683126966
30
0
41
1
10
13.0887053556969
20
-2.61302012641275
30
0
41
1
10
11.5356988194901
20
-2.07021507742118
30
0
41
1
10
10.751214993765
20
-1.80971104682442
30
0
41
1
10
9.15954197281511
20
-1.34225454168839
30
0
41
1
10
8.35235271803612
20
-1.13540533814012
30
0
41
1
10
7.12138402390241
20
-0.88389261895486
30
0
41
1
10
6.70771769148863
20
-0.809779485711459
30
0
41
1
10
5.87332607003572
20
-0.683398629610224
30
0
41
1
10
5.45410379366797
20
-0.631377935067292
30
0
41
1
10
4.61414302311798
20
-0.551473604589859
30
0
41
1
10
4.19277417368608
20
-0.523503778608955
30
0
41
1
10
3.66513394659472
20
-0.504454353232774
30
0
41
1
10
3.55958906802314
20
-0.501367456166889
30
0
41
1
10
3.42763019629328
20
-0.498702296512022
30
0
41
1
10
3.40059332184217
20
-0.500841185518851
30
0
41
1
10
3.36220498200294
20
-0.509776611713903
30
0
41
1
10
3.34984903909856
20
-0.513678358250104
30
0
41
1
10
3.32640879451213
20
-0.524147446639688
30
0
41
1
10
3.31550244377163
20
-0.531087696104606
30
0
41
1
10
3.26000013888179
20
-0.563745628551118
30
0
41
1
10
3.21589148493953
20
-0.590550610272288
30
0
41
1
10
2.99796086825896
20
-0.727676378767711
30
0
41
1
10
2.83085049843712
20
-0.847590055766858
30
0
41
1
10
2.52156472041088
20
-1.11634631382881
30
0
41
1
10
2.38183193673916
20
-1.26257956076498
30
0
41
1
10
2.20888372734868
20
-1.51039585191478
30
0
41
1
10
2.1587251696578
20
-1.59623188387536
30
0
41
1
10
2.09757685507555
20
-1.72938540846826
30
0
41
1
10
2.0795094769619
20
-1.77456260131987
30
0
41
1
10
2.04847260743429
20
-1.86664012153725
30
0
41
1
10
2.03557901837905
20
-1.91346556779177
30
0
41
1
10
2.00587792896499
20
-2.05284097963821
30
0
41
1
10
1.99759261918899
20
-2.14549990943399
30
0
41
1
10
2.0021046720077
20
-2.28394819033724
30
0
41
1
10
2.0064915523007
20
-2.33020123118325
30
0
41
1
10
2.0204637600246
20
-2.42041503731906
30
0
41
1
10
2.03003176154292
20
-2.46461232174764
30
0
41
1
10
2.06570830664424
20
-2.59470708484838
30
0
41
1
10
2.09911971546998
20
-2.67875387413804
30
0
41
1
10
2.17937192913996
20
-2.83750795567693
30
0
41
1
10
2.22600013818607
20
-2.91224083397313
30
0
41
1
10
2.38063804373203
20
-3.12565556614635
30
0
41
1
10
2.5042867957215
20
-3.25450858227529
30
0
41
1
10
2.76896572820579
20
-3.48642817728228
30
0
41
1
10
2.91060872141472
20
-3.59035295748373
30
0
41
1
10
3.20607420906032
20
-3.78164499871423
30
0
41
1
10
3.35998814485694
20
-3.86890597221787
30
0
41
1
10
3.67684162920383
20
-4.03055413401057
30
0
41
1
10
3.83805027263622
20
-4.10403066413662
30
0
41
1
10
4.00115313270661
20
-4.17175786572432
30
0
0
SPLINE
5
D4
100
AcDbEntity
8
1
62
256
6
ByLayer
370
18
48
1
60
0
100
AcDbSpline
70
4
71
3
72
20
73
16
40
0
40
0
40
0
40
0
40
0.10515269752355
40
0.10515269752355
40
0.210305395047101
40
0.210305395047101
40
0.420610790094204
40
0.420610790094204
40
0.525763487617756
40
0.525763487617756
40
0.630916185141308
40
0.630916185141308
40
0.841221580188415
40
0.841221580188415
40
1
40
1
40
1
40
1
41
1
10
9.84372477259103
20
-4.77619753195219
30
0
41
1
10
10.0538662934489
20
-4.76680019046688
30
0
41
1
10
10.2638774171202
20
-4.75450069683311
30
0
41
1
10
10.6835274488269
20
-4.72216767179998
30
0
41
1
10
10.8931696582549
20
-4.7021920675825
30
0
41
1
10
11.5217178464547
20
-4.6315498886546
30
0
41
1
10
11.9401803772726
20
-4.57017965660151
30
0
41
1
10
12.5691848982389
20
-4.45950895920129
30
0
41
1
10
12.7790089765102
20
-4.41952612263802
30
0
41
1
10
13.1988388146735
20
-4.33376564714831
30
0
41
1
10
13.4089994280278
20
-4.28786648439265
30
0
41
1
10
14.0385416110556
20
-4.14022537771498
30
0
41
1
10
14.4576406193448
20
-4.02870443804747
30
0
41
1
10
15.1927893917016
20
-3.81387965468039
30
0
41
1
10
15.5087371945809
20
-3.71457742044521
30
0
41
1
10
15.8250275634859
20
-3.60957284907283
30
0
0
SPLINE
5
D5
100
AcDbEntity
8
1
62
256
6
ByLayer
370
18
48
1
60
0
100
AcDbSpline
70
4
71
3
72
30
73
26
40
0
40
0
40
0
40
0
40
0.0225397404094369
40
0.0225397404094369
40
0.0800374027382961
40
0.0800374027382961
40
0.195032727396011
40
0.195032727396011
40
0.252530389724868
40
0.252530389724868
40
0.310028052053724
40
0.310028052053724
40
0.425023376711436
40
0.425023376711436
40
0.540018701369148
40
0.540018701369148
40
0.65501402602686
40
0.65501402602686
40
0.770009350684572
40
0.770009350684572
40
0.827507013013428
40
0.827507013013428
40
0.885004675342284
40
0.885004675342284
40
1
40
1
40
1
40
1
41
1
10
39.1362657783451
20
4.81120881996677
30
0
41
1
10
39.218235291711
20
4.81020484536069
30
0
41
1
10
39.3002092652929
20
4.8086775150995
30
0
41
1
10
39.5913251461117
20
4.80148063289465
30
0
41
1
10
39.8004619242981
20
4.79329502291966
30
0
41
1
10
40.4278953369163
20
4.75777239141837
30
0
41
1
10
40.8465405115022
20
4.71882445546669
30
0
41
1
10
41.4756485927755
20
4.64240863157815
30
0
41
1
10
41.6851399707176
20
4.61361440567845
30
0
41
1
10
42.1036812901526
20
4.54847203923705
30
0
41
1
10
42.3127235386819
20
4.51235751573464
30
0
41
1
10
42.9396528044069
20
4.39509743258259
30
0
41
1
10
43.3577859388286
20
4.30442417768623
30
0
41
1
10
44.1947935980204
20
4.09840775457539
30
0
41
1
10
44.6139507080327
20
3.98392655704899
30
0
41
1
10
45.4514993657951
20
3.73087686809612
30
0
41
1
10
45.8696107469065
20
3.59281960425753
30
0
41
1
10
46.7051874470134
20
3.29686969926758
30
0
41
1
10
47.1232558891411
20
3.13990028948834
30
0
41
1
10
47.7511591131936
20
2.89177586986497
30
0
41
1
10
47.960703844287
20
2.8066240222422
30
0
41
1
10
48.3795532555328
20
2.63177532132346
30
0
41
1
10
48.5886880521958
20
2.54231982782687
30
0
41
1
10
49.2159516841983
20
2.26959927553543
30
0
41
1
10
49.6336390076936
20
2.0813893747183
30
0
41
1
10
50.0509896271748
20
1.88696871997797
30
0
0
SPLINE
5
D6
100
AcDbEntity
8
1
62
256
6
ByLayer
370
18
48
1
60
0
100
AcDbSpline
70
4
71
3
72
8
73
4
40
0
40
0
40
0
40
0
40
1
40
1
40
1
40
1
41
1
10
16.8858854153535
20
3.95787047330944
30
0
41
1
10
16.5295265061257
20
3.84131908678151
30
0
41
1
10
16.1711564639537
20
3.7194700399736
30
0
41
1
10
15.8105004865454
20
3.59379030000912
30
0
0
SPLINE
5
D7
100
AcDbEntity
8
1
62
256
6
ByLayer
370
18
48
1
60
0
100
AcDbSpline
70
4
71
3
72
22
73
18
40
0
40
0
40
0
40
0
40
0.189573339910909
40
0.189573339910909
40
0.379146679821818
40
0.379146679821818
40
0.568720019732727
40
0.568720019732727
40
0.663506689688181
40
0.663506689688181
40
0.758293359643636
40
0.758293359643636
40
0.85308002959909
40
0.85308002959909
40
0.947866699554545
40
0.947866699554545
40
1
40
1
40
1
40
1
41
1
10
16.8858936019798
20
-3.95785491889671
30
0
41
1
10
17.28942200803
20
-4.09012100228983
30
0
41
1
10
17.6920783969587
20
-4.20965805780583
30
0
41
1
10
18.4942436555787
20
-4.42614189225651
30
0
41
1
10
18.893112846746
20
-4.5234772071567
30
0
41
1
10
19.6912979756052
20
-4.69221180263429
30
0
41
1
10
20.0903119212112
20
-4.76409043092249
30
0
41
1
10
20.6876975933424
20
-4.85374797387971
30
0
41
1
10
20.8866247339309
20
-4.88056786208577
30
0
41
1
10
21.2852919209195
20
-4.92749639461809
30
0
41
1
10
21.4849071615928
20
-4.94768637890039
30
0
41
1
10
21.8844990105003
20
-4.98162489433324
30
0
41
1
10
22.0844833063772
20
-4.99537063862547
30
0
41
1
10
22.4846608068544
20
-5.01635284668831
30
0
41
1
10
22.6847432762648
20
-5.02358530455896
30
0
41
1
10
22.9957046037285
20
-5.02955419646523
30
0
41
1
10
23.106228081985
20
-5.03065641604803
30
0
41
1
10
23.216910180048
20
-5.03074442684328
30
0
0
SPLINE
5
D8
100
AcDbEntity
8
1
62
256
6
ByLayer
370
18
48
1
60
0
100
AcDbSpline
70
4
71
3
72
30
73
26
40
0
40
0
40
0
40
0
40
0.0527913111487239
40
0.0527913111487239
40
0.115938557072142
40
0.115938557072142
40
0.179085802995561
40
0.179085802995561
40
0.242233048918979
40
0.242233048918979
40
0.368527540765816
40
0.368527540765816
40
0.431674786689234
40
0.431674786689234
40
0.494822032612652
40
0.494822032612652
40
0.557969278536071
40
0.557969278536071
40
0.621116524459489
40
0.621116524459489
40
0.747411016306326
40
0.747411016306326
40
0.873705508153163
40
0.873705508153163
40
1
40
1
40
1
40
1
41
1
10
45.8033735104503
20
3.60796739002214
30
0
41
1
10
45.9706812287627
20
3.67015833095081
30
0
41
1
10
46.1377603364883
20
3.73057939976803
30
0
41
1
10
46.5047098060436
20
3.85876693807373
30
0
41
1
10
46.7044429872106
20
3.92584864437853
30
0
41
1
10
47.1034976570257
20
4.05479313707181
30
0
41
1
10
47.3028205391898
20
4.116654685215
30
0
41
1
10
47.7008707079286
20
4.23531456814732
30
0
41
1
10
47.8995698454718
20
4.29211850446251
30
0
41
1
10
48.4965584486003
20
4.4530610896623
30
0
41
1
10
48.8952408615253
20
4.54838884255236
30
0
41
1
10
49.4932428950537
20
4.67429045966745
30
0
41
1
10
49.6924598908637
20
4.71345780725531
30
0
41
1
10
50.0916981055931
20
4.78536835687868
30
0
41
1
10
50.2918136404328
20
4.81807240581154
30
0
41
1
10
50.6927595380342
20
4.87718499926709
30
0
41
1
10
50.893605213296
20
4.9035832064948
30
0
41
1
10
51.295888578456
20
4.95004255185987
30
0
41
1
10
51.4974346284757
20
4.97014771310208
30
0
41
1
10
52.1021552850735
20
5.0203337600679
30
0
41
1
10
52.5047954434647
20
5.04000277987015
30
0
41
1
10
53.3079600370529
20
5.05283298749748
30
0
41
1
10
53.7078548722973
20
5.04577164404921
30
0
41
1
10
54.5094243845343
20
5.00514898777556
30
0
41
1
10
54.9106107249673
20
4.97175646403173
30
0
41
1
10
55.3115347054539
20
4.92483796120757
30
0
0
SPLINE
5
D9
100
AcDbEntity
8
1
62
256
6
ByLayer
370
18
48
1
60
0
100
AcDbSpline
70
4
71
3
72
96
73
92
40
0
40
0
40
0
40
0
40
0.0330829584857758
40
0.0330829584857758
40
0.0661659169715516
40
0.0661659169715516
40
0.0992488754573274
40
0.0992488754573274
40
0.115790354700215
40
0.115790354700215
40
0.132331833943102
40
0.132331833943102
40
0.14887331318599
40
0.14887331318599
40
0.165414792428877
40
0.165414792428877
40
0.181956271671765
40
0.181956271671765
40
0.198497750914652
40
0.198497750914652
40
0.231580709400426
40
0.231580709400426
40
0.2646636678862
40
0.2646636678862
40
0.297746626371974
40
0.297746626371974
40
0.314288105614861
40
0.314288105614861
40
0.330829584857748
40
0.330829584857748
40
0.363912543343521
40
0.363912543343521
40
0.380454022586407
40
0.380454022586407
40
0.396995501829294
40
0.396995501829294
40
0.41353698107218
40
0.41353698107218
40
0.430078460315066
40
0.430078460315066
40
0.463161418800839
40
0.463161418800839
40
0.496244377286612
40
0.496244377286612
40
0.529327335772385
40
0.529327335772385
40
0.562410294258158
40
0.562410294258158
40
0.578951773501045
40
0.578951773501045
40
0.595493252743932
40
0.595493252743932
40
0.628576211229704
40
0.628576211229704
40
0.64511769047259
40
0.64511769047259
40
0.661659169715477
40
0.661659169715477
40
0.678200648958364
40
0.678200648958364
40
0.69474212820125
40
0.69474212820125
40
0.727825086687023
40
0.727825086687023
40
0.760908045172795
40
0.760908045172795
40
0.777449524415681
40
0.777449524415681
40
0.793991003658567
40
0.793991003658567
40
0.810532482901453
40
0.810532482901453
40
0.827073962144339
40
0.827073962144339
40
0.843615441387225
40
0.843615441387225
40
0.860156920630112
40
0.860156920630112
40
0.893239879115883
40
0.893239879115883
40
0.909781358358769
40
0.909781358358769
40
0.926322837601655
40
0.926322837601655
40
0.942864316844541
40
0.942864316844541
40
0.959405796087427
40
0.959405796087427
40
0.9924887545732
40
0.9924887545732
40
1
40
1
40
1
40
1
41
1
10
16.8858936019798
20
3.95785491889669
30
0
41
1
10
17.28942200803
20
4.09012100228981
30
0
41
1
10
17.6920783969587
20
4.20965805780583
30
0
41
1
10
18.4942436555787
20
4.42614189225651
30
0
41
1
10
18.893112846746
20
4.52347720715667
30
0
41
1
10
19.6912979756051
20
4.69221180263432
30
0
41
1
10
20.0903119212112
20
4.76409043092249
30
0
41
1
10
20.6876975933423
20
4.85374797387971
30
0
41
1
10
20.8866247339309
20
4.88056786208574
30
0
41
1
10
21.2852919209195
20
4.92749639461809
30
0
41
1
10
21.4849071615927
20
4.94768637890039
30
0
41
1
10
21.8844990105003
20
4.98162489433324
30
0
41
1
10
22.0844833063772
20
4.99537063862547
30
0
41
1
10
22.4846608068544
20
5.01635284668831
30
0
41
1
10
22.6847432762648
20
5.02358530455896
30
0
41
1
10
23.0859819728801
20
5.03128706743811
30
0
41
1
10
23.2872013036676
20
5.03178004389648
30
0
41
1
10
23.6905649073689
20
5.02606920459752
30
0
41
1
10
23.8929752252052
20
5.01984432446807
30
0
41
1
10
24.4977335476347
20
4.99110749132069
30
0
41
1
10
24.8983270322583
20
4.95833717950995
30
0
41
1
10
25.6991708621928
20
4.86771170658062
30
0
41
1
10
26.0986478983851
20
4.80973091726122
30
0
41
1
10
26.8951528882466
20
4.66796454089723
30
0
41
1
10
27.2936931997725
20
4.58515588817605
30
0
41
1
10
27.8917840461503
20
4.44328428397745
30
0
41
1
10
28.0911430960619
20
4.39299775173086
30
0
41
1
10
28.4897082720685
20
4.28618269584643
30
0
41
1
10
28.6890291933993
20
4.22974654949067
30
0
41
1
10
29.288555323924
20
4.05290473747331
30
0
41
1
10
29.6897281868913
20
3.92447247580975
30
0
41
1
10
30.292756037342
20
3.71438057371827
30
0
41
1
10
30.493911425988
20
3.6413066443757
30
0
41
1
10
30.8977625355592
20
3.4907369794465
30
0
41
1
10
31.0993981220645
20
3.41351185776219
30
0
41
1
10
31.5018348450721
20
3.25496389297371
30
0
41
1
10
31.7026553357801
20
3.17365444194829
30
0
41
1
10
32.1033331277393
20
3.00671236754681
30
0
41
1
10
32.3030728865968
20
2.92088466778213
30
0
41
1
10
32.9019581167644
20
2.65867369024022
30
0
41
1
10
33.301196109019
20
2.47833302686334
30
0
41
1
10
34.0980932669286
20
2.10422391450609
30
0
41
1
10
34.495400599224
20
1.90973913079097
30
0
41
1
10
35.2926999028316
20
1.5147484510818
30
0
41
1
10
35.692009360626
20
1.31309454548932
30
0
41
1
10
36.491031975975
20
0.899443770981236
30
0
41
1
10
36.8921737666792
20
0.690178292084937
30
0
41
1
10
37.4966534399435
20
0.373228686366076
30
0
41
1
10
37.698870433404
20
0.266761248830591
30
0
41
1
10
38.1017714744287
20
0.0532797987292497
30
0
41
1
10
38.3025883976031
20
-0.0536596491682815
30
0
41
1
10
38.9048004850404
20
-0.371765545172906
30
0
41
1
10
39.3053889851955
20
-0.581420520583322
30
0
41
1
10
39.9039493210414
20
-0.894323460030648
30
0
41
1
10
40.1029800404988
20
-0.99854388901818
30
0
41
1
10
40.5012781483969
20
-1.20450321022418
30
0
41
1
10
40.7005309961961
20
-1.3062788397628
30
0
41
1
10
41.0989817089377
20
-1.50794496722975
30
0
41
1
10
41.2981957074644
20
-1.60780489257706
30
0
41
1
10
41.6964324581168
20
-1.80587500897283
30
0
41
1
10
41.8953445834212
20
-1.90428093106502
30
0
41
1
10
42.4926069255447
20
-2.19550476364299
30
0
41
1
10
42.8922465360462
20
-2.38301495677158
30
0
41
1
10
43.6930783916004
20
-2.74717113140736
30
0
41
1
10
44.0937898551774
20
-2.9245554834244
30
0
41
1
10
44.6990912097799
20
-3.17712002191192
30
0
41
1
10
44.9012075403771
20
-3.25919658775456
30
0
41
1
10
45.3038373162104
20
-3.41853946899795
30
0
41
1
10
45.5046381928854
20
-3.49595731891569
30
0
41
1
10
45.9051305536018
20
-3.64637406503724
30
0
41
1
10
46.1049834513148
20
-3.71912935399246
30
0
41
1
10
46.5047098060435
20
-3.85876693807364
30
0
41
1
10
46.7044429872104
20
-3.92584864437848
30
0
41
1
10
47.1034976570256
20
-4.05479313707175
30
0
41
1
10
47.3028205391897
20
-4.11665468521494
30
0
41
1
10
47.7008707079284
20
-4.23531456814723
30
0
41
1
10
47.8995698454715
20
-4.29211850446248
30
0
41
1
10
48.4965584486002
20
-4.45306108966224
30
0
41
1
10
48.8952408615252
20
-4.54838884255233
30
0
41
1
10
49.4932428950535
20
-4.67429045966739
30
0
41
1
10
49.6924598908635
20
-4.71345780725528
30
0
41
1
10
50.0916981055928
20
-4.78536835687862
30
0
41
1
10
50.2918136404326
20
-4.81807240581151
30
0
41
1
10
50.692759538034
20
-4.87718499926706
30
0
41
1
10
50.8936052132958
20
-4.90358320649477
30
0
41
1
10
51.2958885784558
20
-4.95004255185987
30
0
41
1
10
51.4974346284756
20
-4.97014771310205
30
0
41
1
10
52.1021552850734
20
-5.0203337600679
30
0
41
1
10
52.5047954434646
20
-5.04000277987015
30
0
41
1
10
52.9975540838609
20
-5.04787438640872
30
0
41
1
10
53.0886434415131
20
-5.04863619978292
30
0
41
1
10
53.1796759781021
20
-5.04870597425429
30
0
0
LINE
5
76
100
AcDbEntity
8
81
62
256
6
ByLayer
370
18
48
1
60
0
100
AcDbLine
10
57
20
0
30
0
11
62
21
0
31
0
39
0
210
0
220
0
230
1
0
LINE
5
77
100
AcDbEntity
8
1
62
256
6
ByLayer
370
18
48
1
60
0
100
AcDbLine
10
4.001113
20
5.019214
30
0
11
1.476437
21
5.017699
31
0
39
0
210
0
220
0
230
1
0
LINE
5
79
100
AcDbEntity
8
1
62
256
6
ByLayer
370
18
48
1
60
0
100
AcDbLine
10
24.070202
20
5.031255
30
0
11
23.222607
21
5.030747
31
0
39
0
210
0
220
0
230
1
0
LINE
5
7A
100
AcDbEntity
8
1
62
256
6
ByLayer
370
18
48
1
60
0
100
AcDbLine
10
54.020175
20
5.049225
30
0
11
53.183872
21
5.048723
31
0
39
0
210
0
220
0
230
1
0
LINE
5
7B
100
AcDbEntity
8
1
62
256
6
ByLayer
370
18
48
1
60
0
100
AcDbLine
10
53.183872
20
-5.048723
30
0
11
54.019974
21
-5.049225
31
0
39
0
210
0
220
0
230
1
0
LINE
5
7C
100
AcDbEntity
8
1
62
256
6
ByLayer
370
18
48
1
60
0
100
AcDbLine
10
23.222607
20
-5.030747
30
0
11
24.070085
21
-5.031255
31
0
39
0
210
0
220
0
230
1
0
LINE
5
7D
100
AcDbEntity
8
1
62
256
6
ByLayer
370
18
48
1
60
0
100
AcDbLine
10
1.476437
20
-5.017699
30
0
11
4.001113
21
-5.019214
31
0
39
0
210
0
220
0
230
1
0
LINE
5
7E
100
AcDbEntity
8
SK1
62
256
6
ByLayer
370
18
48
1
60
0
100
AcDbLine
10
-43.556624
20
6
30
0
11
-45
21
3.5
31
0
39
0
210
0
220
0
230
1
0
LINE
5
80
100
AcDbEntity
8
SK1
62
256
6
ByLayer
370
18
48
1
60
0
100
AcDbLine
10
-45
20
-3.5
30
0
11
-43.556624
21
-6
31
0
39
0
210
0
220
0
230
1
0
LINE
5
81
100
AcDbEntity
8
SK1
62
256
6
ByLayer
370
18
48
1
60
0
100
AcDbLine
10
0
20
6
30
0
11
-43.556624
21
6
31
0
39
0
210
0
220
0
230
1
0
LINE
5
82
100
AcDbEntity
8
SK1
62
256
6
ByLayer
370
18
48
1
60
0
100
AcDbLine
10
-43.556624
20
-6
30
0
11
0
21
-6
31
0
39
0
210
0
220
0
230
1
0
LINE
5
83
100
AcDbEntity
8
SK4
62
256
6
ByLayer
370
18
48
0.05
60
0
100
AcDbLine
10
62
20
0
30
0
11
-50
21
0
31
0
39
0
210
0
220
0
230
1
0
LINE
5
85
100
AcDbEntity
8
4
62
256
6
ByLayer
370
18
48
0.05
60
0
100
AcDbLine
10
57
20
0
30
0
11
0
21
0
31
0
39
0
210
0
220
0
230
1
0
LINE
5
87
100
AcDbEntity
8
80
62
256
6
ByLayer
370
18
48
1
60
0
100
AcDbLine
10
0
20
0
30
0
11
-5
21
0
31
0
39
0
210
0
220
0
230
1
0
LINE
5
88
100
AcDbEntity
8
1
62
256
6
ByLayer
370
18
48
1
60
0
100
AcDbLine
10
57
20
0
30
0
11
55.244594
21
-4.822938
31
0
39
0
210
0
220
0
230
1
0
LINE
5
89
100
AcDbEntity
8
1
62
256
6
ByLayer
370
18
48
1
60
0
100
AcDbLine
10
56.913062
20
0.296657
30
0
11
56.732551
21
0.963077
31
0
39
0
210
0
220
0
230
1
0
LINE
5
8A
100
AcDbEntity
8
1
62
256
6
ByLayer
370
18
48
1
60
0
100
AcDbLine
10
0
20
-6
30
0
11
0
21
6
31
0
39
0
210
0
220
0
230
1
0
LINE
5
8B
100
AcDbEntity
8
1
62
256
6
ByLayer
370
13
48
1
60
0
100
AcDbLine
10
0.737978
20
5.508849
30
0
11
0.737978
21
-5.508849
31
0
39
0
210
0
220
0
230
1
0
LINE
5
8C
100
AcDbEntity
8
1
62
256
6
ByLayer
370
18
48
1
60
0
100
AcDbLine
10
57
20
0
30
0
11
56.989366
21
-0.047706
31
0
39
0
210
0
220
0
230
1
0
LINE
5
8D
100
AcDbEntity
8
1
62
256
6
ByLayer
370
18
48
1
60
0
100
AcDbLine
10
56.913062
20
-0.296657
30
0
11
56.732551
21
-0.963077
31
0
39
0
210
0
220
0
230
1
0
LINE
5
8E
100
AcDbEntity
8
1
62
256
6
ByLayer
370
18
48
1
60
0
100
AcDbLine
10
56.989366
20
0.047706
30
0
11
57
21
0
31
0
39
0
210
0
220
0
230
1
0
LINE
5
8F
100
AcDbEntity
8
1
62
256
6
ByLayer
370
13
48
1
60
0
100
AcDbLine
10
1.476437
20
5.017699
30
0
11
1.476437
21
-5.017699
31
0
39
0
210
0
220
0
230
1
0
LINE
5
90
100
AcDbEntity
8
1
62
256
6
ByLayer
370
18
48
1
60
0
100
AcDbLine
10
4.250567
20
-4.792872
30
0
11
4.25057
21
-4.792686
31
0
39
0
210
0
220
0
230
1
0
LINE
5
91
100
AcDbEntity
8
1
62
256
6
ByLayer
370
18
48
1
60
0
100
AcDbLine
10
4.250567
20
4.792872
30
0
11
4.25057
21
4.792686
31
0
39
0
210
0
220
0
230
1
0
LINE
5
92
100
AcDbEntity
8
1
62
256
6
ByLayer
370
13
48
1
60
0
100
AcDbLine
10
55.56709
20
0.963077
30
0
11
56.913062
21
0.296657
31
0
39
0
210
0
220
0
230
1
0
LINE
5
93
100
AcDbEntity
8
1
62
256
6
ByLayer
370
13
48
1
60
0
100
AcDbLine
10
55.397631
20
0.616652
30
0
11
56.894502
21
-0.12448
31
0
39
0
210
0
220
0
230
1
0
LINE
5
94
100
AcDbEntity
8
1
62
256
6
ByLayer
370
18
48
1
60
0
100
AcDbLine
10
54.458057
20
-2.839854
30
0
11
56.894502
21
-0.12448
31
0
39
0
210
0
220
0
230
1
0
LINE
5
95
100
AcDbEntity
8
1
62
256
6
ByLayer
370
13
48
1
60
0
100
AcDbLine
10
56.732551
20
0.963077
30
0
11
55.56709
21
0.963077
31
0
39
0
210
0
220
0
230
1
0
LINE
5
96
100
AcDbEntity
8
SK1
62
256
6
ByLayer
370
18
48
1
60
0
100
AcDbLine
10
-43.556624
20
6
30
0
11
-43.556624
21
-6
31
0
39
0
210
0
220
0
230
1
0
LINE
5
97
100
AcDbEntity
8
SK1
62
256
6
ByLayer
370
18
48
1
60
0
100
AcDbLine
10
-45
20
3.5
30
0
11
-45
21
-3.5
31
0
39
0
210
0
220
0
230
1
0
LINE
5
98
100
AcDbEntity
8
SK1
62
256
6
ByLayer
370
18
48
1
60
0
100
AcDbLine
10
0
20
-6
30
0
11
0
21
6
31
0
39
0
210
0
220
0
230
1
0
MTEXT
5
DA
100
AcDbEntity
8
SK6
62
256
6
ByLayer
370
13
48
1
60
0
100
AcDbMText
10
8.129169
20
37.432694
30
0
210
0
220
0
230
1
1
\W0.7415;R840-1010-30-A0A1220
40
3.5
41
0
44
1.084337
50
0
71
8
72
5
7
iso_b_vert
0
DIMENSION
5
E7
100
AcDbEntity
8
SK2
62
256
6
ByLayer
370
13
48
1
60
0
100
AcDbDimension
2
DimnDraft3D1
10
55.27
20
-15.263398
30
0
11
26.020059
21
-15.263398
31
0
70
32
71
5
72
1
41
1
210
0
220
0
230
1
3
Standard
100
AcDbAlignedDimension
13
0
23
-1.5875
33
0
14
55.27
24
-6.6375
34
0
50
0
100
AcDbRotatedDimension
1001
ACAD
1000
DSTYLE
1002
{
1070
   279
1070
     0
1070
   172
1070
     1
1070
   173
1070
     1
1070
   340
1005
DB
1070
   271
1070
     2
1070
   272
1070
     2
1070
    77
1070
     1
1070
    73
1070
     0
1070
   171
1070
     3
1070
   274
1070
     4
1070
   177
1070
    35
1070
   176
1070
    35
1070
   178
1070
    35
1070
    48
1040
-0.005
1070
    41
1041
3.5
1070
   147
1041
1.75
1070
    42
1041
1.5875
1070
    44
1041
2.0
1070
   140
1041
3.5
1070
   343
1005
0
1070
   344
1005
0
1002
}
0
DIMENSION
5
F1
100
AcDbEntity
8
SK2
62
256
6
ByLayer
370
13
48
1
60
0
100
AcDbDimension
2
DimnDraft3D2
10
57
20
-34.692985
30
0
11
5.6113
21
-34.692985
31
0
70
32
71
5
72
1
41
1
210
0
220
0
230
1
3
Standard
100
AcDbAlignedDimension
13
-45
23
-7.5875
33
0
14
57
24
-1.5875
34
0
50
0
100
AcDbRotatedDimension
1001
ACAD
1000
DSTYLE
1002
{
1070
   279
1070
     0
1070
   172
1070
     1
1070
   173
1070
     1
1070
   340
1005
DB
1070
   271
1070
     2
1070
   272
1070
     2
1070
    77
1070
     1
1070
    73
1070
     0
1070
   171
1070
     3
1070
   274
1070
     4
1070
   177
1070
    35
1070
   176
1070
    35
1070
   178
1070
    35
1070
    48
1040
-0.005
1070
    41
1041
3.5
1070
   147
1041
1.75
1070
    42
1041
1.5875
1070
    44
1041
2.0
1070
   140
1041
3.5
1070
   343
1005
0
1070
   344
1005
0
1002
}
0
DIMENSION
5
FB
100
AcDbEntity
8
SK2
62
256
6
ByLayer
370
13
48
1
60
0
100
AcDbDimension
2
DimnDraft3D3
10
57
20
16.659119
30
0
11
40.985
21
16.659119
31
0
70
32
71
5
72
1
41
1
210
0
220
0
230
1
3
Standard
100
AcDbAlignedDimension
13
24.97
23
6.6375
33
0
14
57
24
1.5875
34
0
50
0
100
AcDbRotatedDimension
1001
ACAD
1000
DSTYLE
1002
{
1070
   279
1070
     0
1070
   172
1070
     1
1070
   173
1070
     1
1070
   340
1005
DB
1070
   271
1070
     2
1070
   272
1070
     2
1070
    77
1070
     1
1070
    73
1070
     0
1070
   171
1070
     3
1070
   274
1070
     4
1070
   177
1070
    35
1070
   176
1070
    35
1070
   178
1070
    35
1070
    48
1040
-0.005
1070
    41
1041
3.5
1070
   147
1041
1.75
1070
    42
1041
1.5875
1070
    44
1041
2.0
1070
   140
1041
3.5
1070
   343
1005
0
1070
   344
1005
0
1002
}
0
DIMENSION
5
105
100
AcDbEntity
8
SK2
62
256
6
ByLayer
370
13
48
1
60
0
100
AcDbDimension
2
DimnDraft3D4
10
55.27
20
-17.852503
30
0
11
66.981425
21
-17.852503
31
0
70
32
71
5
72
1
41
1
210
0
220
0
230
1
3
Standard
100
AcDbAlignedDimension
13
57
23
-1.5875
33
0
14
55.27
24
-6.6375
34
0
50
0
100
AcDbRotatedDimension
1001
ACAD
1000
DSTYLE
1002
{
1070
   279
1070
     0
1070
   172
1070
     1
1070
   173
1070
     1
1070
   340
1005
DB
1070
   271
1070
     2
1070
   272
1070
     2
1070
    77
1070
     1
1070
    73
1070
     0
1070
   171
1070
     3
1070
   274
1070
     4
1070
   177
1070
    35
1070
   176
1070
    35
1070
   178
1070
    35
1070
    48
1040
-0.005
1070
    41
1041
3.5
1070
   147
1041
1.75
1070
    42
1041
1.5875
1070
    44
1041
2.0
1070
   140
1041
3.5
1070
   343
1005
0
1070
   344
1005
0
1002
}
0
DIMENSION
5
10F
100
AcDbEntity
8
SK2
62
256
6
ByLayer
370
13
48
1
60
0
100
AcDbDimension
2
DimnDraft3D5
10
55.27
20
-24.343428
30
0
11
2.530676
21
-24.343428
31
0
70
32
71
5
72
1
41
1
210
0
220
0
230
1
3
Standard
100
AcDbAlignedDimension
13
-45
23
-7.5875
33
0
14
55.27
24
-6.6375
34
0
50
0
100
AcDbRotatedDimension
1001
ACAD
1000
DSTYLE
1002
{
1070
   279
1070
     0
1070
   172
1070
     1
1070
   173
1070
     1
1070
   340
1005
DB
1070
   271
1070
     2
1070
   272
1070
     2
1070
    77
1070
     1
1070
    73
1070
     0
1070
   171
1070
     3
1070
   274
1070
     4
1070
   177
1070
    35
1070
   176
1070
    35
1070
   178
1070
    35
1070
    48
1040
-0.005
1070
    41
1041
3.5
1070
   147
1041
1.75
1070
    42
1041
1.5875
1070
    44
1041
2.0
1070
   140
1041
3.5
1070
   343
1005
0
1070
   344
1005
0
1002
}
0
DIMENSION
5
11A
100
AcDbEntity
8
SK2
62
256
6
ByLayer
370
13
48
1
60
0
100
AcDbDimension
2
DimnDraft3D6
10
-55.625163
20
6
30
0
11
-56.250163
21
24.47418
31
0
70
33
71
5
72
1
41
1
210
0
220
0
230
1
3
Standard
100
AcDbAlignedDimension
13
-46.5875
23
-6
33
0
14
-46.5875
24
6
34
0
1001
ACAD
1000
DSTYLE
1002
{
1070
   279
1070
     0
1070
    74
1070
     0
1070
   173
1070
     1
1070
   340
1005
DB
1070
   271
1070
     3
1070
   272
1070
     2
1070
    77
1070
     1
1070
    73
1070
     0
1070
   171
1070
     3
1070
   274
1070
     4
1070
   177
1070
    35
1070
   176
1070
    35
1070
   178
1070
    35
1070
    48
1040
-0.005
1070
    41
1041
3.5
1070
   147
1041
1.75
1070
    42
1041
1.5875
1070
    44
1041
2.0
1070
   140
1041
3.5
1070
   343
1005
0
1070
   344
1005
0
1002
}
0
DIMENSION
5
125
100
AcDbEntity
8
2
62
256
6
ByLayer
370
13
48
1
60
0
100
AcDbDimension
2
DimnDraft3D7
10
71.083343
20
5.05
30
0
11
66.458343
21
22.117266
31
0
70
33
71
5
72
1
41
1
210
0
220
0
230
1
3
Standard
100
AcDbAlignedDimension
13
56.8575
23
-5.05
33
0
14
56.8575
24
5.05
34
0
1001
ACAD
1000
DSTYLE
1002
{
1070
   279
1070
     0
1070
    74
1070
     0
1070
   173
1070
     1
1070
   340
1005
DB
1070
   271
1070
     3
1070
   272
1070
     2
1070
    77
1070
     1
1070
    73
1070
     0
1070
   171
1070
     3
1070
   274
1070
     4
1070
   177
1070
    35
1070
   176
1070
    35
1070
   178
1070
    35
1070
    48
1040
-0.005
1070
    41
1041
3.5
1070
   147
1041
1.75
1070
    42
1041
1.5875
1070
    44
1041
2.0
1070
   140
1041
3.5
1070
   343
1005
0
1070
   344
1005
0
1002
}
0
ENDSEC
0
SECTION
2
OBJECTS
0
DICTIONARY
5
190
330
0
100
AcDbDictionary
280
0
281
1
3
ACAD_GROUP
350
191
3
ACAD_MLINESTYLE
350
192
0
DICTIONARY
5
191
330
0
100
AcDbDictionary
280
0
281
1
0
DICTIONARY
5
192
330
0
100
AcDbDictionary
280
0
281
1
3
Standard
350
18
0
MLINESTYLE
5
18
330
192
100
AcDbMlineStyle
2
Standard
70
0
3

62
256
51
90
52
90
71
2
49
-0.5
62
256
6
ByLayer
49
0.5
62
256
6
ByLayer
0
RASTERVARIABLES
5
17e
330

100
AcDbRasterVariables
90
0
70
1
71
1
72
1
0
ENDSEC
0
EOF
