0
SECTION
2
HEADER
9
$ACADVER
1
AC1015
9
$DWGCODEPAGE
3
ANSI_1252
9
$HANDSEED
5
1a7
9
$ANGBASE
50
0
9
$ANGDIR
70
0
9
$ATTMODE
70
1
9
$AUNITS
70
0
9
$AUPREC
70
0
9
$CECOLOR
62
256
9
$CELTSCALE
40
1
9
$CELTYPE
6
ByLayer
9
$CELWEIGHT
370
18
9
$CLAYER
8
0
9
$CMLJUST
70
0
9
$CMLSCALE
40
1
9
$CMLSTYLE
2
Standard
9
$DIMSTYLE
2
Standard
9
$TEXTSIZE
40
0.2
9
$TEXTSTYLE
7
Standard
9
$LUNITS
70
2
9
$LUPREC
70
4
9
$EXTNAMES
290
1
9
$INSUNITS
70
4
9
$LTSCALE
40
1
9
$LWDISPLAY
290
1
9
$PDMODE
70
0
9
$PDSIZE
40
0
9
$PLINEGEN
70
0
0
ENDSEC
0
SECTION
2
CLASSES
0
CLASS
1
RASTERVARIABLES
2
AcDbRasterVariables
3
ISM
90
0
280
0
281
0
0
ENDSEC
0
SECTION
2
TABLES
0
TABLE
2
VPORT
5
19d
100
AcDbSymbolTable
0
VPORT
5
1
100
AcDbSymbolTableRecord
100
AcDbViewportTableRecord
2
*Active
70
0
10
0
20
0
11
1
21
1
12
-1
22
1
13
0
23
0
14
0.5
24
0.5
15
10
25
10
16
0
26
0
36
1
17
0
27
0
37
0
0
ENDTAB
0
TABLE
2
LTYPE
5
19e
100
AcDbSymbolTable
0
LTYPE
5
14
100
AcDbSymbolTableRecord
100
AcDbLinetypeTableRecord
70
0
2
ByBlock
3

72
65
73
0
40
0
0
LTYPE
5
15
100
AcDbSymbolTableRecord
100
AcDbLinetypeTableRecord
70
0
2
ByLayer
3

72
65
73
0
40
0
0
LTYPE
5
16
100
AcDbSymbolTableRecord
100
AcDbLinetypeTableRecord
70
0
2
CONTINUOUS
3
Solid line
72
65
73
0
40
0
0
LTYPE
5
6A
100
AcDbSymbolTableRecord
100
AcDbLinetypeTableRecord
70
0
2
CENTER
3
____ _ ____ _ ____ _ ____
72
65
73
4
40
47.5
49
22
74
0
49
-8.5
74
0
49
8.5
74
0
49
-8.5
74
0
0
LTYPE
5
6B
100
AcDbSymbolTableRecord
100
AcDbLinetypeTableRecord
70
0
2
DASHED
3
__ __ __ __ __ __ __ __ __
72
65
73
2
40
25.72
49
12.86
74
0
49
-12.86
74
0
0
ENDTAB
0
TABLE
2
LAYER
5
19f
100
AcDbSymbolTable
0
LAYER
5
10
100
AcDbSymbolTableRecord
100
AcDbLayerTableRecord
2
0
70
0
62
7
6
CONTINUOUS
290
1
370
-3
390
0
0
LAYER
5
6D
100
AcDbSymbolTableRecord
100
AcDbLayerTableRecord
2
81
70
0
62
-3
6
CONTINUOUS
290
1
370
-3
390
0
0
LAYER
5
6F
100
AcDbSymbolTableRecord
100
AcDbLayerTableRecord
2
80
70
0
62
-6
6
CONTINUOUS
290
1
370
-3
390
0
0
LAYER
5
74
100
AcDbSymbolTableRecord
100
AcDbLayerTableRecord
2
2
70
0
62
7
6
CONTINUOUS
290
1
370
-3
390
0
0
LAYER
5
78
100
AcDbSymbolTableRecord
100
AcDbLayerTableRecord
2
1
70
0
62
4
6
CONTINUOUS
290
1
370
-3
390
0
0
LAYER
5
8A
100
AcDbSymbolTableRecord
100
AcDbLayerTableRecord
2
4
70
0
62
-2
6
CENTER
290
1
370
-3
390
0
0
LAYER
5
189
100
AcDbSymbolTableRecord
100
AcDbLayerTableRecord
2
SK2
70
0
62
7
6
CONTINUOUS
290
1
370
-3
390
0
0
LAYER
5
18a
100
AcDbSymbolTableRecord
100
AcDbLayerTableRecord
2
SK1
70
0
62
4
6
CONTINUOUS
290
1
370
-3
390
0
0
LAYER
5
18b
100
AcDbSymbolTableRecord
100
AcDbLayerTableRecord
2
SK4
70
0
62
2
6
CENTER
290
1
370
-3
390
0
0
LAYER
5
18c
100
AcDbSymbolTableRecord
100
AcDbLayerTableRecord
2
SK6
70
0
62
5
6
CONTINUOUS
290
1
370
-3
390
0
0
ENDTAB
0
TABLE
2
STYLE
5
1a0
100
AcDbSymbolTable
0
STYLE
5
11
100
AcDbSymbolTableRecord
100
AcDbTextStyleTableRecord
2
Standard
3
txt
70
0
71
0
40
0
41
1
42
0
50
0
0
STYLE
5
E5
100
AcDbSymbolTableRecord
100
AcDbTextStyleTableRecord
2
iso_b_vert
3
simplex.shx
70
0
71
0
40
0
41
1
42
0
50
0
0
STYLE
5
E6
100
AcDbSymbolTableRecord
100
AcDbTextStyleTableRecord
2
DWGDirectTextStyle
3
simplex
70
0
71
0
40
0
41
1
42
0
50
0
0
ENDTAB
0
TABLE
2
DIMSTYLE
5
1a1
100
AcDbSymbolTable
100
AcDbDimStyleTable
0
DIMSTYLE
105
27
100
AcDbSymbolTableRecord
100
AcDbDimStyleTableRecord
2
Standard
70
0
3
<>
41
0.18
42
0.0625
44
0.18
140
0.18
147
0.09
73
0
74
0
77
1
271
2
275
0
278
52
280
0
340
11
0
ENDTAB
0
TABLE
2
VIEW
5
1a2
100
AcDbSymbolTable
0
ENDTAB
0
TABLE
2
UCS
5
1a3
100
AcDbSymbolTable
0
ENDTAB
0
TABLE
2
APPID
5
1a4
100
AcDbSymbolTable
0
APPID
5
12
100
AcDbSymbolTableRecord
100
AcDbRegAppTableRecord
2
ACAD
70
0
0
ENDTAB
0
TABLE
2
BLOCK_RECORD
5
1a5
100
AcDbSymbolTable
0
BLOCK_RECORD
5
1F
100
AcDbSymbolTableRecord
100
AcDbBlockTableRecord
2
*Model_Space
340
0
70
0
0
BLOCK_RECORD
5
1B
100
AcDbSymbolTableRecord
100
AcDbBlockTableRecord
2
*Paper_Space
340
0
70
0
0
BLOCK_RECORD
5
23
100
AcDbSymbolTableRecord
100
AcDbBlockTableRecord
2
*Paper_Space0
340
0
70
0
0
BLOCK_RECORD
5
E8
100
AcDbSymbolTableRecord
100
AcDbBlockTableRecord
2
DimnDraft3D1
340
0
70
0
0
BLOCK_RECORD
5
F2
100
AcDbSymbolTableRecord
100
AcDbBlockTableRecord
2
DimnDraft3D2
340
0
70
0
0
BLOCK_RECORD
5
FC
100
AcDbSymbolTableRecord
100
AcDbBlockTableRecord
2
DimnDraft3D3
340
0
70
0
0
BLOCK_RECORD
5
106
100
AcDbSymbolTableRecord
100
AcDbBlockTableRecord
2
DimnDraft3D4
340
0
70
0
0
BLOCK_RECORD
5
110
100
AcDbSymbolTableRecord
100
AcDbBlockTableRecord
2
DimnDraft3D5
340
0
70
0
0
BLOCK_RECORD
5
11A
100
AcDbSymbolTableRecord
100
AcDbBlockTableRecord
2
DimnDraft3D6
340
0
70
0
0
BLOCK_RECORD
5
125
100
AcDbSymbolTableRecord
100
AcDbBlockTableRecord
2
DimnDraft3D7
340
0
70
0
0
ENDTAB
0
ENDSEC
0
SECTION
2
BLOCKS
0
BLOCK
5
20
100
AcDbEntity
8
0
100
AcDbBlockBegin
2
*Model_Space
70
0
10
0
20
0
30
0
3
*Model_Space
0
ENDBLK
5
21
100
AcDbEntity
8
0
100
AcDbBlockEnd
0
BLOCK
5
1C
100
AcDbEntity
8
0
100
AcDbBlockBegin
2
*Paper_Space
70
0
10
0
20
0
30
0
3
*Paper_Space
0
ENDBLK
5
1D
100
AcDbEntity
8
0
100
AcDbBlockEnd
0
BLOCK
5
24
100
AcDbEntity
8
0
100
AcDbBlockBegin
2
*Paper_Space0
70
0
10
0
20
0
30
0
3
*Paper_Space0
0
ENDBLK
5
25
100
AcDbEntity
8
0
100
AcDbBlockEnd
0
BLOCK
5
EF
100
AcDbEntity
8
0
100
AcDbBlockBegin
2
DimnDraft3D1
70
0
10
0
20
0
30
0
3
DimnDraft3D1
0
MTEXT
5
E9
100
AcDbEntity
8
SK2
62
256
6
ByLayer
370
13
48
1
60
0
100
AcDbMText
10
25.018875
20
-14.338398
30
0
210
0
220
0
230
1
1
\W0.6713;61,28
40
3.5
41
0
44
1.084337
50
0
71
7
72
5
7
iso_b_vert
0
LINE
5
EA
100
AcDbEntity
8
SK2
62
256
6
ByLayer
370
13
48
1
60
0
100
AcDbLine
10
0
20
-1.5875
30
0
11
0
21
-17.213398
31
0
39
0
210
0
220
0
230
1
0
LINE
5
EB
100
AcDbEntity
8
SK2
62
256
6
ByLayer
370
13
48
1
60
0
100
AcDbLine
10
61.28
20
-6.5875
30
0
11
61.28
21
-17.213398
31
0
39
0
210
0
220
0
230
1
0
LINE
5
EC
100
AcDbEntity
8
SK2
62
256
6
ByLayer
370
13
48
1
60
0
100
AcDbLine
10
0
20
-15.213398
30
0
11
61.28
21
-15.213398
31
0
39
0
210
0
220
0
230
1
0
SOLID
5
ED
100
AcDbEntity
8
SK2
62
256
6
ByLayer
370
13
48
1
60
0
100
AcDbTrace
10
0
20
-15.213398
30
0
11
3.499998
21
-14.752615
31
0
12
3.500002
22
-15.674182
32
0
13
0
23
-15.213398
33
0
39
0
210
0
220
0
230
1
0
SOLID
5
EE
100
AcDbEntity
8
SK2
62
256
6
ByLayer
370
13
48
1
60
0
100
AcDbTrace
10
61.28
20
-15.213398
30
0
11
57.780002
21
-15.674182
31
0
12
57.779998
22
-14.752615
32
0
13
61.28
23
-15.213398
33
0
39
0
210
0
220
0
230
1
0
ENDBLK
5
F0
100
AcDbEntity
8
0
100
AcDbBlockEnd
0
BLOCK
5
F9
100
AcDbEntity
8
0
100
AcDbBlockBegin
2
DimnDraft3D2
70
0
10
0
20
0
30
0
3
DimnDraft3D2
0
MTEXT
5
F3
100
AcDbEntity
8
SK2
62
256
6
ByLayer
370
13
48
1
60
0
100
AcDbMText
10
5.802221
20
-32.817985
30
0
210
0
220
0
230
1
1
\W0.6930;103,00
40
3.5
41
0
44
1.084337
50
0
71
7
72
5
7
iso_b_vert
0
LINE
5
F4
100
AcDbEntity
8
SK2
62
256
6
ByLayer
370
13
48
1
60
0
100
AcDbLine
10
-40
20
-6.5875
30
0
11
-40
21
-35.692985
31
0
39
0
210
0
220
0
230
1
0
LINE
5
F5
100
AcDbEntity
8
SK2
62
256
6
ByLayer
370
13
48
1
60
0
100
AcDbLine
10
63
20
-1.5875
30
0
11
63
21
-35.692985
31
0
39
0
210
0
220
0
230
1
0
LINE
5
F6
100
AcDbEntity
8
SK2
62
256
6
ByLayer
370
13
48
1
60
0
100
AcDbLine
10
-40
20
-33.692985
30
0
11
63
21
-33.692985
31
0
39
0
210
0
220
0
230
1
0
SOLID
5
F7
100
AcDbEntity
8
SK2
62
256
6
ByLayer
370
13
48
1
60
0
100
AcDbTrace
10
-40
20
-33.692985
30
0
11
-36.500002
21
-33.232202
31
0
12
-36.499998
22
-34.153769
32
0
13
-40
23
-33.692985
33
0
39
0
210
0
220
0
230
1
0
SOLID
5
F8
100
AcDbEntity
8
SK2
62
256
6
ByLayer
370
13
48
1
60
0
100
AcDbTrace
10
63
20
-33.692985
30
0
11
59.500002
21
-34.153769
31
0
12
59.499998
22
-33.232202
32
0
13
63
23
-33.692985
33
0
39
0
210
0
220
0
230
1
0
ENDBLK
5
FA
100
AcDbEntity
8
0
100
AcDbBlockEnd
0
BLOCK
5
103
100
AcDbEntity
8
0
100
AcDbBlockBegin
2
DimnDraft3D3
70
0
10
0
20
0
30
0
3
DimnDraft3D3
0
MTEXT
5
FD
100
AcDbEntity
8
SK2
62
256
6
ByLayer
370
13
48
1
60
0
100
AcDbMText
10
33.128816
20
17.484119
30
0
210
0
220
0
230
1
1
\W0.6713;51,72
40
3.5
41
0
44
1.084337
50
0
71
7
72
5
7
iso_b_vert
0
LINE
5
FE
100
AcDbEntity
8
SK2
62
256
6
ByLayer
370
13
48
1
60
0
100
AcDbLine
10
11.28
20
6.5875
30
0
11
11.28
21
18.609119
31
0
39
0
210
0
220
0
230
1
0
LINE
5
FF
100
AcDbEntity
8
SK2
62
256
6
ByLayer
370
13
48
1
60
0
100
AcDbLine
10
63
20
1.5875
30
0
11
63
21
18.609119
31
0
39
0
210
0
220
0
230
1
0
LINE
5
100
100
AcDbEntity
8
SK2
62
256
6
ByLayer
370
13
48
1
60
0
100
AcDbLine
10
11.28
20
16.609119
30
0
11
63
21
16.609119
31
0
39
0
210
0
220
0
230
1
0
SOLID
5
101
100
AcDbEntity
8
SK2
62
256
6
ByLayer
370
13
48
1
60
0
100
AcDbTrace
10
11.28
20
16.609119
30
0
11
14.779998
21
17.069903
31
0
12
14.780002
22
16.148335
32
0
13
11.28
23
16.609119
33
0
39
0
210
0
220
0
230
1
0
SOLID
5
102
100
AcDbEntity
8
SK2
62
256
6
ByLayer
370
13
48
1
60
0
100
AcDbTrace
10
63
20
16.609119
30
0
11
59.500002
21
16.148335
31
0
12
59.499998
22
17.069903
32
0
13
63
23
16.609119
33
0
39
0
210
0
220
0
230
1
0
ENDBLK
5
104
100
AcDbEntity
8
0
100
AcDbBlockEnd
0
BLOCK
5
10D
100
AcDbEntity
8
0
100
AcDbBlockBegin
2
DimnDraft3D4
70
0
10
0
20
0
30
0
3
DimnDraft3D4
0
MTEXT
5
107
100
AcDbEntity
8
SK2
62
256
6
ByLayer
370
13
48
1
60
0
100
AcDbMText
10
70.278136
20
-16.927503
30
0
210
0
220
0
230
1
1
\W0.6367;1,72
40
3.5
41
0
44
1.084337
50
0
71
7
72
5
7
iso_b_vert
0
LINE
5
108
100
AcDbEntity
8
SK2
62
256
6
ByLayer
370
13
48
1
60
0
100
AcDbLine
10
63
20
-1.5875
30
0
11
63
21
-19.802503
31
0
39
0
210
0
220
0
230
1
0
LINE
5
109
100
AcDbEntity
8
SK2
62
256
6
ByLayer
370
13
48
1
60
0
100
AcDbLine
10
61.28
20
-6.5875
30
0
11
61.28
21
-19.802503
31
0
39
0
210
0
220
0
230
1
0
LINE
5
10A
100
AcDbEntity
8
SK2
62
256
6
ByLayer
370
13
48
1
60
0
100
AcDbLine
10
52.53
20
-17.802503
30
0
11
76.559715
21
-17.802503
31
0
39
0
210
0
220
0
230
1
0
SOLID
5
10B
100
AcDbEntity
8
SK2
62
256
6
ByLayer
370
13
48
1
60
0
100
AcDbTrace
10
63
20
-17.802503
30
0
11
66.499998
21
-17.341719
31
0
12
66.500002
22
-18.263287
32
0
13
63
23
-17.802503
33
0
39
0
210
0
220
0
230
1
0
SOLID
5
10C
100
AcDbEntity
8
SK2
62
256
6
ByLayer
370
13
48
1
60
0
100
AcDbTrace
10
61.28
20
-17.802503
30
0
11
57.780002
21
-18.263287
31
0
12
57.779998
22
-17.341719
32
0
13
61.28
23
-17.802503
33
0
39
0
210
0
220
0
230
1
0
ENDBLK
5
10E
100
AcDbEntity
8
0
100
AcDbBlockEnd
0
BLOCK
5
117
100
AcDbEntity
8
0
100
AcDbBlockBegin
2
DimnDraft3D5
70
0
10
0
20
0
30
0
3
DimnDraft3D5
0
MTEXT
5
111
100
AcDbEntity
8
SK2
62
256
6
ByLayer
370
13
48
1
60
0
100
AcDbMText
10
3.159097
20
-22.468428
30
0
210
0
220
0
230
1
1
\W0.6440;101,28
40
3.5
41
0
44
1.084337
50
0
71
7
72
5
7
iso_b_vert
0
LINE
5
112
100
AcDbEntity
8
SK2
62
256
6
ByLayer
370
13
48
1
60
0
100
AcDbLine
10
-40
20
-6.5875
30
0
11
-40
21
-25.343428
31
0
39
0
210
0
220
0
230
1
0
LINE
5
113
100
AcDbEntity
8
SK2
62
256
6
ByLayer
370
13
48
1
60
0
100
AcDbLine
10
61.28
20
-6.5875
30
0
11
61.28
21
-25.343428
31
0
39
0
210
0
220
0
230
1
0
LINE
5
114
100
AcDbEntity
8
SK2
62
256
6
ByLayer
370
13
48
1
60
0
100
AcDbLine
10
-40
20
-23.343428
30
0
11
61.28
21
-23.343428
31
0
39
0
210
0
220
0
230
1
0
SOLID
5
115
100
AcDbEntity
8
SK2
62
256
6
ByLayer
370
13
48
1
60
0
100
AcDbTrace
10
-40
20
-23.343428
30
0
11
-36.500002
21
-22.882645
31
0
12
-36.499998
22
-23.804212
32
0
13
-40
23
-23.343428
33
0
39
0
210
0
220
0
230
1
0
SOLID
5
116
100
AcDbEntity
8
SK2
62
256
6
ByLayer
370
13
48
1
60
0
100
AcDbTrace
10
61.28
20
-23.343428
30
0
11
57.780002
21
-23.804212
31
0
12
57.779998
22
-22.882645
32
0
13
61.28
23
-23.343428
33
0
39
0
210
0
220
0
230
1
0
ENDBLK
5
118
100
AcDbEntity
8
0
100
AcDbBlockEnd
0
BLOCK
5
122
100
AcDbEntity
8
0
100
AcDbBlockBegin
2
DimnDraft3D6
70
0
10
0
20
0
30
0
3
DimnDraft3D6
0
MTEXT
5
11B
100
AcDbEntity
8
SK2
62
256
6
ByLayer
370
13
48
1
60
0
100
AcDbMText
10
-50.375163
20
24.34918
30
0
210
0
220
0
230
1
1
\W0.6930;10,000
40
3.5
41
0
44
1.084337
50
90
71
7
72
5
7
iso_b_vert
0
MTEXT
5
11C
100
AcDbEntity
8
SK2
62
256
6
ByLayer
370
13
48
1
60
0
100
AcDbMText
10
-50.375163
20
19.126524
30
0
210
0
220
0
230
1
1
%%c
40
3.5
41
0
44
1.084337
50
90
71
7
72
5
7
iso_b_vert
0
LINE
5
11D
100
AcDbEntity
8
SK2
62
256
6
ByLayer
370
13
48
1
60
0
100
AcDbLine
10
-41.5875
20
-5
30
0
11
-50.625163
21
-5
31
0
39
0
210
0
220
0
230
1
0
LINE
5
11E
100
AcDbEntity
8
SK2
62
256
6
ByLayer
370
13
48
1
60
0
100
AcDbLine
10
-41.5875
20
5
30
0
11
-50.625163
21
5
31
0
39
0
210
0
220
0
230
1
0
LINE
5
11F
100
AcDbEntity
8
SK2
62
256
6
ByLayer
370
13
48
1
60
0
100
AcDbLine
10
-48.625163
20
-5
30
0
11
-48.625163
21
35.862338
31
0
39
0
210
0
220
0
230
1
0
SOLID
5
120
100
AcDbEntity
8
SK2
62
256
6
ByLayer
370
13
48
1
60
0
100
AcDbTrace
10
-48.625163
20
-5
30
0
11
-49.085946
21
-1.500002
31
0
12
-48.164379
22
-1.499998
32
0
13
-48.625163
23
-5
33
0
39
0
210
0
220
0
230
1
0
SOLID
5
121
100
AcDbEntity
8
SK2
62
256
6
ByLayer
370
13
48
1
60
0
100
AcDbTrace
10
-48.625163
20
5
30
0
11
-48.164379
21
1.500002
31
0
12
-49.085946
22
1.499998
32
0
13
-48.625163
23
5
33
0
39
0
210
0
220
0
230
1
0
ENDBLK
5
123
100
AcDbEntity
8
0
100
AcDbBlockEnd
0
BLOCK
5
12D
100
AcDbEntity
8
0
100
AcDbBlockBegin
2
DimnDraft3D7
70
0
10
0
20
0
30
0
3
DimnDraft3D7
0
MTEXT
5
126
100
AcDbEntity
8
2
62
256
6
ByLayer
370
13
48
1
60
0
100
AcDbMText
10
73.333343
20
22.942266
30
0
210
0
220
0
230
1
1
\W0.6930;10,000
40
3.5
41
0
44
1.084337
50
90
71
7
72
5
7
iso_b_vert
0
MTEXT
5
127
100
AcDbEntity
8
2
62
256
6
ByLayer
370
13
48
1
60
0
100
AcDbMText
10
73.333343
20
17.71961
30
0
210
0
220
0
230
1
1
%%c
40
3.5
41
0
44
1.084337
50
90
71
7
72
5
7
iso_b_vert
0
LINE
5
128
100
AcDbEntity
8
2
62
256
6
ByLayer
370
13
48
1
60
0
100
AcDbLine
10
62.8675
20
-5
30
0
11
77.083343
21
-5
31
0
39
0
210
0
220
0
230
1
0
LINE
5
129
100
AcDbEntity
8
2
62
256
6
ByLayer
370
13
48
1
60
0
100
AcDbLine
10
62.8675
20
5
30
0
11
77.083343
21
5
31
0
39
0
210
0
220
0
230
1
0
LINE
5
12A
100
AcDbEntity
8
2
62
256
6
ByLayer
370
13
48
1
60
0
100
AcDbLine
10
75.083343
20
-5
30
0
11
75.083343
21
34.455424
31
0
39
0
210
0
220
0
230
1
0
SOLID
5
12B
100
AcDbEntity
8
2
62
256
6
ByLayer
370
13
48
1
60
0
100
AcDbTrace
10
75.083343
20
-5
30
0
11
74.622559
21
-1.500002
31
0
12
75.544126
22
-1.499998
32
0
13
75.083343
23
-5
33
0
39
0
210
0
220
0
230
1
0
SOLID
5
12C
100
AcDbEntity
8
2
62
256
6
ByLayer
370
13
48
1
60
0
100
AcDbTrace
10
75.083343
20
5
30
0
11
75.544126
21
1.500002
31
0
12
74.622559
22
1.499998
32
0
13
75.083343
23
5
33
0
39
0
210
0
220
0
230
1
0
ENDBLK
5
12E
100
AcDbEntity
8
0
100
AcDbBlockEnd
0
ENDSEC
0
SECTION
2
ENTITIES
0
ELLIPSE
5
9E
100
AcDbEntity
8
1
62
256
6
ByLayer
370
13
48
1
60
0
100
AcDbEllipse
10
4.171766
20
-3.430606
30
0
11
-0.000569919568527713
21
0.0999983759452393
31
0
210
0
220
0
230
1
40
0.650713
41
0.921037910827528
42
2.20303812433743
0
ELLIPSE
5
9F
100
AcDbEntity
8
1
62
256
6
ByLayer
370
18
48
1
60
0
100
AcDbEllipse
10
62.072391
20
-2.37948
30
0
11
0.769878420325653
21
2.09904767318034
31
0
210
0
220
0
230
-1
40
0.082138
41
0.755280950347007
42
1.56070273710381
0
ELLIPSE
5
A0
100
AcDbEntity
8
1
62
256
6
ByLayer
370
18
48
1
60
0
100
AcDbEllipse
10
63.022441
20
-0.038677
30
0
11
0.143521477533993
21
0.433085974817644
31
0
210
0
220
0
230
-1
40
0.06261
41
-2.29643003641152
42
-1.61271521120431
0
ELLIPSE
5
A1
100
AcDbEntity
8
1
62
256
6
ByLayer
370
13
48
1
60
0
100
AcDbEllipse
10
62.405926
20
2.256283
30
0
11
2.7548509686706
21
-1.89679322988793
31
0
210
0
220
0
230
-1
40
0.533762
41
1.44484622741983
42
1.76138845938687
0
ELLIPSE
5
A2
100
AcDbEntity
8
1
62
256
6
ByLayer
370
18
48
1
60
0
100
AcDbEllipse
10
62.072391
20
2.37948
30
0
11
0.769878420311964
21
-2.09904767314875
31
0
210
0
220
0
230
-1
40
0.082138
41
-1.5607027371153
42
-0.755280950347725
0
ELLIPSE
5
A3
100
AcDbEntity
8
1
62
256
6
ByLayer
370
18
48
1
60
0
100
AcDbEllipse
10
63.022441
20
0.038677
30
0
11
0.143521477525211
21
-0.433085974794859
31
0
210
0
220
0
230
-1
40
0.06261
41
1.61271521116027
42
2.29643003639786
0
ELLIPSE
5
A4
100
AcDbEntity
8
1
62
256
6
ByLayer
370
18
48
1
60
0
100
AcDbEllipse
10
62.859902
20
0.135117
30
0
11
0.0727819104891655
21
0.30191719573322
31
0
210
0
220
0
230
-1
40
0.478434
41
1.74721262343462
42
2.45976119974816
0
ELLIPSE
5
A5
100
AcDbEntity
8
1
62
256
6
ByLayer
370
13
48
1
60
0
100
AcDbEllipse
10
62.595833
20
2.37948
30
0
11
2.83046166013048
21
-1.54519794823601
31
0
210
0
220
0
230
-1
40
0.502426
41
1.52933460840068
42
1.86384341269152
0
ELLIPSE
5
A6
100
AcDbEntity
8
1
62
256
6
ByLayer
370
13
48
1
60
0
100
AcDbEllipse
10
61.937474
20
0.682424
30
0
11
0.153082081612418
21
0.258003636193773
31
0
210
0
220
0
230
1
40
0.454519
41
0.917105603404852
42
2.31336900500031
0
ELLIPSE
5
A7
100
AcDbEntity
8
1
62
256
6
ByLayer
370
18
48
1
60
0
100
AcDbEllipse
10
63.000424
20
-0.001092
30
0
11
1.83341156295869
21
-4.99873507812532
31
0
210
0
220
0
230
-1
40
0.082138
41
-2.98533583708009
42
-2.88788971913524
0
ELLIPSE
5
A8
100
AcDbEntity
8
1
62
256
6
ByLayer
370
13
48
1
60
0
100
AcDbEllipse
10
4.250201
20
-3.448453
30
0
11
0.0393399549046725
21
0.0919367605917151
31
0
210
0
220
0
230
1
40
0.369554
41
0.855848611239967
42
2.4121500869963
0
ELLIPSE
5
A9
100
AcDbEntity
8
1
62
256
6
ByLayer
370
18
48
1
60
0
100
AcDbEllipse
10
63.000424
20
0.001092
30
0
11
1.8334115926977
21
4.99873516368652
31
0
210
0
220
0
230
-1
40
0.082138
41
2.88788972131349
42
2.9853358384115
0
POINT
5
6C
100
AcDbEntity
8
81
62
256
6
ByLayer
370
18
48
1
60
0
100
AcDbPoint
10
63
20
0
30
0
39
0
210
0
220
0
230
1
50
360
0
POINT
5
6E
100
AcDbEntity
8
80
62
256
6
ByLayer
370
18
48
1
60
0
100
AcDbPoint
10
0
20
0
30
0
39
0
210
0
220
0
230
1
50
360
0
POINT
5
70
100
AcDbEntity
8
SK2
62
256
6
ByLayer
370
18
48
1
60
1
100
AcDbPoint
10
-40
20
-5
30
0
39
0
210
0
220
0
230
1
50
360
0
POINT
5
72
100
AcDbEntity
8
SK2
62
256
6
ByLayer
370
18
48
1
60
1
100
AcDbPoint
10
-40
20
5
30
0
39
0
210
0
220
0
230
1
50
360
0
POINT
5
73
100
AcDbEntity
8
2
62
256
6
ByLayer
370
18
48
1
60
1
100
AcDbPoint
10
61.28
20
-5
30
0
39
0
210
0
220
0
230
1
50
360
0
POINT
5
75
100
AcDbEntity
8
2
62
256
6
ByLayer
370
18
48
1
60
1
100
AcDbPoint
10
61.28
20
5
30
0
39
0
210
0
220
0
230
1
50
360
0
SPLINE
5
AA
100
AcDbEntity
8
1
62
256
6
ByLayer
370
18
48
1
60
0
100
AcDbSpline
70
4
71
2
72
6
73
3
40
0
40
0
40
0
40
1
40
1
40
1
41
1
10
47.7460141720263
20
0.0018082102334631
30
0
41
1
10
47.7460007918718
20
0.0018140246096436
30
0
41
1
10
47.7459874117677
20
0.0018200839443523
30
0
0
SPLINE
5
AB
100
AcDbEntity
8
1
62
256
6
ByLayer
370
18
48
1
60
0
100
AcDbSpline
70
4
71
3
72
28
73
24
40
0
40
0
40
0
40
0
40
0.0611171753180138
40
0.109912021093044
40
0.142356556344673
40
0.169727244963026
40
0.195088236767216
40
0.242429046404448
40
0.291449245719153
40
0.352360599370481
40
0.407887448142421
40
0.466934159497299
40
0.528357110039896
40
0.591088522814026
40
0.661459996440695
40
0.724358408424678
40
0.794077276467011
40
0.826689149890665
40
0.857642459738973
40
0.888572633075283
40
0.928229756110958
40
0.984893513308203
40
1
40
1
40
1
40
1
41
1
10
35.4374415102491
20
-4.75965178818365
30
0
41
1
10
35.6955046381402
20
-4.75985924524079
30
0
41
1
10
36.1595790897177
20
-4.76025282944957
30
0
41
1
10
36.7607716107399
20
-4.7604238301256
30
0
41
1
10
37.2191908791255
20
-4.76107217323755
30
0
41
1
10
37.578639975767
20
-4.76135506224563
30
0
41
1
10
38.0012699748788
20
-4.76151436646381
30
0
41
1
10
38.5152525772672
20
-4.76144425449303
30
0
41
1
10
39.1793820322372
20
-4.76258400093528
30
0
41
1
10
39.8780743917733
20
-4.76203740339176
30
0
41
1
10
40.6191154025018
20
-4.76333972329749
30
0
41
1
10
41.3623183583653
20
-4.76303960541043
30
0
41
1
10
42.1359323763129
20
-4.76394677754985
30
0
41
1
10
42.9573821233977
20
-4.76454780922393
30
0
41
1
10
43.7850567903153
20
-4.76420098422099
30
0
41
1
10
44.6422359332861
20
-4.7659157403788
30
0
41
1
10
45.3399768870258
20
-4.76477976996208
30
0
41
1
10
45.9027945630379
20
-4.76692445390788
30
0
41
1
10
46.3018565103148
20
-4.7670133823853
30
0
41
1
10
46.7305419433979
20
-4.76641175911513
30
0
41
1
10
47.2679213953382
20
-4.76629212015533
30
0
41
1
10
47.7384373945986
20
-4.76755399426636
30
0
41
1
10
48.0415091663265
20
-4.76742358350771
30
0
41
1
10
48.10530086232
20
-4.76738560366357
30
0
0
SPLINE
5
AC
100
AcDbEntity
8
1
62
256
6
ByLayer
370
18
48
1
60
0
100
AcDbSpline
70
4
71
3
72
8
73
4
40
0
40
0
40
0
40
0
40
1
40
1
40
1
40
1
41
1
10
48.7012990727119
20
-1.03035137004062
30
0
41
1
10
48.7097996320766
20
-1.03559388315784
30
0
41
1
10
48.7202221612358
20
-1.04201428280172
30
0
41
1
10
48.733103664616
20
-1.04992091326753
30
0
0
SPLINE
5
AD
100
AcDbEntity
8
1
62
256
6
ByLayer
370
18
48
1
60
0
100
AcDbSpline
70
4
71
3
72
11
73
7
40
0
40
0
40
0
40
0
40
0.0774884401939309
40
0.233074257459129
40
0.447724153470273
40
1
40
1
40
1
40
1
41
1
10
23.6280257670116
20
-0.987743627342326
30
0
41
1
10
23.6281545185184
20
-0.987841652461384
30
0
41
1
10
23.6298409132311
20
-0.988879233450803
30
0
41
1
10
23.6417355566693
20
-0.995856140876867
30
0
41
1
10
23.7000953052788
20
-1.03032534172073
30
0
41
1
10
23.7591731656834
20
-1.06637074694865
30
0
41
1
10
23.8126056677891
20
-1.09924565237205
30
0
0
SPLINE
5
AE
100
AcDbEntity
8
1
62
256
6
ByLayer
370
18
48
1
60
0
100
AcDbSpline
70
4
71
3
72
33
73
29
40
0
40
0
40
0
40
0
40
0.0026131381695735
40
0.0416934015095611
40
0.0877389033211576
40
0.138091255426369
40
0.178863035519782
40
0.21425555416783
40
0.252788392763533
40
0.301062179981885
40
0.35115098095688
40
0.388272655330756
40
0.4215505307102
40
0.460432790806246
40
0.50514214534554
40
0.556958410493517
40
0.611670989013246
40
0.664865397790679
40
0.702141105084323
40
0.738562779465139
40
0.781566279469167
40
0.822158485636696
40
0.849999116966719
40
0.878467371553624
40
0.924260009508217
40
0.973540248053294
40
0.993366395749512
40
1
40
1
40
1
40
1
41
1
10
23.3856717700472
20
4.75148378850008
30
0
41
1
10
23.3768891320892
20
4.75142640547369
30
0
41
1
10
23.236427167583
20
4.75054107823999
30
0
41
1
10
22.9039852849991
20
4.74790889937253
30
0
41
1
10
22.4419103104228
20
4.7530465152899
30
0
41
1
10
21.9455918455875
20
4.75324592053551
30
0
41
1
10
21.4908284404458
20
4.75328816524785
30
0
41
1
10
21.0774746154
20
4.75166257621052
30
0
41
1
10
20.6372326901892
20
4.75156778860358
30
0
41
1
10
20.143996845038
20
4.75238755570777
30
0
41
1
10
19.6558593476849
20
4.75172105524996
30
0
41
1
10
19.2217481907823
20
4.75027994918588
30
0
41
1
10
18.8280185092129
20
4.75028513390748
30
0
41
1
10
18.4073258337981
20
4.75102011662173
30
0
41
1
10
17.9203707004648
20
4.75084262820818
30
0
41
1
10
17.3750813213493
20
4.74849161699464
30
0
41
1
10
16.800115600935
20
4.74943917925239
30
0
41
1
10
16.2777284286586
20
4.74971015754673
30
0
41
1
10
15.8220339143653
20
4.74805484318406
30
0
41
1
10
15.4015195117456
20
4.74780912997099
30
0
41
1
10
14.9691371794201
20
4.74818534829251
30
0
41
1
10
14.5681738252904
20
4.74822806282145
30
0
41
1
10
14.2191751322349
20
4.74743722321227
30
0
41
1
10
13.8512739397622
20
4.74698092608389
30
0
41
1
10
13.4062065476804
20
4.74698089706774
30
0
41
1
10
12.9922121847323
20
4.74685009639305
30
0
41
1
10
12.7193414842684
20
4.74652263434601
30
0
41
1
10
12.6242761202077
20
4.7463746262919
30
0
41
1
10
12.6004481805269
20
4.74633665748976
30
0
0
SPLINE
5
AF
100
AcDbEntity
8
1
62
256
6
ByLayer
370
18
48
1
60
0
100
AcDbSpline
70
4
71
3
72
31
73
27
40
0
40
0
40
0
40
0
40
0.0585117813254002
40
0.103108997216476
40
0.13399281638241
40
0.155505319987821
40
0.177079998505314
40
0.199068741110509
40
0.254493176813199
40
0.304274396134586
40
0.354235120221753
40
0.417853305701817
40
0.467225528768897
40
0.514748784315129
40
0.568413033495193
40
0.618837188805831
40
0.668987898838486
40
0.707376277693662
40
0.736796907165978
40
0.776192317732945
40
0.821656919104709
40
0.855253607243675
40
0.886964160120723
40
0.928013727495099
40
0.981315951298781
40
1
40
1
40
1
40
1
41
1
10
10.3731910497698
20
-4.74453598857539
30
0
41
1
10
10.6236407582674
20
-4.74474075786108
30
0
41
1
10
11.0649859129451
20
-4.74508072866064
30
0
41
1
10
11.6384475885478
20
-4.74558108642742
30
0
41
1
10
12.0536740329288
20
-4.74578765238752
30
0
41
1
10
12.370149960901
20
-4.7460451102373
30
0
41
1
10
12.6486861294237
20
-4.74642207395579
30
0
41
1
10
13.0723885142527
20
-4.74695310550791
30
0
41
1
10
13.6168068015841
20
-4.74683320772488
30
0
41
1
10
14.280958518224
20
-4.74755013300651
30
0
41
1
10
14.9802151252485
20
-4.74864335313953
30
0
41
1
10
15.6775474454138
20
-4.74752507762284
30
0
41
1
10
16.3650542257919
20
-4.75006684961627
30
0
41
1
10
17.0077993808784
20
-4.7489979488098
30
0
41
1
10
17.6548479895591
20
-4.74868771011899
30
0
41
1
10
18.3159228105086
20
-4.75118177769235
30
0
41
1
10
18.908578641409
20
-4.74993005375879
30
0
41
1
10
19.413282397543
20
-4.75067140255851
30
0
41
1
10
19.8722377022044
20
-4.75246711831358
30
0
41
1
10
20.3610021527288
20
-4.75185853137469
30
0
41
1
10
20.8696355393341
20
-4.75146772293232
30
0
41
1
10
21.3390726237842
20
-4.75220884261194
30
0
41
1
10
21.7975244224536
20
-4.75282158323702
30
0
41
1
10
22.3220332200349
20
-4.75304779422723
30
0
41
1
10
22.8081609547139
20
-4.75253238472101
30
0
41
1
10
23.1147346130319
20
-4.75311069564759
30
0
41
1
10
23.1944094665222
20
-4.75328588346542
30
0
0
SPLINE
5
B0
100
AcDbEntity
8
1
62
256
6
ByLayer
370
18
48
1
60
0
100
AcDbSpline
70
4
71
2
72
6
73
3
40
0
40
0
40
0
40
1
40
1
40
1
41
1
10
60.4413292034578
20
-4.77461962245133
30
0
41
1
10
60.8512685905313
20
-4.77239984688961
30
0
41
1
10
61.2609117233361
20
-4.77674540738244
30
0
0
SPLINE
5
B1
100
AcDbEntity
8
1
62
256
6
ByLayer
370
18
48
1
60
0
100
AcDbSpline
70
4
71
3
72
30
73
26
40
0
40
0
40
0
40
0
40
0.0051615002999425
40
0.0606755551468816
40
0.10438169514792
40
0.145642442814625
40
0.178834223361704
40
0.218460987479655
40
0.269715590446843
40
0.319439880433083
40
0.360059287472167
40
0.406606048264793
40
0.46358726370433
40
0.510127771592972
40
0.550825055436648
40
0.601317738709208
40
0.652958752758454
40
0.692339392538156
40
0.734953043086087
40
0.789307209558103
40
0.83696361022754
40
0.875393769780119
40
0.92397893182838
40
0.97866382953391
40
1
40
1
40
1
40
1
41
1
10
48.1830909331671
20
4.76701341176187
30
0
41
1
10
48.164963164876
20
4.76700852726575
30
0
41
1
10
47.9518896068518
20
4.76694919742437
30
0
41
1
10
47.5813343387808
20
4.76700352756484
30
0
41
1
10
47.0946503390184
20
4.76652247318364
30
0
41
1
10
46.6852304783932
20
4.76523770050437
30
0
41
1
10
46.2810685553111
20
4.76636914912763
30
0
41
1
10
45.8511513046125
20
4.76700492918437
30
0
41
1
10
45.3535395798791
20
4.76492590129453
30
0
41
1
10
44.85536428004
20
4.76519613098907
30
0
41
1
10
44.3730820305024
20
4.76566834381165
30
0
41
1
10
43.8653094608272
20
4.7646295193405
30
0
41
1
10
43.3381269826099
20
4.76356284160806
30
0
41
1
10
42.8292056767999
20
4.76426755576659
30
0
41
1
10
42.3464572378852
20
4.76453213145061
30
0
41
1
10
41.8426523020763
20
4.76315927901214
30
0
41
1
10
41.3443328941968
20
4.76321726979111
30
0
41
1
10
40.8736423497964
20
4.76332597156423
30
0
41
1
10
40.3931325874374
20
4.76284339720056
30
0
41
1
10
39.8853006781493
20
4.76200566176433
30
0
41
1
10
39.3895082022407
20
4.76202555434955
30
0
41
1
10
38.9176444280307
20
4.76231118328744
30
0
41
1
10
38.4181683498703
20
4.76132908622526
30
0
41
1
10
37.9793343567701
20
4.76152497299205
30
0
41
1
10
37.7115291949564
20
4.76140861978931
30
0
41
1
10
37.6364181752192
20
4.76136165001486
30
0
0
SPLINE
5
B2
100
AcDbEntity
8
1
62
256
6
ByLayer
370
13
48
1
60
0
100
AcDbSpline
70
4
71
3
72
22
73
18
40
0
40
0
40
0
40
0
40
0.117440193170671
40
0.117440193170671
40
0.234880386341341
40
0.234880386341341
40
0.469760772682681
40
0.469760772682681
40
0.70464115902402
40
0.70464115902402
40
0.822081352194689
40
0.822081352194689
40
0.880801448780024
40
0.880801448780024
40
0.939521545365359
40
0.939521545365359
40
1
40
1
40
1
40
1
41
1
10
4.19822851162363
20
-3.50730694449882
30
0
41
1
10
4.49839344149751
20
-3.63338109044537
30
0
41
1
10
4.79831791567452
20
-3.75167083326426
30
0
41
1
10
5.39854128180389
20
-3.97192207342064
30
0
41
1
10
5.69914822424522
20
-4.0739412463214
30
0
41
1
10
6.59559428398066
20
-4.35192959927079
30
0
41
1
10
7.18840689814263
20
-4.50083758523024
30
0
41
1
10
8.37300193626186
20
-4.72153745706001
30
0
41
1
10
8.96460674368194
20
-4.79346875328201
30
0
41
1
10
9.85685487022641
20
-4.84095337062172
30
0
41
1
10
10.155054339904
20
-4.84669863966428
30
0
41
1
10
10.6043799698639
20
-4.83990057079106
30
0
41
1
10
10.754695872143
20
-4.83504774982185
30
0
41
1
10
11.054315872945
20
-4.82023235485352
30
0
41
1
10
11.2037876678101
20
-4.81027410219394
30
0
41
1
10
11.5066322418608
20
-4.78494585207017
30
0
41
1
10
11.6599977722698
20
-4.76943669801915
30
0
41
1
10
11.8131415640894
20
-4.75131247236345
30
0
0
SPLINE
5
B3
100
AcDbEntity
8
1
62
256
6
ByLayer
370
18
48
1
60
0
100
AcDbSpline
70
4
71
3
72
14
73
10
40
0
40
0
40
0
40
0
40
0.134288003072953
40
0.134288003072953
40
0.357350098150252
40
0.357350098150252
40
0.803474288304849
40
0.803474288304849
40
1
40
1
40
1
40
1
41
1
10
47.7427690130164
20
0.003655491604178
30
0
41
1
10
48.1005530112563
20
-0.215082219693784
30
0
41
1
10
48.4595849651246
20
-0.434574413937895
30
0
41
1
10
49.4201485994919
20
-1.01729558646937
30
0
41
1
10
50.0140286903761
20
-1.37120882112777
30
0
41
1
10
51.7893416145229
20
-2.38781467212141
30
0
41
1
10
52.9643642048788
20
-3.00548658955876
30
0
41
1
10
54.6918672314999
20
-3.73821991254789
30
0
41
1
10
55.2155382510384
20
-3.93708236608029
30
0
41
1
10
55.7372633106769
20
-4.10885909680536
30
0
0
SPLINE
5
B4
100
AcDbEntity
8
1
62
256
6
ByLayer
370
13
48
1
60
0
100
AcDbSpline
70
4
71
3
72
14
73
10
40
0
40
0
40
0
40
0
40
0.35876134745892
40
0.35876134745892
40
0.679380673729461
40
0.679380673729461
40
0.83969033686473
40
0.83969033686473
40
1
40
1
40
1
40
1
41
1
10
55.7372642596912
20
-4.10885940926596
30
0
41
1
10
56.3998835026348
20
-4.32702517285375
30
0
41
1
10
57.0593638402057
20
-4.50150062455711
30
0
41
1
10
58.3125963788794
20
-4.74189433688636
30
0
41
1
10
58.9061119867187
20
-4.8174322741242
30
0
41
1
10
59.8053204712282
20
-4.86936906519276
30
0
41
1
10
60.1046928765828
20
-4.876323106363
30
0
41
1
10
60.7029575525445
20
-4.86952453023662
30
0
41
1
10
61.0019849503944
20
-4.85523757893031
30
0
41
1
10
61.3012508886333
20
-4.83171169256752
30
0
0
SPLINE
5
B5
100
AcDbEntity
8
1
62
256
6
ByLayer
370
18
48
1
60
0
100
AcDbSpline
70
4
71
3
72
20
73
16
40
0
40
0
40
0
40
0
40
0.125
40
0.125
40
0.250000000000001
40
0.250000000000001
40
0.375000000000001
40
0.375000000000001
40
0.500000000000001
40
0.500000000000001
40
0.750000000000002
40
0.750000000000002
40
0.875000000000001
40
0.875000000000001
40
1
40
1
40
1
40
1
41
1
10
9.36852591037328
20
0.732205731149776
30
0
41
1
10
9.14630260384823
20
0.862632166129032
30
0
41
1
10
8.92510789707387
20
0.993868033745571
30
0
41
1
10
8.48611647607174
20
1.25546991821193
30
0
41
1
10
8.26801828511191
20
1.38600705550033
30
0
41
1
10
7.83408320948536
20
1.64501109401993
30
0
41
1
10
7.61825950024226
20
1.773395645009
30
0
41
1
10
7.18828527414465
20
2.0274609895034
30
0
41
1
10
6.97412079256299
20
2.15322489159837
30
0
41
1
10
6.33375845708852
20
2.52532322406122
30
0
41
1
10
5.90952899992797
20
2.76640853219487
30
0
41
1
10
5.27779430512129
20
3.11460095004404
30
0
41
1
10
5.06787065712138
20
3.22850669926191
30
0
41
1
10
4.65480195061298
20
3.4492622788801
30
0
41
1
10
4.45111362511625
20
3.55641849121849
30
0
41
1
10
4.25124689257501
20
3.66029517435325
30
0
0
SPLINE
5
B6
100
AcDbEntity
8
1
62
256
6
ByLayer
370
18
48
1
60
0
100
AcDbSpline
70
4
71
3
72
48
73
44
40
0
40
0
40
0
40
0
40
0.0343112054392247
40
0.0343112054392247
40
0.0686224108784495
40
0.0686224108784495
40
0.137244821756898
40
0.137244821756898
40
0.205867232635346
40
0.205867232635346
40
0.24017843807457
40
0.24017843807457
40
0.274489643513795
40
0.274489643513795
40
0.411734465270692
40
0.411734465270692
40
0.428890067990305
40
0.428890067990305
40
0.446045670709917
40
0.446045670709917
40
0.480356876149141
40
0.480356876149141
40
0.548979287027588
40
0.548979287027588
40
0.58329049246681
40
0.58329049246681
40
0.617601697906033
40
0.617601697906033
40
0.686224108784478
40
0.686224108784478
40
0.754846519662924
40
0.754846519662924
40
0.789157725102146
40
0.789157725102146
40
0.806313327821758
40
0.806313327821758
40
0.823468930541369
40
0.823468930541369
40
0.960713752298255
40
0.960713752298255
40
0.995024957737477
40
0.995024957737477
40
1
40
1
40
1
40
1
41
1
10
61.2532453520809
20
-4.96017756927279
30
0
41
1
10
60.9538605657264
20
-4.98373107424959
30
0
41
1
10
60.6546898313582
20
-4.99665534743315
30
0
41
1
10
60.0558991668208
20
-5.00129387282232
30
0
41
1
10
59.7558130147078
20
-4.99297212435735
30
0
41
1
10
58.8566859810113
20
-4.93625982203702
30
0
41
1
10
58.2618645511504
20
-4.85651872154631
30
0
41
1
10
57.0733350219894
20
-4.61783052396868
30
0
41
1
10
56.4794312635124
20
-4.45895593513495
30
0
41
1
10
55.5827430748753
20
-4.16479105706719
30
0
41
1
10
55.2820714982233
20
-4.05707117044597
30
0
41
1
10
54.6843061930151
20
-3.82618888637555
30
0
41
1
10
54.3866798104884
20
-3.70290543424807
30
0
41
1
10
52.902171492356
20
-3.05081153448523
30
0
41
1
10
51.7263361583134
20
-2.41483663408437
30
0
41
1
10
50.3785434370452
20
-1.62036203231176
30
0
41
1
10
50.2282548814172
20
-1.53088936375929
30
0
41
1
10
49.928759854963
20
-1.35105284660395
30
0
41
1
10
49.7793645462674
20
-1.26056155444826
30
0
41
1
10
49.3320193729754
20
-0.987718657311149
30
0
41
1
10
49.0349013678818
20
-0.804012455589714
30
0
41
1
10
48.1454444532147
20
-0.249795194824401
30
0
41
1
10
47.5543682931861
20
0.122785766562458
30
0
41
1
10
46.6654237173703
20
0.677921802582091
30
0
41
1
10
46.3685986831463
20
0.862147071828048
30
0
41
1
10
45.7728722687863
20
1.22724484858611
30
0
41
1
10
45.4737473795464
20
1.40832997363654
30
0
41
1
10
44.5736887229174
20
1.94367598860344
30
0
41
1
10
43.9792069496168
20
2.28288464065787
30
0
41
1
10
42.7941487226359
20
2.91706547138949
30
0
41
1
10
42.2029075349728
20
3.21111537869947
30
0
41
1
10
41.312891817169
20
3.61097147590556
30
0
41
1
10
41.0155906807092
20
3.73724771051298
30
0
41
1
10
40.5678129674701
20
3.91501575498012
30
0
41
1
10
40.4182422920723
20
3.97232438407792
30
0
41
1
10
40.1184255997584
20
4.0829521939595
30
0
41
1
10
39.9681984273686
20
4.13627176995269
30
0
41
1
10
38.6214221805242
20
4.5942704321813
30
0
41
1
10
37.4448398094026
20
4.85174306324086
30
0
41
1
10
35.9589458402812
20
4.96839143039657
30
0
41
1
10
35.6610076856781
20
4.98143472249049
30
0
41
1
10
35.3183489709086
20
4.984276985675
30
0
41
1
10
35.274923504252
20
4.98441290216795
30
0
41
1
10
35.2314767561202
20
4.98432544972565
30
0
0
SPLINE
5
B7
100
AcDbEntity
8
1
62
256
6
ByLayer
370
18
48
1
60
0
100
AcDbSpline
70
4
71
3
72
16
73
12
40
0
40
0
40
0
40
0
40
0.154601081171038
40
0.154601081171038
40
0.365950810878279
40
0.365950810878279
40
0.577300540585519
40
0.577300540585519
40
0.78865027029276
40
0.78865027029276
40
1
40
1
40
1
40
1
41
1
10
12.5585865411778
20
-4.76277352931117
30
0
41
1
10
12.1249053365597
20
-4.84007116708383
30
0
41
1
10
11.691894568409
20
-4.89605288527136
30
0
41
1
10
10.6643658840728
20
-4.97657808123199
30
0
41
1
10
10.0686542475503
20
-4.98208879882483
30
0
41
1
10
8.86682518248762
20
-4.90782463250969
30
0
41
1
10
8.27223291997271
20
-4.82885445138749
30
0
41
1
10
7.08726291297583
20
-4.59353000255453
30
0
41
1
10
6.49704119111959
20
-4.43705275806155
30
0
41
1
10
5.31235013427471
20
-4.05261439663303
30
0
41
1
10
4.71788750643535
20
-3.8247433457675
30
0
41
1
10
4.11758034036595
20
-3.56340328262616
30
0
0
SPLINE
5
B8
100
AcDbEntity
8
1
62
256
6
ByLayer
370
13
48
1
60
0
100
AcDbSpline
70
4
71
3
72
10
73
6
40
0
40
0
40
0
40
0
40
0.5
40
0.5
40
1
40
1
40
1
40
1
41
1
10
4.25033593029485
20
-3.37720299039384
30
0
41
1
10
4.22741280492141
20
-3.37143023266242
30
0
41
1
10
4.20496228720714
20
-3.3679893628215
30
0
41
1
10
4.16102111514829
20
-3.36564340824612
30
0
41
1
10
4.1394988526369
20
-3.36681419444483
30
0
41
1
10
4.11961064834014
20
-3.37040263276839
30
0
0
SPLINE
5
B9
100
AcDbEntity
8
1
62
256
6
ByLayer
370
13
48
1
60
0
100
AcDbSpline
70
4
71
3
72
31
73
27
40
0
40
0
40
0
40
0
40
0.125
40
0.125
40
0.1875
40
0.1875
40
0.25
40
0.3125
40
0.3125
40
0.375
40
0.375
40
0.5
40
0.5
40
0.5625
40
0.5625
40
0.625
40
0.625
40
0.6875
40
0.6875
40
0.75
40
0.75
40
0.8125
40
0.8125
40
0.875
40
0.875
40
1
40
1
40
1
40
1
41
1
10
4.25033593029485
20
-3.37720299039384
30
0
41
1
10
4.25039858045346
20
-3.14310140070862
30
0
41
1
10
4.25044994529554
20
-2.886992519643
30
0
41
1
10
4.25051717198022
20
-2.47002423509898
30
0
41
1
10
4.25053779986166
20
-2.32625202616117
30
0
41
1
10
4.25057622774398
20
-2.03318527950492
30
0
41
1
10
4.25061200804058
20
-1.7334849116092
30
0
41
1
10
4.25064480678788
20
-1.42064723866548
30
0
41
1
10
4.25067715152517
20
-1.10108844944219
30
0
41
1
10
4.25069313637354
20
-0.937516986022274
30
0
41
1
10
4.25074070184911
20
-0.448017528912089
30
0
41
1
10
4.25077235910493
20
-0.11970850474475
30
0
41
1
10
4.25082362460157
20
0.375714185659547
30
0
41
1
10
4.25084140365703
20
0.542085532195756
30
0
41
1
10
4.25087802524757
20
0.871190735217709
30
0
41
1
10
4.25089687448991
20
1.03405409757721
30
0
41
1
10
4.25093570982631
20
1.35639416201275
30
0
41
1
10
4.25095563367395
20
1.51530702191411
30
0
41
1
10
4.2509957897137
20
1.82483401352604
30
0
41
1
10
4.25101609137084
20
1.97603050106875
30
0
41
1
10
4.25105670328895
20
2.27131909923133
30
0
41
1
10
4.25107701487548
20
2.41541169565605
30
0
41
1
10
4.25111697158525
20
2.6962853742499
30
0
41
1
10
4.25113630813399
20
2.8309324432901
30
0
41
1
10
4.25119097827155
20
3.21661247578794
30
0
41
1
10
4.25122319045965
20
3.45030203839391
30
0
41
1
10
4.25124688577429
20
3.66029517248276
30
0
0
SPLINE
5
BA
100
AcDbEntity
8
1
62
256
6
ByLayer
370
18
48
1
60
0
100
AcDbSpline
70
4
71
3
72
16
73
12
40
0
40
0
40
0
40
0
40
0.25
40
0.25
40
0.5
40
0.5
40
0.75
40
0.75
40
0.875
40
0.875
40
1
40
1
40
1
40
1
41
1
10
62.2525656611144
20
2.4215268788314
30
0
41
1
10
62.1760597858461
20
2.62748131698396
30
0
41
1
10
62.0994651991292
20
2.83326262013151
30
0
41
1
10
61.9459257406625
20
3.24399649590134
30
0
41
1
10
61.8689477521981
20
3.44887044228261
30
0
41
1
10
61.7150314284917
20
3.85858825568153
30
0
41
1
10
61.6380525410532
20
4.06336175324685
30
0
41
1
10
61.5221545874958
20
4.36875154648032
30
0
41
1
10
61.4834998255267
20
4.47040354335843
30
0
41
1
10
61.4061785356474
20
4.67348526269697
30
0
41
1
10
61.3675043506763
20
4.7748774424206
30
0
41
1
10
61.3287536288999
20
4.87542918923904
30
0
0
SPLINE
5
BB
100
AcDbEntity
8
1
62
256
6
ByLayer
370
18
48
1
60
0
100
AcDbSpline
70
4
71
3
72
56
73
52
40
0
40
0
40
0
40
0
40
0.0777062136745439
40
0.0777062136745439
40
0.116559320511816
40
0.116559320511816
40
0.155412427349087
40
0.155412427349087
40
0.194265534186359
40
0.194265534186359
40
0.23311864102363
40
0.23311864102363
40
0.271971747860902
40
0.271971747860902
40
0.310824854698173
40
0.310824854698173
40
0.349677961535445
40
0.349677961535445
40
0.388531068372716
40
0.388531068372716
40
0.427384175209988
40
0.427384175209988
40
0.46623728204726
40
0.46623728204726
40
0.505090388884531
40
0.505090388884531
40
0.543943495721803
40
0.543943495721803
40
0.582796602559074
40
0.582796602559074
40
0.621649709396346
40
0.621649709396346
40
0.660502816233617
40
0.660502816233617
40
0.699355923070889
40
0.699355923070889
40
0.73820902990816
40
0.73820902990816
40
0.777062136745432
40
0.777062136745432
40
0.815915243582703
40
0.815915243582703
40
0.854768350419975
40
0.854768350419975
40
0.893621457257247
40
0.893621457257247
40
0.932474564094518
40
0.932474564094518
40
0.97132767093179
40
0.97132767093179
40
1
40
1
40
1
40
1
41
1
10
9.36867797416184
20
0.732111278946064
30
0
41
1
10
9.87199163651806
20
0.435492148854166
30
0
41
1
10
10.3716628178213
20
0.13782485160317
30
0
41
1
10
11.1178190662409
20
-0.307656129981353
30
0
41
1
10
11.3659121169288
20
-0.456038274533967
30
0
41
1
10
11.8624898256672
20
-0.749604198222357
30
0
41
1
10
12.1107761370759
20
-0.895159761011939
30
0
41
1
10
12.6073500814667
20
-1.18408564706522
30
0
41
1
10
12.8555466758839
20
-1.32754649267409
30
0
41
1
10
13.3527541567157
20
-1.61043696357439
30
0
41
1
10
13.60211712289
20
-1.74938017651314
30
0
41
1
10
14.1022180221468
20
-2.02272208021671
30
0
41
1
10
14.3528517392745
20
-2.15737966390157
30
0
41
1
10
14.8558888786082
20
-2.42104129023213
30
0
41
1
10
15.1060904807069
20
-2.54880682628902
30
0
41
1
10
15.6058719063215
20
-2.79496726278563
30
0
41
1
10
15.8552222714686
20
-2.91381810248871
30
0
41
1
10
16.3527998676342
20
-3.14321596005792
30
0
41
1
10
16.6008733673492
20
-3.25308072965186
30
0
41
1
10
17.0967062783535
20
-3.46270458077197
30
0
41
1
10
17.3448078139828
20
-3.56218775914439
30
0
41
1
10
17.8412213601323
20
-3.75173840602088
30
0
41
1
10
18.0894853689888
20
-3.84171187636002
30
0
41
1
10
18.5865589198512
20
-4.00876528093275
30
0
41
1
10
18.8353443712433
20
-4.08665138500064
30
0
41
1
10
19.3349673652285
20
-4.23078519452721
30
0
41
1
10
19.5854933198984
20
-4.29766802580377
30
0
41
1
10
20.0883658357583
20
-4.4180972991191
30
0
41
1
10
20.3390068155333
20
-4.47095627430633
30
0
41
1
10
20.8383489110192
20
-4.56345849154309
30
0
41
1
10
21.0876425813496
20
-4.603016194399
30
0
41
1
10
21.5853228932311
20
-4.66960690226128
30
0
41
1
10
21.8336137346792
20
-4.69547824137086
30
0
41
1
10
22.3294738558277
20
-4.73292059924833
30
0
41
1
10
22.5770733312374
20
-4.74479180415281
30
0
41
1
10
23.0731918862776
20
-4.75593008840636
30
0
41
1
10
23.3214258421141
20
-4.75547787606229
30
0
41
1
10
23.8185143324216
20
-4.73761427549937
30
0
41
1
10
24.0672822923357
20
-4.72118384393301
30
0
41
1
10
24.56610943729
20
-4.67559262625079
30
0
41
1
10
24.816416542066
20
-4.64695957807555
30
0
41
1
10
25.3188907661401
20
-4.57527091925584
30
0
41
1
10
25.5699789925898
20
-4.531101199376
30
0
41
1
10
26.0693243089892
20
-4.430246605626
30
0
41
1
10
26.3181327405279
20
-4.37357822191734
30
0
41
1
10
26.815574237561
20
-4.24965887114453
30
0
41
1
10
27.0638818520995
20
-4.18144542446964
30
0
41
1
10
27.5597823537768
20
-4.03151637548382
30
0
41
1
10
27.8073287128959
20
-3.95036149152352
30
0
41
1
10
28.2377327710559
20
-3.80064459004569
30
0
41
1
10
28.4206919881081
20
-3.73438560639116
30
0
41
1
10
28.6038533074326
20
-3.66489954617231
30
0
0
SPLINE
5
BC
100
AcDbEntity
8
1
62
256
6
ByLayer
370
18
48
1
60
0
100
AcDbSpline
70
4
71
3
72
30
73
26
40
0
40
0
40
0
40
0
40
0.0053875247890682
40
0.0053875247890682
40
0.0882718977233118
40
0.0882718977233118
40
0.171156270657556
40
0.171156270657556
40
0.2540406435918
40
0.2540406435918
40
0.336925016526044
40
0.336925016526044
40
0.419809389460288
40
0.419809389460288
40
0.502693762394533
40
0.502693762394533
40
0.585578135328777
40
0.585578135328777
40
0.668462508263022
40
0.668462508263022
40
0.834231254131511
40
0.834231254131511
40
0.917115627065755
40
0.917115627065755
40
1
40
1
40
1
40
1
41
1
10
48.1875247162019
20
4.76696029925077
30
0
41
1
10
48.203745825013
20
4.76683987188298
30
0
41
1
10
48.2199694247907
20
4.76668871724507
30
0
41
1
10
48.4858265259373
20
4.76370955767243
30
0
41
1
10
48.7365641758503
20
4.75388440523713
30
0
41
1
10
49.238706273827
20
4.72204894394011
30
0
41
1
10
49.4888936838258
20
4.69959077574342
30
0
41
1
10
49.9873209216393
20
4.63901667361532
30
0
41
1
10
50.2354980342965
20
4.60117402644468
30
0
41
1
10
50.7314155805767
20
4.51255847527847
30
0
41
1
10
50.9793070345599
20
4.46183566852838
30
0
41
1
10
51.474755632757
20
4.34799875271622
30
0
41
1
10
51.7223292164945
20
4.2848857154801
30
0
41
1
10
52.2173608032785
20
4.1467538330206
30
0
41
1
10
52.4649489745036
20
4.0719361643358
30
0
41
1
10
52.9615752622573
20
3.91043881020252
30
0
41
1
10
53.2104167743527
20
3.82339240108831
30
0
41
1
10
53.709345485758
20
3.63690351538565
30
0
41
1
10
53.9594402319726
20
3.53739941427767
30
0
41
1
10
54.7122862559249
20
3.22339990400928
30
0
41
1
10
55.2111508541537
20
2.99639389335019
30
0
41
1
10
55.9554743693973
20
2.63143539266244
30
0
41
1
10
56.2031333193389
20
2.50599570903785
30
0
41
1
10
56.6987345873228
20
2.24908169244139
30
0
41
1
10
56.946470624259
20
2.11728076498201
30
0
41
1
10
57.1941918874645
20
1.98233981513033
30
0
0
SPLINE
5
BD
100
AcDbEntity
8
1
62
256
6
ByLayer
370
18
48
1
60
0
100
AcDbSpline
70
4
71
3
72
8
73
4
40
0
40
0
40
0
40
0
40
1
40
1
40
1
40
1
41
1
10
61.2532453520807
20
-4.96017756927279
30
0
41
1
10
61.2692597859681
20
-4.91738878277909
30
0
41
1
10
61.2852621754077
20
-4.87456537917407
30
0
41
1
10
61.301250888633
20
-4.83171169256752
30
0
0
SPLINE
5
BE
100
AcDbEntity
8
1
62
256
6
ByLayer
370
18
48
1
60
0
100
AcDbSpline
70
4
71
3
72
63
73
59
40
0
40
0
40
0
40
0
40
0.0625000000000076
40
0.0625000000000076
40
0.125000000000015
40
0.125000000000015
40
0.25000000000003
40
0.25000000000003
40
0.375000000000045
40
0.375000000000045
40
0.437500000000052
40
0.437500000000052
40
0.500000000000059
40
0.500000000000059
40
0.562500000000066
40
0.562500000000066
40
0.625000000000073
40
0.625000000000073
40
0.656250000000077
40
0.656250000000077
40
0.660156250000077
40
0.660156250000077
40
0.664062500000078
40
0.664062500000078
40
0.667968750000078
40
0.667968750000078
40
0.669921875000079
40
0.669921875000079
40
0.671875000000079
40
0.687500000000076
40
0.687500000000076
40
0.718750000000068
40
0.718750000000068
40
0.734375000000064
40
0.734375000000064
40
0.75000000000006
40
0.75000000000006
40
0.765625000000057
40
0.765625000000057
40
0.781250000000053
40
0.781250000000053
40
0.796875000000049
40
0.796875000000049
40
0.812500000000045
40
0.812500000000045
40
0.828125000000042
40
0.828125000000042
40
0.843750000000038
40
0.843750000000038
40
0.87500000000003
40
0.87500000000003
40
0.906250000000023
40
0.906250000000023
40
0.937500000000015
40
0.937500000000015
40
0.968750000000008
40
0.968750000000008
40
1
40
1
40
1
40
1
41
1
10
14.3084958681399
20
4.10565636380355
30
0
41
1
10
13.9944560308061
20
4.2165294199296
30
0
41
1
10
13.678749269546
20
4.31565349716257
30
0
41
1
10
13.0427185229633
20
4.49145852488218
30
0
41
1
10
12.7218169154843
20
4.56822804235722
30
0
41
1
10
11.753707019528
20
4.7654116056074
30
0
41
1
10
11.1041679991029
20
4.85189371157142
30
0
41
1
10
9.78371169651024
20
4.95483197162372
30
0
41
1
10
9.11267804480522
20
4.9713569703481
30
0
41
1
10
8.0818748116416
20
4.96619390943408
30
0
41
1
10
7.73426308484022
20
4.95955333764084
30
0
41
1
10
7.03007294858935
20
4.94064280061187
30
0
41
1
10
6.6728775325808
20
4.92836143543664
30
0
41
1
10
5.95173018913277
20
4.90239790727813
30
0
41
1
10
5.58870707219768
20
4.88877166706635
30
0
41
1
10
4.85743080148734
20
4.86379617104132
30
0
41
1
10
4.48952959244929
20
4.85246897423789
30
0
41
1
10
3.93596876789246
20
4.83923560304936
30
0
41
1
10
3.75107765243806
20
4.83543970708845
30
0
41
1
10
3.54264692481121
20
4.83199095669886
30
0
41
1
10
3.51948200464938
20
4.83161913318349
30
0
41
1
10
3.47314021979653
20
4.83089860821346
30
0
41
1
10
3.44991850103475
20
4.83034817086866
30
0
41
1
10
3.40376261705578
20
4.83058473186071
30
0
41
1
10
3.38032887164417
20
4.83133439805431
30
0
41
1
10
3.34770314121795
20
4.83384040643432
30
0
41
1
10
3.33744980742898
20
4.83500777719041
30
0
41
1
10
3.3172896306217
20
4.83750800834019
30
0
41
1
10
3.22669770819798
20
4.84875514160768
30
0
41
1
10
3.13783715612874
20
4.85988909547018
30
0
41
1
10
2.90569756524758
20
4.88894295461614
30
0
41
1
10
2.7586223389998
20
4.90734978744482
30
0
41
1
10
2.55659350154019
20
4.93088538682377
30
0
41
1
10
2.49227005955524
20
4.9380526696801
30
0
41
1
10
2.37112789491943
20
4.95035820105079
30
0
41
1
10
2.31394387522852
20
4.95552754275971
30
0
41
1
10
2.21097923428852
20
4.96268379659509
30
0
41
1
10
2.16582922763388
20
4.96463464642375
30
0
41
1
10
2.09015193455994
20
4.96431065034832
30
0
41
1
10
2.05944387803424
20
4.96195709874394
30
0
41
1
10
2.01674317940927
20
4.95217366854405
30
0
41
1
10
2.00443655191745
20
4.94480449294983
30
0
41
1
10
1.99756055478167
20
4.92472997888422
30
0
41
1
10
2.00323482289352
20
4.91189838391392
30
0
41
1
10
2.03033911369448
20
4.88194871420913
30
0
41
1
10
2.05163942514747
20
4.86475285706715
30
0
41
1
10
2.10731044297444
20
4.82625132698487
30
0
41
1
10
2.14123384944091
20
4.80525822520551
30
0
41
1
10
2.25623737993828
20
4.73834469293379
30
0
41
1
10
2.35100255129768
20
4.6881237090295
30
0
41
1
10
2.56258787063229
20
4.57953606836045
30
0
41
1
10
2.67753684501869
20
4.52215396060748
30
0
41
1
10
2.91924846458861
20
4.40221471013672
30
0
41
1
10
3.04610400544058
20
4.33964384165748
30
0
41
1
10
3.30843779071066
20
4.20979373286698
30
0
41
1
10
3.44438961423401
20
4.14228691521473
30
0
41
1
10
3.7200893416875
20
4.0042654658784
30
0
41
1
10
3.85997643140237
20
3.93368982555137
30
0
41
1
10
4.00139056331358
20
3.86159335457518
30
0
0
SPLINE
5
BF
100
AcDbEntity
8
1
62
256
6
ByLayer
370
18
48
1
60
0
100
AcDbSpline
70
4
71
3
72
20
73
16
40
0
40
0
40
0
40
0
40
0.249999999999989
40
0.249999999999989
40
0.499999999999977
40
0.499999999999977
40
0.624999999999982
40
0.624999999999982
40
0.749999999999986
40
0.749999999999986
40
0.874999999999991
40
0.874999999999991
40
0.937499999999995
40
0.937499999999995
40
1
40
1
40
1
40
1
41
1
10
61.0349445112982
20
1.46437109568797
30
0
41
1
10
61.173684548044
20
1.49647763363359
30
0
41
1
10
61.3115714667268
20
1.53343855890557
30
0
41
1
10
61.5804448671679
20
1.62331278408808
30
0
41
1
10
61.7117831876813
20
1.67568909914095
30
0
41
1
10
61.8986688633744
20
1.77910374332322
30
0
41
1
10
61.9583147014437
20
1.81735291358424
30
0
41
1
10
62.0692067098562
20
1.90603331029445
30
0
41
1
10
62.1198885728363
20
1.95623215677983
30
0
41
1
10
62.2020129874111
20
2.07068192740638
30
0
41
1
10
62.2337785879168
20
2.13685965621437
30
0
41
1
10
62.2573290443554
20
2.24171954923017
30
0
41
1
10
62.2613915567197
20
2.27812299893549
30
0
41
1
10
62.2620772729792
20
2.34995904562197
30
0
41
1
10
62.2588477794744
20
2.38578227892867
30
0
41
1
10
62.2525656611141
20
2.42152687883131
30
0
0
SPLINE
5
C0
100
AcDbEntity
8
1
62
256
6
ByLayer
370
18
48
1
60
0
100
AcDbSpline
70
4
71
3
72
22
73
18
40
0
40
0
40
0
40
0
40
0.125000000000001
40
0.125000000000001
40
0.187500000000001
40
0.187500000000001
40
0.250000000000001
40
0.250000000000001
40
0.500000000000001
40
0.500000000000001
40
0.625
40
0.625
40
0.75
40
0.75
40
0.875
40
0.875
40
1
40
1
40
1
40
1
41
1
10
61.2620529903289
20
-4.77497016526891
30
0
41
1
10
61.189099862893
20
-4.77493527417741
30
0
41
1
10
61.1198316986237
20
-4.76378780495787
30
0
41
1
10
61.0217550142536
20
-4.72949871501405
30
0
41
1
10
60.9900363307732
20
-4.7151331434556
30
0
41
1
10
60.9286323446397
20
-4.68027002498741
30
0
41
1
10
60.8989064183086
20
-4.6597081697376
30
0
41
1
10
60.7576995048738
20
-4.54270038952453
30
0
41
1
10
60.6663475385143
20
-4.40354662275166
30
0
41
1
10
60.563880555945
20
-4.12198360273661
30
0
41
1
10
60.5354662267574
20
-4.01485664967629
30
0
41
1
10
60.4926963867255
20
-3.78167428667013
30
0
41
1
10
60.4780433439867
20
-3.65521179819373
30
0
41
1
10
60.4621493092764
20
-3.3826200232854
30
0
41
1
10
60.4609060744601
20
-3.23649402565553
30
0
41
1
10
60.4724433434941
20
-2.92367828218775
30
0
41
1
10
60.4851465015387
20
-2.75990432449535
30
0
41
1
10
60.5044390089213
20
-2.59013238010695
30
0
0
SPLINE
5
C1
100
AcDbEntity
8
1
62
256
6
ByLayer
370
18
48
1
60
0
100
AcDbSpline
70
4
71
3
72
18
73
14
40
0
40
0
40
0
40
0
40
0.423789314116259
40
0.423789314116259
40
0.489432011327894
40
0.489432011327894
40
0.555074708539529
40
0.555074708539529
40
0.686360102962803
40
0.686360102962803
40
0.948930891809346
40
0.948930891809346
40
1
40
1
40
1
40
1
41
1
10
22.7473813059834
20
0.0008888875628372
30
0
41
1
10
23.7045314657295
20
-0.582542670871817
30
0
41
1
10
24.6561841891586
20
-1.16278390498621
30
0
41
1
10
25.7679186333873
20
-1.79766829641932
30
0
41
1
10
25.9173035178183
20
-1.8820623530907
30
0
41
1
10
26.2167688674177
20
-2.04910880877927
30
0
41
1
10
26.3670067670099
20
-2.1318436399836
30
0
41
1
10
26.8163478176692
20
-2.3757760409782
30
0
41
1
10
27.114783543333
20
-2.53315070653733
30
0
41
1
10
28.0082839171317
20
-2.98759044388186
30
0
41
1
10
28.6017476930542
20
-3.26682451267772
30
0
41
1
10
29.3125738395407
20
-3.56610558017735
30
0
41
1
10
29.4283782286762
20
-3.61375197575072
30
0
41
1
10
29.5442790721973
20
-3.66027280763825
30
0
0
SPLINE
5
C2
100
AcDbEntity
8
1
62
256
6
ByLayer
370
13
48
1
60
0
100
AcDbSpline
70
4
71
3
72
18
73
14
40
0
40
0
40
0
40
0
40
0.0752469437234562
40
0.0752469437234562
40
0.198399300276482
40
0.198399300276482
40
0.321551656829508
40
0.321551656829508
40
0.444704013382534
40
0.444704013382534
40
0.937313439594633
40
0.937313439594633
40
1
40
1
40
1
40
1
41
1
10
29.5442790720645
20
-3.66027280758493
30
0
41
1
10
29.7263291522428
20
-3.73334493474084
30
0
41
1
10
29.9086172069823
20
-3.80364004432022
30
0
41
1
10
30.3902195153428
20
-3.98124362736007
30
0
41
1
10
30.6906240145809
20
-4.08382336919271
30
0
41
1
10
31.2898237479858
20
-4.27064089453904
30
0
41
1
10
31.5890648169878
20
-4.35504059818567
30
0
41
1
10
32.1878844411626
20
-4.50513979558664
30
0
41
1
10
32.4877757500008
20
-4.57092681793247
30
0
41
1
10
33.9865054469555
20
-4.850291770647
30
0
41
1
10
35.1606197154985
20
-4.91171922861409
30
0
41
1
10
36.4919045500813
20
-4.80123191343262
30
0
41
1
10
36.6423001525241
20
-4.78617529762482
30
0
41
1
10
36.7928711368357
20
-4.76853674021629
30
0
0
SPLINE
5
C3
100
AcDbEntity
8
1
62
256
6
ByLayer
370
18
48
1
60
0
100
AcDbSpline
70
4
71
3
72
12
73
8
40
0
40
0
40
0
40
0
40
0.249999999999998
40
0.249999999999998
40
0.499999999999996
40
0.499999999999996
40
1
40
1
40
1
40
1
41
1
10
61.3012508886329
20
-4.83171169256755
30
0
41
1
10
61.3062059696326
20
-4.81843085593772
30
0
41
1
10
61.3109707232329
20
-4.8048260195938
30
0
41
1
10
61.3187576010215
20
-4.78047169148579
30
0
41
1
10
61.3217541044012
20
-4.76975628130251
30
0
41
1
10
61.3269024825169
20
-4.74660905425364
30
0
41
1
10
61.3255827367768
20
-4.74261607380285
30
0
41
1
10
61.321848022711
20
-4.74572481993005
30
0
0
SPLINE
5
C4
100
AcDbEntity
8
1
62
256
6
ByLayer
370
13
48
1
60
0
100
AcDbSpline
70
4
71
3
72
12
73
8
40
0
40
0
40
0
40
0
40
0.25
40
0.25
40
0.5
40
0.5
40
1
40
1
40
1
40
1
41
1
10
4.11961064834014
20
-3.37040263276839
30
0
41
1
10
4.10205098572629
20
-3.37357093118897
30
0
41
1
10
4.08650097498997
20
-3.37721977572974
30
0
41
1
10
4.05886902939292
20
-3.38530097561252
30
0
41
1
10
4.04674043910904
20
-3.38978578156835
30
0
41
1
10
4.0170271375622
20
-3.40361623908498
30
0
41
1
10
4.00506350111769
20
-3.41366764682408
30
0
41
1
10
4.00129013378617
20
-3.42376186949167
30
0
0
SPLINE
5
C5
100
AcDbEntity
8
1
62
256
6
ByLayer
370
18
48
1
60
0
100
AcDbSpline
70
4
71
3
72
24
73
20
40
0
40
0
40
0
40
0
40
0.125000000000004
40
0.125000000000004
40
0.187500000000005
40
0.187500000000005
40
0.250000000000007
40
0.250000000000007
40
0.312500000000008
40
0.312500000000008
40
0.375000000000009
40
0.375000000000009
40
0.500000000000007
40
0.500000000000007
40
0.625000000000005
40
0.625000000000005
40
0.750000000000004
40
0.750000000000004
40
1
40
1
40
1
40
1
41
1
10
57.1941918874646
20
1.98233981513053
30
0
41
1
10
57.2330290061639
20
1.76103790800016
30
0
41
1
10
57.2932433939864
20
1.53754168515664
30
0
41
1
10
57.4122240282912
20
1.19935558087289
30
0
41
1
10
57.4569270183144
20
1.08566425298974
30
0
41
1
10
57.5534874264898
20
0.862008433607144
30
0
41
1
10
57.6054851571989
20
0.751541927532401
30
0
41
1
10
57.7161932880661
20
0.5330671768549
30
0
41
1
10
57.7749059595857
20
0.42505976405252
30
0
41
1
10
57.8985545949301
20
0.211323984037421
30
0
41
1
10
57.9636660297404
20
0.105343094980356
30
0
41
1
10
58.1666771576769
20
-0.207654887268262
30
0
41
1
10
58.3104575038504
20
-0.407306124988395
30
0
41
1
10
58.6113481684011
20
-0.792371246933072
30
0
41
1
10
58.7684991031393
20
-0.977741750009812
30
0
41
1
10
59.0943131568036
20
-1.33618692888876
30
0
41
1
10
59.2636910056071
20
-1.50989202606618
30
0
41
1
10
59.7807559450907
20
-2.00812361096345
30
0
41
1
10
60.1376458433714
20
-2.31102181050522
30
0
41
1
10
60.5044390089213
20
-2.59013238010698
30
0
0
SPLINE
5
C6
100
AcDbEntity
8
1
62
256
6
ByLayer
370
18
48
1
60
0
100
AcDbSpline
70
4
71
3
72
32
73
28
40
0
40
0
40
0
40
0
40
0.0624999999999997
40
0.0624999999999997
40
0.125
40
0.187499999999999
40
0.187499999999999
40
0.218749999999999
40
0.218749999999999
40
0.249999999999999
40
0.249999999999999
40
0.374999999999999
40
0.374999999999999
40
0.437499999999999
40
0.437499999999999
40
0.499999999999999
40
0.499999999999999
40
0.624999999999999
40
0.624999999999999
40
0.687499999999999
40
0.687499999999999
40
0.749999999999999
40
0.812499999999999
40
0.812499999999999
40
0.874999999999999
40
0.874999999999999
40
1
40
1
40
1
40
1
41
1
10
4.0012901337879
20
-3.42376186947712
30
0
41
1
10
4.00129356766519
20
-3.29898454271617
30
0
41
1
10
4.00129672698088
20
-3.16760843178082
30
0
41
1
10
4.00130251225693
20
-2.89629411375239
30
0
41
1
10
4.00130778448045
20
-2.61588772850757
30
0
41
1
10
4.00131229091113
20
-2.31768323030923
30
0
41
1
10
4.00131547408162
20
-2.08728615177446
30
0
41
1
10
4.00131650230648
20
-2.00936098064528
30
0
41
1
10
4.00131850772516
20
-1.85121917833928
30
0
41
1
10
4.00131948762262
20
-1.77076556982681
30
0
41
1
10
4.00132425020604
20
-1.36656463847768
30
0
41
1
10
4.0013276508385
20
-1.03615879048252
30
0
41
1
10
4.00133279998329
20
-0.530278620076615
30
0
41
1
10
4.00133452193569
20
-0.359926401158162
30
0
41
1
10
4.00133806397858
20
-0.015651797801354
30
0
41
1
10
4.00133986256705
20
0.156114593372877
30
0
41
1
10
4.00134539215981
20
0.666508948701505
30
0
41
1
10
4.00134928453002
20
1.00194617450228
30
0
41
1
10
4.00135558961992
20
1.49772858059026
30
0
41
1
10
4.00135776825709
20
1.66178516811348
30
0
41
1
10
4.00136215963764
20
1.97980014856037
30
0
41
1
10
4.0013666095125
20
2.28970405880096
30
0
41
1
10
4.00137109095374
20
2.58363194102893
30
0
41
1
10
4.00137552008042
20
2.86943850396497
30
0
41
1
10
4.00137772037886
20
3.00902645183865
30
0
41
1
10
4.0013839757238
20
3.40735456473817
30
0
41
1
10
4.00138771486706
20
3.64714928995332
30
0
41
1
10
4.00139056333666
20
3.86159335456338
30
0
0
SPLINE
5
C7
100
AcDbEntity
8
1
62
256
6
ByLayer
370
18
48
1
60
0
100
AcDbSpline
70
4
71
3
72
37
73
33
40
0
40
0
40
0
40
0
40
0.0184933137819286
40
0.0184933137819286
40
0.175546949502766
40
0.175546949502766
40
0.332600585223604
40
0.332600585223604
40
0.489654220944442
40
0.489654220944442
40
0.64670785666528
40
0.64670785666528
40
0.7252346745257
40
0.7252346745257
40
0.735050526758252
40
0.735050526758252
40
0.744866378990805
40
0.744866378990805
40
0.754682231223357
40
0.754682231223357
40
0.759590157339633
40
0.759590157339633
40
0.76449808345591
40
0.803761492386109
40
0.803761492386109
40
0.882288310246512
40
0.882288310246512
40
0.921551719176713
40
0.921551719176713
40
0.960815128106914
40
0.960815128106914
40
1
40
1
40
1
40
1
41
1
10
8.54668755594841
20
-4.96831219296703
30
0
41
1
10
8.50633898324855
20
-4.9682510225399
30
0
41
1
10
8.46593545922215
20
-4.96811758259918
30
0
41
1
10
8.08187481164165
20
-4.96619390943408
30
0
41
1
10
7.73426308484028
20
-4.95955333764084
30
0
41
1
10
7.03007294858941
20
-4.94064280061187
30
0
41
1
10
6.67287753258083
20
-4.92836143543667
30
0
41
1
10
5.9517301891328
20
-4.90239790727813
30
0
41
1
10
5.58870707219774
20
-4.88877166706635
30
0
41
1
10
4.8574308014874
20
-4.86379617104132
30
0
41
1
10
4.48952959244934
20
-4.85246897423792
30
0
41
1
10
3.93596876789252
20
-4.83923560304939
30
0
41
1
10
3.75107765243811
20
-4.83543970708845
30
0
41
1
10
3.54264692481129
20
-4.83199095669886
30
0
41
1
10
3.51948200464943
20
-4.83161913318349
30
0
41
1
10
3.47314021979659
20
-4.83089860821349
30
0
41
1
10
3.4499185010348
20
-4.83034817086866
30
0
41
1
10
3.40376261705586
20
-4.83058473186071
30
0
41
1
10
3.38032887164422
20
-4.83133439805431
30
0
41
1
10
3.347703141218
20
-4.83384040643432
30
0
41
1
10
3.33744980742898
20
-4.83500777719044
30
0
41
1
10
3.31728963062176
20
-4.83750800834019
30
0
41
1
10
3.226697708198
20
-4.84875514160765
30
0
41
1
10
3.1378371561288
20
-4.85988909547018
30
0
41
1
10
2.90569756524763
20
-4.88894295461614
30
0
41
1
10
2.75862233899983
20
-4.90734978744479
30
0
41
1
10
2.55659350154019
20
-4.93088538682377
30
0
41
1
10
2.49227005955521
20
-4.9380526696801
30
0
41
1
10
2.37112789491937
20
-4.95035820105079
30
0
41
1
10
2.31394387522855
20
-4.95552754275968
30
0
41
1
10
2.21108221232896
20
-4.96267663940995
30
0
41
1
10
2.16600987649912
20
-4.96462683549811
30
0
41
1
10
2.12821773027275
20
-4.96447359514386
30
0
0
SPLINE
5
C8
100
AcDbEntity
8
1
62
256
6
ByLayer
370
18
48
1
60
0
100
AcDbSpline
70
4
71
3
72
40
73
36
40
0
40
0
40
0
40
0
40
0.124999999999997
40
0.124999999999997
40
0.249999999999993
40
0.249999999999993
40
0.312499999999991
40
0.312499999999991
40
0.37499999999999
40
0.37499999999999
40
0.499999999999992
40
0.499999999999992
40
0.624999999999993
40
0.624999999999993
40
0.687499999999994
40
0.687499999999994
40
0.718749999999995
40
0.718749999999995
40
0.749999999999996
40
0.749999999999996
40
0.781249999999996
40
0.781249999999996
40
0.812499999999997
40
0.812499999999997
40
0.843749999999997
40
0.843749999999997
40
0.874999999999998
40
0.874999999999998
40
0.906249999999998
40
0.906249999999998
40
0.937499999999999
40
0.937499999999999
40
0.96875
40
0.96875
40
1
40
1
40
1
40
1
41
1
10
57.1941918874646
20
1.98233981513033
30
0
41
1
10
57.3662387538261
20
1.8328072982161
30
0
41
1
10
57.5409796802953
20
1.69021682659101
30
0
41
1
10
57.8966027450747
20
1.42086053795307
30
0
41
1
10
58.0773698043707
20
1.29426747937708
30
0
41
1
10
58.3504381031562
20
1.11961672996259
30
0
41
1
10
58.4419028953904
20
1.06385928026853
30
0
41
1
10
58.6257782470819
20
0.957606703028432
30
0
41
1
10
58.7184113221079
20
0.907014592998365
30
0
41
1
10
58.9953932583962
20
0.764785884136728
30
0
41
1
10
59.1792137539505
20
0.682485651384354
30
0
41
1
10
59.5450084313782
20
0.545595334255722
30
0
41
1
10
59.726985855489
20
0.490956589198106
30
0
41
1
10
59.9983211658289
20
0.433474499757608
30
0
41
1
10
60.0886907156633
20
0.418388120492324
30
0
41
1
10
60.2231174192281
20
0.402664527839533
30
0
41
1
10
60.2676285922516
20
0.398589745330924
30
0
41
1
10
60.3560370188165
20
0.392845343824661
30
0
41
1
10
60.4002314094924
20
0.390496571175078
30
0
41
1
10
60.4862684321058
20
0.39197769780148
30
0
41
1
10
60.5279965441028
20
0.396086883439523
30
0
41
1
10
60.6085630944918
20
0.411848825877343
30
0
41
1
10
60.6474963558074
20
0.423545172778688
30
0
41
1
10
60.7199991931274
20
0.455195526268881
30
0
41
1
10
60.7538470003163
20
0.475105930972177
30
0
41
1
10
60.815386053709
20
0.525390559247825
30
0
41
1
10
60.84226848128
20
0.555237724709912
30
0
41
1
10
60.8862019343687
20
0.62539737022675
30
0
41
1
10
60.9031488610561
20
0.666495588808715
30
0
41
1
10
60.9250024570769
20
0.755408796568872
30
0
41
1
10
60.9305867198583
20
0.80378663470151
30
0
41
1
10
60.9325669874428
20
0.904895753483743
30
0
41
1
10
60.9290054434117
20
0.956816879167206
30
0
41
1
10
60.9146457226167
20
1.06283181031213
30
0
41
1
10
60.9037168116196
20
1.1172545166408
30
0
41
1
10
60.8899438066476
20
1.17180429635704
30
0
0
SPLINE
5
C9
100
AcDbEntity
8
1
62
256
6
ByLayer
370
18
48
1
60
0
100
AcDbSpline
70
4
71
3
72
8
73
4
40
0
40
0
40
0
40
0
40
1
40
1
40
1
40
1
41
1
10
4.0034307893327
20
-3.44231098800293
30
0
41
1
10
4.0020138480179
20
-3.43620640137169
30
0
41
1
10
4.00128996262606
20
-3.4299813957906
30
0
41
1
10
4.00129013378788
20
-3.42376186948391
30
0
0
SPLINE
5
CA
100
AcDbEntity
8
1
62
256
6
ByLayer
370
18
48
1
60
0
100
AcDbSpline
70
4
71
3
72
14
73
10
40
0
40
0
40
0
40
0
40
0.541855762222638
40
0.541855762222638
40
0.717383974404275
40
0.717383974404275
40
0.892912186585912
40
0.892912186585912
40
1
40
1
40
1
40
1
41
1
10
35.5680125996136
20
-4.75914231236524
30
0
41
1
10
34.6579845056051
20
-4.76731146290933
30
0
41
1
10
33.7476299657412
20
-4.6821109470429
30
0
41
1
10
32.523324854095
20
-4.44483854215613
30
0
41
1
10
32.2237548212662
20
-4.37717202505439
30
0
41
1
10
31.6253784794494
20
-4.22388157289882
30
0
41
1
10
31.3263457409801
20
-4.13817991280561
30
0
41
1
10
30.8443230250459
20
-3.98614439696047
30
0
41
1
10
30.6613987243495
20
-3.92523450098949
30
0
41
1
10
30.4786861361728
20
-3.86136812741796
30
0
0
SPLINE
5
CB
100
AcDbEntity
8
1
62
256
6
ByLayer
370
13
48
1
60
0
100
AcDbSpline
70
4
71
3
72
26
73
22
40
0
40
0
40
0
40
0
40
0.0304834473287264
40
0.0304834473287264
40
0.108663953388992
40
0.108663953388992
40
0.265024965509524
40
0.265024965509524
40
0.34320547156979
40
0.34320547156979
40
0.382295724599925
40
0.382295724599925
40
0.42138597763006
40
0.42138597763006
40
0.734108001871128
40
0.734108001871128
40
0.812288507931396
40
0.812288507931396
40
0.890469013991664
40
0.890469013991664
40
1
40
1
40
1
40
1
41
1
10
30.4786861361814
20
-3.86136812742097
30
0
41
1
10
30.3619135362347
20
-3.82055078382399
30
0
41
1
10
30.2452274114734
20
-3.77852585010007
30
0
41
1
10
29.8300418810306
20
-3.62473617431232
30
0
41
1
10
29.5322825418193
20
-3.50651796910898
30
0
41
1
10
28.6402097203737
20
-3.13116523336973
30
0
41
1
10
28.0470007732665
20
-2.85341889748108
30
0
41
1
10
27.1539942184728
20
-2.40287567915485
30
0
41
1
10
26.8557231564562
20
-2.24710103796926
30
0
41
1
10
26.4066694499042
20
-2.00601942420354
30
0
41
1
10
26.2565609809485
20
-1.92431976794885
30
0
41
1
10
25.9573573228517
20
-1.75947114507349
30
0
41
1
10
25.808091771438
20
-1.67623234775576
30
0
41
1
10
24.4671240308309
20
-0.920771097003012
30
0
41
1
10
23.2913016371315
20
-0.206124410717905
30
0
41
1
10
21.8039577837762
20
0.677051652677079
30
0
41
1
10
21.5055840350815
20
0.8531333680138
30
0
41
1
10
20.9060254326692
20
1.20249252842137
30
0
41
1
10
20.6070446782627
20
1.37451033519716
30
0
41
1
10
19.8922625365032
20
1.77798415744456
30
0
41
1
10
19.47703329554
20
2.00595462571292
30
0
41
1
10
19.0623286448599
20
2.22452460458487
30
0
0
SPLINE
5
CC
100
AcDbEntity
8
1
62
256
6
ByLayer
370
18
48
1
60
0
100
AcDbSpline
70
4
71
3
72
16
73
12
40
0
40
0
40
0
40
0
40
0.250000000000002
40
0.250000000000002
40
0.500000000000003
40
0.500000000000003
40
0.750000000000005
40
0.750000000000005
40
0.875000000000002
40
0.875000000000002
40
1
40
1
40
1
40
1
41
1
10
62.2525656611143
20
-2.42152687883151
30
0
41
1
10
62.1760597858461
20
-2.62748131698402
30
0
41
1
10
62.0994651991292
20
-2.83326262013154
30
0
41
1
10
61.9459257406625
20
-3.24399649590131
30
0
41
1
10
61.8689477521981
20
-3.4488704422825
30
0
41
1
10
61.7150314284918
20
-3.85858825568133
30
0
41
1
10
61.6380525410532
20
-4.06336175324662
30
0
41
1
10
61.5221545874959
20
-4.36875154648001
30
0
41
1
10
61.4834998255269
20
-4.47040354335815
30
0
41
1
10
61.4061785356476
20
-4.6734852626966
30
0
41
1
10
61.3675043506764
20
-4.77487744242023
30
0
41
1
10
61.3287536289
20
-4.87542918923867
30
0
0
SPLINE
5
CD
100
AcDbEntity
8
1
62
256
6
ByLayer
370
18
48
1
60
0
100
AcDbSpline
70
4
71
3
72
60
73
56
40
0
40
0
40
0
40
0
40
0.0726427445610799
40
0.0726427445610799
40
0.10896411684162
40
0.10896411684162
40
0.14528548912216
40
0.14528548912216
40
0.1816068614027
40
0.1816068614027
40
0.21792823368324
40
0.21792823368324
40
0.25424960596378
40
0.25424960596378
40
0.29057097824432
40
0.29057097824432
40
0.3632137228054
40
0.3632137228054
40
0.39953509508594
40
0.39953509508594
40
0.435856467366481
40
0.435856467366481
40
0.472177839647022
40
0.472177839647022
40
0.508499211927563
40
0.508499211927563
40
0.544820584208104
40
0.544820584208104
40
0.581141956488645
40
0.581141956488645
40
0.617463328769186
40
0.617463328769186
40
0.653784701049728
40
0.653784701049728
40
0.72642744561081
40
0.72642744561081
40
0.74458813175108
40
0.74458813175108
40
0.762748817891349
40
0.762748817891349
40
0.799070190171889
40
0.799070190171889
40
0.835391562452428
40
0.835391562452428
40
0.871712934732968
40
0.871712934732968
40
0.908034307013508
40
0.908034307013508
40
0.944355679294047
40
0.944355679294047
40
0.980677051574587
40
0.980677051574587
40
0.998837737714857
40
0.998837737714857
40
1
40
1
40
1
40
1
41
1
10
14.3084451952879
20
4.10570307111945
30
0
41
1
10
14.8021103087555
20
3.93057307295641
30
0
41
1
10
15.2943726422466
20
3.7357037823225
30
0
41
1
10
16.0278588686862
20
3.41218568544008
30
0
41
1
10
16.2712223913025
20
3.2986658449783
30
0
41
1
10
16.7591285962035
20
3.06447954111025
30
0
41
1
10
17.0033532968314
20
2.9434748230357
30
0
41
1
10
17.4918373632281
20
2.6930501285257
30
0
41
1
10
17.7360660980706
20
2.56358347114201
30
0
41
1
10
18.2243893824568
20
2.29573965739743
30
0
41
1
10
18.4693064834921
20
2.15853115026368
30
0
41
1
10
18.961303212294
20
1.87856486938156
30
0
41
1
10
19.2085204151367
20
1.73531211619377
30
0
41
1
10
19.702884502572
20
1.44274377804075
30
0
41
1
10
19.9483348815369
20
1.29354416975116
30
0
41
1
10
20.6844189633156
20
0.845187489753982
30
0
41
1
10
21.1741388315562
20
0.544234511821031
30
0
41
1
10
21.9045866386284
20
0.0854724198748613
30
0
41
1
10
22.1480669077471
20
-0.0675564349656099
30
0
41
1
10
22.6363494061665
20
-0.371668658296301
30
0
41
1
10
22.8808540555969
20
-0.523235814379888
30
0
41
1
10
23.3701958781885
20
-0.826036902993451
30
0
41
1
10
23.6146406543717
20
-0.977911665314252
30
0
41
1
10
24.105847754052
20
-1.27809669835244
30
0
41
1
10
24.3532565977694
20
-1.42644805431118
30
0
41
1
10
24.8477579494645
20
-1.71880464351489
30
0
41
1
10
25.0940040120026
20
-1.86222747142108
30
0
41
1
10
25.5840514063203
20
-2.14425403280447
30
0
41
1
10
25.82826073078
20
-2.28219841597567
30
0
41
1
10
26.3171509781691
20
-2.54908553013618
30
0
41
1
10
26.5614428134351
20
-2.67862192701111
30
0
41
1
10
27.0493131695493
20
-2.93048102331986
30
0
41
1
10
27.2925622872053
20
-3.05321054719496
30
0
41
1
10
28.02332131156
20
-3.40761445035261
30
0
41
1
10
28.5135375004468
20
-3.62372496288185
30
0
41
1
10
29.1275802777899
20
-3.8711796408829
30
0
41
1
10
29.2504070964214
20
-3.91956366076997
30
0
41
1
10
29.4967341939497
20
-4.01341433853466
30
0
41
1
10
29.6204582809105
20
-4.05887895722609
30
0
41
1
10
29.9909262717642
20
-4.19029709640358
30
0
41
1
10
30.237216400518
20
-4.27143491269413
30
0
41
1
10
30.7280322047012
20
-4.42140009453504
30
0
41
1
10
30.9723094926661
20
-4.49038440647894
30
0
41
1
10
31.4599516282745
20
-4.61528624307192
30
0
41
1
10
31.7040370407759
20
-4.67077410655824
30
0
41
1
10
32.1920963780861
20
-4.76855620966685
30
0
41
1
10
32.4360874853366
20
-4.81083535085202
30
0
41
1
10
32.9235907174326
20
-4.88215494370442
30
0
41
1
10
33.1669657581723
20
-4.91115838363211
30
0
41
1
10
33.6562625803572
20
-4.95480860098743
30
0
41
1
10
33.9017278724768
20
-4.96965272092379
30
0
41
1
10
34.2708345202845
20
-4.98138112049082
30
0
41
1
10
34.3940244599688
20
-4.98352925382235
30
0
41
1
10
34.5252380049781
20
-4.98390347545649
30
0
41
1
10
34.5331312469459
20
-4.98391857524203
30
0
41
1
10
34.541025172479
20
-4.98392626443311
30
0
0
SPLINE
5
CE
100
AcDbEntity
8
1
62
256
6
ByLayer
370
18
48
1
60
0
100
AcDbSpline
70
4
71
3
72
26
73
22
40
0
40
0
40
0
40
0
40
0.0493422374958444
40
0.0493422374958444
40
0.144408013746263
40
0.144408013746263
40
0.239473789996682
40
0.239473789996682
40
0.429605342497514
40
0.429605342497514
40
0.524671118747928
40
0.524671118747928
40
0.619736894998343
40
0.619736894998343
40
0.714802671248757
40
0.714802671248757
40
0.809868447499171
40
0.809868447499171
40
0.904934223749586
40
0.904934223749586
40
1
40
1
40
1
40
1
41
1
10
53.5948908687857
20
3.66143582350867
30
0
41
1
10
53.7214282173055
20
3.71580552986708
30
0
41
1
10
53.8481005520177
20
3.76880158200913
30
0
41
1
10
54.2198782852201
20
3.91914858661608
30
0
41
1
10
54.4654932177922
20
4.01264593806687
30
0
41
1
10
54.9580531983386
20
4.18896851608949
30
0
41
1
10
55.2053730492519
20
4.27208606201768
30
0
41
1
10
55.9424775249922
20
4.50178399383415
30
0
41
1
10
56.4327509450204
20
4.62710260810621
30
0
41
1
10
57.163977783694
20
4.77668933786856
30
0
41
1
10
57.4067654718166
20
4.82011749147472
30
0
41
1
10
57.8938791094075
20
4.89262517124473
30
0
41
1
10
58.1378020064785
20
4.92195276917101
30
0
41
1
10
58.62591516033
20
4.96693748674539
30
0
41
1
10
58.870029371192
20
4.98259872902261
30
0
41
1
10
59.3585395690909
20
4.99978076304487
30
0
41
1
10
59.6038070623241
20
5.00122026757987
30
0
41
1
10
60.0966084122061
20
4.98984824887611
30
0
41
1
10
60.3443025569329
20
4.97699373203196
30
0
41
1
10
60.8373168315978
20
4.93695129662061
30
0
41
1
10
61.0827091433795
20
4.90959543241402
30
0
41
1
10
61.3287536288783
20
4.87542918926633
30
0
0
SPLINE
5
CF
100
AcDbEntity
8
1
62
256
6
ByLayer
370
18
48
1
60
0
100
AcDbSpline
70
2053
71
3
72
62
73
58
40
0
40
0
40
0
40
0
40
0.0312500000000013
40
0.0312500000000013
40
0.0625000000000026
40
0.0625000000000026
40
0.0937500000000039
40
0.0937500000000039
40
0.125000000000005
40
0.125000000000005
40
0.156250000000006
40
0.156250000000006
40
0.187500000000007
40
0.187500000000007
40
0.218750000000009
40
0.218750000000009
40
0.25000000000001
40
0.25000000000001
40
0.281250000000011
40
0.281250000000011
40
0.312500000000012
40
0.312500000000012
40
0.375000000000015
40
0.375000000000015
40
0.437500000000017
40
0.437500000000017
40
0.468750000000016
40
0.468750000000016
40
0.500000000000016
40
0.500000000000016
40
0.531250000000015
40
0.531250000000015
40
0.562500000000014
40
0.562500000000014
40
0.593750000000013
40
0.593750000000013
40
0.625000000000012
40
0.625000000000012
40
0.656250000000012
40
0.656250000000012
40
0.687500000000011
40
0.687500000000011
40
0.71875000000001
40
0.71875000000001
40
0.750000000000009
40
0.750000000000009
40
0.812500000000006
40
0.812500000000006
40
0.843750000000006
40
0.843750000000006
40
0.875000000000005
40
0.875000000000005
40
0.906250000000005
40
0.906250000000005
40
0.937500000000005
40
0.937500000000005
40
1
40
1
40
1
40
1
41
1
10
61.9306276105183
20
-2.29483103784537
30
0
41
1
10
61.953333008061
20
-2.26185709623422
30
0
41
1
10
61.9755353485316
20
-2.22660431326017
30
0
41
1
10
62.0188555861858
20
-2.15118623466017
30
0
41
1
10
62.0402031975237
20
-2.110536198077
30
0
41
1
10
62.0803513418027
20
-2.02591838038629
30
0
41
1
10
62.0990815441607
20
-1.98221190466774
30
0
41
1
10
62.133472125501
20
-1.8916064687235
30
0
41
1
10
62.148796642044
20
-1.84543061995018
30
0
41
1
10
62.1742314775218
20
-1.755008332182
30
0
41
1
10
62.1846563552375
20
-1.70947776622356
30
0
41
1
10
62.199264259563
20
-1.62404811401717
30
0
41
1
10
62.2035978916832
20
-1.58377272086767
30
0
41
1
10
62.2063125977994
20
-1.50940009988761
30
0
41
1
10
62.2046905719865
20
-1.47641226600896
30
0
41
1
10
62.1961556359042
20
-1.41789239880737
30
0
41
1
10
62.1892585865508
20
-1.39286285960606
30
0
41
1
10
62.1712816005233
20
-1.35139184115741
30
0
41
1
10
62.1600435288959
20
-1.33466390897246
30
0
41
1
10
62.1344429969757
20
-1.30952326647659
30
0
41
1
10
62.1200415727452
20
-1.30092752995435
30
0
41
1
10
62.072452981275
20
-1.28602359580751
30
0
41
1
10
62.0360358527598
20
-1.29072707004315
30
0
41
1
10
61.9559656843883
20
-1.32604859949251
30
0
41
1
10
61.9136143827393
20
-1.35606095142506
30
0
41
1
10
61.847094413657
20
-1.41932018635964
30
0
41
1
10
61.824395709127
20
-1.44357904146986
30
0
41
1
10
61.7794439667599
20
-1.49704052639626
30
0
41
1
10
61.7569987092744
20
-1.52640868527939
30
0
41
1
10
61.7121751802976
20
-1.59091594788052
30
0
41
1
10
61.6895461322469
20
-1.62649527422022
30
0
41
1
10
61.6458285072164
20
-1.70211608228388
30
0
41
1
10
61.6247589460834
20
-1.74202693673104
30
0
41
1
10
61.5844234630071
20
-1.82664870650689
30
0
41
1
10
61.5652639338126
20
-1.87127209046506
30
0
41
1
10
61.5310254811135
20
-1.96140003420257
30
0
41
1
10
61.5155011511583
20
-2.00815392228279
30
0
41
1
10
61.4899547243891
20
-2.09925378231179
30
0
41
1
10
61.4798053988388
20
-2.14370589828005
30
0
41
1
10
61.4650537696934
20
-2.23028929982979
30
0
41
1
10
61.4608016788379
20
-2.2703773202056
30
0
41
1
10
61.4580598272095
20
-2.34450695765605
30
0
41
1
10
61.459659759685
20
-2.37819058407587
30
0
41
1
10
61.4680212850699
20
-2.43673533441887
30
0
41
1
10
61.4748708288184
20
-2.46219681751524
30
0
41
1
10
61.5015940539392
20
-2.52513480925148
30
0
41
1
10
61.5279607820045
20
-2.55046708736043
30
0
41
1
10
61.5751364373012
20
-2.56586284964078
30
0
41
1
10
61.5923698536109
20
-2.56729789490649
30
0
41
1
10
61.6286410263551
20
-2.563150826856
30
0
41
1
10
61.647677951953
20
-2.55763724109826
30
0
41
1
10
61.6874649789111
20
-2.54007156212686
30
0
41
1
10
61.7083831447803
20
-2.5278845583446
30
0
41
1
10
61.7509994879701
20
-2.49745153766074
30
0
41
1
10
61.7726932602072
20
-2.47926399592959
30
0
41
1
10
61.8389346604737
20
-2.41576299180738
30
0
41
1
10
61.885216815433
20
-2.36077892106766
30
0
41
1
10
61.9306276105183
20
-2.29483103784537
30
0
0
SPLINE
5
D0
100
AcDbEntity
8
1
62
256
6
ByLayer
370
18
48
1
60
0
100
AcDbSpline
70
4
71
3
72
10
73
6
40
0
40
0
40
0
40
0
40
0.5
40
0.5
40
1
40
1
40
1
40
1
41
1
10
4.11758034036572
20
-3.56340328262607
30
0
41
1
10
4.08736359099265
20
-3.55024860509522
30
0
41
1
10
4.06167485632315
20
-3.53272976737682
30
0
41
1
10
4.0225354649603
20
-3.49128021273921
30
0
41
1
10
4.00922522324527
20
-3.46727505915405
30
0
41
1
10
4.00343078933267
20
-3.44231098800867
30
0
0
SPLINE
5
D1
100
AcDbEntity
8
1
62
256
6
ByLayer
370
18
48
1
60
0
100
AcDbSpline
70
4
71
3
72
10
73
6
40
0
40
0
40
0
40
0
40
0.88732854382477
40
0.88732854382477
40
1
40
1
40
1
40
1
41
1
10
61.2532453520808
20
4.96017756927282
30
0
41
1
10
60.9540952470368
20
4.98371261116242
30
0
41
1
10
60.6549949388472
20
4.99664796595101
30
0
41
1
10
60.3174781598713
20
4.9992681891602
30
0
41
1
10
60.2794349536129
20
4.99939128721707
30
0
41
1
10
60.2413818079299
20
4.99934262717431
30
0
0
SPLINE
5
D2
100
AcDbEntity
8
1
62
256
6
ByLayer
370
18
48
1
60
0
100
AcDbSpline
70
4
71
3
72
50
73
46
40
0
40
0
40
0
40
0
40
0.0481509609239708
40
0.0481509609239708
40
0.0808178914949274
40
0.0808178914949274
40
0.113484822065884
40
0.113484822065884
40
0.178818683207797
40
0.178818683207797
40
0.244152544349711
40
0.244152544349711
40
0.26048600963519
40
0.26048600963519
40
0.276819474920668
40
0.276819474920668
40
0.309486405491626
40
0.309486405491626
40
0.440154127775458
40
0.440154127775458
40
0.472821058346418
40
0.472821058346418
40
0.505487988917376
40
0.505487988917376
40
0.570821850059293
40
0.570821850059293
40
0.63615571120121
40
0.63615571120121
40
0.652489176486688
40
0.652489176486688
40
0.668822641772167
40
0.668822641772167
40
0.701489572343125
40
0.701489572343125
40
0.76682343348504
40
0.76682343348504
40
0.799490364055997
40
0.799490364055997
40
0.832157294626955
40
0.832157294626955
40
0.962825016910786
40
0.962825016910786
40
0.995491947481744
40
0.995491947481744
40
1
40
1
40
1
40
1
41
1
10
37.5753418893827
20
-4.77424953198448
30
0
41
1
10
37.1389842334873
20
-4.85276270319395
30
0
41
1
10
36.7022788640452
20
-4.90977887187231
30
0
41
1
10
35.9659804220946
20
-4.96801061294761
30
0
41
1
10
35.6674503878502
20
-4.98124573726466
30
0
41
1
10
35.0674077498169
20
-4.98649147599792
30
0
41
1
10
34.768025109521
20
-4.97845644829974
30
0
41
1
10
33.8742085853135
20
-4.92323700098046
30
0
41
1
10
33.2822825339554
20
-4.84500045726691
30
0
41
1
10
32.0982061029617
20
-4.61002537448974
30
0
41
1
10
31.5059657141861
20
-4.45334101465932
30
0
41
1
10
30.7604045938871
20
-4.21083482797852
30
0
41
1
10
30.611016513795
20
-4.16000939625428
30
0
41
1
10
30.3115418000468
20
-4.05378661897336
30
0
41
1
10
30.161223334961
20
-3.99828824803629
30
0
41
1
10
29.7116277860793
20
-3.82599219306451
30
0
41
1
10
29.4133525425509
20
-3.70322329159904
30
0
41
1
10
27.9260244496913
20
-3.05408515183819
30
0
41
1
10
26.7495964674546
20
-2.4215777178986
30
0
41
1
10
25.2550698637233
20
-1.54332083436017
30
0
41
1
10
24.9541115113606
20
-1.36287480027869
30
0
41
1
10
24.3560455169917
20
-0.999426683758031
30
0
41
1
10
24.0582574450129
20
-0.815957514747993
30
0
41
1
10
23.1670580331059
20
-0.262866024522793
30
0
41
1
10
22.5756547711444
20
0.109185134854499
30
0
41
1
10
21.3903425040946
20
0.846985614522197
30
0
41
1
10
20.7963606434602
20
1.21261651443481
30
0
41
1
10
20.0470306149697
20
1.65711338690048
30
0
41
1
10
19.8966656210723
20
1.74547099711816
30
0
41
1
10
19.5970392560767
20
1.91956756934326
30
0
41
1
10
19.4475630440604
20
2.00543696662751
30
0
41
1
10
18.9999427966112
20
2.25925833331158
30
0
41
1
10
18.702603878615
20
2.42341909598696
30
0
41
1
10
17.8122190905246
20
2.8987572244335
30
0
41
1
10
17.2209910070439
20
3.19303524146449
30
0
41
1
10
16.3310354641584
20
3.59206542625168
30
0
41
1
10
16.033961047343
20
3.71812738428844
30
0
41
1
10
15.4378624054457
20
3.95490711264409
30
0
41
1
10
15.1385283717983
20
4.06569130976999
30
0
41
1
10
13.6368768724521
20
4.57639508723327
30
0
41
1
10
12.4591972945605
20
4.83466119709752
30
0
41
1
10
10.9743703197776
20
4.95258974319916
30
0
41
1
10
10.676767837189
20
4.96592642338501
30
0
41
1
10
10.3368330356866
20
4.96916815398964
30
0
41
1
10
10.2955890725935
20
4.96936141146776
30
0
41
1
10
10.2543220046502
20
4.96935413935839
30
0
0
SPLINE
5
D3
100
AcDbEntity
8
1
62
256
6
ByLayer
370
18
48
1
60
0
100
AcDbSpline
70
4
71
3
72
88
73
84
40
0
40
0
40
0
40
0
40
0.0052151118794059
40
0.0052151118794059
40
0.029929657723941
40
0.029929657723941
40
0.054644203568476
40
0.054644203568476
40
0.0793587494130111
40
0.0793587494130111
40
0.104073295257546
40
0.104073295257546
40
0.128787841102081
40
0.128787841102081
40
0.153502386946616
40
0.153502386946616
40
0.178216932791151
40
0.178216932791151
40
0.22764602448022
40
0.22764602448022
40
0.252360570324755
40
0.252360570324755
40
0.27707511616929
40
0.27707511616929
40
0.301789662013826
40
0.301789662013826
40
0.326504207858361
40
0.326504207858361
40
0.351218753702896
40
0.351218753702896
40
0.375933299547431
40
0.375933299547431
40
0.400647845391966
40
0.400647845391966
40
0.425362391236501
40
0.425362391236501
40
0.450076937081036
40
0.450076937081036
40
0.474791482925571
40
0.474791482925571
40
0.499506028770106
40
0.499506028770106
40
0.524220574614641
40
0.524220574614641
40
0.548935120459176
40
0.548935120459176
40
0.573649666303711
40
0.573649666303711
40
0.598364212148246
40
0.598364212148246
40
0.623078757992781
40
0.623078757992781
40
0.647793303837316
40
0.647793303837316
40
0.672507849681851
40
0.672507849681851
40
0.697222395526386
40
0.697222395526386
40
0.721936941370921
40
0.721936941370921
40
0.746651487215456
40
0.746651487215456
40
0.771366033059991
40
0.771366033059991
40
0.796080578904526
40
0.796080578904526
40
0.820795124749062
40
0.820795124749062
40
0.845509670593597
40
0.845509670593597
40
0.870224216438132
40
0.870224216438132
40
0.894938762282667
40
0.894938762282667
40
0.919653308127202
40
0.919653308127202
40
0.944367853971737
40
0.944367853971737
40
0.969082399816272
40
0.969082399816272
40
0.993796945660807
40
0.993796945660807
40
1
40
1
40
1
40
1
41
1
10
53.6142900829822
20
-3.67167183417064
30
0
41
1
10
53.5612900375679
20
-3.69200001857791
30
0
41
1
10
53.5083066855537
20
-3.71206191335989
30
0
41
1
10
53.2044467962909
20
-3.82555196184134
30
0
41
1
10
52.9543346735418
20
-3.91292460264413
30
0
41
1
10
52.4555163392764
20
-4.07486785713436
30
0
41
1
10
52.2070076995309
20
-4.14981810372552
30
0
41
1
10
51.7103902249754
20
-4.28803370127133
30
0
41
1
10
51.4621716717343
20
-4.35110379119845
30
0
41
1
10
50.9657422824613
20
-4.46472713944229
30
0
41
1
10
50.7175162548064
20
-4.51528014413313
30
0
41
1
10
50.2212538472078
20
-4.60346744128
30
0
41
1
10
49.9730341120111
20
-4.64102990212524
30
0
41
1
10
49.4748731163597
20
-4.70100156037901
30
0
41
1
10
49.2249961252425
20
-4.72312833410919
30
0
41
1
10
48.7238049127607
20
-4.75447176006835
30
0
41
1
10
48.4721320445373
20
-4.76413667016584
30
0
41
1
10
47.7197088253336
20
-4.77172219367498
30
0
41
1
10
47.2209254338612
20
-4.74625929863626
30
0
41
1
10
46.4760800502752
20
-4.67005534637903
30
0
41
1
10
46.2282414706403
20
-4.63794316453675
30
0
41
1
10
45.7321335122821
20
-4.55898620992252
30
0
41
1
10
45.4839438797576
20
-4.51219296280917
30
0
41
1
10
44.9873166437961
20
-4.40729241034398
30
0
41
1
10
44.7391271336286
20
-4.34860047927268
30
0
41
1
10
44.2414811444469
20
-4.21778230478898
30
0
41
1
10
43.9918553499153
20
-4.14534868293279
30
0
41
1
10
43.4908983849537
20
-3.98860411160894
30
0
41
1
10
43.2389740215289
20
-3.90447648742673
30
0
41
1
10
42.7373485259754
20
-3.72449383298306
30
0
41
1
10
42.4875831909553
20
-3.62888769439863
30
0
41
1
10
41.9888881577058
20
-3.4275010669503
30
0
41
1
10
41.7399894982703
20
-3.32221530847252
30
0
41
1
10
41.2430468162649
20
-3.10298368163581
30
0
41
1
10
40.9952659184517
20
-2.98851249037531
30
0
41
1
10
40.4995841130274
20
-2.75102147654278
30
0
41
1
10
40.2515795306842
20
-2.62805186582921
30
0
41
1
10
39.755065945874
20
-2.37557463911432
30
0
41
1
10
39.5065687833014
20
-2.24590988211455
30
0
41
1
10
39.009202305569
20
-1.97855784859536
30
0
41
1
10
38.7600153562105
20
-1.84107509507709
30
0
41
1
10
38.2595231478706
20
-1.56121586289097
30
0
41
1
10
38.0078201110645
20
-1.41860341496624
30
0
41
1
10
37.5056964507761
20
-1.12954317117197
30
0
41
1
10
37.2559729369905
20
-0.983009808323175
30
0
41
1
10
36.7575917746293
20
-0.688717182805476
30
0
41
1
10
36.5087933292278
20
-0.54116180617774
30
0
41
1
10
36.0118256406919
20
-0.245474560170919
30
0
41
1
10
35.7636882627253
20
-0.0973125101505445
30
0
41
1
10
35.2682210006965
20
0.199808301358132
30
0
41
1
10
35.0205762025559
20
0.348223207114671
30
0
41
1
10
34.5244374022728
20
0.643152585498854
30
0
41
1
10
34.2760665629625
20
0.78985612188751
30
0
41
1
10
33.7785002154235
20
1.08127516013917
30
0
41
1
10
33.529510650638
20
1.2263335552212
30
0
41
1
10
33.0296905991529
20
1.51280757959626
30
0
41
1
10
32.7783859382993
20
1.65466853184665
30
0
41
1
10
32.2760852270752
20
1.93258735322837
30
0
41
1
10
32.0259240987628
20
2.06818009393817
30
0
41
1
10
31.5276702382816
20
2.33234692439544
30
0
41
1
10
31.2791560577005
20
2.46110273778498
30
0
41
1
10
30.7824278179
20
2.71040750851355
30
0
41
1
10
30.5343217508434
20
2.83111288654101
30
0
41
1
10
30.0385509099642
20
3.06311107776855
30
0
41
1
10
29.7910932256542
20
3.17478724055599
30
0
41
1
10
29.2955064800345
20
3.3895668440195
30
0
41
1
10
29.0473603787762
20
3.49231180072823
30
0
41
1
10
28.5500684099881
20
3.68721461398277
30
0
41
1
10
28.3008317554183
20
3.77874315230349
30
0
41
1
10
27.8015477288474
20
3.95232402140752
30
0
41
1
10
27.5509050552732
20
4.03440164908409
30
0
41
1
10
27.0486054389979
20
4.18585279880716
30
0
41
1
10
26.7984316688084
20
4.25419478775524
30
0
41
1
10
26.2996317112049
20
4.37790188929685
30
0
41
1
10
26.0511922077839
20
4.4341905826538
30
0
41
1
10
25.5547691657474
20
4.5338718444483
30
0
41
1
10
25.3067971356592
20
4.57716985014463
30
0
41
1
10
24.8110466278941
20
4.64754596549389
30
0
41
1
10
24.5632284855356
20
4.67587449852601
30
0
41
1
10
24.0679599809422
20
4.72110326015877
30
0
41
1
10
23.8202073600181
20
4.7375157139696
30
0
41
1
10
23.5094327694295
20
4.74873086829396
30
0
41
1
10
23.4470370182659
20
4.75044883837896
30
0
41
1
10
23.3845991166246
20
4.75167125117744
30
0
0
SPLINE
5
D4
100
AcDbEntity
8
1
62
256
6
ByLayer
370
18
48
1
60
0
100
AcDbSpline
70
4
71
3
72
86
73
82
40
0
40
0
40
0
40
0
40
0.0343869606455715
40
0.0343869606455715
40
0.0725852612594898
40
0.0725852612594898
40
0.0916844115664488
40
0.0916844115664488
40
0.110783561873408
40
0.110783561873408
40
0.187180163101244
40
0.187180163101244
40
0.225378463715163
40
0.225378463715163
40
0.263576764329081
40
0.263576764329081
40
0.339973365556918
40
0.339973365556918
40
0.378171666170836
40
0.378171666170836
40
0.416369966784754
40
0.416369966784754
40
0.454568267398672
40
0.454568267398672
40
0.473667417705631
40
0.473667417705631
40
0.483216992859111
40
0.483216992859111
40
0.487991780435851
40
0.490379174224221
40
0.491572871118406
40
0.492169719565498
40
0.492468143789045
40
0.492468143789045
40
0.492766568012591
40
0.492766568012591
40
0.493363416459683
40
0.493363416459683
40
0.493960264906776
40
0.493960264906776
40
0.49515396180096
40
0.49515396180096
40
0.49754135558933
40
0.49754135558933
40
0.50231614316607
40
0.50231614316607
40
0.511865718319549
40
0.511865718319549
40
0.530964868626507
40
0.530964868626507
40
0.569163169240422
40
0.569163169240422
40
0.645559770468254
40
0.645559770468254
40
0.721956371696086
40
0.721956371696086
40
0.760154672310001
40
0.760154672310001
40
0.76970424746348
40
0.76970424746348
40
0.779253822616959
40
0.779253822616959
40
0.781641216405329
40
0.781641216405329
40
0.782834913299514
40
0.782834913299514
40
0.783431761746606
40
0.783431761746606
40
0.784028610193699
40
0.788803397770438
40
0.798352972923917
40
0.798352972923917
40
0.836551273537833
40
0.836551273537833
40
0.87474957415175
40
0.87474957415175
40
0.912947874765666
40
0.912947874765666
40
0.951146175379582
40
0.951146175379582
40
1
40
1
40
1
40
1
41
1
10
14.3084793611937
20
4.10570161161817
30
0
41
1
10
14.1850854793076
20
4.11097316153683
30
0
41
1
10
14.0617664140165
20
4.11188251580725
30
0
41
1
10
13.8013870180067
20
4.10325854843063
30
0
41
1
10
13.6642975764728
20
4.09254099513259
30
0
41
1
10
13.4580926043182
20
4.06588255889619
30
0
41
1
10
13.3892604026457
20
4.05523336695296
30
0
41
1
10
13.251295246561
20
4.03020502470767
30
0
41
1
10
13.1820246255153
20
4.01578477191984
30
0
41
1
10
12.8383022519809
20
3.93484721020369
30
0
41
1
10
12.5694391164195
20
3.84120096275987
30
0
41
1
10
12.1687039745221
20
3.66159961831571
30
0
41
1
10
12.0355260520443
20
3.59527117570377
30
0
41
1
10
11.768663885121
20
3.45093141798947
30
0
41
1
10
11.6344483787635
20
3.37256865941089
30
0
41
1
10
11.2359972765296
20
3.12658874042324
30
0
41
1
10
10.9741126001818
20
2.94745188046892
30
0
41
1
10
10.5791458041326
20
2.66678089596562
30
0
41
1
10
10.4471573564304
20
2.57119611103343
30
0
41
1
10
10.1814344882989
20
2.37743344730365
30
0
41
1
10
10.0477870763221
20
2.27931851200489
30
0
41
1
10
9.78102075575964
20
2.08420295908744
30
0
41
1
10
9.64750040352283
20
1.98690552618152
30
0
41
1
10
9.44637740566134
20
1.84222452578732
30
0
41
1
10
9.37915352846778
20
1.79417690012107
30
0
41
1
10
9.27824525591475
20
1.72267208112979
30
0
41
1
10
9.24459476026834
20
1.69892969790251
30
0
41
1
10
9.1940886225876
20
1.66346677736132
30
0
41
1
10
9.16882714111935
20
1.64577240901878
30
0
41
1
10
9.13934665698162
20
1.6252019219987
30
0
41
1
10
9.12460364330965
20
1.61493497817372
30
0
41
1
10
9.11723155329301
20
1.6098062168212
30
0
41
1
10
9.11407195732593
20
1.60760918924797
30
0
41
1
10
9.11196553141275
20
1.60614473002664
30
0
41
1
10
9.11068450874529
20
1.60528311775602
30
0
41
1
10
9.11158435650157
20
1.6019627114207
30
0
41
1
10
9.11346967102014
20
1.60034083053242
30
0
41
1
10
9.11675309077592
20
1.59708834415929
30
0
41
1
10
9.11849637778062
20
1.59555288710445
30
0
41
1
10
9.12383465295704
20
1.59104354206798
30
0
41
1
10
9.1275389824111
20
1.58818311368029
30
0
41
1
10
9.13877347224687
20
1.57976662362142
30
0
41
1
10
9.14645920041539
20
1.57437934847246
30
0
41
1
10
9.16970853469616
20
1.55843904929713
30
0
41
1
10
9.18548273486394
20
1.54814034841132
30
0
41
1
10
9.23304083099455
20
1.51759395639249
30
0
41
1
10
9.26511776600478
20
1.49772357815522
30
0
41
1
10
9.36171278521726
20
1.43863438907636
30
0
41
1
10
9.42663662707409
20
1.40000388292395
30
0
41
1
10
9.62189323670066
20
1.28505057662156
30
0
41
1
10
9.75280596659601
20
1.20973831305184
30
0
41
1
10
10.1463125264494
20
0.985782673648345
30
0
41
1
10
10.4095849892047
20
0.839079603889303
30
0
41
1
10
10.9357382082666
20
0.548990242241587
30
0
41
1
10
11.1991639678466
20
0.405973640342921
30
0
41
1
10
11.5920749145999
20
0.192015857941215
30
0
41
1
10
11.7228255065826
20
0.12092216337382
30
0
41
1
10
11.8846633521218
20
0.0317278974608826
30
0
41
1
10
11.9169404666776
20
0.0138697927384897
30
0
41
1
10
11.9810625821704
20
-0.0219859996408331
30
0
41
1
10
12.0130907638247
20
-0.0399168321654031
30
0
41
1
10
12.0517235437272
20
-0.0628759809694657
30
0
41
1
10
12.0594059796484
20
-0.0674907487576206
30
0
41
1
10
12.0703034688503
20
-0.0745956258382705
30
0
41
1
10
12.0743785241567
20
-0.0769818951661136
30
0
41
1
10
12.0776482441122
20
-0.0808124786105111
30
0
41
1
10
12.0748623731357
20
-0.0809842948628159
30
0
41
1
10
12.0713169116026
20
-0.0817187607908352
30
0
41
1
10
12.0553637035731
20
-0.0850084426805324
30
0
41
1
10
12.0110849115129
20
-0.0937605630915357
30
0
41
1
10
11.9686639537298
20
-0.101169613640934
30
0
41
1
10
11.8275001278322
20
-0.123628764522039
30
0
41
1
10
11.7150250657944
20
-0.134450032949474
30
0
41
1
10
11.4923136678488
20
-0.141269616675999
30
0
41
1
10
11.3819163717112
20
-0.13732720444122
30
0
41
1
10
11.1615406374889
20
-0.114457780628356
30
0
41
1
10
11.0515706506837
20
-0.095531032928335
30
0
41
1
10
10.8301187321091
20
-0.0420546512978603
30
0
41
1
10
10.7182363565503
20
-0.0072850965691771
30
0
41
1
10
10.4637315407684
20
0.0886301001988841
30
0
41
1
10
10.3205864273715
20
0.154555804022579
30
0
41
1
10
10.1740434658485
20
0.232023551226718
30
0
0
SPLINE
5
D5
100
AcDbEntity
8
1
62
256
6
ByLayer
370
18
48
1
60
0
100
AcDbSpline
70
4
71
3
72
16
73
12
40
0
40
0
40
0
40
0
40
0.250000000000001
40
0.250000000000001
40
0.375000000000001
40
0.375000000000001
40
0.5
40
0.5
40
0.75
40
0.75
40
1
40
1
40
1
40
1
41
1
10
4.25124688577739
20
3.66029517788257
30
0
41
1
10
4.22531107308055
20
3.67377479083436
30
0
41
1
10
4.19840722892764
20
3.68889225309064
30
0
41
1
10
4.15636046328927
20
3.71498990361411
30
0
41
1
10
4.14244805530535
20
3.72403280739527
30
0
41
1
10
4.11488684249071
20
3.74297513145206
30
0
41
1
10
4.10127482890448
20
3.75287297183812
30
0
41
1
10
4.06366026438673
20
3.78215717969493
30
0
41
1
10
4.04206388375312
20
3.80190957041808
30
0
41
1
10
4.01257467876297
20
3.83594100410602
30
0
41
1
10
4.00441100610712
20
3.85017672854022
30
0
41
1
10
4.00139056333668
20
3.86159335456338
30
0
0
SPLINE
5
D6
100
AcDbEntity
8
1
62
256
6
ByLayer
370
18
48
1
60
0
100
AcDbSpline
70
4
71
3
72
8
73
4
40
0
40
0
40
0
40
0
40
1
40
1
40
1
40
1
41
1
10
61.321848022711
20
-4.74572481993005
30
0
41
1
10
61.2984757922897
20
-4.76517967765861
30
0
41
1
10
61.2785260207793
20
-4.7749791726294
30
0
41
1
10
61.262052990333
20
-4.77497016526894
30
0
0
SPLINE
5
D7
100
AcDbEntity
8
1
62
256
6
ByLayer
370
18
48
1
60
0
100
AcDbSpline
70
4
71
3
72
18
73
14
40
0
40
0
40
0
40
0
40
0.249999999999979
40
0.249999999999979
40
0.499999999999958
40
0.499999999999958
40
0.624999999999969
40
0.624999999999969
40
0.749999999999979
40
0.749999999999979
40
0.87499999999999
40
0.87499999999999
40
1
40
1
40
1
40
1
41
1
10
60.8899438066476
20
1.17180429635704
30
0
41
1
10
60.8827127774761
20
1.20044372901771
30
0
41
1
10
60.8788777274661
20
1.2297056562571
30
0
41
1
10
60.8800594645768
20
1.28991040290708
30
0
41
1
10
60.8850815593942
20
1.32023342461824
30
0
41
1
10
60.9022905969301
20
1.36383170237437
30
0
41
1
10
60.9092433124964
20
1.37777127308004
30
0
41
1
10
60.9272264570238
20
1.40344846751637
30
0
41
1
10
60.9381816696917
20
1.41508964467232
30
0
41
1
10
60.9625351070218
20
1.43471867867319
30
0
41
1
10
60.9762766396047
20
1.44299107957011
30
0
41
1
10
61.0047633078914
20
1.4559733863195
30
0
41
1
10
61.0196129265224
20
1.46082313563321
30
0
41
1
10
61.0349445112982
20
1.46437109568797
30
0
0
SPLINE
5
D8
100
AcDbEntity
8
1
62
256
6
ByLayer
370
18
48
1
60
0
100
AcDbSpline
70
4
71
3
72
14
73
10
40
0
40
0
40
0
40
0
40
0.159997759898957
40
0.159997759898957
40
0.476455578006347
40
0.476455578006347
40
0.792913396113738
40
0.792913396113738
40
1
40
1
40
1
40
1
41
1
10
60.4348517204586
20
-4.77460155630624
30
0
41
1
10
60.1325069976653
20
-4.77430963833601
30
0
41
1
10
59.8300875376017
20
-4.76366001061731
30
0
41
1
10
58.9285548220789
20
-4.7011627355588
30
0
41
1
10
58.3354871916844
20
-4.61978267848667
30
0
41
1
10
57.1531817614436
20
-4.38342941568075
30
0
41
1
10
56.5638207216926
20
-4.22834982862537
30
0
41
1
10
55.5853152502679
20
-3.91546670564469
30
0
41
1
10
55.1972228100208
20
-3.77702668611281
30
0
41
1
10
54.8073566020952
20
-3.62486313112134
30
0
0
SPLINE
5
D9
100
AcDbEntity
8
1
62
256
6
ByLayer
370
13
48
1
60
0
100
AcDbSpline
70
4
71
3
72
20
73
16
40
0
40
0
40
0
40
0
40
0.0576680868975555
40
0.0576680868975555
40
0.391384587379848
40
0.391384587379848
40
0.558242837620994
40
0.558242837620994
40
0.725101087862141
40
0.725101087862141
40
0.891959338103287
40
0.891959338103287
40
0.97538846322386
40
0.97538846322386
40
1
40
1
40
1
40
1
41
1
10
54.8073575336803
20
-3.62486349471607
30
0
41
1
10
54.601452353231
20
-3.5444993612337
30
0
41
1
10
54.3950524066531
20
-3.46030725006
30
0
41
1
10
52.9901628341993
20
-2.86388444176006
30
0
41
1
10
51.8154142701441
20
-2.25100454995314
30
0
41
1
10
50.0406991936404
20
-1.24780849000319
30
0
41
1
10
49.4467963886262
20
-0.89931671145132
30
0
41
1
10
48.248642283501
20
-0.185507780901702
30
0
41
1
10
47.6549333768726
20
0.17198883534212
30
0
41
1
10
46.4713909656676
20
0.876983255728561
30
0
41
1
10
45.8810184983403
20
1.22352250635018
30
0
41
1
10
44.9927286876883
20
1.72641019147221
30
0
41
1
10
44.6960986481996
20
1.89109340613987
30
0
41
1
10
44.3105383302822
20
2.09930503286654
30
0
41
1
10
44.2226114410858
20
2.14639405280633
30
0
41
1
10
44.1345803647267
20
2.19312922133878
30
0
0
SPLINE
5
DA
100
AcDbEntity
8
1
62
256
6
ByLayer
370
18
48
1
60
0
100
AcDbSpline
70
4
71
3
72
14
73
10
40
0
40
0
40
0
40
0
40
0.162471458182341
40
0.162471458182341
40
0.509632574529142
40
0.509632574529142
40
0.856793690875944
40
0.856793690875944
40
1
40
1
40
1
40
1
41
1
10
10.4454777375134
20
-4.7445880836091
30
0
41
1
10
10.1654733705585
20
-4.74451303660379
30
0
41
1
10
9.88658734135225
20
-4.73565768284902
30
0
41
1
10
9.01386422359727
20
-4.68080993607086
30
0
41
1
10
8.42248496111776
20
-4.60412815498876
30
0
41
1
10
7.23836771906298
20
-4.37595553440283
30
0
41
1
10
6.64579353213645
20
-4.22439576101266
30
0
41
1
10
5.80220547878631
20
-3.96049441571708
30
0
41
1
10
5.5546601583207
20
-3.87725165139824
30
0
41
1
10
5.30718728866742
20
-3.78853794409852
30
0
0
SPLINE
5
DB
100
AcDbEntity
8
1
62
256
6
ByLayer
370
13
48
1
60
0
100
AcDbSpline
70
4
71
3
72
10
73
6
40
0
40
0
40
0
40
0
40
0.14892636966598
40
0.14892636966598
40
1
40
1
40
1
40
1
41
1
10
5.30718728846193
20
-3.78853794402488
30
0
41
1
10
5.25469796301272
20
-3.76972164848129
30
0
41
1
10
5.20221189690642
20
-3.75065923176089
30
0
41
1
10
4.84988470583045
20
-3.6210526627022
30
0
41
1
10
4.55022145424925
20
-3.5028701113487
30
0
41
1
10
4.2503359302946
20
-3.37720299039373
30
0
0
SPLINE
5
DC
100
AcDbEntity
8
1
62
256
6
ByLayer
370
13
48
1
60
0
100
AcDbSpline
70
4
71
3
72
8
73
4
40
0
40
0
40
0
40
0
40
1
40
1
40
1
40
1
41
1
10
4.11758034036578
20
-3.56340328262519
30
0
41
1
10
4.11825115397056
20
-3.53893892192423
30
0
41
1
10
4.11892790761598
20
-3.51447102557259
30
0
41
1
10
4.11961064834011
20
-3.48999945278942
30
0
0
SPLINE
5
DD
100
AcDbEntity
8
1
62
256
6
ByLayer
370
13
48
1
60
0
100
AcDbSpline
70
4
71
3
72
12
73
8
40
0
40
0
40
0
40
0
40
0.5
40
0.5
40
0.75
40
0.75
40
1
40
1
40
1
40
1
41
1
10
4.00343078933267
20
-3.44231098800969
30
0
41
1
10
4.00913666656112
20
-3.45190846319989
30
0
41
1
10
4.02176741536283
20
-3.46101057128007
30
0
41
1
10
4.05100660973878
20
-3.47328614112573
30
0
41
1
10
4.0626483696326
20
-3.47718697875322
30
0
41
1
10
4.08875458050025
20
-3.48415758976836
30
0
41
1
10
4.10331212732831
20
-3.4872819364426
30
0
41
1
10
4.11961064834014
20
-3.48999945278945
30
0
0
SPLINE
5
DE
100
AcDbEntity
8
1
62
256
6
ByLayer
370
13
48
1
60
0
100
AcDbSpline
70
4
71
3
72
8
73
4
40
0
40
0
40
0
40
0
40
1
40
1
40
1
40
1
41
1
10
4.11961064834014
20
-3.48999945278945
30
0
41
1
10
4.1439810283093
20
-3.48972208275617
30
0
41
1
10
4.17075529264483
20
-3.49576774629665
30
0
41
1
10
4.19822851162363
20
-3.50730694449882
30
0
0
SPLINE
5
DF
100
AcDbEntity
8
1
62
256
6
ByLayer
370
18
48
1
60
0
100
AcDbSpline
70
4
71
3
72
88
73
84
40
0
40
0
40
0
40
0
40
0.01254046690118
40
0.01254046690118
40
0.0244158392172223
40
0.0244158392172223
40
0.0362912115332646
40
0.0362912115332646
40
0.06004195616535
40
0.06004195616535
40
0.0837927007974354
40
0.0837927007974354
40
0.107543445429521
40
0.107543445429521
40
0.131294190061606
40
0.131294190061606
40
0.155044934693692
40
0.155044934693692
40
0.178795679325777
40
0.178795679325777
40
0.19067105164182
40
0.19067105164182
40
0.202546423957862
40
0.202546423957862
40
0.250047913222035
40
0.250047913222035
40
0.273798657854121
40
0.273798657854121
40
0.297549402486207
40
0.297549402486207
40
0.321300147118293
40
0.321300147118293
40
0.345050891750379
40
0.345050891750379
40
0.368801636382465
40
0.368801636382465
40
0.39255238101455
40
0.39255238101455
40
0.440053870278723
40
0.440053870278723
40
0.463804614910809
40
0.463804614910809
40
0.487555359542896
40
0.487555359542896
40
0.511306104174982
40
0.511306104174982
40
0.535056848807068
40
0.535056848807068
40
0.558807593439155
40
0.558807593439155
40
0.582558338071241
40
0.582558338071241
40
0.606309082703327
40
0.606309082703327
40
0.630059827335414
40
0.630059827335414
40
0.677561316599586
40
0.677561316599586
40
0.701312061231673
40
0.701312061231673
40
0.725062805863759
40
0.725062805863759
40
0.748813550495845
40
0.748813550495845
40
0.772564295127932
40
0.772564295127932
40
0.796315039760018
40
0.796315039760018
40
0.820065784392104
40
0.820065784392104
40
0.843816529024191
40
0.843816529024191
40
0.867567273656277
40
0.867567273656277
40
0.915068762920449
40
0.915068762920449
40
0.938819507552534
40
0.938819507552534
40
0.962570252184619
40
0.962570252184619
40
0.986320996816705
40
0.986320996816705
40
1
40
1
40
1
40
1
41
1
10
28.6159620608289
20
3.66106916224314
30
0
41
1
10
28.74546948177
20
3.71589846254193
30
0
41
1
10
28.8750851252147
20
3.76942596999425
30
0
41
1
10
29.1275802777895
20
3.8711796408827
30
0
41
1
10
29.250407096421
20
3.91956366076977
30
0
41
1
10
29.4967341939492
20
4.01341433853449
30
0
41
1
10
29.6204582809101
20
4.05887895722592
30
0
41
1
10
29.9909262717637
20
4.19029709640341
30
0
41
1
10
30.2372164005176
20
4.27143491269396
30
0
41
1
10
30.7280322047007
20
4.4214000945349
30
0
41
1
10
30.9723094926656
20
4.4903844064788
30
0
41
1
10
31.459951628274
20
4.61528624307181
30
0
41
1
10
31.7040370407753
20
4.67077410655813
30
0
41
1
10
32.1920963780856
20
4.76855620966677
30
0
41
1
10
32.4360874853361
20
4.81083535085193
30
0
41
1
10
32.923590717432
20
4.88215494370436
30
0
41
1
10
33.1669657581717
20
4.91115838363206
30
0
41
1
10
33.6562625803566
20
4.95480860098738
30
0
41
1
10
33.9017278724762
20
4.96965272092376
30
0
41
1
10
34.2708345202839
20
4.98138112049082
30
0
41
1
10
34.3940244599682
20
4.98352925382235
30
0
41
1
10
34.6406667379273
20
4.984232678734
30
0
41
1
10
34.7641919709552
20
4.98277539009277
30
0
41
1
10
35.3799321627517
20
4.96642101864245
30
0
41
1
10
35.8710691893704
20
4.9250491208085
30
0
41
1
10
36.6032860335846
20
4.82180900980302
30
0
41
1
10
36.8463143538361
20
4.78025647396558
30
0
41
1
10
37.3337589632525
20
4.68449959176715
30
0
41
1
10
37.5777941577251
20
4.63019307398031
30
0
41
1
10
38.0660113299925
20
4.50851384250765
30
0
41
1
10
38.3101323515318
20
4.44108952452728
30
0
41
1
10
38.7984705754563
20
4.29271049150935
30
0
41
1
10
39.043545592363
20
4.21242993688139
30
0
41
1
10
39.5358671798998
20
4.04007262438492
30
0
41
1
10
39.7836358715857
20
3.94758747226251
30
0
41
1
10
40.2767827570174
20
3.75137502064825
30
0
41
1
10
40.5216862783239
20
3.64725125420438
30
0
41
1
10
41.256503894573
20
3.32277118914774
30
0
41
1
10
41.7455129050966
20
3.08951800203084
30
0
41
1
10
42.4752858263487
20
2.71131388896112
30
0
41
1
10
42.7186910113617
20
2.581492320043
30
0
41
1
10
43.2068287802321
20
2.31589781550895
30
0
41
1
10
43.4513042220452
20
2.17978014629998
30
0
41
1
10
43.9406820974296
20
1.90022759360082
30
0
41
1
10
44.1851807425522
20
1.75613774565781
30
0
41
1
10
44.6767927377743
20
1.46376113864727
30
0
41
1
10
44.9246185633672
20
1.31518288529568
30
0
41
1
10
45.4179722044748
20
1.01567084673118
30
0
41
1
10
45.6636956592274
20
0.864713140879189
30
0
41
1
10
46.1528010442623
20
0.559682396639033
30
0
41
1
10
46.3966961158632
20
0.406451475959187
30
0
41
1
10
46.8849805136729
20
0.101491636089435
30
0
41
1
10
47.1290148820638
20
-0.0508178735642844
30
0
41
1
10
47.616465651082
20
-0.355750910087949
30
0
41
1
10
47.8595256063841
20
-0.508948839887211
30
0
41
1
10
48.5901630834059
20
-0.965135262250556
30
0
41
1
10
49.0804848118408
20
-1.26267117636198
30
0
41
1
10
49.8178367928702
20
-1.70381628068776
30
0
41
1
10
50.0647741381446
20
-1.85001287612514
30
0
41
1
10
50.5576081057714
20
-2.13307531444815
30
0
41
1
10
50.803389031595
20
-2.2708739866747
30
0
41
1
10
51.2932918206979
20
-2.53975636054409
30
0
41
1
10
51.5371393466306
20
-2.671204263519
30
0
41
1
10
52.0241827402067
20
-2.92588272201067
30
0
41
1
10
52.2680424653383
20
-3.04825413980043
30
0
41
1
10
52.7557388039697
20
-3.28418793973955
30
0
41
1
10
52.9996053246283
20
-3.3977080195566
30
0
41
1
10
53.4869718213675
20
-3.61619175885554
30
0
41
1
10
53.7303855225581
20
-3.72119759582088
30
0
41
1
10
54.2198782852189
20
-3.91914858661562
30
0
41
1
10
54.4654932177911
20
-4.01264593806644
30
0
41
1
10
54.9580531983374
20
-4.18896851608906
30
0
41
1
10
55.2053730492507
20
-4.27208606201728
30
0
41
1
10
55.9424775249911
20
-4.50178399383375
30
0
41
1
10
56.4327509450191
20
-4.62710260810593
30
0
41
1
10
57.1639777836928
20
-4.77668933786831
30
0
41
1
10
57.4067654718153
20
-4.82011749147449
30
0
41
1
10
57.8938791094063
20
-4.89262517124456
30
0
41
1
10
58.1378020064772
20
-4.92195276917087
30
0
41
1
10
58.6259151603287
20
-4.96693748674528
30
0
41
1
10
58.8700293711906
20
-4.98259872902253
30
0
41
1
10
59.2549607448348
20
-4.99613765612509
30
0
41
1
10
59.3959728376488
20
-4.9987133605359
30
0
41
1
10
59.5373438242025
20
-4.99892182612066
30
0
0
SPLINE
5
E0
100
AcDbEntity
8
SK1
62
256
6
ByLayer
370
18
48
1
60
0
100
AcDbSpline
70
4
71
3
72
14
73
10
40
0
40
0
40
0
40
0
40
0.124999999999998
40
0.124999999999998
40
0.249999999999997
40
0.249999999999997
40
0.499999999999998
40
0.499999999999998
40
1
40
1
40
1
40
1
41
1
10
-38.85
20
-3.19392027560451
30
0
41
1
10
-38.85
20
-3.18544127473331
30
0
41
1
10
-38.8517453396944
20
-3.17513574002658
30
0
41
1
10
-38.8568901241517
20
-3.15433583170855
30
0
41
1
10
-38.860211966304
20
-3.14393339472451
30
0
41
1
10
-38.8714485682308
20
-3.11272189012018
30
0
41
1
10
-38.8802054040538
20
-3.09299233283051
30
0
41
1
10
-38.9082792076556
20
-3.03565583134113
30
0
41
1
10
-38.9286347141249
20
-3.00147527323179
30
0
41
1
10
-38.95
20
-2.97083419590695
30
0
0
SPLINE
5
E1
100
AcDbEntity
8
SK1
62
256
6
ByLayer
370
18
48
1
60
0
100
AcDbSpline
70
4
71
3
72
14
73
10
40
0
40
0
40
0
40
0
40
0.500000000000003
40
0.500000000000003
40
0.750000000000001
40
0.750000000000001
40
0.875000000000001
40
0.875000000000001
40
1
40
1
40
1
40
1
41
1
10
-38.9500000000001
20
-4.47195469064513
30
0
41
1
10
-38.9287234691649
20
-4.50246847971096
30
0
41
1
10
-38.9083432483059
20
-4.52933514092328
30
0
41
1
10
-38.880223151313
20
-4.56115691475435
30
0
41
1
10
-38.8713218079587
20
-4.57023385888908
30
0
41
1
10
-38.8602667834558
20
-4.57852251005588
30
0
41
1
10
-38.8569157654531
20
-4.58043450661194
30
0
41
1
10
-38.851744720606
20
-4.58090995270922
30
0
41
1
10
-38.8499999999999
20
-4.57937559624784
30
0
41
1
10
-38.8499999999999
20
-4.57495113076371
30
0
0
SPLINE
5
E2
100
AcDbEntity
8
SK1
62
256
6
ByLayer
370
18
48
1
60
0
100
AcDbSpline
70
4
71
3
72
10
73
6
40
0
40
0
40
0
40
0
40
0.5
40
0.5
40
1
40
1
40
1
40
1
41
1
10
-38.95
20
-2.97083419590695
30
0
41
1
10
-39.1281002653425
20
-2.71541126200233
30
0
41
1
10
-39.3053068773952
20
-2.45960247160542
30
0
41
1
10
-39.6562276857791
20
-1.94647695558103
30
0
41
1
10
-39.8300482945171
20
-1.68920617609217
30
0
41
1
10
-40
20
-1.43026490374461
30
0
0
SPLINE
5
E3
100
AcDbEntity
8
SK1
62
256
6
ByLayer
370
18
48
1
60
0
100
AcDbSpline
70
4
71
3
72
10
73
6
40
0
40
0
40
0
40
0
40
0.5
40
0.5
40
1
40
1
40
1
40
1
41
1
10
-39.9999999999999
20
-2.93138539848292
30
0
41
1
10
-39.8301257758578
20
-3.19020861895851
30
0
41
1
10
-39.6563253118241
20
-3.44745352007089
30
0
41
1
10
-39.3053898261476
20
-3.96060285482869
30
0
41
1
10
-39.1281394681189
20
-4.21647553398219
30
0
41
1
10
-38.95
20
-4.47195469064505
30
0
0
LINE
5
76
100
AcDbEntity
8
81
62
256
6
ByLayer
370
18
48
1
60
0
100
AcDbLine
10
63
20
0
30
0
11
68
21
0
31
0
39
0
210
0
220
0
230
1
0
LINE
5
77
100
AcDbEntity
8
1
62
256
6
ByLayer
370
18
48
1
60
0
100
AcDbLine
10
2.151679
20
4.964494
30
0
11
0.8
21
4.963683
31
0
39
0
210
0
220
0
230
1
0
LINE
5
79
100
AcDbEntity
8
1
62
256
6
ByLayer
370
18
48
1
60
0
100
AcDbLine
10
10.248737
20
4.969352
30
0
11
8.543424
21
4.968329
31
0
39
0
210
0
220
0
230
1
0
LINE
5
7A
100
AcDbEntity
8
1
62
256
6
ByLayer
370
18
48
1
60
0
100
AcDbLine
10
35.248373
20
4.984352
30
0
11
34.545289
21
4.98393
31
0
39
0
210
0
220
0
230
1
0
LINE
5
7B
100
AcDbEntity
8
1
62
256
6
ByLayer
370
18
48
1
60
0
100
AcDbLine
10
60.248895
20
4.999352
30
0
11
59.550602
21
4.998933
31
0
39
0
210
0
220
0
230
1
0
LINE
5
7C
100
AcDbEntity
8
1
62
256
6
ByLayer
370
18
48
1
60
0
100
AcDbLine
10
59.550602
20
-4.998933
30
0
11
60.248708
21
-4.999352
31
0
39
0
210
0
220
0
230
1
0
LINE
5
7D
100
AcDbEntity
8
1
62
256
6
ByLayer
370
18
48
1
60
0
100
AcDbLine
10
34.545289
20
-4.98393
30
0
11
35.248792
21
-4.984352
31
0
39
0
210
0
220
0
230
1
0
LINE
5
7E
100
AcDbEntity
8
1
62
256
6
ByLayer
370
18
48
1
60
0
100
AcDbLine
10
8.543424
20
-4.968329
30
0
11
10.248985
21
-4.969352
31
0
39
0
210
0
220
0
230
1
0
LINE
5
7F
100
AcDbEntity
8
1
62
256
6
ByLayer
370
18
48
1
60
0
100
AcDbLine
10
0.8
20
-4.963683
30
0
11
2.151679
21
-4.964494
31
0
39
0
210
0
220
0
230
1
0
LINE
5
80
100
AcDbEntity
8
1
62
256
6
ByLayer
370
18
48
1
60
0
100
AcDbLine
10
0
20
-5
30
0
11
0.8
21
-4.963683
31
0
39
0
210
0
220
0
230
1
0
LINE
5
81
100
AcDbEntity
8
1
62
256
6
ByLayer
370
18
48
1
60
0
100
AcDbLine
10
0.8
20
4.963683
30
0
11
0
21
5
31
0
39
0
210
0
220
0
230
1
0
LINE
5
82
100
AcDbEntity
8
SK1
62
256
6
ByLayer
370
18
48
1
60
0
100
AcDbLine
10
-38.845299
20
5
30
0
11
-40
21
3
31
0
39
0
210
0
220
0
230
1
0
LINE
5
84
100
AcDbEntity
8
SK1
62
256
6
ByLayer
370
18
48
1
60
0
100
AcDbLine
10
-40
20
-3
30
0
11
-38.845299
21
-5
31
0
39
0
210
0
220
0
230
1
0
LINE
5
85
100
AcDbEntity
8
SK1
62
256
6
ByLayer
370
18
48
1
60
0
100
AcDbLine
10
0
20
5
30
0
11
-38.845299
21
5
31
0
39
0
210
0
220
0
230
1
0
LINE
5
86
100
AcDbEntity
8
SK1
62
256
6
ByLayer
370
18
48
1
60
0
100
AcDbLine
10
-38.845299
20
-5
30
0
11
0
21
-5
31
0
39
0
210
0
220
0
230
1
0
LINE
5
87
100
AcDbEntity
8
SK4
62
256
6
ByLayer
370
18
48
0.05
60
0
100
AcDbLine
10
68
20
0
30
0
11
-45
21
0
31
0
39
0
210
0
220
0
230
1
0
LINE
5
89
100
AcDbEntity
8
4
62
256
6
ByLayer
370
18
48
0.05
60
0
100
AcDbLine
10
63
20
0
30
0
11
0
21
0
31
0
39
0
210
0
220
0
230
1
0
LINE
5
8B
100
AcDbEntity
8
80
62
256
6
ByLayer
370
18
48
1
60
0
100
AcDbLine
10
0
20
0
30
0
11
-5
21
0
31
0
39
0
210
0
220
0
230
1
0
LINE
5
8C
100
AcDbEntity
8
1
62
256
6
ByLayer
370
18
48
1
60
0
100
AcDbLine
10
62.906914
20
-0.319355
30
0
11
62.751111
21
-0.894556
31
0
39
0
210
0
220
0
230
1
0
LINE
5
8D
100
AcDbEntity
8
1
62
256
6
ByLayer
370
13
48
1
60
0
100
AcDbLine
10
61.747568
20
0.559226
30
0
11
62.894426
21
-0.121243
31
0
39
0
210
0
220
0
230
1
0
LINE
5
8E
100
AcDbEntity
8
1
62
256
6
ByLayer
370
18
48
1
60
0
100
AcDbLine
10
62.906914
20
0.319355
30
0
11
62.751111
21
0.894556
31
0
39
0
210
0
220
0
230
1
0
LINE
5
8F
100
AcDbEntity
8
1
62
256
6
ByLayer
370
18
48
1
60
0
100
AcDbLine
10
60.504439
20
-2.590132
30
0
11
62.894426
21
-0.121243
31
0
39
0
210
0
220
0
230
1
0
LINE
5
90
100
AcDbEntity
8
1
62
256
6
ByLayer
370
18
48
1
60
0
100
AcDbLine
10
62.989334
20
0.047849
30
0
11
63
21
0
31
0
39
0
210
0
220
0
230
1
0
LINE
5
91
100
AcDbEntity
8
1
62
256
6
ByLayer
370
18
48
1
60
0
100
AcDbLine
10
0.8
20
4.963683
30
0
11
0.8
21
-4.963683
31
0
39
0
210
0
220
0
230
1
0
LINE
5
92
100
AcDbEntity
8
1
62
256
6
ByLayer
370
18
48
1
60
0
100
AcDbLine
10
0
20
-5
30
0
11
0
21
5
31
0
39
0
210
0
220
0
230
1
0
LINE
5
93
100
AcDbEntity
8
1
62
256
6
ByLayer
370
18
48
1
60
0
100
AcDbLine
10
63
20
0
30
0
11
62.989334
21
-0.047849
31
0
39
0
210
0
220
0
230
1
0
LINE
5
94
100
AcDbEntity
8
1
62
256
6
ByLayer
370
18
48
1
60
0
100
AcDbLine
10
63
20
0
30
0
11
61.262053
21
-4.77497
31
0
39
0
210
0
220
0
230
1
0
LINE
5
95
100
AcDbEntity
8
1
62
256
6
ByLayer
370
13
48
1
60
0
100
AcDbLine
10
61.937474
20
0.894556
30
0
11
62.906914
21
0.319355
31
0
39
0
210
0
220
0
230
1
0
LINE
5
96
100
AcDbEntity
8
1
62
256
6
ByLayer
370
13
48
1
60
0
100
AcDbLine
10
62.751111
20
0.894556
30
0
11
61.937474
21
0.894556
31
0
39
0
210
0
220
0
230
1
0
LINE
5
97
100
AcDbEntity
8
SK1
62
256
6
ByLayer
370
18
48
1
60
0
100
AcDbLine
10
0
20
-5
30
0
11
0
21
5
31
0
39
0
210
0
220
0
230
1
0
LINE
5
98
100
AcDbEntity
8
SK1
62
256
6
ByLayer
370
18
48
1
60
0
100
AcDbLine
10
-40
20
-3
30
0
11
-40
21
-2.931385
31
0
39
0
210
0
220
0
230
1
0
LINE
5
99
100
AcDbEntity
8
SK1
62
256
6
ByLayer
370
13
48
1
60
0
100
AcDbLine
10
-38.95
20
-2.970721
30
0
11
-38.95
21
-4.471955
31
0
39
0
210
0
220
0
230
1
0
LINE
5
9A
100
AcDbEntity
8
SK1
62
256
6
ByLayer
370
18
48
1
60
0
100
AcDbLine
10
-38.85
20
-4.574951
30
0
11
-38.85
21
-3.19392
31
0
39
0
210
0
220
0
230
1
0
LINE
5
9B
100
AcDbEntity
8
SK1
62
256
6
ByLayer
370
18
48
1
60
0
100
AcDbLine
10
-40
20
3
30
0
11
-40
21
-1.430265
31
0
39
0
210
0
220
0
230
1
0
LINE
5
9C
100
AcDbEntity
8
SK1
62
256
6
ByLayer
370
18
48
1
60
0
100
AcDbLine
10
-38.845299
20
5
30
0
11
-38.845299
21
-5
31
0
39
0
210
0
220
0
230
1
0
LINE
5
9D
100
AcDbEntity
8
SK1
62
256
6
ByLayer
370
18
48
1
60
0
100
AcDbLine
10
-40
20
-1.430228
30
0
11
-40
21
-2.931385
31
0
39
0
210
0
220
0
230
1
0
MTEXT
5
E4
100
AcDbEntity
8
SK6
62
256
6
ByLayer
370
13
48
1
60
0
100
AcDbMText
10
13.629169
20
37.382694
30
0
210
0
220
0
230
1
1
\W0.7415;R840-1000-50-A1A1220
40
3.5
41
0
44
1.084337
50
0
71
8
72
5
7
iso_b_vert
0
DIMENSION
5
F1
100
AcDbEntity
8
SK2
62
256
6
ByLayer
370
13
48
1
60
0
100
AcDbDimension
2
DimnDraft3D1
10
61.28
20
-15.213398
30
0
11
29.030059
21
-15.213398
31
0
70
32
71
5
72
1
41
1
210
0
220
0
230
1
3
Standard
100
AcDbAlignedDimension
13
0
23
-1.5875
33
0
14
61.28
24
-6.5875
34
0
50
0
100
AcDbRotatedDimension
1001
ACAD
1000
DSTYLE
1002
{
1070
   279
1070
     0
1070
   172
1070
     1
1070
   173
1070
     1
1070
   340
1005
E5
1070
   271
1070
     2
1070
   272
1070
     2
1070
    77
1070
     1
1070
    73
1070
     0
1070
   171
1070
     3
1070
   274
1070
     4
1070
   177
1070
    35
1070
   176
1070
    35
1070
   178
1070
    35
1070
    48
1040
-0.005
1070
    41
1041
3.5
1070
   147
1041
1.75
1070
    42
1041
1.5875
1070
    44
1041
2.0
1070
   140
1041
3.5
1070
   343
1005
0
1070
   344
1005
0
1002
}
0
DIMENSION
5
FB
100
AcDbEntity
8
SK2
62
256
6
ByLayer
370
13
48
1
60
0
100
AcDbDimension
2
DimnDraft3D2
10
63
20
-33.692985
30
0
11
11.1213
21
-33.692985
31
0
70
32
71
5
72
1
41
1
210
0
220
0
230
1
3
Standard
100
AcDbAlignedDimension
13
-40
23
-6.5875
33
0
14
63
24
-1.5875
34
0
50
0
100
AcDbRotatedDimension
1001
ACAD
1000
DSTYLE
1002
{
1070
   279
1070
     0
1070
   172
1070
     1
1070
   173
1070
     1
1070
   340
1005
E5
1070
   271
1070
     2
1070
   272
1070
     2
1070
    77
1070
     1
1070
    73
1070
     0
1070
   171
1070
     3
1070
   274
1070
     4
1070
   177
1070
    35
1070
   176
1070
    35
1070
   178
1070
    35
1070
    48
1040
-0.005
1070
    41
1041
3.5
1070
   147
1041
1.75
1070
    42
1041
1.5875
1070
    44
1041
2.0
1070
   140
1041
3.5
1070
   343
1005
0
1070
   344
1005
0
1002
}
0
DIMENSION
5
105
100
AcDbEntity
8
SK2
62
256
6
ByLayer
370
13
48
1
60
0
100
AcDbDimension
2
DimnDraft3D3
10
63
20
16.609119
30
0
11
37.14
21
16.609119
31
0
70
32
71
5
72
1
41
1
210
0
220
0
230
1
3
Standard
100
AcDbAlignedDimension
13
11.28
23
6.5875
33
0
14
63
24
1.5875
34
0
50
0
100
AcDbRotatedDimension
1001
ACAD
1000
DSTYLE
1002
{
1070
   279
1070
     0
1070
   172
1070
     1
1070
   173
1070
     1
1070
   340
1005
E5
1070
   271
1070
     2
1070
   272
1070
     2
1070
    77
1070
     1
1070
    73
1070
     0
1070
   171
1070
     3
1070
   274
1070
     4
1070
   177
1070
    35
1070
   176
1070
    35
1070
   178
1070
    35
1070
    48
1040
-0.005
1070
    41
1041
3.5
1070
   147
1041
1.75
1070
    42
1041
1.5875
1070
    44
1041
2.0
1070
   140
1041
3.5
1070
   343
1005
0
1070
   344
1005
0
1002
}
0
DIMENSION
5
10F
100
AcDbEntity
8
SK2
62
256
6
ByLayer
370
13
48
1
60
0
100
AcDbDimension
2
DimnDraft3D4
10
61.28
20
-17.802503
30
0
11
72.981425
21
-17.802503
31
0
70
32
71
5
72
1
41
1
210
0
220
0
230
1
3
Standard
100
AcDbAlignedDimension
13
63
23
-1.5875
33
0
14
61.28
24
-6.5875
34
0
50
0
100
AcDbRotatedDimension
1001
ACAD
1000
DSTYLE
1002
{
1070
   279
1070
     0
1070
   172
1070
     1
1070
   173
1070
     1
1070
   340
1005
E5
1070
   271
1070
     2
1070
   272
1070
     2
1070
    77
1070
     1
1070
    73
1070
     0
1070
   171
1070
     3
1070
   274
1070
     4
1070
   177
1070
    35
1070
   176
1070
    35
1070
   178
1070
    35
1070
    48
1040
-0.005
1070
    41
1041
3.5
1070
   147
1041
1.75
1070
    42
1041
1.5875
1070
    44
1041
2.0
1070
   140
1041
3.5
1070
   343
1005
0
1070
   344
1005
0
1002
}
0
DIMENSION
5
119
100
AcDbEntity
8
SK2
62
256
6
ByLayer
370
13
48
1
60
0
100
AcDbDimension
2
DimnDraft3D5
10
61.28
20
-23.343428
30
0
11
8.040676
21
-23.343428
31
0
70
32
71
5
72
1
41
1
210
0
220
0
230
1
3
Standard
100
AcDbAlignedDimension
13
-40
23
-6.5875
33
0
14
61.28
24
-6.5875
34
0
50
0
100
AcDbRotatedDimension
1001
ACAD
1000
DSTYLE
1002
{
1070
   279
1070
     0
1070
   172
1070
     1
1070
   173
1070
     1
1070
   340
1005
E5
1070
   271
1070
     2
1070
   272
1070
     2
1070
    77
1070
     1
1070
    73
1070
     0
1070
   171
1070
     3
1070
   274
1070
     4
1070
   177
1070
    35
1070
   176
1070
    35
1070
   178
1070
    35
1070
    48
1040
-0.005
1070
    41
1041
3.5
1070
   147
1041
1.75
1070
    42
1041
1.5875
1070
    44
1041
2.0
1070
   140
1041
3.5
1070
   343
1005
0
1070
   344
1005
0
1002
}
0
DIMENSION
5
124
100
AcDbEntity
8
SK2
62
256
6
ByLayer
370
13
48
1
60
0
100
AcDbDimension
2
DimnDraft3D6
10
-50.625163
20
5
30
0
11
-51.250163
21
23.47418
31
0
70
33
71
5
72
1
41
1
210
0
220
0
230
1
3
Standard
100
AcDbAlignedDimension
13
-41.5875
23
-5
33
0
14
-41.5875
24
5
34
0
1001
ACAD
1000
DSTYLE
1002
{
1070
   279
1070
     0
1070
    74
1070
     0
1070
   173
1070
     1
1070
   340
1005
E5
1070
   271
1070
     3
1070
   272
1070
     2
1070
    77
1070
     1
1070
    73
1070
     0
1070
   171
1070
     3
1070
   274
1070
     4
1070
   177
1070
    35
1070
   176
1070
    35
1070
   178
1070
    35
1070
    48
1040
-0.005
1070
    41
1041
3.5
1070
   147
1041
1.75
1070
    42
1041
1.5875
1070
    44
1041
2.0
1070
   140
1041
3.5
1070
   343
1005
0
1070
   344
1005
0
1002
}
0
DIMENSION
5
12F
100
AcDbEntity
8
2
62
256
6
ByLayer
370
13
48
1
60
0
100
AcDbDimension
2
DimnDraft3D7
10
77.083343
20
5
30
0
11
72.458343
21
22.067266
31
0
70
33
71
5
72
1
41
1
210
0
220
0
230
1
3
Standard
100
AcDbAlignedDimension
13
62.8675
23
-5
33
0
14
62.8675
24
5
34
0
1001
ACAD
1000
DSTYLE
1002
{
1070
   279
1070
     0
1070
    74
1070
     0
1070
   173
1070
     1
1070
   340
1005
E5
1070
   271
1070
     3
1070
   272
1070
     2
1070
    77
1070
     1
1070
    73
1070
     0
1070
   171
1070
     3
1070
   274
1070
     4
1070
   177
1070
    35
1070
   176
1070
    35
1070
   178
1070
    35
1070
    48
1040
-0.005
1070
    41
1041
3.5
1070
   147
1041
1.75
1070
    42
1041
1.5875
1070
    44
1041
2.0
1070
   140
1041
3.5
1070
   343
1005
0
1070
   344
1005
0
1002
}
0
ENDSEC
0
SECTION
2
OBJECTS
0
DICTIONARY
5
19a
330
0
100
AcDbDictionary
280
0
281
1
3
ACAD_GROUP
350
19b
3
ACAD_MLINESTYLE
350
19c
0
DICTIONARY
5
19b
330
0
100
AcDbDictionary
280
0
281
1
0
DICTIONARY
5
19c
330
0
100
AcDbDictionary
280
0
281
1
3
Standard
350
18
0
MLINESTYLE
5
18
330
19c
100
AcDbMlineStyle
2
Standard
70
0
3

62
256
51
90
52
90
71
2
49
-0.5
62
256
6
ByLayer
49
0.5
62
256
6
ByLayer
0
RASTERVARIABLES
5
188
330

100
AcDbRasterVariables
90
0
70
1
71
1
72
1
0
ENDSEC
0
EOF
