0
SECTION
2
HEADER
9
$ACADVER
1
AC1015
9
$DWGCODEPAGE
3
ANSI_1252
9
$HANDSEED
5
1a7
9
$ANGBASE
50
0
9
$ANGDIR
70
0
9
$ATTMODE
70
1
9
$AUNITS
70
0
9
$AUPREC
70
0
9
$CECOLOR
62
256
9
$CELTSCALE
40
1
9
$CELTYPE
6
ByLayer
9
$CELWEIGHT
370
18
9
$CLAYER
8
0
9
$CMLJUST
70
0
9
$CMLSCALE
40
1
9
$CMLSTYLE
2
Standard
9
$DIMSTYLE
2
Standard
9
$TEXTSIZE
40
0.2
9
$TEXTSTYLE
7
Standard
9
$LUNITS
70
2
9
$LUPREC
70
4
9
$EXTNAMES
290
1
9
$INSUNITS
70
4
9
$LTSCALE
40
1
9
$LWDISPLAY
290
1
9
$PDMODE
70
0
9
$PDSIZE
40
0
9
$PLINEGEN
70
0
0
ENDSEC
0
SECTION
2
CLASSES
0
CLASS
1
RASTERVARIABLES
2
AcDbRasterVariables
3
ISM
90
0
280
0
281
0
0
ENDSEC
0
SECTION
2
TABLES
0
TABLE
2
VPORT
5
19d
100
AcDbSymbolTable
0
VPORT
5
1
100
AcDbSymbolTableRecord
100
AcDbViewportTableRecord
2
*Active
70
0
10
0
20
0
11
1
21
1
12
-1
22
1
13
0
23
0
14
0.5
24
0.5
15
10
25
10
16
0
26
0
36
1
17
0
27
0
37
0
0
ENDTAB
0
TABLE
2
LTYPE
5
19e
100
AcDbSymbolTable
0
LTYPE
5
14
100
AcDbSymbolTableRecord
100
AcDbLinetypeTableRecord
70
0
2
ByBlock
3

72
65
73
0
40
0
0
LTYPE
5
15
100
AcDbSymbolTableRecord
100
AcDbLinetypeTableRecord
70
0
2
ByLayer
3

72
65
73
0
40
0
0
LTYPE
5
16
100
AcDbSymbolTableRecord
100
AcDbLinetypeTableRecord
70
0
2
CONTINUOUS
3
Solid line
72
65
73
0
40
0
0
LTYPE
5
6A
100
AcDbSymbolTableRecord
100
AcDbLinetypeTableRecord
70
0
2
CENTER
3
____ _ ____ _ ____ _ ____
72
65
73
4
40
47.5
49
22
74
0
49
-8.5
74
0
49
8.5
74
0
49
-8.5
74
0
0
LTYPE
5
6B
100
AcDbSymbolTableRecord
100
AcDbLinetypeTableRecord
70
0
2
DASHED
3
__ __ __ __ __ __ __ __ __
72
65
73
2
40
25.72
49
12.86
74
0
49
-12.86
74
0
0
ENDTAB
0
TABLE
2
LAYER
5
19f
100
AcDbSymbolTable
0
LAYER
5
10
100
AcDbSymbolTableRecord
100
AcDbLayerTableRecord
2
0
70
0
62
7
6
CONTINUOUS
290
1
370
-3
390
0
0
LAYER
5
6D
100
AcDbSymbolTableRecord
100
AcDbLayerTableRecord
2
81
70
0
62
-3
6
CONTINUOUS
290
1
370
-3
390
0
0
LAYER
5
6F
100
AcDbSymbolTableRecord
100
AcDbLayerTableRecord
2
80
70
0
62
-6
6
CONTINUOUS
290
1
370
-3
390
0
0
LAYER
5
74
100
AcDbSymbolTableRecord
100
AcDbLayerTableRecord
2
2
70
0
62
7
6
CONTINUOUS
290
1
370
-3
390
0
0
LAYER
5
78
100
AcDbSymbolTableRecord
100
AcDbLayerTableRecord
2
1
70
0
62
4
6
CONTINUOUS
290
1
370
-3
390
0
0
LAYER
5
8A
100
AcDbSymbolTableRecord
100
AcDbLayerTableRecord
2
4
70
0
62
-2
6
CENTER
290
1
370
-3
390
0
0
LAYER
5
189
100
AcDbSymbolTableRecord
100
AcDbLayerTableRecord
2
SK2
70
0
62
7
6
CONTINUOUS
290
1
370
-3
390
0
0
LAYER
5
18a
100
AcDbSymbolTableRecord
100
AcDbLayerTableRecord
2
SK1
70
0
62
4
6
CONTINUOUS
290
1
370
-3
390
0
0
LAYER
5
18b
100
AcDbSymbolTableRecord
100
AcDbLayerTableRecord
2
SK4
70
0
62
2
6
CENTER
290
1
370
-3
390
0
0
LAYER
5
18c
100
AcDbSymbolTableRecord
100
AcDbLayerTableRecord
2
SK6
70
0
62
5
6
CONTINUOUS
290
1
370
-3
390
0
0
ENDTAB
0
TABLE
2
STYLE
5
1a0
100
AcDbSymbolTable
0
STYLE
5
11
100
AcDbSymbolTableRecord
100
AcDbTextStyleTableRecord
2
Standard
3
txt
70
0
71
0
40
0
41
1
42
0
50
0
0
STYLE
5
E5
100
AcDbSymbolTableRecord
100
AcDbTextStyleTableRecord
2
iso_b_vert
3
simplex.shx
70
0
71
0
40
0
41
1
42
0
50
0
0
STYLE
5
E6
100
AcDbSymbolTableRecord
100
AcDbTextStyleTableRecord
2
DWGDirectTextStyle
3
simplex
70
0
71
0
40
0
41
1
42
0
50
0
0
ENDTAB
0
TABLE
2
DIMSTYLE
5
1a1
100
AcDbSymbolTable
100
AcDbDimStyleTable
0
DIMSTYLE
105
27
100
AcDbSymbolTableRecord
100
AcDbDimStyleTableRecord
2
Standard
70
0
3
<>
41
0.18
42
0.0625
44
0.18
140
0.18
147
0.09
73
0
74
0
77
1
271
2
275
0
278
52
280
0
340
11
0
ENDTAB
0
TABLE
2
VIEW
5
1a2
100
AcDbSymbolTable
0
ENDTAB
0
TABLE
2
UCS
5
1a3
100
AcDbSymbolTable
0
ENDTAB
0
TABLE
2
APPID
5
1a4
100
AcDbSymbolTable
0
APPID
5
12
100
AcDbSymbolTableRecord
100
AcDbRegAppTableRecord
2
ACAD
70
0
0
ENDTAB
0
TABLE
2
BLOCK_RECORD
5
1a5
100
AcDbSymbolTable
0
BLOCK_RECORD
5
1F
100
AcDbSymbolTableRecord
100
AcDbBlockTableRecord
2
*Model_Space
340
0
70
0
0
BLOCK_RECORD
5
1B
100
AcDbSymbolTableRecord
100
AcDbBlockTableRecord
2
*Paper_Space
340
0
70
0
0
BLOCK_RECORD
5
23
100
AcDbSymbolTableRecord
100
AcDbBlockTableRecord
2
*Paper_Space0
340
0
70
0
0
BLOCK_RECORD
5
E8
100
AcDbSymbolTableRecord
100
AcDbBlockTableRecord
2
DimnDraft3D1
340
0
70
0
0
BLOCK_RECORD
5
F2
100
AcDbSymbolTableRecord
100
AcDbBlockTableRecord
2
DimnDraft3D2
340
0
70
0
0
BLOCK_RECORD
5
FC
100
AcDbSymbolTableRecord
100
AcDbBlockTableRecord
2
DimnDraft3D3
340
0
70
0
0
BLOCK_RECORD
5
106
100
AcDbSymbolTableRecord
100
AcDbBlockTableRecord
2
DimnDraft3D4
340
0
70
0
0
BLOCK_RECORD
5
110
100
AcDbSymbolTableRecord
100
AcDbBlockTableRecord
2
DimnDraft3D5
340
0
70
0
0
BLOCK_RECORD
5
11A
100
AcDbSymbolTableRecord
100
AcDbBlockTableRecord
2
DimnDraft3D6
340
0
70
0
0
BLOCK_RECORD
5
125
100
AcDbSymbolTableRecord
100
AcDbBlockTableRecord
2
DimnDraft3D7
340
0
70
0
0
ENDTAB
0
ENDSEC
0
SECTION
2
BLOCKS
0
BLOCK
5
20
100
AcDbEntity
8
0
100
AcDbBlockBegin
2
*Model_Space
70
0
10
0
20
0
30
0
3
*Model_Space
0
ENDBLK
5
21
100
AcDbEntity
8
0
100
AcDbBlockEnd
0
BLOCK
5
1C
100
AcDbEntity
8
0
100
AcDbBlockBegin
2
*Paper_Space
70
0
10
0
20
0
30
0
3
*Paper_Space
0
ENDBLK
5
1D
100
AcDbEntity
8
0
100
AcDbBlockEnd
0
BLOCK
5
24
100
AcDbEntity
8
0
100
AcDbBlockBegin
2
*Paper_Space0
70
0
10
0
20
0
30
0
3
*Paper_Space0
0
ENDBLK
5
25
100
AcDbEntity
8
0
100
AcDbBlockEnd
0
BLOCK
5
EF
100
AcDbEntity
8
0
100
AcDbBlockBegin
2
DimnDraft3D1
70
0
10
0
20
0
30
0
3
DimnDraft3D1
0
MTEXT
5
E9
100
AcDbEntity
8
SK2
62
256
6
ByLayer
370
13
48
1
60
0
100
AcDbMText
10
25.486375
20
-14.288398
30
0
210
0
220
0
230
1
1
\W0.6563;61,31
40
3.5
41
0
44
1.084337
50
0
71
7
72
5
7
iso_b_vert
0
LINE
5
EA
100
AcDbEntity
8
SK2
62
256
6
ByLayer
370
13
48
1
60
0
100
AcDbLine
10
0
20
-1.5875
30
0
11
0
21
-17.163398
31
0
39
0
210
0
220
0
230
1
0
LINE
5
EB
100
AcDbEntity
8
SK2
62
256
6
ByLayer
370
13
48
1
60
0
100
AcDbLine
10
61.31
20
-6.5375
30
0
11
61.31
21
-17.163398
31
0
39
0
210
0
220
0
230
1
0
LINE
5
EC
100
AcDbEntity
8
SK2
62
256
6
ByLayer
370
13
48
1
60
0
100
AcDbLine
10
0
20
-15.163398
30
0
11
61.31
21
-15.163398
31
0
39
0
210
0
220
0
230
1
0
SOLID
5
ED
100
AcDbEntity
8
SK2
62
256
6
ByLayer
370
13
48
1
60
0
100
AcDbTrace
10
0
20
-15.163398
30
0
11
3.499998
21
-14.702615
31
0
12
3.500002
22
-15.624182
32
0
13
0
23
-15.163398
33
0
39
0
210
0
220
0
230
1
0
SOLID
5
EE
100
AcDbEntity
8
SK2
62
256
6
ByLayer
370
13
48
1
60
0
100
AcDbTrace
10
61.31
20
-15.163398
30
0
11
57.810002
21
-15.624182
31
0
12
57.809998
22
-14.702615
32
0
13
61.31
23
-15.163398
33
0
39
0
210
0
220
0
230
1
0
ENDBLK
5
F0
100
AcDbEntity
8
0
100
AcDbBlockEnd
0
BLOCK
5
F9
100
AcDbEntity
8
0
100
AcDbBlockBegin
2
DimnDraft3D2
70
0
10
0
20
0
30
0
3
DimnDraft3D2
0
MTEXT
5
F3
100
AcDbEntity
8
SK2
62
256
6
ByLayer
370
13
48
1
60
0
100
AcDbMText
10
5.832221
20
-32.817985
30
0
210
0
220
0
230
1
1
\W0.6930;103,00
40
3.5
41
0
44
1.084337
50
0
71
7
72
5
7
iso_b_vert
0
LINE
5
F4
100
AcDbEntity
8
SK2
62
256
6
ByLayer
370
13
48
1
60
0
100
AcDbLine
10
-40
20
-6.5875
30
0
11
-40
21
-35.692985
31
0
39
0
210
0
220
0
230
1
0
LINE
5
F5
100
AcDbEntity
8
SK2
62
256
6
ByLayer
370
13
48
1
60
0
100
AcDbLine
10
63
20
-1.5875
30
0
11
63
21
-35.692985
31
0
39
0
210
0
220
0
230
1
0
LINE
5
F6
100
AcDbEntity
8
SK2
62
256
6
ByLayer
370
13
48
1
60
0
100
AcDbLine
10
-40
20
-33.692985
30
0
11
63
21
-33.692985
31
0
39
0
210
0
220
0
230
1
0
SOLID
5
F7
100
AcDbEntity
8
SK2
62
256
6
ByLayer
370
13
48
1
60
0
100
AcDbTrace
10
-40
20
-33.692985
30
0
11
-36.500002
21
-33.232202
31
0
12
-36.499998
22
-34.153769
32
0
13
-40
23
-33.692985
33
0
39
0
210
0
220
0
230
1
0
SOLID
5
F8
100
AcDbEntity
8
SK2
62
256
6
ByLayer
370
13
48
1
60
0
100
AcDbTrace
10
63
20
-33.692985
30
0
11
59.500002
21
-34.153769
31
0
12
59.499998
22
-33.232202
32
0
13
63
23
-33.692985
33
0
39
0
210
0
220
0
230
1
0
ENDBLK
5
FA
100
AcDbEntity
8
0
100
AcDbBlockEnd
0
BLOCK
5
103
100
AcDbEntity
8
0
100
AcDbBlockBegin
2
DimnDraft3D3
70
0
10
0
20
0
30
0
3
DimnDraft3D3
0
MTEXT
5
FD
100
AcDbEntity
8
SK2
62
256
6
ByLayer
370
13
48
1
60
0
100
AcDbMText
10
33.831316
20
17.434119
30
0
210
0
220
0
230
1
1
\W0.6181;51,19
40
3.5
41
0
44
1.084337
50
0
71
7
72
5
7
iso_b_vert
0
LINE
5
FE
100
AcDbEntity
8
SK2
62
256
6
ByLayer
370
13
48
1
60
0
100
AcDbLine
10
11.81
20
6.5375
30
0
11
11.81
21
18.559119
31
0
39
0
210
0
220
0
230
1
0
LINE
5
FF
100
AcDbEntity
8
SK2
62
256
6
ByLayer
370
13
48
1
60
0
100
AcDbLine
10
63
20
1.5875
30
0
11
63
21
18.559119
31
0
39
0
210
0
220
0
230
1
0
LINE
5
100
100
AcDbEntity
8
SK2
62
256
6
ByLayer
370
13
48
1
60
0
100
AcDbLine
10
11.81
20
16.559119
30
0
11
63
21
16.559119
31
0
39
0
210
0
220
0
230
1
0
SOLID
5
101
100
AcDbEntity
8
SK2
62
256
6
ByLayer
370
13
48
1
60
0
100
AcDbTrace
10
11.81
20
16.559119
30
0
11
15.309998
21
17.019903
31
0
12
15.310002
22
16.098335
32
0
13
11.81
23
16.559119
33
0
39
0
210
0
220
0
230
1
0
SOLID
5
102
100
AcDbEntity
8
SK2
62
256
6
ByLayer
370
13
48
1
60
0
100
AcDbTrace
10
63
20
16.559119
30
0
11
59.500002
21
16.098335
31
0
12
59.499998
22
17.019903
32
0
13
63
23
16.559119
33
0
39
0
210
0
220
0
230
1
0
ENDBLK
5
104
100
AcDbEntity
8
0
100
AcDbBlockEnd
0
BLOCK
5
10D
100
AcDbEntity
8
0
100
AcDbBlockBegin
2
DimnDraft3D4
70
0
10
0
20
0
30
0
3
DimnDraft3D4
0
MTEXT
5
107
100
AcDbEntity
8
SK2
62
256
6
ByLayer
370
13
48
1
60
0
100
AcDbMText
10
70.278136
20
-16.877503
30
0
210
0
220
0
230
1
1
\W0.6463;1,69
40
3.5
41
0
44
1.084337
50
0
71
7
72
5
7
iso_b_vert
0
LINE
5
108
100
AcDbEntity
8
SK2
62
256
6
ByLayer
370
13
48
1
60
0
100
AcDbLine
10
63
20
-1.5875
30
0
11
63
21
-19.752503
31
0
39
0
210
0
220
0
230
1
0
LINE
5
109
100
AcDbEntity
8
SK2
62
256
6
ByLayer
370
13
48
1
60
0
100
AcDbLine
10
61.31
20
-6.5375
30
0
11
61.31
21
-19.752503
31
0
39
0
210
0
220
0
230
1
0
LINE
5
10A
100
AcDbEntity
8
SK2
62
256
6
ByLayer
370
13
48
1
60
0
100
AcDbLine
10
52.56
20
-17.752503
30
0
11
76.559715
21
-17.752503
31
0
39
0
210
0
220
0
230
1
0
SOLID
5
10B
100
AcDbEntity
8
SK2
62
256
6
ByLayer
370
13
48
1
60
0
100
AcDbTrace
10
63
20
-17.752503
30
0
11
66.499998
21
-17.291719
31
0
12
66.500002
22
-18.213287
32
0
13
63
23
-17.752503
33
0
39
0
210
0
220
0
230
1
0
SOLID
5
10C
100
AcDbEntity
8
SK2
62
256
6
ByLayer
370
13
48
1
60
0
100
AcDbTrace
10
61.31
20
-17.752503
30
0
11
57.810002
21
-18.213287
31
0
12
57.809998
22
-17.291719
32
0
13
61.31
23
-17.752503
33
0
39
0
210
0
220
0
230
1
0
ENDBLK
5
10E
100
AcDbEntity
8
0
100
AcDbBlockEnd
0
BLOCK
5
117
100
AcDbEntity
8
0
100
AcDbBlockBegin
2
DimnDraft3D5
70
0
10
0
20
0
30
0
3
DimnDraft3D5
0
MTEXT
5
111
100
AcDbEntity
8
SK2
62
256
6
ByLayer
370
13
48
1
60
0
100
AcDbMText
10
3.626597
20
-22.468428
30
0
210
0
220
0
230
1
1
\W0.6303;101,31
40
3.5
41
0
44
1.084337
50
0
71
7
72
5
7
iso_b_vert
0
LINE
5
112
100
AcDbEntity
8
SK2
62
256
6
ByLayer
370
13
48
1
60
0
100
AcDbLine
10
-40
20
-6.5875
30
0
11
-40
21
-25.343428
31
0
39
0
210
0
220
0
230
1
0
LINE
5
113
100
AcDbEntity
8
SK2
62
256
6
ByLayer
370
13
48
1
60
0
100
AcDbLine
10
61.31
20
-6.5375
30
0
11
61.31
21
-25.343428
31
0
39
0
210
0
220
0
230
1
0
LINE
5
114
100
AcDbEntity
8
SK2
62
256
6
ByLayer
370
13
48
1
60
0
100
AcDbLine
10
-40
20
-23.343428
30
0
11
61.31
21
-23.343428
31
0
39
0
210
0
220
0
230
1
0
SOLID
5
115
100
AcDbEntity
8
SK2
62
256
6
ByLayer
370
13
48
1
60
0
100
AcDbTrace
10
-40
20
-23.343428
30
0
11
-36.500002
21
-22.882645
31
0
12
-36.499998
22
-23.804212
32
0
13
-40
23
-23.343428
33
0
39
0
210
0
220
0
230
1
0
SOLID
5
116
100
AcDbEntity
8
SK2
62
256
6
ByLayer
370
13
48
1
60
0
100
AcDbTrace
10
61.31
20
-23.343428
30
0
11
57.810002
21
-23.804212
31
0
12
57.809998
22
-22.882645
32
0
13
61.31
23
-23.343428
33
0
39
0
210
0
220
0
230
1
0
ENDBLK
5
118
100
AcDbEntity
8
0
100
AcDbBlockEnd
0
BLOCK
5
122
100
AcDbEntity
8
0
100
AcDbBlockBegin
2
DimnDraft3D6
70
0
10
0
20
0
30
0
3
DimnDraft3D6
0
MTEXT
5
11B
100
AcDbEntity
8
SK2
62
256
6
ByLayer
370
13
48
1
60
0
100
AcDbMText
10
-50.375163
20
24.34918
30
0
210
0
220
0
230
1
1
\W0.6930;10,000
40
3.5
41
0
44
1.084337
50
90
71
7
72
5
7
iso_b_vert
0
MTEXT
5
11C
100
AcDbEntity
8
SK2
62
256
6
ByLayer
370
13
48
1
60
0
100
AcDbMText
10
-50.375163
20
19.126524
30
0
210
0
220
0
230
1
1
%%c
40
3.5
41
0
44
1.084337
50
90
71
7
72
5
7
iso_b_vert
0
LINE
5
11D
100
AcDbEntity
8
SK2
62
256
6
ByLayer
370
13
48
1
60
0
100
AcDbLine
10
-41.5875
20
-5
30
0
11
-50.625163
21
-5
31
0
39
0
210
0
220
0
230
1
0
LINE
5
11E
100
AcDbEntity
8
SK2
62
256
6
ByLayer
370
13
48
1
60
0
100
AcDbLine
10
-41.5875
20
5
30
0
11
-50.625163
21
5
31
0
39
0
210
0
220
0
230
1
0
LINE
5
11F
100
AcDbEntity
8
SK2
62
256
6
ByLayer
370
13
48
1
60
0
100
AcDbLine
10
-48.625163
20
-5
30
0
11
-48.625163
21
35.862338
31
0
39
0
210
0
220
0
230
1
0
SOLID
5
120
100
AcDbEntity
8
SK2
62
256
6
ByLayer
370
13
48
1
60
0
100
AcDbTrace
10
-48.625163
20
-5
30
0
11
-49.085946
21
-1.500002
31
0
12
-48.164379
22
-1.499998
32
0
13
-48.625163
23
-5
33
0
39
0
210
0
220
0
230
1
0
SOLID
5
121
100
AcDbEntity
8
SK2
62
256
6
ByLayer
370
13
48
1
60
0
100
AcDbTrace
10
-48.625163
20
5
30
0
11
-48.164379
21
1.500002
31
0
12
-49.085946
22
1.499998
32
0
13
-48.625163
23
5
33
0
39
0
210
0
220
0
230
1
0
ENDBLK
5
123
100
AcDbEntity
8
0
100
AcDbBlockEnd
0
BLOCK
5
12D
100
AcDbEntity
8
0
100
AcDbBlockBegin
2
DimnDraft3D7
70
0
10
0
20
0
30
0
3
DimnDraft3D7
0
MTEXT
5
126
100
AcDbEntity
8
2
62
256
6
ByLayer
370
13
48
1
60
0
100
AcDbMText
10
73.333343
20
22.892266
30
0
210
0
220
0
230
1
1
\W0.7317;9,900
40
3.5
41
0
44
1.084337
50
90
71
7
72
5
7
iso_b_vert
0
MTEXT
5
127
100
AcDbEntity
8
2
62
256
6
ByLayer
370
13
48
1
60
0
100
AcDbMText
10
73.333343
20
17.66961
30
0
210
0
220
0
230
1
1
%%c
40
3.5
41
0
44
1.084337
50
90
71
7
72
5
7
iso_b_vert
0
LINE
5
128
100
AcDbEntity
8
2
62
256
6
ByLayer
370
13
48
1
60
0
100
AcDbLine
10
62.8975
20
-4.95
30
0
11
77.083343
21
-4.95
31
0
39
0
210
0
220
0
230
1
0
LINE
5
129
100
AcDbEntity
8
2
62
256
6
ByLayer
370
13
48
1
60
0
100
AcDbLine
10
62.8975
20
4.95
30
0
11
77.083343
21
4.95
31
0
39
0
210
0
220
0
230
1
0
LINE
5
12A
100
AcDbEntity
8
2
62
256
6
ByLayer
370
13
48
1
60
0
100
AcDbLine
10
75.083343
20
-4.95
30
0
11
75.083343
21
32.664635
31
0
39
0
210
0
220
0
230
1
0
SOLID
5
12B
100
AcDbEntity
8
2
62
256
6
ByLayer
370
13
48
1
60
0
100
AcDbTrace
10
75.083343
20
-4.95
30
0
11
74.622559
21
-1.450002
31
0
12
75.544126
22
-1.449998
32
0
13
75.083343
23
-4.95
33
0
39
0
210
0
220
0
230
1
0
SOLID
5
12C
100
AcDbEntity
8
2
62
256
6
ByLayer
370
13
48
1
60
0
100
AcDbTrace
10
75.083343
20
4.95
30
0
11
75.544126
21
1.450002
31
0
12
74.622559
22
1.449998
32
0
13
75.083343
23
4.95
33
0
39
0
210
0
220
0
230
1
0
ENDBLK
5
12E
100
AcDbEntity
8
0
100
AcDbBlockEnd
0
ENDSEC
0
SECTION
2
ENTITIES
0
ELLIPSE
5
9F
100
AcDbEntity
8
1
62
256
6
ByLayer
370
18
48
1
60
0
100
AcDbEllipse
10
63.031724
20
0.031022
30
0
11
0.140634105023426
21
-0.431000092826061
31
0
210
0
220
0
230
-1
40
0.07518
41
1.63559958516083
42
2.31001430907649
0
ELLIPSE
5
A0
100
AcDbEntity
8
1
62
256
6
ByLayer
370
13
48
1
60
0
100
AcDbEllipse
10
4.250203
20
-3.398469
30
0
11
0.0391662251341764
21
0.0920109059228254
31
0
210
0
220
0
230
1
40
0.365161
41
0.85914723389567
42
2.41521627667141
0
ELLIPSE
5
A1
100
AcDbEntity
8
1
62
256
6
ByLayer
370
13
48
1
60
0
100
AcDbEllipse
10
4.172335
20
-3.380729
30
0
11
-0.0001834351469024
21
0.0999998317575929
31
0
210
0
220
0
230
1
40
0.64693
41
0.925026632228924
42
2.2108950859912
0
ELLIPSE
5
A2
100
AcDbEntity
8
1
62
256
6
ByLayer
370
13
48
1
60
0
100
AcDbEllipse
10
61.939049
20
0.679342
30
0
11
0.153082081612418
21
0.258003636193774
31
0
210
0
220
0
230
1
40
0.454519
41
0.917105603404793
42
2.31336900500021
0
ELLIPSE
5
A3
100
AcDbEntity
8
1
62
256
6
ByLayer
370
18
48
1
60
0
100
AcDbEllipse
10
63.000431
20
0.001081
30
0
11
1.82091255999516
21
4.94772143646275
31
0
210
0
220
0
230
-1
40
0.098637
41
2.88131639144491
42
2.98011039239674
0
ELLIPSE
5
A4
100
AcDbEntity
8
1
62
256
6
ByLayer
370
18
48
1
60
0
100
AcDbEllipse
10
62.067841
20
-2.361549
30
0
11
0.76463182958183
21
2.07763150709419
31
0
210
0
220
0
230
-1
40
0.098637
41
0.749112684720231
42
1.55347776886467
0
ELLIPSE
5
A5
100
AcDbEntity
8
1
62
256
6
ByLayer
370
13
48
1
60
0
100
AcDbEllipse
10
62.40174
20
2.238352
30
0
11
2.73074602243479
21
-1.88019628897711
31
0
210
0
220
0
230
-1
40
0.533762
41
1.44484622739461
42
1.75771922460229
0
ELLIPSE
5
A6
100
AcDbEntity
8
1
62
256
6
ByLayer
370
18
48
1
60
0
100
AcDbEllipse
10
62.859953
20
0.132939
30
0
11
0.0727819104927984
21
0.301917195714939
31
0
210
0
220
0
230
-1
40
0.478434
41
1.73791252233393
42
2.45976119972971
0
ELLIPSE
5
A7
100
AcDbEntity
8
1
62
256
6
ByLayer
370
18
48
1
60
0
100
AcDbEllipse
10
63.031724
20
-0.031022
30
0
11
0.140634104913392
21
0.431000092539271
31
0
210
0
220
0
230
-1
40
0.07518
41
-2.31001430903149
42
-1.63559958471421
0
ELLIPSE
5
A8
100
AcDbEntity
8
1
62
256
6
ByLayer
370
13
48
1
60
0
100
AcDbEllipse
10
62.591646
20
2.361549
30
0
11
2.80624273447363
21
-1.52874243474958
31
0
210
0
220
0
230
-1
40
0.502083
41
1.53004713203427
42
1.86026610913809
0
ELLIPSE
5
A9
100
AcDbEntity
8
1
62
256
6
ByLayer
370
18
48
1
60
0
100
AcDbEllipse
10
62.067841
20
2.361549
30
0
11
0.764631829572167
21
-2.07763150707227
31
0
210
0
220
0
230
-1
40
0.098637
41
-1.55347776887155
42
-0.749112684718956
0
ELLIPSE
5
AA
100
AcDbEntity
8
1
62
256
6
ByLayer
370
18
48
1
60
0
100
AcDbEllipse
10
63.000431
20
-0.001081
30
0
11
1.82091256488526
21
-4.94772145063519
31
0
210
0
220
0
230
-1
40
0.098637
41
-2.98011039262827
42
-2.88131639182008
0
POINT
5
6C
100
AcDbEntity
8
81
62
256
6
ByLayer
370
18
48
1
60
0
100
AcDbPoint
10
63
20
0
30
0
39
0
210
0
220
0
230
1
50
360
0
POINT
5
6E
100
AcDbEntity
8
80
62
256
6
ByLayer
370
18
48
1
60
0
100
AcDbPoint
10
0
20
0
30
0
39
0
210
0
220
0
230
1
50
360
0
POINT
5
70
100
AcDbEntity
8
SK2
62
256
6
ByLayer
370
18
48
1
60
1
100
AcDbPoint
10
-40
20
-5
30
0
39
0
210
0
220
0
230
1
50
360
0
POINT
5
72
100
AcDbEntity
8
SK2
62
256
6
ByLayer
370
18
48
1
60
1
100
AcDbPoint
10
-40
20
5
30
0
39
0
210
0
220
0
230
1
50
360
0
POINT
5
73
100
AcDbEntity
8
2
62
256
6
ByLayer
370
18
48
1
60
1
100
AcDbPoint
10
61.31
20
-4.95
30
0
39
0
210
0
220
0
230
1
50
360
0
POINT
5
75
100
AcDbEntity
8
2
62
256
6
ByLayer
370
18
48
1
60
1
100
AcDbPoint
10
61.31
20
4.95
30
0
39
0
210
0
220
0
230
1
50
360
0
SPLINE
5
AB
100
AcDbEntity
8
1
62
256
6
ByLayer
370
18
48
1
60
0
100
AcDbSpline
70
4
71
3
72
26
73
22
40
0
40
0
40
0
40
0
40
0.0062766647752069
40
0.0490431064426416
40
0.0874913456064662
40
0.127623016947246
40
0.169344255933632
40
0.208852034913234
40
0.246119991556776
40
0.287023775986327
40
0.356302708267591
40
0.417182090521852
40
0.485410455901895
40
0.551181369420083
40
0.621519908812627
40
0.699836486330712
40
0.767909562891772
40
0.843482484380814
40
0.922650674906919
40
0.998309336792514
40
1
40
1
40
1
40
1
41
1
10
48.3530325639655
20
4.71656013892127
30
0
41
1
10
48.3316092021438
20
4.71643680794136
30
0
41
1
10
48.1637801630946
20
4.71557903561342
30
0
41
1
10
47.8392007913201
20
4.71591870425809
30
0
41
1
10
47.4253539037931
20
4.71874187010394
30
0
41
1
10
46.9956614975134
20
4.71807405173862
30
0
41
1
10
46.5624579346425
20
4.71866733542606
30
0
41
1
10
46.138900023895
20
4.71910630560402
30
0
41
1
10
45.7183655336192
20
4.7180959357803
30
0
41
1
10
45.1914083785244
20
4.7166856671478
30
0
41
1
10
44.5800767058823
20
4.7178384498373
30
0
41
1
10
43.8710936254876
20
4.71644881742449
30
0
41
1
10
43.1746483286415
20
4.71598601538062
30
0
41
1
10
42.4443952465705
20
4.71679042666676
30
0
41
1
10
41.6780912878226
20
4.71472268207543
30
0
41
1
10
40.9035625606282
20
4.71561403123007
30
0
41
1
10
40.1103247622567
20
4.71411121435335
30
0
41
1
10
39.3140464217353
20
4.71458291377476
30
0
41
1
10
38.4907063652592
20
4.71331120794125
30
0
41
1
10
37.9312389018325
20
4.71346464442922
30
0
41
1
10
37.6548906886847
20
4.71334121528085
30
0
41
1
10
37.648850470026
20
4.71333842216802
30
0
0
SPLINE
5
AC
100
AcDbEntity
8
1
62
256
6
ByLayer
370
18
48
1
60
0
100
AcDbSpline
70
4
71
3
72
32
73
28
40
0
40
0
40
0
40
0
40
0.0609350854665085
40
0.106745229138627
40
0.137645538693698
40
0.161100675581779
40
0.184475716661906
40
0.207781415117784
40
0.230328836963522
40
0.268006602711015
40
0.307195385287502
40
0.3551981836709
40
0.411603776173146
40
0.460138811373557
40
0.510887295594202
40
0.566057280048911
40
0.616622717733603
40
0.667161066502716
40
0.705973876258742
40
0.735562403167511
40
0.775028266263157
40
0.820803660763842
40
0.854663961834837
40
0.886512294814366
40
0.927720750833854
40
0.98116492332825
40
1
40
1
40
1
40
1
41
1
10
10.4104204475146
20
-4.6965311274798
30
0
41
1
10
10.6706338397781
20
-4.69675813938017
30
0
41
1
10
11.1264725352465
20
-4.69712435075175
30
0
41
1
10
11.7141460111878
20
-4.69759202756438
30
0
41
1
10
12.1419484050025
20
-4.69781411712168
30
0
41
1
10
12.4736567503489
20
-4.6981441375556
30
0
41
1
10
12.7731595193611
20
-4.69857394458222
30
0
41
1
10
13.0687758594992
20
-4.69883736245225
30
0
41
1
10
13.4254500175297
20
-4.69897117555848
30
0
41
1
10
13.8499759318186
20
-4.69890473179407
30
0
41
1
10
14.3831714734125
20
-4.69980527974724
30
0
41
1
10
14.9963731116588
20
-4.70051921055344
30
0
41
1
10
15.6493789181839
20
-4.6995934465746
30
0
41
1
10
16.3145025391837
20
-4.70191389435425
30
0
41
1
10
16.9728570057521
20
-4.70114643850167
30
0
41
1
10
17.6388342052147
20
-4.70057097882119
30
0
41
1
10
18.3071214098985
20
-4.70320315372439
30
0
41
1
10
18.9024653516522
20
-4.70194659870612
30
0
41
1
10
19.4101446406579
20
-4.70262820557954
30
0
41
1
10
19.8708458251047
20
-4.70442884047532
30
0
41
1
10
20.3608082720339
20
-4.70387396588634
30
0
41
1
10
20.8709489988916
20
-4.70345936220122
30
0
41
1
10
21.3424470198453
20
-4.70418045912876
30
0
41
1
10
21.8020879856151
20
-4.70480561004288
30
0
41
1
10
22.3275588130037
20
-4.70505156357237
30
0
41
1
10
22.8143655296188
20
-4.70449528841436
30
0
41
1
10
23.1214885644141
20
-4.70508455383938
30
0
41
1
10
23.2016231245778
20
-4.70526403764538
30
0
0
SPLINE
5
AD
100
AcDbEntity
8
1
62
256
6
ByLayer
370
18
48
1
60
0
100
AcDbSpline
70
4
71
2
72
6
73
3
40
0
40
0
40
0
40
1
40
1
40
1
41
1
10
60.4785783584362
20
-4.72661756417594
30
0
41
1
10
60.8784905011937
20
-4.72456566979906
30
0
41
1
10
61.2780984479808
20
-4.72850968675255
30
0
0
SPLINE
5
AE
100
AcDbEntity
8
1
62
256
6
ByLayer
370
18
48
1
60
0
100
AcDbSpline
70
4
71
3
72
29
73
25
40
0
40
0
40
0
40
0
40
0.0571262803022081
40
0.101511817561654
40
0.13316435791728
40
0.157748210248005
40
0.180541113067287
40
0.201554463278686
40
0.250374510425809
40
0.302324378118983
40
0.364857731154788
40
0.421185284003979
40
0.485988894794136
40
0.544191021025385
40
0.614965592515839
40
0.681952654652866
40
0.752361023456785
40
0.818571482129026
40
0.852135052554334
40
0.888151751074856
40
0.923226301488034
40
0.956660278740792
40
0.993137383701621
40
1
40
1
40
1
40
1
41
1
10
35.4103127453714
20
-4.7116047303229
30
0
41
1
10
35.6570099447005
20
-4.7118179613592
30
0
41
1
10
36.0954034973757
20
-4.71219261263263
30
0
41
1
10
36.6704023015976
20
-4.71231374528423
30
0
41
1
10
37.1050861106745
20
-4.71286622056942
30
0
41
1
10
37.4459372197265
20
-4.71322523647413
30
0
41
1
10
37.7412922273484
20
-4.71340304409827
30
0
41
1
10
38.141346972876
20
-4.71345864715107
30
0
41
1
10
38.667318129123
20
-4.71367220521142
30
0
41
1
10
39.3726132267195
20
-4.71453022323382
30
0
41
1
10
40.1103224895152
20
-4.71411497313582
30
0
41
1
10
40.9035632275318
20
-4.71561579068901
30
0
41
1
10
41.6780911880783
20
-4.71470981132228
30
0
41
1
10
42.5150183229596
20
-4.7170284225696
30
0
41
1
10
43.361379543768
20
-4.71536545598181
30
0
41
1
10
44.2604454572801
20
-4.7180460462979
30
0
41
1
10
45.1398370603266
20
-4.71627656672257
30
0
41
1
10
45.8747695593804
20
-4.71898172891164
30
0
41
1
10
46.4613939073572
20
-4.71885960183474
30
0
41
1
10
46.9128187960412
20
-4.71809477000801
30
0
41
1
10
47.3651388364527
20
-4.71867609224591
30
0
41
1
10
47.7988468237499
20
-4.71646202151013
30
0
41
1
10
48.1419928262048
20
-4.71544122151525
30
0
41
1
10
48.3214068244143
20
-4.7163778958442
30
0
41
1
10
48.3497256496024
20
-4.71654921012225
30
0
0
SPLINE
5
AF
100
AcDbEntity
8
1
62
256
6
ByLayer
370
18
48
1
60
0
100
AcDbSpline
70
4
71
3
72
12
73
8
40
0
40
0
40
0
40
0
40
0.0117520241839294
40
0.0964178832275125
40
0.223033975608805
40
0.621772190830189
40
1
40
1
40
1
40
1
41
1
10
23.6916748027258
20
-0.996441596860279
30
0
41
1
10
23.6916408416806
20
-0.996422609399275
30
0
41
1
10
23.6915265627961
20
-0.996358841295461
30
0
41
1
10
23.6945209843863
20
-0.998038555405543
30
0
41
1
10
23.729530274276
20
-1.0180038375361
30
0
41
1
10
23.7969759205255
20
-1.05771006797426
30
0
41
1
10
23.8646473404325
20
-1.09870732968651
30
0
41
1
10
23.9006985418591
20
-1.12077401031991
30
0
0
SPLINE
5
B0
100
AcDbEntity
8
1
62
256
6
ByLayer
370
18
48
1
60
0
100
AcDbSpline
70
4
71
3
72
32
73
28
40
0
40
0
40
0
40
0
40
0.0027687804534108
40
0.0418163360839896
40
0.0878640125752018
40
0.138131935087425
40
0.178788935898683
40
0.214162276361635
40
0.252714139853786
40
0.300705261535184
40
0.350525896767028
40
0.387842098339611
40
0.421229570184572
40
0.459941363573882
40
0.504292373828465
40
0.556166361069445
40
0.621283808934663
40
0.675296014076701
40
0.705839596945222
40
0.748450978850993
40
0.799142176417381
40
0.839201082520832
40
0.876304546313235
40
0.924912401419922
40
0.973987702632341
40
0.993779221176793
40
1
40
1
40
1
40
1
41
1
10
23.392782788302
20
4.70347416980806
30
0
41
1
10
23.3834709178764
20
4.7034128952823
30
0
41
1
10
23.2424859789839
20
4.70252002676344
30
0
41
1
10
22.9097769666859
20
4.69993754306887
30
0
41
1
10
22.4476261360746
20
4.70503658459762
30
0
41
1
10
21.9519743420266
20
4.70524053424876
30
0
41
1
10
21.4979296516465
20
4.7052577841277
30
0
41
1
10
21.0849461810322
20
4.70365317533705
30
0
41
1
10
20.6456758562693
20
4.70356763572175
30
0
41
1
10
20.1543035760046
20
4.70436393622441
30
0
41
1
10
19.6673973783835
20
4.70372621667929
30
0
41
1
10
19.2331104544927
20
4.70228532253029
30
0
41
1
10
18.838855481781
20
4.70228982174209
30
0
41
1
10
18.4196330982401
20
4.70298904398177
30
0
41
1
10
17.9343696030858
20
4.70284814935454
30
0
41
1
10
17.3525692020923
20
4.70031704662634
30
0
41
1
10
16.7370308096641
20
4.70174261754184
30
0
41
1
10
16.1984802164156
20
4.70130300462921
30
0
41
1
10
15.7400852519598
20
4.70003718890209
30
0
41
1
10
15.2941807345492
20
4.70006755571274
30
0
41
1
10
14.8141187775879
20
4.70027639253158
30
0
41
1
10
14.3531542378372
20
4.69965996386102
30
0
41
1
10
13.9011420374199
20
4.69896138263164
30
0
41
1
10
13.4150928250411
20
4.69897591311337
30
0
41
1
10
12.9918821925958
20
4.69882153750726
30
0
41
1
10
12.7213224069401
20
4.69849442390137
30
0
41
1
10
12.627813742975
20
4.69835219911545
30
0
41
1
10
12.6054561547172
20
4.69831748945441
30
0
0
SPLINE
5
B1
100
AcDbEntity
8
1
62
256
6
ByLayer
370
18
48
1
60
0
100
AcDbSpline
70
4
71
3
72
9
73
5
40
0
40
0
40
0
40
0
40
0.149146115009178
40
1
40
1
40
1
40
1
41
1
10
48.7668894270454
20
-1.03843768069362
30
0
41
1
10
48.7664615103973
20
-1.03817773844747
30
0
41
1
10
48.7653001459865
20
-1.03751049302971
30
0
41
1
10
48.7882391248228
20
-1.05156649300668
30
0
41
1
10
48.8178137437552
20
-1.06979667185397
30
0
0
SPLINE
5
B2
100
AcDbEntity
8
1
62
256
6
ByLayer
370
18
48
1
60
0
100
AcDbSpline
70
4
71
3
72
8
73
4
40
0
40
0
40
0
40
0
40
1
40
1
40
1
40
1
41
1
10
61.2816739702697
20
-4.91114837139639
30
0
41
1
10
61.2975187344034
20
-4.86904392581602
30
0
41
1
10
61.3133473252253
20
-4.82690377130265
30
0
41
1
10
61.3291581311532
20
-4.78473221081282
30
0
0
SPLINE
5
B3
100
AcDbEntity
8
1
62
256
6
ByLayer
370
18
48
1
60
0
100
AcDbSpline
70
4
71
3
72
18
73
14
40
0
40
0
40
0
40
0
40
0.424419786525154
40
0.424419786525154
40
0.490776833677758
40
0.490776833677758
40
0.557133880830363
40
0.557133880830363
40
0.689847975135577
40
0.689847975135577
40
0.955276163746
40
0.955276163746
40
1
40
1
40
1
40
1
41
1
10
22.7799670848984
20
0.0028333492577133
30
0
41
1
10
23.728392956834
20
-0.569555719468156
30
0
41
1
10
24.6717205729407
20
-1.13906824235812
30
0
41
1
10
25.7749007471031
20
-1.76368530148872
30
0
41
1
10
25.9243366343506
20
-1.84739627319365
30
0
41
1
10
26.2238977133716
20
-2.01310682259773
30
0
41
1
10
26.3741871169285
20
-2.09519153650467
30
0
41
1
10
26.8237178728246
20
-2.33725507766889
30
0
41
1
10
27.1222923040465
20
-2.49346860979702
30
0
41
1
10
28.0162210104672
20
-2.94468172919582
30
0
41
1
10
28.6099815551107
20
-3.22210446710352
30
0
41
1
10
29.30564751472
20
-3.51314832041902
30
0
41
1
10
29.4060079775282
20
-3.55431262143884
30
0
41
1
10
29.506435977416
20
-3.5946461754186
30
0
0
SPLINE
5
B4
100
AcDbEntity
8
1
62
256
6
ByLayer
370
13
48
1
60
0
100
AcDbSpline
70
4
71
3
72
18
73
14
40
0
40
0
40
0
40
0
40
0.0804031049292561
40
0.0804031049292561
40
0.201673635175993
40
0.201673635175993
40
0.322944165422731
40
0.322944165422731
40
0.444214695669468
40
0.444214695669468
40
0.929296816656421
40
0.929296816656421
40
1
40
1
40
1
40
1
41
1
10
29.5064359774384
20
-3.59464617542764
30
0
41
1
10
29.704019332658
20
-3.67399893493823
30
0
41
1
10
29.9018641045985
20
-3.75013611023604
30
0
41
1
10
30.3991888020114
20
-3.9325358138438
30
0
41
1
10
30.6996892601024
20
-4.03464150469907
30
0
41
1
10
31.2991278284961
20
-4.22073039726385
30
0
41
1
10
31.5984867341422
20
-4.30486484347429
30
0
41
1
10
32.1975315585763
20
-4.45462771625125
30
0
41
1
10
32.4974828009536
20
-4.52033592077504
30
0
41
1
10
33.9969850783343
20
-4.79990678978976
30
0
41
1
10
35.1731436526154
20
-4.86328516064643
30
0
41
1
10
36.5298859390329
20
-4.75386546080696
30
0
41
1
10
36.702648160356
20
-4.73656849156501
30
0
41
1
10
36.8756771607552
20
-4.71589438505762
30
0
0
SPLINE
5
B5
100
AcDbEntity
8
1
62
256
6
ByLayer
370
18
48
1
60
0
100
AcDbSpline
70
4
71
3
72
18
73
14
40
0
40
0
40
0
40
0
40
0.249999999999999
40
0.249999999999999
40
0.374999999999999
40
0.374999999999999
40
0.499999999999999
40
0.499999999999999
40
0.749999999999998
40
0.749999999999998
40
0.874999999999999
40
0.874999999999999
40
1
40
1
40
1
40
1
41
1
10
9.3190129401527
20
0.758175039143651
30
0
41
1
10
8.87882236210322
20
1.0136215857502
30
0
41
1
10
8.44489924674164
20
1.27081382535974
30
0
41
1
10
7.80048350993496
20
1.65069710382556
30
0
41
1
10
7.58675762027212
20
1.77625229734991
30
0
41
1
10
7.16087632457337
20
2.02485454581262
30
0
41
1
10
6.94871430658276
20
2.14795540337076
30
0
41
1
10
6.31425976977332
20
2.51229201258514
30
0
41
1
10
5.89384034552438
20
2.74853055279951
30
0
41
1
10
5.26762036493795
20
3.09002780691623
30
0
41
1
10
5.05988669552588
20
3.20158706853502
30
0
41
1
10
4.65096399380789
20
3.41794833123916
30
0
41
1
10
4.44926403537261
20
3.52303381385934
30
0
41
1
10
4.25126594729289
20
3.62496034406692
30
0
0
SPLINE
5
B6
100
AcDbEntity
8
1
62
256
6
ByLayer
370
18
48
1
60
0
100
AcDbSpline
70
4
71
3
72
14
73
10
40
0
40
0
40
0
40
0
40
0.530574444722829
40
0.530574444722829
40
0.708381014109843
40
0.708381014109843
40
0.886187583496856
40
0.886187583496856
40
1
40
1
40
1
40
1
41
1
10
35.4888069933428
20
-4.71167311639857
30
0
41
1
10
34.6072795550972
20
-4.71185943652441
30
0
41
1
10
33.7256432127527
20
-4.625306535954
30
0
41
1
10
32.5316321332572
20
-4.39381414383834
30
0
41
1
10
32.2320156200067
20
-4.3262204177264
30
0
41
1
10
31.633437756529
20
-4.17325606937126
30
0
41
1
10
31.3342996200975
20
-4.08781582261622
30
0
41
1
10
30.8431179428344
20
-3.93354080467674
30
0
41
1
10
30.6511249664748
20
-3.86974324211272
30
0
41
1
10
30.4593923082096
20
-3.8027502207363
30
0
0
SPLINE
5
B7
100
AcDbEntity
8
1
62
256
6
ByLayer
370
13
48
1
60
0
100
AcDbSpline
70
4
71
3
72
26
73
22
40
0
40
0
40
0
40
0
40
0.028109371734415
40
0.028109371734415
40
0.106210512723596
40
0.106210512723596
40
0.262412794701958
40
0.262412794701958
40
0.340513935691139
40
0.340513935691139
40
0.379564506185729
40
0.379564506185729
40
0.418615076680318
40
0.418615076680318
40
0.731019640637017
40
0.731019640637017
40
0.809120781626192
40
0.809120781626192
40
0.887221922615366
40
0.887221922615366
40
1
40
1
40
1
40
1
41
1
10
30.4593932528991
20
-3.80275055081884
30
0
41
1
10
30.3515859914711
20
-3.7650817829055
30
0
41
1
10
30.2438610313384
20
-3.72640274570895
30
0
41
1
10
29.8375095662229
20
-3.57670105492045
30
0
41
1
10
29.5396415545224
20
-3.45913554052848
30
0
41
1
10
28.6472048394529
20
-3.08600871323188
30
0
41
1
10
28.0537222615397
20
-2.81009087905554
30
0
41
1
10
27.1603209708866
20
-2.36280575146034
30
0
41
1
10
26.8619216180089
20
-2.20820527789056
30
0
41
1
10
26.4126948605032
20
-1.96901193265404
30
0
41
1
10
26.2625425274351
20
-1.88797001637963
30
0
41
1
10
25.963256565047
20
-1.72447200250332
30
0
41
1
10
25.8139465664002
20
-1.64192383563039
30
0
41
1
10
24.4725586563968
20
-0.892810766446786
30
0
41
1
10
23.296229443342
20
-0.184753528484549
30
0
41
1
10
21.8086424624006
20
0.689253327670627
30
0
41
1
10
21.5102390771079
20
0.863453007170307
30
0
41
1
10
20.9106771960367
20
1.20896329612418
30
0
41
1
10
20.6113626837871
20
1.37923337340288
30
0
41
1
10
19.8833539677515
20
1.78543295173358
30
0
41
1
10
19.455214363263
20
2.01748127954693
30
0
41
1
10
19.0276355432019
20
2.23947356448039
30
0
0
SPLINE
5
B8
100
AcDbEntity
8
1
62
256
6
ByLayer
370
13
48
1
60
0
100
AcDbSpline
70
4
71
3
72
10
73
6
40
0
40
0
40
0
40
0
40
0.5
40
0.5
40
1
40
1
40
1
40
1
41
1
10
4.12055884672336
20
-3.32064251497135
30
0
41
1
10
4.14033418473045
20
-3.31716923688714
30
0
41
1
10
4.16170864194206
20
-3.31606363714695
30
0
41
1
10
4.2053173887677
20
-3.31844144321931
30
0
41
1
10
4.22759439346015
20
-3.32185162065795
30
0
41
1
10
4.25033748240557
20
-3.32754798812985
30
0
0
SPLINE
5
B9
100
AcDbEntity
8
1
62
256
6
ByLayer
370
18
48
1
60
0
100
AcDbSpline
70
4
71
3
72
16
73
12
40
0
40
0
40
0
40
0
40
0.250000000000002
40
0.250000000000002
40
0.500000000000003
40
0.500000000000003
40
0.750000000000004
40
0.750000000000004
40
0.875000000000002
40
0.875000000000002
40
1
40
1
40
1
40
1
41
1
10
62.2859833224476
20
2.40097912990271
30
0
41
1
10
62.2099797072839
20
2.60483098799509
30
0
41
1
10
62.1338885188374
20
2.80843778511729
30
0
41
1
10
61.9813218273175
20
3.21457593132263
30
0
41
1
10
61.9047898222972
20
3.41694916800515
30
0
41
1
10
61.7517247481048
20
3.82169266349831
30
0
41
1
10
61.6751656950298
20
4.02399021017234
30
0
41
1
10
61.5596629877604
20
4.32557806647517
30
0
41
1
10
61.5210932606494
20
4.42591475612869
30
0
41
1
10
61.4439227806761
20
4.62650131442749
30
0
41
1
10
61.4052941919095
20
4.72667328838261
30
0
41
1
10
61.3664412936091
20
4.82621756505142
30
0
0
SPLINE
5
BA
100
AcDbEntity
8
1
62
256
6
ByLayer
370
18
48
1
60
0
100
AcDbSpline
70
4
71
3
72
10
73
6
40
0
40
0
40
0
40
0
40
0.894468873224372
40
0.894468873224372
40
1
40
1
40
1
40
1
41
1
10
61.2816739702697
20
4.91114837139637
30
0
41
1
10
60.9823052161181
20
4.93428993965884
30
0
41
1
10
60.6829821454567
20
4.9469227860136
30
0
41
1
10
60.3479117041898
20
4.94928491458654
30
0
41
1
10
60.3125389360608
20
4.94938686117382
30
0
41
1
10
60.2771575411961
20
4.94934177439083
30
0
0
SPLINE
5
BB
100
AcDbEntity
8
1
62
256
6
ByLayer
370
18
48
1
60
0
100
AcDbSpline
70
4
71
3
72
50
73
46
40
0
40
0
40
0
40
0
40
0.0499786679415723
40
0.0499786679415723
40
0.0826231714827305
40
0.0826231714827305
40
0.098945423253309
40
0.098945423253309
40
0.115267675023888
40
0.115267675023888
40
0.180556682106203
40
0.180556682106203
40
0.245845689188518
40
0.245845689188518
40
0.278490192729676
40
0.278490192729676
40
0.311134696270833
40
0.311134696270833
40
0.441712710435461
40
0.441712710435461
40
0.458034962206039
40
0.458034962206039
40
0.474357213976618
40
0.474357213976618
40
0.507001717517775
40
0.507001717517775
40
0.572290724600089
40
0.572290724600089
40
0.637579731682402
40
0.637579731682402
40
0.670224235223559
40
0.670224235223559
40
0.702868738764716
40
0.702868738764716
40
0.833446752929345
40
0.833446752929345
40
0.849769004699923
40
0.849769004699923
40
0.866091256470502
40
0.866091256470502
40
0.898735760011659
40
0.898735760011659
40
0.964024767093973
40
0.964024767093973
40
1
40
1
40
1
40
1
41
1
10
37.6370399754026
20
-4.72172811565963
30
0
41
1
10
37.1835549014881
20
-4.80338159626382
30
0
41
1
10
36.7299182331153
20
-4.86203504332153
30
0
41
1
10
35.976745841469
20
-4.91953769794898
30
0
41
1
10
35.6783283748849
20
-4.93204823040614
30
0
41
1
10
35.2285983969581
20
-4.93507072305667
30
0
41
1
10
35.0781958821906
20
-4.93344273338789
30
0
41
1
10
34.7785105559733
20
-4.92495072400362
30
0
41
1
10
34.6290080682638
20
-4.9180932088432
30
0
41
1
10
33.8828550638709
20
-4.87094265172314
30
0
41
1
10
33.2901774564756
20
-4.79210969074717
30
0
41
1
10
32.1052651085877
20
-4.556840752694
30
0
41
1
10
31.5129387365587
20
-4.40045998187256
30
0
41
1
10
30.6187326476759
20
-4.11082495206438
30
0
41
1
10
30.319518880594
20
-4.00511124347869
30
0
41
1
10
29.7185795277471
20
-3.77608644132073
30
0
41
1
10
29.4196580767831
20
-3.6537659768232
30
0
41
1
10
27.9295633250993
20
-3.00745886127621
30
0
41
1
10
26.752407698383
20
-2.37906433664409
30
0
41
1
10
25.4086889356842
20
-1.59621440795769
30
0
41
1
10
25.2591149722838
20
-1.50817613518606
30
0
41
1
10
24.9592349309438
20
-1.33025996184531
30
0
41
1
10
24.8087724593706
20
-1.240273644897
30
0
41
1
10
24.3590364683276
20
-0.969449666229792
30
0
41
1
10
24.0605720277125
20
-0.787270032222949
30
0
41
1
10
23.1676912760877
20
-0.238406693803199
30
0
41
1
10
22.5756269821728
20
0.130336839878879
30
0
41
1
10
21.3900046655575
20
0.860585317226281
30
0
41
1
10
20.7963685326637
20
1.22196200715882
30
0
41
1
10
19.8985823881298
20
1.74839333177425
30
0
41
1
10
19.5973637696312
20
1.92163366185107
30
0
41
1
10
18.9988940274962
20
2.25686926033464
30
0
41
1
10
18.700869043177
20
2.4193415031439
30
0
41
1
10
17.2141530700861
20
3.20275093289126
30
0
41
1
10
16.0361732818328
20
3.73757271246117
30
0
41
1
10
14.6862904363694
20
4.18870793147332
30
0
41
1
10
14.5357758765315
20
4.23679527589232
30
0
41
1
10
14.2358296518456
20
4.32808289843985
30
0
41
1
10
14.086204531333
20
4.37134566843588
30
0
41
1
10
13.6381430325028
20
4.49390237340063
30
0
41
1
10
13.3405100694086
20
4.56595794869733
30
0
41
1
10
12.4492108224696
20
4.75267576881197
30
0
41
1
10
11.8574943959249
20
4.83805891107417
30
0
41
1
10
10.9367285963762
20
4.9073719458107
30
0
41
1
10
10.6090947725774
20
4.91966431430146
30
0
41
1
10
10.2802198125493
20
4.91934923840009
30
0
0
SPLINE
5
BC
100
AcDbEntity
8
1
62
256
6
ByLayer
370
13
48
1
60
0
100
AcDbSpline
70
4
71
3
72
12
73
8
40
0
40
0
40
0
40
0
40
0.5
40
0.5
40
0.75
40
0.75
40
1
40
1
40
1
40
1
41
1
10
4.00150282302184
20
-3.37266656235912
30
0
41
1
10
4.00555749677923
20
-3.36280646191329
30
0
41
1
10
4.0177124855706
20
-3.35300728875569
30
0
41
1
10
4.04761104561581
20
-3.33952040475998
30
0
41
1
10
4.05978543679424
20
-3.33514808351907
30
0
41
1
10
4.08746422424406
20
-3.32727544933354
30
0
41
1
10
4.10301837571106
20
-3.32372326805492
30
0
41
1
10
4.12055884672336
20
-3.32064251497138
30
0
0
SPLINE
5
BD
100
AcDbEntity
8
1
62
256
6
ByLayer
370
18
48
1
60
0
100
AcDbSpline
70
4
71
3
72
16
73
12
40
0
40
0
40
0
40
0
40
0.249999999999967
40
0.249999999999967
40
0.374999999999973
40
0.374999999999973
40
0.499999999999978
40
0.499999999999978
40
0.749999999999989
40
0.749999999999989
40
1
40
1
40
1
40
1
41
1
10
4.25126594072464
20
3.62496034744441
30
0
41
1
10
4.22541387363216
20
3.63826861482352
30
0
41
1
10
4.19858123250265
20
3.65320268382743
30
0
41
1
10
4.15668635191477
20
3.67895466176051
30
0
41
1
10
4.14282447550303
20
3.68787697854614
30
0
41
1
10
4.11536339275341
20
3.7065631526651
30
0
41
1
10
4.10180459611649
20
3.71632266602486
30
0
41
1
10
4.0643220162635
20
3.74519576696642
30
0
41
1
10
4.04278313976926
20
3.76465893970516
30
0
41
1
10
4.01316581629089
20
3.79830112728575
30
0
41
1
10
4.00484517954763
20
3.81242007456456
30
0
41
1
10
4.00161358307284
20
3.82378764360922
30
0
0
SPLINE
5
BE
100
AcDbEntity
8
1
62
256
6
ByLayer
370
18
48
1
60
0
100
AcDbSpline
70
2053
71
3
72
62
73
58
40
0
40
0
40
0
40
0
40
0.0312499999999999
40
0.0312499999999999
40
0.0624999999999998
40
0.0624999999999998
40
0.0937499999999997
40
0.0937499999999997
40
0.125
40
0.125
40
0.156249999999999
40
0.156249999999999
40
0.187499999999999
40
0.187499999999999
40
0.218749999999999
40
0.218749999999999
40
0.249999999999999
40
0.249999999999999
40
0.281249999999998
40
0.281249999999998
40
0.312499999999998
40
0.312499999999998
40
0.374999999999998
40
0.374999999999998
40
0.437499999999997
40
0.437499999999997
40
0.468749999999997
40
0.468749999999997
40
0.499999999999997
40
0.499999999999997
40
0.531249999999996
40
0.531249999999996
40
0.562499999999996
40
0.562499999999996
40
0.593749999999996
40
0.593749999999996
40
0.624999999999996
40
0.624999999999996
40
0.656249999999995
40
0.656249999999995
40
0.687499999999995
40
0.687499999999995
40
0.718749999999995
40
0.718749999999995
40
0.749999999999995
40
0.749999999999995
40
0.812499999999996
40
0.812499999999996
40
0.843749999999997
40
0.843749999999997
40
0.874999999999997
40
0.874999999999997
40
0.906249999999998
40
0.906249999999998
40
0.937499999999999
40
0.937499999999999
40
1
40
1
40
1
40
1
41
1
10
61.9306276105184
20
-2.29483103784538
30
0
41
1
10
61.953333008061
20
-2.26185709623422
30
0
41
1
10
61.9755353485317
20
-2.22660431326014
30
0
41
1
10
62.0188555861859
20
-2.15118623466015
30
0
41
1
10
62.0402031975236
20
-2.11053619807694
30
0
41
1
10
62.0803513418026
20
-2.0259183803862
30
0
41
1
10
62.0990815441607
20
-1.98221190466768
30
0
41
1
10
62.133472125501
20
-1.89160646872344
30
0
41
1
10
62.148796642044
20
-1.84543061995009
30
0
41
1
10
62.1742314775219
20
-1.75500833218192
30
0
41
1
10
62.1846563552374
20
-1.70947776622347
30
0
41
1
10
62.1992642595631
20
-1.62404811401709
30
0
41
1
10
62.2035978916832
20
-1.58377272086759
30
0
41
1
10
62.2063125977994
20
-1.5094000998875
30
0
41
1
10
62.2046905719865
20
-1.47641226600885
30
0
41
1
10
62.1961556359043
20
-1.41789239880725
30
0
41
1
10
62.1892585865509
20
-1.39286285960594
30
0
41
1
10
62.1712816005232
20
-1.35139184115729
30
0
41
1
10
62.1600435288959
20
-1.33466390897235
30
0
41
1
10
62.1344429969758
20
-1.3095232664765
30
0
41
1
10
62.1200415727452
20
-1.30092752995427
30
0
41
1
10
62.072452981275
20
-1.28602359580742
30
0
41
1
10
62.0360358527598
20
-1.29072707004312
30
0
41
1
10
61.9559656843883
20
-1.32604859949251
30
0
41
1
10
61.9136143827393
20
-1.35606095142506
30
0
41
1
10
61.847094413657
20
-1.41932018635967
30
0
41
1
10
61.824395709127
20
-1.44357904146989
30
0
41
1
10
61.7794439667599
20
-1.49704052639629
30
0
41
1
10
61.7569987092744
20
-1.52640868527942
30
0
41
1
10
61.7121751802976
20
-1.59091594788055
30
0
41
1
10
61.6895461322469
20
-1.62649527422027
30
0
41
1
10
61.6458285072164
20
-1.70211608228394
30
0
41
1
10
61.6247589460834
20
-1.74202693673109
30
0
41
1
10
61.5844234630072
20
-1.82664870650697
30
0
41
1
10
61.5652639338125
20
-1.87127209046511
30
0
41
1
10
61.5310254811134
20
-1.96140003420265
30
0
41
1
10
61.5155011511583
20
-2.00815392228284
30
0
41
1
10
61.489954724389
20
-2.09925378231188
30
0
41
1
10
61.4798053988388
20
-2.14370589828016
30
0
41
1
10
61.4650537696934
20
-2.23028929982991
30
0
41
1
10
61.4608016788377
20
-2.27037732020571
30
0
41
1
10
61.4580598272095
20
-2.34450695765617
30
0
41
1
10
61.4596597596849
20
-2.37819058407598
30
0
41
1
10
61.4680212850699
20
-2.43673533441898
30
0
41
1
10
61.4748708288183
20
-2.46219681751535
30
0
41
1
10
61.5015940539391
20
-2.52513480925157
30
0
41
1
10
61.5279607820045
20
-2.55046708736049
30
0
41
1
10
61.5751364373011
20
-2.56586284964086
30
0
41
1
10
61.5923698536109
20
-2.56729789490654
30
0
41
1
10
61.628641026355
20
-2.56315082685603
30
0
41
1
10
61.647677951953
20
-2.55763724109829
30
0
41
1
10
61.6874649789111
20
-2.54007156212691
30
0
41
1
10
61.7083831447802
20
-2.52788455834462
30
0
41
1
10
61.7509994879701
20
-2.49745153766077
30
0
41
1
10
61.7726932602073
20
-2.47926399592964
30
0
41
1
10
61.8389346604738
20
-2.41576299180741
30
0
41
1
10
61.8852168154331
20
-2.36077892106769
30
0
41
1
10
61.9306276105184
20
-2.29483103784538
30
0
0
SPLINE
5
BF
100
AcDbEntity
8
1
62
256
6
ByLayer
370
13
48
1
60
0
100
AcDbSpline
70
4
71
3
72
8
73
4
40
0
40
0
40
0
40
0
40
1
40
1
40
1
40
1
41
1
10
4.11854386071064
20
-3.51247680780375
30
0
41
1
10
4.11920973119089
20
-3.48850526279094
30
0
41
1
10
4.11988137886428
20
-3.46453021042066
30
0
41
1
10
4.12055884672336
20
-3.44055151429913
30
0
0
SPLINE
5
C0
100
AcDbEntity
8
1
62
256
6
ByLayer
370
18
48
1
60
0
100
AcDbSpline
70
4
71
3
72
10
73
6
40
0
40
0
40
0
40
0
40
0.5
40
0.5
40
1
40
1
40
1
40
1
41
1
10
4.11854386071059
20
-3.51247680780463
30
0
41
1
10
4.08855331567653
20
-3.49949381116261
30
0
41
1
10
4.06297971294586
20
-3.48221333726212
30
0
41
1
10
4.0237144920367
20
-3.44124544008147
30
0
41
1
10
4.01018387450475
20
-3.41750303040257
30
0
41
1
10
4.00399864999335
20
-3.39276214814134
30
0
0
SPLINE
5
C1
100
AcDbEntity
8
1
62
256
6
ByLayer
370
13
48
1
60
0
100
AcDbSpline
70
4
71
3
72
31
73
27
40
0
40
0
40
0
40
0
40
0.125
40
0.125
40
0.1875
40
0.1875
40
0.25
40
0.3125
40
0.3125
40
0.375
40
0.375
40
0.5
40
0.5
40
0.5625
40
0.5625
40
0.625
40
0.625
40
0.6875
40
0.6875
40
0.75
40
0.75
40
0.8125
40
0.8125
40
0.875
40
0.875
40
1
40
1
40
1
40
1
41
1
10
4.25033748240554
20
-3.32754798812985
30
0
41
1
10
4.25040191363695
20
-3.0952881416018
30
0
41
1
10
4.25045529689436
20
-2.84147399251896
30
0
41
1
10
4.25052567724259
20
-2.42862714675064
30
0
41
1
10
4.25054737653011
20
-2.28630506680295
30
0
41
1
10
4.25058790912681
20
-1.99631263249873
30
0
41
1
10
4.25062576732049
20
-1.69985694108288
30
0
41
1
10
4.2506605207106
20
-1.39060429718535
30
0
41
1
10
4.25069472446464
20
-1.07480727574563
30
0
41
1
10
4.250711597806
20
-0.913157512920549
30
0
41
1
10
4.25076158941971
20
-0.429469866771257
30
0
41
1
10
4.25079455891975
20
-0.105220287847203
30
0
41
1
10
4.25084723809667
20
0.383833450950334
30
0
41
1
10
4.25086539717648
20
0.548028288755091
30
0
41
1
10
4.25090259527718
20
0.872923895380552
30
0
41
1
10
4.2509216329384
20
1.03366815016929
30
0
41
1
10
4.2509606499809
20
1.35174389379338
30
0
41
1
10
4.25098058194124
20
1.50864484873279
30
0
41
1
10
4.25102057271658
20
1.81415567919174
30
0
41
1
10
4.25104070450269
20
1.96336709046164
30
0
41
1
10
4.2510808248843
20
2.2547353835505
30
0
41
1
10
4.25110081473659
20
2.39689271987868
30
0
41
1
10
4.25114000199648
20
2.67395247666474
30
0
41
1
10
4.25115891214639
20
2.80685821679418
30
0
41
1
10
4.25121217581892
20
3.18736585974523
30
0
41
1
10
4.25124330472769
20
3.41786191181348
30
0
41
1
10
4.25126594072157
20
3.62496034253832
30
0
0
SPLINE
5
C2
100
AcDbEntity
8
1
62
256
6
ByLayer
370
18
48
1
60
0
100
AcDbSpline
70
4
71
3
72
22
73
18
40
0
40
0
40
0
40
0
40
0.125000000000002
40
0.125000000000002
40
0.187500000000003
40
0.187500000000003
40
0.250000000000004
40
0.250000000000004
40
0.500000000000003
40
0.500000000000003
40
0.625000000000002
40
0.625000000000002
40
0.750000000000002
40
0.750000000000002
40
0.875000000000001
40
0.875000000000001
40
1
40
1
40
1
40
1
41
1
10
61.2795274775069
20
-4.72695940633048
30
0
41
1
10
61.2073587413185
20
-4.72692221753252
30
0
41
1
10
61.1388315828523
20
-4.71589774536386
30
0
41
1
10
61.0417979664895
20
-4.68199078488436
30
0
41
1
10
61.0104155351223
20
-4.66778561665518
30
0
41
1
10
60.9496601894104
20
-4.63331221230328
30
0
41
1
10
60.9202506004107
20
-4.61298266239467
30
0
41
1
10
60.7805399260682
20
-4.49730152271718
30
0
41
1
10
60.6901225145565
20
-4.35972357556005
30
0
41
1
10
60.5886552101296
20
-4.08131010856627
30
0
41
1
10
60.5605123821224
20
-3.97539230010838
30
0
41
1
10
60.5181263116891
20
-3.74486998849895
30
0
41
1
10
60.5035849094702
20
-3.61984186814325
30
0
41
1
10
60.4877595002426
20
-3.35031905296668
30
0
41
1
10
60.4864732438588
20
-3.20582766102939
30
0
41
1
10
60.4977672311026
20
-2.89648392006222
30
0
41
1
10
60.5102677031455
20
-2.73457359308711
30
0
41
1
10
60.5292847110874
20
-2.56669668647962
30
0
0
SPLINE
5
C3
100
AcDbEntity
8
1
62
256
6
ByLayer
370
18
48
1
60
0
100
AcDbSpline
70
4
71
3
72
90
73
86
40
0
40
0
40
0
40
0
40
0.0045311785734677
40
0.0045311785734677
40
0.0292823909552631
40
0.0292823909552631
40
0.0540336033370586
40
0.0540336033370586
40
0.078784815718854
40
0.078784815718854
40
0.103536028100649
40
0.103536028100649
40
0.128287240482445
40
0.128287240482445
40
0.15303845286424
40
0.15303845286424
40
0.177789665246036
40
0.177789665246036
40
0.227292090009625
40
0.227292090009625
40
0.252043302391421
40
0.252043302391421
40
0.276794514773216
40
0.276794514773216
40
0.301545727155011
40
0.301545727155011
40
0.326296939536807
40
0.326296939536807
40
0.351048151918602
40
0.351048151918602
40
0.375799364300398
40
0.375799364300398
40
0.400550576682193
40
0.400550576682193
40
0.425301789063988
40
0.425301789063988
40
0.450053001445784
40
0.450053001445784
40
0.474804213827579
40
0.474804213827579
40
0.499555426209374
40
0.499555426209374
40
0.52430663859117
40
0.52430663859117
40
0.549057850972965
40
0.549057850972965
40
0.573809063354761
40
0.573809063354761
40
0.598560275736556
40
0.598560275736556
40
0.623311488118351
40
0.623311488118351
40
0.648062700500147
40
0.648062700500147
40
0.672813912881942
40
0.672813912881942
40
0.697565125263737
40
0.697565125263737
40
0.722316337645533
40
0.722316337645533
40
0.747067550027328
40
0.747067550027328
40
0.771818762409124
40
0.771818762409124
40
0.796569974790919
40
0.796569974790919
40
0.821321187172715
40
0.821321187172715
40
0.84607239955451
40
0.84607239955451
40
0.870823611936305
40
0.870823611936305
40
0.883199218127203
40
0.883199218127203
40
0.895574824318101
40
0.895574824318101
40
0.920326036699896
40
0.920326036699896
40
0.945077249081691
40
0.945077249081691
40
0.969828461463487
40
0.969828461463487
40
0.994579673845282
40
0.994579673845282
40
1
40
1
40
1
40
1
41
1
10
53.6461689224744
20
-3.62538706494746
30
0
41
1
10
53.6000907769284
20
-3.64295968648838
30
0
41
1
10
53.5540151099021
20
-3.66033671120493
30
0
41
1
10
53.2563277604974
20
-3.77128059320921
30
0
41
1
10
53.0055168115952
20
-3.85872532808133
30
0
41
1
10
52.5052857221941
20
-4.02075845175048
30
0
41
1
10
52.25596401222
20
-4.09566059077406
30
0
41
1
10
51.7582222858086
20
-4.23423876799137
30
0
41
1
10
51.509478380222
20
-4.29752770868805
30
0
41
1
10
51.0119861153044
20
-4.41161288093488
30
0
41
1
10
50.7632351024116
20
-4.46241670990054
30
0
41
1
10
50.2658391581705
20
-4.5511410917284
30
0
41
1
10
50.0172737326058
20
-4.58911872808503
30
0
41
1
10
49.5184441516607
20
-4.64997123283044
30
0
41
1
10
49.268264075871
20
-4.67257986128311
30
0
41
1
10
48.7664491418291
20
-4.70485671625329
30
0
41
1
10
48.5145035543874
20
-4.71505993192903
30
0
41
1
10
47.7598078597618
20
-4.72453061756758
30
0
41
1
10
47.2596989996274
20
-4.70040751579916
30
0
41
1
10
46.5127202035363
20
-4.62649435042354
30
0
41
1
10
46.2643910999645
20
-4.59513983650498
30
0
41
1
10
45.7673180199499
20
-4.51780077111417
30
0
41
1
10
45.5186812226599
20
-4.47184222184953
30
0
41
1
10
45.0211613894438
20
-4.3687519433893
30
0
41
1
10
44.7724605844365
20
-4.31110299619544
30
0
41
1
10
44.2742767411222
20
-4.18223300236068
30
0
41
1
10
44.0244437222551
20
-4.11083169886012
30
0
41
1
10
43.52311532459
20
-3.95629163352427
30
0
41
1
10
43.2713474951074
20
-3.87348317335622
30
0
41
1
10
42.7677874386142
20
-3.69556977317842
30
0
41
1
10
42.5172760425436
20
-3.60084503581732
30
0
41
1
10
42.0171172016938
20
-3.40137379522005
30
0
41
1
10
41.7675224523388
20
-3.29709133235716
30
0
41
1
10
41.2692177110744
20
-3.08003733318788
30
0
41
1
10
41.0207204978531
20
-2.96681219523146
30
0
41
1
10
40.5240524612594
20
-2.73146876203757
30
0
41
1
10
40.2756184014468
20
-2.60961659782601
30
0
41
1
10
39.778296018865
20
-2.35955342382871
30
0
41
1
10
39.5294154635779
20
-2.23119465752615
30
0
41
1
10
39.0313425729099
20
-1.96668258654901
30
0
41
1
10
38.7820260478524
20
-1.8304361715073
30
0
41
1
10
38.281312839762
20
-1.55332481455409
30
0
41
1
10
38.0301598933782
20
-1.41252929159555
30
0
41
1
10
37.5260102835838
20
-1.12547185502487
30
0
41
1
10
37.2752683814379
20
-0.980085842067751
30
0
41
1
10
36.7752671604903
20
-0.687686639309675
30
0
41
1
10
36.5257146050549
20
-0.541123842945609
30
0
41
1
10
36.0273101657525
20
-0.247576230162281
30
0
41
1
10
35.7784830245919
20
-0.100586325471255
30
0
41
1
10
35.2817441183322
20
0.194058738314823
30
0
41
1
10
35.0336704041842
20
0.341423192761738
30
0
41
1
10
34.5366943154787
20
0.634010846174675
30
0
41
1
10
34.2879536758934
20
0.779478376856417
30
0
41
1
10
33.7897529065116
20
1.06825750484899
30
0
41
1
10
33.5404684587017
20
1.21186066416797
30
0
41
1
10
33.0404473793533
20
1.49576719306771
30
0
41
1
10
32.7896464852476
20
1.63600707503164
30
0
41
1
10
32.285919349912
20
1.91195653144905
30
0
41
1
10
32.0343892811431
20
2.04683337331778
30
0
41
1
10
31.534190256691
20
2.30918691628264
30
0
41
1
10
31.2848792791837
20
2.43720231544612
30
0
41
1
10
30.7866194582896
20
2.68478798017458
30
0
41
1
10
30.5378076581448
20
2.80458546687538
30
0
41
1
10
30.0407512408128
20
3.03460154659862
30
0
41
1
10
29.7926898847682
20
3.14528257906576
30
0
41
1
10
29.296217694904
20
3.35823283607604
30
0
41
1
10
29.0476993129092
20
3.46003866771537
30
0
41
1
10
28.5497953981775
20
3.65297507008415
30
0
41
1
10
28.3003124723112
20
3.74345624048192
30
0
41
1
10
27.8007094727585
20
3.91511526193651
30
0
41
1
10
27.5504276675952
20
3.99622027897658
30
0
41
1
10
27.1731795045499
20
4.10863842382633
30
0
41
1
10
27.0470716372865
20
4.14458824353773
30
0
41
1
10
26.79571215888
20
4.21254656664948
30
0
41
1
10
26.6702784132748
20
4.24466669792292
30
0
41
1
10
26.2945605939511
20
4.3366167633331
30
0
41
1
10
26.0450832782573
20
4.39235110826246
30
0
41
1
10
25.5469008863973
20
4.49091613634974
30
0
41
1
10
25.2981326103625
20
4.53356836682659
30
0
41
1
10
24.8009686288448
20
4.60273687436188
30
0
41
1
10
24.5524988462025
20
4.63060291342558
30
0
41
1
10
24.0560865093608
20
4.67483847293204
30
0
41
1
10
23.8079142033452
20
4.69078982136551
30
0
41
1
10
23.50465332573
20
4.70110097117947
30
0
41
1
10
23.4501436336482
20
4.70255101178418
30
0
41
1
10
23.3956063693276
20
4.70362400960494
30
0
0
SPLINE
5
C4
100
AcDbEntity
8
1
62
256
6
ByLayer
370
18
48
1
60
0
100
AcDbSpline
70
4
71
3
72
20
73
16
40
0
40
0
40
0
40
0
40
0.250000000000012
40
0.250000000000012
40
0.500000000000024
40
0.500000000000024
40
0.625000000000019
40
0.625000000000019
40
0.750000000000015
40
0.750000000000015
40
0.87500000000001
40
0.87500000000001
40
0.937500000000005
40
0.937500000000005
40
1
40
1
40
1
40
1
41
1
10
61.0549992755082
20
1.44757250246329
30
0
41
1
10
61.1945713197179
20
1.47933331395791
30
0
41
1
10
61.3333094167227
20
1.51591814957018
30
0
41
1
10
61.6040512835857
20
1.60493889807458
30
0
41
1
10
61.7363698597101
20
1.65679263157546
30
0
41
1
10
61.9250007808552
20
1.75921671670861
30
0
41
1
10
61.9852953873245
20
1.79712258396157
30
0
41
1
10
62.0976057627461
20
1.88508441291484
30
0
41
1
10
62.1491468794651
20
1.93495652453157
30
0
41
1
10
62.2329704481597
20
2.04892996601092
30
0
41
1
10
62.2656951096916
20
2.11507043047587
30
0
41
1
10
62.2902490735148
20
2.22024219285009
30
0
41
1
10
62.2945640602607
20
2.25681617299105
30
0
41
1
10
62.2955254872219
20
2.3290103517071
30
0
41
1
10
62.2923221963532
20
2.36504800817536
30
0
41
1
10
62.2859833224475
20
2.40097912990277
30
0
0
SPLINE
5
C5
100
AcDbEntity
8
1
62
256
6
ByLayer
370
18
48
1
60
0
100
AcDbSpline
70
4
71
3
72
16
73
12
40
0
40
0
40
0
40
0
40
0.250000000000001
40
0.250000000000001
40
0.500000000000003
40
0.500000000000003
40
0.750000000000004
40
0.750000000000004
40
0.875000000000002
40
0.875000000000002
40
1
40
1
40
1
40
1
41
1
10
62.2859833224476
20
-2.40097912990271
30
0
41
1
10
62.2099797072839
20
-2.60483098799509
30
0
41
1
10
62.1338885188374
20
-2.80843778511729
30
0
41
1
10
61.9813218273176
20
-3.21457593132263
30
0
41
1
10
61.9047898222971
20
-3.41694916800515
30
0
41
1
10
61.7517247481048
20
-3.82169266349831
30
0
41
1
10
61.6751656950298
20
-4.02399021017231
30
0
41
1
10
61.5596629877604
20
-4.32557806647517
30
0
41
1
10
61.5210932606494
20
-4.42591475612869
30
0
41
1
10
61.4439227806761
20
-4.62650131442749
30
0
41
1
10
61.4052941919095
20
-4.72667328838261
30
0
41
1
10
61.366441293609
20
-4.82621756505142
30
0
0
SPLINE
5
C6
100
AcDbEntity
8
1
62
256
6
ByLayer
370
18
48
1
60
0
100
AcDbSpline
70
4
71
3
72
8
73
4
40
0
40
0
40
0
40
0
40
1
40
1
40
1
40
1
41
1
10
4.00399864999326
20
-3.39276214815365
30
0
41
1
10
4.00234843298961
20
-3.38616128435126
30
0
41
1
10
4.00150261491379
20
-3.3794098334721
30
0
41
1
10
4.00150282302246
20
-3.37266656235838
30
0
0
SPLINE
5
C7
100
AcDbEntity
8
1
62
256
6
ByLayer
370
18
48
1
60
0
100
AcDbSpline
70
4
71
3
72
12
73
8
40
0
40
0
40
0
40
0
40
0.250000000000004
40
0.250000000000004
40
0.500000000000008
40
0.500000000000008
40
1
40
1
40
1
40
1
41
1
10
61.3291581311532
20
-4.78473221081282
30
0
41
1
10
61.3341566527089
20
-4.77139984463844
30
0
41
1
10
61.3389051898652
20
-4.75771864707721
30
0
41
1
10
61.3464802393164
20
-4.73326957741409
30
0
41
1
10
61.3492711717037
20
-4.72255625588599
30
0
41
1
10
61.3536549591089
20
-4.699579603335
30
0
41
1
10
61.3517251414041
20
-4.69569868703539
30
0
41
1
10
61.3474734826901
20
-4.69877164260529
30
0
0
SPLINE
5
C8
100
AcDbEntity
8
1
62
256
6
ByLayer
370
18
48
1
60
0
100
AcDbSpline
70
4
71
3
72
68
73
64
40
0
40
0
40
0
40
0
40
0.0624999999999962
40
0.0624999999999962
40
0.124999999999993
40
0.124999999999993
40
0.249999999999985
40
0.249999999999985
40
0.374999999999977
40
0.374999999999977
40
0.437499999999974
40
0.437499999999974
40
0.49999999999997
40
0.49999999999997
40
0.562499999999966
40
0.562499999999966
40
0.624999999999962
40
0.624999999999962
40
0.65624999999996
40
0.65624999999996
40
0.660156249999961
40
0.660156249999961
40
0.664062499999961
40
0.664062499999961
40
0.667968749999962
40
0.667968749999962
40
0.669921874999963
40
0.669921874999963
40
0.671874999999964
40
0.671874999999964
40
0.687499999999965
40
0.687499999999965
40
0.718749999999967
40
0.718749999999967
40
0.734374999999968
40
0.734374999999968
40
0.749999999999968
40
0.749999999999968
40
0.757812499999969
40
0.757812499999969
40
0.765624999999969
40
0.765624999999969
40
0.781249999999971
40
0.781249999999971
40
0.789062499999972
40
0.789062499999972
40
0.796874999999973
40
0.796874999999973
40
0.812499999999975
40
0.812499999999975
40
0.828124999999977
40
0.828124999999977
40
0.843749999999979
40
0.843749999999979
40
0.85937499999998
40
0.85937499999998
40
0.874999999999982
40
0.874999999999982
40
0.906249999999986
40
0.906249999999986
40
0.937499999999991
40
0.937499999999991
40
1
40
1
40
1
40
1
41
1
10
14.3301495238845
20
4.06864921657538
30
0
41
1
10
14.0146172826684
20
4.17868231490544
30
0
41
1
10
13.69738962554
20
4.27692527111154
30
0
41
1
10
13.0582969782863
20
4.45095787549229
30
0
41
1
10
12.7358375101513
20
4.52683646703318
30
0
41
1
10
11.763252430047
20
4.72139684257013
30
0
41
1
10
11.1107540140741
20
4.8062668578828
30
0
41
1
10
9.78469327269207
20
4.90649536346913
30
0
41
1
10
9.11101599447295
20
4.92192229080734
30
0
41
1
10
8.07666093666487
20
4.91555933385473
30
0
41
1
10
7.72793380370788
20
4.90859210669606
30
0
41
1
10
7.02167419515996
20
4.8891694172668
30
0
41
1
10
6.6635958198855
20
4.87670505329433
30
0
41
1
10
5.94045048388406
20
4.85048553713747
30
0
41
1
10
5.57649541404732
20
4.83679255736766
30
0
41
1
10
4.84349978176289
20
4.81178110151177
30
0
41
1
10
4.47474828336164
20
4.8004825239025
30
0
41
1
10
3.92000476087003
20
4.78734414727913
30
0
41
1
10
3.73473274177857
20
4.78358850630624
30
0
41
1
10
3.52588890060065
20
4.78019279195081
30
0
41
1
10
3.50267829296575
20
4.77982696898903
30
0
41
1
10
3.45624556283735
20
4.77911865386133
30
0
41
1
10
3.43286735832947
20
4.77864541978192
30
0
41
1
10
3.38672167130517
20
4.77937797341485
30
0
41
1
10
3.36339188205551
20
4.78041660677005
30
0
41
1
10
3.33170252611609
20
4.78353708225117
30
0
41
1
10
3.32187998140139
20
4.78488124471065
30
0
41
1
10
3.30184754561066
20
4.78738698355335
30
0
41
1
10
3.29185067846242
20
4.78863878476906
30
0
41
1
10
3.20205642428678
20
4.79989360090198
30
0
41
1
10
3.12337363098771
20
4.80983534451946
30
0
41
1
10
2.89343810723395
20
4.83885557475088
30
0
41
1
10
2.74774330965016
20
4.8572512244277
30
0
41
1
10
2.54574164594317
20
4.88099227942701
30
0
41
1
10
2.48095825205746
20
4.88827448696574
30
0
41
1
10
2.3596077792256
20
4.90068587418054
30
0
41
1
10
2.30369383347985
20
4.90575091830314
30
0
41
1
10
2.22835832321283
20
4.91099764089105
30
0
41
1
10
2.2046740802312
20
4.91235259565227
30
0
41
1
10
2.16047214439365
20
4.91413363337062
30
0
41
1
10
2.1398570469396
20
4.9145573371809
30
0
41
1
10
2.08423307692061
20
4.91419313896813
30
0
41
1
10
2.05534111696449
20
4.91180095381429
30
0
41
1
10
2.02490093789342
20
4.90446917952821
30
0
41
1
10
2.01690609764853
20
4.90140046976131
30
0
41
1
10
2.00535194417435
20
4.89391435421624
30
0
41
1
10
2.00179634977374
20
4.88946147518789
30
0
41
1
10
1.99802095736246
20
4.87424703844019
30
0
41
1
10
2.00449701366233
20
4.86165299005233
30
0
41
1
10
2.03305031860009
20
4.83179773018378
30
0
41
1
10
2.05539707887559
20
4.81439097232857
30
0
41
1
10
2.1117549552113
20
4.77640685202627
30
0
41
1
10
2.14579519363383
20
4.75574141977327
30
0
41
1
10
2.22314665614152
20
4.71148092059906
30
0
41
1
10
2.2665487354555
20
4.68784314865781
30
0
41
1
10
2.36066453475846
20
4.63808540813454
30
0
41
1
10
2.41080983562972
20
4.61226220769882
30
0
41
1
10
2.56844252806391
20
4.53229579388289
30
0
41
1
10
2.68302107747408
20
4.47567426634256
30
0
41
1
10
2.92489045076823
20
4.3568251105018
30
0
41
1
10
3.05280449123467
20
4.29431790461462
30
0
41
1
10
3.44598635527134
20
4.10146921091282
30
0
41
1
10
3.72039728564098
20
3.96585662930951
30
0
41
1
10
4.00161358306707
20
3.82378764361215
30
0
0
SPLINE
5
C9
100
AcDbEntity
8
1
62
256
6
ByLayer
370
18
48
1
60
0
100
AcDbSpline
70
4
71
3
72
46
73
42
40
0
40
0
40
0
40
0
40
0.0343371603609598
40
0.0343371603609598
40
0.0686743207219195
40
0.0686743207219195
40
0.137348641443839
40
0.137348641443839
40
0.206022962165759
40
0.206022962165759
40
0.240360122526718
40
0.240360122526718
40
0.274697282887678
40
0.274697282887678
40
0.412045924331519
40
0.412045924331519
40
0.429214504512
40
0.429214504512
40
0.446383084692481
40
0.446383084692481
40
0.480720245053443
40
0.480720245053443
40
0.549394565775365
40
0.549394565775365
40
0.618068886497288
40
0.618068886497288
40
0.68674320721921
40
0.68674320721921
40
0.755417527941132
40
0.755417527941132
40
0.789754688302093
40
0.789754688302093
40
0.806923268482573
40
0.806923268482573
40
0.824091848663054
40
0.824091848663054
40
0.961440490106899
40
0.961440490106899
40
0.99577765046786
40
0.99577765046786
40
1
40
1
40
1
40
1
41
1
10
61.2816739702697
20
-4.91114837139639
30
0
41
1
10
60.9821805357581
20
-4.93429957760208
30
0
41
1
10
60.682894446442
20
-4.94692081585734
30
0
41
1
10
60.0838708040596
20
-4.95114889736476
30
0
41
1
10
59.7836573366724
20
-4.94271883044885
30
0
41
1
10
58.8842639189463
20
-4.88598720634755
30
0
41
1
10
58.2891880167621
20
-4.80662672982794
30
0
41
1
10
57.1001025222436
20
-4.56943592290679
30
0
41
1
10
56.5059001377504
20
-4.41167842573924
30
0
41
1
10
55.6088187205214
20
-4.11975255511013
30
0
41
1
10
55.3080443289938
20
-4.01288274481428
30
0
41
1
10
54.7100830074211
20
-3.7838674177188
30
0
41
1
10
54.4123482673312
20
-3.66159580543953
30
0
41
1
10
52.9272885324411
20
-3.01492903405006
30
0
41
1
10
51.7509578710554
20
-2.38447216854735
30
0
41
1
10
50.4030885487442
20
-1.59750723395175
30
0
41
1
10
50.2527557135738
20
-1.50886357165223
30
0
41
1
10
49.953060510513
20
-1.33063082882234
30
0
41
1
10
49.8035678908576
20
-1.24095060046434
30
0
41
1
10
49.3559387000336
20
-0.970572757448792
30
0
41
1
10
49.058647565236
20
-0.788543259398608
30
0
41
1
10
48.1687190331875
20
-0.239481489737727
30
0
41
1
10
47.5774134908231
20
0.129519262550986
30
0
41
1
10
46.3919539977166
20
0.862284300418253
30
0
41
1
10
45.7971899775729
20
1.2250496163318
30
0
41
1
10
44.5964777191499
20
1.9316808159646
30
0
41
1
10
44.0011354190934
20
2.26770994309635
30
0
41
1
10
42.8153510943644
20
2.89522423347742
30
0
41
1
10
42.2239201151895
20
3.18598618144483
30
0
41
1
10
41.3339549790907
20
3.5810920398051
30
0
41
1
10
41.0367270687528
20
3.70581496653037
30
0
41
1
10
40.5891596162429
20
3.88132142647817
30
0
41
1
10
40.4396759109759
20
3.93788774777354
30
0
41
1
10
40.1400697132586
20
4.04705873460736
30
0
41
1
10
39.9897358915288
20
4.09974615802824
30
0
41
1
10
38.6410686889703
20
4.55249900642147
30
0
41
1
10
37.4636621536092
20
4.80591923843576
30
0
41
1
10
35.9783025130843
20
4.91944291234557
30
0
41
1
10
35.6805514779784
20
4.9319617543496
30
0
41
1
10
35.3447982774132
20
4.93429816859123
30
0
41
1
10
35.3080015167446
20
4.93439474205286
30
0
41
1
10
35.2711810631612
20
4.93433231351554
30
0
0
SPLINE
5
CA
100
AcDbEntity
8
1
62
256
6
ByLayer
370
18
48
1
60
0
100
AcDbSpline
70
4
71
3
72
20
73
16
40
0
40
0
40
0
40
0
40
0.15771634363459
40
0.15771634363459
40
0.368287257725942
40
0.368287257725942
40
0.420929986248781
40
0.420929986248781
40
0.47357271477162
40
0.47357271477162
40
0.578858171817296
40
0.578858171817296
40
0.789429085908649
40
0.789429085908649
40
1
40
1
40
1
40
1
41
1
10
12.5998104961618
20
-4.71390851235961
30
0
41
1
10
12.1551770390434
20
-4.79253451109182
30
0
41
1
10
11.7116653583552
20
-4.84891348384318
30
0
41
1
10
10.6742894868902
20
-4.92729091426568
30
0
41
1
10
10.0800647977993
20
-4.93151321490612
30
0
41
1
10
9.33060089712109
20
-4.88432760566363
30
0
41
1
10
9.18012156366672
20
-4.8722396142621
30
0
41
1
10
8.879951167873
20
-4.8429378695559
30
0
41
1
10
8.73021807069688
20
-4.82573177798031
30
0
41
1
10
8.28188337669064
20
-4.76660079894802
30
0
41
1
10
7.98413481103643
20
-4.71716754426117
30
0
41
1
10
7.09272802909737
20
-4.54004539310142
30
0
41
1
10
6.50106676285094
20
-4.38342826285199
30
0
41
1
10
5.31425398065642
20
-3.99959207257606
30
0
41
1
10
4.71910671581776
20
-3.77246226396522
30
0
41
1
10
4.11854386071079
20
-3.51247680780472
30
0
0
SPLINE
5
CB
100
AcDbEntity
8
1
62
256
6
ByLayer
370
18
48
1
60
0
100
AcDbSpline
70
4
71
3
72
69
73
65
40
0
40
0
40
0
40
0
40
0.0341888576338811
40
0.0341888576338811
40
0.110864974001804
40
0.110864974001804
40
0.149203032185765
40
0.149203032185765
40
0.187541090369726
40
0.187541090369726
40
0.264217206737648
40
0.264217206737648
40
0.34089332310557
40
0.34089332310557
40
0.417569439473492
40
0.417569439473492
40
0.494245555841414
40
0.494245555841414
40
0.499037813114409
40
0.499636845273533
40
0.499636845273533
40
0.499936361353096
40
0.499936361353096
40
0.500235877432658
40
0.500235877432658
40
0.501433941750907
40
0.501433941750907
40
0.503830070387405
40
0.503830070387405
40
0.513414584933396
40
0.513414584933396
40
0.532583614025378
40
0.532583614025378
40
0.570921672209342
40
0.570921672209342
40
0.64759778857727
40
0.64759778857727
40
0.724273904945199
40
0.724273904945199
40
0.762611963129163
40
0.762611963129163
40
0.781780992221145
40
0.781780992221145
40
0.786573249494141
40
0.786573249494141
40
0.788969378130638
40
0.788969378130638
40
0.790167442448887
40
0.790167442448887
40
0.790466958528449
40
0.790466958528449
40
0.790766474608012
40
0.791365506767136
40
0.800950021313126
40
0.800950021313126
40
0.839288079497088
40
0.839288079497088
40
0.87762613768105
40
0.87762613768105
40
0.915964195865011
40
0.915964195865011
40
0.954302254048973
40
0.954302254048973
40
1
40
1
40
1
40
1
41
1
10
14.3301379668043
20
4.0686872432012
30
0
41
1
10
14.2086445978534
20
4.07334004597757
30
0
41
1
10
14.0872851227179
20
4.07388538207039
30
0
41
1
10
13.6938904703051
20
4.06051735454599
30
0
41
1
10
13.4220828214845
20
4.02765841525752
30
0
41
1
10
13.0106985782407
20
3.93412164157451
30
0
41
1
10
12.8742894183031
20
3.895848647744
30
0
41
1
10
12.6046308201874
20
3.80619499766496
30
0
41
1
10
12.4709635297786
20
3.7547267932913
30
0
41
1
10
12.0717760686376
20
3.58177944814793
30
0
41
1
10
11.8080838443015
20
3.4416890919363
30
0
41
1
10
11.2756251139801
20
3.12236301586356
30
0
41
1
10
11.0139796731613
20
2.94774966009135
30
0
41
1
10
10.4901664797555
20
2.5832684817897
30
0
41
1
10
10.227493359
20
2.39294965548749
30
0
41
1
10
9.69562810894578
20
2.00929284674865
30
0
41
1
10
9.43016915717337
20
1.81864782839725
30
0
41
1
10
9.14544699101305
20
1.62214464711201
30
0
41
1
10
9.1266012934762
20
1.60917040407128
30
0
41
1
10
9.10775117257651
20
1.59623119034569
30
0
41
1
10
9.10460941238182
20
1.59407531331257
30
0
41
1
10
9.10350434782092
20
1.59342296310439
30
0
41
1
10
9.10153032646852
20
1.59184816166177
30
0
41
1
10
9.10233904488672
20
1.59043654032692
30
0
41
1
10
9.10556828471374
20
1.58566150847349
30
0
41
1
10
9.10937093101757
20
1.58279568648126
30
0
41
1
10
9.12024432410416
20
1.57395802514392
30
0
41
1
10
9.12791079483512
20
1.56850670901466
30
0
41
1
10
9.16652887828639
20
1.54162751582024
30
0
41
1
10
9.19863184802406
20
1.52164256465352
30
0
41
1
10
9.29510858866544
20
1.46195186071321
30
0
41
1
10
9.36024279487782
20
1.42333357256257
30
0
41
1
10
9.55617578267024
20
1.30842351592668
30
0
41
1
10
9.68772567043271
20
1.23336133902887
30
0
41
1
10
10.0831027938774
20
1.01023679403701
30
0
41
1
10
10.3478018952876
20
0.86434784108701
30
0
41
1
10
10.8767682436515
20
0.575738355492632
30
0
41
1
10
11.1416894820833
20
0.433555090557945
30
0
41
1
10
11.5370380364599
20
0.220988349775666
30
0
41
1
10
11.6685952338016
20
0.150353204092994
30
0
41
1
10
11.86442779883
20
0.044210435664894
30
0
41
1
10
11.9296165584583
20
0.0088585259539684
30
0
41
1
10
12.0094633533941
20
-0.0359209801785596
30
0
41
1
10
12.0253625120716
20
-0.0449101074542853
30
0
41
1
10
12.0486810274981
20
-0.0585673868719425
30
0
41
1
10
12.0563998368711
20
-0.0631370698602609
30
0
41
1
10
12.067411378249
20
-0.0701852446276519
30
0
41
1
10
12.0713801578393
20
-0.0725314871666001
30
0
41
1
10
12.0744903301494
20
-0.0757315705361066
30
0
41
1
10
12.0744628477165
20
-0.0763347987726775
30
0
41
1
10
12.0726346831031
20
-0.0766980904908792
30
0
41
1
10
12.0698925441648
20
-0.0772416835649494
30
0
41
1
10
12.0379048135604
20
-0.0835365094916369
30
0
41
1
10
12.006871631101
20
-0.0891329540107506
30
0
41
1
10
11.8610325048832
20
-0.11314284758322
30
0
41
1
10
11.744803052721
20
-0.12490692281429
30
0
41
1
10
11.5143276519676
20
-0.132967339945708
30
0
41
1
10
11.4001281753388
20
-0.129313112293147
30
0
41
1
10
11.1722121226619
20
-0.106427905991126
30
0
41
1
10
11.0585040884673
20
-0.0871965648026674
30
0
41
1
10
10.8295438512516
20
-0.0325911939502816
30
0
41
1
10
10.7136362023181
20
0.0030643349478794
30
0
41
1
10
10.4593493305429
20
0.098086939981755
30
0
41
1
10
10.3209316098903
20
0.160585102735354
30
0
41
1
10
10.1798950116713
20
0.233194583858364
30
0
0
SPLINE
5
CC
100
AcDbEntity
8
1
62
256
6
ByLayer
370
13
48
1
60
0
100
AcDbSpline
70
4
71
3
72
10
73
6
40
0
40
0
40
0
40
0
40
0.5
40
0.5
40
1
40
1
40
1
40
1
41
1
10
4.00399864999278
20
-3.39276214814737
30
0
41
1
10
4.01008965550426
20
-3.4024024256635
30
0
41
1
10
4.02291999837612
20
-3.41151717768383
30
0
41
1
10
4.06204682304983
20
-3.42792275206679
30
0
41
1
10
4.08821163162924
20
-3.43511331015699
30
0
41
1
10
4.12055884672336
20
-3.44055151429916
30
0
0
SPLINE
5
CD
100
AcDbEntity
8
1
62
256
6
ByLayer
370
13
48
1
60
0
100
AcDbSpline
70
4
71
3
72
8
73
4
40
0
40
0
40
0
40
0
40
1
40
1
40
1
40
1
41
1
10
4.12055884672336
20
-3.44055151429916
30
0
41
1
10
4.14478449706112
20
-3.4403688575056
30
0
41
1
10
4.17133968775011
20
-3.44636440958507
30
0
41
1
10
4.19860729526511
20
-3.45775666879285
30
0
0
SPLINE
5
CE
100
AcDbEntity
8
1
62
256
6
ByLayer
370
18
48
1
60
0
100
AcDbSpline
70
4
71
3
72
56
73
52
40
0
40
0
40
0
40
0
40
0.0776036556572006
40
0.0776036556572006
40
0.116405483485801
40
0.116405483485801
40
0.155207311314401
40
0.155207311314401
40
0.194009139143002
40
0.194009139143002
40
0.232810966971602
40
0.232810966971602
40
0.271612794800202
40
0.271612794800202
40
0.310414622628803
40
0.310414622628803
40
0.349216450457403
40
0.349216450457403
40
0.388018278286003
40
0.388018278286003
40
0.426820106114604
40
0.426820106114604
40
0.465621933943204
40
0.465621933943204
40
0.504423761771804
40
0.504423761771804
40
0.543225589600404
40
0.543225589600404
40
0.582027417429005
40
0.582027417429005
40
0.620829245257605
40
0.620829245257605
40
0.659631073086206
40
0.659631073086206
40
0.698432900914806
40
0.698432900914806
40
0.737234728743406
40
0.737234728743406
40
0.776036556572006
40
0.776036556572006
40
0.814838384400607
40
0.814838384400607
40
0.853640212229207
40
0.853640212229207
40
0.892442040057807
40
0.892442040057807
40
0.931243867886408
40
0.931243867886408
40
0.970045695715008
40
0.970045695715008
40
1
40
1
40
1
40
1
41
1
10
9.31918001608557
20
0.758071428295239
30
0
41
1
10
9.82291788841962
20
0.464520400591368
30
0
41
1
10
10.323056065868
20
0.169742144934588
30
0
41
1
10
11.0698965326908
20
-0.271723858025183
30
0
41
1
10
11.3182207395061
20
-0.418827776990952
30
0
41
1
10
11.815246534182
20
-0.709941187801917
30
0
41
1
10
12.0637490243249
20
-0.854319997815651
30
0
41
1
10
12.5607475134089
20
-1.1409664656716
30
0
41
1
10
12.8091432660523
20
-1.28338583630355
30
0
41
1
10
13.3067344257208
20
-1.56427541736485
30
0
41
1
10
13.5562800295074
20
-1.70225342964548
30
0
41
1
10
14.0567201902734
20
-1.97375130408571
30
0
41
1
10
14.3075196799246
20
-2.10750988665595
30
0
41
1
10
14.8107847805819
20
-2.36968970649895
30
0
41
1
10
15.0614604232198
20
-2.49692424941773
30
0
41
1
10
15.5617920230014
20
-2.74190757763
30
0
41
1
10
15.8113944279616
20
-2.86016200711285
30
0
41
1
10
16.3094763921551
20
-3.08868149715349
30
0
41
1
10
16.5577904354544
20
-3.19830847219112
30
0
41
1
10
17.0540765513122
20
-3.40730497039027
30
0
41
1
10
17.3023878563818
20
-3.5065031708796
30
0
41
1
10
17.7991733460463
20
-3.69555050025372
30
0
41
1
10
18.047597702051
20
-3.78552658536086
30
0
41
1
10
18.5449334008241
20
-3.95262389254216
30
0
41
1
10
18.7938453092469
20
-4.03048310038187
30
0
41
1
10
19.2936603552708
20
-4.17469283940574
30
0
41
1
10
19.5442639144733
20
-4.24159919364428
30
0
41
1
10
20.0471509332909
20
-4.36270681162796
30
0
41
1
10
20.2984499959731
20
-4.41607215066779
30
0
41
1
10
20.7985408036456
20
-4.50941952688123
30
0
41
1
10
21.0481780810463
20
-4.54934583080316
30
0
41
1
10
21.5464974746472
20
-4.61699816271647
30
0
41
1
10
21.7950891841819
20
-4.64368702042492
30
0
41
1
10
22.291462213245
20
-4.68246800048681
30
0
41
1
10
22.5393106901629
20
-4.69502462667401
30
0
41
1
10
23.0358502940586
20
-4.70755652095312
30
0
41
1
10
23.2842562266837
20
-4.70801947440629
30
0
41
1
10
23.7815879923447
20
-4.69220263677227
30
0
41
1
10
24.0304313749349
20
-4.67669234188944
30
0
41
1
10
24.5294015798347
20
-4.63305316976562
30
0
41
1
10
24.7797657937846
20
-4.60530484432016
30
0
41
1
10
25.2821594305861
20
-4.53614524187637
30
0
41
1
10
25.5341124385647
20
-4.49324852069472
30
0
41
1
10
26.0359703533152
20
-4.39434345058996
30
0
41
1
10
26.2865082650448
20
-4.33846932763933
30
0
41
1
10
26.7882365580109
20
-4.21591313733299
30
0
41
1
10
27.0391541316931
20
-4.14842579070864
30
0
41
1
10
27.541319693823
20
-3.99908080932423
30
0
41
1
10
27.7927246225795
20
-3.91777683277311
30
0
41
1
10
28.2380269628205
20
-3.76491838818416
30
0
41
1
10
28.431971631067
20
-3.69548396528836
30
0
41
1
10
28.6257865058408
20
-3.62255172175557
30
0
0
SPLINE
5
CF
100
AcDbEntity
8
1
62
256
6
ByLayer
370
18
48
1
60
0
100
AcDbSpline
70
4
71
3
72
30
73
26
40
0
40
0
40
0
40
0
40
0.0749318580086893
40
0.0749318580086893
40
0.159028961826081
40
0.159028961826081
40
0.243126065643473
40
0.243126065643473
40
0.327223169460865
40
0.327223169460865
40
0.411320273278256
40
0.411320273278256
40
0.495417377095648
40
0.495417377095648
40
0.57951448091304
40
0.57951448091304
40
0.663611584730432
40
0.663611584730432
40
0.747708688547824
40
0.747708688547824
40
0.831805792365216
40
0.831805792365216
40
0.915902896182608
40
0.915902896182608
40
1
40
1
40
1
40
1
41
1
10
48.3463779542617
20
4.7169134370366
30
0
41
1
10
48.5690889299961
20
4.71275451661927
30
0
41
1
10
48.7925805645495
20
4.70316619046784
30
0
41
1
10
49.2681938216301
20
4.67259528760457
30
0
41
1
10
49.5187616712817
20
4.64994143473189
30
0
41
1
10
50.0178494793083
20
4.58903954010748
30
0
41
1
10
50.2662981795664
20
4.55106121299653
30
0
41
1
10
50.763009120889
20
4.46245501855967
30
0
41
1
10
51.0111907186476
20
4.41176885733404
30
0
41
1
10
51.5071096568649
20
4.29809716179795
30
0
41
1
10
51.7548504723507
20
4.2351049880688
30
0
41
1
10
52.2501557367261
20
4.0973489026853
30
0
41
1
10
52.4980394759666
20
4.02296126432992
30
0
41
1
10
52.9949215154639
20
3.86229659267073
30
0
41
1
10
53.2438082645096
20
3.77571067692813
30
0
41
1
10
53.7426967152467
20
3.59024000111674
30
0
41
1
10
53.9925430706792
20
3.49133910461936
30
0
41
1
10
54.4947942402681
20
3.28354535162231
30
0
41
1
10
54.746233766479
20
3.17485625269941
30
0
41
1
10
55.2478656072139
20
2.9484922271904
30
0
41
1
10
55.4983389848374
20
2.8307333436741
30
0
41
1
10
55.998982523654
20
2.58680957028466
30
0
41
1
10
56.2495221164454
20
2.4611414965911
30
0
41
1
10
56.7515460835771
20
2.20282715662518
30
0
41
1
10
57.0033577138778
20
2.06974404497922
30
0
41
1
10
57.2539160052654
20
1.93411092403875
30
0
0
SPLINE
5
D0
100
AcDbEntity
8
1
62
256
6
ByLayer
370
13
48
1
60
0
100
AcDbSpline
70
4
71
3
72
22
73
18
40
0
40
0
40
0
40
0
40
0.116077076212238
40
0.116077076212238
40
0.232154152424475
40
0.232154152424475
40
0.464308304848948
40
0.464308304848948
40
0.696462457273421
40
0.696462457273421
40
0.812539533485658
40
0.812539533485658
40
0.870578071591776
40
0.870578071591776
40
0.928616609697894
40
0.928616609697894
40
1
40
1
40
1
40
1
41
1
10
4.19860729526511
20
-3.45775666879285
30
0
41
1
10
4.49889730330227
20
-3.58321621294925
30
0
41
1
10
4.79899103730713
20
-3.70101065140923
30
0
41
1
10
5.39963159486791
20
-3.920493958441
30
0
41
1
10
5.69991242267531
20
-4.02204185335543
30
0
41
1
10
6.59562433386034
20
-4.29910514518201
30
0
41
1
10
7.1882980713867
20
-4.44800510184675
30
0
41
1
10
8.37315580420804
20
-4.66962518631107
30
0
41
1
10
8.96517042266015
20
-4.7424847738323
30
0
41
1
10
9.85837938192122
20
-4.79188459972838
30
0
41
1
10
10.1569571644951
20
-4.79835615471004
30
0
41
1
10
10.6069302651125
20
-4.79275922466044
30
0
41
1
10
10.7571997895605
20
-4.78833184067943
30
0
41
1
10
11.0566211764576
20
-4.7744300626608
30
0
41
1
10
11.2060111061455
20
-4.76495472627855
30
0
41
1
10
11.5385449812961
20
-4.7382608617354
30
0
41
1
10
11.7215655971029
20
-4.71978151193707
30
0
41
1
10
11.9043112852154
20
-4.6976162072302
30
0
0
SPLINE
5
D1
100
AcDbEntity
8
1
62
256
6
ByLayer
370
18
48
1
60
0
100
AcDbSpline
70
4
71
3
72
24
73
20
40
0
40
0
40
0
40
0
40
0.0214082916332906
40
0.0214082916332906
40
0.0786494822577879
40
0.0786494822577879
40
0.135890672882286
40
0.135890672882286
40
0.364855435380282
40
0.364855435380282
40
0.593820197878277
40
0.593820197878277
40
0.708302579127278
40
0.708302579127278
40
0.765543769751779
40
0.765543769751779
40
0.822784960376281
40
0.822784960376281
40
1
40
1
40
1
40
1
41
1
10
47.7808955547474
20
0.0023615496117486
30
0
41
1
10
47.836572366681
20
-0.0313328747599826
30
0
41
1
10
47.8922825556753
20
-0.0650502698393041
30
0
41
1
10
48.0970802934985
20
-0.188993482901964
30
0
41
1
10
48.246388224615
20
-0.279335148665155
30
0
41
1
10
48.5456402585467
20
-0.460086776327842
30
0
41
1
10
48.695783027698
20
-0.550628482277943
30
0
41
1
10
49.4439248723028
20
-1.00009356454805
30
0
41
1
10
50.0372140304256
20
-1.35031714872858
30
0
41
1
10
51.2204016785088
20
-2.02156854274682
30
0
41
1
10
51.8102474458974
20
-2.34267122226802
30
0
41
1
10
52.6984775807903
20
-2.79320323094186
30
0
41
1
10
52.9952253133321
20
-2.93808976046748
30
0
41
1
10
53.4418807703088
20
-3.1466176100293
30
0
41
1
10
53.591030060498
20
-3.21464893641289
30
0
41
1
10
53.8899968492299
20
-3.347538637463
30
0
41
1
10
54.0400676631101
20
-3.41249970881708
30
0
41
1
10
54.6534333621758
20
-3.67042474310242
30
0
41
1
10
55.1136401255695
20
-3.84623688849717
30
0
41
1
10
55.5722500519126
20
-4.00160681996022
30
0
0
SPLINE
5
D2
100
AcDbEntity
8
1
62
256
6
ByLayer
370
13
48
1
60
0
100
AcDbSpline
70
4
71
3
72
16
73
12
40
0
40
0
40
0
40
0
40
0.380040189622853
40
0.380040189622853
40
0.53503014221714
40
0.53503014221714
40
0.690020094811426
40
0.690020094811426
40
0.845010047405713
40
0.845010047405713
40
1
40
1
40
1
40
1
41
1
10
55.5722509987364
20
-4.00160714072939
30
0
41
1
10
56.2987039746574
20
-4.24771810060636
30
0
41
1
10
57.0211502362511
20
-4.44253630085129
30
0
41
1
10
58.0427280509169
20
-4.6373191978517
30
0
41
1
10
58.3392750507868
20
-4.6843457992878
30
0
41
1
10
58.934403496873
20
-4.75889553217093
30
0
41
1
10
59.2332687218329
20
-4.78643359489612
30
0
41
1
10
59.8329857363193
20
-4.82111410993846
30
0
41
1
10
60.132283173592
20
-4.82818740559637
30
0
41
1
10
60.7306711988251
20
-4.82183333224495
30
0
41
1
10
61.0297759340791
20
-4.80808361275379
30
0
41
1
10
61.3291581311536
20
-4.78473221081279
30
0
0
SPLINE
5
D3
100
AcDbEntity
8
1
62
256
6
ByLayer
370
18
48
1
60
0
100
AcDbSpline
70
4
71
3
72
8
73
4
40
0
40
0
40
0
40
0
40
1
40
1
40
1
40
1
41
1
10
61.3474734826918
20
-4.69877164260407
30
0
41
1
10
61.321533335118
20
-4.71752030666619
30
0
41
1
10
61.2988653022179
20
-4.72697125218372
30
0
41
1
10
61.2795274775111
20
-4.72695940633051
30
0
0
SPLINE
5
D4
100
AcDbEntity
8
1
62
256
6
ByLayer
370
18
48
1
60
0
100
AcDbSpline
70
4
71
3
72
86
73
82
40
0
40
0
40
0
40
0
40
0.012823371083453
40
0.012823371083453
40
0.0365701542360245
40
0.0365701542360245
40
0.060316937388596
40
0.060316937388596
40
0.0840637205411675
40
0.0840637205411675
40
0.107810503693739
40
0.107810503693739
40
0.13155728684631
40
0.13155728684631
40
0.155304069998882
40
0.155304069998882
40
0.179050853151453
40
0.179050853151453
40
0.202797636304025
40
0.202797636304025
40
0.250291202609167
40
0.250291202609167
40
0.274037985761738
40
0.274037985761738
40
0.297784768914308
40
0.297784768914308
40
0.321531552066879
40
0.321531552066879
40
0.345278335219449
40
0.345278335219449
40
0.36902511837202
40
0.36902511837202
40
0.39277190152459
40
0.39277190152459
40
0.44026546782973
40
0.44026546782973
40
0.4640122509823
40
0.4640122509823
40
0.48775903413487
40
0.48775903413487
40
0.51150581728744
40
0.51150581728744
40
0.535252600440011
40
0.535252600440011
40
0.558999383592581
40
0.558999383592581
40
0.582746166745151
40
0.582746166745151
40
0.606492949897721
40
0.606492949897721
40
0.630239733050291
40
0.630239733050291
40
0.677733299355431
40
0.677733299355431
40
0.689606690931716
40
0.689606690931716
40
0.701480082508
40
0.701480082508
40
0.725226865660568
40
0.725226865660568
40
0.748973648813137
40
0.748973648813137
40
0.772720431965705
40
0.772720431965705
40
0.796467215118273
40
0.796467215118273
40
0.820213998270841
40
0.820213998270841
40
0.843960781423409
40
0.843960781423409
40
0.867707564575977
40
0.867707564575977
40
0.915201130881114
40
0.915201130881114
40
0.938947914033682
40
0.938947914033682
40
0.962694697186251
40
0.962694697186251
40
0.986441480338819
40
0.986441480338819
40
1
40
1
40
1
40
1
41
1
10
28.6344202446294
20
3.61772603251791
30
0
41
1
10
28.7668449114207
20
3.67334690310875
30
0
41
1
10
28.8993718293255
20
3.72762034051681
30
0
41
1
10
29.2774948205866
20
3.87867120520204
30
0
41
1
10
29.5237552463256
20
3.97208871585943
30
0
41
1
10
30.0183332113003
20
4.14596686954454
30
0
41
1
10
30.2648950367433
20
4.22648255719093
30
0
41
1
10
30.7561789630906
20
4.37530951878597
30
0
41
1
10
31.0006314246887
20
4.44379304603211
30
0
41
1
10
31.4886743451892
20
4.56770954357182
30
0
41
1
10
31.7329271963635
20
4.62275189910602
30
0
41
1
10
32.2212054637904
20
4.71977889300589
30
0
41
1
10
32.4652592936295
20
4.76174117003737
30
0
41
1
10
32.9527862202344
20
4.83255611828548
30
0
41
1
10
33.1961779935656
20
4.86135272422578
30
0
41
1
10
33.6853966767023
20
4.90473740390911
30
0
41
1
10
33.9307613542944
20
4.9195233637488
30
0
41
1
10
34.4225830182438
20
4.93520191728649
30
0
41
1
10
34.6691895551474
20
4.93606980041505
30
0
41
1
10
35.4093231605623
20
4.91693237510285
30
0
41
1
10
35.9011332900307
20
4.87610161078496
30
0
41
1
10
36.6339496687276
20
4.77398821705634
30
0
41
1
10
36.8771663668025
20
4.73288138384905
30
0
41
1
10
37.3649028456895
20
4.63817914690966
30
0
41
1
10
37.6090103514567
20
4.5844622356978
30
0
41
1
10
38.0972410180706
20
4.46409745271197
30
0
41
1
10
38.3412763099334
20
4.39737636537609
30
0
41
1
10
38.8294149545934
20
4.25063497939681
30
0
41
1
10
39.074387102767
20
4.17131199538943
30
0
41
1
10
39.5662688074827
20
4.00097740553241
30
0
41
1
10
39.8134130131991
20
3.90972416753886
30
0
41
1
10
40.3074979892625
20
3.71516813278038
30
0
41
1
10
40.5528304313769
20
3.61192596344892
30
0
41
1
10
41.2888628424006
20
3.29042569946813
30
0
41
1
10
41.778309803614
20
3.05924775542917
30
0
41
1
10
42.5084253201946
20
2.68458393212174
30
0
41
1
10
42.7519693899585
20
2.55613698529473
30
0
41
1
10
43.2401193634965
20
2.29327281950484
30
0
41
1
10
43.48451377649
20
2.15856811397126
30
0
41
1
10
43.9735534266395
20
1.8819389104452
30
0
41
1
10
44.2177960374128
20
1.73935588437075
30
0
41
1
10
44.7088893602703
20
1.45041001032112
30
0
41
1
10
44.9560679677538
20
1.30374829260904
30
0
41
1
10
45.4505482711695
20
1.00657345663987
30
0
41
1
10
45.6967393433948
20
0.856785896796765
30
0
41
1
10
46.186635147508
20
0.554164206100211
30
0
41
1
10
46.4309686867857
20
0.402378049138321
30
0
41
1
10
46.9198396852523
20
0.100192673607239
30
0
41
1
10
47.1640713384217
20
-0.050714331055417
30
0
41
1
10
47.6517269251688
20
-0.352817066709093
30
0
41
1
10
47.8947628432139
20
-0.504642671058122
30
0
41
1
10
48.6254695146187
20
-0.955936136726876
30
0
41
1
10
49.1153687335118
20
-1.25024502144677
30
0
41
1
10
49.7287634674887
20
-1.61380112207581
30
0
41
1
10
49.8514725879304
20
-1.68632651749388
30
0
41
1
10
50.0976583767079
20
-1.82987087716106
30
0
41
1
10
50.2212973430409
20
-1.90097276750129
30
0
41
1
10
50.5919350638
20
-2.11165796648177
30
0
41
1
10
50.8382802802498
20
-2.24838318852184
30
0
41
1
10
51.3290982411938
20
-2.51513294383866
30
0
41
1
10
51.5732493012292
20
-2.64558890312893
30
0
41
1
10
52.060995532642
20
-2.89786434624867
30
0
41
1
10
52.3051026884008
20
-3.01903012548149
30
0
41
1
10
52.7930364786636
20
-3.25263643098307
30
0
41
1
10
53.0369079064053
20
-3.36501438343839
30
0
41
1
10
53.5240408789933
20
-3.58128211463014
30
0
41
1
10
53.7673452075721
20
-3.6850661499933
30
0
41
1
10
54.2563516824823
20
-3.88068564011044
30
0
41
1
10
54.5015923723228
20
-3.97307008332291
30
0
41
1
10
54.9931436316093
20
-4.14727969958676
30
0
41
1
10
55.2396544482011
20
-4.22941958850623
30
0
41
1
10
55.9791232147578
20
-4.45742782148727
30
0
41
1
10
56.4705677667909
20
-4.58159188052156
30
0
41
1
10
57.2026899866993
20
-4.7297460494006
30
0
41
1
10
57.4457503984064
20
-4.77268012567944
30
0
41
1
10
57.933205320077
20
-4.84429472490763
30
0
41
1
10
58.1771530677867
20
-4.87323901814574
30
0
41
1
10
58.6650496994661
20
-4.91758877957233
30
0
41
1
10
58.9088700646118
20
-4.93300297501858
30
0
41
1
10
59.2920866675917
20
-4.94621675279433
30
0
41
1
10
59.431687905426
20
-4.94871584656485
30
0
41
1
10
59.5715984003859
20
-4.94892143012544
30
0
0
SPLINE
5
D5
100
AcDbEntity
8
1
62
256
6
ByLayer
370
18
48
1
60
0
100
AcDbSpline
70
4
71
3
72
24
73
20
40
0
40
0
40
0
40
0
40
0.124999999999993
40
0.124999999999993
40
0.187499999999991
40
0.187499999999991
40
0.249999999999989
40
0.249999999999989
40
0.374999999999987
40
0.374999999999987
40
0.499999999999986
40
0.499999999999986
40
0.624999999999985
40
0.624999999999985
40
0.687499999999986
40
0.687499999999986
40
0.749999999999988
40
0.749999999999988
40
1
40
1
40
1
40
1
41
1
10
57.2539160052655
20
1.93411092403886
30
0
41
1
10
57.2940406237564
20
1.7156443516231
30
0
41
1
10
57.3549815745785
20
1.49534611690802
30
0
41
1
10
57.4741701966844
20
1.16245460504544
30
0
41
1
10
57.5188149714241
20
1.05055154168232
30
0
41
1
10
57.6151135307727
20
0.830288872176396
30
0
41
1
10
57.66686273842
20
0.721544975707957
30
0
41
1
10
57.8318536801919
20
0.399068431867732
30
0
41
1
10
57.9549232760178
20
0.188864700714618
30
0
41
1
10
58.2230442710029
20
-0.222017294276725
30
0
41
1
10
58.3652363684391
20
-0.418498835981012
30
0
41
1
10
58.6624525837292
20
-0.797323506230526
30
0
41
1
10
58.8175189718393
20
-0.979620061100945
30
0
41
1
10
59.0584220574836
20
-1.24391603305304
30
0
41
1
10
59.140114585714
20
-1.33048152592889
30
0
41
1
10
59.3061253746176
20
-1.50071946063204
30
0
41
1
10
59.3905557043851
20
-1.58449111580802
30
0
41
1
10
59.8157691182809
20
-1.99345390631163
30
0
41
1
10
60.1677376347682
20
-2.29178319967912
30
0
41
1
10
60.5292847110874
20
-2.56669668647962
30
0
0
SPLINE
5
D6
100
AcDbEntity
8
1
62
256
6
ByLayer
370
18
48
1
60
0
100
AcDbSpline
70
4
71
3
72
18
73
14
40
0
40
0
40
0
40
0
40
0.25
40
0.25
40
0.5
40
0.5
40
0.625
40
0.625
40
0.75
40
0.75
40
0.875
40
0.875
40
1
40
1
40
1
40
1
41
1
10
60.9081730654403
20
1.15558280694614
30
0
41
1
10
60.9009901231686
20
1.18426146928482
30
0
41
1
10
60.8972542100759
20
1.2135633524752
30
0
41
1
10
60.8987110434485
20
1.27385952481458
30
0
41
1
10
60.9039304415745
20
1.30419801873097
30
0
41
1
10
60.9214697238496
20
1.34772893573432
30
0
41
1
10
60.9285630991059
20
1.3616150148309
30
0
41
1
10
60.9467669251313
20
1.38720722030962
30
0
41
1
10
60.9578175132598
20
1.39877106541908
30
0
41
1
10
60.9823436410832
20
1.41825537637672
30
0
41
1
10
60.9961566161616
20
1.42644862610126
30
0
41
1
10
61.0247451402489
20
1.43928788102841
30
0
41
1
10
61.0396355196423
20
1.4440763485116
30
0
41
1
10
61.0549992755082
20
1.44757250246329
30
0
0
SPLINE
5
D7
100
AcDbEntity
8
1
62
256
6
ByLayer
370
18
48
1
60
0
100
AcDbSpline
70
4
71
3
72
32
73
28
40
0
40
0
40
0
40
0
40
0.0624999999999999
40
0.0624999999999999
40
0.125
40
0.1875
40
0.1875
40
0.21875
40
0.21875
40
0.25
40
0.25
40
0.375
40
0.375
40
0.4375
40
0.4375
40
0.5
40
0.5
40
0.625
40
0.625
40
0.6875
40
0.6875
40
0.75
40
0.8125
40
0.8125
40
0.875
40
0.875
40
1
40
1
40
1
40
1
41
1
10
4.00150282302246
20
-3.3726665623611
30
0
41
1
10
4.00150664181285
20
-3.24892751351254
30
0
41
1
10
4.00151017230453
20
-3.11870972345076
30
0
41
1
10
4.0015166658836
20
-2.84988358688915
30
0
41
1
10
4.00152261331104
20
-2.57218582960914
30
0
41
1
10
4.00152774131851
20
-2.27712825756052
30
0
41
1
10
4.0015313746548
20
-2.04926109969313
30
0
41
1
10
4.00153255026027
20
-1.97220758958025
30
0
41
1
10
4.00153484571672
20
-1.81586758660848
30
0
41
1
10
4.00153596874276
20
-1.73634305080179
30
0
41
1
10
4.00154143351148
20
-1.33661794374851
30
0
41
1
10
4.00154534433884
20
-1.01009038750999
30
0
41
1
10
4.00155121417069
20
-0.510475509204269
30
0
41
1
10
4.00155316874026
20
-0.342286984256845
30
0
41
1
10
4.00155716437678
20
-0.0024988349416049
30
0
41
1
10
4.00155918468465
20
0.167275647152735
30
0
41
1
10
4.0015653502459
20
0.671243502690089
30
0
41
1
10
4.00156963646776
20
1.00227212629741
30
0
41
1
10
4.00157649600354
20
1.49126840175128
30
0
41
1
10
4.0015788559511
20
1.65322653683808
30
0
41
1
10
4.00158359016928
20
1.96713536226082
30
0
41
1
10
4.00158836464084
20
2.27295844483962
30
0
41
1
10
4.00159313249216
20
2.56287489432705
30
0
41
1
10
4.00159782654941
20
2.84471666776454
30
0
41
1
10
4.00160014954866
20
2.98235822493024
30
0
41
1
10
4.00160673826943
20
3.37561569280737
30
0
41
1
10
4.00161064198483
20
3.61223633620247
30
0
41
1
10
4.00161358307284
20
3.82378764360925
30
0
0
SPLINE
5
D8
100
AcDbEntity
8
1
62
256
6
ByLayer
370
18
48
1
60
0
100
AcDbSpline
70
4
71
3
72
38
73
34
40
0
40
0
40
0
40
0
40
0.124999999999998
40
0.124999999999998
40
0.249999999999995
40
0.249999999999995
40
0.312499999999997
40
0.312499999999997
40
0.374999999999999
40
0.374999999999999
40
0.499999999999996
40
0.499999999999996
40
0.624999999999994
40
0.624999999999994
40
0.687499999999993
40
0.687499999999993
40
0.718749999999992
40
0.718749999999992
40
0.749999999999992
40
0.749999999999992
40
0.81249999999999
40
0.81249999999999
40
0.843749999999992
40
0.843749999999992
40
0.874999999999994
40
0.874999999999994
40
0.906249999999995
40
0.906249999999995
40
0.937499999999997
40
0.937499999999997
40
0.968749999999998
40
0.968749999999998
40
1
40
1
40
1
40
1
41
1
10
57.2539160052655
20
1.93411092403869
30
0
41
1
10
57.4245494882712
20
1.78814528321016
30
0
41
1
10
57.5977002280219
20
1.64893458869085
30
0
41
1
10
57.9498055069006
20
1.38608743666984
30
0
41
1
10
58.1286903654018
20
1.26257541857001
30
0
41
1
10
58.3987478907894
20
1.09229379173453
30
0
41
1
10
58.4891752476544
20
1.03795211491484
30
0
41
1
10
58.6709028020675
20
0.934441173448079
30
0
41
1
10
58.7624332777498
20
0.885174627431866
30
0
41
1
10
59.0362181834783
20
0.746667843133622
30
0
41
1
10
59.2178160153392
20
0.66662764146065
30
0
41
1
10
59.5789652366008
20
0.533741307715388
30
0
41
1
10
59.7585199245229
20
0.480851343373615
30
0
41
1
10
60.0260563244128
20
0.425377581507064
30
0
41
1
10
60.1150288720374
20
0.410881387717211
30
0
41
1
10
60.2476884611359
20
0.395802607181622
30
0
41
1
10
60.2916126180352
20
0.39190751364572
30
0
41
1
10
60.3788476070981
20
0.3864634817715
30
0
41
1
10
60.4224072529503
20
0.384201340267651
30
0
41
1
10
60.5499824860434
20
0.387044441144496
30
0
41
1
10
60.6305569505492
20
0.401919036576942
30
0
41
1
10
60.7384801296632
20
0.449012085065363
30
0
41
1
10
60.7718696652642
20
0.468692391162364
30
0
41
1
10
60.832290549465
20
0.517849390239462
30
0
41
1
10
60.8593456376323
20
0.547657736336873
30
0
41
1
10
60.9027406106149
20
0.616707985996953
30
0
41
1
10
60.9193792621983
20
0.656903660589535
30
0
41
1
10
60.9414101018713
20
0.745125411545473
30
0
41
1
10
60.9470841485855
20
0.792367354684814
30
0
41
1
10
60.9494784063163
20
0.892099903574518
30
0
41
1
10
60.946093454913
20
0.943940418479855
30
0
41
1
10
60.9322049265675
20
1.04855383196824
30
0
41
1
10
60.9216644675502
20
1.10171694655796
30
0
41
1
10
60.9081730654403
20
1.15558280694617
30
0
0
SPLINE
5
D9
100
AcDbEntity
8
1
62
256
6
ByLayer
370
18
48
1
60
0
100
AcDbSpline
70
4
71
3
72
56
73
52
40
0
40
0
40
0
40
0
40
0.0726244860012207
40
0.0726244860012207
40
0.108936729001831
40
0.108936729001831
40
0.145248972002441
40
0.145248972002441
40
0.181561215003052
40
0.181561215003052
40
0.217873458003662
40
0.217873458003662
40
0.254185701004273
40
0.254185701004273
40
0.290497944004883
40
0.290497944004883
40
0.363122430006104
40
0.363122430006104
40
0.399434673006714
40
0.399434673006714
40
0.435746916007324
40
0.435746916007324
40
0.472059159007935
40
0.472059159007935
40
0.508371402008545
40
0.508371402008545
40
0.544683645009155
40
0.544683645009155
40
0.580995888009766
40
0.580995888009766
40
0.617308131010376
40
0.617308131010376
40
0.653620374010986
40
0.653620374010986
40
0.726244860012207
40
0.726244860012207
40
0.762557103012818
40
0.762557103012818
40
0.798869346013429
40
0.798869346013429
40
0.835181589014041
40
0.835181589014041
40
0.871493832014652
40
0.871493832014652
40
0.907806075015263
40
0.907806075015263
40
0.944118318015874
40
0.944118318015874
40
0.980430561016485
40
0.980430561016485
40
1
40
1
40
1
40
1
41
1
10
14.3301105830739
20
4.06868829183995
30
0
41
1
10
14.823960566198
20
3.89564082502767
30
0
41
1
10
15.3164180332382
20
3.70302940497052
30
0
41
1
10
16.050200995389
20
3.38310912543022
30
0
41
1
10
16.2936684768094
20
3.27082516275604
30
0
41
1
10
16.7817668650738
20
3.03919197453581
30
0
41
1
10
17.0260778624102
20
2.91949853499915
30
0
41
1
10
17.5147160284888
20
2.67176190859402
30
0
41
1
10
17.7590093213173
20
2.54366697957156
30
0
41
1
10
18.2474509092138
20
2.27864291155626
30
0
41
1
10
18.4924224674284
20
2.14289531681749
30
0
41
1
10
18.9844724869467
20
1.8658985259211
30
0
41
1
10
19.231539706155
20
1.72425553109113
30
0
41
1
10
19.7262695242315
20
1.43453589466881
30
0
41
1
10
19.9719044369098
20
1.2867607558785
30
0
41
1
10
20.7085429689942
20
0.842759873257194
30
0
41
1
10
21.1985689035247
20
0.544700241315041
30
0
41
1
10
21.9294132111993
20
0.0902686754506874
30
0
41
1
10
22.1730378470638
20
-0.0612690023019411
30
0
41
1
10
22.6615341349174
20
-0.362445604765924
30
0
41
1
10
22.906121953694
20
-0.512550758249432
30
0
41
1
10
23.3955802719494
20
-0.81244905941017
30
0
41
1
10
23.6400557665601
20
-0.962893234050711
30
0
41
1
10
24.1313282302597
20
-1.2601171164057
30
0
41
1
10
24.3785762420783
20
-1.40691507365284
30
0
41
1
10
24.8734862826392
20
-1.69667186076811
30
0
41
1
10
25.1199198277738
20
-1.83882934974469
30
0
41
1
10
25.6103034638606
20
-2.11840769407453
30
0
41
1
10
25.8547110393068
20
-2.25508657436717
30
0
41
1
10
26.3439048672737
20
-2.51956261618412
30
0
41
1
10
26.5883208244483
20
-2.64793127848236
30
0
41
1
10
27.0763835890687
20
-2.89753773882958
30
0
41
1
10
27.3196862731819
20
-3.01920453241888
30
0
41
1
10
28.0506822151706
20
-3.37031584220625
30
0
41
1
10
28.5408937698571
20
-3.58441714445405
30
0
41
1
10
29.2774948205822
20
-3.87867120520031
30
0
41
1
10
29.5237552463211
20
-3.97208871585775
30
0
41
1
10
30.0183332112956
20
-4.145966869543
30
0
41
1
10
30.2648950367385
20
-4.22648255718943
30
0
41
1
10
30.7561789630858
20
-4.37530951878458
30
0
41
1
10
31.0006314246838
20
-4.44379304603078
30
0
41
1
10
31.4886743451842
20
-4.56770954357063
30
0
41
1
10
31.7329271963584
20
-4.62275189910491
30
0
41
1
10
32.2212054637851
20
-4.71977889300493
30
0
41
1
10
32.4652592936241
20
-4.76174117003649
30
0
41
1
10
32.9527862202289
20
-4.83255611828477
30
0
41
1
10
33.19617799356
20
-4.86135272422518
30
0
41
1
10
33.6853966766966
20
-4.90473740390871
30
0
41
1
10
33.9307613542886
20
-4.91952336374851
30
0
41
1
10
34.309198756479
20
-4.93158739326549
30
0
41
1
10
34.4419273845222
20
-4.93378740162134
30
0
41
1
10
34.5747655595171
20
-4.93391952317839
30
0
0
SPLINE
5
DA
100
AcDbEntity
8
1
62
256
6
ByLayer
370
18
48
1
60
0
100
AcDbSpline
70
4
71
3
72
26
73
22
40
0
40
0
40
0
40
0
40
0.0502462822441565
40
0.0502462822441565
40
0.145221654019742
40
0.145221654019742
40
0.240197025795328
40
0.240197025795328
40
0.430147769346495
40
0.430147769346495
40
0.525123141122079
40
0.525123141122079
40
0.620098512897663
40
0.620098512897663
40
0.715073884673248
40
0.715073884673248
40
0.810049256448832
40
0.810049256448832
40
0.905024628224416
40
0.905024628224416
40
1
40
1
40
1
40
1
41
1
10
53.6245788542543
20
3.62286263749419
30
0
41
1
10
53.7534773870549
20
3.67771216807947
30
0
41
1
10
53.8824951353196
20
3.73113010069468
30
0
41
1
10
54.2563516824704
20
3.88068564010587
30
0
41
1
10
54.5015923723108
20
3.97307008331848
30
0
41
1
10
54.993143631597
20
4.14727969958267
30
0
41
1
10
55.239654448189
20
4.22941958850222
30
0
41
1
10
55.9791232147454
20
4.45742782148392
30
0
41
1
10
56.4705677667783
20
4.5815918805186
30
0
41
1
10
57.2026899866866
20
4.72974604939827
30
0
41
1
10
57.4457503983937
20
4.77268012567734
30
0
41
1
10
57.9332053200641
20
4.84429472490598
30
0
41
1
10
58.1771530677737
20
4.87323901814432
30
0
41
1
10
58.6650496994529
20
4.91758877957136
30
0
41
1
10
58.9088700645986
20
4.93300297501787
30
0
41
1
10
59.3967450252633
20
4.94982550113661
30
0
41
1
10
59.6416705949581
20
4.95117101310567
30
0
41
1
10
60.1333597528476
20
4.93983702599567
30
0
41
1
10
60.3803906686785
20
4.92713134545281
30
0
41
1
10
60.8742308040328
20
4.88732130092453
30
0
41
1
10
61.1200143699083
20
4.86013045316511
30
0
41
1
10
61.366441293595
20
4.82621756505307
30
0
0
SPLINE
5
DB
100
AcDbEntity
8
1
62
256
6
ByLayer
370
18
48
1
60
0
100
AcDbSpline
70
4
71
3
72
42
73
38
40
0
40
0
40
0
40
0
40
0.0212644282663966
40
0.0212644282663966
40
0.177045827164442
40
0.177045827164442
40
0.332827226062488
40
0.332827226062488
40
0.488608624960533
40
0.488608624960533
40
0.644390023858579
40
0.644390023858579
40
0.7222807233076
40
0.7222807233076
40
0.732017060738728
40
0.732017060738728
40
0.741753398169855
40
0.741753398169855
40
0.751489735600982
40
0.751489735600982
40
0.756357904316546
40
0.756357904316546
40
0.76122607303211
40
0.76122607303211
40
0.800171422756606
40
0.800171422756606
40
0.878062122205602
40
0.878062122205602
40
0.917007471930101
40
0.917007471930101
40
0.9559528216546
40
0.9559528216546
40
0.975425496516849
40
0.975425496516849
40
0.994898171379098
40
0.994898171379098
40
1
40
1
40
1
40
1
41
1
10
8.56241677004161
20
-4.91826923553043
30
0
41
1
10
8.5154994181471
20
-4.91816773460465
30
0
41
1
10
8.46850970270691
20
-4.91796983768648
30
0
41
1
10
8.07666093666521
20
-4.91555933385473
30
0
41
1
10
7.72793380370828
20
-4.90859210669606
30
0
41
1
10
7.02167419516039
20
-4.8891694172668
30
0
41
1
10
6.6635958198859
20
-4.87670505329436
30
0
41
1
10
5.94045048388449
20
-4.85048553713747
30
0
41
1
10
5.57649541404783
20
-4.83679255736766
30
0
41
1
10
4.84349978176343
20
-4.81178110151177
30
0
41
1
10
4.47474828336217
20
-4.8004825239025
30
0
41
1
10
3.9200047608706
20
-4.78734414727913
30
0
41
1
10
3.73473274177917
20
-4.78358850630624
30
0
41
1
10
3.52588890060127
20
-4.78019279195081
30
0
41
1
10
3.50267829296638
20
-4.779826968989
30
0
41
1
10
3.45624556283792
20
-4.7791186538613
30
0
41
1
10
3.43286735833004
20
-4.77864541978195
30
0
41
1
10
3.38672167130571
20
-4.77937797341485
30
0
41
1
10
3.36339188205613
20
-4.78041660677002
30
0
41
1
10
3.3317025261166
20
-4.78353708225112
30
0
41
1
10
3.32187998140196
20
-4.78488124471056
30
0
41
1
10
3.30184754561122
20
-4.78738698355329
30
0
41
1
10
3.29185067846288
20
-4.78863878476901
30
0
41
1
10
3.20205642428726
20
-4.79989360090192
30
0
41
1
10
3.12337363098823
20
-4.8098353445194
30
0
41
1
10
2.89343810723443
20
-4.83885557475085
30
0
41
1
10
2.74774330965073
20
-4.85725122442761
30
0
41
1
10
2.54574164594382
20
-4.88099227942692
30
0
41
1
10
2.48095825205826
20
-4.88827448696566
30
0
41
1
10
2.35960777922622
20
-4.90068587418048
30
0
41
1
10
2.30369383348039
20
-4.90575091830306
30
0
41
1
10
2.22835832321331
20
-4.910997640891
30
0
41
1
10
2.2046740802316
20
-4.91235259565227
30
0
41
1
10
2.16047214439402
20
-4.91413363337062
30
0
41
1
10
2.13985704693997
20
-4.91455733718087
30
0
41
1
10
2.11645790849511
20
-4.91440413120873
30
0
41
1
10
2.11174065309294
20
-4.91433543919806
30
0
41
1
10
2.10716487420484
20
-4.9142290832857
30
0
0
SPLINE
5
DC
100
AcDbEntity
8
1
62
256
6
ByLayer
370
18
48
1
60
0
100
AcDbSpline
70
4
71
3
72
12
73
8
40
0
40
0
40
0
40
0
40
0.206108395810554
40
0.206108395810554
40
0.51010555229468
40
0.51010555229468
40
1
40
1
40
1
40
1
41
1
10
60.7696868194762
20
-4.72358290864906
30
0
41
1
10
60.3642774128106
20
-4.73222544810747
30
0
41
1
10
59.9589302179567
20
-4.7224054385419
30
0
41
1
10
58.9533044943548
20
-4.65249239486701
30
0
41
1
10
58.3593351330531
20
-4.57124261770863
30
0
41
1
10
56.8144677566925
20
-4.26401690233502
30
0
41
1
10
55.8663515015353
20
-3.97964728169239
30
0
41
1
10
54.9075790849087
20
-3.6126321695827
30
0
0
SPLINE
5
DD
100
AcDbEntity
8
1
62
256
6
ByLayer
370
13
48
1
60
0
100
AcDbSpline
70
4
71
3
72
26
73
22
40
0
40
0
40
0
40
0
40
0.0643570496163575
40
0.0643570496163575
40
0.105771859213617
40
0.105771859213617
40
0.147186668810876
40
0.147186668810876
40
0.230016288005392
40
0.230016288005392
40
0.395675526394426
40
0.395675526394426
40
0.56133476478346
40
0.56133476478346
40
0.60274957438072
40
0.60274957438072
40
0.644164383977979
40
0.644164383977979
40
0.726994003172501
40
0.726994003172501
40
1
40
1
40
1
40
1
41
1
10
54.9075800187983
20
-3.61263252707269
30
0
41
1
10
54.676446464546
20
-3.52415533054184
30
0
41
1
10
54.4446936182187
20
-3.43087511697812
30
0
41
1
10
54.0624213487731
20
-3.26995329555078
30
0
41
1
10
53.9125426217495
20
-3.20508179730928
30
0
41
1
10
53.6138806015022
20
-3.07249554879206
30
0
41
1
10
53.4648685185543
20
-3.0046880959417
30
0
41
1
10
53.0185828563306
20
-2.79704875326084
30
0
41
1
10
52.7220259735357
20
-2.65304290868178
30
0
41
1
10
51.8342544580816
20
-2.20602192233417
30
0
41
1
10
51.2446042346132
20
-1.88833995473689
30
0
41
1
10
50.061822407922
20
-1.22600738267386
30
0
41
1
10
49.4687119539036
20
-0.88131825760982
30
0
41
1
10
48.7209152924025
20
-0.44020451523204
30
0
41
1
10
48.5709137624443
20
-0.35143680314377
30
0
41
1
10
48.2719653702657
20
-0.174335827371891
30
0
41
1
10
48.1227969964954
20
-0.0858609908576113
30
0
41
1
10
47.6760243097913
20
0.179024977592292
30
0
41
1
10
47.3791403629315
20
0.354865091916423
30
0
41
1
10
46.106535624511
20
1.1050975428752
30
0
41
1
10
45.1356607441891
20
1.66450767418007
30
0
41
1
10
44.1538204252492
20
2.18029327994674
30
0
0
SPLINE
5
DE
100
AcDbEntity
8
1
62
256
6
ByLayer
370
18
48
1
60
0
100
AcDbSpline
70
4
71
3
72
14
73
10
40
0
40
0
40
0
40
0
40
0.166126508620386
40
0.166126508620386
40
0.50759913793871
40
0.50759913793871
40
0.849071767257037
40
0.849071767257037
40
1
40
1
40
1
40
1
41
1
10
10.4803942168468
20
-4.69658315309098
30
0
41
1
10
10.1888345106804
20
-4.69645143833256
30
0
41
1
10
9.89855083742103
20
-4.68689907028019
30
0
41
1
10
9.01393319631572
20
-4.62947840060963
30
0
41
1
10
8.42217249034331
20
-4.55189006218387
30
0
41
1
10
7.23783213394262
20
-4.32285238072771
30
0
41
1
10
6.64540897772048
20
-4.1713326268044
30
0
41
1
10
5.78492107992381
20
-3.90285577216392
30
0
41
1
10
5.51986889163544
20
-3.81360211791593
30
0
41
1
10
5.25464955046564
20
-3.71808271441975
30
0
0
SPLINE
5
DF
100
AcDbEntity
8
1
62
256
6
ByLayer
370
13
48
1
60
0
100
AcDbSpline
70
4
71
3
72
10
73
6
40
0
40
0
40
0
40
0
40
0.103955204732642
40
0.103955204732642
40
1
40
1
40
1
40
1
41
1
10
5.25464954952699
20
-3.7180827140817
30
0
41
1
10
5.21984170547452
20
-3.70554658271689
30
0
41
1
10
5.18503098231554
20
-3.69290252763969
30
0
41
1
10
4.85016519079005
20
-3.5702496399791
30
0
41
1
10
4.55034120517268
20
-3.45258141854552
30
0
41
1
10
4.25033748240548
20
-3.32754798812985
30
0
0
SPLINE
5
E0
100
AcDbEntity
8
SK1
62
256
6
ByLayer
370
18
48
1
60
0
100
AcDbSpline
70
4
71
3
72
14
73
10
40
0
40
0
40
0
40
0
40
0.125
40
0.125
40
0.250000000000001
40
0.250000000000001
40
0.500000000000002
40
0.500000000000002
40
1
40
1
40
1
40
1
41
1
10
-38.85
20
-3.19392027561525
30
0
41
1
10
-38.85
20
-3.18544127474408
30
0
41
1
10
-38.8517453396944
20
-3.17513574003735
30
0
41
1
10
-38.8568901241517
20
-3.15433583171935
30
0
41
1
10
-38.860211966304
20
-3.14393339473531
30
0
41
1
10
-38.8714485682308
20
-3.11272189013099
30
0
41
1
10
-38.8802054040538
20
-3.0929923328413
30
0
41
1
10
-38.9082792076556
20
-3.03565583135188
30
0
41
1
10
-38.9286347141249
20
-3.00147527324251
30
0
41
1
10
-38.95
20
-2.97083419591758
30
0
0
SPLINE
5
E1
100
AcDbEntity
8
SK1
62
256
6
ByLayer
370
18
48
1
60
0
100
AcDbSpline
70
4
71
3
72
10
73
6
40
0
40
0
40
0
40
0
40
0.5
40
0.5
40
1
40
1
40
1
40
1
41
1
10
-38.95
20
-2.97083419591758
30
0
41
1
10
-39.1281002653425
20
-2.71541126201242
30
0
41
1
10
-39.3053068773952
20
-2.459602471615
30
0
41
1
10
-39.6562276857791
20
-1.9464769555895
30
0
41
1
10
-39.8300482945171
20
-1.68920617610013
30
0
41
1
10
-40
20
-1.430264903752
30
0
0
SPLINE
5
E2
100
AcDbEntity
8
SK1
62
256
6
ByLayer
370
18
48
1
60
0
100
AcDbSpline
70
4
71
3
72
10
73
6
40
0
40
0
40
0
40
0
40
0.5
40
0.5
40
1
40
1
40
1
40
1
41
1
10
-39.9999999999999
20
-2.93138539848471
30
0
41
1
10
-39.8301257758578
20
-3.19020861896084
30
0
41
1
10
-39.6563253118241
20
-3.44745352007376
30
0
41
1
10
-39.3053898261476
20
-3.96060285483264
30
0
41
1
10
-39.1281394681189
20
-4.21647553398668
30
0
41
1
10
-38.95
20
-4.47195469065008
30
0
0
SPLINE
5
E3
100
AcDbEntity
8
SK1
62
256
6
ByLayer
370
18
48
1
60
0
100
AcDbSpline
70
4
71
3
72
14
73
10
40
0
40
0
40
0
40
0
40
0.499999999999998
40
0.499999999999998
40
0.749999999999998
40
0.749999999999998
40
0.874999999999999
40
0.874999999999999
40
1
40
1
40
1
40
1
41
1
10
-38.9500000000001
20
-4.47195469065016
30
0
41
1
10
-38.9287234691649
20
-4.50246847971607
30
0
41
1
10
-38.9083432483059
20
-4.52933514092845
30
0
41
1
10
-38.880223151313
20
-4.56115691475966
30
0
41
1
10
-38.8713218079587
20
-4.57023385889445
30
0
41
1
10
-38.8602667834558
20
-4.57852251006133
30
0
41
1
10
-38.8569157654531
20
-4.58043450661739
30
0
41
1
10
-38.851744720606
20
-4.58090995271473
30
0
41
1
10
-38.8499999999999
20
-4.57937559625341
30
0
41
1
10
-38.8499999999999
20
-4.57495113076931
30
0
0
LINE
5
76
100
AcDbEntity
8
81
62
256
6
ByLayer
370
18
48
1
60
0
100
AcDbLine
10
63
20
0
30
0
11
68
21
0
31
0
39
0
210
0
220
0
230
1
0
LINE
5
77
100
AcDbEntity
8
1
62
256
6
ByLayer
370
18
48
1
60
0
100
AcDbLine
10
2.132967
20
4.91446
30
0
11
0.8
21
4.91366
31
0
39
0
210
0
220
0
230
1
0
LINE
5
79
100
AcDbEntity
8
1
62
256
6
ByLayer
370
18
48
1
60
0
100
AcDbLine
10
10.284863
20
4.919351
30
0
11
8.578661
21
4.918327
31
0
39
0
210
0
220
0
230
1
0
LINE
5
7A
100
AcDbEntity
8
1
62
256
6
ByLayer
370
18
48
1
60
0
100
AcDbLine
10
60.28473
20
4.949351
30
0
11
59.583816
21
4.94893
31
0
39
0
210
0
220
0
230
1
0
LINE
5
7B
100
AcDbEntity
8
1
62
256
6
ByLayer
370
18
48
1
60
0
100
AcDbLine
10
59.583816
20
-4.94893
30
0
11
60.284551
21
-4.949351
31
0
39
0
210
0
220
0
230
1
0
LINE
5
7C
100
AcDbEntity
8
1
62
256
6
ByLayer
370
18
48
1
60
0
100
AcDbLine
10
8.578661
20
-4.918327
30
0
11
10.28495
21
-4.919351
31
0
39
0
210
0
220
0
230
1
0
LINE
5
7D
100
AcDbEntity
8
1
62
256
6
ByLayer
370
18
48
1
60
0
100
AcDbLine
10
0.8
20
-4.91366
30
0
11
2.132967
21
-4.91446
31
0
39
0
210
0
220
0
230
1
0
LINE
5
7E
100
AcDbEntity
8
1
62
256
6
ByLayer
370
18
48
1
60
0
100
AcDbLine
10
0
20
-5
30
0
11
0.8
21
-4.91366
31
0
39
0
210
0
220
0
230
1
0
LINE
5
7F
100
AcDbEntity
8
1
62
256
6
ByLayer
370
18
48
1
60
0
100
AcDbLine
10
0.8
20
4.91366
30
0
11
0
21
5
31
0
39
0
210
0
220
0
230
1
0
LINE
5
80
100
AcDbEntity
8
1
62
256
6
ByLayer
370
18
48
1
60
0
100
AcDbLine
10
35.284189
20
4.934351
30
0
11
34.578671
21
4.933927
31
0
39
0
210
0
220
0
230
1
0
LINE
5
81
100
AcDbEntity
8
1
62
256
6
ByLayer
370
18
48
1
60
0
100
AcDbLine
10
34.578671
20
-4.933927
30
0
11
35.284314
21
-4.934351
31
0
39
0
210
0
220
0
230
1
0
LINE
5
82
100
AcDbEntity
8
SK1
62
256
6
ByLayer
370
18
48
1
60
0
100
AcDbLine
10
-38.845299
20
5
30
0
11
-40
21
3
31
0
39
0
210
0
220
0
230
1
0
LINE
5
84
100
AcDbEntity
8
SK1
62
256
6
ByLayer
370
18
48
1
60
0
100
AcDbLine
10
-40
20
-3
30
0
11
-38.845299
21
-5
31
0
39
0
210
0
220
0
230
1
0
LINE
5
85
100
AcDbEntity
8
SK1
62
256
6
ByLayer
370
18
48
1
60
0
100
AcDbLine
10
0
20
5
30
0
11
-38.845299
21
5
31
0
39
0
210
0
220
0
230
1
0
LINE
5
86
100
AcDbEntity
8
SK1
62
256
6
ByLayer
370
18
48
1
60
0
100
AcDbLine
10
-38.845299
20
-5
30
0
11
0
21
-5
31
0
39
0
210
0
220
0
230
1
0
LINE
5
87
100
AcDbEntity
8
SK4
62
256
6
ByLayer
370
18
48
0.05
60
0
100
AcDbLine
10
68
20
0
30
0
11
-45
21
0
31
0
39
0
210
0
220
0
230
1
0
LINE
5
89
100
AcDbEntity
8
4
62
256
6
ByLayer
370
18
48
0.05
60
0
100
AcDbLine
10
63
20
0
30
0
11
0
21
0
31
0
39
0
210
0
220
0
230
1
0
LINE
5
8B
100
AcDbEntity
8
80
62
256
6
ByLayer
370
18
48
1
60
0
100
AcDbLine
10
0
20
0
30
0
11
-5
21
0
31
0
39
0
210
0
220
0
230
1
0
LINE
5
8C
100
AcDbEntity
8
1
62
256
6
ByLayer
370
18
48
1
60
0
100
AcDbLine
10
10.735529
20
-0.074191
30
0
11
10.73559
21
-0.074229
31
0
39
0
210
0
220
0
230
1
0
LINE
5
8D
100
AcDbEntity
8
1
62
256
6
ByLayer
370
18
48
1
60
0
100
AcDbLine
10
62.990282
20
0.048382
30
0
11
63
21
0
31
0
39
0
210
0
220
0
230
1
0
LINE
5
8E
100
AcDbEntity
8
1
62
256
6
ByLayer
370
18
48
1
60
0
100
AcDbLine
10
63
20
0
30
0
11
61.279527
21
-4.726959
31
0
39
0
210
0
220
0
230
1
0
LINE
5
8F
100
AcDbEntity
8
1
62
256
6
ByLayer
370
18
48
1
60
0
100
AcDbLine
10
63
20
0
30
0
11
62.990282
21
-0.048382
31
0
39
0
210
0
220
0
230
1
0
LINE
5
90
100
AcDbEntity
8
1
62
256
6
ByLayer
370
18
48
1
60
0
100
AcDbLine
10
62.913032
20
-0.313578
30
0
11
62.767332
21
-0.891474
31
0
39
0
210
0
220
0
230
1
0
LINE
5
91
100
AcDbEntity
8
1
62
256
6
ByLayer
370
13
48
1
60
0
100
AcDbLine
10
62.767332
20
0.891474
30
0
11
61.939049
21
0.891474
31
0
39
0
210
0
220
0
230
1
0
LINE
5
92
100
AcDbEntity
8
1
62
256
6
ByLayer
370
13
48
1
60
0
100
AcDbLine
10
61.749142
20
0.556145
30
0
11
62.894477
21
-0.12342
31
0
39
0
210
0
220
0
230
1
0
LINE
5
93
100
AcDbEntity
8
1
62
256
6
ByLayer
370
13
48
1
60
0
100
AcDbLine
10
61.939049
20
0.891474
30
0
11
62.913032
21
0.313578
31
0
39
0
210
0
220
0
230
1
0
LINE
5
94
100
AcDbEntity
8
1
62
256
6
ByLayer
370
18
48
1
60
0
100
AcDbLine
10
0
20
-5
30
0
11
0
21
5
31
0
39
0
210
0
220
0
230
1
0
LINE
5
95
100
AcDbEntity
8
1
62
256
6
ByLayer
370
18
48
1
60
0
100
AcDbLine
10
60.529285
20
-2.566697
30
0
11
62.894477
21
-0.12342
31
0
39
0
210
0
220
0
230
1
0
LINE
5
96
100
AcDbEntity
8
1
62
256
6
ByLayer
370
18
48
1
60
0
100
AcDbLine
10
62.913032
20
0.313578
30
0
11
62.767332
21
0.891474
31
0
39
0
210
0
220
0
230
1
0
LINE
5
97
100
AcDbEntity
8
1
62
256
6
ByLayer
370
18
48
1
60
0
100
AcDbLine
10
0.8
20
4.91366
30
0
11
0.8
21
-4.91366
31
0
39
0
210
0
220
0
230
1
0
LINE
5
98
100
AcDbEntity
8
SK1
62
256
6
ByLayer
370
18
48
1
60
0
100
AcDbLine
10
0
20
-5
30
0
11
0
21
5
31
0
39
0
210
0
220
0
230
1
0
LINE
5
99
100
AcDbEntity
8
SK1
62
256
6
ByLayer
370
18
48
1
60
0
100
AcDbLine
10
-40
20
3
30
0
11
-40
21
-1.430265
31
0
39
0
210
0
220
0
230
1
0
LINE
5
9A
100
AcDbEntity
8
SK1
62
256
6
ByLayer
370
18
48
1
60
0
100
AcDbLine
10
-40
20
-3
30
0
11
-40
21
-2.931385
31
0
39
0
210
0
220
0
230
1
0
LINE
5
9B
100
AcDbEntity
8
SK1
62
256
6
ByLayer
370
13
48
1
60
0
100
AcDbLine
10
-38.95
20
-2.970721
30
0
11
-38.95
21
-4.471955
31
0
39
0
210
0
220
0
230
1
0
LINE
5
9C
100
AcDbEntity
8
SK1
62
256
6
ByLayer
370
18
48
1
60
0
100
AcDbLine
10
-40
20
-1.430228
30
0
11
-40
21
-2.931385
31
0
39
0
210
0
220
0
230
1
0
LINE
5
9D
100
AcDbEntity
8
SK1
62
256
6
ByLayer
370
18
48
1
60
0
100
AcDbLine
10
-38.845299
20
5
30
0
11
-38.845299
21
-5
31
0
39
0
210
0
220
0
230
1
0
LINE
5
9E
100
AcDbEntity
8
SK1
62
256
6
ByLayer
370
18
48
1
60
0
100
AcDbLine
10
-38.85
20
-4.574951
30
0
11
-38.85
21
-3.19392
31
0
39
0
210
0
220
0
230
1
0
MTEXT
5
E4
100
AcDbEntity
8
SK6
62
256
6
ByLayer
370
13
48
1
60
0
100
AcDbMText
10
13.629169
20
37.332694
30
0
210
0
220
0
230
1
1
\W0.7542;R840-0990-50-A1A1220
40
3.5
41
0
44
1.084337
50
0
71
8
72
5
7
iso_b_vert
0
DIMENSION
5
F1
100
AcDbEntity
8
SK2
62
256
6
ByLayer
370
13
48
1
60
0
100
AcDbDimension
2
DimnDraft3D1
10
61.31
20
-15.163398
30
0
11
29.060059
21
-15.163398
31
0
70
32
71
5
72
1
41
1
210
0
220
0
230
1
3
Standard
100
AcDbAlignedDimension
13
0
23
-1.5875
33
0
14
61.31
24
-6.5375
34
0
50
0
100
AcDbRotatedDimension
1001
ACAD
1000
DSTYLE
1002
{
1070
   279
1070
     0
1070
   172
1070
     1
1070
   173
1070
     1
1070
   340
1005
E5
1070
   271
1070
     2
1070
   272
1070
     2
1070
    77
1070
     1
1070
    73
1070
     0
1070
   171
1070
     3
1070
   274
1070
     4
1070
   177
1070
    35
1070
   176
1070
    35
1070
   178
1070
    35
1070
    48
1040
-0.005
1070
    41
1041
3.5
1070
   147
1041
1.75
1070
    42
1041
1.5875
1070
    44
1041
2.0
1070
   140
1041
3.5
1070
   343
1005
0
1070
   344
1005
0
1002
}
0
DIMENSION
5
FB
100
AcDbEntity
8
SK2
62
256
6
ByLayer
370
13
48
1
60
0
100
AcDbDimension
2
DimnDraft3D2
10
63
20
-33.692985
30
0
11
11.1513
21
-33.692985
31
0
70
32
71
5
72
1
41
1
210
0
220
0
230
1
3
Standard
100
AcDbAlignedDimension
13
-40
23
-6.5875
33
0
14
63
24
-1.5875
34
0
50
0
100
AcDbRotatedDimension
1001
ACAD
1000
DSTYLE
1002
{
1070
   279
1070
     0
1070
   172
1070
     1
1070
   173
1070
     1
1070
   340
1005
E5
1070
   271
1070
     2
1070
   272
1070
     2
1070
    77
1070
     1
1070
    73
1070
     0
1070
   171
1070
     3
1070
   274
1070
     4
1070
   177
1070
    35
1070
   176
1070
    35
1070
   178
1070
    35
1070
    48
1040
-0.005
1070
    41
1041
3.5
1070
   147
1041
1.75
1070
    42
1041
1.5875
1070
    44
1041
2.0
1070
   140
1041
3.5
1070
   343
1005
0
1070
   344
1005
0
1002
}
0
DIMENSION
5
105
100
AcDbEntity
8
SK2
62
256
6
ByLayer
370
13
48
1
60
0
100
AcDbDimension
2
DimnDraft3D3
10
63
20
16.559119
30
0
11
37.405
21
16.559119
31
0
70
32
71
5
72
1
41
1
210
0
220
0
230
1
3
Standard
100
AcDbAlignedDimension
13
11.81
23
6.5375
33
0
14
63
24
1.5875
34
0
50
0
100
AcDbRotatedDimension
1001
ACAD
1000
DSTYLE
1002
{
1070
   279
1070
     0
1070
   172
1070
     1
1070
   173
1070
     1
1070
   340
1005
E5
1070
   271
1070
     2
1070
   272
1070
     2
1070
    77
1070
     1
1070
    73
1070
     0
1070
   171
1070
     3
1070
   274
1070
     4
1070
   177
1070
    35
1070
   176
1070
    35
1070
   178
1070
    35
1070
    48
1040
-0.005
1070
    41
1041
3.5
1070
   147
1041
1.75
1070
    42
1041
1.5875
1070
    44
1041
2.0
1070
   140
1041
3.5
1070
   343
1005
0
1070
   344
1005
0
1002
}
0
DIMENSION
5
10F
100
AcDbEntity
8
SK2
62
256
6
ByLayer
370
13
48
1
60
0
100
AcDbDimension
2
DimnDraft3D4
10
61.31
20
-17.752503
30
0
11
72.981425
21
-17.752503
31
0
70
32
71
5
72
1
41
1
210
0
220
0
230
1
3
Standard
100
AcDbAlignedDimension
13
63
23
-1.5875
33
0
14
61.31
24
-6.5375
34
0
50
0
100
AcDbRotatedDimension
1001
ACAD
1000
DSTYLE
1002
{
1070
   279
1070
     0
1070
   172
1070
     1
1070
   173
1070
     1
1070
   340
1005
E5
1070
   271
1070
     2
1070
   272
1070
     2
1070
    77
1070
     1
1070
    73
1070
     0
1070
   171
1070
     3
1070
   274
1070
     4
1070
   177
1070
    35
1070
   176
1070
    35
1070
   178
1070
    35
1070
    48
1040
-0.005
1070
    41
1041
3.5
1070
   147
1041
1.75
1070
    42
1041
1.5875
1070
    44
1041
2.0
1070
   140
1041
3.5
1070
   343
1005
0
1070
   344
1005
0
1002
}
0
DIMENSION
5
119
100
AcDbEntity
8
SK2
62
256
6
ByLayer
370
13
48
1
60
0
100
AcDbDimension
2
DimnDraft3D5
10
61.31
20
-23.343428
30
0
11
8.070676
21
-23.343428
31
0
70
32
71
5
72
1
41
1
210
0
220
0
230
1
3
Standard
100
AcDbAlignedDimension
13
-40
23
-6.5875
33
0
14
61.31
24
-6.5375
34
0
50
0
100
AcDbRotatedDimension
1001
ACAD
1000
DSTYLE
1002
{
1070
   279
1070
     0
1070
   172
1070
     1
1070
   173
1070
     1
1070
   340
1005
E5
1070
   271
1070
     2
1070
   272
1070
     2
1070
    77
1070
     1
1070
    73
1070
     0
1070
   171
1070
     3
1070
   274
1070
     4
1070
   177
1070
    35
1070
   176
1070
    35
1070
   178
1070
    35
1070
    48
1040
-0.005
1070
    41
1041
3.5
1070
   147
1041
1.75
1070
    42
1041
1.5875
1070
    44
1041
2.0
1070
   140
1041
3.5
1070
   343
1005
0
1070
   344
1005
0
1002
}
0
DIMENSION
5
124
100
AcDbEntity
8
SK2
62
256
6
ByLayer
370
13
48
1
60
0
100
AcDbDimension
2
DimnDraft3D6
10
-50.625163
20
5
30
0
11
-51.250163
21
23.47418
31
0
70
33
71
5
72
1
41
1
210
0
220
0
230
1
3
Standard
100
AcDbAlignedDimension
13
-41.5875
23
-5
33
0
14
-41.5875
24
5
34
0
1001
ACAD
1000
DSTYLE
1002
{
1070
   279
1070
     0
1070
    74
1070
     0
1070
   173
1070
     1
1070
   340
1005
E5
1070
   271
1070
     3
1070
   272
1070
     2
1070
    77
1070
     1
1070
    73
1070
     0
1070
   171
1070
     3
1070
   274
1070
     4
1070
   177
1070
    35
1070
   176
1070
    35
1070
   178
1070
    35
1070
    48
1040
-0.005
1070
    41
1041
3.5
1070
   147
1041
1.75
1070
    42
1041
1.5875
1070
    44
1041
2.0
1070
   140
1041
3.5
1070
   343
1005
0
1070
   344
1005
0
1002
}
0
DIMENSION
5
12F
100
AcDbEntity
8
2
62
256
6
ByLayer
370
13
48
1
60
0
100
AcDbDimension
2
DimnDraft3D7
10
77.083343
20
4.95
30
0
11
72.458343
21
22.017266
31
0
70
33
71
5
72
1
41
1
210
0
220
0
230
1
3
Standard
100
AcDbAlignedDimension
13
62.8975
23
-4.95
33
0
14
62.8975
24
4.95
34
0
1001
ACAD
1000
DSTYLE
1002
{
1070
   279
1070
     0
1070
    74
1070
     0
1070
   173
1070
     1
1070
   340
1005
E5
1070
   271
1070
     3
1070
   272
1070
     2
1070
    77
1070
     1
1070
    73
1070
     0
1070
   171
1070
     3
1070
   274
1070
     4
1070
   177
1070
    35
1070
   176
1070
    35
1070
   178
1070
    35
1070
    48
1040
-0.005
1070
    41
1041
3.5
1070
   147
1041
1.75
1070
    42
1041
1.5875
1070
    44
1041
2.0
1070
   140
1041
3.5
1070
   343
1005
0
1070
   344
1005
0
1002
}
0
ENDSEC
0
SECTION
2
OBJECTS
0
DICTIONARY
5
19a
330
0
100
AcDbDictionary
280
0
281
1
3
ACAD_GROUP
350
19b
3
ACAD_MLINESTYLE
350
19c
0
DICTIONARY
5
19b
330
0
100
AcDbDictionary
280
0
281
1
0
DICTIONARY
5
19c
330
0
100
AcDbDictionary
280
0
281
1
3
Standard
350
18
0
MLINESTYLE
5
18
330
19c
100
AcDbMlineStyle
2
Standard
70
0
3

62
256
51
90
52
90
71
2
49
-0.5
62
256
6
ByLayer
49
0.5
62
256
6
ByLayer
0
RASTERVARIABLES
5
188
330

100
AcDbRasterVariables
90
0
70
1
71
1
72
1
0
ENDSEC
0
EOF
